  0
SECTION
  2
HEADER
  9
$ACADVER
  1
AC1015
  9
$ACADMAINTVER
 70
     6
  9
$DWGCODEPAGE
  3
ANSI_950
  9
$INSBASE
 10
0.0
 20
0.0
 30
0.0
  9
$EXTMIN
 10
0.0
 20
0.0
 30
0.0
  9
$EXTMAX
 10
297.0
 20
210.0
 30
0.0
  9
$LIMMIN
 10
0.0
 20
0.0
  9
$LIMMAX
 10
297.0
 20
210.0
  9
$ORTHOMODE
 70
     0
  9
$REGENMODE
 70
     1
  9
$FILLMODE
 70
     1
  9
$QTEXTMODE
 70
     0
  9
$MIRRTEXT
 70
     1
  9
$LTSCALE
 40
1.0
  9
$ATTMODE
 70
     1
  9
$TEXTSIZE
 40
2.5
  9
$TRACEWID
 40
1.0
  9
$TEXTSTYLE
  7
Standard
  9
$CLAYER
  8
0
  9
$CELTYPE
  6
ByLayer
  9
$CECOLOR
 62
   256
  9
$CELTSCALE
 40
1.0
  9
$DISPSILH
 70
     0
  9
$DIMSCALE
 40
1.0
  9
$DIMASZ
 40
2.0
  9
$DIMEXO
 40
1.0
  9
$DIMDLI
 40
3.75
  9
$DIMRND
 40
0.0
  9
$DIMDLE
 40
0.0
  9
$DIMEXE
 40
1.0
  9
$DIMTP
 40
0.0
  9
$DIMTM
 40
0.0
  9
$DIMTXT
 40
2.5
  9
$DIMCEN
 40
2.5
  9
$DIMTSZ
 40
0.0
  9
$DIMTOL
 70
     0
  9
$DIMLIM
 70
     0
  9
$DIMTIH
 70
     1
  9
$DIMTOH
 70
     1
  9
$DIMSE1
 70
     0
  9
$DIMSE2
 70
     0
  9
$DIMTAD
 70
     1
  9
$DIMZIN
 70
     0
  9
$DIMBLK
  1

  9
$DIMASO
 70
     1
  9
$DIMSHO
 70
     1
  9
$DIMPOST
  1

  9
$DIMAPOST
  1

  9
$DIMALT
 70
     0
  9
$DIMALTD
 70
     3
  9
$DIMALTF
 40
0.0393700787
  9
$DIMLFAC
 40
1.0
  9
$DIMTOFL
 70
     1
  9
$DIMTVP
 40
0.0
  9
$DIMTIX
 70
     0
  9
$DIMSOXD
 70
     0
  9
$DIMSAH
 70
     0
  9
$DIMBLK1
  1

  9
$DIMBLK2
  1

  9
$DIMSTYLE
  2
ISO-25
  9
$DIMCLRD
 70
     0
  9
$DIMCLRE
 70
     0
  9
$DIMCLRT
 70
     0
  9
$DIMTFAC
 40
1.0
  9
$DIMGAP
 40
1.0
  9
$DIMJUST
 70
     0
  9
$DIMSD1
 70
     0
  9
$DIMSD2
 70
     0
  9
$DIMTOLJ
 70
     0
  9
$DIMTZIN
 70
     0
  9
$DIMALTZ
 70
     0
  9
$DIMALTTZ
 70
     0
  9
$DIMUPT
 70
     0
  9
$DIMDEC
 70
     2
  9
$DIMTDEC
 70
     2
  9
$DIMALTU
 70
     2
  9
$DIMALTTD
 70
     3
  9
$DIMTXSTY
  7
Standard
  9
$DIMAUNIT
 70
     0
  9
$DIMADEC
 70
     1
  9
$DIMALTRND
 40
0.0
  9
$DIMAZIN
 70
     0
  9
$DIMDSEP
 70
    44
  9
$DIMATFIT
 70
     3
  9
$DIMFRAC
 70
     0
  9
$DIMLDRBLK
  1

  9
$DIMLUNIT
 70
     2
  9
$DIMLWD
 70
    -2
  9
$DIMLWE
 70
    -2
  9
$DIMTMOVE
 70
     0
  9
$LUNITS
 70
     2
  9
$LUPREC
 70
     2
  9
$SKETCHINC
 40
1.0
  9
$FILLETRAD
 40
10.0
  9
$AUNITS
 70
     0
  9
$AUPREC
 70
     1
  9
$MENU
  1
.
  9
$ELEVATION
 40
0.0
  9
$PELEVATION
 40
0.0
  9
$THICKNESS
 40
0.0
  9
$LIMCHECK
 70
     0
  9
$CHAMFERA
 40
0.0
  9
$CHAMFERB
 40
0.0
  9
$CHAMFERC
 40
0.0
  9
$CHAMFERD
 40
0.0
  9
$SKPOLY
 70
     0
  9
$TDCREATE
 40
2457449.580759942
  9
$TDUCREATE
 40
2457449.247426609
  9
$TDUPDATE
 40
2457449.580764282
  9
$TDUUPDATE
 40
2457449.247430949
  9
$TDINDWG
 40
0.0000000116
  9
$TDUSRTIMER
 40
0.0000000116
  9
$USRTIMER
 70
     1
  9
$ANGBASE
 50
0.0
  9
$ANGDIR
 70
     0
  9
$PDMODE
 70
     0
  9
$PDSIZE
 40
-1.0
  9
$PLINEWID
 40
0.0
  9
$SPLFRAME
 70
     0
  9
$SPLINETYPE
 70
     6
  9
$SPLINESEGS
 70
     8
  9
$HANDSEED
  5
39E
  9
$SURFTAB1
 70
     6
  9
$SURFTAB2
 70
     6
  9
$SURFTYPE
 70
     6
  9
$SURFU
 70
     6
  9
$SURFV
 70
     6
  9
$UCSBASE
  2

  9
$UCSNAME
  2

  9
$UCSORG
 10
0.0
 20
0.0
 30
0.0
  9
$UCSXDIR
 10
1.0
 20
0.0
 30
0.0
  9
$UCSYDIR
 10
0.0
 20
1.0
 30
0.0
  9
$UCSORTHOREF
  2

  9
$UCSORTHOVIEW
 70
     0
  9
$UCSORGTOP
 10
0.0
 20
0.0
 30
0.0
  9
$UCSORGBOTTOM
 10
0.0
 20
0.0
 30
0.0
  9
$UCSORGLEFT
 10
0.0
 20
0.0
 30
0.0
  9
$UCSORGRIGHT
 10
0.0
 20
0.0
 30
0.0
  9
$UCSORGFRONT
 10
0.0
 20
0.0
 30
0.0
  9
$UCSORGBACK
 10
0.0
 20
0.0
 30
0.0
  9
$PUCSBASE
  2

  9
$PUCSNAME
  2

  9
$PUCSORG
 10
0.0
 20
0.0
 30
0.0
  9
$PUCSXDIR
 10
1.0
 20
0.0
 30
0.0
  9
$PUCSYDIR
 10
0.0
 20
1.0
 30
0.0
  9
$PUCSORTHOREF
  2

  9
$PUCSORTHOVIEW
 70
     0
  9
$PUCSORGTOP
 10
0.0
 20
0.0
 30
0.0
  9
$PUCSORGBOTTOM
 10
0.0
 20
0.0
 30
0.0
  9
$PUCSORGLEFT
 10
0.0
 20
0.0
 30
0.0
  9
$PUCSORGRIGHT
 10
0.0
 20
0.0
 30
0.0
  9
$PUCSORGFRONT
 10
0.0
 20
0.0
 30
0.0
  9
$PUCSORGBACK
 10
0.0
 20
0.0
 30
0.0
  9
$USERI1
 70
     0
  9
$USERI2
 70
     0
  9
$USERI3
 70
     0
  9
$USERI4
 70
     0
  9
$USERI5
 70
     0
  9
$USERR1
 40
0.0
  9
$USERR2
 40
0.0
  9
$USERR3
 40
0.0
  9
$USERR4
 40
0.0
  9
$USERR5
 40
0.0
  9
$WORLDVIEW
 70
     1
  9
$SHADEDGE
 70
     3
  9
$SHADEDIF
 70
    70
  9
$TILEMODE
 70
     1
  9
$MAXACTVP
 70
    64
  9
$PINSBASE
 10
0.0
 20
0.0
 30
0.0
  9
$PLIMCHECK
 70
     0
  9
$PEXTMIN
 10
1.0000000000E+20
 20
1.0000000000E+20
 30
1.0000000000E+20
  9
$PEXTMAX
 10
-1.0000000000E+20
 20
-1.0000000000E+20
 30
-1.0000000000E+20
  9
$PLIMMIN
 10
0.0
 20
0.0
  9
$PLIMMAX
 10
420.0
 20
297.0
  9
$UNITMODE
 70
     0
  9
$VISRETAIN
 70
     1
  9
$PLINEGEN
 70
     0
  9
$PSLTSCALE
 70
     1
  9
$TREEDEPTH
 70
  3020
  9
$CMLSTYLE
  2
Standard
  9
$CMLJUST
 70
     0
  9
$CMLSCALE
 40
20.0
  9
$PROXYGRAPHICS
 70
     1
  9
$MEASUREMENT
 70
     1
  9
$CELWEIGHT
370
    -1
  9
$ENDCAPS
280
     0
  9
$JOINSTYLE
280
     0
  9
$LWDISPLAY
290
     1
  9
$INSUNITS
 70
     4
  9
$HYPERLINKBASE
  1

  9
$STYLESHEET
  1

  9
$XEDIT
290
     1
  9
$CEPSNTYPE
380
     0
  9
$PSTYLEMODE
290
     1
  9
$FINGERPRINTGUID
  2
{326DA9C7-CCE6-482F-9135-A465487A6F03}
  9
$VERSIONGUID
  2
{FAEB1C32-E019-11D5-929B-00C0DF256EC4}
  9
$EXTNAMES
290
     1
  9
$PSVPSCALE
 40
0.0
  9
$OLESTARTUP
290
     0
  0
ENDSEC
  0
SECTION
  2
CLASSES
  0
CLASS
  1
ACDBDICTIONARYWDFLT
  2
AcDbDictionaryWithDefault
  3
ObjectDBX Classes
 90
        0
280
     0
281
     0
  0
CLASS
  1
VISUALSTYLE
  2
AcDbVisualStyle
  3
ObjectDBX Classes
 90
     4095
280
     0
281
     0
  0
CLASS
  1
MATERIAL
  2
AcDbMaterial
  3
ObjectDBX Classes
 90
     1153
280
     0
281
     0
  0
CLASS
  1
SCALE
  2
AcDbScale
  3
ObjectDBX Classes
 90
     1153
280
     0
281
     0
  0
CLASS
  1
TABLESTYLE
  2
AcDbTableStyle
  3
ObjectDBX Classes
 90
     4095
280
     0
281
     0
  0
CLASS
  1
MLEADERSTYLE
  2
AcDbMLeaderStyle
  3
ACDB_MLEADERSTYLE_CLASS
 90
     4095
280
     0
281
     0
  0
CLASS
  1
SUN
  2
AcDbSun
  3
SCENEOE
 90
     1153
280
     0
281
     0
  0
CLASS
  1
ACDBPLACEHOLDER
  2
AcDbPlaceHolder
  3
ObjectDBX Classes
 90
        0
280
     0
281
     0
  0
CLASS
  1
LAYOUT
  2
AcDbLayout
  3
ObjectDBX Classes
 90
        0
280
     0
281
     0
  0
ENDSEC
  0
SECTION
  2
TABLES
  0
TABLE
  2
VPORT
  5
8
330
0
100
AcDbSymbolTable
 70
     1
  0
VPORT
  5
29
330
8
100
AcDbSymbolTableRecord
100
AcDbViewportTableRecord
  2
*Active
 70
     0
 10
0.0
 20
0.0
 11
1.0
 21
1.0
 12
148.5
 22
105.0
 13
0.0
 23
0.0
 14
10.0
 24
10.0
 15
10.0
 25
10.0
 16
0.0
 26
0.0
 36
1.0
 17
0.0
 27
0.0
 37
0.0
 40
210.0
 41
1.4142857143
 42
50.0
 43
0.0
 44
0.0
 50
0.0
 51
0.0
 71
     0
 72
  2000
 73
     1
 74
     3
 75
     0
 76
     0
 77
     0
 78
     0
281
     0
 65
     1
110
0.0
120
0.0
130
0.0
111
1.0
121
0.0
131
0.0
112
0.0
122
1.0
132
0.0
 79
     0
146
0.0
  0
ENDTAB
  0
TABLE
  2
LTYPE
  5
5
330
0
100
AcDbSymbolTable
 70
     6
  0
LTYPE
  5
14
330
5
100
AcDbSymbolTableRecord
100
AcDbLinetypeTableRecord
  2
ByBlock
 70
     0
  3

 72
    65
 73
     0
 40
0.0
  0
LTYPE
  5
15
330
5
100
AcDbSymbolTableRecord
100
AcDbLinetypeTableRecord
  2
ByLayer
 70
     0
  3

 72
    65
 73
     0
 40
0.0
  0
LTYPE
  5
16
330
5
100
AcDbSymbolTableRecord
100
AcDbLinetypeTableRecord
  2
Continuous
 70
     0
  3
Solid line
 72
    65
 73
     0
 40
0.0
  0
LTYPE
  5
6E
330
5
100
AcDbSymbolTableRecord
100
AcDbLinetypeTableRecord
  2
HIDDEN
 70
     0
  3
Hidden __ __ __ __ __ __ __ __ __ __ __ __ __ __
 72
    65
 73
     2
 40
1.905
 49
1.27
 74
     0
 49
-0.635
 74
     0
  0
LTYPE
  5
6F
330
5
100
AcDbSymbolTableRecord
100
AcDbLinetypeTableRecord
  2
PHANTOM
 70
     0
  3
Phantom ______  __  __  ______  __  __  ______
 72
    65
 73
     6
 40
12.7
 49
6.35
 74
     0
 49
-1.27
 74
     0
 49
1.27
 74
     0
 49
-1.27
 74
     0
 49
1.27
 74
     0
 49
-1.27
 74
     0
  0
LTYPE
  5
70
330
5
100
AcDbSymbolTableRecord
100
AcDbLinetypeTableRecord
  2
CENTER
 70
     0
  3
Center ____ _ ____ _ ____ _ ____ _ ____ _ ____
 72
    65
 73
     4
 40
10.16
 49
6.35
 74
     0
 49
-1.27
 74
     0
 49
1.27
 74
     0
 49
-1.27
 74
     0
  0
LTYPE
  5
71
330
5
100
AcDbSymbolTableRecord
100
AcDbLinetypeTableRecord
  2
CENTERX2
 70
     0
  3
Center (2x) ________  __  ________  __  _____
 72
    65
 73
     4
 40
20.32
 49
12.7
 74
     0
 49
-2.54
 74
     0
 49
2.54
 74
     0
 49
-2.54
 74
     0
  0
LTYPE
  5
72
330
5
100
AcDbSymbolTableRecord
100
AcDbLinetypeTableRecord
  2
DOT2
 70
     0
  3
Dot (.5x) ........................................
 72
    65
 73
     2
 40
0.635
 49
0.0
 74
     0
 49
-0.635
 74
     0
  0
ENDTAB
  0
TABLE
  2
LAYER
  5
2
330
0
100
AcDbSymbolTable
 70
     3
  0
LAYER
  5
10
330
2
100
AcDbSymbolTableRecord
100
AcDbLayerTableRecord
  2
0
 70
     0
 62
     7
  6
Continuous
370
    -3
390
F
  0
LAYER
  5
73
330
2
100
AcDbSymbolTableRecord
100
AcDbLayerTableRecord
  2
SLD-0
 70
     0
 62
   179
  6
Continuous
370
    15
390
F
  0
LAYER
  5
74
330
2
100
AcDbSymbolTableRecord
100
AcDbLayerTableRecord
  2
DIM
 70
     0
 62
     7
  6
Continuous
370
    -3
390
F
  0
ENDTAB
  0
TABLE
  2
STYLE
  5
3
330
0
100
AcDbSymbolTable
 70
     3
  0
STYLE
  5
11
330
3
100
AcDbSymbolTableRecord
100
AcDbTextStyleTableRecord
  2
Standard
 70
     0
 40
0.0
 41
1.0
 50
0.0
 71
     0
 42
2.5
  3
txt
  4

  0
STYLE
  5
C5
330
3
100
AcDbSymbolTableRecord
100
AcDbTextStyleTableRecord
  2
SLDTEXTSTYLE0
 70
     0
 40
0.0
 41
0.605
 50
0.0
 71
     0
 42
2.5
  3
TXT
  4

  0
STYLE
  5
CE
330
3
100
AcDbSymbolTableRecord
100
AcDbTextStyleTableRecord
  2
SLDTEXTSTYLE1
 70
     0
 40
0.0
 41
0.7
 50
0.0
 71
     0
 42
2.5
  3
TXT
  4

  0
ENDTAB
  0
TABLE
  2
VIEW
  5
6
330
0
100
AcDbSymbolTable
 70
     0
  0
ENDTAB
  0
TABLE
  2
UCS
  5
7
330
0
100
AcDbSymbolTable
 70
     0
  0
ENDTAB
  0
TABLE
  2
APPID
  5
9
330
0
100
AcDbSymbolTable
 70
     1
  0
APPID
  5
12
330
9
100
AcDbSymbolTableRecord
100
AcDbRegAppTableRecord
  2
ACAD
 70
     0
  0
ENDTAB
  0
TABLE
  2
DIMSTYLE
  5
A
330
0
100
AcDbSymbolTable
 70
     3
100
AcDbDimStyleTable
  0
DIMSTYLE
105
27
330
A
100
AcDbSymbolTableRecord
100
AcDbDimStyleTableRecord
  2
ISO-25
 70
     0
 41
2.5
 42
0.625
 43
3.75
 44
1.25
 73
     0
 74
     0
 77
     1
 78
     8
140
2.5
141
2.5
143
0.0393700787
147
0.625
171
     3
172
     1
178
     0
271
     2
272
     2
274
     3
278
    44
283
     0
284
     8
340
11
  0
DIMSTYLE
105
19C
102
{ACAD_REACTORS
330
19B
330
1E6
330
1F0
330
1FA
330
204
102
}
330
A
100
AcDbSymbolTableRecord
100
AcDbDimStyleTableRecord
  2
SLDDIMSTYLE0
 70
     0
 41
2.0
 44
0.0
 45
0.000000001
 73
     0
 74
     0
 77
     1
 78
    12
 79
     3
140
2.5
147
0.625
173
     1
178
     0
271
     2
272
     2
276
     2
284
    12
340
C5
  0
DIMSTYLE
105
214
330
A
100
AcDbSymbolTableRecord
100
AcDbDimStyleTableRecord
  2
SLDDIMSTYLE1
 70
     0
 41
2.0
 44
0.0
 45
0.000000001
146
2.0
147
0.0
173
     1
178
     0
271
     0
272
     0
276
     2
340
11
  0
ENDTAB
  0
TABLE
  2
BLOCK_RECORD
  5
1
330
0
100
AcDbSymbolTable
 70
     9
  0
BLOCK_RECORD
  5
1F
330
1
100
AcDbSymbolTableRecord
100
AcDbBlockTableRecord
  2
*Model_Space
340
22
  0
BLOCK_RECORD
  5
1B
330
1
100
AcDbSymbolTableRecord
100
AcDbBlockTableRecord
  2
*Paper_Space
340
1E
  0
BLOCK_RECORD
  5
23
330
1
100
AcDbSymbolTableRecord
100
AcDbBlockTableRecord
  2
*Paper_Space0
340
26
  0
BLOCK_RECORD
  5
C7
330
1
100
AcDbSymbolTableRecord
100
AcDbBlockTableRecord
  2
SW_NOTE_0
340
0
102
{BLKREFS
331
CD
102
}
  0
BLOCK_RECORD
  5
FE
330
1
100
AcDbSymbolTableRecord
100
AcDbBlockTableRecord
  2
SW_NOTE_1
340
0
102
{BLKREFS
331
103
102
}
  0
BLOCK_RECORD
  5
19D
330
1
100
AcDbSymbolTableRecord
100
AcDbBlockTableRecord
  2
_D
340
0
  0
BLOCK_RECORD
  5
1E7
330
1
100
AcDbSymbolTableRecord
100
AcDbBlockTableRecord
  2
_D_1
340
0
  0
BLOCK_RECORD
  5
1F1
330
1
100
AcDbSymbolTableRecord
100
AcDbBlockTableRecord
  2
_D_2
340
0
  0
BLOCK_RECORD
  5
1FB
330
1
100
AcDbSymbolTableRecord
100
AcDbBlockTableRecord
  2
_D_3
340
0
  0
BLOCK_RECORD
  5
205
330
1
100
AcDbSymbolTableRecord
100
AcDbBlockTableRecord
  2
_D_4
340
0
  0
BLOCK_RECORD
  5
20E
330
1
100
AcDbSymbolTableRecord
100
AcDbBlockTableRecord
  2
SW_NOTE_2
340
0
102
{BLKREFS
331
213
102
}
  0
ENDTAB
  0
ENDSEC
  0
SECTION
  2
BLOCKS
  0
BLOCK
  5
20
330
1F
100
AcDbEntity
  8
0
100
AcDbBlockBegin
  2
*Model_Space
 70
     0
 10
0.0
 20
0.0
 30
0.0
  3
*Model_Space
  1

  0
ENDBLK
  5
21
330
1F
100
AcDbEntity
  8
0
100
AcDbBlockEnd
  0
BLOCK
  5
1C
330
1B
100
AcDbEntity
 67
     1
  8
0
100
AcDbBlockBegin
  2
*Paper_Space
 70
     0
 10
0.0
 20
0.0
 30
0.0
  3
*Paper_Space
  1

  0
ENDBLK
  5
1D
330
1B
100
AcDbEntity
 67
     1
  8
0
100
AcDbBlockEnd
  0
BLOCK
  5
24
330
23
100
AcDbEntity
  8
0
100
AcDbBlockBegin
  2
*Paper_Space0
 70
     0
 10
0.0
 20
0.0
 30
0.0
  3
*Paper_Space0
  1

  0
ENDBLK
  5
25
330
23
100
AcDbEntity
  8
0
100
AcDbBlockEnd
  0
BLOCK
  5
C8
330
C7
100
AcDbEntity
  8
0
100
AcDbBlockBegin
  2
SW_NOTE_0
 70
     0
 10
0.0
 20
0.0
 30
0.0
  3
SW_NOTE_0
  1

  0
MTEXT
  5
CA
330
C7
100
AcDbEntity
  8
0
  6
Continuous
 62
     0
370
     0
100
AcDbMText
 10
0.0
 20
3.4106583948
 30
0.0
 40
2.6458333333
 41
0.0
 71
     1
 72
     1
  1
PROPRIETARY AND CONFIDENTIAL
  7
SLDTEXTSTYLE0
 73
     1
 44
1.0
  0
MTEXT
  5
CB
330
C7
100
AcDbEntity
  8
0
  6
Continuous
 62
     0
370
     0
100
AcDbMText
 10
0.0
 20
-0.08198348
 30
0.0
 40
1.8520833333
 41
0.0
 71
     1
 72
     1
  1
THE INFORMATION CONTAINED IN THIS DRAWING IS THE SOLE PROPERTY OF UNICE E-O SERVICES INC. ANY REPRODUCTION IN PART OR AS A WHOLE WITHOUT THE WRITTEN PERMISSION OF UNICE E-O SERVICES INC IS
  7
SLDTEXTSTYLE0
 73
     1
 44
1.0
  0
MTEXT
  5
CC
330
C7
100
AcDbEntity
  8
0
  6
Continuous
 62
     0
370
     0
100
AcDbMText
 10
0.0
 20
-2.5514278946
 30
0.0
 40
1.8520833333
 41
0.0
 71
     1
 72
     1
  1
PROHIBITED.
  7
SLDTEXTSTYLE0
 73
     1
 44
1.0
  0
ENDBLK
  5
C9
330
C7
100
AcDbEntity
  8
0
100
AcDbBlockEnd
  0
BLOCK
  5
FF
330
FE
100
AcDbEntity
  8
0
100
AcDbBlockBegin
  2
SW_NOTE_1
 70
     0
 10
0.0
 20
0.0
 30
0.0
  3
SW_NOTE_1
  1

  0
MTEXT
  5
101
330
FE
100
AcDbEntity
  8
SLD-0
 62
     0
100
AcDbMText
 10
0.0
 20
2.3874608764
 30
0.0
 40
1.8520833333
 41
0.0
 71
     1
 72
     1
  1
No.5, Andong Rd., Chung Li District,
  7
SLDTEXTSTYLE1
 73
     1
 44
1.0
  0
MTEXT
  5
102
330
FE
100
AcDbEntity
  8
SLD-0
 62
     0
100
AcDbMText
 10
0.0
 20
-0.0819835382
 30
0.0
 40
1.8520833333
 41
0.0
 71
     1
 72
     1
  1
Taoyuan City 32063, Taiwan, R.O.C.
  7
SLDTEXTSTYLE1
 73
     1
 44
1.0
  0
ENDBLK
  5
100
330
FE
100
AcDbEntity
  8
0
100
AcDbBlockEnd
  0
BLOCK
  5
19E
330
19D
100
AcDbEntity
  8
0
100
AcDbBlockBegin
  2
_D
 70
     0
 10
0.0
 20
0.0
 30
0.0
  3
_D
  1

  0
SOLID
  5
1A0
330
19D
100
AcDbEntity
  8
SLD-0
100
AcDbTrace
 10
135.6264549308
 20
127.0166694372
 30
0.0
 11
137.6264549308
 21
126.7666694372
 31
0.0
 12
137.6264549308
 22
127.2666694372
 32
0.0
 13
137.6264549308
 23
127.2666694372
 33
0.0
  0
SOLID
  5
1A1
330
19D
100
AcDbEntity
  8
SLD-0
100
AcDbTrace
 10
185.6264549308
 20
127.0166694372
 30
0.0
 11
183.6264549308
 21
127.2666694372
 31
0.0
 12
183.6264549308
 22
126.7666694372
 32
0.0
 13
183.6264549308
 23
126.7666694372
 33
0.0
  0
LINE
  5
1A2
330
19D
100
AcDbEntity
  8
SLD-0
100
AcDbLine
 10
135.6264549308
 20
121.0166694372
 30
0.0
 11
135.6264549308
 21
128.0166694372
 31
0.0
  0
LINE
  5
1A3
330
19D
100
AcDbEntity
  8
SLD-0
100
AcDbLine
 10
185.6264549308
 20
121.0166694372
 30
0.0
 11
185.6264549308
 21
128.0166694372
 31
0.0
  0
LINE
  5
1A4
330
19D
100
AcDbEntity
  8
SLD-0
100
AcDbLine
 10
135.6264549308
 20
127.0166694372
 30
0.0
 11
185.6264549308
 21
127.0166694372
 31
0.0
  0
MTEXT
  5
1A5
330
19D
100
AcDbEntity
  8
SLD-0
100
AcDbMText
 10
158.7167327059
 20
130.239338612
 30
0.0
 40
2.5
 41
0.0
 71
     1
 72
     1
  1
50
  7
SLDTEXTSTYLE0
 73
     1
 44
1.0
  0
ENDBLK
  5
19F
330
19D
100
AcDbEntity
  8
0
100
AcDbBlockEnd
  0
BLOCK
  5
1E8
330
1E7
100
AcDbEntity
  8
0
100
AcDbBlockBegin
  2
_D_1
 70
     0
 10
0.0
 20
0.0
 30
0.0
  3
_D_1
  1

  0
SOLID
  5
1EA
330
1E7
100
AcDbEntity
  8
SLD-0
100
AcDbTrace
 10
30.1789137905
 20
120.0166694372
 30
0.0
 11
29.9289137905
 21
118.0166694372
 31
0.0
 12
30.4289137905
 22
118.0166694372
 32
0.0
 13
30.4289137905
 23
118.0166694372
 33
0.0
  0
SOLID
  5
1EB
330
1E7
100
AcDbEntity
  8
SLD-0
100
AcDbTrace
 10
30.1789137905
 20
64.5166694372
 30
0.0
 11
30.4289137905
 21
66.5166694372
 31
0.0
 12
29.9289137905
 22
66.5166694372
 32
0.0
 13
29.9289137905
 23
66.5166694372
 33
0.0
  0
LINE
  5
1EC
330
1E7
100
AcDbEntity
  8
SLD-0
100
AcDbLine
 10
37.9790625484
 20
120.0166694372
 30
0.0
 11
29.1789137905
 21
120.0166694372
 31
0.0
  0
LINE
  5
1ED
330
1E7
100
AcDbEntity
  8
SLD-0
100
AcDbLine
 10
37.9790625484
 20
64.5166694372
 30
0.0
 11
29.1789137905
 21
64.5166694372
 31
0.0
  0
LINE
  5
1EE
330
1E7
100
AcDbEntity
  8
SLD-0
100
AcDbLine
 10
30.1789137905
 20
120.0166694372
 30
0.0
 11
30.1789137905
 21
64.5166694372
 31
0.0
  0
MTEXT
  5
1EF
330
1E7
100
AcDbEntity
  8
SLD-0
100
AcDbMText
 10
26.9562446157
 20
88.9246556311
 30
0.0
 40
2.5
 41
0.0
 71
     1
 72
     1
  1
55.5
  7
SLDTEXTSTYLE0
 11
-7.044195017643634E-15
 21
1.0
 31
0.0
 73
     1
 44
1.0
  0
ENDBLK
  5
1E9
330
1E7
100
AcDbEntity
  8
0
100
AcDbBlockEnd
  0
BLOCK
  5
1F2
330
1F1
100
AcDbEntity
  8
0
100
AcDbBlockBegin
  2
_D_2
 70
     0
 10
0.0
 20
0.0
 30
0.0
  3
_D_2
  1

  0
SOLID
  5
1F4
330
1F1
100
AcDbEntity
  8
SLD-0
100
AcDbTrace
 10
38.9790625484
 20
48.752336857
 30
0.0
 11
40.9790625484
 21
48.502336857
 31
0.0
 12
40.9790625484
 22
49.002336857
 32
0.0
 13
40.9790625484
 23
49.002336857
 33
0.0
  0
SOLID
  5
1F5
330
1F1
100
AcDbEntity
  8
SLD-0
100
AcDbTrace
 10
99.5790625484
 20
48.752336857
 30
0.0
 11
97.5790625484
 21
49.002336857
 31
0.0
 12
97.5790625484
 22
48.502336857
 32
0.0
 13
97.5790625484
 23
48.502336857
 33
0.0
  0
LINE
  5
1F6
330
1F1
100
AcDbEntity
  8
SLD-0
100
AcDbLine
 10
38.9790625484
 20
63.5166694372
 30
0.0
 11
38.9790625484
 21
47.752336857
 31
0.0
  0
LINE
  5
1F7
330
1F1
100
AcDbEntity
  8
SLD-0
100
AcDbLine
 10
99.5790625484
 20
63.5166694372
 30
0.0
 11
99.5790625484
 21
47.752336857
 31
0.0
  0
LINE
  5
1F8
330
1F1
100
AcDbEntity
  8
SLD-0
100
AcDbLine
 10
38.9790625484
 20
48.752336857
 30
0.0
 11
99.5790625484
 21
48.752336857
 31
0.0
  0
MTEXT
  5
1F9
330
1F1
100
AcDbEntity
  8
SLD-0
100
AcDbMText
 10
65.9370487423
 20
51.9750060318
 30
0.0
 40
2.5
 41
0.0
 71
     1
 72
     1
  1
60.6
  7
SLDTEXTSTYLE0
 73
     1
 44
1.0
  0
ENDBLK
  5
1F3
330
1F1
100
AcDbEntity
  8
0
100
AcDbBlockEnd
  0
BLOCK
  5
1FC
330
1FB
100
AcDbEntity
  8
0
100
AcDbBlockBegin
  2
_D_3
 70
     0
 10
0.0
 20
0.0
 30
0.0
  3
_D_3
  1

  0
SOLID
  5
1FE
330
1FB
100
AcDbEntity
  8
SLD-0
100
AcDbTrace
 10
38.9790625484
 20
40.9825431244
 30
0.0
 11
40.9790625484
 21
40.7325431244
 31
0.0
 12
40.9790625484
 22
41.2325431244
 32
0.0
 13
40.9790625484
 23
41.2325431244
 33
0.0
  0
SOLID
  5
1FF
330
1FB
100
AcDbEntity
  8
SLD-0
100
AcDbTrace
 10
116.9790625484
 20
40.9825431244
 30
0.0
 11
114.9790625484
 21
41.2325431244
 31
0.0
 12
114.9790625484
 22
40.7325431244
 32
0.0
 13
114.9790625484
 23
40.7325431244
 33
0.0
  0
LINE
  5
200
330
1FB
100
AcDbEntity
  8
SLD-0
100
AcDbLine
 10
38.9790625484
 20
63.5166694372
 30
0.0
 11
38.9790625484
 21
39.9825431244
 31
0.0
  0
LINE
  5
201
330
1FB
100
AcDbEntity
  8
SLD-0
100
AcDbLine
 10
116.9790625484
 20
84.1702271099
 30
0.0
 11
116.9790625484
 21
39.9825431244
 31
0.0
  0
LINE
  5
202
330
1FB
100
AcDbEntity
  8
SLD-0
100
AcDbLine
 10
38.9790625484
 20
40.9825431244
 30
0.0
 11
116.9790625484
 21
40.9825431244
 31
0.0
  0
MTEXT
  5
203
330
1FB
100
AcDbEntity
  8
SLD-0
100
AcDbMText
 10
76.0693403236
 20
44.2052122992
 30
0.0
 40
2.5
 41
0.0
 71
     1
 72
     1
  1
78
  7
SLDTEXTSTYLE0
 73
     1
 44
1.0
  0
ENDBLK
  5
1FD
330
1FB
100
AcDbEntity
  8
0
100
AcDbBlockEnd
  0
BLOCK
  5
206
330
205
100
AcDbEntity
  8
0
100
AcDbBlockBegin
  2
_D_4
 70
     0
 10
0.0
 20
0.0
 30
0.0
  3
_D_4
  1

  0
SOLID
  5
208
330
205
100
AcDbEntity
  8
SLD-0
100
AcDbTrace
 10
38.9790625484
 20
56.0559429657
 30
0.0
 11
40.9790625484
 21
55.8059429657
 31
0.0
 12
40.9790625484
 22
56.3059429657
 32
0.0
 13
40.9790625484
 23
56.3059429657
 33
0.0
  0
SOLID
  5
209
330
205
100
AcDbEntity
  8
SLD-0
100
AcDbTrace
 10
68.4790625484
 20
56.0559429657
 30
0.0
 11
66.4790625484
 21
56.3059429657
 31
0.0
 12
66.4790625484
 22
55.8059429657
 32
0.0
 13
66.4790625484
 23
55.8059429657
 33
0.0
  0
LINE
  5
20A
330
205
100
AcDbEntity
  8
SLD-0
100
AcDbLine
 10
38.9790625484
 20
63.5166694372
 30
0.0
 11
38.9790625484
 21
55.0559429657
 31
0.0
  0
LINE
  5
20B
330
205
100
AcDbEntity
  8
SLD-0
100
AcDbLine
 10
68.4790625484
 20
107.0166694372
 30
0.0
 11
68.4790625484
 21
55.0559429657
 31
0.0
  0
LINE
  5
20C
330
205
100
AcDbEntity
  8
SLD-0
100
AcDbLine
 10
38.9790625484
 20
56.0559429657
 30
0.0
 11
68.4790625484
 21
56.0559429657
 31
0.0
  0
MTEXT
  5
20D
330
205
100
AcDbEntity
  8
SLD-0
100
AcDbMText
 10
50.3870487423
 20
59.2786121405
 30
0.0
 40
2.5
 41
0.0
 71
     1
 72
     1
  1
29.5
  7
SLDTEXTSTYLE0
 73
     1
 44
1.0
  0
ENDBLK
  5
207
330
205
100
AcDbEntity
  8
0
100
AcDbBlockEnd
  0
BLOCK
  5
20F
330
20E
100
AcDbEntity
  8
0
100
AcDbBlockBegin
  2
SW_NOTE_2
 70
     0
 10
0.0
 20
0.0
 30
0.0
  3
SW_NOTE_2
  1

  0
LINE
  5
211
330
20E
100
AcDbEntity
  8
SLD-0
 62
     0
100
AcDbLine
 10
27.4423067386
 20
0.0
 30
0.0
 11
0.0
 21
0.0
 31
0.0
  0
MTEXT
  5
212
330
20E
100
AcDbEntity
  8
SLD-0
 62
     0
100
AcDbMText
 10
0.4231635058
 20
3.3171150355
 30
0.0
 40
2.5
 41
0.0
 71
     1
 72
     1
  1
1/4"-20 Set Screw
  7
SLDTEXTSTYLE0
 73
     1
 44
1.0
  0
ENDBLK
  5
210
330
20E
100
AcDbEntity
  8
0
100
AcDbBlockEnd
  0
ENDSEC
  0
SECTION
  2
ENTITIES
  0
HATCH
  5
75
330
1F
100
AcDbEntity
  8
DIM
 62
     7
100
AcDbHatch
 10
0.0
 20
0.0
 30
0.0
210
0.0
220
0.0
230
1.0
  2
SOLID
 70
     1
 71
     0
 91
        1
 92
        0
 93
       10
 72
     2
 10
192.3134032382553
 20
35.23611498956974
 40
3.045751395731247
 50
249.2112209143416
 51
308.9221353953371
 73
     1
 72
     1
 10
194.2269381994899
 20
32.86651892341587
 11
195.191757860707
 21
32.01923213977352
 72
     1
 10
195.191757860707
 20
32.01923213977352
 11
191.9816178875512
 21
28.90219242701112
 72
     1
 10
191.9816178875512
 20
28.90219242701112
 11
191.0408174320573
 21
29.71218949712112
 72
     1
 10
191.0408174320573
 20
29.71218949712112
 11
191.6718693524724
 21
30.32808988759214
 72
     1
 10
191.6718693524724
 20
30.32808988759214
 11
187.6626670422768
 21
33.81269372786683
 72
     2
 10
188.6776084718175
 20
34.96025410362734
 40
1.531992467805808
 50
131.4906380929588
 51
229.7089352075133
 73
     0
 72
     1
 10
187.686913624302
 20
36.12881075202738
 11
188.9935418791837
 21
37.3903978285349
 72
     1
 10
188.9935418791837
 20
37.3903978285349
 11
190.0087357265861
 21
36.49486592771711
 72
     2
 10
191.9820060299588
 20
34.84747324032232
 40
2.570544369711283
 50
140.1430462780655
 51
253.045252507401
 73
     1
 97
        0
 75
     0
 76
     1
 98
        1
 10
0.0
 20
0.0
  0
HATCH
  5
76
330
1F
100
AcDbEntity
  8
DIM
 62
     1
100
AcDbHatch
 10
0.0
 20
0.0
 30
0.0
210
0.0
220
0.0
230
1.0
  2
SOLID
 70
     1
 71
     0
 91
        1
 92
        0
 93
       10
 72
     2
 10
192.4465686772192
 20
34.4819153508677
 40
3.18163670452787
 50
234.1674444878509
 51
314.4407074583991
 73
     0
 72
     2
 10
192.7642249679437
 20
35.02273715634588
 40
2.57756748834625
 50
317.8184992995781
 51
398.056471157308
 73
     0
 72
     1
 10
194.7938108109912
 20
33.43382700700424
 11
195.779259703974
 21
32.57513006711474
 72
     1
 10
195.779259703974
 20
32.57513006711474
 11
197.0209410187677
 21
33.77956300952197
 72
     2
 10
196.1275486931056
 20
35.00750974134289
 40
1.518552937418266
 50
306.0377529468128
 51
403.4396461533869
 73
     1
 72
     1
 10
197.2301685577779
 20
36.05165171338103
 11
193.1034126994346
 21
39.64082798201499
 72
     1
 10
193.1034126994346
 20
39.64082798201499
 11
193.7276640013619
 21
40.24988641285231
 72
     1
 10
193.7276640013619
 20
40.24988641285231
 11
192.7971574911778
 21
41.08007863269685
 72
     1
 10
192.7971574911778
 20
41.08007863269685
 11
189.561572042768
 21
37.95315838608273
 72
     1
 10
189.561572042768
 20
37.95315838608273
 11
190.5839799201165
 21
37.06136785896194
 97
        0
 75
     0
 76
     1
 98
        1
 10
0.0
 20
0.0
  0
LINE
  5
77
330
1F
100
AcDbEntity
  8
0
  6
Continuous
 62
     7
370
     0
100
AcDbLine
 10
167.8593775185
 20
17.7745192513
 30
0.0
 11
168.8593775185
 21
17.7745192513
 31
0.0
  0
LINE
  5
78
330
1F
100
AcDbEntity
  8
0
  6
Continuous
 62
     7
370
     0
100
AcDbLine
 10
164.8593775185
 20
17.7745192513
 30
0.0
 11
167.3593775185
 21
17.7745192513
 31
0.0
  0
LINE
  5
79
330
1F
100
AcDbEntity
  8
0
  6
Continuous
 62
     7
370
     0
100
AcDbLine
 10
181.3593775185
 20
15.2745192513
 30
0.0
 11
181.3593775185
 21
20.2745192513
 31
0.0
  0
LINE
  5
7A
330
1F
100
AcDbEntity
  8
0
  6
Continuous
 62
     7
370
     0
100
AcDbLine
 10
174.3593775185
 20
16.2745192513
 30
0.0
 11
181.3593775185
 21
15.2745192513
 31
0.0
  0
LINE
  5
7B
330
1F
100
AcDbEntity
  8
0
  6
Continuous
 62
     7
370
     0
100
AcDbLine
 10
168.3593775185
 20
16.7745192513
 30
0.0
 11
168.3593775185
 21
14.2745192513
 31
0.0
  0
LINE
  5
7C
330
1F
100
AcDbEntity
  8
0
  6
Continuous
 62
     7
370
     0
100
AcDbLine
 10
181.3593775185
 20
20.2745192513
 30
0.0
 11
174.3593775185
 21
19.2745192513
 31
0.0
  0
LINE
  5
7D
330
1F
100
AcDbEntity
  8
0
  6
Continuous
 62
     7
370
     0
100
AcDbLine
 10
173.3593775185
 20
17.7745192513
 30
0.0
 11
182.3593775185
 21
17.7745192513
 31
0.0
  0
LINE
  5
7E
330
1F
100
AcDbEntity
  8
0
  6
Continuous
 62
     7
370
     0
100
AcDbLine
 10
168.3593775185
 20
18.2745192513
 30
0.0
 11
168.3593775185
 21
17.2745192513
 31
0.0
  0
LINE
  5
7F
330
1F
100
AcDbEntity
  8
0
  6
Continuous
 62
     7
370
     0
100
AcDbLine
 10
169.3593775185
 20
17.7745192513
 30
0.0
 11
171.8593775185
 21
17.7745192513
 31
0.0
  0
LINE
  5
80
330
1F
100
AcDbEntity
  8
0
  6
Continuous
 62
     7
370
     0
100
AcDbLine
 10
168.3593775185
 20
21.2745192513
 30
0.0
 11
168.3593775185
 21
18.7745192513
 31
0.0
  0
LINE
  5
81
330
1F
100
AcDbEntity
  8
0
  6
Continuous
 62
     7
370
     0
100
AcDbLine
 10
174.3593775185
 20
19.2745192513
 30
0.0
 11
174.3593775185
 21
16.2745192513
 31
0.0
  0
LINE
  5
82
330
1F
100
AcDbEntity
  8
0
370
     0
100
AcDbLine
 10
195.1917578607
 20
32.0192321398
 30
0.0
 11
191.9816178876
 21
28.902192427
 31
0.0
  0
LINE
  5
83
330
1F
100
AcDbEntity
  8
0
370
     0
100
AcDbLine
 10
191.9816178876
 20
28.902192427
 30
0.0
 11
191.0408174321
 21
29.7121894971
 31
0.0
  0
LINE
  5
84
330
1F
100
AcDbEntity
  8
0
370
     0
100
AcDbLine
 10
191.0408174321
 20
29.7121894971
 30
0.0
 11
191.6718693525
 21
30.3280898876
 31
0.0
  0
LINE
  5
85
330
1F
100
AcDbEntity
  8
0
370
     0
100
AcDbLine
 10
187.6626670423
 20
33.8126937279
 30
0.0
 11
191.6718693525
 21
30.3280898876
 31
0.0
  0
LINE
  5
86
330
1F
100
AcDbEntity
  8
0
370
     0
100
AcDbLine
 10
188.9935418792
 20
37.3903978285
 30
0.0
 11
187.6869136243
 21
36.128810752
 31
0.0
  0
LINE
  5
87
330
1F
100
AcDbEntity
  8
0
370
     0
100
AcDbLine
 10
188.9935418792
 20
37.3903978285
 30
0.0
 11
190.0087357266
 21
36.4948659277
 31
0.0
  0
LINE
  5
88
330
1F
100
AcDbEntity
  8
0
370
     0
100
AcDbLine
 10
194.2269381995
 20
32.8665189234
 30
0.0
 11
195.1917578607
 21
32.0192321398
 31
0.0
  0
LINE
  5
89
330
1F
100
AcDbEntity
  8
0
 62
     1
370
     0
100
AcDbLine
 10
190.5839799201
 20
37.061367859
 30
0.0
 11
189.5615720428
 21
37.9531583861
 31
0.0
  0
LINE
  5
8A
330
1F
100
AcDbEntity
  8
0
 62
     1
370
     0
100
AcDbLine
 10
189.5615720428
 20
37.9531583861
 30
0.0
 11
192.7971574912
 21
41.0800786327
 31
0.0
  0
LINE
  5
8B
330
1F
100
AcDbEntity
  8
0
 62
     1
370
     0
100
AcDbLine
 10
192.7971574912
 20
41.0800786327
 30
0.0
 11
193.7276640014
 21
40.2498864129
 31
0.0
  0
LINE
  5
8C
330
1F
100
AcDbEntity
  8
0
 62
     1
370
     0
100
AcDbLine
 10
193.7276640014
 20
40.2498864129
 30
0.0
 11
193.1034126994
 21
39.640827982
 31
0.0
  0
LINE
  5
8D
330
1F
100
AcDbEntity
  8
0
 62
     1
370
     0
100
AcDbLine
 10
193.1034126994
 20
39.640827982
 30
0.0
 11
197.2301685578
 21
36.0516517134
 31
0.0
  0
LINE
  5
8E
330
1F
100
AcDbEntity
  8
0
 62
     1
370
     0
100
AcDbLine
 10
194.793810811
 20
33.433827007
 30
0.0
 11
195.779259704
 21
32.5751300671
 31
0.0
  0
LINE
  5
8F
330
1F
100
AcDbEntity
  8
0
 62
     1
370
     0
100
AcDbLine
 10
195.779259704
 20
32.5751300671
 30
0.0
 11
197.0209410188
 21
33.7795630095
 31
0.0
  0
LINE
  5
90
330
1F
100
AcDbEntity
  8
0
  6
Continuous
 62
     7
370
     0
100
AcDbLine
 10
185.6907965209
 20
13.1152464079
 30
0.0
 11
285.6907965209
 21
13.1152464079
 31
0.0
  0
LINE
  5
91
330
1F
100
AcDbEntity
  8
0
  6
Continuous
 62
     7
370
     0
100
AcDbLine
 10
185.6907965209
 20
18.1152464079
 30
0.0
 11
235.6907965209
 21
18.1152464079
 31
0.0
  0
LINE
  5
92
330
1F
100
AcDbEntity
  8
0
  6
Continuous
 62
     7
370
     0
100
AcDbLine
 10
185.6907965209
 20
23.1152464079
 30
0.0
 11
235.6907965209
 21
23.1152464079
 31
0.0
  0
LINE
  5
93
330
1F
100
AcDbEntity
  8
0
  6
Continuous
 62
     7
370
     0
100
AcDbLine
 10
185.6907965209
 20
28.1152464079
 30
0.0
 11
285.6907965209
 21
28.1152464079
 31
0.0
  0
LINE
  5
94
330
1F
100
AcDbEntity
  8
0
  6
Continuous
 62
     7
370
     0
100
AcDbLine
 10
235.6907965209
 20
33.1152464079
 30
0.0
 11
285.6907965209
 21
33.1152464079
 31
0.0
  0
LINE
  5
95
330
1F
100
AcDbEntity
  8
0
  6
Continuous
 62
     7
370
    15
100
AcDbLine
 10
235.6907965209
 20
18.1152464079
 30
0.0
 11
285.6907965209
 21
18.1152464079
 31
0.0
  0
LINE
  5
96
330
1F
100
AcDbEntity
  8
0
  6
Continuous
 62
     7
370
     0
100
AcDbLine
 10
185.6907965209
 20
43.1152464079
 30
0.0
 11
285.6907965209
 21
43.1152464079
 31
0.0
  0
LINE
  5
97
330
1F
100
AcDbEntity
  8
0
  6
Continuous
 62
     7
370
     0
100
AcDbLine
 10
251.237217675
 20
8.1152464079
 30
0.0
 11
251.237217675
 21
18.1152464079
 31
0.0
  0
LINE
  5
98
330
1F
100
AcDbEntity
  8
0
  6
Continuous
 62
     7
370
     0
100
AcDbLine
 10
235.6907965209
 20
8.1152464079
 30
0.0
 11
235.6907965209
 21
43.1152464079
 31
0.0
  0
LINE
  5
99
330
1F
100
AcDbEntity
  8
0
  6
Continuous
 62
     7
370
     0
100
AcDbLine
 10
251.237217675
 20
28.1152464079
 30
0.0
 11
251.237217675
 21
33.1152464079
 31
0.0
  0
LINE
  5
9A
330
1F
100
AcDbEntity
  8
0
  6
Continuous
 62
     7
370
     0
100
AcDbLine
 10
214.4164086353
 20
8.1152464079
 30
0.0
 11
214.4164086353
 21
28.1152464079
 31
0.0
  0
LINE
  5
9B
330
1F
100
AcDbEntity
  8
0
  6
Continuous
 62
     7
370
     0
100
AcDbLine
 10
199.7785887506
 20
8.1152464079
 30
0.0
 11
199.7785887506
 21
28.1152464079
 31
0.0
  0
LINE
  5
9C
330
1F
100
AcDbEntity
  8
0
  6
Continuous
 62
     7
370
     0
100
AcDbLine
 10
185.6907965209
 20
8.1152464079
 30
0.0
 11
185.6907965209
 21
43.1152464079
 31
0.0
  0
LINE
  5
9D
330
1F
100
AcDbEntity
  8
0
  6
Continuous
 62
     7
370
    15
100
AcDbLine
 10
8.6907965209
 20
104.7436369915
 30
0.0
 11
14.6907965209
 21
104.7436369915
 31
0.0
  0
LINE
  5
9E
330
1F
100
AcDbEntity
  8
0
  6
Continuous
 62
     7
370
    15
100
AcDbLine
 10
285.6907965209
 20
104.7436369915
 30
0.0
 11
279.6907965209
 21
104.7436369915
 31
0.0
  0
LINE
  5
9F
330
1F
100
AcDbEntity
  8
0
  6
Continuous
 62
     7
370
    15
100
AcDbLine
 10
147.1907965209
 20
8.1152464079
 30
0.0
 11
147.1907965209
 21
10.1152464079
 31
0.0
  0
LINE
  5
A0
330
1F
100
AcDbEntity
  8
0
  6
Continuous
 62
     7
370
    15
100
AcDbLine
 10
147.1907965209
 20
201.3720275751
 30
0.0
 11
147.1907965209
 21
195.3720275751
 31
0.0
  0
LINE
  5
A1
330
1F
100
AcDbEntity
  8
0
  6
Continuous
 62
     7
370
    15
100
AcDbLine
 10
43.3207965209
 20
201.3720275751
 30
0.0
 11
43.3207965209
 21
202.8720275751
 31
0.0
  0
LINE
  5
A2
330
1F
100
AcDbEntity
  8
0
  6
Continuous
 62
     7
370
    15
100
AcDbLine
 10
77.9507965209
 20
201.3720275751
 30
0.0
 11
77.9507965209
 21
202.8720275751
 31
0.0
  0
LINE
  5
A3
330
1F
100
AcDbEntity
  8
0
  6
Continuous
 62
     7
370
    15
100
AcDbLine
 10
112.5807965209
 20
201.3720275751
 30
0.0
 11
112.5807965209
 21
202.8720275751
 31
0.0
  0
LINE
  5
A4
330
1F
100
AcDbEntity
  8
0
  6
Continuous
 62
     7
370
    15
100
AcDbLine
 10
147.2107965209
 20
201.3720275751
 30
0.0
 11
147.2107965209
 21
202.8720275751
 31
0.0
  0
LINE
  5
A5
330
1F
100
AcDbEntity
  8
0
  6
Continuous
 62
     7
370
    15
100
AcDbLine
 10
181.8407965209
 20
201.3720275751
 30
0.0
 11
181.8407965209
 21
202.8720275751
 31
0.0
  0
LINE
  5
A6
330
1F
100
AcDbEntity
  8
0
  6
Continuous
 62
     7
370
    15
100
AcDbLine
 10
216.4707965209
 20
201.3720275751
 30
0.0
 11
216.4707965209
 21
202.8720275751
 31
0.0
  0
LINE
  5
A7
330
1F
100
AcDbEntity
  8
0
  6
Continuous
 62
     7
370
    15
100
AcDbLine
 10
251.1007965209
 20
201.3720275751
 30
0.0
 11
251.1007965209
 21
202.8720275751
 31
0.0
  0
LINE
  5
A8
330
1F
100
AcDbEntity
  8
0
  6
Continuous
 62
     7
370
    15
100
AcDbLine
 10
43.3157965209
 20
8.1152464079
 30
0.0
 11
43.3157965209
 21
6.6152464079
 31
0.0
  0
LINE
  5
A9
330
1F
100
AcDbEntity
  8
0
  6
Continuous
 62
     7
370
    15
100
AcDbLine
 10
77.9407965209
 20
8.1152464079
 30
0.0
 11
77.9407965209
 21
6.6152464079
 31
0.0
  0
LINE
  5
AA
330
1F
100
AcDbEntity
  8
0
  6
Continuous
 62
     7
370
    15
100
AcDbLine
 10
112.5657965209
 20
8.1152464079
 30
0.0
 11
112.5657965209
 21
6.6152464079
 31
0.0
  0
LINE
  5
AB
330
1F
100
AcDbEntity
  8
0
  6
Continuous
 62
     7
370
    15
100
AcDbLine
 10
147.1907965209
 20
8.1152464079
 30
0.0
 11
147.1907965209
 21
6.6152464079
 31
0.0
  0
LINE
  5
AC
330
1F
100
AcDbEntity
  8
0
  6
Continuous
 62
     7
370
    15
100
AcDbLine
 10
181.8157965209
 20
8.1152464079
 30
0.0
 11
181.8157965209
 21
6.6152464079
 31
0.0
  0
LINE
  5
AD
330
1F
100
AcDbEntity
  8
0
  6
Continuous
 62
     7
370
    15
100
AcDbLine
 10
216.4407965209
 20
8.1152464079
 30
0.0
 11
216.4407965209
 21
6.6152464079
 31
0.0
  0
LINE
  5
AE
330
1F
100
AcDbEntity
  8
0
  6
Continuous
 62
     7
370
     0
100
AcDbLine
 10
285.6907965209
 20
201.3720275751
 30
0.0
 11
8.6907965209
 21
201.3720275751
 31
0.0
  0
LINE
  5
AF
330
1F
100
AcDbEntity
  8
0
  6
Continuous
 62
     7
370
     0
100
AcDbLine
 10
285.6907965209
 20
8.1152464079
 30
0.0
 11
285.6907965209
 21
201.3720275751
 31
0.0
  0
LINE
  5
B0
330
1F
100
AcDbEntity
  8
0
  6
Continuous
 62
     7
370
     0
100
AcDbLine
 10
8.6907965209
 20
201.3720275751
 30
0.0
 11
8.6907965209
 21
8.1152464079
 31
0.0
  0
LINE
  5
B1
330
1F
100
AcDbEntity
  8
0
  6
Continuous
 62
     7
370
     0
100
AcDbLine
 10
8.6907965209
 20
8.1152464079
 30
0.0
 11
285.6907965209
 21
8.1152464079
 31
0.0
  0
LINE
  5
B2
330
1F
100
AcDbEntity
  8
0
  6
Continuous
 62
     7
370
    15
100
AcDbLine
 10
251.0657965209
 20
8.1152464079
 30
0.0
 11
251.0657965209
 21
6.6152464079
 31
0.0
  0
LINE
  5
B3
330
1F
100
AcDbEntity
  8
0
  6
Continuous
 62
     7
370
    15
100
AcDbLine
 10
8.6907965209
 20
40.3252464079
 30
0.0
 11
7.1907965209
 21
40.3252464079
 31
0.0
  0
LINE
  5
B4
330
1F
100
AcDbEntity
  8
0
  6
Continuous
 62
     7
370
    15
100
AcDbLine
 10
8.6907965209
 20
72.5352464079
 30
0.0
 11
7.1907965209
 21
72.5352464079
 31
0.0
  0
LINE
  5
B5
330
1F
100
AcDbEntity
  8
0
  6
Continuous
 62
     7
370
    15
100
AcDbLine
 10
8.6907965209
 20
104.7452464079
 30
0.0
 11
7.1907965209
 21
104.7452464079
 31
0.0
  0
LINE
  5
B6
330
1F
100
AcDbEntity
  8
0
  6
Continuous
 62
     7
370
    15
100
AcDbLine
 10
8.6907965209
 20
136.9552464079
 30
0.0
 11
7.1907965209
 21
136.9552464079
 31
0.0
  0
LINE
  5
B7
330
1F
100
AcDbEntity
  8
0
  6
Continuous
 62
     7
370
    15
100
AcDbLine
 10
8.6907965209
 20
169.1652464079
 30
0.0
 11
7.1907965209
 21
169.1652464079
 31
0.0
  0
LINE
  5
B8
330
1F
100
AcDbEntity
  8
0
  6
Continuous
 62
     7
370
    15
100
AcDbLine
 10
285.6907965209
 20
40.3252464079
 30
0.0
 11
287.1907965209
 21
40.3252464079
 31
0.0
  0
LINE
  5
B9
330
1F
100
AcDbEntity
  8
0
  6
Continuous
 62
     7
370
    15
100
AcDbLine
 10
285.6907965209
 20
72.5352464079
 30
0.0
 11
287.1907965209
 21
72.5352464079
 31
0.0
  0
LINE
  5
BA
330
1F
100
AcDbEntity
  8
0
  6
Continuous
 62
     7
370
    15
100
AcDbLine
 10
285.6907965209
 20
104.7452464079
 30
0.0
 11
287.1907965209
 21
104.7452464079
 31
0.0
  0
LINE
  5
BB
330
1F
100
AcDbEntity
  8
0
  6
Continuous
 62
     7
370
    15
100
AcDbLine
 10
285.6907965209
 20
136.9552464079
 30
0.0
 11
287.1907965209
 21
136.9552464079
 31
0.0
  0
LINE
  5
BC
330
1F
100
AcDbEntity
  8
0
  6
Continuous
 62
     7
370
    15
100
AcDbLine
 10
285.6907965209
 20
169.1652464079
 30
0.0
 11
287.1907965209
 21
169.1652464079
 31
0.0
  0
CIRCLE
  5
BD
330
1F
100
AcDbEntity
  8
0
  6
Continuous
 62
     7
370
     0
100
AcDbCircle
 10
168.3593775185
 20
17.7745192513
 30
0.0
 40
1.5
  0
CIRCLE
  5
BE
330
1F
100
AcDbEntity
  8
0
  6
Continuous
 62
     7
370
     0
100
AcDbCircle
 10
168.3593775185
 20
17.7745192513
 30
0.0
 40
2.5
  0
ARC
  5
BF
330
1F
100
AcDbEntity
  8
0
370
     0
100
AcDbCircle
 10
188.6776084718
 20
34.9602541036
 30
0.0
 40
1.531992467805816
100
AcDbArc
 50
130.2910647925
 51
228.509361907
  0
ARC
  5
C0
330
1F
100
AcDbEntity
  8
0
370
     0
100
AcDbCircle
 10
191.98200603
 20
34.8474732403
 30
0.0
 40
2.570544369711286
100
AcDbArc
 50
140.1430462781
 51
253.0452525074
  0
ARC
  5
C1
330
1F
100
AcDbEntity
  8
0
370
     0
100
AcDbCircle
 10
192.3134032383
 20
35.2361149896
 30
0.0
 40
3.045751395731261
100
AcDbArc
 50
249.2112209143
 51
308.9221353953
  0
ARC
  5
C2
330
1F
100
AcDbEntity
  8
0
 62
     1
370
     0
100
AcDbCircle
 10
196.1275486931
 20
35.0075097413
 30
0.0
 40
1.518552937418275
100
AcDbArc
 50
306.0377529468
 51
43.4396461534
  0
ARC
  5
C3
330
1F
100
AcDbEntity
  8
0
 62
     1
370
     0
100
AcDbCircle
 10
192.4465686772
 20
34.4819153509
 30
0.0
 40
3.18163670452787
100
AcDbArc
 50
45.5592925416
 51
125.8325555121
  0
ARC
  5
C4
330
1F
100
AcDbEntity
  8
0
 62
     1
370
     0
100
AcDbCircle
 10
192.7642249679
 20
35.0227371563
 30
0.0
 40
2.57756748834625
100
AcDbArc
 50
321.9435288427
 51
42.1815007004
  0
MTEXT
  5
C6
330
1F
100
AcDbEntity
  8
0
  6
Continuous
 62
     7
370
     0
100
AcDbMText
 10
165.5426850804
 20
13.2208440369
 30
0.0
 40
2.6458333333
 41
0.0
 71
     1
 72
     1
  1
UNIT:m/m
  7
SLDTEXTSTYLE0
 73
     1
 44
1.0
  0
INSERT
  5
CD
330
1F
100
AcDbEntity
  8
0
  6
Continuous
 62
     7
370
     0
100
AcDbBlockReference
  2
SW_NOTE_0
 10
12.2315076053
 20
193.8904304251
 30
0.0
  0
MTEXT
  5
CF
330
1F
100
AcDbEntity
  8
0
  6
Continuous
 62
     7
370
     0
100
AcDbMText
 10
198.7251893935
 20
40.4406774139
 30
0.0
 40
2.38125
 41
0.0
 71
     1
 72
     1
  1
Unice E-O Services Inc.
  7
SLDTEXTSTYLE1
 73
     1
 44
1.0
  0
MTEXT
  5
D0
330
1F
100
AcDbEntity
  8
0
  6
Continuous
 62
     7
370
     0
100
AcDbMText
 10
217.5590538149
 20
21.5867148511
 30
0.0
 40
1.8520833333
 41
0.0
 71
     1
 72
     1
  1
2010/12/30
  7
SLDTEXTSTYLE0
 73
     1
 44
1.0
  0
MTEXT
  5
D1
330
1F
100
AcDbEntity
  8
0
  6
Continuous
 62
     7
370
     0
100
AcDbMText
 10
252.6088982507
 20
16.87117774
 30
0.0
 40
2.5
 41
0.0
 71
     1
 72
     1
  1
1:1
  7
SLDTEXTSTYLE0
 73
     1
 44
1.0
  0
MTEXT
  5
D2
330
1F
100
AcDbEntity
  8
0
  6
Continuous
 62
     7
370
     0
100
AcDbMText
 10
252.3075599985
 20
32.1519195438
 30
0.0
 40
2.5
 41
0.0
 71
     1
 72
     1
  1
07MBH-1
  7
SLDTEXTSTYLE0
 73
     1
 44
1.0
  0
MTEXT
  5
D3
330
1F
100
AcDbEntity
  8
0
  6
Continuous
 62
     7
370
     0
100
AcDbMText
 10
252.3075599985
 20
38.1082117879
 30
0.0
 40
2.5
 41
0.0
 71
     1
 72
     1
  1
07MBH-1
  7
SLDTEXTSTYLE0
 73
     1
 44
1.0
  0
MTEXT
  5
D4
330
1F
100
AcDbEntity
  8
0
  6
Continuous
 62
     7
370
     0
100
AcDbMText
 10
236.3921866786
 20
16.5064795728
 30
0.0
 40
2.1166666667
 41
0.0
 71
     1
 72
     1
  1
SCALE:
  7
SLDTEXTSTYLE0
 73
     1
 44
1.0
  0
MTEXT
  5
D5
330
1F
100
AcDbEntity
  8
0
  6
Continuous
 62
     7
370
     0
100
AcDbMText
 10
186.3336086789
 20
21.5867148511
 30
0.0
 40
1.8520833333
 41
0.0
 71
     1
 72
     1
  1
DRAWN
  7
SLDTEXTSTYLE0
 73
     1
 44
1.0
  0
MTEXT
  5
D6
330
1F
100
AcDbEntity
  8
0
  6
Continuous
 62
     7
370
     0
100
AcDbMText
 10
203.2228367937
 20
26.683208308
 30
0.0
 40
1.8520833333
 41
0.0
 71
     1
 72
     1
  1
NAME
  7
SLDTEXTSTYLE0
 73
     1
 44
1.0
  0
MTEXT
  5
D7
330
1F
100
AcDbEntity
  8
0
  6
Continuous
 62
     7
370
     0
100
AcDbMText
 10
220.8710155758
 20
26.683208308
 30
0.0
 40
1.8520833333
 41
0.0
 71
     1
 72
     1
  1
DATE
  7
SLDTEXTSTYLE0
 73
     1
 44
1.0
  0
MTEXT
  5
D8
330
1F
100
AcDbEntity
  8
0
  6
Continuous
 62
     7
370
     0
100
AcDbMText
 10
236.2756316645
 20
31.7872213766
 30
0.0
 40
2.1166666667
 41
0.0
 71
     1
 72
     1
  1
DWG. NO.
  7
SLDTEXTSTYLE0
 73
     1
 44
1.0
  0
MTEXT
  5
D9
330
1F
100
AcDbEntity
  8
0
  6
Continuous
 62
     7
370
     0
100
AcDbMText
 10
236.3629907088
 20
41.8840658243
 30
0.0
 40
2.1166666667
 41
0.0
 71
     1
 72
     1
  1
TITLE:
  7
SLDTEXTSTYLE0
 73
     1
 44
1.0
  0
MTEXT
  5
DA
330
1F
100
AcDbEntity
  8
0
  6
Continuous
 62
     7
370
     0
100
AcDbMText
 10
203.0314209802
 20
16.2403789724
 30
0.0
 40
1.8520833333
 41
0.0
 71
     1
 72
     1
  1
Johnny
  7
SLDTEXTSTYLE0
 73
     1
 44
1.0
  0
MTEXT
  5
DB
330
1F
100
AcDbEntity
  8
0
  6
Continuous
 62
     7
370
     0
100
AcDbMText
 10
217.5590538149
 20
16.2403789724
 30
0.0
 40
1.8520833333
 41
0.0
 71
     1
 72
     1
  1
2010/12/30
  7
SLDTEXTSTYLE0
 73
     1
 44
1.0
  0
MTEXT
  5
DC
330
1F
100
AcDbEntity
  8
0
  6
Continuous
 62
     7
370
     0
100
AcDbMText
 10
186.3336086789
 20
16.2403789724
 30
0.0
 40
1.8520833333
 41
0.0
 71
     1
 72
     1
  1
ENG APPR.
  7
SLDTEXTSTYLE0
 73
     1
 44
1.0
  0
MTEXT
  5
DD
330
1F
100
AcDbEntity
  8
0
  6
Continuous
 62
     7
370
     0
100
AcDbMText
 10
236.3921866786
 20
11.6853389288
 30
0.0
 40
2.1166666667
 41
0.0
 71
     1
 72
     1
  1
REV
  7
SLDTEXTSTYLE0
 73
     1
 44
1.0
  0
MTEXT
  5
DE
330
1F
100
AcDbEntity
  8
0
  6
Continuous
 62
     7
370
     0
100
AcDbMText
 10
236.3629907088
 20
26.9493089085
 30
0.0
 40
2.1166666667
 41
0.0
 71
     1
 72
     1
  1
MATERIAL:
  7
SLDTEXTSTYLE0
 73
     1
 44
1.0
  0
MTEXT
  5
DF
330
1F
100
AcDbEntity
  8
0
  6
Continuous
 62
     7
370
     0
100
AcDbMText
 10
252.6088982507
 20
22.2175136187
 30
0.0
 40
2.5
 41
0.0
 71
     1
 72
     1
  1
N/A
  7
SLDTEXTSTYLE0
 73
     1
 44
1.0
  0
MTEXT
  5
E0
330
1F
100
AcDbEntity
  8
0
  6
Continuous
 62
     7
370
     0
100
AcDbMText
 10
26.6029931533
 20
204.453351657
 30
0.0
 40
2.1166666667
 41
0.0
 71
     1
 72
     1
  1
1
  7
SLDTEXTSTYLE0
 73
     1
 44
1.0
  0
MTEXT
  5
E1
330
1F
100
AcDbEntity
  8
0
  6
Continuous
 62
     7
370
     0
100
AcDbMText
 10
60.7170995724
 20
204.453351657
 30
0.0
 40
2.1166666667
 41
0.0
 71
     1
 72
     1
  1
2
  7
SLDTEXTSTYLE0
 73
     1
 44
1.0
  0
MTEXT
  5
E2
330
1F
100
AcDbEntity
  8
0
  6
Continuous
 62
     7
370
     0
100
AcDbMText
 10
94.9009943906
 20
204.453351657
 30
0.0
 40
2.1166666667
 41
0.0
 71
     1
 72
     1
  1
3
  7
SLDTEXTSTYLE0
 73
     1
 44
1.0
  0
MTEXT
  5
E3
330
1F
100
AcDbEntity
  8
0
  6
Continuous
 62
     7
370
     0
100
AcDbMText
 10
129.2533362851
 20
204.2992584364
 30
0.0
 40
2.1166666667
 41
0.0
 71
     1
 72
     1
  1
4
  7
SLDTEXTSTYLE0
 73
     1
 44
1.0
  0
MTEXT
  5
E4
330
1F
100
AcDbEntity
  8
0
  6
Continuous
 62
     7
370
     0
100
AcDbMText
 10
163.702323464
 20
204.453351657
 30
0.0
 40
2.1166666667
 41
0.0
 71
     1
 72
     1
  1
5
  7
SLDTEXTSTYLE0
 73
     1
 44
1.0
  0
MTEXT
  5
E5
330
1F
100
AcDbEntity
  8
0
  6
Continuous
 62
     7
370
     0
100
AcDbMText
 10
198.6382170415
 20
204.453351657
 30
0.0
 40
2.1166666667
 41
0.0
 71
     1
 72
     1
  1
6
  7
SLDTEXTSTYLE0
 73
     1
 44
1.0
  0
MTEXT
  5
E6
330
1F
100
AcDbEntity
  8
0
  6
Continuous
 62
     7
370
     0
100
AcDbMText
 10
234.3630657407
 20
204.453351657
 30
0.0
 40
2.1166666667
 41
0.0
 71
     1
 72
     1
  1
7
  7
SLDTEXTSTYLE0
 73
     1
 44
1.0
  0
MTEXT
  5
E7
330
1F
100
AcDbEntity
  8
0
  6
Continuous
 62
     7
370
     0
100
AcDbMText
 10
266.2787820494
 20
204.453351657
 30
0.0
 40
2.1166666667
 41
0.0
 71
     1
 72
     1
  1
8
  7
SLDTEXTSTYLE0
 73
     1
 44
1.0
  0
MTEXT
  5
E8
330
1F
100
AcDbEntity
  8
0
  6
Continuous
 62
     7
370
     0
100
AcDbMText
 10
5.3568236555
 20
185.8113022879
 30
0.0
 40
2.1166666667
 41
0.0
 71
     1
 72
     1
  1
A
  7
SLDTEXTSTYLE0
 73
     1
 44
1.0
  0
MTEXT
  5
E9
330
1F
100
AcDbEntity
  8
0
  6
Continuous
 62
     7
370
     0
100
AcDbMText
 10
5.5910431831
 20
154.2993048238
 30
0.0
 40
2.1166666667
 41
0.0
 71
     1
 72
     1
  1
B
  7
SLDTEXTSTYLE0
 73
     1
 44
1.0
  0
MTEXT
  5
EA
330
1F
100
AcDbEntity
  8
0
  6
Continuous
 62
     7
370
     0
100
AcDbMText
 10
5.5910431831
 20
121.274351423
 30
0.0
 40
2.1166666667
 41
0.0
 71
     1
 72
     1
  1
C
  7
SLDTEXTSTYLE0
 73
     1
 44
1.0
  0
MTEXT
  5
EB
330
1F
100
AcDbEntity
  8
0
  6
Continuous
 62
     7
370
     0
100
AcDbMText
 10
5.5910431831
 20
88.7453220221
 30
0.0
 40
2.1166666667
 41
0.0
 71
     1
 72
     1
  1
D
  7
SLDTEXTSTYLE0
 73
     1
 44
1.0
  0
MTEXT
  5
EC
330
1F
100
AcDbEntity
  8
0
  6
Continuous
 62
     7
370
     0
100
AcDbMText
 10
5.5910431831
 20
57.5558849197
 30
0.0
 40
2.1166666667
 41
0.0
 71
     1
 72
     1
  1
E
  7
SLDTEXTSTYLE0
 73
     1
 44
1.0
  0
MTEXT
  5
ED
330
1F
100
AcDbEntity
  8
0
  6
Continuous
 62
     7
370
     0
100
AcDbMText
 10
5.5910431831
 20
25.5694212252
 30
0.0
 40
2.1166666667
 41
0.0
 71
     1
 72
     1
  1
F
  7
SLDTEXTSTYLE0
 73
     1
 44
1.0
  0
MTEXT
  5
EE
330
1F
100
AcDbEntity
  8
0
  6
Continuous
 62
     7
370
     0
100
AcDbMText
 10
266.1858616964
 20
6.6236223963
 30
0.0
 40
2.1166666667
 41
0.0
 71
     1
 72
     1
  1
8
  7
SLDTEXTSTYLE0
 73
     1
 44
1.0
  0
MTEXT
  5
EF
330
1F
100
AcDbEntity
  8
0
  6
Continuous
 62
     7
370
     0
100
AcDbMText
 10
234.2701453876
 20
6.6236223963
 30
0.0
 40
2.1166666667
 41
0.0
 71
     1
 72
     1
  1
7
  7
SLDTEXTSTYLE0
 73
     1
 44
1.0
  0
MTEXT
  5
F0
330
1F
100
AcDbEntity
  8
0
  6
Continuous
 62
     7
370
     0
100
AcDbMText
 10
198.5452966885
 20
6.6236223963
 30
0.0
 40
2.1166666667
 41
0.0
 71
     1
 72
     1
  1
6
  7
SLDTEXTSTYLE0
 73
     1
 44
1.0
  0
MTEXT
  5
F1
330
1F
100
AcDbEntity
  8
0
  6
Continuous
 62
     7
370
     0
100
AcDbMText
 10
163.6094031109
 20
6.6236223963
 30
0.0
 40
2.1166666667
 41
0.0
 71
     1
 72
     1
  1
5
  7
SLDTEXTSTYLE0
 73
     1
 44
1.0
  0
MTEXT
  5
F2
330
1F
100
AcDbEntity
  8
0
  6
Continuous
 62
     7
370
     0
100
AcDbMText
 10
129.1604159321
 20
6.4695291758
 30
0.0
 40
2.1166666667
 41
0.0
 71
     1
 72
     1
  1
4
  7
SLDTEXTSTYLE0
 73
     1
 44
1.0
  0
MTEXT
  5
F3
330
1F
100
AcDbEntity
  8
0
  6
Continuous
 62
     7
370
     0
100
AcDbMText
 10
94.8080740376
 20
6.6236223963
 30
0.0
 40
2.1166666667
 41
0.0
 71
     1
 72
     1
  1
3
  7
SLDTEXTSTYLE0
 73
     1
 44
1.0
  0
MTEXT
  5
F4
330
1F
100
AcDbEntity
  8
0
  6
Continuous
 62
     7
370
     0
100
AcDbMText
 10
60.6241792194
 20
6.6236223963
 30
0.0
 40
2.1166666667
 41
0.0
 71
     1
 72
     1
  1
2
  7
SLDTEXTSTYLE0
 73
     1
 44
1.0
  0
MTEXT
  5
F5
330
1F
100
AcDbEntity
  8
0
  6
Continuous
 62
     7
370
     0
100
AcDbMText
 10
26.5100728003
 20
6.6236223963
 30
0.0
 40
2.1166666667
 41
0.0
 71
     1
 72
     1
  1
1
  7
SLDTEXTSTYLE0
 73
     1
 44
1.0
  0
MTEXT
  5
F6
330
1F
100
AcDbEntity
  8
0
  6
Continuous
 62
     7
370
     0
100
AcDbMText
 10
287.1023846145
 20
186.6424909092
 30
0.0
 40
2.1166666667
 41
0.0
 71
     1
 72
     1
  1
A
  7
SLDTEXTSTYLE0
 73
     1
 44
1.0
  0
MTEXT
  5
F7
330
1F
100
AcDbEntity
  8
0
  6
Continuous
 62
     7
370
     0
100
AcDbMText
 10
287.3366041421
 20
155.1304934451
 30
0.0
 40
2.1166666667
 41
0.0
 71
     1
 72
     1
  1
B
  7
SLDTEXTSTYLE0
 73
     1
 44
1.0
  0
MTEXT
  5
F8
330
1F
100
AcDbEntity
  8
0
  6
Continuous
 62
     7
370
     0
100
AcDbMText
 10
287.3366041421
 20
122.1055400442
 30
0.0
 40
2.1166666667
 41
0.0
 71
     1
 72
     1
  1
C
  7
SLDTEXTSTYLE0
 73
     1
 44
1.0
  0
MTEXT
  5
F9
330
1F
100
AcDbEntity
  8
0
  6
Continuous
 62
     7
370
     0
100
AcDbMText
 10
287.3366041421
 20
89.5765106433
 30
0.0
 40
2.1166666667
 41
0.0
 71
     1
 72
     1
  1
D
  7
SLDTEXTSTYLE0
 73
     1
 44
1.0
  0
MTEXT
  5
FA
330
1F
100
AcDbEntity
  8
0
  6
Continuous
 62
     7
370
     0
100
AcDbMText
 10
287.3366041421
 20
58.3870735409
 30
0.0
 40
2.1166666667
 41
0.0
 71
     1
 72
     1
  1
E
  7
SLDTEXTSTYLE0
 73
     1
 44
1.0
  0
MTEXT
  5
FB
330
1F
100
AcDbEntity
  8
0
  6
Continuous
 62
     7
370
     0
100
AcDbMText
 10
287.3366041421
 20
26.4006098464
 30
0.0
 40
2.1166666667
 41
0.0
 71
     1
 72
     1
  1
F
  7
SLDTEXTSTYLE0
 73
     1
 44
1.0
  0
MTEXT
  5
FC
330
1F
100
AcDbEntity
  8
0
  6
Continuous
 62
     7
370
     0
100
AcDbMText
 10
204.5958218698
 20
21.5867148511
 30
0.0
 40
1.8520833333
 41
0.0
 71
     1
 72
     1
  1
Eric
  7
SLDTEXTSTYLE0
 73
     1
 44
1.0
  0
MTEXT
  5
FD
330
1F
100
AcDbEntity
  8
0
  6
Continuous
 62
     7
370
     0
100
AcDbMText
 10
252.8482239645
 20
12.0500370959
 30
0.0
 40
2.5
 41
0.0
 71
     1
 72
     1
  1
0
  7
SLDTEXTSTYLE0
 73
     1
 44
1.0
  0
INSERT
  5
103
330
1F
100
AcDbEntity
  8
SLD-0
 62
     7
100
AcDbBlockReference
  2
SW_NOTE_1
 10
198.7251893935
 20
33.6062615951
 30
0.0
  0
LINE
  5
104
330
1F
100
AcDbEntity
  8
0
  6
Continuous
 62
     7
370
    30
100
AcDbLine
 10
174.7189531027
 20
101.2880997974
 30
0.0
 11
174.0118463216
 21
101.9952065785
 31
0.0
  0
LINE
  5
105
330
1F
100
AcDbEntity
  8
0
  6
Continuous
 62
     7
370
    30
100
AcDbLine
 10
174.9394070919
 20
101.6215342391
 30
0.0
 11
174.0118463216
 21
101.9952065785
 31
0.0
  0
ARC
  5
106
330
1F
100
AcDbEntity
  8
0
  6
Continuous
 62
     7
370
    30
100
AcDbCircle
 10
174.0118463216
 20
101.9952065785
 30
0.0
 40
1.000000000000033
100
AcDbArc
 50
315.0
 51
338.0577209436
  0
LINE
  5
107
330
1F
100
AcDbEntity
  8
0
  6
Continuous
 62
     7
370
    30
100
AcDbLine
 10
151.5300126035
 20
90.8270813594
 30
0.0
 11
150.8229058223
 21
90.1199745782
 31
0.0
  0
ARC
  5
108
330
1F
100
AcDbEntity
  8
0
  6
Continuous
 62
     7
370
    30
100
AcDbCircle
 10
151.5300126035
 20
90.8270813594
 30
0.0
 40
1.000000000000008
100
AcDbArc
 50
135.0
 51
225.0
  0
LINE
  5
109
330
1F
100
AcDbEntity
  8
0
  6
Continuous
 62
     7
370
    30
100
AcDbLine
 10
151.5300126035
 20
90.8270813594
 30
0.0
 11
150.8229058223
 21
91.5341881406
 31
0.0
  0
ARC
  5
10A
330
1F
100
AcDbEntity
  8
0
  6
Continuous
 62
     7
370
    30
100
AcDbCircle
 10
157.7620784589
 20
133.9466779947
 30
0.0
 40
28.3481341670936
100
AcDbArc
 50
291.9422790564
 51
311.1632268697
  0
LINE
  5
10B
330
1F
100
AcDbEntity
  8
0
  6
Continuous
 62
     7
370
    30
100
AcDbLine
 10
168.3549920721
 20
107.652060828
 30
0.0
 11
167.9813197326
 21
108.5796215984
 31
0.0
  0
ARC
  5
10C
330
1F
100
AcDbEntity
  8
0
  6
Continuous
 62
     7
370
    30
100
AcDbCircle
 10
157.7620784589
 20
133.9466779947
 30
0.0
 40
27.3481341670936
100
AcDbArc
 50
291.9422790564
 51
311.1632268697
  0
LINE
  5
10D
330
1F
100
AcDbEntity
  8
0
  6
Continuous
 62
     7
370
    30
100
AcDbLine
 10
175.7627958174
 20
113.3579767972
 30
0.0
 11
176.4210022329
 21
112.6051392883
 31
0.0
  0
LINE
  5
10E
330
1F
100
AcDbEntity
  8
0
  6
Continuous
 62
     7
370
    30
100
AcDbLine
 10
177.128109014
 20
113.3122460695
 30
0.0
 11
179.672031563
 21
110.7683235205
 31
0.0
  0
LINE
  5
10F
330
1F
100
AcDbEntity
  8
0
  6
Continuous
 62
     7
370
    30
100
AcDbLine
 10
179.672031563
 20
110.7683235205
 30
0.0
 11
178.9649247819
 21
110.0612167393
 31
0.0
  0
LINE
  5
110
330
1F
100
AcDbEntity
  8
0
  6
Continuous
 62
     7
370
    30
100
AcDbLine
 10
178.9649247819
 20
110.0612167393
 30
0.0
 11
176.4210022329
 21
112.6051392883
 31
0.0
  0
LINE
  5
111
330
1F
100
AcDbEntity
  8
0
  6
Continuous
 62
     7
370
    30
100
AcDbLine
 10
177.128109014
 20
113.3122460695
 30
0.0
 11
176.4210022329
 21
112.6051392883
 31
0.0
  0
ARC
  5
112
330
1F
100
AcDbEntity
  8
0
  6
Continuous
 62
     7
370
    30
100
AcDbCircle
 10
200.3064634882
 20
91.4022929654
 30
0.0
 40
27.34813416709359
100
AcDbArc
 50
138.8367731303
 51
158.0577209436
  0
ARC
  5
113
330
1F
100
AcDbEntity
  8
0
  6
Continuous
 62
     7
370
    30
100
AcDbCircle
 10
200.3064634882
 20
91.4022929654
 30
0.0
 40
28.3481341670936
100
AcDbArc
 50
138.8367731303
 51
158.0577209436
  0
LINE
  5
114
330
1F
100
AcDbEntity
  8
0
  6
Continuous
 62
     7
370
    30
100
AcDbLine
 10
179.7177622907
 20
109.4030103239
 30
0.0
 11
178.9649247819
 21
110.0612167393
 31
0.0
  0
LINE
  5
115
330
1F
100
AcDbEntity
  8
0
  6
Continuous
 62
     7
370
    30
100
AcDbLine
 10
168.3549920721
 20
107.652060828
 30
0.0
 11
151.5300126035
 21
90.8270813594
 31
0.0
  0
LINE
  5
116
330
1F
100
AcDbEntity
  8
0
  6
Continuous
 62
     7
370
    30
100
AcDbLine
 10
150.8229058223
 20
91.5341881406
 30
0.0
 11
167.6478852909
 21
108.3591676092
 31
0.0
  0
LINE
  5
117
330
1F
100
AcDbEntity
  8
0
  6
Continuous
 62
     7
370
    30
100
AcDbLine
 10
168.3549920721
 20
107.652060828
 30
0.0
 11
167.6478852909
 21
108.3591676092
 31
0.0
  0
LINE
  5
118
330
1F
100
AcDbEntity
  8
0
  6
Continuous
 62
     7
370
    30
100
AcDbLine
 10
157.1868668529
 20
85.1702271099
 30
0.0
 11
174.0118463216
 21
101.9952065785
 31
0.0
  0
LINE
  5
119
330
1F
100
AcDbEntity
  8
0
  6
Continuous
 62
     7
370
    30
100
AcDbLine
 10
151.5300126035
 20
90.8270813594
 30
0.0
 11
157.1868668529
 21
85.1702271099
 31
0.0
  0
ARC
  5
11A
330
1F
100
AcDbEntity
  8
0
  6
Continuous
 62
     7
370
    30
100
AcDbCircle
 10
178.9649247819
 20
110.0612167393
 30
0.0
 40
1.000000000000013
100
AcDbArc
 50
318.8367731303
 51
45.0
  0
LINE
  5
11B
330
1F
100
AcDbEntity
  8
0
  6
Continuous
 62
     7
370
    30
100
AcDbLine
 10
157.1868668529
 20
85.1702271099
 30
0.0
 11
156.4797600718
 21
84.4631203288
 31
0.0
  0
LINE
  5
11C
330
1F
100
AcDbEntity
  8
0
  6
Continuous
 62
     7
370
    30
100
AcDbLine
 10
156.4797600718
 20
84.4631203288
 30
0.0
 11
150.8229058223
 21
90.1199745782
 31
0.0
  0
ARC
  5
11D
330
1F
100
AcDbEntity
  8
0
  6
Continuous
 62
     7
370
    30
100
AcDbCircle
 10
176.4210022329
 20
112.6051392883
 30
0.0
 40
1.000000000000009
100
AcDbArc
 50
45.0
 51
131.1632268697
  0
ARC
  5
11E
330
1F
100
AcDbEntity
  8
0
  6
Continuous
 62
     7
370
    30
100
AcDbCircle
 10
168.3549920721
 20
107.652060828
 30
0.0
 40
0.999999999999988
100
AcDbArc
 50
111.9422790564
 51
135.0
  0
LINE
  5
11F
330
1F
100
AcDbEntity
  8
0
  6
Continuous
 62
     7
370
    30
100
AcDbLine
 10
174.7189531027
 20
101.2880997974
 30
0.0
 11
157.8939736341
 21
84.4631203288
 31
0.0
  0
LINE
  5
120
330
1F
100
AcDbEntity
  8
0
  6
Continuous
 62
     7
370
    30
100
AcDbLine
 10
157.1868668529
 20
85.1702271099
 30
0.0
 11
157.8939736341
 21
84.4631203288
 31
0.0
  0
ARC
  5
121
330
1F
100
AcDbEntity
  8
0
  6
Continuous
 62
     7
370
    30
100
AcDbCircle
 10
157.1868668529
 20
85.1702271099
 30
0.0
 40
1.000000000000028
100
AcDbArc
 50
225.0
 51
315.0
  0
LINE
  5
122
330
1F
100
AcDbEntity
  8
0
  6
Continuous
 62
     7
370
    30
100
AcDbLine
 10
178.1697399562
 20
112.7743006289
 30
0.0
 11
178.1697399562
 21
112.9086718502
 31
0.0
  0
SPLINE
  5
123
330
1F
100
AcDbEntity
  8
0
  6
Continuous
 62
     7
370
    30
100
AcDbSpline
210
0.0
220
0.0
230
1.0
 70
     8
 71
     3
 72
     9
 73
     5
 74
     0
 42
0.000000001
 43
0.00000001
 40
0.0
 40
0.0
 40
0.0
 40
0.0
 40
0.5578880974118702
 40
1.0
 40
1.0
 40
1.0
 40
1.0
 10
178.6604437495092
 20
112.6538642009715
 30
0.0
 10
178.5724726746173
 20
112.690384733158
 30
0.0
 10
178.4147867958541
 20
112.7558468434914
 30
0.0
 10
178.2448645871972
 20
112.7686432051404
 30
0.0
 10
178.1697399562359
 20
112.7743006289352
 30
0.0
  0
SPLINE
  5
124
330
1F
100
AcDbEntity
  8
0
  6
Continuous
 62
     7
370
    30
100
AcDbSpline
210
0.0
220
0.0
230
1.0
 70
     8
 71
     3
 72
    10
 73
     6
 74
     0
 42
0.000000001
 43
0.00000001
 40
0.0
 40
0.0
 40
0.0
 40
0.0
 40
0.5600113699777582
 40
0.7802776236410214
 40
1.0
 40
1.0
 40
1.0
 40
1.0
 10
178.8346286659856
 20
112.0755702782701
 30
0.0
 10
178.8292765419734
 20
112.1915089521112
 30
0.0
 10
178.8218192958718
 20
112.3530491596188
 30
0.0
 10
178.7535927608084
 20
112.5524840092658
 30
0.0
 10
178.6914678220504
 20
112.6200986636047
 30
0.0
 10
178.6604437495092
 20
112.6538642009715
 30
0.0
  0
LINE
  5
125
330
1F
100
AcDbEntity
  8
0
  6
Continuous
 62
     7
370
    30
100
AcDbLine
 10
178.834628666
 20
111.6057264176
 30
0.0
 11
178.834628666
 21
112.0755702783
 31
0.0
  0
LINE
  5
126
330
1F
100
AcDbEntity
  8
0
  6
Continuous
 62
     7
370
    30
100
AcDbLine
 10
179.9364726805
 20
107.963810907
 30
0.0
 11
178.5432705724
 21
107.963810907
 31
0.0
  0
LINE
  5
127
330
1F
100
AcDbEntity
  8
0
  6
Continuous
 62
     7
370
    30
100
AcDbLine
 10
179.9364726805
 20
108.0981821283
 30
0.0
 11
179.9364726805
 21
107.963810907
 31
0.0
  0
SPLINE
  5
128
330
1F
100
AcDbEntity
  8
0
  6
Continuous
 62
     7
370
    30
100
AcDbSpline
210
0.0
220
0.0
230
1.0
 70
     8
 71
     3
 72
     9
 73
     5
 74
     0
 42
0.000000001
 43
0.00000001
 40
0.0
 40
0.0
 40
0.0
 40
0.0
 40
0.5577888705740551
 40
1.0
 40
1.0
 40
1.0
 40
1.0
 10
179.4258620396252
 20
108.2395207462713
 30
0.0
 10
179.5164699491279
 20
108.1967090858382
 30
0.0
 10
179.6789111778483
 20
108.1199566393629
 30
0.0
 10
179.8574991095266
 20
108.1048586342317
 30
0.0
 10
179.9364726804959
 20
108.0981821283305
 30
0.0
  0
SPLINE
  5
129
330
1F
100
AcDbEntity
  8
0
  6
Continuous
 62
     7
370
    30
100
AcDbSpline
210
0.0
220
0.0
230
1.0
 70
     8
 71
     3
 72
    10
 73
     6
 74
     0
 42
0.000000001
 43
0.00000001
 40
0.0
 40
0.0
 40
0.0
 40
0.0
 40
0.5601234433190682
 40
0.7803712189439254
 40
1.0
 40
1.0
 40
1.0
 40
1.0
 10
179.2576491774281
 20
108.7909404247164
 30
0.0
 10
179.262226042813
 20
108.6799730015388
 30
0.0
 10
179.2686025908079
 20
108.5253717536869
 30
0.0
 10
179.3388496628774
 20
108.3373903303667
 30
0.0
 10
179.3968851365611
 20
108.2721133216872
 30
0.0
 10
179.4258620396252
 20
108.2395207462713
 30
0.0
  0
LINE
  5
12A
330
1F
100
AcDbEntity
  8
0
  6
Continuous
 62
     7
370
    30
100
AcDbLine
 10
179.2576491774
 20
108.8627585529
 30
0.0
 11
179.2576491774
 21
108.7909404247
 31
0.0
  0
LINE
  5
12B
330
1F
100
AcDbEntity
  8
0
  6
Continuous
 62
     7
370
    30
100
AcDbLine
 10
180.346553741
 20
110.4233019277
 30
0.0
 11
179.895944678
 21
110.4261851667
 31
0.0
  0
SPLINE
  5
12C
330
1F
100
AcDbEntity
  8
0
  6
Continuous
 62
     7
370
    30
100
AcDbSpline
210
0.0
220
0.0
230
1.0
 70
     8
 71
     3
 72
    10
 73
     6
 74
     0
 42
0.000000001
 43
0.00000001
 40
0.0
 40
0.0
 40
0.0
 40
0.0
 40
0.2786905031362829
 40
0.5591146962643145
 40
1.0
 40
1.0
 40
1.0
 40
1.0
 10
180.8501969852117
 20
110.3158049506692
 30
0.0
 10
180.8082283364548
 20
110.3412864714493
 30
0.0
 10
180.7240299585472
 20
110.3924080295613
 30
0.0
 10
180.5485256843128
 20
110.4174435764581
 30
0.0
 10
180.4231729631199
 20
110.421079528349
 30
0.0
 10
180.3465537410002
 20
110.4233019276946
 30
0.0
  0
SPLINE
  5
12D
330
1F
100
AcDbEntity
  8
0
  6
Continuous
 62
     7
370
    30
100
AcDbSpline
210
0.0
220
0.0
230
1.0
 70
     8
 71
     3
 72
     9
 73
     5
 74
     0
 42
0.000000001
 43
0.00000001
 40
0.0
 40
0.0
 40
0.0
 40
0.0
 40
0.5618661542988234
 40
1.0
 40
1.0
 40
1.0
 40
1.0
 10
181.0114424507498
 20
109.7176041803705
 30
0.0
 10
181.0001261268129
 20
109.8350265010747
 30
0.0
 10
180.9799855224176
 20
110.0440127868756
 30
0.0
 10
180.8897376379151
 20
110.2330022641805
 30
0.0
 10
180.8501969852117
 20
110.3158049506692
 30
0.0
  0
LINE
  5
12E
330
1F
100
AcDbEntity
  8
0
  6
Continuous
 62
     7
370
    30
100
AcDbLine
 10
181.1796553129
 20
109.7176041804
 30
0.0
 11
181.0114424507
 21
109.7176041804
 31
0.0
  0
LINE
  5
12F
330
1F
100
AcDbEntity
  8
0
  6
Continuous
 62
     7
370
    30
100
AcDbLine
 10
181.1796553129
 20
111.3907747209
 30
0.0
 11
181.1796553129
 21
109.7176041804
 31
0.0
  0
LINE
  5
130
330
1F
100
AcDbEntity
  8
0
  6
Continuous
 62
     7
370
    30
100
AcDbLine
 10
181.0114424507
 20
111.3907747209
 30
0.0
 11
181.1796553129
 21
111.3907747209
 31
0.0
  0
SPLINE
  5
131
330
1F
100
AcDbEntity
  8
0
  6
Continuous
 62
     7
370
    30
100
AcDbSpline
210
0.0
220
0.0
230
1.0
 70
     8
 71
     3
 72
     9
 73
     5
 74
     0
 42
0.000000001
 43
0.00000001
 40
0.0
 40
0.0
 40
0.0
 40
0.0
 40
0.5581781111261144
 40
1.0
 40
1.0
 40
1.0
 40
1.0
 10
180.870103832809
 20
110.8124807982217
 30
0.0
 10
180.9111473233893
 20
110.9166456862495
 30
0.0
 10
180.9846784951823
 20
111.1032615458674
 30
0.0
 10
181.0032410900313
 20
111.3026711797996
 30
0.0
 10
181.0114424507498
 20
111.3907747209231
 30
0.0
  0
SPLINE
  5
132
330
1F
100
AcDbEntity
  8
0
  6
Continuous
 62
     7
370
    30
100
AcDbSpline
210
0.0
220
0.0
230
1.0
 70
     8
 71
     3
 72
    10
 73
     6
 74
     0
 42
0.000000001
 43
0.00000001
 40
0.0
 40
0.0
 40
0.0
 40
0.0
 40
0.5603610191166154
 40
0.7806040857484887
 40
1.0
 40
1.0
 40
1.0
 40
1.0
 10
180.3465537410001
 20
110.6721375226608
 30
0.0
 10
180.4502660435071
 20
110.6757035185959
 30
0.0
 10
180.5947412020522
 20
110.6806710857565
 30
0.0
 10
180.7750809588212
 20
110.7344447062383
 30
0.0
 10
180.838470257004
 20
110.7865022045665
 30
0.0
 10
180.870103832809
 20
110.8124807982217
 30
0.0
  0
LINE
  5
133
330
1F
100
AcDbEntity
  8
0
  6
Continuous
 62
     7
370
    30
100
AcDbLine
 10
179.7566165126
 20
110.6721375227
 30
0.0
 11
180.346553741
 21
110.6721375227
 31
0.0
  0
LINE
  5
134
330
1F
100
AcDbEntity
  8
0
  6
Continuous
 62
     7
370
    30
100
AcDbLine
 10
179.2576491774
 20
112.3851217584
 30
0.0
 11
179.2576491774
 21
111.1827059061
 31
0.0
  0
SPLINE
  5
135
330
1F
100
AcDbEntity
  8
0
  6
Continuous
 62
     7
370
    30
100
AcDbSpline
210
0.0
220
0.0
230
1.0
 70
     8
 71
     3
 72
     9
 73
     5
 74
     0
 42
0.000000001
 43
0.00000001
 40
0.0
 40
0.0
 40
0.0
 40
0.0
 40
0.5582508416995691
 40
1.0
 40
1.0
 40
1.0
 40
1.0
 10
179.3054256116616
 20
112.6130551633971
 30
0.0
 10
179.2884430005531
 20
112.5722072412296
 30
0.0
 10
179.2580218890385
 20
112.4990359728388
 30
0.0
 10
179.2577633755459
 20
112.4200248537582
 30
0.0
 10
179.2576491774281
 20
112.385121758408
 30
0.0
  0
SPLINE
  5
136
330
1F
100
AcDbEntity
  8
0
  6
Continuous
 62
     7
370
    30
100
AcDbSpline
210
0.0
220
0.0
230
1.0
 70
     8
 71
     3
 72
     9
 73
     5
 74
     0
 42
0.000000001
 43
0.00000001
 40
0.0
 40
0.0
 40
0.0
 40
0.0
 40
0.5623693583563933
 40
1.0
 40
1.0
 40
1.0
 40
1.0
 10
179.5134521690534
 20
112.6807384452279
 30
0.0
 10
179.4700682475253
 20
112.6803681957512
 30
0.0
 10
179.3929233588799
 20
112.6797098215506
 30
0.0
 10
179.3320608920656
 20
112.6333455773402
 30
0.0
 10
179.3054256116616
 20
112.6130551633971
 30
0.0
  0
LINE
  5
137
330
1F
100
AcDbEntity
  8
0
  6
Continuous
 62
     7
370
    30
100
AcDbLine
 10
180.4938644132
 20
112.6807384452
 30
0.0
 11
179.5134521691
 21
112.6807384452
 31
0.0
  0
SPLINE
  5
138
330
1F
100
AcDbEntity
  8
0
  6
Continuous
 62
     7
370
    30
100
AcDbSpline
210
0.0
220
0.0
230
1.0
 70
     8
 71
     3
 72
    10
 73
     6
 74
     0
 42
0.000000001
 43
0.00000001
 40
0.0
 40
0.0
 40
0.0
 40
0.0
 40
0.2787390541253921
 40
0.5592032548756698
 40
1.0
 40
1.0
 40
1.0
 40
1.0
 10
181.2194690081415
 20
112.5463672239461
 30
0.0
 10
181.1572832219879
 20
112.5783396047697
 30
0.0
 10
181.0325267750193
 20
112.6424822469938
 30
0.0
 10
180.7823957201333
 20
112.6736325431634
 30
0.0
 10
180.6033113554321
 20
112.6780430037489
 30
0.0
 10
180.4938644132201
 20
112.6807384452279
 30
0.0
  0
SPLINE
  5
139
330
1F
100
AcDbEntity
  8
0
  6
Continuous
 62
     7
370
    30
100
AcDbSpline
210
0.0
220
0.0
230
1.0
 70
     8
 71
     3
 72
     9
 73
     5
 74
     0
 42
0.000000001
 43
0.00000001
 40
0.0
 40
0.0
 40
0.0
 40
0.0
 40
0.562651256747143
 40
1.0
 40
1.0
 40
1.0
 40
1.0
 10
181.4752719997668
 20
111.9013853617938
 30
0.0
 10
181.4547949234717
 20
112.0338992218181
 30
0.0
 10
181.4184010186337
 20
112.2694160867239
 30
0.0
 10
181.2799989701218
 20
112.4620980217952
 30
0.0
 10
181.2194690081415
 20
112.5463672239461
 30
0.0
  0
LINE
  5
13A
330
1F
100
AcDbEntity
  8
0
  6
Continuous
 62
     7
370
    30
100
AcDbLine
 10
181.622582672
 20
111.9013853618
 30
0.0
 11
181.4752719998
 21
111.9013853618
 31
0.0
  0
LINE
  5
13B
330
1F
100
AcDbEntity
  8
0
  6
Continuous
 62
     7
370
    30
100
AcDbLine
 10
181.6026758244
 20
112.9086718502
 30
0.0
 11
181.622582672
 21
111.9013853618
 31
0.0
  0
LINE
  5
13C
330
1F
100
AcDbEntity
  8
0
  6
Continuous
 62
     7
370
    30
100
AcDbLine
 10
178.1697399562
 20
112.9086718502
 30
0.0
 11
181.6026758244
 21
112.9086718502
 31
0.0
  0
SPLINE
  5
13D
330
1F
100
AcDbEntity
  8
0
  6
Continuous
 62
     7
370
    30
100
AcDbSpline
210
0.0
220
0.0
230
1.0
 70
     8
 71
     3
 72
    11
 73
     7
 74
     0
 42
0.000000001
 43
0.00000001
 40
0.0
 40
0.0
 40
0.0
 40
0.0
 40
0.2799932256425771
 40
0.5597952288860045
 40
0.7798680384449583
 40
1.0
 40
1.0
 40
1.0
 40
1.0
 10
170.7683740195616
 20
112.4040332636255
 30
0.0
 10
170.87780506069
 20
112.5113985002791
 30
0.0
 10
171.0965924066162
 20
112.7260556481048
 30
0.0
 10
171.4789111407292
 20
112.9246819630603
 30
0.0
 10
171.8588763119581
 20
113.0336140483788
 30
0.0
 10
172.0993368063907
 20
113.0438809734428
 30
0.0
 10
172.2195832094044
 20
113.0490151257778
 30
0.0
  0
SPLINE
  5
13E
330
1F
100
AcDbEntity
  8
0
  6
Continuous
 62
     7
370
    30
100
AcDbSpline
210
0.0
220
0.0
230
1.0
 70
     8
 71
     3
 72
    11
 73
     7
 74
     0
 42
0.000000001
 43
0.00000001
 40
0.0
 40
0.0
 40
0.0
 40
0.0
 40
0.2800887275144134
 40
0.560008789844007
 40
0.7800256346719604
 40
1.0
 40
1.0
 40
1.0
 40
1.0
 10
170.1094573640912
 20
110.4690876771684
 30
0.0
 10
170.116328412755
 20
110.6646532957353
 30
0.0
 10
170.1300663724414
 20
111.055666766219
 30
0.0
 10
170.2674514690727
 20
111.5856364531902
 30
0.0
 10
170.4757695620774
 20
112.0468186573407
 30
0.0
 10
170.6708454783494
 20
112.2849693923837
 30
0.0
 10
170.7683740195616
 20
112.4040332636255
 30
0.0
  0
LINE
  5
13F
330
1F
100
AcDbEntity
  8
0
  6
Continuous
 62
     7
370
    30
100
AcDbLine
 10
170.2090430313
 20
109.6282676416
 30
0.0
 11
170.1094573641
 21
110.4690876772
 31
0.0
  0
LINE
  5
140
330
1F
100
AcDbEntity
  8
0
  6
Continuous
 62
     7
370
    30
100
AcDbLine
 10
173.6777597959
 20
112.4040332636
 30
0.0
 11
173.9849288636
 21
111.964786934
 31
0.0
  0
SPLINE
  5
141
330
1F
100
AcDbEntity
  8
0
  6
Continuous
 62
     7
370
    30
100
AcDbSpline
210
0.0
220
0.0
230
1.0
 70
     8
 71
     3
 72
    10
 73
     6
 74
     0
 42
0.000000001
 43
0.00000001
 40
0.0
 40
0.0
 40
0.0
 40
0.0
 40
0.2804546690558642
 40
0.5607792749542583
 40
1.0
 40
1.0
 40
1.0
 40
1.0
 10
172.2195832094044
 20
113.0490151257778
 30
0.0
 10
172.372888595276
 20
113.0400490533645
 30
0.0
 10
172.6794282703867
 20
113.0221210666276
 30
0.0
 10
173.2050674830503
 20
112.8351460593082
 30
0.0
 10
173.4985896698028
 20
112.5674430163684
 30
0.0
 10
173.6777597959063
 20
112.4040332636255
 30
0.0
  0
SPLINE
  5
142
330
1F
100
AcDbEntity
  8
0
  6
Continuous
 62
     7
370
    30
100
AcDbSpline
210
0.0
220
0.0
230
1.0
 70
     8
 71
     3
 72
    11
 73
     7
 74
     0
 42
0.000000001
 43
0.00000001
 40
0.0
 40
0.0
 40
0.0
 40
0.0
 40
0.2799773975160276
 40
0.5597992711926163
 40
0.7798903409157266
 40
1.0
 40
1.0
 40
1.0
 40
1.0
 10
139.9366484608711
 20
112.436879562161
 30
0.0
 10
140.0478780710903
 20
112.5454252667424
 30
0.0
 10
140.2702755049123
 20
112.7624563801639
 30
0.0
 10
140.6570347620903
 20
112.9660293961123
 30
0.0
 10
141.0430774485155
 20
113.0744040686678
 30
0.0
 10
141.2868622783464
 20
113.0853475393324
 30
0.0
 10
141.4087598406911
 20
113.0908195057321
 30
0.0
  0
SPLINE
  5
143
330
1F
100
AcDbEntity
  8
0
  6
Continuous
 62
     7
370
    30
100
AcDbSpline
210
0.0
220
0.0
230
1.0
 70
     8
 71
     3
 72
    11
 73
     7
 74
     0
 42
0.000000001
 43
0.00000001
 40
0.0
 40
0.0
 40
0.0
 40
0.0
 40
0.2800907331626719
 40
0.5600322593951577
 40
0.7800339512942694
 40
1.0
 40
1.0
 40
1.0
 40
1.0
 10
139.2737504358812
 20
110.4949665790449
 30
0.0
 10
139.2811755805533
 20
110.6912004453125
 30
0.0
 10
139.2960219144539
 20
111.0835636422479
 30
0.0
 10
139.4322443834878
 20
111.616071284877
 30
0.0
 10
139.6437674609378
 20
112.0778595535385
 30
0.0
 10
139.8390267337527
 20
112.3172126895411
 30
0.0
 10
139.9366484608711
 20
112.436879562161
 30
0.0
  0
SPLINE
  5
144
330
1F
100
AcDbEntity
  8
0
  6
Continuous
 62
     7
370
    30
100
AcDbSpline
210
0.0
220
0.0
230
1.0
 70
     8
 71
     3
 72
    10
 73
     6
 74
     0
 42
0.000000001
 43
0.00000001
 40
0.0
 40
0.0
 40
0.0
 40
0.0
 40
0.2800523578142783
 40
0.560148505982666
 40
1.0
 40
1.0
 40
1.0
 40
1.0
 10
139.8958394232967
 20
108.6068020844414
 30
0.0
 10
139.7826924332582
 20
108.7593694479394
 30
0.0
 10
139.5563807609654
 20
109.0645280311134
 30
0.0
 10
139.3202392106651
 20
109.7089434716223
 30
0.0
 10
139.2913812103882
 20
110.1968688935579
 30
0.0
 10
139.2737504358812
 20
110.4949665790449
 30
0.0
  0
SPLINE
  5
145
330
1F
100
AcDbEntity
  8
0
  6
Continuous
 62
     7
370
    30
100
AcDbSpline
210
0.0
220
0.0
230
1.0
 70
     8
 71
     3
 72
    11
 73
     7
 74
     0
 42
0.000000001
 43
0.00000001
 40
0.0
 40
0.0
 40
0.0
 40
0.0
 40
0.2799821058106852
 40
0.5597526787438777
 40
0.7798789780720949
 40
1.0
 40
1.0
 40
1.0
 40
1.0
 10
141.4087598406911
 20
107.9120531032958
 30
0.0
 10
141.2479419316422
 20
107.9214711309215
 30
0.0
 10
140.9264276151488
 20
107.9403000706377
 30
0.0
 10
140.5032688357446
 20
108.1029814028592
 30
0.0
 10
140.1560814054556
 20
108.3309364680324
 30
0.0
 10
139.982586057433
 20
108.5148476138411
 30
0.0
 10
139.8958394232967
 20
108.6068020844414
 30
0.0
  0
SPLINE
  5
146
330
1F
100
AcDbEntity
  8
0
  6
Continuous
 62
     7
370
    30
100
AcDbSpline
210
0.0
220
0.0
230
1.0
 70
     8
 71
     3
 72
    11
 73
     7
 74
     0
 42
0.000000001
 43
0.00000001
 40
0.0
 40
0.0
 40
0.0
 40
0.0
 40
0.2798929703307609
 40
0.5596790582656211
 40
0.7798156116675392
 40
1.0
 40
1.0
 40
1.0
 40
1.0
 10
142.9744334042184
 20
108.6068020844414
 30
0.0
 10
142.8584398291432
 20
108.488390814463
 30
0.0
 10
142.6264969733214
 20
108.2516134920772
 30
0.0
 10
142.2111190068666
 20
108.0383266379148
 30
0.0
 10
141.7985041043217
 20
107.9286532023172
 30
0.0
 10
141.5386840038843
 20
107.9175868703722
 30
0.0
 10
141.4087598406911
 20
107.9120531032958
 30
0.0
  0
SPLINE
  5
147
330
1F
100
AcDbEntity
  8
0
  6
Continuous
 62
     7
370
    30
100
AcDbSpline
210
0.0
220
0.0
230
1.0
 70
     8
 71
     3
 72
    11
 73
     7
 74
     0
 42
0.000000001
 43
0.00000001
 40
0.0
 40
0.0
 40
0.0
 40
0.0
 40
0.2800630518779703
 40
0.5599693407053932
 40
0.7799861785456116
 40
1.0
 40
1.0
 40
1.0
 40
1.0
 10
143.6064758154325
 20
110.4949665790449
 30
0.0
 10
143.5989440706978
 20
110.304957615597
 30
0.0
 10
143.5838847970622
 20
109.9250460446969
 30
0.0
 10
143.449827216826
 20
109.4099560349138
 30
0.0
 10
143.2478877010161
 20
108.962253466171
 30
0.0
 10
143.0655844199246
 20
108.7252853368835
 30
0.0
 10
142.9744334042184
 20
108.6068020844414
 30
0.0
  0
SPLINE
  5
148
330
1F
100
AcDbEntity
  8
0
  6
Continuous
 62
     7
370
    30
100
AcDbSpline
210
0.0
220
0.0
230
1.0
 70
     8
 71
     3
 72
    10
 73
     6
 74
     0
 42
0.000000001
 43
0.00000001
 40
0.0
 40
0.0
 40
0.0
 40
0.0
 40
0.2800739435414916
 40
0.5601892596393923
 40
1.0
 40
1.0
 40
1.0
 40
1.0
 10
142.932629024264
 20
112.436879562161
 30
0.0
 10
143.0544415141467
 20
112.2822951425271
 30
0.0
 10
143.2980844880675
 20
111.9731034680305
 30
0.0
 10
143.5561092294894
 20
111.3095664315953
 30
0.0
 10
143.5873751319724
 20
110.8038899185737
 30
0.0
 10
143.6064758154325
 20
110.4949665790449
 30
0.0
  0
SPLINE
  5
149
330
1F
100
AcDbEntity
  8
0
  6
Continuous
 62
     7
370
    30
100
AcDbSpline
210
0.0
220
0.0
230
1.0
 70
     8
 71
     3
 72
    11
 73
     7
 74
     0
 42
0.000000001
 43
0.00000001
 40
0.0
 40
0.0
 40
0.0
 40
0.0
 40
0.2800011350847069
 40
0.5597917273406211
 40
0.7798737367570077
 40
0.9999999999999999
 40
0.9999999999999999
 40
0.9999999999999999
 40
0.9999999999999999
 10
141.4087598406911
 20
113.0908195057321
 30
0.0
 10
141.568535882824
 20
113.0824698296934
 30
0.0
 10
141.8879678257915
 20
113.0657767560348
 30
0.0
 10
142.3122818822608
 20
112.9168006436921
 30
0.0
 10
142.6651853354065
 20
112.7024807055843
 30
0.0
 10
142.8434751535284
 20
112.5254192099244
 30
0.0
 10
142.932629024264
 20
112.436879562161
 30
0.0
  0
ARC
  5
14A
330
1F
100
AcDbEntity
  8
0
  6
Continuous
 62
     7
370
    30
100
AcDbCircle
 10
182.8764549308
 20
72.0166694372
 30
0.0
 40
1.5
100
AcDbArc
 50
270.0
 51
0.0
  0
LINE
  5
14B
330
1F
100
AcDbEntity
  8
0
  6
Continuous
 62
     7
370
    30
100
AcDbLine
 10
138.3764549308
 20
70.5166694372
 30
0.0
 11
182.8764549308
 21
70.5166694372
 31
0.0
  0
ARC
  5
14C
330
1F
100
AcDbEntity
  8
0
  6
Continuous
 62
     7
370
    30
100
AcDbCircle
 10
138.3764549308
 20
72.0166694372
 30
0.0
 40
1.5
100
AcDbArc
 50
180.0
 51
270.0
  0
LINE
  5
14D
330
1F
100
AcDbEntity
  8
0
  6
Continuous
 62
     7
370
    30
100
AcDbLine
 10
136.8764549308
 20
117.0166694372
 30
0.0
 11
136.8764549308
 21
72.0166694372
 31
0.0
  0
ARC
  5
14E
330
1F
100
AcDbEntity
  8
0
  6
Continuous
 62
     7
370
    30
100
AcDbCircle
 10
138.3764549308
 20
117.0166694372
 30
0.0
 40
1.500000000000028
100
AcDbArc
 50
90.0
 51
180.0
  0
LINE
  5
14F
330
1F
100
AcDbEntity
  8
0
  6
Continuous
 62
     7
370
    30
100
AcDbLine
 10
182.8764549308
 20
118.5166694372
 30
0.0
 11
138.3764549308
 21
118.5166694372
 31
0.0
  0
ARC
  5
150
330
1F
100
AcDbEntity
  8
0
  6
Continuous
 62
     7
370
    30
100
AcDbCircle
 10
182.8764549308
 20
117.0166694372
 30
0.0
 40
1.5
100
AcDbArc
 50
0.0
 51
90.0
  0
LINE
  5
151
330
1F
100
AcDbEntity
  8
0
  6
Continuous
 62
     7
370
    30
100
AcDbLine
 10
184.3764549308
 20
72.0166694372
 30
0.0
 11
184.3764549308
 21
117.0166694372
 31
0.0
  0
LINE
  5
152
330
1F
100
AcDbEntity
  8
0
  6
Continuous
 62
     7
370
    30
100
AcDbLine
 10
146.8025201972
 20
112.7374729609
 30
0.0
 11
146.8025201972
 21
112.9912852677
 31
0.0
  0
SPLINE
  5
153
330
1F
100
AcDbEntity
  8
0
  6
Continuous
 62
     7
370
    30
100
AcDbSpline
210
0.0
220
0.0
230
1.0
 70
     8
 71
     3
 72
    10
 73
     6
 74
     0
 42
0.000000001
 43
0.00000001
 40
0.0
 40
0.0
 40
0.0
 40
0.0
 40
0.278450147705671
 40
0.559009882997216
 40
1.0
 40
1.0
 40
1.0
 40
1.0
 10
147.3200982347079
 20
112.606087766738
 30
0.0
 10
147.2766388731565
 20
112.6318587978995
 30
0.0
 10
147.1893908942413
 20
112.6835961061144
 30
0.0
 10
147.0099454776473
 20
112.7151816409663
 30
0.0
 10
146.8812035122635
 20
112.7290171210496
 30
0.0
 10
146.8025201971782
 20
112.7374729608802
 30
0.0
  0
SPLINE
  5
154
330
1F
100
AcDbEntity
  8
0
  6
Continuous
 62
     7
370
    30
100
AcDbSpline
210
0.0
220
0.0
230
1.0
 70
     8
 71
     3
 72
    10
 73
     6
 74
     0
 42
0.000000001
 43
0.00000001
 40
0.0
 40
0.0
 40
0.0
 40
0.0
 40
0.5606433719229641
 40
0.7808513891964887
 40
1.0
 40
1.0
 40
1.0
 40
1.0
 10
147.4684042493077
 20
111.8794878294367
 30
0.0
 10
147.4646880596787
 20
112.0200481870164
 30
0.0
 10
147.4595122349394
 20
112.2158174691995
 30
0.0
 10
147.4092838531352
 20
112.4652800111873
 30
0.0
 10
147.349778946763
 20
112.5592273589579
 30
0.0
 10
147.3200982347079
 20
112.606087766738
 30
0.0
  0
LINE
  5
155
330
1F
100
AcDbEntity
  8
0
  6
Continuous
 62
     7
370
    30
100
AcDbLine
 10
147.4684042493
 20
109.1273661491
 30
0.0
 11
147.4684042493
 21
111.8794878294
 31
0.0
  0
LINE
  5
156
330
1F
100
AcDbEntity
  8
0
  6
Continuous
 62
     7
370
    30
100
AcDbLine
 10
144.8725513226
 20
112.9912852677
 30
0.0
 11
147.4684042493
 21
109.1273661491
 31
0.0
  0
LINE
  5
157
330
1F
100
AcDbEntity
  8
0
  6
Continuous
 62
     7
370
    30
100
AcDbLine
 10
143.8125116881
 20
112.9912852677
 30
0.0
 11
144.8725513226
 21
112.9912852677
 31
0.0
  0
LINE
  5
158
330
1F
100
AcDbEntity
  8
0
  6
Continuous
 62
     7
370
    30
100
AcDbLine
 10
143.8125116881
 20
112.7344869337
 30
0.0
 11
143.8125116881
 21
112.9912852677
 31
0.0
  0
SPLINE
  5
159
330
1F
100
AcDbEntity
  8
0
  6
Continuous
 62
     7
370
    30
100
AcDbSpline
210
0.0
220
0.0
230
1.0
 70
     8
 71
     3
 72
     9
 73
     5
 74
     0
 42
0.000000001
 43
0.00000001
 40
0.0
 40
0.0
 40
0.0
 40
0.0
 40
0.5592636271648296
 40
1.0
 40
1.0
 40
1.0
 40
1.0
 10
144.1300259072413
 20
112.6986546080654
 30
0.0
 10
144.0713288108547
 20
112.709983667573
 30
0.0
 10
143.9663745575552
 20
112.730240768084
 30
0.0
 10
143.85957995419
 20
112.7331879871149
 30
0.0
 10
143.8125116880645
 20
112.7344869337406
 30
0.0
  0
SPLINE
  5
15A
330
1F
100
AcDbEntity
  8
0
  6
Continuous
 62
     7
370
    30
100
AcDbSpline
210
0.0
220
0.0
230
1.0
 70
     8
 71
     3
 72
     9
 73
     5
 74
     0
 42
0.000000001
 43
0.00000001
 40
0.0
 40
0.0
 40
0.0
 40
0.0
 40
0.5608304348354268
 40
1.0
 40
1.0
 40
1.0
 40
1.0
 10
144.3728894479283
 20
112.4209540840832
 30
0.0
 10
144.3353303982533
 20
112.4799080946845
 30
0.0
 10
144.2683599784223
 20
112.5850272304151
 30
0.0
 10
144.1722392192502
 20
112.6639806632841
 30
0.0
 10
144.1300259072413
 20
112.6986546080654
 30
0.0
  0
LINE
  5
15B
330
1F
100
AcDbEntity
  8
0
  6
Continuous
 62
     7
370
    30
100
AcDbLine
 10
144.3728894479
 20
109.2020168276
 30
0.0
 11
144.3728894479
 21
112.4209540841
 31
0.0
  0
SPLINE
  5
15C
330
1F
100
AcDbEntity
  8
0
  6
Continuous
 62
     7
370
    30
100
AcDbSpline
210
0.0
220
0.0
230
1.0
 70
     8
 71
     3
 72
     9
 73
     5
 74
     0
 42
0.000000001
 43
0.00000001
 40
0.0
 40
0.0
 40
0.0
 40
0.0
 40
0.55947273267067
 40
1.0
 40
1.0
 40
1.0
 40
1.0
 10
144.3360617798733
 20
108.5560396230683
 30
0.0
 10
144.3501149944836
 20
108.6761343487352
 30
0.0
 10
144.3752336710332
 20
108.8907913260172
 30
0.0
 10
144.3736063341837
 20
109.1068410382593
 30
0.0
 10
144.3728894479283
 20
109.2020168276006
 30
0.0
  0
SPLINE
  5
15D
330
1F
100
AcDbEntity
  8
0
  6
Continuous
 62
     7
370
    30
100
AcDbSpline
210
0.0
220
0.0
230
1.0
 70
     8
 71
     3
 72
    10
 73
     6
 74
     0
 42
0.000000001
 43
0.00000001
 40
0.0
 40
0.0
 40
0.0
 40
0.0
 40
0.559561229800693
 40
0.7800081457599849
 40
1.0
 40
1.0
 40
1.0
 40
1.0
 10
143.8125116880645
 20
108.24947417007
 30
0.0
 10
143.9319554005139
 20
108.2688840549965
 30
0.0
 10
144.0984556219528
 20
108.2959407335952
 30
0.0
 10
144.2759716454173
 20
108.4267935093212
 30
0.0
 10
144.3160455365143
 20
108.5129872703088
 30
0.0
 10
144.3360617798733
 20
108.5560396230683
 30
0.0
  0
LINE
  5
15E
330
1F
100
AcDbEntity
  8
0
  6
Continuous
 62
     7
370
    30
100
AcDbLine
 10
143.8125116881
 20
107.997652548
 30
0.0
 11
143.8125116881
 21
108.2494741701
 31
0.0
  0
LINE
  5
15F
330
1F
100
AcDbEntity
  8
0
  6
Continuous
 62
     7
370
    30
100
AcDbLine
 10
145.4408918215
 20
107.997652548
 30
0.0
 11
143.8125116881
 21
107.997652548
 31
0.0
  0
LINE
  5
160
330
1F
100
AcDbEntity
  8
0
  6
Continuous
 62
     7
370
    30
100
AcDbLine
 10
145.4408918215
 20
108.2444974582
 30
0.0
 11
145.4408918215
 21
107.997652548
 31
0.0
  0
SPLINE
  5
161
330
1F
100
AcDbEntity
  8
0
  6
Continuous
 62
     7
370
    30
100
AcDbSpline
210
0.0
220
0.0
230
1.0
 70
     8
 71
     3
 72
    10
 73
     6
 74
     0
 42
0.000000001
 43
0.00000001
 40
0.0
 40
0.0
 40
0.0
 40
0.0
 40
0.2789828981051599
 40
0.5592709435781575
 40
1.0
 40
1.0
 40
1.0
 40
1.0
 10
144.9083836482956
 20
108.4664588088805
 30
0.0
 10
144.9467840724126
 20
108.4259652386188
 30
0.0
 10
145.0237645668286
 20
108.3447886596852
 30
0.0
 10
145.2136419365347
 20
108.274458333544
 30
0.0
 10
145.3546805380462
 20
108.2558636488297
 30
0.0
 10
145.4408918215232
 20
108.2444974581707
 30
0.0
  0
SPLINE
  5
162
330
1F
100
AcDbEntity
  8
0
  6
Continuous
 62
     7
370
    30
100
AcDbSpline
210
0.0
220
0.0
230
1.0
 70
     8
 71
     3
 72
     9
 73
     5
 74
     0
 42
0.000000001
 43
0.00000001
 40
0.0
 40
0.0
 40
0.0
 40
0.0
 40
0.5619407086696204
 40
1.0
 40
1.0
 40
1.0
 40
1.0
 10
144.7879472203319
 20
109.2020168276006
 30
0.0
 10
144.7859396362113
 20
109.0598248414685
 30
0.0
 10
144.782367045563
 20
108.8067874943989
 30
0.0
 10
144.8699966749478
 20
108.5701291816505
 30
0.0
 10
144.9083836482956
 20
108.4664588088805
 30
0.0
  0
LINE
  5
163
330
1F
100
AcDbEntity
  8
0
  6
Continuous
 62
     7
370
    30
100
AcDbLine
 10
144.7879472203
 20
111.9696126674
 30
0.0
 11
144.7879472203
 21
109.2020168276
 31
0.0
  0
LINE
  5
164
330
1F
100
AcDbEntity
  8
0
  6
Continuous
 62
     7
370
    30
100
AcDbLine
 10
147.6973329967
 20
107.9319599509
 30
0.0
 11
144.7879472203
 21
111.9696126674
 31
0.0
  0
LINE
  5
165
330
1F
100
AcDbEntity
  8
0
  6
Continuous
 62
     7
370
    30
100
AcDbLine
 10
147.8705225708
 20
107.9319599509
 30
0.0
 11
147.6973329967
 21
107.9319599509
 31
0.0
  0
LINE
  5
166
330
1F
100
AcDbEntity
  8
0
  6
Continuous
 62
     7
370
    30
100
AcDbLine
 10
147.8705225708
 20
111.8794878294
 30
0.0
 11
147.8705225708
 21
107.9319599509
 31
0.0
  0
SPLINE
  5
167
330
1F
100
AcDbEntity
  8
0
  6
Continuous
 62
     7
370
    30
100
AcDbSpline
210
0.0
220
0.0
230
1.0
 70
     8
 71
     3
 72
    10
 73
     6
 74
     0
 42
0.000000001
 43
0.00000001
 40
0.0
 40
0.0
 40
0.0
 40
0.0
 40
0.2785542837987518
 40
0.5590837202157778
 40
1.0
 40
1.0
 40
1.0
 40
1.0
 10
147.9750335206589
 20
112.621017902436
 30
0.0
 10
147.9481821421847
 20
112.5557555925087
 30
0.0
 10
147.8942889894194
 20
112.4247682153755
 30
0.0
 10
147.877208466124
 20
112.1712413442336
 30
0.0
 10
147.8730587170987
 20
111.9901580636689
 30
0.0
 10
147.8705225707731
 20
111.8794878294367
 30
0.0
  0
SPLINE
  5
168
330
1F
100
AcDbEntity
  8
0
  6
Continuous
 62
     7
370
    30
100
AcDbSpline
210
0.0
220
0.0
230
1.0
 70
     8
 71
     3
 72
     9
 73
     5
 74
     0
 42
0.000000001
 43
0.00000001
 40
0.0
 40
0.0
 40
0.0
 40
0.0
 40
0.5627763038302287
 40
1.0
 40
1.0
 40
1.0
 40
1.0
 10
148.4309003306369
 20
112.7474263846788
 30
0.0
 10
148.341426178832
 20
112.7372509344375
 30
0.0
 10
148.1824391155958
 20
112.7191701265356
 30
0.0
 10
148.0381292245957
 20
112.6508771917884
 30
0.0
 10
147.9750335206589
 20
112.621017902436
 30
0.0
  0
LINE
  5
169
330
1F
100
AcDbEntity
  8
0
  6
Continuous
 62
     7
370
    30
100
AcDbLine
 10
148.4309003306
 20
112.9912852677
 30
0.0
 11
148.4309003306
 21
112.7474263847
 31
0.0
  0
LINE
  5
16A
330
1F
100
AcDbEntity
  8
0
  6
Continuous
 62
     7
370
    30
100
AcDbLine
 10
146.8025201972
 20
112.9912852677
 30
0.0
 11
148.4309003306
 21
112.9912852677
 31
0.0
  0
LINE
  5
16B
330
1F
100
AcDbEntity
  8
0
  6
Continuous
 62
     7
370
    30
100
AcDbLine
 10
174.6024328668
 20
112.7743006289
 30
0.0
 11
174.6024328668
 21
112.9086718502
 31
0.0
  0
SPLINE
  5
16C
330
1F
100
AcDbEntity
  8
0
  6
Continuous
 62
     7
370
    30
100
AcDbSpline
210
0.0
220
0.0
230
1.0
 70
     8
 71
     3
 72
     9
 73
     5
 74
     0
 42
0.000000001
 43
0.00000001
 40
0.0
 40
0.0
 40
0.0
 40
0.0
 40
0.3398792944567324
 40
1.0
 40
1.0
 40
1.0
 40
1.0
 10
174.9346520589361
 20
112.7090185120287
 30
0.0
 10
174.8985552740727
 20
112.7230485981221
 30
0.0
 10
174.7923505553621
 20
112.7643282121565
 30
0.0
 10
174.677950627738
 20
112.7703352553464
 30
0.0
 10
174.6024328668007
 20
112.7743006289352
 30
0.0
  0
LINE
  5
16D
330
1F
100
AcDbEntity
  8
0
  6
Continuous
 62
     7
370
    30
100
AcDbLine
 10
178.035368735
 20
112.9086718502
 30
0.0
 11
178.0455236846
 21
112.394831399
 31
0.0
  0
LINE
  5
16E
330
1F
100
AcDbEntity
  8
0
  6
Continuous
 62
     7
370
    30
100
AcDbLine
 10
174.6024328668
 20
112.9086718502
 30
0.0
 11
175.2355652285
 21
112.9086718502
 31
0.0
  0
LINE
  5
16F
330
1F
100
AcDbEntity
  8
0
  6
Continuous
 62
     7
370
    30
100
AcDbLine
 10
177.5316832334
 20
112.9086718502
 30
0.0
 11
178.035368735
 21
112.9086718502
 31
0.0
  0
ARC
  5
170
330
1F
100
AcDbEntity
  8
0
  6
Continuous
 62
     7
370
    30
100
AcDbCircle
 10
160.6264549308
 20
95.5166694372
 30
0.0
 40
14.25
100
AcDbArc
 50
0.0
 51
20.6126029207
  0
ARC
  5
171
330
1F
100
AcDbEntity
  8
0
  6
Continuous
 62
     7
370
    30
100
AcDbCircle
 10
160.6264549308
 20
95.5166694372
 30
0.0
 40
14.25000000000001
100
AcDbArc
 50
61.7891366232
 51
0.0
  0
SPLINE
  5
172
330
1F
100
AcDbEntity
  8
0
  6
Continuous
 62
     7
370
    30
100
AcDbSpline
210
0.0
220
0.0
230
1.0
 70
     8
 71
     3
 72
    10
 73
     6
 74
     0
 42
0.000000001
 43
0.00000001
 40
0.0
 40
0.0
 40
0.0
 40
0.0
 40
0.2809750304475813
 40
0.5616982625243906
 40
1.0
 40
1.0
 40
1.0
 40
1.0
 10
140.4373056779431
 20
108.7471453600024
 30
0.0
 10
140.5082531162192
 20
108.6681554933095
 30
0.0
 10
140.6500844125686
 20
108.5102465474229
 30
0.0
 10
140.9677420196465
 20
108.2893826089332
 30
0.0
 10
141.24173796515
 20
108.2528389015731
 30
0.0
 10
141.4087598406911
 20
108.2305626648526
 30
0.0
  0
SPLINE
  5
173
330
1F
100
AcDbEntity
  8
0
  6
Continuous
 62
     7
370
    30
100
AcDbSpline
210
0.0
220
0.0
230
1.0
 70
     8
 71
     3
 72
    11
 73
     7
 74
     0
 42
0.000000001
 43
0.00000001
 40
0.0
 40
0.0
 40
0.0
 40
0.0
 40
0.2801598534098134
 40
0.5601702360544324
 40
0.7801436176392899
 40
1.0
 40
1.0
 40
1.0
 40
1.0
 10
139.9396344880107
 20
110.5009386333241
 30
0.0
 10
139.9442454034768
 20
110.3273018958595
 30
0.0
 10
139.9534647743953
 20
109.9801210595282
 30
0.0
 10
140.0471425147244
 20
109.5044381257006
 30
0.0
 10
140.1996281812773
 20
109.0814036646945
 30
0.0
 10
140.3580938968892
 20
108.8585450340066
 30
0.0
 10
140.4373056779431
 20
108.7471453600024
 30
0.0
  0
SPLINE
  5
174
330
1F
100
AcDbEntity
  8
0
  6
Continuous
 62
     7
370
    30
100
AcDbSpline
210
0.0
220
0.0
230
1.0
 70
     8
 71
     3
 72
    10
 73
     6
 74
     0
 42
0.000000001
 43
0.00000001
 40
0.0
 40
0.0
 40
0.0
 40
0.0
 40
0.2800298065245248
 40
0.5601300469590464
 40
1.0
 40
1.0
 40
1.0
 40
1.0
 10
141.4087598406911
 20
112.7912214493929
 30
0.0
 10
141.3047612625349
 20
112.7821013658929
 30
0.0
 10
141.096737948198
 20
112.7638589049831
 30
0.0
 10
140.7561730187022
 20
112.5968425413564
 30
0.0
 10
140.5699755831352
 20
112.4036311420823
 30
0.0
 10
140.4562171831605
 20
112.2855875204216
 30
0.0
  0
SPLINE
  5
175
330
1F
100
AcDbEntity
  8
0
  6
Continuous
 62
     7
370
    30
100
AcDbSpline
210
0.0
220
0.0
230
1.0
 70
     8
 71
     3
 72
     9
 73
     5
 74
     0
 42
0.000000001
 43
0.00000001
 40
0.0
 40
0.0
 40
0.0
 40
0.0
 40
0.5598964152250872
 40
1.0
 40
1.0
 40
1.0
 40
1.0
 10
142.4200276986337
 20
112.2855875204216
 30
0.0
 10
142.2608525335236
 20
112.4433924908631
 30
0.0
 10
141.9765585806036
 20
112.7252392149186
 30
0.0
 10
141.5822822619308
 20
112.7710569152367
 30
0.0
 10
141.4087598406911
 20
112.7912214493929
 30
0.0
  0
SPLINE
  5
176
330
1F
100
AcDbEntity
  8
0
  6
Continuous
 62
     7
370
    30
100
AcDbSpline
210
0.0
220
0.0
230
1.0
 70
     8
 71
     3
 72
    11
 73
     7
 74
     0
 42
0.000000001
 43
0.00000001
 40
0.0
 40
0.0
 40
0.0
 40
0.0
 40
0.280129930412732
 40
0.5601163870582004
 40
0.7801054999196941
 40
0.9999999999999999
 40
0.9999999999999999
 40
0.9999999999999999
 40
0.9999999999999999
 10
142.9535312142412
 20
110.5009386333241
 30
0.0
 10
142.948501454137
 20
110.6785315460426
 30
0.0
 10
142.9384445100139
 20
111.033626413958
 30
0.0
 10
142.8338087791605
 20
111.5187154775688
 30
0.0
 10
142.6683855321167
 20
111.9476279932392
 30
0.0
 10
142.5028017715483
 20
112.1729504992619
 30
0.0
 10
142.4200276986337
 20
112.2855875204216
 30
0.0
  0
SPLINE
  5
177
330
1F
100
AcDbEntity
  8
0
  6
Continuous
 62
     7
370
    30
100
AcDbSpline
210
0.0
220
0.0
230
1.0
 70
     8
 71
     3
 72
    10
 73
     6
 74
     0
 42
0.000000001
 43
0.00000001
 40
0.0
 40
0.0
 40
0.0
 40
0.0
 40
0.2798061903266481
 40
0.5599254203469173
 40
1.0
 40
1.0
 40
1.0
 40
1.0
 10
142.439934546231
 20
108.7471453600024
 30
0.0
 10
142.5387905969607
 20
108.89078947524
 30
0.0
 10
142.7366132959299
 20
109.1782384109154
 30
0.0
 10
142.9183678272672
 20
109.7807100526875
 30
0.0
 10
142.9401942028358
 20
110.2277653806581
 30
0.0
 10
142.9535312142412
 20
110.5009386333241
 30
0.0
  0
SPLINE
  5
178
330
1F
100
AcDbEntity
  8
0
  6
Continuous
 62
     7
370
    30
100
AcDbSpline
210
0.0
220
0.0
230
1.0
 70
     8
 71
     3
 72
    10
 73
     6
 74
     0
 42
0.000000001
 43
0.00000001
 40
0.0
 40
0.0
 40
0.0
 40
0.0
 40
0.2802295808595978
 40
0.5604246777460777
 40
1.0
 40
1.0
 40
1.0
 40
1.0
 10
141.4087598406911
 20
108.2305626648526
 30
0.0
 10
141.520068522864
 20
108.2385970963666
 30
0.0
 10
141.7426721899921
 20
108.2546649707084
 30
0.0
 10
142.1147951349283
 20
108.4167142804843
 30
0.0
 10
142.3166553065721
 20
108.6218597415059
 30
0.0
 10
142.439934546231
 20
108.7471453600024
 30
0.0
  0
SPLINE
  5
179
330
1F
100
AcDbEntity
  8
0
  6
Continuous
 62
     7
370
    30
100
AcDbSpline
210
0.0
220
0.0
230
1.0
 70
     8
 71
     3
 72
    10
 73
     6
 74
     0
 42
0.000000001
 43
0.00000001
 40
0.0
 40
0.0
 40
0.0
 40
0.0
 40
0.2797582719671647
 40
0.5598778938107669
 40
1.0
 40
1.0
 40
1.0
 40
1.0
 10
140.4562171831605
 20
112.2855875204216
 30
0.0
 10
140.3555204235131
 20
112.1395914238335
 30
0.0
 10
140.1539968392111
 20
111.8474106547448
 30
0.0
 10
139.9731549841433
 20
111.2333368612537
 30
0.0
 10
139.9523486996427
 20
110.7787348220184
 30
0.0
 10
139.9396344880107
 20
110.5009386333241
 30
0.0
  0
SPLINE
  5
17A
330
1F
100
AcDbEntity
  8
0
  6
Continuous
 62
     7
370
    30
100
AcDbSpline
210
0.0
220
0.0
230
1.0
 70
     8
 71
     3
 72
     9
 73
     5
 74
     0
 42
0.000000001
 43
0.00000001
 40
0.0
 40
0.0
 40
0.0
 40
0.0
 40
0.8427768410838624
 40
1.0
 40
1.0
 40
1.0
 40
1.0
 10
170.5931937607054
 20
110.4760550738274
 30
0.0
 10
170.5928075871675
 20
110.2936560737168
 30
0.0
 10
170.5923493715176
 20
110.0772298607278
 30
0.0
 10
170.6388629205296
 20
109.8670779641906
 30
0.0
 10
170.6461759276376
 20
109.8340372191648
 30
0.0
  0
SPLINE
  5
17B
330
1F
100
AcDbEntity
  8
0
  6
Continuous
 62
     7
370
    30
100
AcDbSpline
210
0.0
220
0.0
230
1.0
 70
     8
 71
     3
 72
    10
 73
     6
 74
     0
 42
0.000000001
 43
0.00000001
 40
0.0
 40
0.0
 40
0.0
 40
0.0
 40
0.2798811345009839
 40
0.5599585147220818
 40
1.0
 40
1.0
 40
1.0
 40
1.0
 10
171.1515808358096
 20
112.3373453241745
 30
0.0
 10
171.0449710919501
 20
112.1854809203979
 30
0.0
 10
170.8316768521191
 20
111.8816456292857
 30
0.0
 10
170.6310008900621
 20
111.242632221627
 30
0.0
 10
170.6075337658134
 20
110.7668129388691
 30
0.0
 10
170.5931937607054
 20
110.4760550738275
 30
0.0
  0
SPLINE
  5
17C
330
1F
100
AcDbEntity
  8
0
  6
Continuous
 62
     7
370
    30
100
AcDbSpline
210
0.0
220
0.0
230
1.0
 70
     8
 71
     3
 72
    10
 73
     6
 74
     0
 42
0.000000001
 43
0.00000001
 40
0.0
 40
0.0
 40
0.0
 40
0.0
 40
0.2801976001720091
 40
0.56037003192355
 40
0.9999999999999999
 40
0.9999999999999999
 40
0.9999999999999999
 40
0.9999999999999999
 10
172.2195832094044
 20
112.8748302093015
 30
0.0
 10
172.1042982643065
 20
112.8659993790725
 30
0.0
 10
171.8737387294454
 20
112.8483385118336
 30
0.0
 10
171.4886895913049
 20
112.6794938992823
 30
0.0
 10
171.2794046878248
 20
112.4670801593542
 30
0.0
 10
171.1515808358096
 20
112.3373453241745
 30
0.0
  0
SPLINE
  5
17D
330
1F
100
AcDbEntity
  8
0
  6
Continuous
 62
     7
370
    30
100
AcDbSpline
210
0.0
220
0.0
230
1.0
 70
     8
 71
     3
 72
    10
 73
     6
 74
     0
 42
0.000000001
 43
0.00000001
 40
0.0
 40
0.0
 40
0.0
 40
0.0
 40
0.2807931901961646
 40
0.5613380715103652
 40
1.0
 40
1.0
 40
1.0
 40
1.0
 10
173.3015203763174
 20
112.3373453241745
 30
0.0
 10
173.2210825672551
 20
112.4214681593592
 30
0.0
 10
173.0602780812772
 20
112.5896394388676
 30
0.0
 10
172.7033055242082
 20
112.817756115317
 30
0.0
 10
172.4028428108149
 20
112.8532075233216
 30
0.0
 10
172.2195832094044
 20
112.8748302093015
 30
0.0
  0
SPLINE
  5
17E
330
1F
100
AcDbEntity
  8
0
  6
Continuous
 62
     7
370
    30
100
AcDbSpline
210
0.0
220
0.0
230
1.0
 70
     8
 71
     3
 72
     9
 73
     5
 74
     0
 42
0.000000001
 43
0.00000001
 40
0.0
 40
0.0
 40
0.0
 40
0.0
 40
0.4007527159507573
 40
1.0
 40
1.0
 40
1.0
 40
1.0
 10
173.6543318535208
 20
111.7057212023431
 30
0.0
 10
173.6207072539624
 20
111.797295528427
 30
0.0
 10
173.5368036440303
 20
112.0258013437067
 30
0.0
 10
173.3896823888876
 20
112.2206079777871
 30
0.0
 10
173.3015203763174
 20
112.3373453241745
 30
0.0
  0
LINE
  5
17F
330
1F
100
AcDbEntity
  8
0
  6
Continuous
 62
     7
370
    30
100
AcDbLine
 10
184.3764549308
 20
117.0166694372
 30
0.0
 11
184.8764549308
 21
117.0166694372
 31
0.0
  0
LINE
  5
180
330
1F
100
AcDbEntity
  8
0
  6
Continuous
 62
     7
370
    30
100
AcDbLine
 10
184.8764549308
 20
117.0166694372
 30
0.0
 11
184.8764549308
 21
72.0166694372
 31
0.0
  0
LINE
  5
181
330
1F
100
AcDbEntity
  8
0
  6
Continuous
 62
     7
370
    30
100
AcDbLine
 10
184.8764549308
 20
72.0166694372
 30
0.0
 11
184.3764549308
 21
72.0166694372
 31
0.0
  0
LINE
  5
182
330
1F
100
AcDbEntity
  8
0
  6
Continuous
 62
     7
370
    30
100
AcDbLine
 10
182.8764549308
 20
118.5166694372
 30
0.0
 11
182.8764549308
 21
119.0166694372
 31
0.0
  0
ARC
  5
183
330
1F
100
AcDbEntity
  8
0
  6
Continuous
 62
     7
370
    30
100
AcDbCircle
 10
182.8764549308
 20
117.0166694372
 30
0.0
 40
2.0
100
AcDbArc
 50
0.0
 51
90.0
  0
ARC
  5
184
330
1F
100
AcDbEntity
  8
0
  6
Continuous
 62
     7
370
    30
100
AcDbCircle
 10
182.8764549308
 20
72.0166694372
 30
0.0
 40
2.0
100
AcDbArc
 50
270.0
 51
0.0
  0
LINE
  5
185
330
1F
100
AcDbEntity
  8
0
  6
Continuous
 62
     7
370
    30
100
AcDbLine
 10
182.8764549308
 20
70.0166694372
 30
0.0
 11
182.8764549308
 21
70.5166694372
 31
0.0
  0
LINE
  5
186
330
1F
100
AcDbEntity
  8
0
  6
Continuous
 62
     7
370
    30
100
AcDbLine
 10
138.3764549308
 20
118.5166694372
 30
0.0
 11
138.3764549308
 21
119.0166694372
 31
0.0
  0
LINE
  5
187
330
1F
100
AcDbEntity
  8
0
  6
Continuous
 62
     7
370
    30
100
AcDbLine
 10
138.3764549308
 20
119.0166694372
 30
0.0
 11
182.8764549308
 21
119.0166694372
 31
0.0
  0
LINE
  5
188
330
1F
100
AcDbEntity
  8
0
  6
Continuous
 62
     7
370
    30
100
AcDbLine
 10
182.8764549308
 20
70.0166694372
 30
0.0
 11
138.3764549308
 21
70.0166694372
 31
0.0
  0
LINE
  5
189
330
1F
100
AcDbEntity
  8
0
  6
Continuous
 62
     7
370
    30
100
AcDbLine
 10
138.3764549308
 20
70.0166694372
 30
0.0
 11
138.3764549308
 21
70.5166694372
 31
0.0
  0
LINE
  5
18A
330
1F
100
AcDbEntity
  8
0
  6
Continuous
 62
     7
370
    30
100
AcDbLine
 10
136.8764549308
 20
117.0166694372
 30
0.0
 11
136.3764549308
 21
117.0166694372
 31
0.0
  0
ARC
  5
18B
330
1F
100
AcDbEntity
  8
0
  6
Continuous
 62
     7
370
    30
100
AcDbCircle
 10
138.3764549308
 20
117.0166694372
 30
0.0
 40
2.0
100
AcDbArc
 50
90.0
 51
180.0
  0
ARC
  5
18C
330
1F
100
AcDbEntity
  8
0
  6
Continuous
 62
     7
370
    30
100
AcDbCircle
 10
138.3764549308
 20
72.0166694372
 30
0.0
 40
2.0
100
AcDbArc
 50
180.0
 51
270.0
  0
LINE
  5
18D
330
1F
100
AcDbEntity
  8
0
  6
Continuous
 62
     7
370
    30
100
AcDbLine
 10
136.3764549308
 20
72.0166694372
 30
0.0
 11
136.8764549308
 21
72.0166694372
 31
0.0
  0
LINE
  5
18E
330
1F
100
AcDbEntity
  8
0
  6
Continuous
 62
     7
370
    30
100
AcDbLine
 10
136.3764549308
 20
72.0166694372
 30
0.0
 11
136.3764549308
 21
117.0166694372
 31
0.0
  0
ARC
  5
18F
330
1F
100
AcDbEntity
  8
0
  6
Continuous
 62
     7
370
    30
100
AcDbCircle
 10
160.6264549308
 20
95.5166694372
 30
0.0
 40
13.75
100
AcDbArc
 50
0.0
 51
19.6644458143
  0
ARC
  5
190
330
1F
100
AcDbEntity
  8
0
  6
Continuous
 62
     7
370
    30
100
AcDbCircle
 10
160.6264549308
 20
95.5166694372
 30
0.0
 40
13.75
100
AcDbArc
 50
62.4188027432
 51
0.0
  0
LINE
  5
191
330
1F
100
AcDbEntity
  8
0
  6
Continuous
 62
     7
370
    30
100
AcDbLine
 10
154.3264549308
 20
68.5166694372
 30
0.0
 11
154.3264549308
 21
69.5166694372
 31
0.0
  0
LINE
  5
192
330
1F
100
AcDbEntity
  8
0
  6
Continuous
 62
     7
370
    30
100
AcDbLine
 10
141.1264549308
 20
64.5166694372
 30
0.0
 11
154.3264549308
 21
68.5166694372
 31
0.0
  0
LINE
  5
193
330
1F
100
AcDbEntity
  8
0
  6
Continuous
 62
     7
370
    30
100
AcDbLine
 10
135.6264549308
 20
64.5166694372
 30
0.0
 11
141.1264549308
 21
64.5166694372
 31
0.0
  0
LINE
  5
194
330
1F
100
AcDbEntity
  8
0
  6
Continuous
 62
     7
370
    30
100
AcDbLine
 10
135.6264549308
 20
120.0166694372
 30
0.0
 11
135.6264549308
 21
64.5166694372
 31
0.0
  0
LINE
  5
195
330
1F
100
AcDbEntity
  8
0
  6
Continuous
 62
     7
370
    30
100
AcDbLine
 10
185.6264549308
 20
120.0166694372
 30
0.0
 11
135.6264549308
 21
120.0166694372
 31
0.0
  0
LINE
  5
196
330
1F
100
AcDbEntity
  8
0
  6
Continuous
 62
     7
370
    30
100
AcDbLine
 10
185.6264549308
 20
64.5166694372
 30
0.0
 11
185.6264549308
 21
120.0166694372
 31
0.0
  0
LINE
  5
197
330
1F
100
AcDbEntity
  8
0
  6
Continuous
 62
     7
370
    30
100
AcDbLine
 10
166.9264549308
 20
68.5166694372
 30
0.0
 11
180.1264549308
 21
64.5166694372
 31
0.0
  0
LINE
  5
198
330
1F
100
AcDbEntity
  8
0
  6
Continuous
 62
     7
370
    30
100
AcDbLine
 10
154.3264549308
 20
69.5166694372
 30
0.0
 11
166.9264549308
 21
69.5166694372
 31
0.0
  0
LINE
  5
199
330
1F
100
AcDbEntity
  8
0
  6
Continuous
 62
     7
370
    30
100
AcDbLine
 10
180.1264549308
 20
64.5166694372
 30
0.0
 11
185.6264549308
 21
64.5166694372
 31
0.0
  0
LINE
  5
19A
330
1F
100
AcDbEntity
  8
0
  6
Continuous
 62
     7
370
    30
100
AcDbLine
 10
166.9264549308
 20
69.5166694372
 30
0.0
 11
166.9264549308
 21
68.5166694372
 31
0.0
  0
DIMENSION
  5
19B
330
1F
100
AcDbEntity
  8
SLD-0
100
AcDbDimension
  2
_D
 10
185.6264549308
 20
127.0166694372
 30
0.0
 11
160.6264549308
 21
127.0166694372
 31
0.0
 70
   160
  1
<>
 71
     2
 42
-1.0
  3
SLDDIMSTYLE0
100
AcDbAlignedDimension
 13
135.6264549308
 23
120.0166694372
 33
0.0
 14
185.6264549308
 24
120.0166694372
 34
0.0
100
AcDbRotatedDimension
  0
LINE
  5
1A6
330
1F
100
AcDbEntity
  8
0
  6
Continuous
 62
     7
370
    30
100
AcDbLine
 10
103.0790625484
 20
84.1702271099
 30
0.0
 11
115.9790625484
 21
84.1702271099
 31
0.0
  0
ARC
  5
1A7
330
1F
100
AcDbEntity
  8
0
  6
Continuous
 62
     7
370
    30
100
AcDbCircle
 10
115.9790625484
 20
85.1702271099
 30
0.0
 40
1.0
100
AcDbArc
 50
270.0
 51
0.0
  0
LINE
  5
1A8
330
1F
100
AcDbEntity
  8
0
  6
Continuous
 62
     7
370
    30
100
AcDbLine
 10
104.5790625484
 20
106.6763237643
 30
0.0
 11
103.0790625484
 21
106.6763237643
 31
0.0
  0
SPLINE
  5
1A9
330
1F
100
AcDbEntity
  8
0
  6
Continuous
 62
     7
370
    30
100
AcDbSpline
210
0.0
220
0.0
230
1.0
 70
     8
 71
     3
 72
    16
 73
    12
 74
     0
 42
0.000000001
 43
0.00000001
 40
0.0
 40
0.0
 40
0.0
 40
0.0
 40
0.0608510949477813
 40
0.2001821150920894
 40
0.3241718159275667
 40
0.4408389278650602
 40
0.5644087164777876
 40
0.6862852337915716
 40
0.8084071950372458
 40
0.9313780058754556
 40
1.0
 40
1.0
 40
1.0
 40
1.0
 10
106.0790625484489
 20
107.4440907173138
 30
0.0
 10
106.0786146090694
 20
107.4330576530344
 30
0.0
 10
106.0771410209199
 20
107.3967621328748
 30
0.0
 10
106.058766061455
 20
107.3275095187241
 30
0.0
 10
105.9907848886697
 20
107.2100947911505
 30
0.0
 10
105.8626403860829
 20
107.0744425987362
 30
0.0
 10
105.6678848492447
 20
106.9363747982455
 30
0.0
 10
105.408797899121
 20
106.8139393358709
 30
0.0
 10
105.1045816944636
 20
106.7247198826484
 30
0.0
 10
104.8200625565573
 20
106.6817670578804
 30
0.0
 10
104.6426173547029
 20
106.6777592309625
 30
0.0
 10
104.5790625484489
 20
106.6763237643475
 30
0.0
  0
ARC
  5
1AA
330
1F
100
AcDbEntity
  8
0
  6
Continuous
 62
     7
370
    30
100
AcDbCircle
 10
107.0790625484
 20
112.6051392883
 30
0.0
 40
1.0
100
AcDbArc
 50
90.0
 51
180.0
  0
LINE
  5
1AB
330
1F
100
AcDbEntity
  8
0
  6
Continuous
 62
     7
370
    30
100
AcDbLine
 10
115.9790625484
 20
113.6051392883
 30
0.0
 11
107.0790625484
 21
113.6051392883
 31
0.0
  0
ARC
  5
1AC
330
1F
100
AcDbEntity
  8
0
  6
Continuous
 62
     7
370
    30
100
AcDbCircle
 10
115.9790625484
 20
112.6051392883
 30
0.0
 40
1.0
100
AcDbArc
 50
0.0
 51
90.0
  0
LINE
  5
1AD
330
1F
100
AcDbEntity
  8
0
  6
Continuous
 62
     7
370
    30
100
AcDbLine
 10
38.9790625484
 20
64.5166694372
 30
0.0
 11
99.5790625484
 21
64.5166694372
 31
0.0
  0
LINE
  5
1AE
330
1F
100
AcDbEntity
  8
0
  6
Continuous
 62
     7
370
    30
100
AcDbLine
 10
38.9790625484
 20
120.0166694372
 30
0.0
 11
99.5790625484
 21
120.0166694372
 31
0.0
  0
LINE
  5
1AF
330
1F
100
AcDbEntity
  8
0
  6
Continuous
 62
     7
370
    30
100
AcDbLine
 10
99.5790625484
 20
120.0166694372
 30
0.0
 11
99.5790625484
 21
64.5166694372
 31
0.0
  0
LINE
  5
1B0
330
1F
100
AcDbEntity
  8
0
  6
Continuous
 62
     7
370
    30
100
AcDbLine
 10
38.9790625484
 20
120.0166694372
 30
0.0
 11
38.9790625484
 21
64.5166694372
 31
0.0
  0
LINE
  5
1B1
330
1F
100
AcDbEntity
  8
0
  6
Continuous
 62
     7
370
    30
100
AcDbLine
 10
102.5790625484
 20
119.0166694372
 30
0.0
 11
99.5790625484
 21
119.0166694372
 31
0.0
  0
LINE
  5
1B2
330
1F
100
AcDbEntity
  8
0
  6
Continuous
 62
     7
370
    30
100
AcDbLine
 10
102.5790625484
 20
117.0166694372
 30
0.0
 11
102.5790625484
 21
119.0166694372
 31
0.0
  0
LINE
  5
1B3
330
1F
100
AcDbEntity
  8
0
  6
Continuous
 62
     7
370
    30
100
AcDbLine
 10
102.5790625484
 20
117.0166694372
 30
0.0
 11
99.5790625484
 21
117.0166694372
 31
0.0
  0
LINE
  5
1B4
330
1F
100
AcDbEntity
  8
0
  6
Continuous
 62
     7
370
    30
100
AcDbLine
 10
102.5790625484
 20
72.0166694372
 30
0.0
 11
99.5790625484
 21
72.0166694372
 31
0.0
  0
LINE
  5
1B5
330
1F
100
AcDbEntity
  8
0
  6
Continuous
 62
     7
370
    30
100
AcDbLine
 10
102.5790625484
 20
70.0166694372
 30
0.0
 11
102.5790625484
 21
72.0166694372
 31
0.0
  0
LINE
  5
1B6
330
1F
100
AcDbEntity
  8
0
  6
Continuous
 62
     7
370
    30
100
AcDbLine
 10
102.5790625484
 20
70.0166694372
 30
0.0
 11
99.5790625484
 21
70.0166694372
 31
0.0
  0
LINE
  5
1B7
330
1F
100
AcDbEntity
  8
0
  6
Continuous
 62
     7
370
    30
100
AcDbLine
 10
102.5790625484
 20
72.0166694372
 30
0.0
 11
102.5790625484
 21
117.0166694372
 31
0.0
  0
LINE
  5
1B8
330
1F
100
AcDbEntity
  8
0
  6
Continuous
 62
     7
370
    30
100
AcDbLine
 10
103.0790625484
 20
118.5166694372
 30
0.0
 11
103.0790625484
 21
117.0166694372
 31
0.0
  0
LINE
  5
1B9
330
1F
100
AcDbEntity
  8
0
  6
Continuous
 62
     7
370
    30
100
AcDbLine
 10
103.0790625484
 20
117.0166694372
 30
0.0
 11
102.5790625484
 21
117.0166694372
 31
0.0
  0
ARC
  5
1BA
330
1F
100
AcDbEntity
  8
0
  6
Continuous
 62
     7
370
    30
100
AcDbCircle
 10
102.5790625484
 20
118.5166694372
 30
0.0
 40
0.5
100
AcDbArc
 50
0.0
 51
90.0
  0
LINE
  5
1BB
330
1F
100
AcDbEntity
  8
0
  6
Continuous
 62
     7
370
    30
100
AcDbLine
 10
103.0790625484
 20
117.0166694372
 30
0.0
 11
103.0790625484
 21
72.0166694372
 31
0.0
  0
LINE
  5
1BC
330
1F
100
AcDbEntity
  8
0
  6
Continuous
 62
     7
370
    30
100
AcDbLine
 10
102.5790625484
 20
72.0166694372
 30
0.0
 11
103.0790625484
 21
72.0166694372
 31
0.0
  0
LINE
  5
1BD
330
1F
100
AcDbEntity
  8
0
  6
Continuous
 62
     7
370
    30
100
AcDbLine
 10
103.0790625484
 20
72.0166694372
 30
0.0
 11
103.0790625484
 21
70.5166694372
 31
0.0
  0
ARC
  5
1BE
330
1F
100
AcDbEntity
  8
0
  6
Continuous
 62
     7
370
    30
100
AcDbCircle
 10
102.5790625484
 20
70.5166694372
 30
0.0
 40
0.5
100
AcDbArc
 50
270.0
 51
0.0
  0
LINE
  5
1BF
330
1F
100
AcDbEntity
  8
0
  6
Continuous
 62
     7
370
    30
100
AcDbLine
 10
103.0790625484
 20
91.5341881406
 30
0.0
 11
115.9790625484
 21
91.5341881406
 31
0.0
  0
LINE
  5
1C0
330
1F
100
AcDbEntity
  8
0
  6
Continuous
 62
     7
370
    30
100
AcDbLine
 10
115.9790625484
 20
91.5341881406
 30
0.0
 11
115.9790625484
 21
90.1199745782
 31
0.0
  0
LINE
  5
1C1
330
1F
100
AcDbEntity
  8
0
  6
Continuous
 62
     7
370
    30
100
AcDbLine
 10
115.9790625484
 20
90.1199745782
 30
0.0
 11
103.0790625484
 21
90.1199745782
 31
0.0
  0
ARC
  5
1C2
330
1F
100
AcDbEntity
  8
0
  6
Continuous
 62
     7
370
    30
100
AcDbCircle
 10
116.1040625484
 20
91.0038580547
 30
0.0
 40
0.8926785535678754
100
AcDbArc
 50
261.9505330245
 51
348.578246341
  0
ARC
  5
1C3
330
1F
100
AcDbEntity
  8
0
  6
Continuous
 62
     7
370
    30
100
AcDbCircle
 10
116.1040625484
 20
90.6503046641
 30
0.0
 40
0.8926785535678537
100
AcDbArc
 50
11.421753659
 51
98.0494669755
  0
LINE
  5
1C4
330
1F
100
AcDbEntity
  8
0
  6
Continuous
 62
     7
370
    30
100
AcDbLine
 10
107.0790625484
 20
108.3591676092
 30
0.0
 11
107.0790625484
 21
108.1511974985
 31
0.0
  0
LINE
  5
1C5
330
1F
100
AcDbEntity
  8
0
  6
Continuous
 62
     7
370
    30
100
AcDbLine
 10
115.9790625484
 20
108.3591676092
 30
0.0
 11
107.0790625484
 21
108.3591676092
 31
0.0
  0
LINE
  5
1C6
330
1F
100
AcDbEntity
  8
0
  6
Continuous
 62
     7
370
    30
100
AcDbLine
 10
115.9790625484
 20
91.5341881406
 30
0.0
 11
115.9790625484
 21
108.3591676092
 31
0.0
  0
LINE
  5
1C7
330
1F
100
AcDbEntity
  8
0
  6
Continuous
 62
     7
370
    30
100
AcDbLine
 10
104.5790625484
 20
106.3834305455
 30
0.0
 11
103.0790625484
 21
106.3834305455
 31
0.0
  0
ARC
  5
1C8
330
1F
100
AcDbEntity
  8
0
  6
Continuous
 62
     7
370
    30
100
AcDbCircle
 10
104.8915625484
 20
108.5931392367
 30
0.0
 40
2.231696383919658
100
AcDbArc
 50
261.9505330245
 51
348.578246341
  0
LINE
  5
1C9
330
1F
100
AcDbEntity
  8
0
  6
Continuous
 62
     7
370
    30
100
AcDbLine
 10
115.9790625484
 20
84.4631203288
 30
0.0
 11
115.9790625484
 21
90.1199745782
 31
0.0
  0
LINE
  5
1CA
330
1F
100
AcDbEntity
  8
0
  6
Continuous
 62
     7
370
    30
100
AcDbLine
 10
103.0790625484
 20
84.4631203288
 30
0.0
 11
115.9790625484
 21
84.4631203288
 31
0.0
  0
LINE
  5
1CB
330
1F
100
AcDbEntity
  8
0
  6
Continuous
 62
     7
370
    30
100
AcDbLine
 10
116.9790625484
 20
107.652060828
 30
0.0
 11
116.9790625484
 21
90.8270813594
 31
0.0
  0
ARC
  5
1CC
330
1F
100
AcDbEntity
  8
0
  6
Continuous
 62
     7
370
    30
100
AcDbCircle
 10
116.1040625484
 20
107.4752841327
 30
0.0
 40
0.8926785535678754
100
AcDbArc
 50
11.421753659
 51
98.0494669755
  0
LINE
  5
1CD
330
1F
100
AcDbEntity
  8
0
  6
Continuous
 62
     7
370
    30
100
AcDbLine
 10
116.9790625484
 20
90.8270813594
 30
0.0
 11
116.9790625484
 21
85.1702271099
 31
0.0
  0
ARC
  5
1CE
330
1F
100
AcDbEntity
  8
0
  6
Continuous
 62
     7
370
    30
100
AcDbCircle
 10
116.1040625484
 20
85.3470038052
 30
0.0
 40
0.8926785535678761
100
AcDbArc
 50
261.9505330245
 51
348.578246341
  0
ARC
  5
1CF
330
1F
100
AcDbEntity
  8
0
  6
Continuous
 62
     7
370
    30
100
AcDbCircle
 10
106.9540625484
 20
107.267314022
 30
0.0
 40
0.8926785535678537
100
AcDbArc
 50
81.9505330245
 51
168.578246341
  0
LINE
  5
1D0
330
1F
100
AcDbEntity
  8
0
  6
Continuous
 62
     7
370
    30
100
AcDbLine
 10
106.0790625484
 20
107.4440907173
 30
0.0
 11
106.0790625484
 21
107.652060828
 31
0.0
  0
ARC
  5
1D1
330
1F
100
AcDbEntity
  8
0
  6
Continuous
 62
     7
370
    30
100
AcDbCircle
 10
106.9540625484
 20
107.4752841327
 30
0.0
 40
0.8926785535678633
100
AcDbArc
 50
81.9505330245
 51
168.578246341
  0
ARC
  5
1D2
330
1F
100
AcDbEntity
  8
0
  6
Continuous
 62
     7
370
    30
100
AcDbCircle
 10
107.0441547941
 20
107.614426901
 30
0.0
 40
0.9658257374594522
100
AcDbArc
 50
87.9287125778
 51
177.7668733388
  0
LINE
  5
1D3
330
1F
100
AcDbEntity
  8
0
  6
Continuous
 62
     7
370
    30
100
AcDbLine
 10
107.0790625484
 20
108.5796215984
 30
0.0
 11
107.0790625484
 21
108.3591676092
 31
0.0
  0
LINE
  5
1D4
330
1F
100
AcDbEntity
  8
0
  6
Continuous
 62
     7
370
    30
100
AcDbLine
 10
115.9790625484
 20
108.5796215984
 30
0.0
 11
115.9790625484
 21
108.3591676092
 31
0.0
  0
LINE
  5
1D5
330
1F
100
AcDbEntity
  8
0
  6
Continuous
 62
     7
370
    30
100
AcDbLine
 10
107.0790625484
 20
108.5796215984
 30
0.0
 11
115.9790625484
 21
108.5796215984
 31
0.0
  0
ARC
  5
1D6
330
1F
100
AcDbEntity
  8
0
  6
Continuous
 62
     7
370
    30
100
AcDbCircle
 10
116.0139703028
 20
107.614426901
 30
0.0
 40
0.9658257374594879
100
AcDbArc
 50
2.2331266612
 51
92.0712874222
  0
LINE
  5
1D7
330
1F
100
AcDbEntity
  8
0
  6
Continuous
 62
     7
370
    30
100
AcDbLine
 10
106.0790625484
 20
107.652060828
 30
0.0
 11
106.0790625484
 21
112.6051392883
 31
0.0
  0
ARC
  5
1D8
330
1F
100
AcDbEntity
  8
0
  6
Continuous
 62
     7
370
    30
100
AcDbCircle
 10
106.9707536271
 20
112.461271694
 30
0.0
 40
0.9032224889198429
100
AcDbArc
 50
83.1128671002
 51
170.8347438363
  0
LINE
  5
1D9
330
1F
100
AcDbEntity
  8
0
  6
Continuous
 62
     7
370
    30
100
AcDbLine
 10
107.0790625484
 20
113.3579767972
 30
0.0
 11
107.0790625484
 21
108.5796215984
 31
0.0
  0
LINE
  5
1DA
330
1F
100
AcDbEntity
  8
0
  6
Continuous
 62
     7
370
    30
100
AcDbLine
 10
115.9790625484
 20
108.5796215984
 30
0.0
 11
115.9790625484
 21
113.3579767972
 31
0.0
  0
LINE
  5
1DB
330
1F
100
AcDbEntity
  8
0
  6
Continuous
 62
     7
370
    30
100
AcDbLine
 10
115.9790625484
 20
113.3579767972
 30
0.0
 11
107.0790625484
 21
113.3579767972
 31
0.0
  0
ARC
  5
1DC
330
1F
100
AcDbEntity
  8
0
  6
Continuous
 62
     7
370
    30
100
AcDbCircle
 10
116.0873714698
 20
112.461271694
 30
0.0
 40
0.9032224889198678
100
AcDbArc
 50
9.1652561637
 51
96.8871328998
  0
LINE
  5
1DD
330
1F
100
AcDbEntity
  8
0
  6
Continuous
 62
     7
370
    30
100
AcDbLine
 10
116.9790625484
 20
112.6051392883
 30
0.0
 11
116.9790625484
 21
107.652060828
 31
0.0
  0
LINE
  5
1DE
330
1F
100
AcDbEntity
  8
0
  6
Continuous
 62
     8
370
    30
100
AcDbLine
 10
115.9790625484
 20
84.4631203288
 30
0.0
 11
115.9790625484
 21
84.1702271099
 31
0.0
  0
LINE
  5
1DF
330
1F
100
AcDbEntity
  8
0
  6
Continuous
 62
     8
370
    30
100
AcDbLine
 10
104.5790625484
 20
106.6763237643
 30
0.0
 11
104.5790625484
 21
106.3834305455
 31
0.0
  0
LINE
  5
1E0
330
1F
100
AcDbEntity
  8
0
  6
Continuous
 62
     8
370
    30
100
AcDbLine
 10
107.0790625484
 20
113.6051392883
 30
0.0
 11
107.0790625484
 21
113.3579767972
 31
0.0
  0
LINE
  5
1E1
330
1F
100
AcDbEntity
  8
0
  6
Continuous
 62
     8
370
    30
100
AcDbLine
 10
115.9790625484
 20
113.6051392883
 30
0.0
 11
115.9790625484
 21
113.3579767972
 31
0.0
  0
LINE
  5
1E2
330
1F
100
AcDbEntity
  8
SLD-0
  6
CENTERX2
100
AcDbLine
 10
65.9263625484
 20
120.0166694372
 30
0.0
 11
65.9263625484
 21
110.0166694372
 31
0.0
  0
LINE
  5
1E3
330
1F
100
AcDbEntity
  8
SLD-0
  6
CENTERX2
100
AcDbLine
 10
65.9263625484
 20
110.0166694372
 30
0.0
 11
68.4790625484
 21
108.4809763117
 31
0.0
  0
LINE
  5
1E4
330
1F
100
AcDbEntity
  8
SLD-0
  6
CENTERX2
100
AcDbLine
 10
68.4790625484
 20
108.4809763117
 30
0.0
 11
71.0317625484
 21
110.0166694372
 31
0.0
  0
LINE
  5
1E5
330
1F
100
AcDbEntity
  8
SLD-0
  6
CENTERX2
100
AcDbLine
 10
71.0317625484
 20
110.0166694372
 30
0.0
 11
71.0317625484
 21
120.0166694372
 31
0.0
  0
DIMENSION
  5
1E6
330
1F
100
AcDbEntity
  8
SLD-0
100
AcDbDimension
  2
_D_1
 10
30.1789137905
 20
64.5166694372
 30
0.0
 11
30.1789137905
 21
92.2666694372
 31
0.0
 70
   160
  1
<>
 71
     2
 42
-1.0
  3
SLDDIMSTYLE0
100
AcDbAlignedDimension
 13
38.9790625484
 23
120.0166694372
 33
0.0
 14
38.9790625484
 24
64.5166694372
 34
0.0
 50
90.0
100
AcDbRotatedDimension
  0
DIMENSION
  5
1F0
330
1F
100
AcDbEntity
  8
SLD-0
100
AcDbDimension
  2
_D_2
 10
99.5790625484
 20
48.752336857
 30
0.0
 11
69.2790625484
 21
48.752336857
 31
0.0
 70
   160
  1
<>
 71
     2
 42
-1.0
  3
SLDDIMSTYLE0
100
AcDbAlignedDimension
 13
38.9790625484
 23
64.5166694372
 33
0.0
 14
99.5790625484
 24
64.5166694372
 34
0.0
100
AcDbRotatedDimension
  0
DIMENSION
  5
1FA
330
1F
100
AcDbEntity
  8
SLD-0
100
AcDbDimension
  2
_D_3
 10
116.9790625484
 20
40.9825431244
 30
0.0
 11
77.9790625484
 21
40.9825431244
 31
0.0
 70
   160
  1
<>
 71
     2
 42
-1.0
  3
SLDDIMSTYLE0
100
AcDbAlignedDimension
 13
38.9790625484
 23
64.5166694372
 33
0.0
 14
116.9790625484
 24
85.1702271099
 34
0.0
100
AcDbRotatedDimension
  0
DIMENSION
  5
204
330
1F
100
AcDbEntity
  8
SLD-0
100
AcDbDimension
  2
_D_4
 10
68.4790625484
 20
56.0559429657
 30
0.0
 11
53.7290625484
 21
56.0559429657
 31
0.0
 70
   160
  1
<>
 71
     2
 42
-1.0
  3
SLDDIMSTYLE0
100
AcDbAlignedDimension
 13
38.9790625484
 23
64.5166694372
 33
0.0
 14
68.4790625484
 24
108.0166694372
 34
0.0
100
AcDbRotatedDimension
  0
INSERT
  5
213
330
1F
100
AcDbEntity
  8
SLD-0
100
AcDbBlockReference
  2
SW_NOTE_2
 10
73.4783653846
 20
130.5144229689
 30
0.0
  0
LEADER
  5
215
330
1F
100
AcDbEntity
  8
SLD-0
100
AcDbLeader
  3
SLDDIMSTYLE1
 76
     2
 10
68.4790625484
 20
120.0759084179
 30
0.0
 10
73.4783653846
 20
130.5144229689
 30
0.0
  0
LINE
  5
216
330
1F
100
AcDbEntity
  8
SLD-0
  6
CENTERX2
370
     0
100
AcDbLine
 10
68.4790625484
 20
108.0166694372
 30
0.0
 11
68.4790625484
 21
122.0166694372
 31
0.0
  0
LINE
  5
217
330
1F
100
AcDbEntity
  8
0
  6
Continuous
 62
     7
370
    30
100
AcDbLine
 10
227.0721630077
 20
146.4777906037
 30
0.0
 11
225.8729464176
 21
148.554894661
 31
0.0
  0
ARC
  5
218
330
1F
100
AcDbEntity
  8
0
  6
Continuous
 62
     7
370
    30
100
AcDbCircle
 10
226.494812739
 20
146.1444572696
 30
0.0
 40
0.6666666666666856
100
AcDbArc
 50
306.6306917676
 51
0.0
  0
ARC
  5
219
330
1F
100
AcDbEntity
  8
0
  6
Continuous
 62
     7
370
    30
100
AcDbCircle
 10
226.494812739
 20
146.1444572696
 30
0.0
 40
0.6666666666666864
100
AcDbArc
 50
0.0
 51
30.0000000728
  0
ARC
  5
21A
330
1F
100
AcDbEntity
  8
0
  6
Continuous
 62
     7
370
    30
100
AcDbCircle
 10
225.2955961488
 20
148.2215613269
 30
0.0
 40
0.6666666666666844
100
AcDbArc
 50
30.0000000728
 51
113.3799168625
  0
SPLINE
  5
21B
330
1F
100
AcDbEntity
  8
0
  6
Continuous
 62
     7
370
    30
100
AcDbSpline
210
0.0
220
0.0
230
1.0
 70
     8
 71
     3
 72
    13
 73
     9
 74
     0
 42
0.000000001
 43
0.00000001
 40
0.0
 40
0.0
 40
0.0
 40
0.0
 40
0.1048384935971827
 40
0.3075644491615686
 40
0.5110622814474453
 40
0.7159910894253776
 40
0.9225830046615682
 40
1.0
 40
1.0
 40
1.0
 40
1.0
 10
224.7708284414157
 20
142.8346761102542
 30
0.0
 10
224.8264602736099
 20
142.9572705253681
 30
0.0
 10
224.9896672526266
 20
143.3169254809199
 30
0.0
 10
225.2984935799984
 20
143.8677690938492
 30
0.0
 10
225.7123751597111
 20
144.4648132807758
 30
0.0
 10
226.1753602945211
 20
144.9968527548979
 30
0.0
 10
226.5765723947869
 20
145.3677012457121
 30
0.0
 10
226.8248936168256
 20
145.5576744782352
 30
0.0
 10
226.8925826299982
 20
145.609458617074
 30
0.0
  0
SPLINE
  5
21C
330
1F
100
AcDbEntity
  8
0
  6
Continuous
 62
     7
370
    30
100
AcDbSpline
210
0.0
220
0.0
230
1.0
 70
     8
 71
     3
 72
    13
 73
     9
 74
     0
 42
0.000000001
 43
0.00000001
 40
0.0
 40
0.0
 40
0.0
 40
0.0
 40
0.1044834029857353
 40
0.3137920114778595
 40
0.5220470047459499
 40
0.728684138584907
 40
0.9337184781206547
 40
1.0
 40
1.0
 40
1.0
 40
1.0
 10
225.0310453636379
 20
148.833490511152
 30
0.0
 10
224.924600261274
 20
148.7897536583006
 30
0.0
 10
224.6049167342422
 20
148.6584000208828
 30
0.0
 10
224.0431501367295
 20
148.4940926384384
 30
0.0
 10
223.3349891074389
 20
148.36823761667
 30
0.0
 10
222.594887330238
 20
148.3197971186096
 30
0.0
 10
221.9997282328456
 20
148.3384329945648
 30
0.0
 10
221.6523617812051
 20
148.3741462468339
 30
0.0
 10
221.5675013644773
 20
148.3828708702279
 30
0.0
  0
LINE
  5
21D
330
1F
100
AcDbEntity
  8
0
  6
Continuous
 62
     7
370
    30
100
AcDbLine
 10
224.4852072099
 20
136.0786180993
 30
0.0
 11
224.4899212551
 21
136.0813394597
 31
0.0
  0
LINE
  5
21E
330
1F
100
AcDbEntity
  8
0
  6
Continuous
 62
     7
370
    30
100
AcDbLine
 10
214.9906932951
 20
152.5362678449
 30
0.0
 11
214.9859792499
 21
152.5335464846
 31
0.0
  0
LINE
  5
21F
330
1F
100
AcDbEntity
  8
0
  6
Continuous
 62
     7
370
    30
100
AcDbLine
 10
224.3185540878
 20
136.3673010535
 30
0.0
 11
224.323268133
 21
136.3700224138
 31
0.0
  0
LINE
  5
220
330
1F
100
AcDbEntity
  8
0
  6
Continuous
 62
     7
370
    30
100
AcDbLine
 10
215.1573464172
 20
152.2475848908
 30
0.0
 11
215.152632372
 21
152.2448635304
 31
0.0
  0
ARC
  5
221
330
1F
100
AcDbEntity
  8
0
  6
Continuous
 62
     7
370
    30
100
AcDbCircle
 10
224.1599091609
 20
143.1015507572
 30
0.0
 40
0.6666666666666786
100
AcDbArc
 50
300.0053758774
 51
336.4023172982
  0
ARC
  5
222
330
1F
100
AcDbEntity
  8
0
  6
Continuous
 62
     7
370
    30
100
AcDbCircle
 10
221.4932424943
 20
147.7203528972
 30
0.0
 40
0.666666666666658
100
AcDbArc
 50
83.6046485297
 51
119.9973117337
  0
SPLINE
  5
223
330
1F
100
AcDbEntity
  8
0
  6
Continuous
 62
     7
370
    30
100
AcDbSpline
210
0.0
220
0.0
230
1.0
 70
     8
 71
     3
 72
    10
 73
     6
 74
     0
 42
0.000000001
 43
0.00000001
 40
0.0
 40
0.0
 40
0.0
 40
0.0
 40
0.0097044115736298
 40
0.3338482961382455
 40
1.0
 40
1.0
 40
1.0
 40
1.0
 10
224.1323467999011
 20
142.3157573416041
 30
0.0
 10
224.1323207323457
 20
142.3157421758926
 30
0.0
 10
224.1314239640162
 20
142.315220449573
 30
0.0
 10
224.1383138226896
 20
142.3192162809186
 30
0.0
 10
224.1589749140354
 20
142.331150398096
 30
0.0
 10
224.1728732100235
 20
142.3391782360312
 30
0.0
  0
LINE
  5
224
330
1F
100
AcDbEntity
  8
0
  6
Continuous
 62
     7
370
    30
100
AcDbLine
 10
208.7890206067
 20
140.384837141
 30
0.0
 11
211.4556872734
 21
135.766035001
 31
0.0
  0
SPLINE
  5
225
330
1F
100
AcDbEntity
  8
0
  6
Continuous
 62
     7
370
    30
100
AcDbSpline
210
0.0
220
0.0
230
1.0
 70
     8
 71
     3
 72
    12
 73
     8
 74
     0
 42
0.000000001
 43
0.00000001
 40
0.0
 40
0.0
 40
0.0
 40
0.0
 40
0.013558826923425
 40
0.2900981871027982
 40
0.5587507917190089
 40
0.8374720099850572
 40
1.0
 40
1.0
 40
1.0
 40
1.0
 10
208.8198720234427
 20
163.3557921924538
 30
0.0
 10
208.8162432274807
 20
163.354425845317
 30
0.0
 10
208.7386032416716
 20
163.3251921343493
 30
0.0
 10
208.6229540160446
 20
163.2017504211813
 30
0.0
 10
208.5009030790587
 20
163.0003604895185
 30
0.0
 10
208.4488541961395
 20
162.7947287927496
 30
0.0
 10
208.4439216300839
 20
162.6590925504689
 30
0.0
 10
208.4421047881914
 20
162.6091328328822
 30
0.0
  0
ARC
  5
226
330
1F
100
AcDbEntity
  8
0
  6
Continuous
 62
     7
370
    30
100
AcDbCircle
 10
212.0330375422
 20
136.0993683351
 30
0.0
 40
0.6666666666666761
100
AcDbArc
 50
210.0000000728
 51
299.9973117337
  0
ARC
  5
227
330
1F
100
AcDbEntity
  8
0
  6
Continuous
 62
     7
370
    30
100
AcDbCircle
 10
209.3663708755
 20
140.7181704751
 30
0.0
 40
0.6666666666666761
100
AcDbArc
 50
120.0053758774
 51
210.0000000728
  0
SPLINE
  5
228
330
1F
100
AcDbEntity
  8
0
  6
Continuous
 62
     7
370
    30
100
AcDbSpline
210
0.0
220
0.0
230
1.0
 70
     8
 71
     3
 72
    11
 73
     7
 74
     0
 42
0.000000001
 43
0.00000001
 40
0.0
 40
0.0
 40
0.0
 40
0.0
 40
0.1823168811674439
 40
0.4756170568156967
 40
0.7489019970575133
 40
1.0
 40
1.0
 40
1.0
 40
1.0
 10
230.2933929558062
 20
124.4894269956822
 30
0.0
 10
230.3426346402987
 20
124.4635209838393
 30
0.0
 10
230.4710933156612
 20
124.395938974825
 30
0.0
 10
230.6836757578248
 20
124.3432158873672
 30
0.0
 10
230.9216329959089
 20
124.3464845521687
 30
0.0
 10
231.0576080301524
 20
124.4095762296522
 30
0.0
 10
231.1227189571808
 20
124.4397873462118
 30
0.0
  0
LINE
  5
229
330
1F
100
AcDbEntity
  8
0
  6
Continuous
 62
     7
370
    30
100
AcDbLine
 10
210.2301459767
 20
164.1720687053
 30
0.0
 11
208.8159324143
 21
163.3556605935
 31
0.0
  0
LINE
  5
22A
330
1F
100
AcDbEntity
  8
0
  6
Continuous
 62
     7
370
    30
100
AcDbLine
 10
231.1266585663
 20
124.4399189452
 30
0.0
 11
232.5408721287
 21
125.256327057
 31
0.0
  0
LINE
  5
22B
330
1F
100
AcDbEntity
  8
0
  6
Continuous
 62
     7
370
    30
100
AcDbLine
 10
208.4421047882
 20
162.6091328329
 30
0.0
 11
208.4421047882
 21
138.1129084763
 31
0.0
  0
LINE
  5
22C
330
1F
100
AcDbEntity
  8
0
  6
Continuous
 62
     7
370
    30
100
AcDbLine
 10
209.3158917806
 20
136.5994806544
 30
0.0
 11
230.2933929558
 21
124.4894269957
 31
0.0
  0
SPLINE
  5
22D
330
1F
100
AcDbEntity
  8
0
  6
Continuous
 62
     7
370
    30
100
AcDbSpline
210
0.0
220
0.0
230
1.0
 70
     8
 71
     3
 72
    14
 73
    10
 74
     0
 42
0.000000001
 43
0.00000001
 40
0.0
 40
0.0
 40
0.0
 40
0.0
 40
0.0983093675371945
 40
0.2755024560022223
 40
0.4521233410907799
 40
0.628655212658495
 40
0.8066454292462993
 40
0.9771957421246592
 40
1.0
 40
1.0
 40
1.0
 40
1.0
 10
208.4421047881914
 20
138.1129084763097
 30
0.0
 10
208.44424396752
 20
138.0572447512609
 30
0.0
 10
208.4502388098591
 20
137.901252567145
 30
0.0
 10
208.512715860983
 20
137.6340324732562
 30
0.0
 10
208.6415485057606
 20
137.325521963884
 30
0.0
 10
208.8219327446285
 20
137.0384108605251
 30
0.0
 10
209.0388679637732
 20
136.7953527102053
 30
0.0
 10
209.2113778929653
 20
136.6611654571032
 30
0.0
 10
209.3048658065083
 20
136.6059882588036
 30
0.0
 10
209.3158917806053
 20
136.5994806543857
 30
0.0
  0
LWPOLYLINE
  5
22E
330
1F
100
AcDbEntity
  8
0
  6
Continuous
 62
     7
370
    30
100
AcDbPolyline
 90
       29
 70
   128
 43
0.0
 10
234.690901652
 20
166.2764313353
 10
235.0264615026
 20
166.1219491139
 10
235.4131547805
 20
166.0144456333
 10
235.8315910701
 20
165.9593115669
 10
236.2607882285
 20
165.9593115669
 10
236.679224518
 20
166.0144456333
 10
237.0659177959
 20
166.1219491139
 10
237.4014776466
 20
166.2764313353
 10
237.6690776978
 20
166.4701459137
 10
237.8552993657
 20
166.6933791914
 10
237.9508047182
 20
166.9349373196
 10
237.9508047182
 20
167.1827075652
 10
237.8552993657
 20
167.4242656935
 10
237.6690776978
 20
167.6474989712
 10
237.4014776466
 20
167.8412135496
 10
237.0659177959
 20
167.9956957709
 10
236.679224518
 20
168.1031992515
 10
236.2607882285
 20
168.158333318
 10
235.8315910701
 20
168.158333318
 10
235.4131547805
 20
168.1031992515
 10
235.0264615026
 20
167.9956957709
 10
234.690901652
 20
167.8412135496
 10
234.4233016008
 20
167.6474989712
 10
234.2370799329
 20
167.4242656935
 10
234.1415745803
 20
167.1827075652
 10
234.1415745803
 20
166.9349373196
 10
234.2370799329
 20
166.6933791914
 10
234.4233016008
 20
166.4701459137
 10
234.690901652
 20
166.2764313353
  0
LINE
  5
22F
330
1F
100
AcDbEntity
  8
0
  6
Continuous
 62
     7
370
    30
100
AcDbLine
 10
234.9308345776
 20
166.8862951081
 30
0.0
 11
235.7473311586
 21
166.414941665
 31
0.0
  0
LINE
  5
230
330
1F
100
AcDbEntity
  8
0
  6
Continuous
 62
     7
370
    30
100
AcDbLine
 10
235.7473311586
 20
166.414941665
 30
0.0
 11
236.8626862302
 21
166.5874689993
 31
0.0
  0
LINE
  5
231
330
1F
100
AcDbEntity
  8
0
  6
Continuous
 62
     7
370
    30
100
AcDbLine
 10
236.8626862302
 20
166.5874689993
 30
0.0
 11
237.1615447209
 21
167.2313497768
 31
0.0
  0
LINE
  5
232
330
1F
100
AcDbEntity
  8
0
  6
Continuous
 62
     7
370
    30
100
AcDbLine
 10
237.1615447209
 20
167.2313497768
 30
0.0
 11
236.34504814
 21
167.7027032199
 31
0.0
  0
LINE
  5
233
330
1F
100
AcDbEntity
  8
0
  6
Continuous
 62
     7
370
    30
100
AcDbLine
 10
236.34504814
 20
167.7027032199
 30
0.0
 11
235.2296930684
 21
167.5301758856
 31
0.0
  0
LINE
  5
234
330
1F
100
AcDbEntity
  8
0
  6
Continuous
 62
     7
370
    30
100
AcDbLine
 10
235.2296930684
 20
167.5301758856
 30
0.0
 11
234.9308345776
 21
166.8862951081
 31
0.0
  0
LINE
  5
235
330
1F
100
AcDbEntity
  8
0
  6
Continuous
 62
     7
370
    30
100
AcDbLine
 10
236.52784403
 20
166.5356743433
 30
0.0
 11
236.34504814
 21
166.6412001645
 31
0.0
  0
LINE
  5
236
330
1F
100
AcDbEntity
  8
0
  6
Continuous
 62
     7
370
    30
100
AcDbLine
 10
236.34504814
 20
166.6412001645
 30
0.0
 11
235.5645352685
 21
166.5204674861
 31
0.0
  0
LINE
  5
237
330
1F
100
AcDbEntity
  8
0
  6
Continuous
 62
     7
370
    30
100
AcDbLine
 10
235.2296930684
 20
166.7137677737
 30
0.0
 11
235.2296930684
 21
167.5301758856
 31
0.0
  0
LINE
  5
238
330
1F
100
AcDbEntity
  8
0
  6
Continuous
 62
     7
370
    30
100
AcDbLine
 10
236.34504814
 20
166.6412001645
 30
0.0
 11
236.34504814
 21
167.7027032199
 31
0.0
  0
LINE
  5
239
330
1F
100
AcDbEntity
  8
0
  6
Continuous
 62
     7
370
    30
100
AcDbLine
 10
221.4334292471
 20
145.992042388
 30
0.0
 11
222.6326458372
 21
143.9149383306
 31
0.0
  0
LWPOLYLINE
  5
23A
330
1F
100
AcDbEntity
  8
0
  6
Continuous
 62
     7
370
    30
100
AcDbPolyline
 90
        9
 70
   128
 43
0.0
 10
222.6326458372
 20
143.9149383306
 10
222.534274471
 20
143.8581485477
 10
222.426873648
 20
143.7961438126
 10
222.3145707219
 20
143.7313069325
 10
222.201681431
 20
143.6661295525
 10
222.0925440474
 20
143.6031164026
 10
221.9913526597
 20
143.5446890429
 10
221.9019959961
 20
143.4930928041
 10
221.8279079831
 20
143.4503105006
  0
LINE
  5
23B
330
1F
100
AcDbEntity
  8
0
  6
Continuous
 62
     7
370
    30
100
AcDbLine
 10
221.8279079831
 20
143.4503105006
 30
0.0
 11
220.628691393
 21
145.5274145579
 31
0.0
  0
LWPOLYLINE
  5
23C
330
1F
100
AcDbEntity
  8
0
  6
Continuous
 62
     7
370
    30
100
AcDbPolyline
 90
        9
 70
   128
 43
0.0
 10
221.4334292471
 20
145.992042388
 10
221.3350578808
 20
145.935252605
 10
221.2276570579
 20
145.8732478699
 10
221.1153541317
 20
145.8084109899
 10
221.0024648408
 20
145.7432336098
 10
220.8933274573
 20
145.6802204599
 10
220.7921360696
 20
145.6217931002
 10
220.702779406
 20
145.5701968614
 10
220.628691393
 20
145.5274145579
  0
LINE
  5
23D
330
1F
100
AcDbEntity
  8
0
  6
Continuous
 62
     7
370
    30
100
AcDbLine
 10
225.6289294821
 20
148.4140531197
 30
0.0
 11
221.4334292471
 21
145.992042388
 31
0.0
  0
LINE
  5
23E
330
1F
100
AcDbEntity
  8
0
  6
Continuous
 62
     7
370
    30
100
AcDbLine
 10
226.8281460723
 20
146.3369490624
 30
0.0
 11
225.6289294821
 21
148.4140531197
 31
0.0
  0
LINE
  5
23F
330
1F
100
AcDbEntity
  8
0
  6
Continuous
 62
     7
370
    30
100
AcDbLine
 10
222.6326458372
 20
143.9149383306
 30
0.0
 11
226.8281460723
 21
146.3369490624
 31
0.0
  0
LINE
  5
240
330
1F
100
AcDbEntity
  8
0
  6
Continuous
 62
     7
370
    30
100
AcDbLine
 10
216.8263377384
 20
145.0262061281
 30
0.0
 11
208.8949663547
 21
140.4460344378
 31
0.0
  0
ARC
  5
241
330
1F
100
AcDbEntity
  8
0
  6
Continuous
 62
     7
370
    30
100
AcDbCircle
 10
217.789669259
 20
152.3916538246
 30
0.0
 40
7.428177931889683
100
AcDbArc
 50
262.5485456462
 51
292.4697931561
  0
ARC
  5
242
330
1F
100
AcDbEntity
  8
0
  6
Continuous
 62
     7
370
    30
100
AcDbCircle
 10
226.355018043
 20
137.5592675833
 30
0.0
 40
7.429610497723775
100
AcDbArc
 50
127.5413213197
 51
157.4586955295
  0
LINE
  5
243
330
1F
100
AcDbEntity
  8
0
  6
Continuous
 62
     7
370
    30
100
AcDbLine
 10
211.5616330214
 20
135.8272322978
 30
0.0
 11
219.4930044051
 21
140.4074039882
 31
0.0
  0
LINE
  5
244
330
1F
100
AcDbEntity
  8
0
  6
Continuous
 62
     7
370
    30
100
AcDbLine
 10
208.8949663547
 20
140.4460344378
 30
0.0
 11
211.5616330214
 21
135.8272322978
 31
0.0
  0
ARC
  5
245
330
1F
100
AcDbEntity
  8
0
  6
Continuous
 62
     7
370
    30
100
AcDbCircle
 10
222.397217989
 20
143.7481532425
 30
0.0
 40
0.642513954491597
100
AcDbArc
 50
207.6169641298
 51
293.5762265355
  0
ARC
  5
246
330
1F
100
AcDbEntity
  8
0
  6
Continuous
 62
     7
370
    30
100
AcDbCircle
 10
222.1564905728
 20
143.5232132787
 30
0.0
 40
0.616581180544258
100
AcDbArc
 50
323.8246140543
 51
39.4435654404
  0
ARC
  5
247
330
1F
100
AcDbEntity
  8
0
  6
Continuous
 62
     7
370
    30
100
AcDbCircle
 10
221.1712203978
 20
145.8715080598
 30
0.0
 40
0.6424469309623575
100
AcDbArc
 50
126.4183754787
 51
212.3844976312
  0
ARC
  5
248
330
1F
100
AcDbEntity
  8
0
  6
Continuous
 62
     7
370
    30
100
AcDbCircle
 10
220.8562140349
 20
145.7756189924
 30
0.0
 40
0.6164547731235227
100
AcDbArc
 50
20.5532334876
 51
96.1834414118
  0
ARC
  5
249
330
1F
100
AcDbEntity
  8
0
  6
Continuous
 62
     7
370
    30
100
AcDbCircle
 10
229.3962344973
 20
149.4767421915
 30
0.0
 40
1.536804807572095
100
AcDbArc
 50
2.6054784857
 51
57.39452166
  0
ARC
  5
24A
330
1F
100
AcDbEntity
  8
0
  6
Continuous
 62
     7
370
    30
100
AcDbCircle
 10
230.736082518
 20
150.7480609608
 30
0.0
 40
0.5122682691908133
100
AcDbArc
 50
122.60547834
 51
177.3945215143
  0
ARC
  5
24B
330
1F
100
AcDbEntity
  8
0
  6
Continuous
 62
     7
370
    30
100
AcDbCircle
 10
229.3559003177
 20
149.4534552407
 30
0.0
 40
2.049073076762594
100
AcDbArc
 50
2.6054784857
 51
57.39452166
  0
ARC
  5
24C
330
1F
100
AcDbEntity
  8
0
  6
Continuous
 62
     7
370
    30
100
AcDbCircle
 10
231.1671528591
 20
150.0015067387
 30
0.0
 40
0.512340635970519
100
AcDbArc
 50
242.6096722366
 51
297.3903277634
  0
ARC
  5
24D
330
1F
100
AcDbEntity
  8
0
  6
Continuous
 62
     7
370
    30
100
AcDbCircle
 10
227.0216166367
 20
137.4760384089
 30
0.0
 40
7.167525859139749
100
AcDbArc
 50
127.5413213197
 51
157.4586955295
  0
ARC
  5
24E
330
1F
100
AcDbEntity
  8
0
  6
Continuous
 62
     7
370
    30
100
AcDbCircle
 10
220.0732791601
 20
140.9385332172
 30
0.0
 40
0.786649254237183
100
AcDbArc
 50
222.4680691269
 51
294.673649601
  0
ARC
  5
24F
330
1F
100
AcDbEntity
  8
0
  6
Continuous
 62
     7
370
    30
100
AcDbCircle
 10
217.5763644933
 20
145.2631814426
 30
0.0
 40
0.7865732214610456
100
AcDbArc
 50
125.3219350684
 51
197.5342343665
  0
ARC
  5
250
330
1F
100
AcDbEntity
  8
0
  6
Continuous
 62
     7
370
    30
100
AcDbCircle
 10
218.0509407653
 20
153.0105858031
 30
0.0
 40
7.166143828053714
100
AcDbArc
 50
262.5485456462
 51
292.4697931561
  0
ARC
  5
251
330
1F
100
AcDbEntity
  8
0
  6
Continuous
 62
     7
370
    30
100
AcDbCircle
 10
226.3519908078
 20
145.9452240104
 30
0.0
 40
0.6165811805442833
100
AcDbArc
 50
323.8246140543
 51
39.4435654404
  0
LINE
  5
252
330
1F
100
AcDbEntity
  8
0
  6
Continuous
 62
     7
370
    30
100
AcDbLine
 10
226.849703744
 20
145.5812814527
 30
0.0
 11
222.654203509
 21
143.159270721
 31
0.0
  0
LINE
  5
253
330
1F
100
AcDbEntity
  8
0
  6
Continuous
 62
     7
370
    30
100
AcDbLine
 10
220.7898144339
 20
146.3884873146
 30
0.0
 11
224.985314669
 21
148.8104980463
 31
0.0
  0
ARC
  5
254
330
1F
100
AcDbEntity
  8
0
  6
Continuous
 62
     7
370
    30
100
AcDbCircle
 10
225.05171427
 20
148.1976297242
 30
0.0
 40
0.6164547731235258
100
AcDbArc
 50
20.5532334876
 51
96.1834414118
  0
ARC
  5
255
330
1F
100
AcDbEntity
  8
0
  6
Continuous
 62
     7
370
    30
100
AcDbCircle
 10
230.77011388
 20
150.2698633525
 30
0.0
 40
2.049073076762938
100
AcDbArc
 50
2.6054784857
 51
57.39452166
  0
LINE
  5
256
330
1F
100
AcDbEntity
  8
0
  6
Continuous
 62
     7
370
    30
100
AcDbLine
 10
231.4028551195
 20
149.5466030437
 30
0.0
 11
232.8170686819
 21
150.3630111555
 31
0.0
  0
LINE
  5
257
330
1F
100
AcDbEntity
  8
0
  6
Continuous
 62
     7
370
    30
100
AcDbLine
 10
230.4600460779
 20
151.1795962008
 30
0.0
 11
231.8742596403
 21
151.9960043126
 31
0.0
  0
LINE
  5
258
330
1F
100
AcDbEntity
  8
0
  6
Continuous
 62
     7
370
    30
100
AcDbLine
 10
228.0055771005
 20
148.9262956807
 30
0.0
 11
228.0055771005
 21
148.9994420714
 31
0.0
  0
SPLINE
  5
259
330
1F
100
AcDbEntity
  8
0
  6
Continuous
 62
     7
370
    30
100
AcDbSpline
210
0.0
220
0.0
230
1.0
 70
     8
 71
     3
 72
     9
 73
     5
 74
     0
 42
0.000000001
 43
0.00000001
 40
0.0
 40
0.0
 40
0.0
 40
0.0
 40
0.5578880974118702
 40
1.0
 40
1.0
 40
1.0
 40
1.0
 10
228.2368970869742
 20
148.7271966557865
 30
0.0
 10
228.1954271245713
 20
148.7710170921704
 30
0.0
 10
228.1210932884574
 20
148.849564092164
 30
0.0
 10
228.0409911911137
 20
148.9027718830261
 30
0.0
 10
228.0055771004558
 20
148.9262956806767
 30
0.0
  0
SPLINE
  5
25A
330
1F
100
AcDbEntity
  8
0
  6
Continuous
 62
     7
370
    30
100
AcDbSpline
210
0.0
220
0.0
230
1.0
 70
     8
 71
     3
 72
    10
 73
     6
 74
     0
 42
0.000000001
 43
0.00000001
 40
0.0
 40
0.0
 40
0.0
 40
0.0
 40
0.5600113699777582
 40
0.7802776236410214
 40
1.0
 40
1.0
 40
1.0
 40
1.0
 10
228.3190086440547
 20
148.3649942700962
 30
0.0
 10
228.3164856285995
 20
148.4295632151606
 30
0.0
 10
228.3129702490745
 20
148.5195287153574
 30
0.0
 10
228.2808079520078
 20
148.6466600769459
 30
0.0
 10
228.2515219750234
 20
148.7003732614282
 30
0.0
 10
228.2368970869742
 20
148.7271966557865
 30
0.0
  0
LINE
  5
25B
330
1F
100
AcDbEntity
  8
0
  6
Continuous
 62
     7
370
    30
100
AcDbLine
 10
228.3190086441
 20
146.6279029462
 30
0.0
 11
228.3190086441
 21
148.3649942701
 31
0.0
  0
SPLINE
  5
25C
330
1F
100
AcDbEntity
  8
0
  6
Continuous
 62
     7
370
    30
100
AcDbSpline
210
0.0
220
0.0
230
1.0
 70
     8
 71
     3
 72
    10
 73
     6
 74
     0
 42
0.000000001
 43
0.00000001
 40
0.0
 40
0.0
 40
0.0
 40
0.0
 40
0.2785120652043521
 40
0.5590464629733358
 40
1.0
 40
1.0
 40
1.0
 40
1.0
 10
228.2556654428783
 20
146.3355823520336
 30
0.0
 10
228.2704194554534
 20
146.3542950434165
 30
0.0
 10
228.3000346124797
 20
146.3918563028277
 30
0.0
 10
228.315756590496
 20
146.4974665713269
 30
0.0
 10
228.3177750296715
 20
146.5784239984102
 30
0.0
 10
228.3190086440547
 20
146.6279029461504
 30
0.0
  0
SPLINE
  5
25D
330
1F
100
AcDbEntity
  8
0
  6
Continuous
 62
     7
370
    30
100
AcDbSpline
210
0.0
220
0.0
230
1.0
 70
     8
 71
     3
 72
     9
 73
     5
 74
     0
 42
0.000000001
 43
0.00000001
 40
0.0
 40
0.0
 40
0.0
 40
0.0
 40
0.5619659230160555
 40
1.0
 40
1.0
 40
1.0
 40
1.0
 10
228.0055771004558
 20
146.3808012827049
 30
0.0
 10
228.0564184856809
 20
146.3574258633721
 30
0.0
 10
228.1468890696484
 20
146.3158300683684
 30
0.0
 10
228.2225314865917
 20
146.3295656842216
 30
0.0
 10
228.2556654428783
 20
146.3355823520336
 30
0.0
  0
LINE
  5
25E
330
1F
100
AcDbEntity
  8
0
  6
Continuous
 62
     7
370
    30
100
AcDbLine
 10
228.0055771005
 20
146.307654892
 30
0.0
 11
228.0055771005
 21
146.3808012827
 31
0.0
  0
LINE
  5
25F
330
1F
100
AcDbEntity
  8
0
  6
Continuous
 62
     7
370
    30
100
AcDbLine
 10
228.8384228937
 20
145.8268632495
 30
0.0
 11
228.0055771005
 21
146.307654892
 31
0.0
  0
LINE
  5
260
330
1F
100
AcDbEntity
  8
0
  6
Continuous
 62
     7
370
    30
100
AcDbLine
 10
228.8384228937
 20
145.9000096402
 30
0.0
 11
228.8384228937
 21
145.8268632495
 31
0.0
  0
SPLINE
  5
261
330
1F
100
AcDbEntity
  8
0
  6
Continuous
 62
     7
370
    30
100
AcDbSpline
210
0.0
220
0.0
230
1.0
 70
     8
 71
     3
 72
     9
 73
     5
 74
     0
 42
0.000000001
 43
0.00000001
 40
0.0
 40
0.0
 40
0.0
 40
0.0
 40
0.5577888705740551
 40
1.0
 40
1.0
 40
1.0
 40
1.0
 10
228.597718729231
 20
146.1159043631615
 30
0.0
 10
228.6404317073899
 20
146.0679417070782
 30
0.0
 10
228.7170072369716
 20
145.9819545914982
 30
0.0
 10
228.8011943953234
 20
145.9251356212212
 30
0.0
 10
228.8384228937014
 20
145.9000096402021
 30
0.0
  0
SPLINE
  5
262
330
1F
100
AcDbEntity
  8
0
  6
Continuous
 62
     7
370
    30
100
AcDbSpline
210
0.0
220
0.0
230
1.0
 70
     8
 71
     3
 72
    10
 73
     6
 74
     0
 42
0.000000001
 43
0.00000001
 40
0.0
 40
0.0
 40
0.0
 40
0.0
 40
0.5601234433190682
 40
0.7803712189439254
 40
1.0
 40
1.0
 40
1.0
 40
1.0
 10
228.518422425536
 20
146.4618522595166
 30
0.0
 10
228.5205799805696
 20
146.4002004429647
 30
0.0
 10
228.5235859141214
 20
146.3143063355023
 30
0.0
 10
228.5567007014673
 20
146.1928599063342
 30
0.0
 10
228.584058886128
 20
146.1415321347282
 30
0.0
 10
228.597718729231
 20
146.1159043631615
 30
0.0
  0
LINE
  5
263
330
1F
100
AcDbEntity
  8
0
  6
Continuous
 62
     7
370
    30
100
AcDbLine
 10
228.5184224255
 20
147.3542382266
 30
0.0
 11
228.5184224255
 21
146.4618522595
 31
0.0
  0
LINE
  5
264
330
1F
100
AcDbEntity
  8
0
  6
Continuous
 62
     7
370
    30
100
AcDbLine
 10
229.0317369595
 20
147.0541152779
 30
0.0
 11
228.5184224255
 21
147.3542382266
 31
0.0
  0
SPLINE
  5
265
330
1F
100
AcDbEntity
  8
0
  6
Continuous
 62
     7
370
    30
100
AcDbSpline
210
0.0
220
0.0
230
1.0
 70
     8
 71
     3
 72
    10
 73
     6
 74
     0
 42
0.000000001
 43
0.00000001
 40
0.0
 40
0.0
 40
0.0
 40
0.0
 40
0.2786905031362829
 40
0.5591146962643145
 40
1.0
 40
1.0
 40
1.0
 40
1.0
 10
229.2691566617011
 20
146.8585386886281
 30
0.0
 10
229.2493724509456
 20
146.8838310048345
 30
0.0
 10
229.2096809549567
 20
146.9345729767869
 30
0.0
 10
229.1269474466644
 20
146.9959623783612
 30
0.0
 10
229.0678556072006
 20
147.0320546399075
 30
0.0
 10
229.0317369595139
 20
147.0541152779049
 30
0.0
  0
SPLINE
  5
266
330
1F
100
AcDbEntity
  8
0
  6
Continuous
 62
     7
370
    30
100
AcDbSpline
210
0.0
220
0.0
230
1.0
 70
     8
 71
     3
 72
     9
 73
     5
 74
     0
 42
0.000000001
 43
0.00000001
 40
0.0
 40
0.0
 40
0.0
 40
0.0
 40
0.5618661542988234
 40
1.0
 40
1.0
 40
1.0
 40
1.0
 10
229.3451685031128
 20
146.4890210915079
 30
0.0
 10
229.3398339368502
 20
146.5560207491148
 30
0.0
 10
229.3303395648868
 20
146.6752656210371
 30
0.0
 10
229.2877963041405
 20
146.8027037368556
 30
0.0
 10
229.2691566617011
 20
146.8585386886281
 30
0.0
  0
LINE
  5
267
330
1F
100
AcDbEntity
  8
0
  6
Continuous
 62
     7
370
    30
100
AcDbLine
 10
229.4244648068
 20
146.4432443098
 30
0.0
 11
229.3451685031
 21
146.4890210915
 31
0.0
  0
LINE
  5
268
330
1F
100
AcDbEntity
  8
0
  6
Continuous
 62
     7
370
    30
100
AcDbLine
 10
229.4244648068
 20
147.3540523308
 30
0.0
 11
229.4244648068
 21
146.4432443098
 31
0.0
  0
LINE
  5
269
330
1F
100
AcDbEntity
  8
0
  6
Continuous
 62
     7
370
    30
100
AcDbLine
 10
229.3451685031
 20
147.3998291126
 30
0.0
 11
229.4244648068
 21
147.3540523308
 31
0.0
  0
SPLINE
  5
26A
330
1F
100
AcDbEntity
  8
0
  6
Continuous
 62
     7
370
    30
100
AcDbSpline
210
0.0
220
0.0
230
1.0
 70
     8
 71
     3
 72
     9
 73
     5
 74
     0
 42
0.000000001
 43
0.00000001
 40
0.0
 40
0.0
 40
0.0
 40
0.0
 40
0.5581781111261144
 40
1.0
 40
1.0
 40
1.0
 40
1.0
 10
229.2785408396531
 20
147.1234920512114
 30
0.0
 10
229.2978889266618
 20
147.1690258931557
 30
0.0
 10
229.3325518534641
 20
147.2506017217967
 30
0.0
 10
229.3413023445934
 20
147.3541009070522
 30
0.0
 10
229.3451685031128
 20
147.3998291125787
 30
0.0
  0
SPLINE
  5
26B
330
1F
100
AcDbEntity
  8
0
  6
Continuous
 62
     7
370
    30
100
AcDbSpline
210
0.0
220
0.0
230
1.0
 70
     8
 71
     3
 72
    10
 73
     6
 74
     0
 42
0.000000001
 43
0.00000001
 40
0.0
 40
0.0
 40
0.0
 40
0.0
 40
0.5603610191166154
 40
0.7806040857484887
 40
1.0
 40
1.0
 40
1.0
 40
1.0
 10
229.0317369595139
 20
147.1895715570647
 30
0.0
 10
229.0806274077773
 20
147.1632888895212
 30
0.0
 10
229.1487336506575
 20
147.1266761399385
 30
0.0
 10
229.2337466272768
 20
147.1068714303192
 30
0.0
 10
229.2636286290099
 20
147.1179589658725
 30
0.0
 10
229.2785408396531
 20
147.1234920512114
 30
0.0
  0
LINE
  5
26C
330
1F
100
AcDbEntity
  8
0
  6
Continuous
 62
     7
370
    30
100
AcDbLine
 10
228.5184224255
 20
147.48590173
 30
0.0
 11
229.0317369595
 21
147.1895715571
 31
0.0
  0
LINE
  5
26D
330
1F
100
AcDbEntity
  8
0
  6
Continuous
 62
     7
370
    30
100
AcDbLine
 10
228.5184224255
 20
148.4183827557
 30
0.0
 11
228.5184224255
 21
147.48590173
 31
0.0
  0
SPLINE
  5
26E
330
1F
100
AcDbEntity
  8
0
  6
Continuous
 62
     7
370
    30
100
AcDbSpline
210
0.0
220
0.0
230
1.0
 70
     8
 71
     3
 72
     9
 73
     5
 74
     0
 42
0.000000001
 43
0.00000001
 40
0.0
 40
0.0
 40
0.0
 40
0.0
 40
0.5582508416995691
 40
1.0
 40
1.0
 40
1.0
 40
1.0
 10
228.540944452621
 20
148.5294590179244
 30
0.0
 10
228.5329387729696
 20
148.5118446013937
 30
0.0
 10
228.5185981234741
 20
148.4802917308651
 30
0.0
 10
228.518476259045
 20
148.4373515461546
 30
0.0
 10
228.518422425536
 20
148.4183827557014
 30
0.0
  0
SPLINE
  5
26F
330
1F
100
AcDbEntity
  8
0
  6
Continuous
 62
     7
370
    30
100
AcDbSpline
210
0.0
220
0.0
230
1.0
 70
     8
 71
     3
 72
     9
 73
     5
 74
     0
 42
0.000000001
 43
0.00000001
 40
0.0
 40
0.0
 40
0.0
 40
0.0
 40
0.5623693583563933
 40
1.0
 40
1.0
 40
1.0
 40
1.0
 10
228.6390091122201
 20
148.5096916028795
 30
0.0
 10
228.6185577354821
 20
148.52129638216
 30
0.0
 10
228.5821912862188
 20
148.5419318935158
 30
0.0
 10
228.553500444216
 20
148.53325589898
 30
0.0
 10
228.540944452621
 20
148.5294590179244
 30
0.0
  0
LINE
  5
270
330
1F
100
AcDbEntity
  8
0
  6
Continuous
 62
     7
370
    30
100
AcDbLine
 10
229.1011798764
 20
148.2428860999
 30
0.0
 11
228.6390091122
 21
148.5096916029
 31
0.0
  0
SPLINE
  5
271
330
1F
100
AcDbEntity
  8
0
  6
Continuous
 62
     7
370
    30
100
AcDbSpline
210
0.0
220
0.0
230
1.0
 70
     8
 71
     3
 72
     9
 73
     5
 74
     0
 42
0.000000001
 43
0.00000001
 40
0.0
 40
0.0
 40
0.0
 40
0.0
 40
0.5573026436976255
 40
0.9999999999999999
 40
0.9999999999999999
 40
0.9999999999999999
 40
0.9999999999999999
 10
229.4432331627119
 20
147.9722765500206
 30
0.0
 10
229.3816399130727
 20
148.0346248781207
 30
0.0
 10
229.2711196233599
 20
148.1465000482911
 30
0.0
 10
229.15332655591
 20
148.2133096609549
 30
0.0
 10
229.1011798763592
 20
148.2428860998568
 30
0.0
  0
SPLINE
  5
272
330
1F
100
AcDbEntity
  8
0
  6
Continuous
 62
     7
370
    30
100
AcDbSpline
210
0.0
220
0.0
230
1.0
 70
     8
 71
     3
 72
     9
 73
     5
 74
     0
 42
0.000000001
 43
0.00000001
 40
0.0
 40
0.0
 40
0.0
 40
0.0
 40
0.562651256747143
 40
1.0
 40
1.0
 40
1.0
 40
1.0
 10
229.5638198493959
 20
147.5515606619745
 30
0.0
 10
229.5541668630578
 20
147.6292685289393
 30
0.0
 10
229.5370106117879
 20
147.7673787100382
 30
0.0
 10
229.4717672604327
 20
147.9099313375367
 30
0.0
 10
229.4432331627119
 20
147.9722765500206
 30
0.0
  0
LINE
  5
273
330
1F
100
AcDbEntity
  8
0
  6
Continuous
 62
     7
370
    30
100
AcDbLine
 10
229.6332627662
 20
147.5114721194
 30
0.0
 11
229.5638198494
 21
147.551560662
 31
0.0
  0
LINE
  5
274
330
1F
100
AcDbEntity
  8
0
  6
Continuous
 62
     7
370
    30
100
AcDbLine
 10
229.6238785883
 20
148.065216508
 30
0.0
 11
229.6332627662
 21
147.5114721194
 31
0.0
  0
LINE
  5
275
330
1F
100
AcDbEntity
  8
0
  6
Continuous
 62
     7
370
    30
100
AcDbLine
 10
228.0055771005
 20
148.9994420714
 30
0.0
 11
229.6238785883
 21
148.065216508
 31
0.0
  0
SPLINE
  5
276
330
1F
100
AcDbEntity
  8
0
  6
Continuous
 62
     7
370
    30
100
AcDbSpline
210
0.0
220
0.0
230
1.0
 70
     8
 71
     3
 72
     9
 73
     5
 74
     0
 42
0.000000001
 43
0.00000001
 40
0.0
 40
0.0
 40
0.0
 40
0.0
 40
0.5591653139964239
 40
1.0
 40
1.0
 40
1.0
 40
1.0
 10
224.5165397378788
 20
150.7389151337099
 30
0.0
 10
224.6271585938913
 20
150.7876511810021
 30
0.0
 10
224.8249871308975
 20
150.8748097476589
 30
0.0
 10
225.0857104347823
 20
150.7500777028988
 30
0.0
 10
225.2006463105842
 20
150.6950914911125
 30
0.0
  0
SPLINE
  5
277
330
1F
100
AcDbEntity
  8
0
  6
Continuous
 62
     7
370
    30
100
AcDbSpline
210
0.0
220
0.0
230
1.0
 70
     8
 71
     3
 72
     9
 73
     5
 74
     0
 42
0.000000001
 43
0.00000001
 40
0.0
 40
0.0
 40
0.0
 40
0.0
 40
0.5602696297460021
 40
1.0
 40
1.0
 40
1.0
 40
1.0
 10
224.2059234476656
 20
149.8649220744767
 30
0.0
 10
224.2168895562357
 20
150.0752278953319
 30
0.0
 10
224.2364624689689
 20
150.4505932724462
 30
0.0
 10
224.4309969975838
 20
150.6508542846612
 30
0.0
 10
224.5165397378788
 20
150.7389151337099
 30
0.0
  0
SPLINE
  5
278
330
1F
100
AcDbEntity
  8
0
  6
Continuous
 62
     7
370
    30
100
AcDbSpline
210
0.0
220
0.0
230
1.0
 70
     8
 71
     3
 72
    10
 73
     6
 74
     0
 42
0.000000001
 43
0.00000001
 40
0.0
 40
0.0
 40
0.0
 40
0.0
 40
0.2799874205327905
 40
0.5601294246845019
 40
1.0
 40
1.0
 40
1.0
 40
1.0
 10
224.4973021730771
 20
148.6726632462851
 30
0.0
 10
224.4442039888579
 20
148.7860428777029
 30
0.0
 10
224.3379783044256
 20
149.0128647384713
 30
0.0
 10
224.2275093547238
 20
149.4262383269496
 30
0.0
 10
224.2141096216929
 20
149.6985569784663
 30
0.0
 10
224.2059234476656
 20
149.8649220744767
 30
0.0
  0
SPLINE
  5
279
330
1F
100
AcDbEntity
  8
0
  6
Continuous
 62
     7
370
    30
100
AcDbSpline
210
0.0
220
0.0
230
1.0
 70
     8
 71
     3
 72
     9
 73
     5
 74
     0
 42
0.000000001
 43
0.00000001
 40
0.0
 40
0.0
 40
0.0
 40
0.0
 40
0.9774514503992445
 40
1.0
 40
1.0
 40
1.0
 40
1.0
 10
226.1948999646053
 20
148.7167103716207
 30
0.0
 10
226.1971932687826
 20
148.5015265360163
 30
0.0
 10
226.199539476542
 20
148.2813786856894
 30
0.0
 10
226.1091853008887
 20
148.1521594239331
 30
0.0
 10
226.1071479452774
 20
148.149245717
 30
0.0
  0
SPLINE
  5
27A
330
1F
100
AcDbEntity
  8
0
  6
Continuous
 62
     7
370
    30
100
AcDbSpline
210
0.0
220
0.0
230
1.0
 70
     8
 71
     3
 72
    10
 73
     6
 74
     0
 42
0.000000001
 43
0.00000001
 40
0.0
 40
0.0
 40
0.0
 40
0.0
 40
0.280001494730666
 40
0.5600851101152139
 40
1.0
 40
1.0
 40
1.0
 40
1.0
 10
225.8880373455728
 20
149.9471664176334
 30
0.0
 10
225.944694976642
 20
149.8305063882977
 30
0.0
 10
226.0580268556976
 20
149.5971521148165
 30
0.0
 10
226.1729307118741
 20
149.1695157865146
 30
0.0
 10
226.1865677896029
 20
148.8884437484956
 30
0.0
 10
226.1948999646053
 20
148.7167103716207
 30
0.0
  0
SPLINE
  5
27B
330
1F
100
AcDbEntity
  8
0
  6
Continuous
 62
     7
370
    30
100
AcDbSpline
210
0.0
220
0.0
230
1.0
 70
     8
 71
     3
 72
    10
 73
     6
 74
     0
 42
0.000000001
 43
0.00000001
 40
0.0
 40
0.0
 40
0.0
 40
0.0
 40
0.2804546690558642
 40
0.5607792749542583
 40
1.0
 40
1.0
 40
1.0
 40
1.0
 10
225.2006463105842
 20
150.6950914911125
 30
0.0
 10
225.2729151625457
 20
150.6484907948767
 30
0.0
 10
225.4174193511947
 20
150.555311013861
 30
0.0
 10
225.6652080523494
 20
150.3104838253048
 30
0.0
 10
225.8035757381369
 20
150.0848788871991
 30
0.0
 10
225.8880373455728
 20
149.9471664176334
 30
0.0
  0
SPLINE
  5
27C
330
1F
100
AcDbEntity
  8
0
  6
Continuous
 62
     7
370
    30
100
AcDbSpline
210
0.0
220
0.0
230
1.0
 70
     8
 71
     3
 72
     9
 73
     5
 74
     0
 42
0.000000001
 43
0.00000001
 40
0.0
 40
0.0
 40
0.0
 40
0.0
 40
0.5591778242112782
 40
1.0
 40
1.0
 40
1.0
 40
1.0
 10
209.9823249257238
 20
159.1472189784279
 30
0.0
 10
210.0945040302782
 20
159.196780401737
 30
0.0
 10
210.295118396044
 20
159.2854130712801
 30
0.0
 10
210.5596663018438
 20
159.1585205569762
 30
0.0
 10
210.6762848852788
 20
159.1025835227294
 30
0.0
  0
SPLINE
  5
27D
330
1F
100
AcDbEntity
  8
0
  6
Continuous
 62
     7
370
    30
100
AcDbSpline
210
0.0
220
0.0
230
1.0
 70
     8
 71
     3
 72
     9
 73
     5
 74
     0
 42
0.000000001
 43
0.00000001
 40
0.0
 40
0.0
 40
0.0
 40
0.0
 40
0.560274433107747
 40
1.0
 40
1.0
 40
1.0
 40
1.0
 10
209.66983179992
 20
158.2705166175021
 30
0.0
 10
209.6809215275034
 20
158.4816053011314
 30
0.0
 10
209.7007149125447
 20
158.858364744639
 30
0.0
 10
209.8963146988199
 20
159.0589961985989
 30
0.0
 10
209.9823249257238
 20
159.1472189784279
 30
0.0
  0
SPLINE
  5
27E
330
1F
100
AcDbEntity
  8
0
  6
Continuous
 62
     7
370
    30
100
AcDbSpline
210
0.0
220
0.0
230
1.0
 70
     8
 71
     3
 72
    10
 73
     6
 74
     0
 42
0.000000001
 43
0.00000001
 40
0.0
 40
0.0
 40
0.0
 40
0.0
 40
0.2800523578142783
 40
0.560148505982666
 40
1.0
 40
1.0
 40
1.0
 40
1.0
 10
209.963087360922
 20
157.07338153937
 30
0.0
 10
209.909749358304
 20
157.1872245654406
 30
0.0
 10
209.8030650128773
 20
157.4149284186331
 30
0.0
 10
209.6917468185192
 20
157.8299853823575
 30
0.0
 10
209.6781430267277
 20
158.1034460309745
 30
0.0
 10
209.66983179992
 20
158.2705166175021
 30
0.0
  0
SPLINE
  5
27F
330
1F
100
AcDbEntity
  8
0
  6
Continuous
 62
     7
370
    30
100
AcDbSpline
210
0.0
220
0.0
230
1.0
 70
     8
 71
     3
 72
     9
 73
     5
 74
     0
 42
0.000000001
 43
0.00000001
 40
0.0
 40
0.0
 40
0.0
 40
0.0
 40
0.5589671569312324
 40
1.0
 40
1.0
 40
1.0
 40
1.0
 10
210.6762848852788
 20
156.2834674408548
 30
0.0
 10
210.5221641883882
 20
156.3930849435934
 30
0.0
 10
210.246440123066
 20
156.5891921770495
 30
0.0
 10
210.0498084060951
 20
156.9251937918978
 30
0.0
 10
209.963087360922
 20
157.07338153937
 30
0.0
  0
SPLINE
  5
280
330
1F
100
AcDbEntity
  8
0
  6
Continuous
 62
     7
370
    30
100
AcDbSpline
210
0.0
220
0.0
230
1.0
 70
     8
 71
     3
 72
    10
 73
     6
 74
     0
 42
0.000000001
 43
0.00000001
 40
0.0
 40
0.0
 40
0.0
 40
0.0
 40
0.2803751402910562
 40
0.560643214060545
 40
1.0
 40
1.0
 40
1.0
 40
1.0
 10
211.4143504812085
 20
156.2355851730257
 30
0.0
 10
211.3596569496665
 20
156.2029875515068
 30
0.0
 10
211.2502907723364
 20
156.1378047564839
 30
0.0
 10
210.9998665437048
 20
156.1286247922504
 30
0.0
 10
210.7989510189219
 20
156.2247683504312
 30
0.0
 10
210.6762848852788
 20
156.2834674408548
 30
0.0
  0
SPLINE
  5
281
330
1F
100
AcDbEntity
  8
0
  6
Continuous
 62
     7
370
    30
100
AcDbSpline
210
0.0
220
0.0
230
1.0
 70
     8
 71
     3
 72
     9
 73
     5
 74
     0
 42
0.000000001
 43
0.00000001
 40
0.0
 40
0.0
 40
0.0
 40
0.0
 40
0.5600206658583705
 40
1.0
 40
1.0
 40
1.0
 40
1.0
 10
211.7122981311865
 20
157.0914259021135
 30
0.0
 10
211.7003904512075
 20
156.8882827071863
 30
0.0
 10
211.679127521632
 20
156.5255403883544
 30
0.0
 10
211.4952519380415
 20
156.3241797101461
 30
0.0
 10
211.4143504812085
 20
156.2355851730257
 30
0.0
  0
SPLINE
  5
282
330
1F
100
AcDbEntity
  8
0
  6
Continuous
 62
     7
370
    30
100
AcDbSpline
210
0.0
220
0.0
230
1.0
 70
     8
 71
     3
 72
    10
 73
     6
 74
     0
 42
0.000000001
 43
0.00000001
 40
0.0
 40
0.0
 40
0.0
 40
0.0
 40
0.2800739435414916
 40
0.5601892596393923
 40
1.0
 40
1.0
 40
1.0
 40
1.0
 10
211.3946437075092
 20
158.3319047001555
 30
0.0
 10
211.4520666659287
 20
158.2146054735265
 30
0.0
 10
211.566921065294
 20
157.9799896928128
 30
0.0
 10
211.6885550948762
 20
157.5485684818655
 30
0.0
 10
211.7032939826533
 20
157.2647895627325
 30
0.0
 10
211.7122981311865
 20
157.0914259021135
 30
0.0
  0
SPLINE
  5
283
330
1F
100
AcDbEntity
  8
0
  6
Continuous
 62
     7
370
    30
100
AcDbSpline
210
0.0
220
0.0
230
1.0
 70
     8
 71
     3
 72
     9
 73
     5
 74
     0
 42
0.000000001
 43
0.00000001
 40
0.0
 40
0.0
 40
0.0
 40
0.0
 40
0.5592601761479495
 40
0.9999999999999999
 40
0.9999999999999999
 40
0.9999999999999999
 40
0.9999999999999999
 10
210.6762848852788
 20
159.1025835227294
 30
0.0
 10
210.8295464045452
 20
158.9962651965348
 30
0.0
 10
211.1035897314313
 20
158.8061598918322
 30
0.0
 10
211.3056067585582
 20
158.4769851277109
 30
0.0
 10
211.3946437075092
 20
158.3319047001555
 30
0.0
  0
ARC
  5
284
330
1F
100
AcDbEntity
  8
0
  6
Continuous
 62
     7
370
    30
100
AcDbCircle
 10
230.5003762313
 20
124.9804514902
 30
0.0
 40
0.4367091974284981
100
AcDbArc
 50
230.7967147643
 51
9.2140369905
  0
LINE
  5
285
330
1F
100
AcDbEntity
  8
0
  6
Continuous
 62
     7
370
    30
100
AcDbLine
 10
209.2468426423
 20
136.7520955899
 30
0.0
 11
230.2243438175
 21
124.6420419312
 31
0.0
  0
ARC
  5
286
330
1F
100
AcDbEntity
  8
0
  6
Continuous
 62
     7
370
    30
100
AcDbCircle
 10
210.0749519625
 20
138.0467013099
 30
0.0
 40
1.536804807572027
100
AcDbArc
 50
182.6054784857
 51
237.39452166
  0
LINE
  5
287
330
1F
100
AcDbEntity
  8
0
  6
Continuous
 62
     7
370
    30
100
AcDbLine
 10
208.5397358611
 20
162.4730648142
 30
0.0
 11
208.5397358611
 21
137.9768404577
 31
0.0
  0
ARC
  5
288
330
1F
100
AcDbEntity
  8
0
  6
Continuous
 62
     7
370
    30
100
AcDbCircle
 10
208.9708102286
 20
162.5429920111
 30
0.0
 40
0.43670919742848
100
AcDbArc
 50
50.7967147643
 51
189.2140369905
  0
LINE
  5
289
330
1F
100
AcDbEntity
  8
0
  6
Continuous
 62
     7
370
    30
100
AcDbLine
 10
230.2243438175
 20
150.7713479115
 30
0.0
 11
209.2468426423
 21
162.8814015702
 31
0.0
  0
LINE
  5
28A
330
1F
100
AcDbEntity
  8
0
  6
Continuous
 62
     7
370
    30
100
AcDbLine
 10
230.9314505987
 20
125.0503786871
 30
0.0
 11
230.9314505987
 21
149.5466030437
 31
0.0
  0
LINE
  5
28B
330
1F
100
AcDbEntity
  8
0
  6
Continuous
 62
     7
370
    30
100
AcDbLine
 10
213.2189279014
 20
157.4423990369
 30
0.0
 11
213.2189279014
 21
157.5805644416
 31
0.0
  0
SPLINE
  5
28C
330
1F
100
AcDbEntity
  8
0
  6
Continuous
 62
     7
370
    30
100
AcDbSpline
210
0.0
220
0.0
230
1.0
 70
     8
 71
     3
 72
    10
 73
     6
 74
     0
 42
0.000000001
 43
0.00000001
 40
0.0
 40
0.0
 40
0.0
 40
0.0
 40
0.278450147705671
 40
0.559009882997216
 40
1.0
 40
1.0
 40
1.0
 40
1.0
 10
213.4629165281439
 20
157.2300264853913
 30
0.0
 10
213.4424295886379
 20
157.2558820762982
 30
0.0
 10
213.4013004969474
 20
157.3077891446434
 30
0.0
 10
213.3167091163297
 20
157.3738166280702
 30
0.0
 10
213.2560195718323
 20
157.4163834457873
 30
0.0
 10
213.2189279013902
 20
157.4423990369012
 30
0.0
  0
SPLINE
  5
28D
330
1F
100
AcDbEntity
  8
0
  6
Continuous
 62
     7
370
    30
100
AcDbSpline
210
0.0
220
0.0
230
1.0
 70
     8
 71
     3
 72
    10
 73
     6
 74
     0
 42
0.000000001
 43
0.00000001
 40
0.0
 40
0.0
 40
0.0
 40
0.0
 40
0.5606433719229641
 40
0.7808513891964887
 40
1.0
 40
1.0
 40
1.0
 40
1.0
 10
213.5328286538868
 20
156.7941347391274
 30
0.0
 10
213.5310768252955
 20
156.8716615605782
 30
0.0
 10
213.5286369181146
 20
156.9796391614231
 30
0.0
 10
213.5049590318601
 20
157.1291056785859
 30
0.0
 10
213.476908149987
 20
157.1964403370864
 30
0.0
 10
213.4629165281439
 20
157.2300264853913
 30
0.0
  0
LINE
  5
28E
330
1F
100
AcDbEntity
  8
0
  6
Continuous
 62
     7
370
    30
100
AcDbLine
 10
213.5328286539
 20
155.2959882916
 30
0.0
 11
213.5328286539
 21
156.7941347391
 31
0.0
  0
LINE
  5
28F
330
1F
100
AcDbEntity
  8
0
  6
Continuous
 62
     7
370
    30
100
AcDbLine
 10
212.3091318489
 20
158.1057785232
 30
0.0
 11
213.5328286539
 21
155.2959882916
 31
0.0
  0
LINE
  5
290
330
1F
100
AcDbEntity
  8
0
  6
Continuous
 62
     7
370
    30
100
AcDbLine
 10
211.809424373
 20
158.3942535087
 30
0.0
 11
212.3091318489
 21
158.1057785232
 31
0.0
  0
LINE
  5
291
330
1F
100
AcDbEntity
  8
0
  6
Continuous
 62
     7
370
    30
100
AcDbLine
 10
211.809424373
 20
158.2544626286
 30
0.0
 11
211.809424373
 21
158.3942535087
 31
0.0
  0
SPLINE
  5
292
330
1F
100
AcDbEntity
  8
0
  6
Continuous
 62
     7
370
    30
100
AcDbSpline
210
0.0
220
0.0
230
1.0
 70
     8
 71
     3
 72
     9
 73
     5
 74
     0
 42
0.000000001
 43
0.00000001
 40
0.0
 40
0.0
 40
0.0
 40
0.0
 40
0.5592636271648296
 40
1.0
 40
1.0
 40
1.0
 40
1.0
 10
211.9591020113258
 20
158.1485498630537
 30
0.0
 10
211.9314319347318
 20
158.1706905512293
 30
0.0
 10
211.8819560252502
 20
158.2102795520158
 30
0.0
 10
211.8316125664278
 20
158.2409465619247
 30
0.0
 10
211.8094243729904
 20
158.2544626286377
 30
0.0
  0
SPLINE
  5
293
330
1F
100
AcDbEntity
  8
0
  6
Continuous
 62
     7
370
    30
100
AcDbSpline
210
0.0
220
0.0
230
1.0
 70
     8
 71
     3
 72
     9
 73
     5
 74
     0
 42
0.000000001
 43
0.00000001
 40
0.0
 40
0.0
 40
0.0
 40
0.0
 40
0.5608304348354268
 40
1.0
 40
1.0
 40
1.0
 40
1.0
 10
212.073588982341
 20
157.9312887339503
 30
0.0
 10
212.0558834765276
 20
157.9736021420129
 30
0.0
 10
212.0243133178599
 20
158.0490499163031
 30
0.0
 10
211.9790015574444
 20
158.1181869722546
 30
0.0
 10
211.9591020113258
 20
158.1485498630537
 30
0.0
  0
LINE
  5
294
330
1F
100
AcDbEntity
  8
0
  6
Continuous
 62
     7
370
    30
100
AcDbLine
 10
212.0735889823
 20
156.1790263067
 30
0.0
 11
212.0735889823
 21
157.931288734
 31
0.0
  0
SPLINE
  5
295
330
1F
100
AcDbEntity
  8
0
  6
Continuous
 62
     7
370
    30
100
AcDbSpline
210
0.0
220
0.0
230
1.0
 70
     8
 71
     3
 72
     9
 73
     5
 74
     0
 42
0.000000001
 43
0.00000001
 40
0.0
 40
0.0
 40
0.0
 40
0.0
 40
0.55947273267067
 40
1.0
 40
1.0
 40
1.0
 40
1.0
 10
212.0562282531296
 20
155.8374039416862
 30
0.0
 10
212.0628530020286
 20
155.8989543854173
 30
0.0
 10
212.0746940597104
 20
156.0089694766574
 30
0.0
 10
212.0739269257626
 20
156.1270212719535
 30
0.0
 10
212.073588982341
 20
156.1790263067386
 30
0.0
  0
SPLINE
  5
296
330
1F
100
AcDbEntity
  8
0
  6
Continuous
 62
     7
370
    30
100
AcDbSpline
210
0.0
220
0.0
230
1.0
 70
     8
 71
     3
 72
    10
 73
     6
 74
     0
 42
0.000000001
 43
0.00000001
 40
0.0
 40
0.0
 40
0.0
 40
0.0
 40
0.559561229800693
 40
0.7800081457599849
 40
1.0
 40
1.0
 40
1.0
 40
1.0
 10
211.8094243729904
 20
155.8129986530607
 30
0.0
 10
211.8657306790192
 20
155.7910596899417
 30
0.0
 10
211.9442196361181
 20
155.7604775676807
 30
0.0
 10
212.0279014920921
 20
155.7834001483216
 30
0.0
 10
212.046792505521
 20
155.8194150807845
 30
0.0
 10
212.0562282531296
 20
155.8374039416862
 30
0.0
  0
LINE
  5
297
330
1F
100
AcDbEntity
  8
0
  6
Continuous
 62
     7
370
    30
100
AcDbLine
 10
211.809424373
 20
155.6759168986
 30
0.0
 11
211.809424373
 21
155.8129986531
 31
0.0
  0
LINE
  5
298
330
1F
100
AcDbEntity
  8
0
  6
Continuous
 62
     7
370
    30
100
AcDbLine
 10
212.5770501295
 20
155.2327759819
 30
0.0
 11
211.809424373
 21
155.6759168986
 31
0.0
  0
LINE
  5
299
330
1F
100
AcDbEntity
  8
0
  6
Continuous
 62
     7
370
    30
100
AcDbLine
 10
212.5770501295
 20
155.3671486108
 30
0.0
 11
212.5770501295
 21
155.2327759819
 31
0.0
  0
SPLINE
  5
29A
330
1F
100
AcDbEntity
  8
0
  6
Continuous
 62
     7
370
    30
100
AcDbSpline
210
0.0
220
0.0
230
1.0
 70
     8
 71
     3
 72
    10
 73
     6
 74
     0
 42
0.000000001
 43
0.00000001
 40
0.0
 40
0.0
 40
0.0
 40
0.0
 40
0.2789828981051599
 40
0.5592709435781575
 40
1.0
 40
1.0
 40
1.0
 40
1.0
 10
212.3260233692515
 20
155.6328902758709
 30
0.0
 10
212.3441255027805
 20
155.6003970347969
 30
0.0
 10
212.380414455861
 20
155.5352585416534
 30
0.0
 10
212.4699235063363
 20
155.4453010122885
 30
0.0
 10
212.5364097406949
 20
155.3967971135349
 30
0.0
 10
212.5770501294691
 20
155.367148610782
 30
0.0
  0
SPLINE
  5
29B
330
1F
100
AcDbEntity
  8
0
  6
Continuous
 62
     7
370
    30
100
AcDbSpline
210
0.0
220
0.0
230
1.0
 70
     8
 71
     3
 72
     9
 73
     5
 74
     0
 42
0.000000001
 43
0.00000001
 40
0.0
 40
0.0
 40
0.0
 40
0.0
 40
0.5619407086696204
 40
1.0
 40
1.0
 40
1.0
 40
1.0
 10
212.2692490926415
 20
156.0660741293168
 30
0.0
 10
212.2683027084111
 20
155.9892167587706
 30
0.0
 10
212.2666185730286
 20
155.8524454422234
 30
0.0
 10
212.3079275764758
 20
155.6997708149141
 30
0.0
 10
212.3260233692515
 20
155.6328902758709
 30
0.0
  0
LINE
  5
29C
330
1F
100
AcDbEntity
  8
0
  6
Continuous
 62
     7
370
    30
100
AcDbLine
 10
212.2692490926
 20
157.5726440986
 30
0.0
 11
212.2692490926
 21
156.0660741293
 31
0.0
  0
LINE
  5
29D
330
1F
100
AcDbEntity
  8
0
  6
Continuous
 62
     7
370
    30
100
AcDbLine
 10
213.6407467003
 20
154.5829565644
 30
0.0
 11
212.2692490926
 21
157.5726440986
 31
0.0
  0
LINE
  5
29E
330
1F
100
AcDbEntity
  8
0
  6
Continuous
 62
     7
370
    30
100
AcDbLine
 10
213.7223890485
 20
154.53582544
 30
0.0
 11
213.6407467003
 21
154.5829565644
 31
0.0
  0
LINE
  5
29F
330
1F
100
AcDbEntity
  8
0
  6
Continuous
 62
     7
370
    30
100
AcDbLine
 10
213.7223890485
 20
156.6847038526
 30
0.0
 11
213.7223890485
 21
154.53582544
 31
0.0
  0
SPLINE
  5
2A0
330
1F
100
AcDbEntity
  8
0
  6
Continuous
 62
     7
370
    30
100
AcDbSpline
210
0.0
220
0.0
230
1.0
 70
     8
 71
     3
 72
     9
 73
     5
 74
     0
 42
0.000000001
 43
0.00000001
 40
0.0
 40
0.0
 40
0.0
 40
0.0
 40
0.5575607207374994
 40
1.0
 40
1.0
 40
1.0
 40
1.0
 10
213.7716559827668
 20
157.0599223687511
 30
0.0
 10
213.7533862505361
 20
156.9968110716516
 30
0.0
 10
213.7206189992732
 20
156.8836192797047
 30
0.0
 10
213.7218461214618
 20
156.745717164894
 30
0.0
 10
213.7223890485184
 20
156.6847038526084
 30
0.0
  0
SPLINE
  5
2A1
330
1F
100
AcDbEntity
  8
0
  6
Continuous
 62
     7
370
    30
100
AcDbSpline
210
0.0
220
0.0
230
1.0
 70
     8
 71
     3
 72
     9
 73
     5
 74
     0
 42
0.000000001
 43
0.00000001
 40
0.0
 40
0.0
 40
0.0
 40
0.0
 40
0.5627763038302287
 40
1.0
 40
1.0
 40
1.0
 40
1.0
 10
213.986553657869
 20
157.004676371372
 30
0.0
 10
213.9443751382142
 20
157.0234863988818
 30
0.0
 10
213.8694279178574
 20
157.0569100298729
 30
0.0
 10
213.8013995828451
 20
157.0590059728261
 30
0.0
 10
213.7716559827668
 20
157.0599223687511
 30
0.0
  0
LINE
  5
2A2
330
1F
100
AcDbEntity
  8
0
  6
Continuous
 62
     7
370
    30
100
AcDbLine
 10
213.9865536579
 20
157.1374235249
 30
0.0
 11
213.9865536579
 21
157.0046763714
 31
0.0
  0
LINE
  5
2A3
330
1F
100
AcDbEntity
  8
0
  6
Continuous
 62
     7
370
    30
100
AcDbLine
 10
213.2189279014
 20
157.5805644416
 30
0.0
 11
213.9865536579
 21
157.1374235249
 31
0.0
  0
LINE
  5
2A4
330
1F
100
AcDbEntity
  8
0
  6
Continuous
 62
     7
370
    30
100
AcDbLine
 10
226.3239324114
 20
149.8970884957
 30
0.0
 11
226.3239324114
 21
149.9702348865
 31
0.0
  0
SPLINE
  5
2A5
330
1F
100
AcDbEntity
  8
0
  6
Continuous
 62
     7
370
    30
100
AcDbSpline
210
0.0
220
0.0
230
1.0
 70
     8
 71
     3
 72
     9
 73
     5
 74
     0
 42
0.000000001
 43
0.00000001
 40
0.0
 40
0.0
 40
0.0
 40
0.0
 40
0.5578880974118708
 40
1.0
 40
1.0
 40
1.0
 40
1.0
 10
226.5552523979645
 20
149.6979894708457
 30
0.0
 10
226.5137824355616
 20
149.7418099072296
 30
0.0
 10
226.4394485994477
 20
149.8203569072232
 30
0.0
 10
226.359346502104
 20
149.8735646980854
 30
0.0
 10
226.3239324114461
 20
149.8970884957359
 30
0.0
  0
SPLINE
  5
2A6
330
1F
100
AcDbEntity
  8
0
  6
Continuous
 62
     7
370
    30
100
AcDbSpline
210
0.0
220
0.0
230
1.0
 70
     8
 71
     3
 72
    10
 73
     6
 74
     0
 42
0.000000001
 43
0.00000001
 40
0.0
 40
0.0
 40
0.0
 40
0.0
 40
0.56001136997776
 40
0.7802776236410273
 40
1.0
 40
1.0
 40
1.0
 40
1.0
 10
226.6373639550451
 20
149.3357870851554
 30
0.0
 10
226.6348409395899
 20
149.4003560302199
 30
0.0
 10
226.6313255600649
 20
149.4903215304166
 30
0.0
 10
226.5991632629981
 20
149.6174528920051
 30
0.0
 10
226.5698772860137
 20
149.6711660764874
 30
0.0
 10
226.5552523979645
 20
149.6979894708457
 30
0.0
  0
LINE
  5
2A7
330
1F
100
AcDbEntity
  8
0
  6
Continuous
 62
     7
370
    30
100
AcDbLine
 10
226.637363955
 20
147.5986957612
 30
0.0
 11
226.637363955
 21
149.3357870852
 31
0.0
  0
SPLINE
  5
2A8
330
1F
100
AcDbEntity
  8
0
  6
Continuous
 62
     7
370
    30
100
AcDbSpline
210
0.0
220
0.0
230
1.0
 70
     8
 71
     3
 72
    10
 73
     6
 74
     0
 42
0.000000001
 43
0.00000001
 40
0.0
 40
0.0
 40
0.0
 40
0.0
 40
0.2785120652043363
 40
0.5590464629733434
 40
1.0
 40
1.0
 40
1.0
 40
1.0
 10
226.5740207538686
 20
147.3063751670928
 30
0.0
 10
226.5887747664437
 20
147.3250878584757
 30
0.0
 10
226.61838992347
 20
147.3626491178869
 30
0.0
 10
226.6341119014863
 20
147.4682593863861
 30
0.0
 10
226.6361303406618
 20
147.5492168134694
 30
0.0
 10
226.6373639550451
 20
147.5986957612096
 30
0.0
  0
LINE
  5
2A9
330
1F
100
AcDbEntity
  8
0
  6
Continuous
 62
     7
370
    30
100
AcDbLine
 10
227.1567782047
 20
146.7976560645
 30
0.0
 11
226.7528656753
 21
147.0308298045
 31
0.0
  0
LINE
  5
2AA
330
1F
100
AcDbEntity
  8
0
  6
Continuous
 62
     7
370
    30
100
AcDbLine
 10
227.1567782047
 20
146.8708024553
 30
0.0
 11
227.1567782047
 21
146.7976560645
 31
0.0
  0
SPLINE
  5
2AB
330
1F
100
AcDbEntity
  8
0
  6
Continuous
 62
     7
370
    30
100
AcDbSpline
210
0.0
220
0.0
230
1.0
 70
     8
 71
     3
 72
     9
 73
     5
 74
     0
 42
0.000000001
 43
0.00000001
 40
0.0
 40
0.0
 40
0.0
 40
0.0
 40
0.5577888705740583
 40
1.0
 40
1.0
 40
1.0
 40
1.0
 10
226.9160740402213
 20
147.0866971782207
 30
0.0
 10
226.9587870183803
 20
147.0387345221374
 30
0.0
 10
227.0353625479619
 20
146.9527474065574
 30
0.0
 10
227.1195497063138
 20
146.8959284362804
 30
0.0
 10
227.1567782046917
 20
146.8708024552614
 30
0.0
  0
SPLINE
  5
2AC
330
1F
100
AcDbEntity
  8
0
  6
Continuous
 62
     7
370
    30
100
AcDbSpline
210
0.0
220
0.0
230
1.0
 70
     8
 71
     3
 72
    10
 73
     6
 74
     0
 42
0.000000001
 43
0.00000001
 40
0.0
 40
0.0
 40
0.0
 40
0.0
 40
0.5601234433190357
 40
0.7803712189439305
 40
1.0
 40
1.0
 40
1.0
 40
1.0
 10
226.8367777365264
 20
147.4326450745758
 30
0.0
 10
226.8389352915599
 20
147.3709932580239
 30
0.0
 10
226.8419412251118
 20
147.2850991505615
 30
0.0
 10
226.8750560124576
 20
147.1636527213934
 30
0.0
 10
226.9024141971183
 20
147.1123249497874
 30
0.0
 10
226.9160740402213
 20
147.0866971782207
 30
0.0
  0
LINE
  5
2AD
330
1F
100
AcDbEntity
  8
0
  6
Continuous
 62
     7
370
    30
100
AcDbLine
 10
226.8367777365
 20
148.3250310417
 30
0.0
 11
226.8367777365
 21
147.4326450746
 31
0.0
  0
LINE
  5
2AE
330
1F
100
AcDbEntity
  8
0
  6
Continuous
 62
     7
370
    30
100
AcDbLine
 10
227.3500922705
 20
148.024908093
 30
0.0
 11
226.8367777365
 21
148.3250310417
 31
0.0
  0
SPLINE
  5
2AF
330
1F
100
AcDbEntity
  8
0
  6
Continuous
 62
     7
370
    30
100
AcDbSpline
210
0.0
220
0.0
230
1.0
 70
     8
 71
     3
 72
    10
 73
     6
 74
     0
 42
0.000000001
 43
0.00000001
 40
0.0
 40
0.0
 40
0.0
 40
0.0
 40
0.2786905031362981
 40
0.5591146962643126
 40
1.0
 40
1.0
 40
1.0
 40
1.0
 10
227.5875119726914
 20
147.8293315036873
 30
0.0
 10
227.5677277619359
 20
147.8546238198937
 30
0.0
 10
227.528036265947
 20
147.9053657918461
 30
0.0
 10
227.4453027576548
 20
147.9667551934204
 30
0.0
 10
227.386210918191
 20
148.0028474549667
 30
0.0
 10
227.3500922705042
 20
148.0249080929641
 30
0.0
  0
SPLINE
  5
2B0
330
1F
100
AcDbEntity
  8
0
  6
Continuous
 62
     7
370
    30
100
AcDbSpline
210
0.0
220
0.0
230
1.0
 70
     8
 71
     3
 72
     9
 73
     5
 74
     0
 42
0.000000001
 43
0.00000001
 40
0.0
 40
0.0
 40
0.0
 40
0.0
 40
0.5618661542988053
 40
1.0
 40
1.0
 40
1.0
 40
1.0
 10
227.6635238141031
 20
147.4598139065671
 30
0.0
 10
227.6581892478405
 20
147.526813564174
 30
0.0
 10
227.6486948758771
 20
147.6460584360964
 30
0.0
 10
227.6061516151308
 20
147.7734965519149
 30
0.0
 10
227.5875119726914
 20
147.8293315036873
 30
0.0
  0
LINE
  5
2B1
330
1F
100
AcDbEntity
  8
0
  6
Continuous
 62
     7
370
    30
100
AcDbLine
 10
227.7428201178
 20
147.4140371248
 30
0.0
 11
227.6635238141
 21
147.4598139066
 31
0.0
  0
LINE
  5
2B2
330
1F
100
AcDbEntity
  8
0
  6
Continuous
 62
     7
370
    30
100
AcDbLine
 10
227.7428201178
 20
148.3248451459
 30
0.0
 11
227.7428201178
 21
147.4140371248
 31
0.0
  0
LINE
  5
2B3
330
1F
100
AcDbEntity
  8
0
  6
Continuous
 62
     7
370
    30
100
AcDbLine
 10
227.6635238141
 20
148.3706219276
 30
0.0
 11
227.7428201178
 21
148.3248451459
 31
0.0
  0
SPLINE
  5
2B4
330
1F
100
AcDbEntity
  8
0
  6
Continuous
 62
     7
370
    30
100
AcDbSpline
210
0.0
220
0.0
230
1.0
 70
     8
 71
     3
 72
     9
 73
     5
 74
     0
 42
0.000000001
 43
0.00000001
 40
0.0
 40
0.0
 40
0.0
 40
0.0
 40
0.5581781111261211
 40
1.0
 40
1.0
 40
1.0
 40
1.0
 10
227.5968961506435
 20
148.0942848662706
 30
0.0
 10
227.6162442376521
 20
148.139818708215
 30
0.0
 10
227.6509071644544
 20
148.2213945368559
 30
0.0
 10
227.6596576555838
 20
148.3248937221114
 30
0.0
 10
227.6635238141031
 20
148.3706219276379
 30
0.0
  0
SPLINE
  5
2B5
330
1F
100
AcDbEntity
  8
0
  6
Continuous
 62
     7
370
    30
100
AcDbSpline
210
0.0
220
0.0
230
1.0
 70
     8
 71
     3
 72
    10
 73
     6
 74
     0
 42
0.000000001
 43
0.00000001
 40
0.0
 40
0.0
 40
0.0
 40
0.0
 40
0.5603610191166125
 40
0.7806040857484893
 40
1.0
 40
1.0
 40
1.0
 40
1.0
 10
227.3500922705042
 20
148.1603643721239
 30
0.0
 10
227.3989827187677
 20
148.1340817045804
 30
0.0
 10
227.4670889616478
 20
148.0974689549977
 30
0.0
 10
227.5521019382671
 20
148.0776642453784
 30
0.0
 10
227.5819839400002
 20
148.0887517809317
 30
0.0
 10
227.5968961506435
 20
148.0942848662706
 30
0.0
  0
LINE
  5
2B6
330
1F
100
AcDbEntity
  8
0
  6
Continuous
 62
     7
370
    30
100
AcDbLine
 10
226.8367777365
 20
148.456694545
 30
0.0
 11
227.3500922705
 21
148.1603643721
 31
0.0
  0
LINE
  5
2B7
330
1F
100
AcDbEntity
  8
0
  6
Continuous
 62
     7
370
    30
100
AcDbLine
 10
226.8367777365
 20
149.3891755708
 30
0.0
 11
226.8367777365
 21
148.456694545
 31
0.0
  0
SPLINE
  5
2B8
330
1F
100
AcDbEntity
  8
0
  6
Continuous
 62
     7
370
    30
100
AcDbSpline
210
0.0
220
0.0
230
1.0
 70
     8
 71
     3
 72
     9
 73
     5
 74
     0
 42
0.000000001
 43
0.00000001
 40
0.0
 40
0.0
 40
0.0
 40
0.0
 40
0.558250841699585
 40
1.0
 40
1.0
 40
1.0
 40
1.0
 10
226.8592997636113
 20
149.5002518329836
 30
0.0
 10
226.8512940839599
 20
149.4826374164529
 30
0.0
 10
226.8369534344644
 20
149.4510845459243
 30
0.0
 10
226.8368315700354
 20
149.4081443612137
 30
0.0
 10
226.8367777365264
 20
149.3891755707606
 30
0.0
  0
SPLINE
  5
2B9
330
1F
100
AcDbEntity
  8
0
  6
Continuous
 62
     7
370
    30
100
AcDbSpline
210
0.0
220
0.0
230
1.0
 70
     8
 71
     3
 72
     9
 73
     5
 74
     0
 42
0.000000001
 43
0.00000001
 40
0.0
 40
0.0
 40
0.0
 40
0.0
 40
0.562369358356406
 40
0.9999999999999999
 40
0.9999999999999999
 40
0.9999999999999999
 40
0.9999999999999999
 10
226.9573644232104
 20
149.4804844179387
 30
0.0
 10
226.9369130464724
 20
149.4920891972192
 30
0.0
 10
226.9005465972091
 20
149.512724708575
 30
0.0
 10
226.8718557552063
 20
149.5040487140392
 30
0.0
 10
226.8592997636113
 20
149.5002518329836
 30
0.0
  0
LINE
  5
2BA
330
1F
100
AcDbEntity
  8
0
  6
Continuous
 62
     7
370
    30
100
AcDbLine
 10
227.4195351873
 20
149.2136789149
 30
0.0
 11
226.9573644232
 21
149.4804844179
 31
0.0
  0
SPLINE
  5
2BB
330
1F
100
AcDbEntity
  8
0
  6
Continuous
 62
     7
370
    30
100
AcDbSpline
210
0.0
220
0.0
230
1.0
 70
     8
 71
     3
 72
     9
 73
     5
 74
     0
 42
0.000000001
 43
0.00000001
 40
0.0
 40
0.0
 40
0.0
 40
0.0
 40
0.5573026436976255
 40
0.9999999999999999
 40
0.9999999999999999
 40
0.9999999999999999
 40
0.9999999999999999
 10
227.7615884737022
 20
148.9430693650798
 30
0.0
 10
227.699995224063
 20
149.0054176931799
 30
0.0
 10
227.5894749343502
 20
149.1172928633503
 30
0.0
 10
227.4716818669003
 20
149.1841024760141
 30
0.0
 10
227.4195351873495
 20
149.213678914916
 30
0.0
  0
SPLINE
  5
2BC
330
1F
100
AcDbEntity
  8
0
  6
Continuous
 62
     7
370
    30
100
AcDbSpline
210
0.0
220
0.0
230
1.0
 70
     8
 71
     3
 72
     9
 73
     5
 74
     0
 42
0.000000001
 43
0.00000001
 40
0.0
 40
0.0
 40
0.0
 40
0.0
 40
0.5626512567471397
 40
1.0
 40
1.0
 40
1.0
 40
1.0
 10
227.8821751603862
 20
148.5223534770337
 30
0.0
 10
227.8725221740481
 20
148.6000613439985
 30
0.0
 10
227.8553659227782
 20
148.7381715250974
 30
0.0
 10
227.790122571423
 20
148.8807241525959
 30
0.0
 10
227.7615884737022
 20
148.9430693650798
 30
0.0
  0
LINE
  5
2BD
330
1F
100
AcDbEntity
  8
0
  6
Continuous
 62
     7
370
    30
100
AcDbLine
 10
227.9516180772
 20
148.4822649344
 30
0.0
 11
227.8821751604
 21
148.522353477
 31
0.0
  0
LINE
  5
2BE
330
1F
100
AcDbEntity
  8
0
  6
Continuous
 62
     7
370
    30
100
AcDbLine
 10
227.9422338993
 20
149.0360093231
 30
0.0
 11
227.9516180772
 21
148.4822649344
 31
0.0
  0
LINE
  5
2BF
330
1F
100
AcDbEntity
  8
0
  6
Continuous
 62
     7
370
    30
100
AcDbLine
 10
226.3239324114
 20
149.9702348865
 30
0.0
 11
227.9422338993
 21
149.0360093231
 31
0.0
  0
ARC
  5
2C0
330
1F
100
AcDbEntity
  8
0
  6
Continuous
 62
     7
370
    30
100
AcDbCircle
 10
214.2609790625
 20
140.2061234101
 30
0.0
 40
12.19414993178628
100
AcDbArc
 50
1.0432487761
 51
20.1221790004
  0
LWPOLYLINE
  5
2C1
330
1F
100
AcDbEntity
  8
0
  6
Continuous
 62
     7
370
    30
100
AcDbPolyline
 90
       29
 70
   128
 43
0.0
 10
223.5893664986
 20
148.4350026726
 10
223.3801555816
 20
148.7183179987
 10
222.8001948998
 20
149.4397835733
 10
222.1897768298
 20
150.1102281181
 10
221.5549679805
 20
150.7229884541
 10
220.9020773676
 20
151.2719746938
 10
220.2375937113
 20
151.7517307652
 10
219.5681209486
 20
152.1574886369
 10
218.9003126008
 20
152.4852157051
 10
218.240805647
 20
152.7316548707
 10
217.5961545639
 20
152.8943569107
 10
216.9727661834
 20
152.9717048191
 10
216.3768360193
 20
152.9629298776
 10
215.8142866934
 20
152.8681192955
 10
215.2907090735
 20
152.6882153431
 10
214.8113067094
 20
152.4250059865
 10
214.380844117
 20
152.0811071187
 10
214.003599427
 20
151.6599365611
 10
213.6833218667
 20
151.1656800959
 10
213.4231944982
 20
150.6032498659
 10
213.2258025843
 20
149.9782355555
 10
213.0931078946
 20
149.2968488375
 10
213.0264292083
 20
148.5658616395
 10
213.0264292083
 20
147.7925388405
 10
213.0931078946
 20
146.98456607
 10
213.2258025843
 20
146.1499733243
 10
213.4231944982
 20
145.2970551612
 10
213.6833218667
 20
144.4342882644
 10
213.8156815322
 20
144.05737989
  0
LWPOLYLINE
  5
2C2
330
1F
100
AcDbEntity
  8
0
  6
Continuous
 62
     7
370
    30
100
AcDbPolyline
 90
       21
 70
   128
 43
0.0
 10
217.3705816401
 20
138.4108874507
 10
217.5961545639
 20
138.1879509786
 10
218.240805647
 20
137.6063547208
 10
218.9003126008
 20
137.0913433656
 10
219.5681209486
 20
136.6480353272
 10
220.2375937113
 20
136.2808364
 10
220.9020773676
 20
135.9933959721
 10
221.5549679805
 20
135.7885707554
 10
222.1897768298
 20
135.668396395
 10
222.8001948998
 20
135.6340672377
 10
223.3801555816
 20
135.6859244621
 10
223.9238949654
 20
135.8234526877
 10
224.4260091249
 20
136.0452850974
 10
224.8815078239
 20
136.3492170209
 10
225.2858641118
 20
136.7322278462
 10
225.6350593141
 20
137.1905110398
 10
225.925622972
 20
137.7195119772
 10
226.1546673334
 20
138.3139732096
 10
226.3199160524
 20
138.9679867141
 10
226.419726813
 20
139.6750526107
 10
226.4531076512
 20
140.4281437608
  0
ARC
  5
2C3
330
1F
100
AcDbEntity
  8
0
  6
Continuous
 62
     7
370
    30
100
AcDbCircle
 10
232.163732812
 20
125.7946711492
 30
0.0
 40
0.6573039067429266
100
AcDbArc
 50
305.0133328787
 51
6.2988475146
  0
LINE
  5
2C4
330
1F
100
AcDbEntity
  8
0
  6
Continuous
 62
     7
370
    30
100
AcDbLine
 10
232.8170686819
 20
125.866786799
 30
0.0
 11
232.8170686819
 21
150.3630111555
 31
0.0
  0
LINE
  5
2C5
330
1F
100
AcDbEntity
  8
0
  6
Continuous
 62
     7
370
    30
100
AcDbLine
 10
231.8742596403
 20
151.9960043126
 30
0.0
 11
210.8967584651
 21
164.1060579713
 31
0.0
  0
ARC
  5
2C6
330
1F
100
AcDbEntity
  8
0
  6
Continuous
 62
     7
370
    30
100
AcDbCircle
 10
210.506198392
 20
163.5608828658
 30
0.0
 40
0.6706363145356596
100
AcDbArc
 50
54.3824225248
 51
114.3071190461
  0
LINE
  5
2C7
330
1F
100
AcDbEntity
  8
0
  6
Continuous
 62
     7
370
    30
100
AcDbLine
 10
212.1931208973
 20
133.6900343703
 30
0.0
 11
215.7608734743
 21
132.878871918
 31
0.0
  0
LINE
  5
2C8
330
1F
100
AcDbEntity
  8
0
  6
Continuous
 62
     7
370
    30
100
AcDbLine
 10
209.6003960329
 20
135.1867825753
 30
0.0
 11
212.1931208973
 21
133.6900343703
 31
0.0
  0
LINE
  5
2C9
330
1F
100
AcDbEntity
  8
0
  6
Continuous
 62
     7
370
    30
100
AcDbLine
 10
209.6003960329
 20
165.3987926151
 30
0.0
 11
209.6003960329
 21
163.8085218011
 31
0.0
  0
LINE
  5
2CA
330
1F
100
AcDbEntity
  8
0
  6
Continuous
 62
     7
370
    30
100
AcDbLine
 10
209.6003960329
 20
136.4352398455
 30
0.0
 11
209.6003960329
 21
135.1867825753
 31
0.0
  0
LINE
  5
2CB
330
1F
100
AcDbEntity
  8
0
  6
Continuous
 62
     7
370
    30
100
AcDbLine
 10
233.1706220725
 20
151.7919907514
 30
0.0
 11
209.6003960329
 21
165.3987926151
 31
0.0
  0
LINE
  5
2CC
330
1F
100
AcDbEntity
  8
0
  6
Continuous
 62
     7
370
    30
100
AcDbLine
 10
233.1706220725
 20
121.5799807116
 30
0.0
 11
233.1706220725
 21
151.7919907514
 31
0.0
  0
LINE
  5
2CD
330
1F
100
AcDbEntity
  8
0
  6
Continuous
 62
     7
370
    30
100
AcDbLine
 10
230.5778972081
 20
123.0767289166
 30
0.0
 11
233.1706220725
 21
121.5799807116
 31
0.0
  0
LINE
  5
2CE
330
1F
100
AcDbEntity
  8
0
  6
Continuous
 62
     7
370
    30
100
AcDbLine
 10
227.0101446311
 20
126.3848059093
 30
0.0
 11
230.5778972081
 21
123.0767289166
 31
0.0
  0
LWPOLYLINE
  5
2CF
330
1F
100
AcDbEntity
  8
0
  6
Continuous
 62
     7
370
    30
100
AcDbPolyline
 90
       27
 70
   128
 43
0.0
 10
234.8428353291
 20
166.3641407801
 10
235.1657841571
 20
166.2180787632
 10
235.5398989522
 20
166.1208777129
 10
235.9434375224
 20
166.078186601
 10
236.3529476726
 20
166.0924864798
 10
236.7446301616
 20
166.1629462922
 10
237.0957218267
 20
166.2854711701
 10
237.3858184966
 20
166.452940413
 10
237.5980608072
 20
166.6556213171
 10
237.7201140069
 20
166.881734805
 10
237.7448848075
 20
167.1181399827
 10
237.6709336199
 20
167.3510978406
 10
237.5025582185
 20
167.5670697147
 10
237.2495439695
 20
167.7535041048
 10
236.9265951415
 20
167.8995661217
 10
236.5524803463
 20
167.996767172
 10
236.1489417762
 20
168.0394582838
 10
235.7394316259
 20
168.0251584051
 10
235.347749137
 20
167.9546985926
 10
234.9966574718
 20
167.8321737147
 10
234.706560802
 20
167.6647044719
 10
234.4943184914
 20
167.4620235678
 10
234.3722652916
 20
167.2359100799
 10
234.3474944911
 20
166.9995049022
 10
234.4214456787
 20
166.7665470443
 10
234.5898210801
 20
166.5505751702
 10
234.8428353291
 20
166.3641407801
  0
LINE
  5
2D0
330
1F
100
AcDbEntity
  8
0
  6
Continuous
 62
     7
370
    30
100
AcDbLine
 10
261.7377360324
 20
168.2834346102
 30
0.0
 11
259.3807134284
 21
169.6441147965
 31
0.0
  0
LINE
  5
2D1
330
1F
100
AcDbEntity
  8
0
  6
Continuous
 62
     7
370
    30
100
AcDbLine
 10
261.7377360324
 20
168.2834346102
 30
0.0
 11
233.1706220725
 21
151.7919907514
 31
0.0
  0
LINE
  5
2D2
330
1F
100
AcDbEntity
  8
0
  6
Continuous
 62
     7
370
    30
100
AcDbLine
 10
238.1675099928
 20
181.8902364739
 30
0.0
 11
209.6003960329
 21
165.3987926151
 31
0.0
  0
LINE
  5
2D3
330
1F
100
AcDbEntity
  8
0
  6
Continuous
 62
     7
370
    30
100
AcDbLine
 10
240.5245325968
 20
180.5295562875
 30
0.0
 11
238.1675099928
 21
181.8902364739
 31
0.0
  0
LINE
  5
2D4
330
1F
100
AcDbEntity
  8
0
  6
Continuous
 62
     7
370
    30
100
AcDbLine
 10
240.5245325968
 20
180.5295562875
 30
0.0
 11
240.053128076
 21
180.2574202502
 31
0.0
  0
LINE
  5
2D5
330
1F
100
AcDbEntity
  8
0
  6
Continuous
 62
     7
370
    30
100
AcDbLine
 10
240.053128076
 20
180.2574202502
 30
0.0
 11
258.9093089077
 21
169.3719787593
 31
0.0
  0
LINE
  5
2D6
330
1F
100
AcDbEntity
  8
0
  6
Continuous
 62
     7
370
    30
100
AcDbLine
 10
258.9093089077
 20
169.3719787593
 30
0.0
 11
259.3807134284
 21
169.6441147965
 31
0.0
  0
LINE
  5
2D7
330
1F
100
AcDbEntity
  8
0
  6
Continuous
 62
     7
370
    30
100
AcDbLine
 10
261.7377360324
 20
138.0714245704
 30
0.0
 11
261.7377360324
 21
168.2834346102
 31
0.0
  0
LINE
  5
2D8
330
1F
100
AcDbEntity
  8
0
  6
Continuous
 62
     7
370
    30
100
AcDbLine
 10
261.7377360324
 20
138.0714245704
 30
0.0
 11
233.1706220725
 21
121.5799807116
 31
0.0
  0
ARC
  5
2D9
330
1F
100
AcDbEntity
  8
0
  6
Continuous
 62
     7
370
    30
100
AcDbCircle
 10
231.2171168718
 20
139.8980491406
 30
0.0
 40
7.167525859138868
100
AcDbArc
 50
127.5413213197
 51
157.4586955295
  0
LINE
  5
2DA
330
1F
100
AcDbEntity
  8
0
  6
Continuous
 62
     7
370
    30
100
AcDbLine
 10
220.4016652664
 20
140.2237048361
 30
0.0
 11
224.5971655014
 21
142.6457155679
 31
0.0
  0
LINE
  5
2DB
330
1F
100
AcDbEntity
  8
0
  6
Continuous
 62
     7
370
    30
100
AcDbLine
 10
221.3170916642
 20
148.3269700899
 30
0.0
 11
217.1215914291
 21
145.9049593581
 31
0.0
  0
ARC
  5
2DC
330
1F
100
AcDbEntity
  8
0
  6
Continuous
 62
     7
370
    30
100
AcDbCircle
 10
222.2464410004
 20
155.4325965348
 30
0.0
 40
7.166143828053742
100
AcDbArc
 50
262.5485456462
 51
292.4697931561
  0
LINE
  5
2DD
330
1F
100
AcDbEntity
  8
0
  6
Continuous
 62
     7
370
    30
100
AcDbLine
 10
231.4028551195
 20
149.5466030437
 30
0.0
 11
231.4028551195
 21
125.0503786871
 31
0.0
  0
ARC
  5
2DE
330
1F
100
AcDbEntity
  8
0
  6
Continuous
 62
     7
370
    30
100
AcDbCircle
 10
231.1671528591
 20
125.5052823821
 30
0.0
 40
0.5123406359705065
100
AcDbArc
 50
242.6096722366
 51
297.3903277634
  0
ARC
  5
2DF
330
1F
100
AcDbEntity
  8
0
  6
Continuous
 62
     7
370
    30
100
AcDbCircle
 10
209.7585813428
 20
162.8581146195
 30
0.0
 40
0.5122682691906169
100
AcDbArc
 50
122.60547834
 51
177.3945215144
  0
LINE
  5
2E0
330
1F
100
AcDbEntity
  8
0
  6
Continuous
 62
     7
370
    30
100
AcDbLine
 10
209.4825449027
 20
163.2896498595
 30
0.0
 11
230.4600460779
 21
151.1795962008
 31
0.0
  0
LINE
  5
2E1
330
1F
100
AcDbEntity
  8
0
  6
Continuous
 62
     7
370
    30
100
AcDbLine
 10
231.4028551195
 20
125.0503786871
 30
0.0
 11
232.8170686819
 21
125.866786799
 31
0.0
  0
LINE
  5
2E2
330
1F
100
AcDbEntity
  8
0
  6
Continuous
 62
     7
370
    30
100
AcDbLine
 10
209.4825449027
 20
163.2896498595
 30
0.0
 11
210.8967584651
 21
164.1060579713
 31
0.0
  0
LINE
  5
2E3
330
1F
100
AcDbEntity
  8
0
  6
Continuous
 62
     7
370
    30
100
AcDbLine
 10
229.6331696184
 20
147.5169686132
 30
0.0
 11
229.5685338946
 21
147.5542820223
 31
0.0
  0
SPLINE
  5
2E4
330
1F
100
AcDbEntity
  8
0
  6
Continuous
 62
     7
370
    30
100
AcDbSpline
210
0.0
220
0.0
230
1.0
 70
     8
 71
     3
 72
     9
 73
     5
 74
     0
 42
0.000000001
 43
0.00000001
 40
0.0
 40
0.0
 40
0.0
 40
0.0
 40
0.562651256747143
 40
1.0
 40
1.0
 40
1.0
 40
1.0
 10
229.5685338946038
 20
147.5542820223473
 30
0.0
 10
229.5588809082657
 20
147.6319898893121
 30
0.0
 10
229.5417246569959
 20
147.7701000704109
 30
0.0
 10
229.4764813056406
 20
147.9126526979095
 30
0.0
 10
229.4479472079198
 20
147.9749979103933
 30
0.0
  0
SPLINE
  5
2E5
330
1F
100
AcDbEntity
  8
0
  6
Continuous
 62
     7
370
    30
100
AcDbSpline
210
0.0
220
0.0
230
1.0
 70
     8
 71
     3
 72
     9
 73
     5
 74
     0
 42
0.000000001
 43
0.00000001
 40
0.0
 40
0.0
 40
0.0
 40
0.0
 40
0.5573026436976255
 40
0.9999999999999999
 40
0.9999999999999999
 40
0.9999999999999999
 40
0.9999999999999999
 10
229.4479472079198
 20
147.9749979103933
 30
0.0
 10
229.3863539582806
 20
148.0373462384934
 30
0.0
 10
229.2758336685679
 20
148.1492214086639
 30
0.0
 10
229.1580406011179
 20
148.2160310213277
 30
0.0
 10
229.1058939215671
 20
148.2456074602296
 30
0.0
  0
LINE
  5
2E6
330
1F
100
AcDbEntity
  8
0
  6
Continuous
 62
     7
370
    30
100
AcDbLine
 10
229.1058939216
 20
148.2456074602
 30
0.0
 11
228.6437231574
 21
148.5124129633
 31
0.0
  0
SPLINE
  5
2E7
330
1F
100
AcDbEntity
  8
0
  6
Continuous
 62
     7
370
    30
100
AcDbSpline
210
0.0
220
0.0
230
1.0
 70
     8
 71
     3
 72
     9
 73
     5
 74
     0
 42
0.000000001
 43
0.00000001
 40
0.0
 40
0.0
 40
0.0
 40
0.0
 40
0.5623693583563933
 40
1.0
 40
1.0
 40
1.0
 40
1.0
 10
228.643723157428
 20
148.5124129632522
 30
0.0
 10
228.62327178069
 20
148.5240177425327
 30
0.0
 10
228.5869053314267
 20
148.5446532538886
 30
0.0
 10
228.5582144894239
 20
148.5359772593527
 30
0.0
 10
228.5456584978289
 20
148.5321803782971
 30
0.0
  0
SPLINE
  5
2E8
330
1F
100
AcDbEntity
  8
0
  6
Continuous
 62
     7
370
    30
100
AcDbSpline
210
0.0
220
0.0
230
1.0
 70
     8
 71
     3
 72
     9
 73
     5
 74
     0
 42
0.000000001
 43
0.00000001
 40
0.0
 40
0.0
 40
0.0
 40
0.0
 40
0.5581781111261144
 40
1.0
 40
1.0
 40
1.0
 40
1.0
 10
229.2832548848611
 20
147.1262134115842
 30
0.0
 10
229.3026029718697
 20
147.1717472535285
 30
0.0
 10
229.3372658986719
 20
147.2533230821694
 30
0.0
 10
229.3460163898013
 20
147.3568222674249
 30
0.0
 10
229.3498825483207
 20
147.4025504729514
 30
0.0
  0
LINE
  5
2E9
330
1F
100
AcDbEntity
  8
0
  6
Continuous
 62
     7
370
    30
100
AcDbLine
 10
229.4244648068
 20
146.4486870305
 30
0.0
 11
229.3498825483
 21
146.4917424519
 31
0.0
  0
SPLINE
  5
2EA
330
1F
100
AcDbEntity
  8
0
  6
Continuous
 62
     7
370
    30
100
AcDbSpline
210
0.0
220
0.0
230
1.0
 70
     8
 71
     3
 72
     9
 73
     5
 74
     0
 42
0.000000001
 43
0.00000001
 40
0.0
 40
0.0
 40
0.0
 40
0.0
 40
0.5618661542988234
 40
1.0
 40
1.0
 40
1.0
 40
1.0
 10
229.3498825483207
 20
146.4917424518806
 30
0.0
 10
229.3445479820581
 20
146.5587421094875
 30
0.0
 10
229.3350536100947
 20
146.6779869814099
 30
0.0
 10
229.2925103493484
 20
146.8054250972284
 30
0.0
 10
229.273870706909
 20
146.8612600490009
 30
0.0
  0
SPLINE
  5
2EB
330
1F
100
AcDbEntity
  8
0
  6
Continuous
 62
     7
370
    30
100
AcDbSpline
210
0.0
220
0.0
230
1.0
 70
     8
 71
     3
 72
    10
 73
     6
 74
     0
 42
0.000000001
 43
0.00000001
 40
0.0
 40
0.0
 40
0.0
 40
0.0
 40
0.2786905031362829
 40
0.5591146962643145
 40
1.0
 40
1.0
 40
1.0
 40
1.0
 10
229.273870706909
 20
146.8612600490009
 30
0.0
 10
229.2540864961535
 20
146.8865523652072
 30
0.0
 10
229.2143950001646
 20
146.9372943371597
 30
0.0
 10
229.1316614918724
 20
146.9986837387339
 30
0.0
 10
229.0725696524085
 20
147.0347760002803
 30
0.0
 10
229.0364510047218
 20
147.0568366382776
 30
0.0
  0
LINE
  5
2EC
330
1F
100
AcDbEntity
  8
0
  6
Continuous
 62
     7
370
    30
100
AcDbLine
 10
229.0364510047
 20
147.0568366383
 30
0.0
 11
228.5231364707
 21
147.356959587
 31
0.0
  0
LINE
  5
2ED
330
1F
100
AcDbEntity
  8
0
  6
Continuous
 62
     7
370
    30
100
AcDbLine
 10
228.8384228937
 20
145.8323059702
 30
0.0
 11
228.0102911457
 21
146.3103762523
 31
0.0
  0
LINE
  5
2EE
330
1F
100
AcDbEntity
  8
0
  6
Continuous
 62
     7
370
    30
100
AcDbLine
 10
228.0102911457
 20
146.3103762523
 30
0.0
 11
228.0102911457
 21
146.3835226431
 31
0.0
  0
SPLINE
  5
2EF
330
1F
100
AcDbEntity
  8
0
  6
Continuous
 62
     7
370
    30
100
AcDbSpline
210
0.0
220
0.0
230
1.0
 70
     8
 71
     3
 72
    10
 73
     6
 74
     0
 42
0.000000001
 43
0.00000001
 40
0.0
 40
0.0
 40
0.0
 40
0.0
 40
0.2785120652043521
 40
0.5590464629733358
 40
1.0
 40
1.0
 40
1.0
 40
1.0
 10
228.2603794880862
 20
146.3383037124064
 30
0.0
 10
228.2751335006612
 20
146.3570164037892
 30
0.0
 10
228.3047486576876
 20
146.3945776632005
 30
0.0
 10
228.3204706357039
 20
146.5001879316996
 30
0.0
 10
228.3224890748794
 20
146.5811453587829
 30
0.0
 10
228.3237226892626
 20
146.6306243065231
 30
0.0
  0
LINE
  5
2F0
330
1F
100
AcDbEntity
  8
0
  6
Continuous
 62
     7
370
    30
100
AcDbLine
 10
228.3237226893
 20
146.6306243065
 30
0.0
 11
228.3237226893
 21
148.3677156305
 31
0.0
  0
SPLINE
  5
2F1
330
1F
100
AcDbEntity
  8
0
  6
Continuous
 62
     7
370
    30
100
AcDbSpline
210
0.0
220
0.0
230
1.0
 70
     8
 71
     3
 72
    10
 73
     6
 74
     0
 42
0.000000001
 43
0.00000001
 40
0.0
 40
0.0
 40
0.0
 40
0.0
 40
0.5600113699777582
 40
0.7802776236410214
 40
1.0
 40
1.0
 40
1.0
 40
1.0
 10
228.3237226892626
 20
148.367715630469
 30
0.0
 10
228.3211996738074
 20
148.4322845755334
 30
0.0
 10
228.3176842942825
 20
148.5222500757301
 30
0.0
 10
228.2855219972157
 20
148.6493814373186
 30
0.0
 10
228.2562360202313
 20
148.7030946218009
 30
0.0
 10
228.2416111321821
 20
148.7299180161592
 30
0.0
  0
SPLINE
  5
2F2
330
1F
100
AcDbEntity
  8
0
  6
Continuous
 62
     7
370
    30
100
AcDbSpline
210
0.0
220
0.0
230
1.0
 70
     8
 71
     3
 72
     9
 73
     5
 74
     0
 42
0.000000001
 43
0.00000001
 40
0.0
 40
0.0
 40
0.0
 40
0.0
 40
0.5578880974118702
 40
1.0
 40
1.0
 40
1.0
 40
1.0
 10
228.2416111321821
 20
148.7299180161592
 30
0.0
 10
228.2001411697792
 20
148.7737384525431
 30
0.0
 10
228.1258073336653
 20
148.8522854525368
 30
0.0
 10
228.0457052363217
 20
148.9054932433989
 30
0.0
 10
228.0102911456637
 20
148.9290170410495
 30
0.0
  0
LINE
  5
2F3
330
1F
100
AcDbEntity
  8
0
  6
Continuous
 62
     7
370
    30
100
AcDbLine
 10
228.0102911457
 20
148.929017041
 30
0.0
 11
228.0102911457
 21
148.9967207111
 31
0.0
  0
LINE
  5
2F4
330
1F
100
AcDbEntity
  8
0
  6
Continuous
 62
     7
370
    30
100
AcDbLine
 10
229.4479472079
 20
147.9749979104
 30
0.0
 11
229.4432331627
 21
147.97227655
 31
0.0
  0
LINE
  5
2F5
330
1F
100
AcDbEntity
  8
0
  6
Continuous
 62
     7
370
    30
100
AcDbLine
 10
229.5685338946
 20
147.5542820223
 30
0.0
 11
229.5638198494
 21
147.551560662
 31
0.0
  0
LINE
  5
2F6
330
1F
100
AcDbEntity
  8
0
  6
Continuous
 62
     7
370
    30
100
AcDbLine
 10
229.1058939216
 20
148.2456074602
 30
0.0
 11
229.1011798764
 21
148.2428860999
 31
0.0
  0
LINE
  5
2F7
330
1F
100
AcDbEntity
  8
0
  6
Continuous
 62
     7
370
    30
100
AcDbLine
 10
228.6437231574
 20
148.5124129633
 30
0.0
 11
228.6390091122
 21
148.5096916029
 31
0.0
  0
LINE
  5
2F8
330
1F
100
AcDbEntity
  8
0
  6
Continuous
 62
     7
370
    30
100
AcDbLine
 10
229.2832548849
 20
147.1262134116
 30
0.0
 11
229.2785408397
 21
147.1234920512
 31
0.0
  0
LINE
  5
2F9
330
1F
100
AcDbEntity
  8
0
  6
Continuous
 62
     7
370
    30
100
AcDbLine
 10
228.2416111322
 20
148.7299180162
 30
0.0
 11
228.236897087
 21
148.7271966558
 31
0.0
  0
LINE
  5
2FA
330
1F
100
AcDbEntity
  8
0
  6
Continuous
 62
     7
370
    30
100
AcDbLine
 10
228.3237226893
 20
148.3677156305
 30
0.0
 11
228.3190086441
 21
148.3649942701
 31
0.0
  0
LINE
  5
2FB
330
1F
100
AcDbEntity
  8
0
  6
Continuous
 62
     7
370
    30
100
AcDbLine
 10
228.0102911457
 20
148.929017041
 30
0.0
 11
228.0055771005
 21
148.9262956807
 31
0.0
  0
LINE
  5
2FC
330
1F
100
AcDbEntity
  8
0
  6
Continuous
 62
     7
370
    30
100
AcDbLine
 10
229.2738707069
 20
146.861260049
 30
0.0
 11
229.2691566617
 21
146.8585386886
 31
0.0
  0
LINE
  5
2FD
330
1F
100
AcDbEntity
  8
0
  6
Continuous
 62
     7
370
    30
100
AcDbLine
 10
229.3498825483
 20
146.4917424519
 30
0.0
 11
229.3451685031
 21
146.4890210915
 31
0.0
  0
LINE
  5
2FE
330
1F
100
AcDbEntity
  8
0
  6
Continuous
 62
     7
370
    30
100
AcDbLine
 10
229.0364510047
 20
147.0568366383
 30
0.0
 11
229.0317369595
 21
147.0541152779
 31
0.0
  0
LINE
  5
2FF
330
1F
100
AcDbEntity
  8
0
  6
Continuous
 62
     7
370
    30
100
AcDbLine
 10
227.9515249294
 20
148.4877614283
 30
0.0
 11
227.8868892056
 21
148.5250748374
 31
0.0
  0
SPLINE
  5
300
330
1F
100
AcDbEntity
  8
0
  6
Continuous
 62
     7
370
    30
100
AcDbSpline
210
0.0
220
0.0
230
1.0
 70
     8
 71
     3
 72
     9
 73
     5
 74
     0
 42
0.000000001
 43
0.00000001
 40
0.0
 40
0.0
 40
0.0
 40
0.0
 40
0.5626512567471397
 40
1.0
 40
1.0
 40
1.0
 40
1.0
 10
227.8868892055941
 20
148.5250748374065
 30
0.0
 10
227.877236219256
 20
148.6027827043713
 30
0.0
 10
227.8600799679862
 20
148.7408928854701
 30
0.0
 10
227.7948366166309
 20
148.8834455129687
 30
0.0
 10
227.7663025189101
 20
148.9457907254526
 30
0.0
  0
SPLINE
  5
301
330
1F
100
AcDbEntity
  8
0
  6
Continuous
 62
     7
370
    30
100
AcDbSpline
210
0.0
220
0.0
230
1.0
 70
     8
 71
     3
 72
     9
 73
     5
 74
     0
 42
0.000000001
 43
0.00000001
 40
0.0
 40
0.0
 40
0.0
 40
0.0
 40
0.5573026436976255
 40
0.9999999999999999
 40
0.9999999999999999
 40
0.9999999999999999
 40
0.9999999999999999
 10
227.7663025189101
 20
148.9457907254526
 30
0.0
 10
227.7047092692709
 20
149.0081390535526
 30
0.0
 10
227.5941889795582
 20
149.1200142237231
 30
0.0
 10
227.4763959121082
 20
149.1868238363869
 30
0.0
 10
227.4242492325574
 20
149.2164002752887
 30
0.0
  0
LINE
  5
302
330
1F
100
AcDbEntity
  8
0
  6
Continuous
 62
     7
370
    30
100
AcDbLine
 10
227.4242492326
 20
149.2164002753
 30
0.0
 11
226.9620784684
 21
149.4832057783
 31
0.0
  0
SPLINE
  5
303
330
1F
100
AcDbEntity
  8
0
  6
Continuous
 62
     7
370
    30
100
AcDbSpline
210
0.0
220
0.0
230
1.0
 70
     8
 71
     3
 72
     9
 73
     5
 74
     0
 42
0.000000001
 43
0.00000001
 40
0.0
 40
0.0
 40
0.0
 40
0.0
 40
0.562369358356406
 40
0.9999999999999999
 40
0.9999999999999999
 40
0.9999999999999999
 40
0.9999999999999999
 10
226.9620784684183
 20
149.4832057783114
 30
0.0
 10
226.9416270916803
 20
149.494810557592
 30
0.0
 10
226.905260642417
 20
149.5154460689478
 30
0.0
 10
226.8765698004142
 20
149.5067700744119
 30
0.0
 10
226.8640138088192
 20
149.5029731933564
 30
0.0
  0
SPLINE
  5
304
330
1F
100
AcDbEntity
  8
0
  6
Continuous
 62
     7
370
    30
100
AcDbSpline
210
0.0
220
0.0
230
1.0
 70
     8
 71
     3
 72
     9
 73
     5
 74
     0
 42
0.000000001
 43
0.00000001
 40
0.0
 40
0.0
 40
0.0
 40
0.0
 40
0.5581781111261211
 40
1.0
 40
1.0
 40
1.0
 40
1.0
 10
227.6016101958514
 20
148.0970062266434
 30
0.0
 10
227.62095828286
 20
148.1425400685877
 30
0.0
 10
227.6556212096623
 20
148.2241158972286
 30
0.0
 10
227.6643717007917
 20
148.3276150824841
 30
0.0
 10
227.668237859311
 20
148.3733432880106
 30
0.0
  0
LINE
  5
305
330
1F
100
AcDbEntity
  8
0
  6
Continuous
 62
     7
370
    30
100
AcDbLine
 10
227.7428201178
 20
147.4194798456
 30
0.0
 11
227.6682378593
 21
147.4625352669
 31
0.0
  0
SPLINE
  5
306
330
1F
100
AcDbEntity
  8
0
  6
Continuous
 62
     7
370
    30
100
AcDbSpline
210
0.0
220
0.0
230
1.0
 70
     8
 71
     3
 72
     9
 73
     5
 74
     0
 42
0.000000001
 43
0.00000001
 40
0.0
 40
0.0
 40
0.0
 40
0.0
 40
0.5618661542988053
 40
1.0
 40
1.0
 40
1.0
 40
1.0
 10
227.668237859311
 20
147.4625352669398
 30
0.0
 10
227.6629032930485
 20
147.5295349245467
 30
0.0
 10
227.653408921085
 20
147.6487797964691
 30
0.0
 10
227.6108656603388
 20
147.7762179122876
 30
0.0
 10
227.5922260178993
 20
147.8320528640601
 30
0.0
  0
SPLINE
  5
307
330
1F
100
AcDbEntity
  8
0
  6
Continuous
 62
     7
370
    30
100
AcDbSpline
210
0.0
220
0.0
230
1.0
 70
     8
 71
     3
 72
    10
 73
     6
 74
     0
 42
0.000000001
 43
0.00000001
 40
0.0
 40
0.0
 40
0.0
 40
0.0
 40
0.2786905031362981
 40
0.5591146962643126
 40
1.0
 40
1.0
 40
1.0
 40
1.0
 10
227.5922260178993
 20
147.8320528640601
 30
0.0
 10
227.5724418071438
 20
147.8573451802664
 30
0.0
 10
227.5327503111549
 20
147.9080871522189
 30
0.0
 10
227.4500168028627
 20
147.9694765537931
 30
0.0
 10
227.3909249633988
 20
148.0055688153394
 30
0.0
 10
227.3548063157122
 20
148.0276294533368
 30
0.0
  0
LINE
  5
308
330
1F
100
AcDbEntity
  8
0
  6
Continuous
 62
     7
370
    30
100
AcDbLine
 10
227.3548063157
 20
148.0276294533
 30
0.0
 11
226.8414917817
 21
148.3277524021
 31
0.0
  0
LINE
  5
309
330
1F
100
AcDbEntity
  8
0
  6
Continuous
 62
     7
370
    30
100
AcDbLine
 10
227.1567782047
 20
146.8030987853
 30
0.0
 11
226.7481523962
 21
147.0389934433
 31
0.0
  0
SPLINE
  5
30A
330
1F
100
AcDbEntity
  8
0
  6
Continuous
 62
     7
370
    30
100
AcDbSpline
210
0.0
220
0.0
230
1.0
 70
     8
 71
     3
 72
    10
 73
     6
 74
     0
 42
0.000000001
 43
0.00000001
 40
0.0
 40
0.0
 40
0.0
 40
0.0
 40
0.2785120652043363
 40
0.5590464629733434
 40
1.0
 40
1.0
 40
1.0
 40
1.0
 10
226.5787347990765
 20
147.3090965274656
 30
0.0
 10
226.5934888116516
 20
147.3278092188484
 30
0.0
 10
226.6231039686779
 20
147.3653704782596
 30
0.0
 10
226.6388259466942
 20
147.4709807467588
 30
0.0
 10
226.6408443858697
 20
147.5519381738421
 30
0.0
 10
226.642078000253
 20
147.6014171215823
 30
0.0
  0
LINE
  5
30B
330
1F
100
AcDbEntity
  8
0
  6
Continuous
 62
     7
370
    30
100
AcDbLine
 10
226.6420780003
 20
147.6014171216
 30
0.0
 11
226.6420780003
 21
149.3385084455
 31
0.0
  0
SPLINE
  5
30C
330
1F
100
AcDbEntity
  8
0
  6
Continuous
 62
     7
370
    30
100
AcDbSpline
210
0.0
220
0.0
230
1.0
 70
     8
 71
     3
 72
    10
 73
     6
 74
     0
 42
0.000000001
 43
0.00000001
 40
0.0
 40
0.0
 40
0.0
 40
0.0
 40
0.56001136997776
 40
0.7802776236410273
 40
1.0
 40
1.0
 40
1.0
 40
1.0
 10
226.642078000253
 20
149.3385084455282
 30
0.0
 10
226.6395549847978
 20
149.4030773905926
 30
0.0
 10
226.6360396052728
 20
149.4930428907893
 30
0.0
 10
226.6038773082061
 20
149.6201742523778
 30
0.0
 10
226.5745913312217
 20
149.6738874368602
 30
0.0
 10
226.5599664431724
 20
149.7007108312185
 30
0.0
  0
SPLINE
  5
30D
330
1F
100
AcDbEntity
  8
0
  6
Continuous
 62
     7
370
    30
100
AcDbSpline
210
0.0
220
0.0
230
1.0
 70
     8
 71
     3
 72
     9
 73
     5
 74
     0
 42
0.000000001
 43
0.00000001
 40
0.0
 40
0.0
 40
0.0
 40
0.0
 40
0.5578880974118708
 40
1.0
 40
1.0
 40
1.0
 40
1.0
 10
226.5599664431724
 20
149.7007108312185
 30
0.0
 10
226.5184964807695
 20
149.7445312676024
 30
0.0
 10
226.4441626446556
 20
149.823078267596
 30
0.0
 10
226.364060547312
 20
149.8762860584581
 30
0.0
 10
226.328646456654
 20
149.8998098561087
 30
0.0
  0
LINE
  5
30E
330
1F
100
AcDbEntity
  8
0
  6
Continuous
 62
     7
370
    30
100
AcDbLine
 10
226.3286464567
 20
149.8998098561
 30
0.0
 11
226.3286464567
 21
149.9675135261
 31
0.0
  0
LINE
  5
30F
330
1F
100
AcDbEntity
  8
0
  6
Continuous
 62
     7
370
    30
100
AcDbLine
 10
228.3237226893
 20
146.6306243065
 30
0.0
 11
228.3190086441
 21
146.6279029462
 31
0.0
  0
ARC
  5
310
330
1F
100
AcDbEntity
  8
0
  6
Continuous
 62
     7
370
    30
100
AcDbCircle
 10
220.0511377732
 20
140.6654905092
 30
0.0
 40
0.6149158551505937
100
AcDbArc
 50
204.8162991805
 51
293.6430708155
  0
ARC
  5
311
330
1F
100
AcDbEntity
  8
0
  6
Continuous
 62
     7
370
    30
100
AcDbCircle
 10
220.1666872728
 20
140.319467988
 30
0.0
 40
0.25374246527924
100
AcDbArc
 50
301.0969795905
 51
337.8270928618
  0
ARC
  5
312
330
1F
100
AcDbEntity
  8
0
  6
Continuous
 62
     7
370
    30
100
AcDbCircle
 10
217.3288505919
 20
145.3804940894
 30
0.0
 40
0.6148488655022473
100
AcDbArc
 50
126.3512434488
 51
215.1850856436
  0
ARC
  5
313
330
1F
100
AcDbEntity
  8
0
  6
Continuous
 62
     7
370
    30
100
AcDbCircle
 10
217.0870743642
 20
145.6536187274
 30
0.0
 40
0.2536997051887282
100
AcDbArc
 50
82.1803811972
 51
118.9146639065
  0
LINE
  5
314
330
1F
100
AcDbEntity
  8
0
  6
Continuous
 62
     7
370
    30
100
AcDbLine
 10
228.5231364707
 20
147.356959587
 30
0.0
 11
228.5184224255
 21
147.3542382266
 31
0.0
  0
LINE
  5
315
330
1F
100
AcDbEntity
  8
0
  6
Continuous
 62
     7
370
    30
100
AcDbLine
 10
220.2977422592
 20
140.102189758
 30
0.0
 11
212.3663708755
 21
135.5220180676
 31
0.0
  0
ARC
  5
316
330
1F
100
AcDbEntity
  8
0
  6
Continuous
 62
     7
370
    30
100
AcDbCircle
 10
212.1197663895
 20
136.0853188189
 30
0.0
 40
0.6149158551506292
100
AcDbArc
 50
204.8162991805
 51
293.6430708155
  0
ARC
  5
317
330
1F
100
AcDbEntity
  8
0
  6
Continuous
 62
     7
370
    30
100
AcDbCircle
 10
209.3974792082
 20
140.800322399
 30
0.0
 40
0.6148488655022705
100
AcDbArc
 50
126.3512434488
 51
215.1850856436
  0
LINE
  5
318
330
1F
100
AcDbEntity
  8
0
  6
Continuous
 62
     7
370
    30
100
AcDbLine
 10
209.0330375422
 20
141.2955207425
 30
0.0
 11
216.9644089259
 21
145.8756924329
 31
0.0
  0
LINE
  5
319
330
1F
100
AcDbEntity
  8
0
  6
Continuous
 62
     7
370
    30
100
AcDbLine
 10
227.7663025189
 20
148.9457907255
 30
0.0
 11
227.7615884737
 21
148.9430693651
 31
0.0
  0
LINE
  5
31A
330
1F
100
AcDbEntity
  8
0
  6
Continuous
 62
     7
370
    30
100
AcDbLine
 10
227.8868892056
 20
148.5250748374
 30
0.0
 11
227.8821751604
 21
148.522353477
 31
0.0
  0
LINE
  5
31B
330
1F
100
AcDbEntity
  8
0
  6
Continuous
 62
     7
370
    30
100
AcDbLine
 10
227.4242492326
 20
149.2164002753
 30
0.0
 11
227.4195351873
 21
149.2136789149
 31
0.0
  0
LINE
  5
31C
330
1F
100
AcDbEntity
  8
0
  6
Continuous
 62
     7
370
    30
100
AcDbLine
 10
226.9620784684
 20
149.4832057783
 30
0.0
 11
226.9573644232
 21
149.4804844179
 31
0.0
  0
ARC
  5
31D
330
1F
100
AcDbEntity
  8
0
  6
Continuous
 62
     7
370
    30
100
AcDbCircle
 10
224.3621875079
 20
142.7414787197
 30
0.0
 40
0.2537424652798591
100
AcDbArc
 50
301.0969795906
 51
337.8270928617
  0
LINE
  5
31E
330
1F
100
AcDbEntity
  8
0
  6
Continuous
 62
     7
370
    30
100
AcDbLine
 10
224.4932424943
 20
142.5242004897
 30
0.0
 11
220.2977422592
 21
140.102189758
 31
0.0
  0
LINE
  5
31F
330
1F
100
AcDbEntity
  8
0
  6
Continuous
 62
     7
370
    30
100
AcDbLine
 10
216.9644089259
 20
145.8756924329
 30
0.0
 11
221.1599091609
 21
148.2977031647
 31
0.0
  0
ARC
  5
320
330
1F
100
AcDbEntity
  8
0
  6
Continuous
 62
     7
370
    30
100
AcDbCircle
 10
221.2825745992
 20
148.0756294592
 30
0.0
 40
0.2536997051887282
100
AcDbArc
 50
82.1803811972
 51
118.9146639065
  0
LINE
  5
321
330
1F
100
AcDbEntity
  8
0
  6
Continuous
 62
     7
370
    30
100
AcDbLine
 10
212.3663708755
 20
135.5220180676
 30
0.0
 11
218.4474891937
 21
139.0325729484
 31
0.0
  0
LINE
  5
322
330
1F
100
AcDbEntity
  8
0
  6
Continuous
 62
     7
370
    30
100
AcDbLine
 10
224.3952044439
 20
142.4675859295
 30
0.0
 11
224.4932424943
 21
142.5242004897
 31
0.0
  0
LWPOLYLINE
  5
323
330
1F
100
AcDbEntity
  8
0
  6
Continuous
 62
     7
370
    30
100
AcDbPolyline
 90
        6
 70
   128
 43
0.0
 10
224.7403824125
 20
142.6666965407
 10
224.5264785295
 20
142.5432154624
 10
224.3528193853
 20
142.4429730718
 10
224.2260786036
 20
142.3698216278
 10
224.1511267615
 20
142.3265722993
 10
224.1462044903
 20
142.3237331375
  0
LWPOLYLINE
  5
324
330
1F
100
AcDbEntity
  8
0
  6
Continuous
 62
     7
370
    30
100
AcDbPolyline
 90
        3
 70
   128
 43
0.0
 10
224.1680756733
 20
142.3364083578
 10
224.2552739397
 20
142.386775259
 10
224.3952044439
 20
142.4675859295
  0
LINE
  5
325
330
1F
100
AcDbEntity
  8
0
  6
Continuous
 62
     7
370
    30
100
AcDbLine
 10
225.4474891937
 20
143.0749005966
 30
0.0
 11
224.7403824125
 21
142.6666965407
 31
0.0
  0
LINE
  5
326
330
1F
100
AcDbEntity
  8
0
  6
Continuous
 62
     7
370
    30
100
AcDbLine
 10
218.4474891937
 20
139.0325729484
 30
0.0
 11
225.4474891937
 21
143.0749005966
 31
0.0
  0
LINE
  5
327
330
1F
100
AcDbEntity
  8
0
  6
Continuous
 62
     7
370
    30
100
AcDbLine
 10
227.6016101959
 20
148.0970062266
 30
0.0
 11
227.5968961506
 21
148.0942848663
 31
0.0
  0
LINE
  5
328
330
1F
100
AcDbEntity
  8
0
  6
Continuous
 62
     7
370
    30
100
AcDbLine
 10
226.5599664432
 20
149.7007108312
 30
0.0
 11
226.555252398
 21
149.6979894708
 31
0.0
  0
LINE
  5
329
330
1F
100
AcDbEntity
  8
0
  6
Continuous
 62
     7
370
    30
100
AcDbLine
 10
226.6420780003
 20
149.3385084455
 30
0.0
 11
226.637363955
 21
149.3357870852
 31
0.0
  0
LINE
  5
32A
330
1F
100
AcDbEntity
  8
0
  6
Continuous
 62
     7
370
    30
100
AcDbLine
 10
228.0102911457
 20
146.3103762523
 30
0.0
 11
228.0055771005
 21
146.307654892
 31
0.0
  0
LINE
  5
32B
330
1F
100
AcDbEntity
  8
0
  6
Continuous
 62
     7
370
    30
100
AcDbLine
 10
226.3286464567
 20
149.8998098561
 30
0.0
 11
226.3239324114
 21
149.8970884957
 31
0.0
  0
LINE
  5
32C
330
1F
100
AcDbEntity
  8
0
  6
Continuous
 62
     7
370
    30
100
AcDbLine
 10
227.5922260179
 20
147.8320528641
 30
0.0
 11
227.5875119727
 21
147.8293315037
 31
0.0
  0
LINE
  5
32D
330
1F
100
AcDbEntity
  8
0
  6
Continuous
 62
     7
370
    30
100
AcDbLine
 10
227.6682378593
 20
147.4625352669
 30
0.0
 11
227.6635238141
 21
147.4598139066
 31
0.0
  0
LINE
  5
32E
330
1F
100
AcDbEntity
  8
0
  6
Continuous
 62
     7
370
    30
100
AcDbLine
 10
228.2603794881
 20
146.3383037124
 30
0.0
 11
228.2556654429
 21
146.335582352
 31
0.0
  0
LINE
  5
32F
330
1F
100
AcDbEntity
  8
0
  6
Continuous
 62
     7
370
    30
100
AcDbLine
 10
227.3548063157
 20
148.0276294533
 30
0.0
 11
227.3500922705
 21
148.024908093
 31
0.0
  0
SPLINE
  5
330
330
1F
100
AcDbEntity
  8
0
  6
Continuous
 62
     7
370
    30
100
AcDbSpline
210
0.0
220
0.0
230
1.0
 70
     8
 71
     3
 72
    10
 73
     6
 74
     0
 42
0.000000001
 43
0.00000001
 40
0.0
 40
0.0
 40
0.0
 40
0.0
 40
0.2799874205327905
 40
0.5601294246845019
 40
1.0
 40
1.0
 40
1.0
 40
1.0
 10
224.502016218285
 20
148.6753846066578
 30
0.0
 10
224.4489180340657
 20
148.7887642380756
 30
0.0
 10
224.3426923496335
 20
149.015586098844
 30
0.0
 10
224.2322233999317
 20
149.4289596873223
 30
0.0
 10
224.2188236669008
 20
149.701278338839
 30
0.0
 10
224.2106374928734
 20
149.8676434348495
 30
0.0
  0
SPLINE
  5
331
330
1F
100
AcDbEntity
  8
0
  6
Continuous
 62
     7
370
    30
100
AcDbSpline
210
0.0
220
0.0
230
1.0
 70
     8
 71
     3
 72
     9
 73
     5
 74
     0
 42
0.000000001
 43
0.00000001
 40
0.0
 40
0.0
 40
0.0
 40
0.0
 40
0.5602696297460021
 40
1.0
 40
1.0
 40
1.0
 40
1.0
 10
224.2106374928734
 20
149.8676434348495
 30
0.0
 10
224.2216036014436
 20
150.0779492557047
 30
0.0
 10
224.2411765141769
 20
150.4533146328189
 30
0.0
 10
224.4357110427917
 20
150.6535756450339
 30
0.0
 10
224.5212537830867
 20
150.7416364940827
 30
0.0
  0
LINE
  5
332
330
1F
100
AcDbEntity
  8
0
  6
Continuous
 62
     7
370
    30
100
AcDbLine
 10
225.9407122141
 20
148.4375208587
 30
0.0
 11
225.9781474101
 21
148.8510744544
 31
0.0
  0
SPLINE
  5
333
330
1F
100
AcDbEntity
  8
0
  6
Continuous
 62
     7
370
    30
100
AcDbSpline
210
0.0
220
0.0
230
1.0
 70
     8
 71
     3
 72
     9
 73
     5
 74
     0
 42
0.000000001
 43
0.00000001
 40
0.0
 40
0.0
 40
0.0
 40
0.0
 40
0.5605964892223089
 40
1.0
 40
1.0
 40
1.0
 40
1.0
 10
225.9781474101445
 20
148.851074454436
 30
0.0
 10
225.9709866898437
 20
149.0601979693503
 30
0.0
 10
225.9582132950071
 20
149.4332354730357
 30
0.0
 10
225.7895164246006
 20
149.83808256595
 30
0.0
 10
225.7153904274867
 20
150.0159737999046
 30
0.0
  0
SPLINE
  5
334
330
1F
100
AcDbEntity
  8
0
  6
Continuous
 62
     7
370
    30
100
AcDbSpline
210
0.0
220
0.0
230
1.0
 70
     8
 71
     3
 72
     9
 73
     5
 74
     0
 42
0.000000001
 43
0.00000001
 40
0.0
 40
0.0
 40
0.0
 40
0.0
 40
0.5598873498408067
 40
1.0
 40
1.0
 40
1.0
 40
1.0
 10
225.7153904274867
 20
150.0159737999046
 30
0.0
 10
225.6349447244604
 20
150.1537840017226
 30
0.0
 10
225.4912627801385
 20
150.3999231614252
 30
0.0
 10
225.2927349605858
 20
150.5409331682644
 30
0.0
 10
225.2053603557921
 20
150.6029934560733
 30
0.0
  0
SPLINE
  5
335
330
1F
100
AcDbEntity
  8
0
  6
Continuous
 62
     7
370
    30
100
AcDbSpline
210
0.0
220
0.0
230
1.0
 70
     8
 71
     3
 72
     9
 73
     5
 74
     0
 42
0.000000001
 43
0.00000001
 40
0.0
 40
0.0
 40
0.0
 40
0.0
 40
0.6931897733691953
 40
1.0
 40
1.0
 40
1.0
 40
1.0
 10
225.2053603557921
 20
150.6029934560733
 30
0.0
 10
225.0939863474346
 20
150.6509896430656
 30
0.0
 10
224.933317490743
 20
150.7202292493556
 30
0.0
 10
224.821277584427
 20
150.6567652232077
 30
0.0
 10
224.7869025953785
 20
150.6372938109624
 30
0.0
  0
LINE
  5
336
330
1F
100
AcDbEntity
  8
0
  6
Continuous
 62
     7
370
    30
100
AcDbLine
 10
226.6420780003
 20
147.6014171216
 30
0.0
 11
226.637363955
 21
147.5986957612
 31
0.0
  0
LINE
  5
337
330
1F
100
AcDbEntity
  8
0
  6
Continuous
 62
     7
370
    30
100
AcDbLine
 10
226.8414917817
 20
148.3277524021
 30
0.0
 11
226.8367777365
 21
148.3250310417
 31
0.0
  0
SPLINE
  5
338
330
1F
100
AcDbEntity
  8
0
  6
Continuous
 62
     7
370
    30
100
AcDbSpline
210
0.0
220
0.0
230
1.0
 70
     8
 71
     3
 72
     9
 73
     5
 74
     0
 42
0.000000001
 43
0.00000001
 40
0.0
 40
0.0
 40
0.0
 40
0.0
 40
0.6089168648842471
 40
1.0
 40
1.0
 40
1.0
 40
1.0
 10
224.4339589719007
 20
149.7370727442332
 30
0.0
 10
224.4393290077038
 20
149.5326688971286
 30
0.0
 10
224.4481480043727
 20
149.1969845715786
 30
0.0
 10
224.5960038048084
 20
148.8320160841504
 30
0.0
 10
224.6538277147879
 20
148.6892830638686
 30
0.0
  0
SPLINE
  5
339
330
1F
100
AcDbEntity
  8
0
  6
Continuous
 62
     7
370
    30
100
AcDbSpline
210
0.0
220
0.0
230
1.0
 70
     8
 71
     3
 72
    10
 73
     6
 74
     0
 42
0.000000001
 43
0.00000001
 40
0.0
 40
0.0
 40
0.0
 40
0.0
 40
0.2798811345009839
 40
0.5599585147220818
 40
1.0
 40
1.0
 40
1.0
 40
1.0
 10
224.697185163456
 20
150.5983284664649
 30
0.0
 10
224.6469288482403
 20
150.5446718306561
 30
0.0
 10
224.5463809793253
 20
150.4373209363343
 30
0.0
 10
224.4517814235975
 20
150.144078412961
 30
0.0
 10
224.4407189151367
 20
149.8914474208575
 30
0.0
 10
224.4339589719007
 20
149.7370727442332
 30
0.0
  0
SPLINE
  5
33A
330
1F
100
AcDbEntity
  8
0
  6
Continuous
 62
     7
370
    30
100
AcDbSpline
210
0.0
220
0.0
230
1.0
 70
     8
 71
     3
 72
     9
 73
     5
 74
     0
 42
0.000000001
 43
0.00000001
 40
0.0
 40
0.0
 40
0.0
 40
0.0
 40
0.6931897733691953
 40
1.0
 40
1.0
 40
1.0
 40
1.0
 10
225.2006463105842
 20
150.6002720957006
 30
0.0
 10
225.0892723022267
 20
150.6482682826929
 30
0.0
 10
224.9286034455351
 20
150.7175078889829
 30
0.0
 10
224.8165635392191
 20
150.654043862835
 30
0.0
 10
224.7821885501706
 20
150.6345724505897
 30
0.0
  0
LINE
  5
33B
330
1F
100
AcDbEntity
  8
0
  6
Continuous
 62
     7
370
    30
100
AcDbLine
 10
224.7324196175
 20
150.6133518325
 30
0.0
 11
224.6971851635
 21
150.5983284665
 31
0.0
  0
SPLINE
  5
33C
330
1F
100
AcDbEntity
  8
0
  6
Continuous
 62
     7
370
    30
100
AcDbSpline
210
0.0
220
0.0
230
1.0
 70
     8
 71
     3
 72
     9
 73
     5
 74
     0
 42
0.000000001
 43
0.00000001
 40
0.0
 40
0.0
 40
0.0
 40
0.0
 40
0.5598873498408067
 40
1.0
 40
1.0
 40
1.0
 40
1.0
 10
225.7106763822788
 20
150.0132524395319
 30
0.0
 10
225.6302306792525
 20
150.1510626413499
 30
0.0
 10
225.4865487349306
 20
150.3972018010525
 30
0.0
 10
225.2880209153779
 20
150.5382118078917
 30
0.0
 10
225.2006463105842
 20
150.6002720957006
 30
0.0
  0
SPLINE
  5
33D
330
1F
100
AcDbEntity
  8
0
  6
Continuous
 62
     7
370
    30
100
AcDbSpline
210
0.0
220
0.0
230
1.0
 70
     8
 71
     3
 72
     9
 73
     5
 74
     0
 42
0.000000001
 43
0.00000001
 40
0.0
 40
0.0
 40
0.0
 40
0.0
 40
0.5605964892223089
 40
1.0
 40
1.0
 40
1.0
 40
1.0
 10
225.9734333649366
 20
148.8483530940633
 30
0.0
 10
225.9662726446358
 20
149.0574766089776
 30
0.0
 10
225.9534992497992
 20
149.4305141126629
 30
0.0
 10
225.7848023793927
 20
149.8353612055772
 30
0.0
 10
225.7106763822788
 20
150.0132524395319
 30
0.0
  0
LINE
  5
33E
330
1F
100
AcDbEntity
  8
0
  6
Continuous
 62
     7
370
    30
100
AcDbLine
 10
225.936850045
 20
148.4442103319
 30
0.0
 11
225.9734333649
 21
148.8483530941
 31
0.0
  0
LINE
  5
33F
330
1F
100
AcDbEntity
  8
0
  6
Continuous
 62
     7
370
    30
100
AcDbLine
 10
225.7153904275
 20
150.0159737999
 30
0.0
 11
225.7106763823
 21
150.0132524395
 31
0.0
  0
LINE
  5
340
330
1F
100
AcDbEntity
  8
0
  6
Continuous
 62
     7
370
    30
100
AcDbLine
 10
225.9781474101
 20
148.8510744544
 30
0.0
 11
225.9734333649
 21
148.8483530941
 31
0.0
  0
LINE
  5
341
330
1F
100
AcDbEntity
  8
0
  6
Continuous
 62
     7
370
    30
100
AcDbLine
 10
225.2053603558
 20
150.6029934561
 30
0.0
 11
225.2006463106
 21
150.6002720957
 31
0.0
  0
LINE
  5
342
330
1F
100
AcDbEntity
  8
0
  6
Continuous
 62
     7
370
    30
100
AcDbLine
 10
224.5212537831
 20
150.7416364941
 30
0.0
 11
224.5165397379
 21
150.7389151337
 31
0.0
  0
LWPOLYLINE
  5
343
330
1F
100
AcDbEntity
  8
0
  6
Continuous
 62
     7
370
    30
100
AcDbPolyline
 90
       15
 70
   128
 43
0.0
 10
214.9906932951
 20
152.5362678449
 10
214.8160207546
 20
152.4277273469
 10
214.3855581622
 20
152.0838284791
 10
214.0083134722
 20
151.6626579215
 10
213.6880359119
 20
151.1684014563
 10
213.4279085434
 20
150.6059712263
 10
213.2305166296
 20
149.9809569158
 10
213.0978219398
 20
149.2995701979
 10
213.0311432535
 20
148.5685829999
 10
213.0311432535
 20
147.7952602009
 10
213.0978219398
 20
146.9872874304
 10
213.2305166296
 20
146.1526946847
 10
213.4279085434
 20
145.2997765215
 10
213.6880359119
 20
144.4370096248
 10
213.82039531
 20
144.0601019806
  0
LWPOLYLINE
  5
344
330
1F
100
AcDbEntity
  8
0
  6
Continuous
 62
     7
370
    30
100
AcDbPolyline
 90
       14
 70
   128
 43
0.0
 10
217.3752956853
 20
138.4136088111
 10
217.6008686091
 20
138.1906723389
 10
218.2455196922
 20
137.6090760811
 10
218.905026646
 20
137.0940647259
 10
219.5728349938
 20
136.6507566875
 10
220.2423077565
 20
136.2835577604
 10
220.9067914128
 20
135.9961173324
 10
221.5596820257
 20
135.7912921157
 10
222.194490875
 20
135.6711177554
 10
222.804908945
 20
135.6367885981
 10
223.3848696268
 20
135.6886458224
 10
223.9286090106
 20
135.8261740481
 10
224.4307231701
 20
136.0480064578
 10
224.4899212551
 20
136.0813394597
  0
ARC
  5
345
330
1F
100
AcDbEntity
  8
0
  6
Continuous
 62
     7
370
    30
100
AcDbCircle
 10
214.5263016269
 20
140.3587791125
 30
0.0
 40
11.69766995267882
100
AcDbArc
 50
1.0196027751
 51
19.2233605448
  0
LWPOLYLINE
  5
346
330
1F
100
AcDbEntity
  8
0
  6
Continuous
 62
     7
370
    30
100
AcDbPolyline
 90
       16
 70
   128
 43
0.0
 10
223.3813547829
 20
148.3993162688
 10
223.1689526299
 20
148.6815549709
 10
222.5948594423
 20
149.3809345329
 10
221.9914746865
 20
150.0282671684
 10
221.3649899069
 20
150.6169103685
 10
220.7218336848
 20
151.1408238575
 10
220.0686056736
 20
151.594631574
 10
219.4120088766
 20
151.9736768368
 10
218.7587808654
 20
152.2740701284
 10
218.1156246434
 20
152.4927290072
 10
217.4891398637
 20
152.6274097373
 10
216.885755108
 20
152.6767303121
 10
216.3116619203
 20
152.6401846357
 10
215.7727512737
 20
152.5181477163
 10
215.2745531206
 20
152.3118718178
 10
215.1573464172
 20
152.2475848908
  0
ARC
  5
347
330
1F
100
AcDbEntity
  8
0
  6
Continuous
 62
     7
370
    30
100
AcDbCircle
 10
221.6588308841
 20
140.1035347807
 30
0.0
 40
4.586757073032926
100
AcDbArc
 50
305.5137163071
 51
5.7984640863
  0
ARC
  5
348
330
1F
100
AcDbEntity
  8
0
  6
Continuous
 62
     7
370
    30
100
AcDbCircle
 10
214.5227856852
 20
140.35618742
 30
0.0
 40
11.6964697320798
100
AcDbArc
 50
1.0190721257
 51
19.2110107902
  0
LWPOLYLINE
  5
349
330
1F
100
AcDbEntity
  8
0
  6
Continuous
 62
     7
370
    30
100
AcDbPolyline
 90
       28
 70
   128
 43
0.0
 10
223.3754389105
 20
148.3982307876
 10
223.1642385847
 20
148.6788336105
 10
222.5901453971
 20
149.3782131725
 10
221.9867606413
 20
150.025545808
 10
221.3602758617
 20
150.6141890082
 10
220.7171196396
 20
151.1381024972
 10
220.0638916284
 20
151.5919102137
 10
219.4072948314
 20
151.9709554764
 10
218.7540668202
 20
152.271348768
 10
218.1109105982
 20
152.4900076469
 10
217.4844258185
 20
152.624688377
 10
216.8810410628
 20
152.6740089517
 10
216.3069478751
 20
152.6374632754
 10
215.7680372285
 20
152.515426356
 10
215.2698390754
 20
152.3091504574
 10
214.8174656031
 20
152.0207522496
 10
214.4155587755
 20
151.6531910885
 10
214.0682427006
 20
151.2102386488
 10
213.7790813112
 20
150.6964402221
 10
213.5510417946
 20
150.1170680756
 10
213.3864641448
 20
149.4780673513
 10
213.2870371511
 20
148.7859950615
 10
213.253781069
 20
148.0479528045
 10
213.2870371511
 20
147.2715138924
 10
213.3864641448
 20
146.4646456392
 10
213.5510417946
 20
145.6356276051
 10
213.7790813112
 20
144.7929666369
 10
213.9900638347
 20
144.1580813761
  0
LWPOLYLINE
  5
34A
330
1F
100
AcDbEntity
  8
0
  6
Continuous
 62
     7
370
    30
100
AcDbPolyline
 90
       20
 70
   128
 43
0.0
 10
217.5542853535
 20
138.5169373471
 10
218.1109105982
 20
137.9979755757
 10
218.7540668202
 20
137.4740620867
 10
219.4072948314
 20
137.0202543702
 10
220.0638916284
 20
136.6412091075
 10
220.7171196396
 20
136.3408158159
 10
221.3602758617
 20
136.122156937
 10
221.9867606413
 20
135.987476207
 10
222.5901453971
 20
135.9381556322
 10
223.1642385847
 20
135.9747013085
 10
223.7031492313
 20
136.0967382279
 10
224.2013473844
 20
136.3030141265
 10
224.6537208568
 20
136.5914123343
 10
225.0556276843
 20
136.9589734954
 10
225.4029437593
 20
137.4019259351
 10
225.6921051486
 20
137.9157243618
 10
225.9201446652
 20
138.4950965083
 10
226.0847223151
 20
139.1340972326
 10
226.1841493088
 20
139.8261695224
 10
226.2174053908
 20
140.5642117794
  0
LWPOLYLINE
  5
34B
330
1F
100
AcDbEntity
  8
0
  6
Continuous
 62
     7
370
    30
100
AcDbPolyline
 90
        9
 70
   128
 43
0.0
 10
222.1141558604
 20
148.8484032716
 10
222.1855908743
 20
148.8748629339
 10
222.2670904937
 20
148.8781185193
 10
222.355522734
 20
148.8580449173
 10
222.4474891937
 20
148.8154135453
 10
222.5394556535
 20
148.751862703
 10
222.6278878938
 20
148.6698346137
 10
222.7093875132
 20
148.5724815706
 10
222.780822527
 20
148.4635447969
  0
LWPOLYLINE
  5
34C
330
1F
100
AcDbEntity
  8
0
  6
Continuous
 62
     7
370
    30
100
AcDbPolyline
 90
        9
 70
   128
 43
0.0
 10
225.4474891937
 20
143.8447426569
 10
225.5061143945
 20
143.7284085315
 10
225.5496768487
 20
143.6091477096
 10
225.5765024755
 20
143.4915433178
 10
225.5855603812
 20
143.3801148269
 10
225.5765024755
 20
143.2791443712
 10
225.5496768487
 20
143.1925121889
 10
225.5061143945
 20
143.123547506
 10
225.4474891937
 20
143.0749005966
  0
LINE
  5
34D
330
1F
100
AcDbEntity
  8
0
  6
Continuous
 62
     7
370
    30
100
AcDbLine
 10
225.4474891937
 20
143.8447426569
 30
0.0
 11
225.3792286899
 21
143.9629733174
 31
0.0
  0
LINE
  5
34E
330
1F
100
AcDbEntity
  8
0
  6
Continuous
 62
     7
370
    30
100
AcDbLine
 10
222.8469510608
 20
148.3490068169
 30
0.0
 11
222.780822527
 21
148.4635447969
 31
0.0
  0
LINE
  5
34F
330
1F
100
AcDbEntity
  8
0
  6
Continuous
 62
     7
370
    30
100
AcDbLine
 10
224.2106374929
 20
149.8676434348
 30
0.0
 11
224.2059234477
 21
149.8649220745
 31
0.0
  0
LINE
  5
350
330
1F
100
AcDbEntity
  8
0
  6
Continuous
 62
     7
370
    30
100
AcDbLine
 10
224.5020162183
 20
148.6753846067
 30
0.0
 11
224.4973021731
 21
148.6726632463
 31
0.0
  0
LWPOLYLINE
  5
351
330
1F
100
AcDbEntity
  8
0
  6
Continuous
 62
     7
370
    30
100
AcDbPolyline
 90
        3
 70
   128
 43
0.0
 10
221.1693371641
 20
148.302974839
 10
221.1931451961
 20
148.3167181374
 10
221.4070490792
 20
148.4401992157
  0
LINE
  5
352
330
1F
100
AcDbEntity
  8
0
  6
Continuous
 62
     7
370
    30
100
AcDbLine
 10
221.4070490792
 20
148.4401992157
 30
0.0
 11
222.1141558604
 21
148.8484032716
 31
0.0
  0
SPLINE
  5
353
330
1F
100
AcDbEntity
  8
0
  6
Continuous
 62
     7
370
    30
100
AcDbSpline
210
0.0
220
0.0
230
1.0
 70
     8
 71
     3
 72
     9
 73
     5
 74
     0
 42
0.000000001
 43
0.00000001
 40
0.0
 40
0.0
 40
0.0
 40
0.0
 40
0.5627763038302287
 40
1.0
 40
1.0
 40
1.0
 40
1.0
 10
213.9912677030769
 20
157.0073977317448
 30
0.0
 10
213.9490891834221
 20
157.0262077592545
 30
0.0
 10
213.8741419630653
 20
157.0596313902456
 30
0.0
 10
213.806113628053
 20
157.0617273331989
 30
0.0
 10
213.7763700279747
 20
157.0626437291238
 30
0.0
  0
LINE
  5
354
330
1F
100
AcDbEntity
  8
0
  6
Continuous
 62
     7
370
    30
100
AcDbLine
 10
213.7223890485
 20
154.5412681608
 30
0.0
 11
213.6454607455
 21
154.5856779248
 31
0.0
  0
LINE
  5
355
330
1F
100
AcDbEntity
  8
0
  6
Continuous
 62
     7
370
    30
100
AcDbLine
 10
213.6454607455
 20
154.5856779248
 30
0.0
 11
212.2739631378
 21
157.575365459
 31
0.0
  0
LINE
  5
356
330
1F
100
AcDbEntity
  8
0
  6
Continuous
 62
     7
370
    30
100
AcDbLine
 10
212.5770501295
 20
155.2382187026
 30
0.0
 11
211.8141384182
 21
155.6786382589
 31
0.0
  0
LINE
  5
357
330
1F
100
AcDbEntity
  8
0
  6
Continuous
 62
     7
370
    30
100
AcDbLine
 10
211.8141384182
 20
155.6786382589
 30
0.0
 11
211.8141384182
 21
155.8157200134
 31
0.0
  0
SPLINE
  5
358
330
1F
100
AcDbEntity
  8
0
  6
Continuous
 62
     7
370
    30
100
AcDbSpline
210
0.0
220
0.0
230
1.0
 70
     8
 71
     3
 72
     9
 73
     5
 74
     0
 42
0.000000001
 43
0.00000001
 40
0.0
 40
0.0
 40
0.0
 40
0.0
 40
0.3952848753839669
 40
1.0
 40
1.0
 40
1.0
 40
1.0
 10
211.9942992461608
 20
155.7810255609426
 30
0.0
 10
212.0064020489509
 20
155.7836106810556
 30
0.0
 10
212.0370199742593
 20
155.7901505723442
 30
0.0
 10
212.0519274950468
 20
155.8212930031396
 30
0.0
 10
212.0609422983376
 20
155.8401253020589
 30
0.0
  0
SPLINE
  5
359
330
1F
100
AcDbEntity
  8
0
  6
Continuous
 62
     7
370
    30
100
AcDbSpline
210
0.0
220
0.0
230
1.0
 70
     8
 71
     3
 72
     9
 73
     5
 74
     0
 42
0.000000001
 43
0.00000001
 40
0.0
 40
0.0
 40
0.0
 40
0.0
 40
0.55947273267067
 40
1.0
 40
1.0
 40
1.0
 40
1.0
 10
212.0609422983376
 20
155.840125302059
 30
0.0
 10
212.0675670472365
 20
155.90167574579
 30
0.0
 10
212.0794081049183
 20
156.0116908370302
 30
0.0
 10
212.0786409709706
 20
156.1297426323263
 30
0.0
 10
212.0783030275489
 20
156.1817476671114
 30
0.0
  0
LINE
  5
35A
330
1F
100
AcDbEntity
  8
0
  6
Continuous
 62
     7
370
    30
100
AcDbLine
 10
212.0783030275
 20
156.1817476671
 30
0.0
 11
212.0783030275
 21
157.9340100943
 31
0.0
  0
SPLINE
  5
35B
330
1F
100
AcDbEntity
  8
0
  6
Continuous
 62
     7
370
    30
100
AcDbSpline
210
0.0
220
0.0
230
1.0
 70
     8
 71
     3
 72
     9
 73
     5
 74
     0
 42
0.000000001
 43
0.00000001
 40
0.0
 40
0.0
 40
0.0
 40
0.0
 40
0.5608304348354268
 40
1.0
 40
1.0
 40
1.0
 40
1.0
 10
212.0783030275489
 20
157.9340100943231
 30
0.0
 10
212.0605975217355
 20
157.9763235023856
 30
0.0
 10
212.0290273630678
 20
158.0517712766759
 30
0.0
 10
211.9837156026523
 20
158.1209083326274
 30
0.0
 10
211.9638160565337
 20
158.1512712234264
 30
0.0
  0
SPLINE
  5
35C
330
1F
100
AcDbEntity
  8
0
  6
Continuous
 62
     7
370
    30
100
AcDbSpline
210
0.0
220
0.0
230
1.0
 70
     8
 71
     3
 72
     9
 73
     5
 74
     0
 42
0.000000001
 43
0.00000001
 40
0.0
 40
0.0
 40
0.0
 40
0.0
 40
0.5592636271648296
 40
1.0
 40
1.0
 40
1.0
 40
1.0
 10
211.9638160565337
 20
158.1512712234264
 30
0.0
 10
211.9361459799397
 20
158.1734119116021
 30
0.0
 10
211.8866700704581
 20
158.2130009123885
 30
0.0
 10
211.8363266116357
 20
158.2436679222975
 30
0.0
 10
211.8141384181983
 20
158.2571839890105
 30
0.0
  0
LINE
  5
35D
330
1F
100
AcDbEntity
  8
0
  6
Continuous
 62
     7
370
    30
100
AcDbLine
 10
211.8141384182
 20
158.257183989
 30
0.0
 11
211.8141384182
 21
158.3915321484
 31
0.0
  0
LINE
  5
35E
330
1F
100
AcDbEntity
  8
0
  6
Continuous
 62
     7
370
    30
100
AcDbLine
 10
213.5375426991
 20
155.298709652
 30
0.0
 11
213.5375426991
 21
156.7968560995
 31
0.0
  0
SPLINE
  5
35F
330
1F
100
AcDbEntity
  8
0
  6
Continuous
 62
     7
370
    30
100
AcDbSpline
210
0.0
220
0.0
230
1.0
 70
     8
 71
     3
 72
    10
 73
     6
 74
     0
 42
0.000000001
 43
0.00000001
 40
0.0
 40
0.0
 40
0.0
 40
0.0
 40
0.5606433719229641
 40
0.7808513891964887
 40
1.0
 40
1.0
 40
1.0
 40
1.0
 10
213.5375426990947
 20
156.7968560995001
 30
0.0
 10
213.5357908705034
 20
156.8743829209509
 30
0.0
 10
213.5333509633225
 20
156.9823605217958
 30
0.0
 10
213.509673077068
 20
157.1318270389586
 30
0.0
 10
213.4816221951949
 20
157.1991616974591
 30
0.0
 10
213.4676305733518
 20
157.232747845764
 30
0.0
  0
SPLINE
  5
360
330
1F
100
AcDbEntity
  8
0
  6
Continuous
 62
     7
370
    30
100
AcDbSpline
210
0.0
220
0.0
230
1.0
 70
     8
 71
     3
 72
    10
 73
     6
 74
     0
 42
0.000000001
 43
0.00000001
 40
0.0
 40
0.0
 40
0.0
 40
0.0
 40
0.278450147705671
 40
0.559009882997216
 40
1.0
 40
1.0
 40
1.0
 40
1.0
 10
213.4676305733518
 20
157.232747845764
 30
0.0
 10
213.4471436338458
 20
157.2586034366709
 30
0.0
 10
213.4060145421553
 20
157.3105105050161
 30
0.0
 10
213.3214231615377
 20
157.3765379884429
 30
0.0
 10
213.2607336170402
 20
157.4191048061601
 30
0.0
 10
213.2236419465981
 20
157.4451203972739
 30
0.0
  0
LINE
  5
361
330
1F
100
AcDbEntity
  8
0
  6
Continuous
 62
     7
370
    30
100
AcDbLine
 10
213.2236419466
 20
157.4451203973
 30
0.0
 11
213.2236419466
 21
157.5778430813
 31
0.0
  0
LINE
  5
362
330
1F
100
AcDbEntity
  8
0
  6
Continuous
 62
     7
370
    30
100
AcDbLine
 10
213.776370028
 20
157.0626437291
 30
0.0
 11
213.7716559828
 21
157.0599223688
 31
0.0
  0
LINE
  5
363
330
1F
100
AcDbEntity
  8
0
  6
Continuous
 62
     7
370
    30
100
AcDbLine
 10
213.4676305734
 20
157.2327478458
 30
0.0
 11
213.4629165281
 21
157.2300264854
 31
0.0
  0
LINE
  5
364
330
1F
100
AcDbEntity
  8
0
  6
Continuous
 62
     7
370
    30
100
AcDbLine
 10
213.5375426991
 20
156.7968560995
 30
0.0
 11
213.5328286539
 21
156.7941347391
 31
0.0
  0
LINE
  5
365
330
1F
100
AcDbEntity
  8
0
  6
Continuous
 62
     7
370
    30
100
AcDbLine
 10
213.2236419466
 20
157.4451203973
 30
0.0
 11
213.2189279014
 21
157.4423990369
 31
0.0
  0
LINE
  5
366
330
1F
100
AcDbEntity
  8
0
  6
Continuous
 62
     7
370
    30
100
AcDbLine
 10
212.2739631378
 20
157.575365459
 30
0.0
 11
212.2692490926
 21
157.5726440986
 31
0.0
  0
LINE
  5
367
330
1F
100
AcDbEntity
  8
0
  6
Continuous
 62
     7
370
    30
100
AcDbLine
 10
213.6454607455
 20
154.5856779248
 30
0.0
 11
213.6407467003
 21
154.5829565644
 31
0.0
  0
LINE
  5
368
330
1F
100
AcDbEntity
  8
0
  6
Continuous
 62
     7
370
    30
100
AcDbLine
 10
213.5375426991
 20
155.298709652
 30
0.0
 11
213.5328286539
 21
155.2959882916
 31
0.0
  0
LINE
  5
369
330
1F
100
AcDbEntity
  8
0
  6
Continuous
 62
     7
370
    30
100
AcDbLine
 10
211.9638160565
 20
158.1512712234
 30
0.0
 11
211.9591020113
 21
158.1485498631
 31
0.0
  0
LINE
  5
36A
330
1F
100
AcDbEntity
  8
0
  6
Continuous
 62
     7
370
    30
100
AcDbLine
 10
212.0783030275
 20
157.9340100943
 30
0.0
 11
212.0735889823
 21
157.931288734
 31
0.0
  0
LINE
  5
36B
330
1F
100
AcDbEntity
  8
0
  6
Continuous
 62
     7
370
    30
100
AcDbLine
 10
211.8141384182
 20
158.257183989
 30
0.0
 11
211.809424373
 21
158.2544626286
 31
0.0
  0
LINE
  5
36C
330
1F
100
AcDbEntity
  8
0
  6
Continuous
 62
     7
370
    30
100
AcDbLine
 10
212.0783030275
 20
156.1817476671
 30
0.0
 11
212.0735889823
 21
156.1790263067
 31
0.0
  0
SPLINE
  5
36D
330
1F
100
AcDbEntity
  8
0
  6
Continuous
 62
     7
370
    30
100
AcDbSpline
210
0.0
220
0.0
230
1.0
 70
     8
 71
     3
 72
     9
 73
     5
 74
     0
 42
0.000000001
 43
0.00000001
 40
0.0
 40
0.0
 40
0.0
 40
0.0
 40
0.3894641353591435
 40
1.0
 40
1.0
 40
1.0
 40
1.0
 10
211.2472228515867
 20
156.1555284295557
 30
0.0
 10
211.1801253790902
 20
156.1469806058849
 30
0.0
 10
211.0078438609612
 20
156.1250329529568
 30
0.0
 10
210.804902133521
 20
156.2250964484733
 30
0.0
 10
210.6809989304867
 20
156.2861888012275
 30
0.0
  0
SPLINE
  5
36E
330
1F
100
AcDbEntity
  8
0
  6
Continuous
 62
     7
370
    30
100
AcDbSpline
210
0.0
220
0.0
230
1.0
 70
     8
 71
     3
 72
     9
 73
     5
 74
     0
 42
0.000000001
 43
0.00000001
 40
0.0
 40
0.0
 40
0.0
 40
0.0
 40
0.5589671569312324
 40
1.0
 40
1.0
 40
1.0
 40
1.0
 10
210.6809989304867
 20
156.2861888012275
 30
0.0
 10
210.5268782335961
 20
156.3958063039661
 30
0.0
 10
210.2511541682739
 20
156.5919135374223
 30
0.0
 10
210.0545224513031
 20
156.9279151522706
 30
0.0
 10
209.9678014061299
 20
157.0761028997428
 30
0.0
  0
SPLINE
  5
36F
330
1F
100
AcDbEntity
  8
0
  6
Continuous
 62
     7
370
    30
100
AcDbSpline
210
0.0
220
0.0
230
1.0
 70
     8
 71
     3
 72
    10
 73
     6
 74
     0
 42
0.000000001
 43
0.00000001
 40
0.0
 40
0.0
 40
0.0
 40
0.0
 40
0.2800523578142783
 40
0.560148505982666
 40
1.0
 40
1.0
 40
1.0
 40
1.0
 10
209.9678014061299
 20
157.0761028997428
 30
0.0
 10
209.9144634035119
 20
157.1899459258133
 30
0.0
 10
209.8077790580853
 20
157.4176497790058
 30
0.0
 10
209.6964608637271
 20
157.8327067427303
 30
0.0
 10
209.6828570719356
 20
158.1061673913472
 30
0.0
 10
209.674545845128
 20
158.2732379778749
 30
0.0
  0
SPLINE
  5
370
330
1F
100
AcDbEntity
  8
0
  6
Continuous
 62
     7
370
    30
100
AcDbSpline
210
0.0
220
0.0
230
1.0
 70
     8
 71
     3
 72
     9
 73
     5
 74
     0
 42
0.000000001
 43
0.00000001
 40
0.0
 40
0.0
 40
0.0
 40
0.0
 40
0.560274433107747
 40
1.0
 40
1.0
 40
1.0
 40
1.0
 10
209.674545845128
 20
158.2732379778749
 30
0.0
 10
209.6856355727113
 20
158.4843266615041
 30
0.0
 10
209.7054289577526
 20
158.8610861050117
 30
0.0
 10
209.9010287440278
 20
159.0617175589717
 30
0.0
 10
209.9870389709316
 20
159.1499403388006
 30
0.0
  0
SPLINE
  5
371
330
1F
100
AcDbEntity
  8
0
  6
Continuous
 62
     7
370
    30
100
AcDbSpline
210
0.0
220
0.0
230
1.0
 70
     8
 71
     3
 72
    10
 73
     6
 74
     0
 42
0.000000001
 43
0.00000001
 40
0.0
 40
0.0
 40
0.0
 40
0.0
 40
0.2798061903266479
 40
0.5599254203469181
 40
1.0
 40
1.0
 40
1.0
 40
1.0
 10
211.1670993484036
 20
156.4601602759849
 30
0.0
 10
211.2137005376251
 20
156.5114521703979
 30
0.0
 10
211.3069550522342
 20
156.6140933432256
 30
0.0
 10
211.3926349599809
 20
156.892593174318
 30
0.0
 10
211.4029240120965
 20
157.1300127112686
 30
0.0
 10
211.4092111395668
 20
157.2750879695139
 30
0.0
  0
SPLINE
  5
372
330
1F
100
AcDbEntity
  8
0
  6
Continuous
 62
     7
370
    30
100
AcDbSpline
210
0.0
220
0.0
230
1.0
 70
     8
 71
     3
 72
     9
 73
     5
 74
     0
 42
0.000000001
 43
0.00000001
 40
0.0
 40
0.0
 40
0.0
 40
0.0
 40
0.5606422565498246
 40
1.0
 40
1.0
 40
1.0
 40
1.0
 10
211.4092111395668
 20
157.2750879695139
 30
0.0
 10
211.4024505816958
 20
157.4755412793437
 30
0.0
 10
211.3903919867682
 20
157.833083557843
 30
0.0
 10
211.2287387651313
 20
158.2212305497614
 30
0.0
 10
211.1577151704515
 20
158.3917659362576
 30
0.0
  0
SPLINE
  5
373
330
1F
100
AcDbEntity
  8
0
  6
Continuous
 62
     7
370
    30
100
AcDbSpline
210
0.0
220
0.0
230
1.0
 70
     8
 71
     3
 72
     9
 73
     5
 74
     0
 42
0.000000001
 43
0.00000001
 40
0.0
 40
0.0
 40
0.0
 40
0.0
 40
0.5598964152250872
 40
1.0
 40
1.0
 40
1.0
 40
1.0
 10
211.1577151704515
 20
158.3917659362576
 30
0.0
 10
211.0826792780209
 20
158.5209860340458
 30
0.0
 10
210.9486618233809
 20
158.7517788990729
 30
0.0
 10
210.7627981843177
 20
158.8840170421719
 30
0.0
 10
210.6809989304867
 20
158.9422155229937
 30
0.0
  0
SPLINE
  5
374
330
1F
100
AcDbEntity
  8
0
  6
Continuous
 62
     7
370
    30
100
AcDbSpline
210
0.0
220
0.0
230
1.0
 70
     8
 71
     3
 72
    10
 73
     6
 74
     0
 42
0.000000001
 43
0.00000001
 40
0.0
 40
0.0
 40
0.0
 40
0.0
 40
0.3574735538971264
 40
0.7150370205804599
 40
1.0
 40
1.0
 40
1.0
 40
1.0
 10
210.6809989304867
 20
158.9422155229937
 30
0.0
 10
210.6321357490128
 20
158.9652273591853
 30
0.0
 10
210.5343970958557
 20
159.0112568195722
 30
0.0
 10
210.4063644720366
 20
159.0171886095428
 30
0.0
 10
210.3439811833528
 20
158.9811306721835
 30
0.0
 10
210.3163139520394
 20
158.965138836635
 30
0.0
  0
LINE
  5
375
330
1F
100
AcDbEntity
  8
0
  6
Continuous
 62
     7
370
    30
100
AcDbLine
 10
211.0832015683
 20
156.4243854882
 30
0.0
 11
211.1670993484
 21
156.460160276
 31
0.0
  0
SPLINE
  5
376
330
1F
100
AcDbEntity
  8
0
  6
Continuous
 62
     7
370
    30
100
AcDbSpline
210
0.0
220
0.0
230
1.0
 70
     8
 71
     3
 72
     9
 73
     5
 74
     0
 42
0.000000001
 43
0.00000001
 40
0.0
 40
0.0
 40
0.0
 40
0.0
 40
0.5602777493579868
 40
1.0
 40
1.0
 40
1.0
 40
1.0
 10
210.2183370012181
 20
157.002426399959
 30
0.0
 10
210.2892119544556
 20
156.874863639387
 30
0.0
 10
210.4157116295162
 20
156.6471859193309
 30
0.0
 10
210.5967001886958
 20
156.5149837247293
 30
0.0
 10
210.6762848852788
 20
156.4568514781794
 30
0.0
  0
SPLINE
  5
377
330
1F
100
AcDbEntity
  8
0
  6
Continuous
 62
     7
370
    30
100
AcDbSpline
210
0.0
220
0.0
230
1.0
 70
     8
 71
     3
 72
     9
 73
     5
 74
     0
 42
0.000000001
 43
0.00000001
 40
0.0
 40
0.0
 40
0.0
 40
0.0
 40
0.560847679469486
 40
0.9999999999999999
 40
0.9999999999999999
 40
0.9999999999999999
 40
0.9999999999999999
 10
209.9837325524166
 20
158.0925565209713
 30
0.0
 10
209.9889674543813
 20
157.8973669633049
 30
0.0
 10
209.9983013647393
 20
157.5493409933107
 30
0.0
 10
210.1511938927503
 20
157.1693154841623
 30
0.0
 10
210.2183370012181
 20
157.002426399959
 30
0.0
  0
SPLINE
  5
378
330
1F
100
AcDbEntity
  8
0
  6
Continuous
 62
     7
370
    30
100
AcDbSpline
210
0.0
220
0.0
230
1.0
 70
     8
 71
     3
 72
    10
 73
     6
 74
     0
 42
0.000000001
 43
0.00000001
 40
0.0
 40
0.0
 40
0.0
 40
0.0
 40
0.2797582719671647
 40
0.5598778938107669
 40
1.0
 40
1.0
 40
1.0
 40
1.0
 10
210.2272519702726
 20
158.9234681875232
 30
0.0
 10
210.1797830625458
 20
158.8713968904999
 30
0.0
 10
210.0847839338598
 20
158.7671870385431
 30
0.0
 10
209.9995342658326
 20
158.4821230817579
 30
0.0
 10
209.9897260892581
 20
158.2403178094376
 30
0.0
 10
209.9837325524166
 20
158.0925565209713
 30
0.0
  0
SPLINE
  5
379
330
1F
100
AcDbEntity
  8
0
  6
Continuous
 62
     7
370
    30
100
AcDbSpline
210
0.0
220
0.0
230
1.0
 70
     8
 71
     3
 72
    10
 73
     6
 74
     0
 42
0.000000001
 43
0.00000001
 40
0.0
 40
0.0
 40
0.0
 40
0.0
 40
0.3574735538971264
 40
0.7150370205804599
 40
1.0
 40
1.0
 40
1.0
 40
1.0
 10
210.6762848852788
 20
158.9394941626209
 30
0.0
 10
210.6274217038049
 20
158.9625059988125
 30
0.0
 10
210.5296830506478
 20
159.0085354591995
 30
0.0
 10
210.4016504268287
 20
159.01446724917
 30
0.0
 10
210.3392671381449
 20
158.9784093118108
 30
0.0
 10
210.3115999068314
 20
158.9624174762623
 30
0.0
  0
LINE
  5
37A
330
1F
100
AcDbEntity
  8
0
  6
Continuous
 62
     7
370
    30
100
AcDbLine
 10
210.2625820561
 20
158.939782537
 30
0.0
 11
210.2272519703
 21
158.9234681875
 31
0.0
  0
SPLINE
  5
37B
330
1F
100
AcDbEntity
  8
0
  6
Continuous
 62
     7
370
    30
100
AcDbSpline
210
0.0
220
0.0
230
1.0
 70
     8
 71
     3
 72
     9
 73
     5
 74
     0
 42
0.000000001
 43
0.00000001
 40
0.0
 40
0.0
 40
0.0
 40
0.0
 40
0.5598964152250872
 40
1.0
 40
1.0
 40
1.0
 40
1.0
 10
211.1530011252436
 20
158.3890445758849
 30
0.0
 10
211.077965232813
 20
158.5182646736731
 30
0.0
 10
210.943947778173
 20
158.7490575387001
 30
0.0
 10
210.7580841391098
 20
158.8812956817991
 30
0.0
 10
210.6762848852788
 20
158.9394941626209
 30
0.0
  0
SPLINE
  5
37C
330
1F
100
AcDbEntity
  8
0
  6
Continuous
 62
     7
370
    30
100
AcDbSpline
210
0.0
220
0.0
230
1.0
 70
     8
 71
     3
 72
     9
 73
     5
 74
     0
 42
0.000000001
 43
0.00000001
 40
0.0
 40
0.0
 40
0.0
 40
0.0
 40
0.5606422565498246
 40
1.0
 40
1.0
 40
1.0
 40
1.0
 10
211.4044970943589
 20
157.2723666091412
 30
0.0
 10
211.3977365364879
 20
157.472819918971
 30
0.0
 10
211.3856779415603
 20
157.8303621974703
 30
0.0
 10
211.2240247199234
 20
158.2185091893886
 30
0.0
 10
211.1530011252436
 20
158.3890445758849
 30
0.0
  0
SPLINE
  5
37D
330
1F
100
AcDbEntity
  8
0
  6
Continuous
 62
     7
370
    30
100
AcDbSpline
210
0.0
220
0.0
230
1.0
 70
     8
 71
     3
 72
    10
 73
     6
 74
     0
 42
0.000000001
 43
0.00000001
 40
0.0
 40
0.0
 40
0.0
 40
0.0
 40
0.2798061903266479
 40
0.5599254203469181
 40
1.0
 40
1.0
 40
1.0
 40
1.0
 10
211.1623853031957
 20
156.4574389156122
 30
0.0
 10
211.2089864924172
 20
156.5087308100251
 30
0.0
 10
211.3022410070263
 20
156.6113719828528
 30
0.0
 10
211.387920914773
 20
156.8898718139452
 30
0.0
 10
211.3982099668885
 20
157.1272913508959
 30
0.0
 10
211.4044970943589
 20
157.2723666091412
 30
0.0
  0
SPLINE
  5
37E
330
1F
100
AcDbEntity
  8
0
  6
Continuous
 62
     7
370
    30
100
AcDbSpline
210
0.0
220
0.0
230
1.0
 70
     8
 71
     3
 72
     9
 73
     5
 74
     0
 42
0.000000001
 43
0.00000001
 40
0.0
 40
0.0
 40
0.0
 40
0.0
 40
0.9170124971851855
 40
1.0
 40
1.0
 40
1.0
 40
1.0
 10
210.6762848852788
 20
156.4568514781794
 30
0.0
 10
210.7863218626397
 20
156.4032859121551
 30
0.0
 10
210.9063169310805
 20
156.3448727867193
 30
0.0
 10
210.9906900614451
 20
156.3839677664772
 30
0.0
 10
210.9976919768388
 20
156.3872121612199
 30
0.0
  0
LINE
  5
37F
330
1F
100
AcDbEntity
  8
0
  6
Continuous
 62
     7
370
    30
100
AcDbLine
 10
211.0784875231
 20
156.4216641279
 30
0.0
 11
211.1623853032
 21
156.4574389156
 31
0.0
  0
LINE
  5
380
330
1F
100
AcDbEntity
  8
0
  6
Continuous
 62
     7
370
    30
100
AcDbLine
 10
211.1577151705
 20
158.3917659363
 30
0.0
 11
211.1530011252
 21
158.3890445759
 31
0.0
  0
LINE
  5
381
330
1F
100
AcDbEntity
  8
0
  6
Continuous
 62
     7
370
    30
100
AcDbLine
 10
211.4092111396
 20
157.2750879695
 30
0.0
 11
211.4044970944
 21
157.2723666091
 31
0.0
  0
LINE
  5
382
330
1F
100
AcDbEntity
  8
0
  6
Continuous
 62
     7
370
    30
100
AcDbLine
 10
210.6809989305
 20
158.942215523
 30
0.0
 11
210.6762848853
 21
158.9394941626
 31
0.0
  0
LINE
  5
383
330
1F
100
AcDbEntity
  8
0
  6
Continuous
 62
     7
370
    30
100
AcDbLine
 10
209.9870389709
 20
159.1499403388
 30
0.0
 11
209.9823249257
 21
159.1472189784
 31
0.0
  0
LINE
  5
384
330
1F
100
AcDbEntity
  8
0
  6
Continuous
 62
     7
370
    30
100
AcDbLine
 10
212.0609422983
 20
155.8401253021
 30
0.0
 11
212.0562282531
 21
155.8374039417
 31
0.0
  0
LINE
  5
385
330
1F
100
AcDbEntity
  8
0
  6
Continuous
 62
     7
370
    30
100
AcDbLine
 10
211.1670993484
 20
156.460160276
 30
0.0
 11
211.1623853032
 21
156.4574389156
 31
0.0
  0
LINE
  5
386
330
1F
100
AcDbEntity
  8
0
  6
Continuous
 62
     7
370
    30
100
AcDbLine
 10
211.8141384182
 20
155.6786382589
 30
0.0
 11
211.809424373
 21
155.6759168986
 31
0.0
  0
LINE
  5
387
330
1F
100
AcDbEntity
  8
0
  6
Continuous
 62
     7
370
    30
100
AcDbLine
 10
209.6745458451
 20
158.2732379779
 30
0.0
 11
209.6698317999
 21
158.2705166175
 31
0.0
  0
LINE
  5
388
330
1F
100
AcDbEntity
  8
0
  6
Continuous
 62
     7
370
    30
100
AcDbLine
 10
210.6809989305
 20
156.2861888012
 30
0.0
 11
210.6762848853
 21
156.2834674409
 31
0.0
  0
LINE
  5
389
330
1F
100
AcDbEntity
  8
0
  6
Continuous
 62
     7
370
    30
100
AcDbLine
 10
209.9678014061
 20
157.0761028997
 30
0.0
 11
209.9630873609
 21
157.0733815394
 31
0.0
  0
LINE
  5
38A
330
1F
100
AcDbEntity
  8
0
  6
Continuous
 62
     7
370
    30
100
AcDbLine
 10
240.5245325968
 20
180.5295562875
 30
0.0
 11
240.5245325968
 21
179.985284213
 31
0.0
  0
LWPOLYLINE
  5
38B
330
1F
100
AcDbEntity
  8
0
  6
Continuous
 62
     8
370
    30
100
AcDbPolyline
 90
        6
 70
   128
 43
0.0
 10
227.0721630077
 20
146.4777906037
 10
227.0638483327
 20
146.472998759
 10
227.0338675959
 20
146.4556990276
 10
226.9831712832
 20
146.4264384499
 10
226.9137076255
 20
146.3863414937
 10
226.8281460723
 20
146.3369490624
  0
LWPOLYLINE
  5
38C
330
1F
100
AcDbEntity
  8
0
  6
Continuous
 62
     8
370
    30
100
AcDbPolyline
 90
        6
 70
   128
 43
0.0
 10
225.8729464176
 20
148.554894661
 10
225.8646317425
 20
148.5501028163
 10
225.8346510057
 20
148.5328030849
 10
225.783954693
 20
148.5035425073
 10
225.7144910354
 20
148.463445551
 10
225.6289294821
 20
148.4140531197
  0
LINE
  5
38D
330
1F
100
AcDbEntity
  8
0
  6
Continuous
 62
     8
370
    30
100
AcDbLine
 10
226.89258263
 20
145.6094586171
 30
0.0
 11
226.849703744
 21
145.5812814527
 31
0.0
  0
LINE
  5
38E
330
1F
100
AcDbEntity
  8
0
  6
Continuous
 62
     8
370
    30
100
AcDbLine
 10
225.0310453636
 20
148.8334905112
 30
0.0
 11
224.985314669
 21
148.8104980463
 31
0.0
  0
ARC
  5
38F
330
1F
100
AcDbEntity
  8
0
  6
Continuous
 62
     8
370
    30
100
AcDbCircle
 10
224.4007389317
 20
143.0005468882
 30
0.0
 40
0.4055720197268918
100
AcDbArc
 50
298.9679188156
 51
335.685655682
  0
ARC
  5
390
330
1F
100
AcDbEntity
  8
0
  6
Continuous
 62
     8
370
    30
100
AcDbCircle
 10
221.526141849
 20
147.9794094826
 30
0.0
 40
0.4055864340252702
100
AcDbArc
 50
84.3080614766
 51
121.0259982022
  0
LWPOLYLINE
  5
391
330
1F
100
AcDbEntity
  8
0
  6
Continuous
 62
     8
370
    30
100
AcDbPolyline
 90
        4
 70
   128
 43
0.0
 10
224.1462044903
 20
142.3237331375
 10
224.1308442163
 20
142.3148871337
 10
224.1660104148
 20
142.3352151855
 10
224.1680756733
 20
142.3364083578
  0
LINE
  5
392
330
1F
100
AcDbEntity
  8
0
  6
Continuous
 62
     8
370
    30
100
AcDbLine
 10
222.780822527
 20
148.4635447969
 30
0.0
 11
222.554614862
 21
148.3329578914
 31
0.0
  0
LINE
  5
393
330
1F
100
AcDbEntity
  8
0
  6
Continuous
 62
     8
370
    30
100
AcDbLine
 10
225.2285987861
 20
143.7183799143
 30
0.0
 11
225.4474891937
 21
143.8447426569
 31
0.0
  0
ARC
  5
394
330
1F
100
AcDbEntity
  8
0
  6
Continuous
 62
     8
370
    30
100
AcDbCircle
 10
224.5123742211
 20
142.959575879
 30
0.0
 40
0.3711684821806723
100
AcDbArc
 50
307.9009558505
 51
12.1956989754
  0
ARC
  5
395
330
1F
100
AcDbEntity
  8
0
  6
Continuous
 62
     8
370
    30
100
AcDbCircle
 10
221.5468683236
 20
148.0952883325
 30
0.0
 40
0.3721732639441863
100
AcDbArc
 50
47.4610776169
 51
112.066545325
  0
LWPOLYLINE
  5
396
330
1F
100
AcDbEntity
  8
0
  6
Continuous
 62
     8
370
    30
100
AcDbPolyline
 90
        5
 70
   128
 43
0.0
 10
211.5616330214
 20
135.8272322978
 10
211.5056608197
 20
135.7949080296
 10
211.4699554098
 20
135.7742840002
 10
211.4558889304
 20
135.7661527795
 10
211.4556872734
 20
135.766035001
  0
LWPOLYLINE
  5
397
330
1F
100
AcDbEntity
  8
0
  6
Continuous
 62
     8
370
    30
100
AcDbPolyline
 90
        5
 70
   128
 43
0.0
 10
208.8949663547
 20
140.4460344378
 10
208.8389941531
 20
140.4137101696
 10
208.8032887431
 20
140.3930861402
 10
208.7892222637
 20
140.3849549195
 10
208.7890206067
 20
140.384837141
  0
ARC
  5
398
330
1F
100
AcDbEntity
  8
0
  6
Continuous
 62
     8
370
    30
100
AcDbCircle
 10
208.6014957526
 20
162.6204351858
 30
0.0
 40
0.1597883305915185
100
AcDbArc
 50
184.0416120209
 51
247.2624447091
  0
ARC
  5
399
330
1F
100
AcDbEntity
  8
0
  6
Continuous
 62
     8
370
    30
100
AcDbCircle
 10
209.0916668005
 20
162.7435891625
 30
0.0
 40
0.6715414920544035
100
AcDbArc
 50
54.4043677283
 51
114.0555994692
  0
ARC
  5
39A
330
1F
100
AcDbEntity
  8
0
  6
Continuous
 62
     8
370
    30
100
AcDbCircle
 10
230.7693980265
 20
124.9694395694
 30
0.0
 40
0.6386071010298517
100
AcDbArc
 50
303.800814897
 51
7.281435469
  0
ARC
  5
39B
330
1F
100
AcDbEntity
  8
0
  6
Continuous
 62
     8
370
    30
100
AcDbCircle
 10
230.3912376594
 20
124.6256199553
 30
0.0
 40
0.1676998382044105
100
AcDbArc
 50
174.3803153403
 51
234.2939933786
  0
ARC
  5
39C
330
1F
100
AcDbEntity
  8
0
  6
Continuous
 62
     8
370
    30
100
AcDbCircle
 10
208.608923809
 20
138.1295439353
 30
0.0
 40
0.1676464261646428
100
AcDbArc
 50
185.6947992512
 51
245.6253417064
  0
ARC
  5
39D
330
1F
100
AcDbEntity
  8
0
  6
Continuous
 62
     8
370
    30
100
AcDbCircle
 10
209.4101766098
 20
136.7340666775
 30
0.0
 40
0.1643259767251704
100
AcDbArc
 50
173.7011524935
 51
234.9866671131
  0
ENDSEC
  0
SECTION
  2
OBJECTS
  0
DICTIONARY
  5
C
330
0
100
AcDbDictionary
281
     1
  3
ACAD_GROUP
350
D
  3
ACAD_LAYOUT
350
1A
  3
ACAD_MLINESTYLE
350
17
  3
ACAD_PLOTSETTINGS
350
19
  3
ACAD_PLOTSTYLENAME
350
E
  3
ACAD_SCALELIST
350
47
  0
DICTIONARY
  5
D
102
{ACAD_REACTORS
330
C
102
}
330
C
100
AcDbDictionary
281
     1
  0
DICTIONARY
  5
1A
102
{ACAD_REACTORS
330
C
102
}
330
C
100
AcDbDictionary
281
     1
  3
Layout1
350
1E
  3
Layout2
350
26
  3
Model
350
22
  0
DICTIONARY
  5
17
102
{ACAD_REACTORS
330
C
102
}
330
C
100
AcDbDictionary
281
     1
  3
Standard
350
18
  0
DICTIONARY
  5
19
102
{ACAD_REACTORS
330
C
102
}
330
C
100
AcDbDictionary
281
     1
  0
ACDBDICTIONARYWDFLT
  5
E
102
{ACAD_REACTORS
330
C
102
}
330
C
100
AcDbDictionary
281
     1
  3
Normal
350
F
100
AcDbDictionaryWithDefault
340
F
  0
DICTIONARY
  5
47
102
{ACAD_REACTORS
330
C
102
}
330
C
100
AcDbDictionary
281
     1
  3
A0
350
48
  3
A1
350
49
  3
A2
350
4A
  3
A3
350
4B
  3
A4
350
4C
  3
A5
350
4D
  3
A6
350
4E
  3
A7
350
4F
  3
A8
350
50
  3
A9
350
51
  3
B0
350
52
  3
B1
350
53
  3
B2
350
54
  3
B3
350
55
  3
B4
350
56
  3
B5
350
57
  3
B6
350
58
  3
B7
350
59
  3
B8
350
5A
  3
B9
350
5B
  3
C0
350
5C
  3
C1
350
5D
  3
C2
350
5E
  3
C3
350
5F
  3
C4
350
60
  3
C5
350
61
  3
C6
350
62
  3
C7
350
63
  3
C8
350
64
  3
C9
350
65
  3
D0
350
66
  3
D1
350
67
  3
D2
350
68
  0
LAYOUT
  5
1E
102
{ACAD_REACTORS
330
1A
102
}
330
1A
100
AcDbPlotSettings
  1

  2
none_device
  4

  6

 40
0.0
 41
0.0
 42
0.0
 43
0.0
 44
0.0
 45
0.0
 46
0.0
 47
0.0
 48
0.0
 49
0.0
140
0.0
141
0.0
142
1.0
143
1.0
 70
   688
 72
     1
 73
     0
 74
     5
  7

 75
    16
147
1.0
148
0.0
149
0.0
100
AcDbLayout
  1
Layout1
 70
     1
 71
     1
 10
0.0
 20
0.0
 11
420.0
 21
297.0
 12
0.0
 22
0.0
 32
0.0
 14
1.0000000000E+20
 24
1.0000000000E+20
 34
1.0000000000E+20
 15
-1.0000000000E+20
 25
-1.0000000000E+20
 35
-1.0000000000E+20
146
0.0
 13
0.0
 23
0.0
 33
0.0
 16
1.0
 26
0.0
 36
0.0
 17
0.0
 27
1.0
 37
0.0
 76
     0
330
1B
  0
LAYOUT
  5
26
102
{ACAD_REACTORS
330
1A
102
}
330
1A
100
AcDbPlotSettings
  1

  2
none_device
  4

  6

 40
0.0
 41
0.0
 42
0.0
 43
0.0
 44
0.0
 45
0.0
 46
0.0
 47
0.0
 48
0.0
 49
0.0
140
0.0
141
0.0
142
1.0
143
1.0
 70
   688
 72
     1
 73
     0
 74
     5
  7

 75
    16
147
1.0
148
0.0
149
0.0
100
AcDbLayout
  1
Layout2
 70
     1
 71
     2
 10
0.0
 20
0.0
 11
0.0
 21
0.0
 12
0.0
 22
0.0
 32
0.0
 14
0.0
 24
0.0
 34
0.0
 15
0.0
 25
0.0
 35
0.0
146
0.0
 13
0.0
 23
0.0
 33
0.0
 16
1.0
 26
0.0
 36
0.0
 17
0.0
 27
1.0
 37
0.0
 76
     0
330
23
  0
LAYOUT
  5
22
102
{ACAD_REACTORS
330
1A
102
}
330
1A
100
AcDbPlotSettings
  1

  2
none_device
  4
Letter_(8.50_x_11.00_Inches)
  6

 40
6.35
 41
6.35
 42
6.35000508
 43
6.35000508
 44
215.9
 45
279.4
 46
0.0
 47
0.0
 48
0.0
 49
0.0
140
0.0
141
0.0
142
1.0
143
1.0
 70
  1712
 72
     1
 73
     0
 74
     0
  7

 75
     0
147
1.0
148
0.0
149
0.0
100
AcDbLayout
  1
Model
 70
     1
 71
     0
 10
0.0
 20
0.0
 11
297.0
 21
210.0
 12
0.0
 22
0.0
 32
0.0
 14
0.0
 24
0.0
 34
0.0
 15
297.0
 25
210.0
 35
0.0
146
0.0
 13
0.0
 23
0.0
 33
0.0
 16
1.0
 26
0.0
 36
0.0
 17
0.0
 27
1.0
 37
0.0
 76
     0
330
1F
331
29
  0
MLINESTYLE
  5
18
102
{ACAD_REACTORS
330
17
102
}
330
17
100
AcDbMlineStyle
  2
Standard
 70
     0
  3

 62
   256
 51
90.0
 52
90.0
 71
     2
 49
0.5
 62
   256
  6
BYLAYER
 49
-0.5
 62
   256
  6
BYLAYER
  0
ACDBPLACEHOLDER
  5
F
102
{ACAD_REACTORS
330
E
102
}
330
E
  0
SCALE
  5
48
102
{ACAD_REACTORS
330
47
102
}
330
47
100
AcDbScale
 70
     0
300
1:1
140
1.0
141
1.0
290
     1
  0
SCALE
  5
49
102
{ACAD_REACTORS
330
47
102
}
330
47
100
AcDbScale
 70
     0
300
1:2
140
1.0
141
2.0
290
     0
  0
SCALE
  5
4A
102
{ACAD_REACTORS
330
47
102
}
330
47
100
AcDbScale
 70
     0
300
1:4
140
1.0
141
4.0
290
     0
  0
SCALE
  5
4B
102
{ACAD_REACTORS
330
47
102
}
330
47
100
AcDbScale
 70
     0
300
1:5
140
1.0
141
5.0
290
     0
  0
SCALE
  5
4C
102
{ACAD_REACTORS
330
47
102
}
330
47
100
AcDbScale
 70
     0
300
1:8
140
1.0
141
8.0
290
     0
  0
SCALE
  5
4D
102
{ACAD_REACTORS
330
47
102
}
330
47
100
AcDbScale
 70
     0
300
1:10
140
1.0
141
10.0
290
     0
  0
SCALE
  5
4E
102
{ACAD_REACTORS
330
47
102
}
330
47
100
AcDbScale
 70
     0
300
1:16
140
1.0
141
16.0
290
     0
  0
SCALE
  5
4F
102
{ACAD_REACTORS
330
47
102
}
330
47
100
AcDbScale
 70
     0
300
1:20
140
1.0
141
20.0
290
     0
  0
SCALE
  5
50
102
{ACAD_REACTORS
330
47
102
}
330
47
100
AcDbScale
 70
     0
300
1:30
140
1.0
141
30.0
290
     0
  0
SCALE
  5
51
102
{ACAD_REACTORS
330
47
102
}
330
47
100
AcDbScale
 70
     0
300
1:40
140
1.0
141
40.0
290
     0
  0
SCALE
  5
52
102
{ACAD_REACTORS
330
47
102
}
330
47
100
AcDbScale
 70
     0
300
1:50
140
1.0
141
50.0
290
     0
  0
SCALE
  5
53
102
{ACAD_REACTORS
330
47
102
}
330
47
100
AcDbScale
 70
     0
300
1:100
140
1.0
141
100.0
290
     0
  0
SCALE
  5
54
102
{ACAD_REACTORS
330
47
102
}
330
47
100
AcDbScale
 70
     0
300
2:1
140
2.0
141
1.0
290
     0
  0
SCALE
  5
55
102
{ACAD_REACTORS
330
47
102
}
330
47
100
AcDbScale
 70
     0
300
4:1
140
4.0
141
1.0
290
     0
  0
SCALE
  5
56
102
{ACAD_REACTORS
330
47
102
}
330
47
100
AcDbScale
 70
     0
300
8:1
140
8.0
141
1.0
290
     0
  0
SCALE
  5
57
102
{ACAD_REACTORS
330
47
102
}
330
47
100
AcDbScale
 70
     0
300
10:1
140
10.0
141
1.0
290
     0
  0
SCALE
  5
58
102
{ACAD_REACTORS
330
47
102
}
330
47
100
AcDbScale
 70
     0
300
100:1
140
100.0
141
1.0
290
     0
  0
SCALE
  5
59
102
{ACAD_REACTORS
330
47
102
}
330
47
100
AcDbScale
 70
     0
300
1/128" = 1'-0"
140
0.0078125
141
12.0
290
     0
  0
SCALE
  5
5A
102
{ACAD_REACTORS
330
47
102
}
330
47
100
AcDbScale
 70
     0
300
1/64" = 1'-0"
140
0.015625
141
12.0
290
     0
  0
SCALE
  5
5B
102
{ACAD_REACTORS
330
47
102
}
330
47
100
AcDbScale
 70
     0
300
1/32" = 1'-0"
140
0.03125
141
12.0
290
     0
  0
SCALE
  5
5C
102
{ACAD_REACTORS
330
47
102
}
330
47
100
AcDbScale
 70
     0
300
1/16" = 1'-0"
140
0.0625
141
12.0
290
     0
  0
SCALE
  5
5D
102
{ACAD_REACTORS
330
47
102
}
330
47
100
AcDbScale
 70
     0
300
3/32" = 1'-0"
140
0.09375
141
12.0
290
     0
  0
SCALE
  5
5E
102
{ACAD_REACTORS
330
47
102
}
330
47
100
AcDbScale
 70
     0
300
1/8" = 1'-0"
140
0.125
141
12.0
290
     0
  0
SCALE
  5
5F
102
{ACAD_REACTORS
330
47
102
}
330
47
100
AcDbScale
 70
     0
300
3/16" = 1'-0"
140
0.1875
141
12.0
290
     0
  0
SCALE
  5
60
102
{ACAD_REACTORS
330
47
102
}
330
47
100
AcDbScale
 70
     0
300
1/4" = 1'-0"
140
0.25
141
12.0
290
     0
  0
SCALE
  5
61
102
{ACAD_REACTORS
330
47
102
}
330
47
100
AcDbScale
 70
     0
300
3/8" = 1'-0"
140
0.375
141
12.0
290
     0
  0
SCALE
  5
62
102
{ACAD_REACTORS
330
47
102
}
330
47
100
AcDbScale
 70
     0
300
1/2" = 1'-0"
140
0.5
141
12.0
290
     0
  0
SCALE
  5
63
102
{ACAD_REACTORS
330
47
102
}
330
47
100
AcDbScale
 70
     0
300
3/4" = 1'-0"
140
0.75
141
12.0
290
     0
  0
SCALE
  5
64
102
{ACAD_REACTORS
330
47
102
}
330
47
100
AcDbScale
 70
     0
300
1" = 1'-0"
140
1.0
141
12.0
290
     0
  0
SCALE
  5
65
102
{ACAD_REACTORS
330
47
102
}
330
47
100
AcDbScale
 70
     0
300
1-1/2" = 1'-0"
140
1.5
141
12.0
290
     0
  0
SCALE
  5
66
102
{ACAD_REACTORS
330
47
102
}
330
47
100
AcDbScale
 70
     0
300
3" = 1'-0"
140
3.0
141
12.0
290
     0
  0
SCALE
  5
67
102
{ACAD_REACTORS
330
47
102
}
330
47
100
AcDbScale
 70
     0
300
6" = 1'-0"
140
6.0
141
12.0
290
     0
  0
SCALE
  5
68
102
{ACAD_REACTORS
330
47
102
}
330
47
100
AcDbScale
 70
     0
300
1'-0" = 1'-0"
140
12.0
141
12.0
290
     0
  0
ENDSEC
  0
EOF
