  0
SECTION
  2
HEADER
  9
$ACADVER
  1
AC1015
  9
$ACADMAINTVER
 70
     6
  9
$DWGCODEPAGE
  3
ANSI_950
  9
$INSBASE
 10
0.0
 20
0.0
 30
0.0
  9
$EXTMIN
 10
0.0
 20
0.0
 30
0.0
  9
$EXTMAX
 10
742.5
 20
525.0
 30
0.0
  9
$LIMMIN
 10
0.0
 20
0.0
  9
$LIMMAX
 10
742.5
 20
525.0
  9
$ORTHOMODE
 70
     0
  9
$REGENMODE
 70
     1
  9
$FILLMODE
 70
     1
  9
$QTEXTMODE
 70
     0
  9
$MIRRTEXT
 70
     1
  9
$LTSCALE
 40
2.5
  9
$ATTMODE
 70
     1
  9
$TEXTSIZE
 40
8.8194444444
  9
$TRACEWID
 40
1.0
  9
$TEXTSTYLE
  7
STANDARD
  9
$CLAYER
  8
0
  9
$CELTYPE
  6
ByLayer
  9
$CECOLOR
 62
   256
  9
$CELTSCALE
 40
1.0
  9
$DISPSILH
 70
     0
  9
$DIMSCALE
 40
1.0
  9
$DIMASZ
 40
5.0
  9
$DIMEXO
 40
2.5
  9
$DIMDLI
 40
3.75
  9
$DIMRND
 40
0.0
  9
$DIMDLE
 40
0.0
  9
$DIMEXE
 40
2.5
  9
$DIMTP
 40
0.0
  9
$DIMTM
 40
0.0
  9
$DIMTXT
 40
6.25
  9
$DIMCEN
 40
2.5
  9
$DIMTSZ
 40
0.0
  9
$DIMTOL
 70
     0
  9
$DIMLIM
 70
     0
  9
$DIMTIH
 70
     1
  9
$DIMTOH
 70
     1
  9
$DIMSE1
 70
     0
  9
$DIMSE2
 70
     0
  9
$DIMTAD
 70
     1
  9
$DIMZIN
 70
     0
  9
$DIMBLK
  1

  9
$DIMASO
 70
     1
  9
$DIMSHO
 70
     1
  9
$DIMPOST
  1

  9
$DIMAPOST
  1

  9
$DIMALT
 70
     0
  9
$DIMALTD
 70
     3
  9
$DIMALTF
 40
0.0393700787
  9
$DIMLFAC
 40
1.0
  9
$DIMTOFL
 70
     1
  9
$DIMTVP
 40
0.0
  9
$DIMTIX
 70
     0
  9
$DIMSOXD
 70
     0
  9
$DIMSAH
 70
     0
  9
$DIMBLK1
  1

  9
$DIMBLK2
  1

  9
$DIMSTYLE
  2
ISO-25
  9
$DIMCLRD
 70
     0
  9
$DIMCLRE
 70
     0
  9
$DIMCLRT
 70
     0
  9
$DIMTFAC
 40
1.0
  9
$DIMGAP
 40
2.5
  9
$DIMJUST
 70
     0
  9
$DIMSD1
 70
     0
  9
$DIMSD2
 70
     0
  9
$DIMTOLJ
 70
     0
  9
$DIMTZIN
 70
     0
  9
$DIMALTZ
 70
     0
  9
$DIMALTTZ
 70
     0
  9
$DIMUPT
 70
     0
  9
$DIMDEC
 70
     2
  9
$DIMTDEC
 70
     2
  9
$DIMALTU
 70
     2
  9
$DIMALTTD
 70
     3
  9
$DIMTXSTY
  7
STANDARD
  9
$DIMAUNIT
 70
     0
  9
$DIMADEC
 70
     1
  9
$DIMALTRND
 40
0.0
  9
$DIMAZIN
 70
     0
  9
$DIMDSEP
 70
    44
  9
$DIMATFIT
 70
     3
  9
$DIMFRAC
 70
     0
  9
$DIMLDRBLK
  1

  9
$DIMLUNIT
 70
     2
  9
$DIMLWD
 70
    -2
  9
$DIMLWE
 70
    -2
  9
$DIMTMOVE
 70
     0
  9
$LUNITS
 70
     2
  9
$LUPREC
 70
     2
  9
$SKETCHINC
 40
1.0
  9
$FILLETRAD
 40
10.0
  9
$AUNITS
 70
     0
  9
$AUPREC
 70
     1
  9
$MENU
  1
.
  9
$ELEVATION
 40
0.0
  9
$PELEVATION
 40
0.0
  9
$THICKNESS
 40
0.0
  9
$LIMCHECK
 70
     0
  9
$CHAMFERA
 40
0.0
  9
$CHAMFERB
 40
0.0
  9
$CHAMFERC
 40
0.0
  9
$CHAMFERD
 40
0.0
  9
$SKPOLY
 70
     0
  9
$TDCREATE
 40
2457504.443689213
  9
$TDUCREATE
 40
2457504.11035588
  9
$TDUPDATE
 40
2457504.443694398
  9
$TDUUPDATE
 40
2457504.110361065
  9
$TDINDWG
 40
0.0000000116
  9
$TDUSRTIMER
 40
0.0000000116
  9
$USRTIMER
 70
     1
  9
$ANGBASE
 50
0.0
  9
$ANGDIR
 70
     0
  9
$PDMODE
 70
     0
  9
$PDSIZE
 40
-1.0
  9
$PLINEWID
 40
0.0
  9
$SPLFRAME
 70
     0
  9
$SPLINETYPE
 70
     6
  9
$SPLINESEGS
 70
     8
  9
$HANDSEED
  5
1D7
  9
$SURFTAB1
 70
     6
  9
$SURFTAB2
 70
     6
  9
$SURFTYPE
 70
     6
  9
$SURFU
 70
     6
  9
$SURFV
 70
     6
  9
$UCSBASE
  2

  9
$UCSNAME
  2

  9
$UCSORG
 10
0.0
 20
0.0
 30
0.0
  9
$UCSXDIR
 10
1.0
 20
0.0
 30
0.0
  9
$UCSYDIR
 10
0.0
 20
1.0
 30
0.0
  9
$UCSORTHOREF
  2

  9
$UCSORTHOVIEW
 70
     0
  9
$UCSORGTOP
 10
0.0
 20
0.0
 30
0.0
  9
$UCSORGBOTTOM
 10
0.0
 20
0.0
 30
0.0
  9
$UCSORGLEFT
 10
0.0
 20
0.0
 30
0.0
  9
$UCSORGRIGHT
 10
0.0
 20
0.0
 30
0.0
  9
$UCSORGFRONT
 10
0.0
 20
0.0
 30
0.0
  9
$UCSORGBACK
 10
0.0
 20
0.0
 30
0.0
  9
$PUCSBASE
  2

  9
$PUCSNAME
  2

  9
$PUCSORG
 10
0.0
 20
0.0
 30
0.0
  9
$PUCSXDIR
 10
1.0
 20
0.0
 30
0.0
  9
$PUCSYDIR
 10
0.0
 20
1.0
 30
0.0
  9
$PUCSORTHOREF
  2

  9
$PUCSORTHOVIEW
 70
     0
  9
$PUCSORGTOP
 10
0.0
 20
0.0
 30
0.0
  9
$PUCSORGBOTTOM
 10
0.0
 20
0.0
 30
0.0
  9
$PUCSORGLEFT
 10
0.0
 20
0.0
 30
0.0
  9
$PUCSORGRIGHT
 10
0.0
 20
0.0
 30
0.0
  9
$PUCSORGFRONT
 10
0.0
 20
0.0
 30
0.0
  9
$PUCSORGBACK
 10
0.0
 20
0.0
 30
0.0
  9
$USERI1
 70
     0
  9
$USERI2
 70
     0
  9
$USERI3
 70
     0
  9
$USERI4
 70
     0
  9
$USERI5
 70
     0
  9
$USERR1
 40
0.0
  9
$USERR2
 40
0.0
  9
$USERR3
 40
0.0
  9
$USERR4
 40
0.0
  9
$USERR5
 40
0.0
  9
$WORLDVIEW
 70
     1
  9
$SHADEDGE
 70
     3
  9
$SHADEDIF
 70
    70
  9
$TILEMODE
 70
     1
  9
$MAXACTVP
 70
    64
  9
$PINSBASE
 10
0.0
 20
0.0
 30
0.0
  9
$PLIMCHECK
 70
     0
  9
$PEXTMIN
 10
1.0000000000E+20
 20
1.0000000000E+20
 30
1.0000000000E+20
  9
$PEXTMAX
 10
-1.0000000000E+20
 20
-1.0000000000E+20
 30
-1.0000000000E+20
  9
$PLIMMIN
 10
0.0
 20
0.0
  9
$PLIMMAX
 10
420.0
 20
297.0
  9
$UNITMODE
 70
     0
  9
$VISRETAIN
 70
     1
  9
$PLINEGEN
 70
     0
  9
$PSLTSCALE
 70
     1
  9
$TREEDEPTH
 70
  3020
  9
$CMLSTYLE
  2
Standard
  9
$CMLJUST
 70
     0
  9
$CMLSCALE
 40
20.0
  9
$PROXYGRAPHICS
 70
     1
  9
$MEASUREMENT
 70
     1
  9
$CELWEIGHT
370
    -1
  9
$ENDCAPS
280
     0
  9
$JOINSTYLE
280
     0
  9
$LWDISPLAY
290
     1
  9
$INSUNITS
 70
     4
  9
$HYPERLINKBASE
  1

  9
$STYLESHEET
  1

  9
$XEDIT
290
     1
  9
$CEPSNTYPE
380
     0
  9
$PSTYLEMODE
290
     1
  9
$FINGERPRINTGUID
  2
{4899B33C-7B05-47E1-A582-B1BA785E6876}
  9
$VERSIONGUID
  2
{FAEB1C32-E019-11D5-929B-00C0DF256EC4}
  9
$EXTNAMES
290
     1
  9
$PSVPSCALE
 40
0.0
  9
$OLESTARTUP
290
     0
  0
ENDSEC
  0
SECTION
  2
CLASSES
  0
CLASS
  1
ACDBDICTIONARYWDFLT
  2
AcDbDictionaryWithDefault
  3
ObjectDBX Classes
 90
        0
280
     0
281
     0
  0
CLASS
  1
VISUALSTYLE
  2
AcDbVisualStyle
  3
ObjectDBX Classes
 90
     4095
280
     0
281
     0
  0
CLASS
  1
MATERIAL
  2
AcDbMaterial
  3
ObjectDBX Classes
 90
     1153
280
     0
281
     0
  0
CLASS
  1
SCALE
  2
AcDbScale
  3
ObjectDBX Classes
 90
     1153
280
     0
281
     0
  0
CLASS
  1
TABLESTYLE
  2
AcDbTableStyle
  3
ObjectDBX Classes
 90
     4095
280
     0
281
     0
  0
CLASS
  1
MLEADERSTYLE
  2
AcDbMLeaderStyle
  3
ACDB_MLEADERSTYLE_CLASS
 90
     4095
280
     0
281
     0
  0
CLASS
  1
SUN
  2
AcDbSun
  3
SCENEOE
 90
     1153
280
     0
281
     0
  0
CLASS
  1
ACDBPLACEHOLDER
  2
AcDbPlaceHolder
  3
ObjectDBX Classes
 90
        0
280
     0
281
     0
  0
CLASS
  1
LAYOUT
  2
AcDbLayout
  3
ObjectDBX Classes
 90
        0
280
     0
281
     0
  0
ENDSEC
  0
SECTION
  2
TABLES
  0
TABLE
  2
VPORT
  5
8
330
0
100
AcDbSymbolTable
 70
     1
  0
VPORT
  5
29
330
8
100
AcDbSymbolTableRecord
100
AcDbViewportTableRecord
  2
*Active
 70
     0
 10
0.0
 20
0.0
 11
1.0
 21
1.0
 12
371.25
 22
262.5
 13
0.0
 23
0.0
 14
10.0
 24
10.0
 15
10.0
 25
10.0
 16
0.0
 26
0.0
 36
1.0
 17
0.0
 27
0.0
 37
0.0
 40
525.0
 41
1.4142857143
 42
50.0
 43
0.0
 44
0.0
 50
0.0
 51
0.0
 71
     0
 72
  2000
 73
     1
 74
     3
 75
     0
 76
     0
 77
     0
 78
     0
281
     0
 65
     1
110
0.0
120
0.0
130
0.0
111
1.0
121
0.0
131
0.0
112
0.0
122
1.0
132
0.0
 79
     0
146
0.0
  0
ENDTAB
  0
TABLE
  2
LTYPE
  5
5
330
0
100
AcDbSymbolTable
 70
     6
  0
LTYPE
  5
14
330
5
100
AcDbSymbolTableRecord
100
AcDbLinetypeTableRecord
  2
ByBlock
 70
     0
  3

 72
    65
 73
     0
 40
0.0
  0
LTYPE
  5
15
330
5
100
AcDbSymbolTableRecord
100
AcDbLinetypeTableRecord
  2
ByLayer
 70
     0
  3

 72
    65
 73
     0
 40
0.0
  0
LTYPE
  5
16
330
5
100
AcDbSymbolTableRecord
100
AcDbLinetypeTableRecord
  2
Continuous
 70
     0
  3
Solid line
 72
    65
 73
     0
 40
0.0
  0
LTYPE
  5
6E
330
5
100
AcDbSymbolTableRecord
100
AcDbLinetypeTableRecord
  2
HIDDEN
 70
     0
  3
Hidden __ __ __ __ __ __ __ __ __ __ __ __ __ __
 72
    65
 73
     2
 40
1.905
 49
1.27
 74
     0
 49
-0.635
 74
     0
  0
LTYPE
  5
6F
330
5
100
AcDbSymbolTableRecord
100
AcDbLinetypeTableRecord
  2
PHANTOM
 70
     0
  3
Phantom ______  __  __  ______  __  __  ______
 72
    65
 73
     6
 40
12.7
 49
6.35
 74
     0
 49
-1.27
 74
     0
 49
1.27
 74
     0
 49
-1.27
 74
     0
 49
1.27
 74
     0
 49
-1.27
 74
     0
  0
LTYPE
  5
70
330
5
100
AcDbSymbolTableRecord
100
AcDbLinetypeTableRecord
  2
CENTER
 70
     0
  3
Center ____ _ ____ _ ____ _ ____ _ ____ _ ____
 72
    65
 73
     4
 40
10.16
 49
6.35
 74
     0
 49
-1.27
 74
     0
 49
1.27
 74
     0
 49
-1.27
 74
     0
  0
LTYPE
  5
71
330
5
100
AcDbSymbolTableRecord
100
AcDbLinetypeTableRecord
  2
CENTERX2
 70
     0
  3
Center (2x) ________  __  ________  __  _____
 72
    65
 73
     4
 40
20.32
 49
12.7
 74
     0
 49
-2.54
 74
     0
 49
2.54
 74
     0
 49
-2.54
 74
     0
  0
LTYPE
  5
72
330
5
100
AcDbSymbolTableRecord
100
AcDbLinetypeTableRecord
  2
DOT2
 70
     0
  3
Dot (.5x) ........................................
 72
    65
 73
     2
 40
0.635
 49
0.0
 74
     0
 49
-0.635
 74
     0
  0
ENDTAB
  0
TABLE
  2
LAYER
  5
2
330
0
100
AcDbSymbolTable
 70
     8
  0
LAYER
  5
10
330
2
100
AcDbSymbolTableRecord
100
AcDbLayerTableRecord
  2
0
 70
     0
 62
     7
  6
Continuous
370
    -3
390
F
  0
LAYER
  5
73
330
2
100
AcDbSymbolTableRecord
100
AcDbLayerTableRecord
  2
SLD-0
 70
     0
 62
   179
  6
Continuous
370
    15
390
F
  0
LAYER
  5
74
330
2
100
AcDbSymbolTableRecord
100
AcDbLayerTableRecord
  2
輪廓線
 70
     0
 62
   219
  6
Continuous
370
    15
390
F
  0
LAYER
  5
75
330
2
100
AcDbSymbolTableRecord
100
AcDbLayerTableRecord
  2
DIM
 70
     0
 62
     7
  6
Continuous
370
    -3
390
F
  0
LAYER
  5
76
330
2
100
AcDbSymbolTableRecord
100
AcDbLayerTableRecord
  2
中心線
 70
     0
 62
     1
  6
CENTERX2
370
    -3
390
F
  0
LAYER
  5
77
330
2
100
AcDbSymbolTableRecord
100
AcDbLayerTableRecord
  2
虛線
 70
     0
 62
     6
  6
HIDDEN
370
    -3
390
F
  0
LAYER
  5
78
330
2
100
AcDbSymbolTableRecord
100
AcDbLayerTableRecord
  2
SECTION
 70
     0
 62
     5
  6
PHANTOM
370
    15
390
F
  0
LAYER
  5
79
330
2
100
AcDbSymbolTableRecord
100
AcDbLayerTableRecord
  2
假想線
 70
     0
 62
     5
  6
PHANTOM
370
    -3
390
F
  0
ENDTAB
  0
TABLE
  2
STYLE
  5
3
330
0
100
AcDbSymbolTable
 70
     5
  0
STYLE
  5
11
330
3
100
AcDbSymbolTableRecord
100
AcDbTextStyleTableRecord
  2
STANDARD
 70
     0
 40
0.0
 41
1.0
 50
0.0
 71
     0
 42
8.8194444444
  3
ARIALBD.TTF
  4

1001
ACAD
1000
ARIAL
1071
 33554466
  0
STYLE
  5
7A
330
3
100
AcDbSymbolTableRecord
100
AcDbTextStyleTableRecord
  2
SLDTEXTSTYLE0
 70
     0
 40
0.0
 41
1.0
 50
0.0
 71
     0
 42
2.5
  3
ARIAL.TTF
  4

1001
ACAD
1000
Arial
1071
      290
  0
STYLE
  5
CB
330
3
100
AcDbSymbolTableRecord
100
AcDbTextStyleTableRecord
  2
SLDTEXTSTYLE1
 70
     0
 40
0.0
 41
0.948
 50
0.0
 71
     0
 42
8.8194444444
  3
ARIAL.TTF
  4

1001
ACAD
1000
Arial
1071
      290
  0
STYLE
  5
D4
330
3
100
AcDbSymbolTableRecord
100
AcDbTextStyleTableRecord
  2
SLDTEXTSTYLE2
 70
     0
 40
0.0
 41
1.0
 50
0.0
 71
     0
 42
8.8194444444
  3
ARIALBD.TTF
  4

1001
ACAD
1000
Arial CE
1071
 33554722
  0
STYLE
  5
103
330
3
100
AcDbSymbolTableRecord
100
AcDbTextStyleTableRecord
  2
SLDTEXTSTYLE3
 70
     0
 40
0.0
 41
0.948
 50
0.0
 71
     0
 42
8.8194444444
  3
ARIALBD.TTF
  4

1001
ACAD
1000
Arial
1071
 33554722
  0
ENDTAB
  0
TABLE
  2
VIEW
  5
6
330
0
100
AcDbSymbolTable
 70
     0
  0
ENDTAB
  0
TABLE
  2
UCS
  5
7
330
0
100
AcDbSymbolTable
 70
     0
  0
ENDTAB
  0
TABLE
  2
APPID
  5
9
330
0
100
AcDbSymbolTable
 70
     1
  0
APPID
  5
12
330
9
100
AcDbSymbolTableRecord
100
AcDbRegAppTableRecord
  2
ACAD
 70
     0
  0
ENDTAB
  0
TABLE
  2
DIMSTYLE
  5
A
330
0
100
AcDbSymbolTable
 70
     3
100
AcDbDimStyleTable
  0
DIMSTYLE
105
27
330
A
100
AcDbSymbolTableRecord
100
AcDbDimStyleTableRecord
  2
ISO-25
 70
     0
 41
2.5
 42
0.625
 43
3.75
 44
1.25
 73
     0
 74
     0
 77
     1
 78
     8
140
2.5
141
2.5
143
0.0393700787
147
0.625
171
     3
172
     1
178
     0
271
     2
272
     2
274
     3
278
    44
283
     0
284
     8
340
7A
  0
DIMSTYLE
105
127
102
{ACAD_REACTORS
330
126
330
131
330
13C
330
169
330
173
330
17D
330
187
102
}
330
A
100
AcDbSymbolTableRecord
100
AcDbDimStyleTableRecord
  2
SLDDIMSTYLE0
 70
     0
 41
5.0
 44
0.0
 45
0.000000001
 73
     0
 74
     0
 77
     1
 78
    12
 79
     3
140
6.25
147
1.5625
173
     1
178
     0
271
     2
272
     2
276
     2
284
    12
340
CB
  0
DIMSTYLE
105
192
102
{ACAD_REACTORS
330
191
102
}
330
A
100
AcDbSymbolTableRecord
100
AcDbDimStyleTableRecord
  2
SLDDIMSTYLE1
 70
     0
  3
<>
 41
5.0
 44
0.0
 45
0.000000001
 78
    12
 79
     3
140
6.25
141
0.0
147
1.5625
173
     1
178
     0
271
     2
272
     2
276
     2
284
    12
340
CB
  0
ENDTAB
  0
TABLE
  2
BLOCK_RECORD
  5
1
330
0
100
AcDbSymbolTable
 70
    17
  0
BLOCK_RECORD
  5
1F
330
1
100
AcDbSymbolTableRecord
100
AcDbBlockTableRecord
  2
*Model_Space
340
22
  0
BLOCK_RECORD
  5
1B
330
1
100
AcDbSymbolTableRecord
100
AcDbBlockTableRecord
  2
*Paper_Space
340
1E
  0
BLOCK_RECORD
  5
23
330
1
100
AcDbSymbolTableRecord
100
AcDbBlockTableRecord
  2
*Paper_Space0
340
26
  0
BLOCK_RECORD
  5
CD
330
1
100
AcDbSymbolTableRecord
100
AcDbBlockTableRecord
  2
SW_NOTE_0
340
0
102
{BLKREFS
331
D3
102
}
  0
BLOCK_RECORD
  5
105
330
1
100
AcDbSymbolTableRecord
100
AcDbBlockTableRecord
  2
SW_NOTE_1
340
0
102
{BLKREFS
331
10A
102
}
  0
BLOCK_RECORD
  5
10B
330
1
100
AcDbSymbolTableRecord
100
AcDbBlockTableRecord
  2
SW_BROKEN_VIEW_0
340
0
102
{BLKREFS
331
10E
102
}
  0
BLOCK_RECORD
  5
128
330
1
100
AcDbSymbolTableRecord
100
AcDbBlockTableRecord
  2
_D
340
0
  0
BLOCK_RECORD
  5
132
330
1
100
AcDbSymbolTableRecord
100
AcDbBlockTableRecord
  2
_D_1
340
0
  0
BLOCK_RECORD
  5
13D
330
1
100
AcDbSymbolTableRecord
100
AcDbBlockTableRecord
  2
_D_2
340
0
  0
BLOCK_RECORD
  5
16A
330
1
100
AcDbSymbolTableRecord
100
AcDbBlockTableRecord
  2
_D_3
340
0
  0
BLOCK_RECORD
  5
174
330
1
100
AcDbSymbolTableRecord
100
AcDbBlockTableRecord
  2
_D_4
340
0
  0
BLOCK_RECORD
  5
17E
330
1
100
AcDbSymbolTableRecord
100
AcDbBlockTableRecord
  2
_D_5
340
0
  0
BLOCK_RECORD
  5
188
330
1
100
AcDbSymbolTableRecord
100
AcDbBlockTableRecord
  2
_D_6
340
0
  0
BLOCK_RECORD
  5
193
330
1
100
AcDbSymbolTableRecord
100
AcDbBlockTableRecord
  2
_D_7
340
0
  0
BLOCK_RECORD
  5
19B
330
1
100
AcDbSymbolTableRecord
100
AcDbBlockTableRecord
  2
SW_CENTERMARKSYMBOL_0
340
0
102
{BLKREFS
331
1A6
102
}
  0
BLOCK_RECORD
  5
1A7
330
1
100
AcDbSymbolTableRecord
100
AcDbBlockTableRecord
  2
SW_CENTERMARKSYMBOL_1
340
0
102
{BLKREFS
331
1B2
102
}
  0
BLOCK_RECORD
  5
1B3
330
1
100
AcDbSymbolTableRecord
100
AcDbBlockTableRecord
  2
SW_CENTERMARKSYMBOL_2
340
0
102
{BLKREFS
331
1BE
102
}
  0
BLOCK_RECORD
  5
1BF
330
1
100
AcDbSymbolTableRecord
100
AcDbBlockTableRecord
  2
SW_CENTERMARKSYMBOL_3
340
0
102
{BLKREFS
331
1CA
102
}
  0
BLOCK_RECORD
  5
1CB
330
1
100
AcDbSymbolTableRecord
100
AcDbBlockTableRecord
  2
SW_CENTERMARKSYMBOL_4
340
0
102
{BLKREFS
331
1D6
102
}
  0
ENDTAB
  0
ENDSEC
  0
SECTION
  2
BLOCKS
  0
BLOCK
  5
20
330
1F
100
AcDbEntity
  8
0
100
AcDbBlockBegin
  2
*Model_Space
 70
     0
 10
0.0
 20
0.0
 30
0.0
  3
*Model_Space
  1

  0
ENDBLK
  5
21
330
1F
100
AcDbEntity
  8
0
100
AcDbBlockEnd
  0
BLOCK
  5
1C
330
1B
100
AcDbEntity
 67
     1
  8
0
100
AcDbBlockBegin
  2
*Paper_Space
 70
     0
 10
0.0
 20
0.0
 30
0.0
  3
*Paper_Space
  1

  0
ENDBLK
  5
1D
330
1B
100
AcDbEntity
 67
     1
  8
0
100
AcDbBlockEnd
  0
BLOCK
  5
24
330
23
100
AcDbEntity
  8
0
100
AcDbBlockBegin
  2
*Paper_Space0
 70
     0
 10
0.0
 20
0.0
 30
0.0
  3
*Paper_Space0
  1

  0
ENDBLK
  5
25
330
23
100
AcDbEntity
  8
0
100
AcDbBlockEnd
  0
BLOCK
  5
CE
330
CD
100
AcDbEntity
  8
0
100
AcDbBlockBegin
  2
SW_NOTE_0
 70
     0
 10
0.0
 20
0.0
 30
0.0
  3
SW_NOTE_0
  1

  0
MTEXT
  5
D0
330
CD
100
AcDbEntity
  8
0
  6
Continuous
 62
     0
370
     0
100
AcDbMText
 10
0.0
 20
8.526645987
 30
0.0
 40
6.6145833333
 41
0.0
 71
     1
 72
     1
  1
PROPRIETARY AND CONFIDENTIAL
  7
SLDTEXTSTYLE1
 73
     1
 44
1.0
  0
MTEXT
  5
D1
330
CD
100
AcDbEntity
  8
0
  6
Continuous
 62
     0
370
     0
100
AcDbMText
 10
0.0
 20
-0.2049587001
 30
0.0
 40
4.6302083333
 41
0.0
 71
     1
 72
     1
  1
THE INFORMATION CONTAINED IN THIS DRAWING IS THE SOLE PROPERTY OF UNICE E-O SERVICES INC. ANY REPRODUCTION IN PART OR AS A WHOLE WITHOUT THE WRITTEN PERMISSION OF UNICE E-O SERVICES INC IS 
  7
SLDTEXTSTYLE1
 73
     1
 44
1.0
  0
MTEXT
  5
D2
330
CD
100
AcDbEntity
  8
0
  6
Continuous
 62
     0
370
     0
100
AcDbMText
 10
0.0
 20
-6.3785697366
 30
0.0
 40
4.6302083333
 41
0.0
 71
     1
 72
     1
  1
PROHIBITED.
  7
SLDTEXTSTYLE1
 73
     1
 44
1.0
  0
ENDBLK
  5
CF
330
CD
100
AcDbEntity
  8
0
100
AcDbBlockEnd
  0
BLOCK
  5
106
330
105
100
AcDbEntity
  8
0
100
AcDbBlockBegin
  2
SW_NOTE_1
 70
     0
 10
0.0
 20
0.0
 30
0.0
  3
SW_NOTE_1
  1

  0
MTEXT
  5
108
330
105
100
AcDbEntity
  8
DIM
 62
     0
100
AcDbMText
 10
0.0
 20
5.9686521909
 30
0.0
 40
4.6302083333
 41
0.0
 71
     1
 72
     1
  1
No.5, Andong Rd., Chung Li District,
  7
SLDTEXTSTYLE0
 73
     1
 44
1.0
  0
MTEXT
  5
109
330
105
100
AcDbEntity
  8
DIM
 62
     0
100
AcDbMText
 10
0.0
 20
-0.2049588456
 30
0.0
 40
4.6302083333
 41
0.0
 71
     1
 72
     1
  1
Taoyuan City 32063, Taiwan, R.O.C.
  7
SLDTEXTSTYLE0
 73
     1
 44
1.0
  0
ENDBLK
  5
107
330
105
100
AcDbEntity
  8
0
100
AcDbBlockEnd
  0
BLOCK
  5
10C
330
10B
100
AcDbEntity
  8
0
100
AcDbBlockBegin
  2
SW_BROKEN_VIEW_0
 70
     0
 10
0.0
 20
0.0
 30
0.0
  3
SW_BROKEN_VIEW_0
  1

  0
ENDBLK
  5
10D
330
10B
100
AcDbEntity
  8
0
100
AcDbBlockEnd
  0
BLOCK
  5
129
330
128
100
AcDbEntity
  8
0
100
AcDbBlockBegin
  2
_D
 70
     0
 10
0.0
 20
0.0
 30
0.0
  3
_D
  1

  0
SOLID
  5
12B
330
128
100
AcDbEntity
  8
DIM
 62
     7
100
AcDbTrace
 10
322.3897134579
 20
300.3420064018
 30
0.0
 11
321.7647134579
 21
295.3420064018
 31
0.0
 12
323.0147134579
 22
295.3420064018
 32
0.0
 13
323.0147134579
 23
295.3420064018
 33
0.0
  0
SOLID
  5
12C
330
128
100
AcDbEntity
  8
DIM
 62
     7
100
AcDbTrace
 10
322.3897134579
 20
74.2251397726
 30
0.0
 11
323.0147134579
 21
79.2251397726
 31
0.0
 12
321.7647134579
 22
79.2251397726
 32
0.0
 13
321.7647134579
 23
79.2251397726
 33
0.0
  0
LINE
  5
12D
330
128
100
AcDbEntity
  8
DIM
 62
     7
100
AcDbLine
 10
284.9397134579
 20
300.3420064018
 30
0.0
 11
324.8897134579
 21
300.3420064018
 31
0.0
  0
LINE
  5
12E
330
128
100
AcDbEntity
  8
DIM
 62
     7
100
AcDbLine
 10
304.8897134579
 20
74.2251397726
 30
0.0
 11
324.8897134579
 21
74.2251397726
 31
0.0
  0
LINE
  5
12F
330
128
100
AcDbEntity
  8
DIM
 62
     7
100
AcDbLine
 10
322.3897134579
 20
300.3420064018
 30
0.0
 11
322.3897134579
 21
74.2251397726
 31
0.0
  0
MTEXT
  5
130
330
128
100
AcDbEntity
  8
DIM
 62
     7
100
AcDbMText
 10
314.3330405209
 20
180.1221145986
 30
0.0
 40
6.25
 41
0.0
 71
     1
 72
     1
  1
360
  7
SLDTEXTSTYLE1
 11
-7.044195017643634E-15
 21
1.0
 31
0.0
 73
     1
 44
1.0
  0
ENDBLK
  5
12A
330
128
100
AcDbEntity
  8
0
100
AcDbBlockEnd
  0
BLOCK
  5
133
330
132
100
AcDbEntity
  8
0
100
AcDbBlockBegin
  2
_D_1
 70
     0
 10
0.0
 20
0.0
 30
0.0
  3
_D_1
  1

  0
SOLID
  5
135
330
132
100
AcDbEntity
  8
DIM
 62
     7
100
AcDbTrace
 10
245.8397134579
 20
312.8420064018
 30
0.0
 11
250.8397134579
 21
312.2170064018
 31
0.0
 12
250.8397134579
 22
313.4670064018
 32
0.0
 13
250.8397134579
 23
313.4670064018
 33
0.0
  0
SOLID
  5
136
330
132
100
AcDbEntity
  8
DIM
 62
     7
100
AcDbTrace
 10
283.9397134579
 20
312.8420064018
 30
0.0
 11
278.9397134579
 21
313.4670064018
 31
0.0
 12
278.9397134579
 22
312.2170064018
 32
0.0
 13
278.9397134579
 23
312.2170064018
 33
0.0
  0
LINE
  5
137
330
132
100
AcDbEntity
  8
DIM
 62
     7
100
AcDbLine
 10
245.8397134579
 20
301.3420064018
 30
0.0
 11
245.8397134579
 21
315.3420064018
 31
0.0
  0
LINE
  5
138
330
132
100
AcDbEntity
  8
DIM
 62
     7
100
AcDbLine
 10
283.9397134579
 20
301.3420064018
 30
0.0
 11
283.9397134579
 21
315.3420064018
 31
0.0
  0
LINE
  5
139
330
132
100
AcDbEntity
  8
DIM
 62
     7
100
AcDbLine
 10
245.8397134579
 20
312.8420064018
 30
0.0
 11
283.9397134579
 21
312.8420064018
 31
0.0
  0
MTEXT
  5
13A
330
132
100
AcDbEntity
  8
DIM
 62
     7
100
AcDbMText
 10
251.9784719564
 20
320.8986791933
 30
0.0
 40
6.25
 41
0.0
 71
     1
 72
     1
  1
%%c
  7
SLDTEXTSTYLE1
 73
     1
 44
1.0
  0
MTEXT
  5
13B
330
132
100
AcDbEntity
  8
DIM
 62
     7
100
AcDbMText
 10
261.0908853469
 20
320.9160403558
 30
0.0
 40
6.25
 41
0.0
 71
     1
 72
     1
  1
38.1
  7
SLDTEXTSTYLE1
 73
     1
 44
1.0
  0
ENDBLK
  5
134
330
132
100
AcDbEntity
  8
0
100
AcDbBlockEnd
  0
BLOCK
  5
13E
330
13D
100
AcDbEntity
  8
0
100
AcDbBlockBegin
  2
_D_2
 70
     0
 10
0.0
 20
0.0
 30
0.0
  3
_D_2
  1

  0
SOLID
  5
140
330
13D
100
AcDbEntity
  8
DIM
 62
     7
100
AcDbTrace
 10
227.3897134579
 20
54.2251397726
 30
0.0
 11
232.3897134579
 21
53.6001397726
 31
0.0
 12
232.3897134579
 22
54.8501397726
 32
0.0
 13
232.3897134579
 23
54.8501397726
 33
0.0
  0
SOLID
  5
141
330
13D
100
AcDbEntity
  8
DIM
 62
     7
100
AcDbTrace
 10
302.3897134579
 20
54.2251397726
 30
0.0
 11
297.3897134579
 21
54.8501397726
 31
0.0
 12
297.3897134579
 22
53.6001397726
 32
0.0
 13
297.3897134579
 23
53.6001397726
 33
0.0
  0
LINE
  5
142
330
13D
100
AcDbEntity
  8
DIM
 62
     7
100
AcDbLine
 10
227.3897134579
 20
71.7251397726
 30
0.0
 11
227.3897134579
 21
51.7251397726
 31
0.0
  0
LINE
  5
143
330
13D
100
AcDbEntity
  8
DIM
 62
     7
100
AcDbLine
 10
302.3897134579
 20
71.7251397726
 30
0.0
 11
302.3897134579
 21
51.7251397726
 31
0.0
  0
LINE
  5
144
330
13D
100
AcDbEntity
  8
DIM
 62
     7
100
AcDbLine
 10
227.3897134579
 20
54.2251397726
 30
0.0
 11
302.3897134579
 21
54.2251397726
 31
0.0
  0
MTEXT
  5
145
330
13D
100
AcDbEntity
  8
DIM
 62
     7
100
AcDbMText
 10
255.5592012006
 20
62.2818125641
 30
0.0
 40
6.25
 41
0.0
 71
     1
 72
     1
  1
%%c
  7
SLDTEXTSTYLE1
 73
     1
 44
1.0
  0
MTEXT
  5
146
330
13D
100
AcDbEntity
  8
DIM
 62
     7
100
AcDbMText
 10
264.6716145912
 20
62.2991737265
 30
0.0
 40
6.25
 41
0.0
 71
     1
 72
     1
  1
75
  7
SLDTEXTSTYLE1
 73
     1
 44
1.0
  0
ENDBLK
  5
13F
330
13D
100
AcDbEntity
  8
0
100
AcDbBlockEnd
  0
BLOCK
  5
16B
330
16A
100
AcDbEntity
  8
0
100
AcDbBlockBegin
  2
_D_3
 70
     0
 10
0.0
 20
0.0
 30
0.0
  3
_D_3
  1

  0
SOLID
  5
16D
330
16A
100
AcDbEntity
  8
DIM
 62
     7
100
AcDbTrace
 10
214.8897134579
 20
383.485973391
 30
0.0
 11
214.2647134579
 21
378.485973391
 31
0.0
 12
215.5147134579
 22
378.485973391
 32
0.0
 13
215.5147134579
 23
378.485973391
 33
0.0
  0
SOLID
  5
16E
330
16A
100
AcDbEntity
  8
DIM
 62
     7
100
AcDbTrace
 10
214.8897134579
 20
358.485973391
 30
0.0
 11
215.5147134579
 21
363.485973391
 31
0.0
 12
214.2647134579
 22
363.485973391
 32
0.0
 13
214.2647134579
 23
363.485973391
 33
0.0
  0
LINE
  5
16F
330
16A
100
AcDbEntity
  8
DIM
 62
     7
100
AcDbLine
 10
287.3897134579
 20
383.485973391
 30
0.0
 11
212.3897134579
 21
383.485973391
 31
0.0
  0
LINE
  5
170
330
16A
100
AcDbEntity
  8
DIM
 62
     7
100
AcDbLine
 10
262.3897134579
 20
358.485973391
 30
0.0
 11
212.3897134579
 21
358.485973391
 31
0.0
  0
LINE
  5
171
330
16A
100
AcDbEntity
  8
DIM
 62
     7
100
AcDbLine
 10
214.8897134579
 20
383.485973391
 30
0.0
 11
214.8897134579
 21
358.485973391
 31
0.0
  0
MTEXT
  5
172
330
16A
100
AcDbEntity
  8
DIM
 62
     7
100
AcDbMText
 10
206.8330405209
 20
366.2116678289
 30
0.0
 40
6.25
 41
0.0
 71
     1
 72
     1
  1
25
  7
SLDTEXTSTYLE1
 11
-7.044195017643634E-15
 21
1.0
 31
0.0
 73
     1
 44
1.0
  0
ENDBLK
  5
16C
330
16A
100
AcDbEntity
  8
0
100
AcDbBlockEnd
  0
BLOCK
  5
175
330
174
100
AcDbEntity
  8
0
100
AcDbBlockBegin
  2
_D_4
 70
     0
 10
0.0
 20
0.0
 30
0.0
  3
_D_4
  1

  0
SOLID
  5
177
330
174
100
AcDbEntity
  8
DIM
 62
     7
100
AcDbTrace
 10
214.8897134579
 20
383.485973391
 30
0.0
 11
215.5147134579
 21
388.485973391
 31
0.0
 12
214.2647134579
 22
388.485973391
 32
0.0
 13
214.2647134579
 23
388.485973391
 33
0.0
  0
SOLID
  5
178
330
174
100
AcDbEntity
  8
DIM
 62
     7
100
AcDbTrace
 10
214.8897134579
 20
408.485973391
 30
0.0
 11
214.2647134579
 21
403.485973391
 31
0.0
 12
215.5147134579
 22
403.485973391
 32
0.0
 13
215.5147134579
 23
403.485973391
 33
0.0
  0
LINE
  5
179
330
174
100
AcDbEntity
  8
DIM
 62
     7
100
AcDbLine
 10
237.3897134579
 20
383.485973391
 30
0.0
 11
212.3897134579
 21
383.485973391
 31
0.0
  0
LINE
  5
17A
330
174
100
AcDbEntity
  8
DIM
 62
     7
100
AcDbLine
 10
262.3897134579
 20
408.485973391
 30
0.0
 11
212.3897134579
 21
408.485973391
 31
0.0
  0
LINE
  5
17B
330
174
100
AcDbEntity
  8
DIM
 62
     7
100
AcDbLine
 10
214.8897134579
 20
383.485973391
 30
0.0
 11
214.8897134579
 21
408.485973391
 31
0.0
  0
MTEXT
  5
17C
330
174
100
AcDbEntity
  8
DIM
 62
     7
100
AcDbMText
 10
206.8330405209
 20
391.2116678289
 30
0.0
 40
6.25
 41
0.0
 71
     1
 72
     1
  1
25
  7
SLDTEXTSTYLE1
 11
6.123233995736766E-17
 21
1.0
 31
0.0
 73
     1
 44
1.0
  0
ENDBLK
  5
176
330
174
100
AcDbEntity
  8
0
100
AcDbBlockEnd
  0
BLOCK
  5
17F
330
17E
100
AcDbEntity
  8
0
100
AcDbBlockBegin
  2
_D_5
 70
     0
 10
0.0
 20
0.0
 30
0.0
  3
_D_5
  1

  0
SOLID
  5
181
330
17E
100
AcDbEntity
  8
DIM
 62
     7
100
AcDbTrace
 10
239.8897134579
 20
430.2675300077
 30
0.0
 11
244.8897134579
 21
429.6425300077
 31
0.0
 12
244.8897134579
 22
430.8925300077
 32
0.0
 13
244.8897134579
 23
430.8925300077
 33
0.0
  0
SOLID
  5
182
330
17E
100
AcDbEntity
  8
DIM
 62
     7
100
AcDbTrace
 10
264.8897134579
 20
430.2675300077
 30
0.0
 11
259.8897134579
 21
430.8925300077
 31
0.0
 12
259.8897134579
 22
429.6425300077
 32
0.0
 13
259.8897134579
 23
429.6425300077
 33
0.0
  0
LINE
  5
183
330
17E
100
AcDbEntity
  8
DIM
 62
     7
100
AcDbLine
 10
239.8897134579
 20
392.485973391
 30
0.0
 11
239.8897134579
 21
432.7675300077
 31
0.0
  0
LINE
  5
184
330
17E
100
AcDbEntity
  8
DIM
 62
     7
100
AcDbLine
 10
264.8897134579
 20
417.485973391
 30
0.0
 11
264.8897134579
 21
432.7675300077
 31
0.0
  0
LINE
  5
185
330
17E
100
AcDbEntity
  8
DIM
 62
     7
100
AcDbLine
 10
239.8897134579
 20
430.2675300077
 30
0.0
 11
264.8897134579
 21
430.2675300077
 31
0.0
  0
MTEXT
  5
186
330
17E
100
AcDbEntity
  8
DIM
 62
     7
100
AcDbMText
 10
247.6154078959
 20
438.3242029447
 30
0.0
 40
6.25
 41
0.0
 71
     1
 72
     1
  1
25
  7
SLDTEXTSTYLE1
 73
     1
 44
1.0
  0
ENDBLK
  5
180
330
17E
100
AcDbEntity
  8
0
100
AcDbBlockEnd
  0
BLOCK
  5
189
330
188
100
AcDbEntity
  8
0
100
AcDbBlockBegin
  2
_D_6
 70
     0
 10
0.0
 20
0.0
 30
0.0
  3
_D_6
  1

  0
SOLID
  5
18B
330
188
100
AcDbEntity
  8
DIM
 62
     7
100
AcDbTrace
 10
264.8897134579
 20
430.2675300077
 30
0.0
 11
269.8897134579
 21
429.6425300077
 31
0.0
 12
269.8897134579
 22
430.8925300077
 32
0.0
 13
269.8897134579
 23
430.8925300077
 33
0.0
  0
SOLID
  5
18C
330
188
100
AcDbEntity
  8
DIM
 62
     7
100
AcDbTrace
 10
289.8897134579
 20
430.2675300077
 30
0.0
 11
284.8897134579
 21
430.8925300077
 31
0.0
 12
284.8897134579
 22
429.6425300077
 32
0.0
 13
284.8897134579
 23
429.6425300077
 33
0.0
  0
LINE
  5
18D
330
188
100
AcDbEntity
  8
DIM
 62
     7
100
AcDbLine
 10
264.8897134579
 20
417.485973391
 30
0.0
 11
264.8897134579
 21
432.7675300077
 31
0.0
  0
LINE
  5
18E
330
188
100
AcDbEntity
  8
DIM
 62
     7
100
AcDbLine
 10
289.8897134579
 20
392.485973391
 30
0.0
 11
289.8897134579
 21
432.7675300077
 31
0.0
  0
LINE
  5
18F
330
188
100
AcDbEntity
  8
DIM
 62
     7
100
AcDbLine
 10
264.8897134579
 20
430.2675300077
 30
0.0
 11
289.8897134579
 21
430.2675300077
 31
0.0
  0
MTEXT
  5
190
330
188
100
AcDbEntity
  8
DIM
 62
     7
100
AcDbMText
 10
272.6154078959
 20
438.3242029447
 30
0.0
 40
6.25
 41
0.0
 71
     1
 72
     1
  1
25
  7
SLDTEXTSTYLE1
 73
     1
 44
1.0
  0
ENDBLK
  5
18A
330
188
100
AcDbEntity
  8
0
100
AcDbBlockEnd
  0
BLOCK
  5
194
330
193
100
AcDbEntity
  8
0
100
AcDbBlockBegin
  2
_D_7
 70
     0
 10
0.0
 20
0.0
 30
0.0
  3
_D_7
  1

  0
SOLID
  5
196
330
193
100
AcDbEntity
  8
DIM
100
AcDbTrace
 10
294.6528531787
 20
386.235973391
 30
0.0
 11
299.2954801977
 21
388.1947075136
 31
0.0
 12
298.6704801977
 22
389.2772392683
 32
0.0
 13
298.6704801977
 23
389.2772392683
 33
0.0
  0
LINE
  5
197
330
193
100
AcDbEntity
  8
DIM
100
AcDbLine
 10
294.6528531787
 20
386.235973391
 30
0.0
 11
320.1524413787
 21
400.9581675024
 31
0.0
  0
LINE
  5
198
330
193
100
AcDbEntity
  8
DIM
100
AcDbLine
 10
320.1524413787
 20
400.9581675024
 30
0.0
 11
361.9319545701
 21
400.9581675024
 31
0.0
  0
MTEXT
  5
199
330
193
100
AcDbEntity
  8
DIM
100
AcDbMText
 10
323.2774413787
 20
418.6068541058
 30
0.0
 40
6.25
 41
0.0
 71
     1
 72
     1
  1
4 HOLES,
  7
SLDTEXTSTYLE1
 73
     1
 44
1.0
  0
MTEXT
  5
19A
330
193
100
AcDbEntity
  8
DIM
100
AcDbMText
 10
323.2774413787
 20
409.0148404394
 30
0.0
 40
6.25
 41
0.0
 71
     1
 72
     1
  1
 M6 CLR
  7
SLDTEXTSTYLE1
 73
     1
 44
1.0
  0
ENDBLK
  5
195
330
193
100
AcDbEntity
  8
0
100
AcDbBlockEnd
  0
BLOCK
  5
19C
330
19B
100
AcDbEntity
  8
0
100
AcDbBlockBegin
  2
SW_CENTERMARKSYMBOL_0
 70
     0
 10
0.0
 20
0.0
 30
0.0
  3
SW_CENTERMARKSYMBOL_0
  1

  0
LINE
  5
19E
330
19B
100
AcDbEntity
  8
DIM
 62
     0
100
AcDbLine
 10
0.0
 20
0.0
 30
0.0
 11
0.0
 21
1.0
 31
0.0
  0
LINE
  5
19F
330
19B
100
AcDbEntity
  8
DIM
 62
     0
100
AcDbLine
 10
0.0
 20
0.0
 30
0.0
 11
-1.0
 21
0.0
 31
0.0
  0
LINE
  5
1A0
330
19B
100
AcDbEntity
  8
DIM
 62
     0
100
AcDbLine
 10
0.0
 20
0.0
 30
0.0
 11
0.0
 21
-1.0
 31
0.0
  0
LINE
  5
1A1
330
19B
100
AcDbEntity
  8
DIM
 62
     0
100
AcDbLine
 10
0.0
 20
0.0
 30
0.0
 11
1.0
 21
0.0
 31
0.0
  0
LINE
  5
1A2
330
19B
100
AcDbEntity
  8
DIM
 62
     0
100
AcDbLine
 10
0.0
 20
2.0
 30
0.0
 11
0.0
 21
38.5
 31
0.0
  0
LINE
  5
1A3
330
19B
100
AcDbEntity
  8
DIM
 62
     0
100
AcDbLine
 10
-2.0
 20
0.0
 30
0.0
 11
-38.5
 21
0.0
 31
0.0
  0
LINE
  5
1A4
330
19B
100
AcDbEntity
  8
DIM
 62
     0
100
AcDbLine
 10
0.0
 20
-2.0
 30
0.0
 11
0.0
 21
-38.5
 31
0.0
  0
LINE
  5
1A5
330
19B
100
AcDbEntity
  8
DIM
 62
     0
100
AcDbLine
 10
2.0
 20
0.0
 30
0.0
 11
38.5
 21
0.0
 31
0.0
  0
ENDBLK
  5
19D
330
19B
100
AcDbEntity
  8
0
100
AcDbBlockEnd
  0
BLOCK
  5
1A8
330
1A7
100
AcDbEntity
  8
0
100
AcDbBlockBegin
  2
SW_CENTERMARKSYMBOL_1
 70
     0
 10
0.0
 20
0.0
 30
0.0
  3
SW_CENTERMARKSYMBOL_1
  1

  0
LINE
  5
1AA
330
1A7
100
AcDbEntity
  8
DIM
 62
     0
100
AcDbLine
 10
0.0
 20
0.0
 30
0.0
 11
0.0
 21
1.0
 31
0.0
  0
LINE
  5
1AB
330
1A7
100
AcDbEntity
  8
DIM
 62
     0
100
AcDbLine
 10
0.0
 20
0.0
 30
0.0
 11
-1.0
 21
0.0
 31
0.0
  0
LINE
  5
1AC
330
1A7
100
AcDbEntity
  8
DIM
 62
     0
100
AcDbLine
 10
0.0
 20
0.0
 30
0.0
 11
0.0
 21
-1.0
 31
0.0
  0
LINE
  5
1AD
330
1A7
100
AcDbEntity
  8
DIM
 62
     0
100
AcDbLine
 10
0.0
 20
0.0
 30
0.0
 11
1.0
 21
0.0
 31
0.0
  0
LINE
  5
1AE
330
1A7
100
AcDbEntity
  8
DIM
 62
     0
100
AcDbLine
 10
0.0
 20
2.0
 30
0.0
 11
0.0
 21
6.5
 31
0.0
  0
LINE
  5
1AF
330
1A7
100
AcDbEntity
  8
DIM
 62
     0
100
AcDbLine
 10
-2.0
 20
0.0
 30
0.0
 11
-6.5
 21
0.0
 31
0.0
  0
LINE
  5
1B0
330
1A7
100
AcDbEntity
  8
DIM
 62
     0
100
AcDbLine
 10
0.0
 20
-2.0
 30
0.0
 11
0.0
 21
-6.5
 31
0.0
  0
LINE
  5
1B1
330
1A7
100
AcDbEntity
  8
DIM
 62
     0
100
AcDbLine
 10
2.0
 20
0.0
 30
0.0
 11
6.5
 21
0.0
 31
0.0
  0
ENDBLK
  5
1A9
330
1A7
100
AcDbEntity
  8
0
100
AcDbBlockEnd
  0
BLOCK
  5
1B4
330
1B3
100
AcDbEntity
  8
0
100
AcDbBlockBegin
  2
SW_CENTERMARKSYMBOL_2
 70
     0
 10
0.0
 20
0.0
 30
0.0
  3
SW_CENTERMARKSYMBOL_2
  1

  0
LINE
  5
1B6
330
1B3
100
AcDbEntity
  8
DIM
 62
     0
100
AcDbLine
 10
0.0
 20
0.0
 30
0.0
 11
0.0
 21
1.0
 31
0.0
  0
LINE
  5
1B7
330
1B3
100
AcDbEntity
  8
DIM
 62
     0
100
AcDbLine
 10
0.0
 20
0.0
 30
0.0
 11
-1.0
 21
0.0
 31
0.0
  0
LINE
  5
1B8
330
1B3
100
AcDbEntity
  8
DIM
 62
     0
100
AcDbLine
 10
0.0
 20
0.0
 30
0.0
 11
0.0
 21
-1.0
 31
0.0
  0
LINE
  5
1B9
330
1B3
100
AcDbEntity
  8
DIM
 62
     0
100
AcDbLine
 10
0.0
 20
0.0
 30
0.0
 11
1.0
 21
0.0
 31
0.0
  0
LINE
  5
1BA
330
1B3
100
AcDbEntity
  8
DIM
 62
     0
100
AcDbLine
 10
0.0
 20
2.0
 30
0.0
 11
0.0
 21
6.5
 31
0.0
  0
LINE
  5
1BB
330
1B3
100
AcDbEntity
  8
DIM
 62
     0
100
AcDbLine
 10
-2.0
 20
0.0
 30
0.0
 11
-6.5
 21
0.0
 31
0.0
  0
LINE
  5
1BC
330
1B3
100
AcDbEntity
  8
DIM
 62
     0
100
AcDbLine
 10
0.0
 20
-2.0
 30
0.0
 11
0.0
 21
-6.5
 31
0.0
  0
LINE
  5
1BD
330
1B3
100
AcDbEntity
  8
DIM
 62
     0
100
AcDbLine
 10
2.0
 20
0.0
 30
0.0
 11
6.5
 21
0.0
 31
0.0
  0
ENDBLK
  5
1B5
330
1B3
100
AcDbEntity
  8
0
100
AcDbBlockEnd
  0
BLOCK
  5
1C0
330
1BF
100
AcDbEntity
  8
0
100
AcDbBlockBegin
  2
SW_CENTERMARKSYMBOL_3
 70
     0
 10
0.0
 20
0.0
 30
0.0
  3
SW_CENTERMARKSYMBOL_3
  1

  0
LINE
  5
1C2
330
1BF
100
AcDbEntity
  8
DIM
 62
     0
100
AcDbLine
 10
0.0
 20
0.0
 30
0.0
 11
0.0
 21
1.0
 31
0.0
  0
LINE
  5
1C3
330
1BF
100
AcDbEntity
  8
DIM
 62
     0
100
AcDbLine
 10
0.0
 20
0.0
 30
0.0
 11
-1.0
 21
0.0
 31
0.0
  0
LINE
  5
1C4
330
1BF
100
AcDbEntity
  8
DIM
 62
     0
100
AcDbLine
 10
0.0
 20
0.0
 30
0.0
 11
0.0
 21
-1.0
 31
0.0
  0
LINE
  5
1C5
330
1BF
100
AcDbEntity
  8
DIM
 62
     0
100
AcDbLine
 10
0.0
 20
0.0
 30
0.0
 11
1.0
 21
0.0
 31
0.0
  0
LINE
  5
1C6
330
1BF
100
AcDbEntity
  8
DIM
 62
     0
100
AcDbLine
 10
0.0
 20
2.0
 30
0.0
 11
0.0
 21
6.5
 31
0.0
  0
LINE
  5
1C7
330
1BF
100
AcDbEntity
  8
DIM
 62
     0
100
AcDbLine
 10
-2.0
 20
0.0
 30
0.0
 11
-6.5
 21
0.0
 31
0.0
  0
LINE
  5
1C8
330
1BF
100
AcDbEntity
  8
DIM
 62
     0
100
AcDbLine
 10
0.0
 20
-2.0
 30
0.0
 11
0.0
 21
-6.5
 31
0.0
  0
LINE
  5
1C9
330
1BF
100
AcDbEntity
  8
DIM
 62
     0
100
AcDbLine
 10
2.0
 20
0.0
 30
0.0
 11
6.5
 21
0.0
 31
0.0
  0
ENDBLK
  5
1C1
330
1BF
100
AcDbEntity
  8
0
100
AcDbBlockEnd
  0
BLOCK
  5
1CC
330
1CB
100
AcDbEntity
  8
0
100
AcDbBlockBegin
  2
SW_CENTERMARKSYMBOL_4
 70
     0
 10
0.0
 20
0.0
 30
0.0
  3
SW_CENTERMARKSYMBOL_4
  1

  0
LINE
  5
1CE
330
1CB
100
AcDbEntity
  8
DIM
 62
     0
100
AcDbLine
 10
0.0
 20
0.0
 30
0.0
 11
0.0
 21
1.0
 31
0.0
  0
LINE
  5
1CF
330
1CB
100
AcDbEntity
  8
DIM
 62
     0
100
AcDbLine
 10
0.0
 20
0.0
 30
0.0
 11
-1.0
 21
0.0
 31
0.0
  0
LINE
  5
1D0
330
1CB
100
AcDbEntity
  8
DIM
 62
     0
100
AcDbLine
 10
0.0
 20
0.0
 30
0.0
 11
0.0
 21
-1.0
 31
0.0
  0
LINE
  5
1D1
330
1CB
100
AcDbEntity
  8
DIM
 62
     0
100
AcDbLine
 10
0.0
 20
0.0
 30
0.0
 11
1.0
 21
0.0
 31
0.0
  0
LINE
  5
1D2
330
1CB
100
AcDbEntity
  8
DIM
 62
     0
100
AcDbLine
 10
0.0
 20
2.0
 30
0.0
 11
0.0
 21
6.5
 31
0.0
  0
LINE
  5
1D3
330
1CB
100
AcDbEntity
  8
DIM
 62
     0
100
AcDbLine
 10
-2.0
 20
0.0
 30
0.0
 11
-6.5
 21
0.0
 31
0.0
  0
LINE
  5
1D4
330
1CB
100
AcDbEntity
  8
DIM
 62
     0
100
AcDbLine
 10
0.0
 20
-2.0
 30
0.0
 11
0.0
 21
-6.5
 31
0.0
  0
LINE
  5
1D5
330
1CB
100
AcDbEntity
  8
DIM
 62
     0
100
AcDbLine
 10
2.0
 20
0.0
 30
0.0
 11
6.5
 21
0.0
 31
0.0
  0
ENDBLK
  5
1CD
330
1CB
100
AcDbEntity
  8
0
100
AcDbBlockEnd
  0
ENDSEC
  0
SECTION
  2
ENTITIES
  0
HATCH
  5
7B
330
1F
100
AcDbEntity
  8
DIM
 62
     7
100
AcDbHatch
 10
0.0
 20
0.0
 30
0.0
210
0.0
220
0.0
230
1.0
  2
SOLID
 70
     1
 71
     0
 91
        1
 92
        0
 93
       10
 72
     2
 10
481.3118979461079
 20
89.26611661844636
 40
7.614378489328119
 50
249.2112209143411
 51
308.9221353953365
 73
     1
 72
     1
 10
486.0957353491943
 20
83.34212645306167
 11
488.5077845022371
 21
81.2239094939558
 72
     1
 10
488.5077845022371
 20
81.2239094939558
 11
480.4824345693477
 21
73.4313102120498
 72
     1
 10
480.4824345693477
 20
73.4313102120498
 11
478.1304334306126
 21
75.4563028873248
 72
     1
 10
478.1304334306126
 20
75.4563028873248
 11
479.7080632316506
 21
76.99605386350235
 72
     1
 10
479.7080632316506
 20
76.99605386350235
 11
469.6850574561615
 21
85.70756346418906
 72
     2
 10
472.2224110300133
 20
88.57646440359034
 40
3.829981169514521
 50
131.490638092959
 51
229.7089352075139
 73
     0
 72
     1
 10
469.7456739112245
 20
91.49785602459045
 11
473.0122445484287
 21
94.65182371585924
 72
     1
 10
473.0122445484287
 20
94.65182371585924
 11
475.5502291669349
 21
92.41299396381477
 72
     2
 10
480.4834049253666
 20
88.2945122453278
 40
6.426360924278208
 50
140.1430462780656
 51
253.0452525074007
 73
     1
 97
        0
 75
     0
 76
     1
 98
        1
 10
0.0
 20
0.0
  0
HATCH
  5
7C
330
1F
100
AcDbEntity
  8
DIM
 62
     1
100
AcDbHatch
 10
0.0
 20
0.0
 30
0.0
210
0.0
220
0.0
230
1.0
  2
SOLID
 70
     1
 71
     0
 91
        1
 92
        0
 93
       10
 72
     2
 10
481.6448115435176
 20
87.38061752169128
 40
7.954091761319676
 50
234.1674444878508
 51
314.4407074583994
 73
     0
 72
     2
 10
482.4389522703288
 20
88.7326720353867
 40
6.443918720865625
 50
317.8184992995784
 51
398.056471157308
 73
     0
 72
     1
 10
487.5129168779475
 20
84.7603966620326
 11
489.9765391104045
 21
82.61365431230888
 72
     1
 10
489.9765391104045
 20
82.61365431230888
 11
493.0807423973889
 21
85.6247366683269
 72
     2
 10
490.8472615832337
 20
88.69460349787923
 40
3.796382343545663
 50
306.0377529468124
 51
403.4396461533871
 73
     1
 72
     1
 10
493.6038112449144
 20
91.3049584279746
 11
483.2869215990561
 21
100.2778990995595
 72
     1
 10
483.2869215990561
 20
100.2778990995595
 11
484.8475498538743
 21
101.8005451766528
 72
     1
 10
484.8475498538743
 20
101.8005451766528
 11
482.5212835784142
 21
103.8760257262641
 72
     1
 10
482.5212835784142
 20
103.8760257262641
 11
474.4323199573895
 21
96.05872510972884
 72
     1
 10
474.4323199573895
 20
96.05872510972884
 11
476.9883396507609
 21
93.82924879192684
 97
        0
 75
     0
 76
     1
 98
        1
 10
0.0
 20
0.0
  0
LINE
  5
7D
330
1F
100
AcDbEntity
  8
0
  6
Continuous
 62
     7
370
     0
100
AcDbLine
 10
419.6484437962
 20
44.4362981281
 30
0.0
 11
422.1484437962
 21
44.4362981281
 31
0.0
  0
LINE
  5
7E
330
1F
100
AcDbEntity
  8
0
  6
Continuous
 62
     7
370
     0
100
AcDbLine
 10
412.1484437962
 20
44.4362981281
 30
0.0
 11
418.3984437962
 21
44.4362981281
 31
0.0
  0
LINE
  5
7F
330
1F
100
AcDbEntity
  8
0
  6
Continuous
 62
     7
370
     0
100
AcDbLine
 10
453.3984437962
 20
38.1862981281
 30
0.0
 11
453.3984437962
 21
50.6862981281
 31
0.0
  0
LINE
  5
80
330
1F
100
AcDbEntity
  8
0
  6
Continuous
 62
     7
370
     0
100
AcDbLine
 10
435.8984437962
 20
40.6862981281
 30
0.0
 11
453.3984437962
 21
38.1862981281
 31
0.0
  0
LINE
  5
81
330
1F
100
AcDbEntity
  8
0
  6
Continuous
 62
     7
370
     0
100
AcDbLine
 10
420.8984437962
 20
41.9362981281
 30
0.0
 11
420.8984437962
 21
35.6862981281
 31
0.0
  0
LINE
  5
82
330
1F
100
AcDbEntity
  8
0
  6
Continuous
 62
     7
370
     0
100
AcDbLine
 10
453.3984437962
 20
50.6862981281
 30
0.0
 11
435.8984437962
 21
48.1862981281
 31
0.0
  0
LINE
  5
83
330
1F
100
AcDbEntity
  8
0
  6
Continuous
 62
     7
370
     0
100
AcDbLine
 10
433.3984437962
 20
44.4362981281
 30
0.0
 11
455.8984437962
 21
44.4362981281
 31
0.0
  0
LINE
  5
84
330
1F
100
AcDbEntity
  8
0
  6
Continuous
 62
     7
370
     0
100
AcDbLine
 10
420.8984437962
 20
45.6862981281
 30
0.0
 11
420.8984437962
 21
43.1862981281
 31
0.0
  0
LINE
  5
85
330
1F
100
AcDbEntity
  8
0
  6
Continuous
 62
     7
370
     0
100
AcDbLine
 10
423.3984437962
 20
44.4362981281
 30
0.0
 11
429.6484437962
 21
44.4362981281
 31
0.0
  0
LINE
  5
86
330
1F
100
AcDbEntity
  8
0
  6
Continuous
 62
     7
370
     0
100
AcDbLine
 10
420.8984437962
 20
53.1862981281
 30
0.0
 11
420.8984437962
 21
46.9362981281
 31
0.0
  0
LINE
  5
87
330
1F
100
AcDbEntity
  8
0
  6
Continuous
 62
     7
370
     0
100
AcDbLine
 10
435.8984437962
 20
48.1862981281
 30
0.0
 11
435.8984437962
 21
40.6862981281
 31
0.0
  0
LINE
  5
88
330
1F
100
AcDbEntity
  8
0
370
     0
100
AcDbLine
 10
488.5077845022
 20
81.223909494
 30
0.0
 11
480.4824345693
 21
73.431310212
 31
0.0
  0
LINE
  5
89
330
1F
100
AcDbEntity
  8
0
370
     0
100
AcDbLine
 10
480.4824345693
 20
73.431310212
 30
0.0
 11
478.1304334306
 21
75.4563028873
 31
0.0
  0
LINE
  5
8A
330
1F
100
AcDbEntity
  8
0
370
     0
100
AcDbLine
 10
478.1304334306
 20
75.4563028873
 30
0.0
 11
479.7080632317
 21
76.9960538635
 31
0.0
  0
LINE
  5
8B
330
1F
100
AcDbEntity
  8
0
370
     0
100
AcDbLine
 10
469.6850574562
 20
85.7075634642
 30
0.0
 11
479.7080632317
 21
76.9960538635
 31
0.0
  0
LINE
  5
8C
330
1F
100
AcDbEntity
  8
0
370
     0
100
AcDbLine
 10
473.0122445484
 20
94.6518237159
 30
0.0
 11
469.7456739112
 21
91.4978560246
 31
0.0
  0
LINE
  5
8D
330
1F
100
AcDbEntity
  8
0
370
     0
100
AcDbLine
 10
473.0122445484
 20
94.6518237159
 30
0.0
 11
475.5502291669
 21
92.4129939638
 31
0.0
  0
LINE
  5
8E
330
1F
100
AcDbEntity
  8
0
370
     0
100
AcDbLine
 10
486.0957353492
 20
83.3421264531
 30
0.0
 11
488.5077845022
 21
81.223909494
 31
0.0
  0
LINE
  5
8F
330
1F
100
AcDbEntity
  8
0
 62
     1
370
     0
100
AcDbLine
 10
476.9883396508
 20
93.8292487919
 30
0.0
 11
474.4323199574
 21
96.0587251097
 31
0.0
  0
LINE
  5
90
330
1F
100
AcDbEntity
  8
0
 62
     1
370
     0
100
AcDbLine
 10
474.4323199574
 20
96.0587251097
 30
0.0
 11
482.5212835784
 21
103.8760257263
 31
0.0
  0
LINE
  5
91
330
1F
100
AcDbEntity
  8
0
 62
     1
370
     0
100
AcDbLine
 10
482.5212835784
 20
103.8760257263
 30
0.0
 11
484.8475498539
 21
101.8005451767
 31
0.0
  0
LINE
  5
92
330
1F
100
AcDbEntity
  8
0
 62
     1
370
     0
100
AcDbLine
 10
484.8475498539
 20
101.8005451767
 30
0.0
 11
483.2869215991
 21
100.2778990996
 31
0.0
  0
LINE
  5
93
330
1F
100
AcDbEntity
  8
0
 62
     1
370
     0
100
AcDbLine
 10
483.2869215991
 20
100.2778990996
 30
0.0
 11
493.6038112449
 21
91.304958428
 31
0.0
  0
LINE
  5
94
330
1F
100
AcDbEntity
  8
0
 62
     1
370
     0
100
AcDbLine
 10
487.5129168779
 20
84.760396662
 30
0.0
 11
489.9765391104
 21
82.6136543123
 31
0.0
  0
LINE
  5
95
330
1F
100
AcDbEntity
  8
0
 62
     1
370
     0
100
AcDbLine
 10
489.9765391104
 20
82.6136543123
 30
0.0
 11
493.0807423974
 21
85.6247366683
 31
0.0
  0
LINE
  5
96
330
1F
100
AcDbEntity
  8
0
  6
Continuous
 62
     7
370
     0
100
AcDbLine
 10
464.2269913023
 20
32.7881160198
 30
0.0
 11
714.2269913023
 21
32.7881160198
 31
0.0
  0
LINE
  5
97
330
1F
100
AcDbEntity
  8
0
  6
Continuous
 62
     7
370
     0
100
AcDbLine
 10
464.2269913023
 20
45.2881160198
 30
0.0
 11
589.2269913023
 21
45.2881160198
 31
0.0
  0
LINE
  5
98
330
1F
100
AcDbEntity
  8
0
  6
Continuous
 62
     7
370
     0
100
AcDbLine
 10
464.2269913023
 20
57.7881160198
 30
0.0
 11
589.2269913023
 21
57.7881160198
 31
0.0
  0
LINE
  5
99
330
1F
100
AcDbEntity
  8
0
  6
Continuous
 62
     7
370
     0
100
AcDbLine
 10
464.2269913023
 20
70.2881160198
 30
0.0
 11
714.2269913023
 21
70.2881160198
 31
0.0
  0
LINE
  5
9A
330
1F
100
AcDbEntity
  8
0
  6
Continuous
 62
     7
370
     0
100
AcDbLine
 10
589.2269913023
 20
82.7881160198
 30
0.0
 11
714.2269913023
 21
82.7881160198
 31
0.0
  0
LINE
  5
9B
330
1F
100
AcDbEntity
  8
0
  6
Continuous
 62
     7
370
    15
100
AcDbLine
 10
589.2269913023
 20
45.2881160198
 30
0.0
 11
714.2269913023
 21
45.2881160198
 31
0.0
  0
LINE
  5
9C
330
1F
100
AcDbEntity
  8
0
  6
Continuous
 62
     7
370
     0
100
AcDbLine
 10
464.2269913023
 20
107.7881160198
 30
0.0
 11
714.2269913023
 21
107.7881160198
 31
0.0
  0
LINE
  5
9D
330
1F
100
AcDbEntity
  8
0
  6
Continuous
 62
     7
370
     0
100
AcDbLine
 10
628.0930441876
 20
20.2881160198
 30
0.0
 11
628.0930441876
 21
45.2881160198
 31
0.0
  0
LINE
  5
9E
330
1F
100
AcDbEntity
  8
0
  6
Continuous
 62
     7
370
     0
100
AcDbLine
 10
589.2269913023
 20
20.2881160198
 30
0.0
 11
589.2269913023
 21
107.7881160198
 31
0.0
  0
LINE
  5
9F
330
1F
100
AcDbEntity
  8
0
  6
Continuous
 62
     7
370
     0
100
AcDbLine
 10
628.0930441876
 20
70.2881160198
 30
0.0
 11
628.0930441876
 21
82.7881160198
 31
0.0
  0
LINE
  5
A0
330
1F
100
AcDbEntity
  8
0
  6
Continuous
 62
     7
370
     0
100
AcDbLine
 10
536.0410215883
 20
20.2881160198
 30
0.0
 11
536.0410215883
 21
70.2881160198
 31
0.0
  0
LINE
  5
A1
330
1F
100
AcDbEntity
  8
0
  6
Continuous
 62
     7
370
     0
100
AcDbLine
 10
499.4464718764
 20
20.2881160198
 30
0.0
 11
499.4464718764
 21
70.2881160198
 31
0.0
  0
LINE
  5
A2
330
1F
100
AcDbEntity
  8
0
  6
Continuous
 62
     7
370
     0
100
AcDbLine
 10
464.2269913023
 20
20.2881160198
 30
0.0
 11
464.2269913023
 21
107.7881160198
 31
0.0
  0
LINE
  5
A3
330
1F
100
AcDbEntity
  8
0
  6
Continuous
 62
     7
370
    15
100
AcDbLine
 10
21.7269913023
 20
261.8590924787
 30
0.0
 11
36.7269913023
 21
261.8590924787
 31
0.0
  0
LINE
  5
A4
330
1F
100
AcDbEntity
  8
0
  6
Continuous
 62
     7
370
    15
100
AcDbLine
 10
714.2269913023
 20
261.8590924787
 30
0.0
 11
699.2269913023
 21
261.8590924787
 31
0.0
  0
LINE
  5
A5
330
1F
100
AcDbEntity
  8
0
  6
Continuous
 62
     7
370
    15
100
AcDbLine
 10
367.9769913023
 20
20.2881160198
 30
0.0
 11
367.9769913023
 21
35.2881160198
 31
0.0
  0
LINE
  5
A6
330
1F
100
AcDbEntity
  8
0
  6
Continuous
 62
     7
370
    15
100
AcDbLine
 10
367.9769913023
 20
503.4300689377
 30
0.0
 11
367.9769913023
 21
488.4300689377
 31
0.0
  0
LINE
  5
A7
330
1F
100
AcDbEntity
  8
0
  6
Continuous
 62
     7
370
    15
100
AcDbLine
 10
108.3019913023
 20
503.4300689377
 30
0.0
 11
108.3019913023
 21
507.1800689377
 31
0.0
  0
LINE
  5
A8
330
1F
100
AcDbEntity
  8
0
  6
Continuous
 62
     7
370
    15
100
AcDbLine
 10
194.8769913023
 20
503.4300689377
 30
0.0
 11
194.8769913023
 21
507.1800689377
 31
0.0
  0
LINE
  5
A9
330
1F
100
AcDbEntity
  8
0
  6
Continuous
 62
     7
370
    15
100
AcDbLine
 10
281.4519913023
 20
503.4300689377
 30
0.0
 11
281.4519913023
 21
507.1800689377
 31
0.0
  0
LINE
  5
AA
330
1F
100
AcDbEntity
  8
0
  6
Continuous
 62
     7
370
    15
100
AcDbLine
 10
368.0269913023
 20
503.4300689377
 30
0.0
 11
368.0269913023
 21
507.1800689377
 31
0.0
  0
LINE
  5
AB
330
1F
100
AcDbEntity
  8
0
  6
Continuous
 62
     7
370
    15
100
AcDbLine
 10
454.6019913023
 20
503.4300689377
 30
0.0
 11
454.6019913023
 21
507.1800689377
 31
0.0
  0
LINE
  5
AC
330
1F
100
AcDbEntity
  8
0
  6
Continuous
 62
     7
370
    15
100
AcDbLine
 10
541.1769913023
 20
503.4300689377
 30
0.0
 11
541.1769913023
 21
507.1800689377
 31
0.0
  0
LINE
  5
AD
330
1F
100
AcDbEntity
  8
0
  6
Continuous
 62
     7
370
    15
100
AcDbLine
 10
627.7519913023
 20
503.4300689377
 30
0.0
 11
627.7519913023
 21
507.1800689377
 31
0.0
  0
LINE
  5
AE
330
1F
100
AcDbEntity
  8
0
  6
Continuous
 62
     7
370
    15
100
AcDbLine
 10
108.2894913023
 20
20.2881160198
 30
0.0
 11
108.2894913023
 21
16.5381160198
 31
0.0
  0
LINE
  5
AF
330
1F
100
AcDbEntity
  8
0
  6
Continuous
 62
     7
370
    15
100
AcDbLine
 10
194.8519913023
 20
20.2881160198
 30
0.0
 11
194.8519913023
 21
16.5381160198
 31
0.0
  0
LINE
  5
B0
330
1F
100
AcDbEntity
  8
0
  6
Continuous
 62
     7
370
    15
100
AcDbLine
 10
281.4144913023
 20
20.2881160198
 30
0.0
 11
281.4144913023
 21
16.5381160198
 31
0.0
  0
LINE
  5
B1
330
1F
100
AcDbEntity
  8
0
  6
Continuous
 62
     7
370
    15
100
AcDbLine
 10
367.9769913023
 20
20.2881160198
 30
0.0
 11
367.9769913023
 21
16.5381160198
 31
0.0
  0
LINE
  5
B2
330
1F
100
AcDbEntity
  8
0
  6
Continuous
 62
     7
370
    15
100
AcDbLine
 10
454.5394913023
 20
20.2881160198
 30
0.0
 11
454.5394913023
 21
16.5381160198
 31
0.0
  0
LINE
  5
B3
330
1F
100
AcDbEntity
  8
0
  6
Continuous
 62
     7
370
    15
100
AcDbLine
 10
541.1019913023
 20
20.2881160198
 30
0.0
 11
541.1019913023
 21
16.5381160198
 31
0.0
  0
LINE
  5
B4
330
1F
100
AcDbEntity
  8
0
  6
Continuous
 62
     7
370
     0
100
AcDbLine
 10
714.2269913023
 20
503.4300689377
 30
0.0
 11
21.7269913023
 21
503.4300689377
 31
0.0
  0
LINE
  5
B5
330
1F
100
AcDbEntity
  8
0
  6
Continuous
 62
     7
370
     0
100
AcDbLine
 10
714.2269913023
 20
20.2881160198
 30
0.0
 11
714.2269913023
 21
503.4300689377
 31
0.0
  0
LINE
  5
B6
330
1F
100
AcDbEntity
  8
0
  6
Continuous
 62
     7
370
     0
100
AcDbLine
 10
21.7269913023
 20
503.4300689377
 30
0.0
 11
21.7269913023
 21
20.2881160198
 31
0.0
  0
LINE
  5
B7
330
1F
100
AcDbEntity
  8
0
  6
Continuous
 62
     7
370
     0
100
AcDbLine
 10
21.7269913023
 20
20.2881160198
 30
0.0
 11
714.2269913023
 21
20.2881160198
 31
0.0
  0
LINE
  5
B8
330
1F
100
AcDbEntity
  8
0
  6
Continuous
 62
     7
370
    15
100
AcDbLine
 10
627.6644913023
 20
20.2881160198
 30
0.0
 11
627.6644913023
 21
16.5381160198
 31
0.0
  0
LINE
  5
B9
330
1F
100
AcDbEntity
  8
0
  6
Continuous
 62
     7
370
    15
100
AcDbLine
 10
21.7269913023
 20
100.8131160198
 30
0.0
 11
17.9769913023
 21
100.8131160198
 31
0.0
  0
LINE
  5
BA
330
1F
100
AcDbEntity
  8
0
  6
Continuous
 62
     7
370
    15
100
AcDbLine
 10
21.7269913023
 20
181.3381160198
 30
0.0
 11
17.9769913023
 21
181.3381160198
 31
0.0
  0
LINE
  5
BB
330
1F
100
AcDbEntity
  8
0
  6
Continuous
 62
     7
370
    15
100
AcDbLine
 10
21.7269913023
 20
261.8631160198
 30
0.0
 11
17.9769913023
 21
261.8631160198
 31
0.0
  0
LINE
  5
BC
330
1F
100
AcDbEntity
  8
0
  6
Continuous
 62
     7
370
    15
100
AcDbLine
 10
21.7269913023
 20
342.3881160198
 30
0.0
 11
17.9769913023
 21
342.3881160198
 31
0.0
  0
LINE
  5
BD
330
1F
100
AcDbEntity
  8
0
  6
Continuous
 62
     7
370
    15
100
AcDbLine
 10
21.7269913023
 20
422.9131160198
 30
0.0
 11
17.9769913023
 21
422.9131160198
 31
0.0
  0
LINE
  5
BE
330
1F
100
AcDbEntity
  8
0
  6
Continuous
 62
     7
370
    15
100
AcDbLine
 10
714.2269913023
 20
100.8131160198
 30
0.0
 11
717.9769913023
 21
100.8131160198
 31
0.0
  0
LINE
  5
BF
330
1F
100
AcDbEntity
  8
0
  6
Continuous
 62
     7
370
    15
100
AcDbLine
 10
714.2269913023
 20
181.3381160198
 30
0.0
 11
717.9769913023
 21
181.3381160198
 31
0.0
  0
LINE
  5
C0
330
1F
100
AcDbEntity
  8
0
  6
Continuous
 62
     7
370
    15
100
AcDbLine
 10
714.2269913023
 20
261.8631160198
 30
0.0
 11
717.9769913023
 21
261.8631160198
 31
0.0
  0
LINE
  5
C1
330
1F
100
AcDbEntity
  8
0
  6
Continuous
 62
     7
370
    15
100
AcDbLine
 10
714.2269913023
 20
342.3881160198
 30
0.0
 11
717.9769913023
 21
342.3881160198
 31
0.0
  0
LINE
  5
C2
330
1F
100
AcDbEntity
  8
0
  6
Continuous
 62
     7
370
    15
100
AcDbLine
 10
714.2269913023
 20
422.9131160198
 30
0.0
 11
717.9769913023
 21
422.9131160198
 31
0.0
  0
CIRCLE
  5
C3
330
1F
100
AcDbEntity
  8
0
  6
Continuous
 62
     7
370
     0
100
AcDbCircle
 10
420.8984437962
 20
44.4362981281
 30
0.0
 40
3.750000000000057
  0
CIRCLE
  5
C4
330
1F
100
AcDbEntity
  8
0
  6
Continuous
 62
     7
370
     0
100
AcDbCircle
 10
420.8984437962
 20
44.4362981281
 30
0.0
 40
6.250000000000057
  0
ARC
  5
C5
330
1F
100
AcDbEntity
  8
0
370
     0
100
AcDbCircle
 10
472.22241103
 20
88.5764644036
 30
0.0
 40
3.829981169514539
100
AcDbArc
 50
130.2910647925
 51
228.509361907
  0
ARC
  5
C6
330
1F
100
AcDbEntity
  8
0
370
     0
100
AcDbCircle
 10
480.4834049254
 20
88.2945122453
 30
0.0
 40
6.426360924278229
100
AcDbArc
 50
140.1430462781
 51
253.0452525074
  0
ARC
  5
C7
330
1F
100
AcDbEntity
  8
0
370
     0
100
AcDbCircle
 10
481.3118979461
 20
89.2661166184
 30
0.0
 40
7.614378489328128
100
AcDbArc
 50
249.2112209143
 51
308.9221353953
  0
ARC
  5
C8
330
1F
100
AcDbEntity
  8
0
 62
     1
370
     0
100
AcDbCircle
 10
490.8472615832
 20
88.6946034979
 30
0.0
 40
3.796382343545658
100
AcDbArc
 50
306.0377529468
 51
43.4396461534
  0
ARC
  5
C9
330
1F
100
AcDbEntity
  8
0
 62
     1
370
     0
100
AcDbCircle
 10
481.6448115435
 20
87.3806175217
 30
0.0
 40
7.954091761319694
100
AcDbArc
 50
45.5592925416
 51
125.8325555121
  0
ARC
  5
CA
330
1F
100
AcDbEntity
  8
0
 62
     1
370
     0
100
AcDbCircle
 10
482.4389522703
 20
88.7326720354
 30
0.0
 40
6.443918720865654
100
AcDbArc
 50
321.9435288427
 51
42.1815007004
  0
MTEXT
  5
CC
330
1F
100
AcDbEntity
  8
0
  6
Continuous
 62
     7
370
     0
100
AcDbMText
 10
413.8567127011
 20
33.0521100923
 30
0.0
 40
6.6145833333
 41
0.0
 71
     1
 72
     1
  1
UNIT:m/m
  7
SLDTEXTSTYLE1
 73
     1
 44
1.0
  0
INSERT
  5
D3
330
1F
100
AcDbEntity
  8
0
  6
Continuous
 62
     7
370
     0
100
AcDbBlockReference
  2
SW_NOTE_0
 10
30.5787690133
 20
484.7260760628
 30
0.0
  0
MTEXT
  5
D5
330
1F
100
AcDbEntity
  8
0
  6
Continuous
 62
     7
370
     0
100
AcDbMText
 10
496.8129734837
 20
101.1016935347
 30
0.0
 40
5.953125
 41
0.0
 71
     1
 72
     1
  1
Unice E-O Services Inc.
  7
SLDTEXTSTYLE2
 73
     1
 44
1.0
  0
MTEXT
  5
D6
330
1F
100
AcDbEntity
  8
0
  6
Continuous
 62
     7
370
     0
100
AcDbMText
 10
543.8976345373
 20
53.9667871277
 30
0.0
 40
4.6302083333
 41
0.0
 71
     1
 72
     1
  1
2010/12/30
  7
SLDTEXTSTYLE1
 73
     1
 44
1.0
  0
MTEXT
  5
D7
330
1F
100
AcDbEntity
  8
0
  6
Continuous
 62
     7
370
     0
100
AcDbMText
 10
631.5222456267
 20
42.1779443499
 30
0.0
 40
6.25
 41
0.0
 71
     1
 72
     1
  1
1:2.5
  7
SLDTEXTSTYLE1
 73
     1
 44
1.0
  0
MTEXT
  5
D8
330
1F
100
AcDbEntity
  8
0
  6
Continuous
 62
     7
370
     0
100
AcDbMText
 10
630.7688999962
 20
80.3797988594
 30
0.0
 40
6.25
 41
0.0
 71
     1
 72
     1
  1
07LSR-1M
  7
SLDTEXTSTYLE1
 73
     1
 44
1.0
  0
MTEXT
  5
D9
330
1F
100
AcDbEntity
  8
0
  6
Continuous
 62
     7
370
     0
100
AcDbMText
 10
630.7688999962
 20
95.2705294697
 30
0.0
 40
6.25
 41
0.0
 71
     1
 72
     1
  1
07LSR-1M
  7
SLDTEXTSTYLE1
 73
     1
 44
1.0
  0
MTEXT
  5
DA
330
1F
100
AcDbEntity
  8
0
  6
Continuous
 62
     7
370
     0
100
AcDbMText
 10
590.9804666966
 20
41.2661989321
 30
0.0
 40
5.2916666667
 41
0.0
 71
     1
 72
     1
  1
SCALE:
  7
SLDTEXTSTYLE1
 73
     1
 44
1.0
  0
MTEXT
  5
DB
330
1F
100
AcDbEntity
  8
0
  6
Continuous
 62
     7
370
     0
100
AcDbMText
 10
465.8340216973
 20
53.9667871277
 30
0.0
 40
4.6302083333
 41
0.0
 71
     1
 72
     1
  1
DRAWN
  7
SLDTEXTSTYLE1
 73
     1
 44
1.0
  0
MTEXT
  5
DC
330
1F
100
AcDbEntity
  8
0
  6
Continuous
 62
     7
370
     0
100
AcDbMText
 10
508.0570919842
 20
66.70802077
 30
0.0
 40
4.6302083333
 41
0.0
 71
     1
 72
     1
  1
NAME
  7
SLDTEXTSTYLE1
 73
     1
 44
1.0
  0
MTEXT
  5
DD
330
1F
100
AcDbEntity
  8
0
  6
Continuous
 62
     7
370
     0
100
AcDbMText
 10
552.1775389394
 20
66.70802077
 30
0.0
 40
4.6302083333
 41
0.0
 71
     1
 72
     1
  1
DATE
  7
SLDTEXTSTYLE1
 73
     1
 44
1.0
  0
MTEXT
  5
DE
330
1F
100
AcDbEntity
  8
0
  6
Continuous
 62
     7
370
     0
100
AcDbMText
 10
590.6890791613
 20
79.4680534415
 30
0.0
 40
5.2916666667
 41
0.0
 71
     1
 72
     1
  1
DWG. NO.
  7
SLDTEXTSTYLE1
 73
     1
 44
1.0
  0
MTEXT
  5
DF
330
1F
100
AcDbEntity
  8
0
  6
Continuous
 62
     7
370
     0
100
AcDbMText
 10
590.9074767721
 20
104.7101645608
 30
0.0
 40
5.2916666667
 41
0.0
 71
     1
 72
     1
  1
TITLE:
  7
SLDTEXTSTYLE1
 73
     1
 44
1.0
  0
MTEXT
  5
E0
330
1F
100
AcDbEntity
  8
0
  6
Continuous
 62
     7
370
     0
100
AcDbMText
 10
507.5785524505
 20
40.600947431
 30
0.0
 40
4.6302083333
 41
0.0
 71
     1
 72
     1
  1
Johnny
  7
SLDTEXTSTYLE1
 73
     1
 44
1.0
  0
MTEXT
  5
E1
330
1F
100
AcDbEntity
  8
0
  6
Continuous
 62
     7
370
     0
100
AcDbMText
 10
543.8976345373
 20
40.600947431
 30
0.0
 40
4.6302083333
 41
0.0
 71
     1
 72
     1
  1
2010/12/30
  7
SLDTEXTSTYLE1
 73
     1
 44
1.0
  0
MTEXT
  5
E2
330
1F
100
AcDbEntity
  8
0
  6
Continuous
 62
     7
370
     0
100
AcDbMText
 10
465.8340216973
 20
40.600947431
 30
0.0
 40
4.6302083333
 41
0.0
 71
     1
 72
     1
  1
ENG APPR.
  7
SLDTEXTSTYLE1
 73
     1
 44
1.0
  0
MTEXT
  5
E3
330
1F
100
AcDbEntity
  8
0
  6
Continuous
 62
     7
370
     0
100
AcDbMText
 10
590.9804666966
 20
29.2133473219
 30
0.0
 40
5.2916666667
 41
0.0
 71
     1
 72
     1
  1
REV
  7
SLDTEXTSTYLE1
 73
     1
 44
1.0
  0
MTEXT
  5
E4
330
1F
100
AcDbEntity
  8
0
  6
Continuous
 62
     7
370
     0
100
AcDbMText
 10
590.9074767721
 20
67.3732722711
 30
0.0
 40
5.2916666667
 41
0.0
 71
     1
 72
     1
  1
MATERIAL:
  7
SLDTEXTSTYLE1
 73
     1
 44
1.0
  0
MTEXT
  5
E5
330
1F
100
AcDbEntity
  8
0
  6
Continuous
 62
     7
370
     0
100
AcDbMText
 10
631.5222456267
 20
55.5437840467
 30
0.0
 40
6.25
 41
0.0
 71
     1
 72
     1
  1
N/A
  7
SLDTEXTSTYLE1
 73
     1
 44
1.0
  0
MTEXT
  5
E6
330
1F
100
AcDbEntity
  8
0
  6
Continuous
 62
     7
370
     0
100
AcDbMText
 10
66.5074828833
 20
511.1333791424
 30
0.0
 40
5.2916666667
 41
0.0
 71
     1
 72
     1
  1
1
  7
SLDTEXTSTYLE1
 73
     1
 44
1.0
  0
MTEXT
  5
E7
330
1F
100
AcDbEntity
  8
0
  6
Continuous
 62
     7
370
     0
100
AcDbMText
 10
151.792748931
 20
511.1333791424
 30
0.0
 40
5.2916666667
 41
0.0
 71
     1
 72
     1
  1
2
  7
SLDTEXTSTYLE1
 73
     1
 44
1.0
  0
MTEXT
  5
E8
330
1F
100
AcDbEntity
  8
0
  6
Continuous
 62
     7
370
     0
100
AcDbMText
 10
237.2524859765
 20
511.1333791424
 30
0.0
 40
5.2916666667
 41
0.0
 71
     1
 72
     1
  1
3
  7
SLDTEXTSTYLE1
 73
     1
 44
1.0
  0
MTEXT
  5
E9
330
1F
100
AcDbEntity
  8
0
  6
Continuous
 62
     7
370
     0
100
AcDbMText
 10
323.1333407128
 20
510.7481460911
 30
0.0
 40
5.2916666667
 41
0.0
 71
     1
 72
     1
  1
4
  7
SLDTEXTSTYLE1
 73
     1
 44
1.0
  0
MTEXT
  5
EA
330
1F
100
AcDbEntity
  8
0
  6
Continuous
 62
     7
370
     0
100
AcDbMText
 10
409.2558086599
 20
511.1333791424
 30
0.0
 40
5.2916666667
 41
0.0
 71
     1
 72
     1
  1
5
  7
SLDTEXTSTYLE1
 73
     1
 44
1.0
  0
MTEXT
  5
EB
330
1F
100
AcDbEntity
  8
0
  6
Continuous
 62
     7
370
     0
100
AcDbMText
 10
496.5955426038
 20
511.1333791424
 30
0.0
 40
5.2916666667
 41
0.0
 71
     1
 72
     1
  1
6
  7
SLDTEXTSTYLE1
 73
     1
 44
1.0
  0
MTEXT
  5
EC
330
1F
100
AcDbEntity
  8
0
  6
Continuous
 62
     7
370
     0
100
AcDbMText
 10
585.9076643516
 20
511.1333791424
 30
0.0
 40
5.2916666667
 41
0.0
 71
     1
 72
     1
  1
7
  7
SLDTEXTSTYLE1
 73
     1
 44
1.0
  0
MTEXT
  5
ED
330
1F
100
AcDbEntity
  8
0
  6
Continuous
 62
     7
370
     0
100
AcDbMText
 10
665.6969551234
 20
511.1333791424
 30
0.0
 40
5.2916666667
 41
0.0
 71
     1
 72
     1
  1
8
  7
SLDTEXTSTYLE1
 73
     1
 44
1.0
  0
MTEXT
  5
EE
330
1F
100
AcDbEntity
  8
0
  6
Continuous
 62
     7
370
     0
100
AcDbMText
 10
13.3920591386
 20
464.5282557198
 30
0.0
 40
5.2916666667
 41
0.0
 71
     1
 72
     1
  1
A
  7
SLDTEXTSTYLE1
 73
     1
 44
1.0
  0
MTEXT
  5
EF
330
1F
100
AcDbEntity
  8
0
  6
Continuous
 62
     7
370
     0
100
AcDbMText
 10
13.9776079578
 20
385.7482620595
 30
0.0
 40
5.2916666667
 41
0.0
 71
     1
 72
     1
  1
B
  7
SLDTEXTSTYLE1
 73
     1
 44
1.0
  0
MTEXT
  5
F0
330
1F
100
AcDbEntity
  8
0
  6
Continuous
 62
     7
370
     0
100
AcDbMText
 10
13.9776079578
 20
303.1858785575
 30
0.0
 40
5.2916666667
 41
0.0
 71
     1
 72
     1
  1
C
  7
SLDTEXTSTYLE1
 73
     1
 44
1.0
  0
MTEXT
  5
F1
330
1F
100
AcDbEntity
  8
0
  6
Continuous
 62
     7
370
     0
100
AcDbMText
 10
13.9776079578
 20
221.8633050552
 30
0.0
 40
5.2916666667
 41
0.0
 71
     1
 72
     1
  1
D
  7
SLDTEXTSTYLE1
 73
     1
 44
1.0
  0
MTEXT
  5
F2
330
1F
100
AcDbEntity
  8
0
  6
Continuous
 62
     7
370
     0
100
AcDbMText
 10
13.9776079578
 20
143.8897122993
 30
0.0
 40
5.2916666667
 41
0.0
 71
     1
 72
     1
  1
E
  7
SLDTEXTSTYLE1
 73
     1
 44
1.0
  0
MTEXT
  5
F3
330
1F
100
AcDbEntity
  8
0
  6
Continuous
 62
     7
370
     0
100
AcDbMText
 10
13.9776079578
 20
63.923553063
 30
0.0
 40
5.2916666667
 41
0.0
 71
     1
 72
     1
  1
F
  7
SLDTEXTSTYLE1
 73
     1
 44
1.0
  0
MTEXT
  5
F4
330
1F
100
AcDbEntity
  8
0
  6
Continuous
 62
     7
370
     0
100
AcDbMText
 10
665.4646542409
 20
16.5590559908
 30
0.0
 40
5.2916666667
 41
0.0
 71
     1
 72
     1
  1
8
  7
SLDTEXTSTYLE1
 73
     1
 44
1.0
  0
MTEXT
  5
F5
330
1F
100
AcDbEntity
  8
0
  6
Continuous
 62
     7
370
     0
100
AcDbMText
 10
585.6753634691
 20
16.5590559908
 30
0.0
 40
5.2916666667
 41
0.0
 71
     1
 72
     1
  1
7
  7
SLDTEXTSTYLE1
 73
     1
 44
1.0
  0
MTEXT
  5
F6
330
1F
100
AcDbEntity
  8
0
  6
Continuous
 62
     7
370
     0
100
AcDbMText
 10
496.3632417212
 20
16.5590559908
 30
0.0
 40
5.2916666667
 41
0.0
 71
     1
 72
     1
  1
6
  7
SLDTEXTSTYLE1
 73
     1
 44
1.0
  0
MTEXT
  5
F7
330
1F
100
AcDbEntity
  8
0
  6
Continuous
 62
     7
370
     0
100
AcDbMText
 10
409.0235077774
 20
16.5590559908
 30
0.0
 40
5.2916666667
 41
0.0
 71
     1
 72
     1
  1
5
  7
SLDTEXTSTYLE1
 73
     1
 44
1.0
  0
MTEXT
  5
F8
330
1F
100
AcDbEntity
  8
0
  6
Continuous
 62
     7
370
     0
100
AcDbMText
 10
322.9010398302
 20
16.1738229395
 30
0.0
 40
5.2916666667
 41
0.0
 71
     1
 72
     1
  1
4
  7
SLDTEXTSTYLE1
 73
     1
 44
1.0
  0
MTEXT
  5
F9
330
1F
100
AcDbEntity
  8
0
  6
Continuous
 62
     7
370
     0
100
AcDbMText
 10
237.020185094
 20
16.5590559908
 30
0.0
 40
5.2916666667
 41
0.0
 71
     1
 72
     1
  1
3
  7
SLDTEXTSTYLE1
 73
     1
 44
1.0
  0
MTEXT
  5
FA
330
1F
100
AcDbEntity
  8
0
  6
Continuous
 62
     7
370
     0
100
AcDbMText
 10
151.5604480484
 20
16.5590559908
 30
0.0
 40
5.2916666667
 41
0.0
 71
     1
 72
     1
  1
2
  7
SLDTEXTSTYLE1
 73
     1
 44
1.0
  0
MTEXT
  5
FB
330
1F
100
AcDbEntity
  8
0
  6
Continuous
 62
     7
370
     0
100
AcDbMText
 10
66.2751820007
 20
16.5590559908
 30
0.0
 40
5.2916666667
 41
0.0
 71
     1
 72
     1
  1
1
  7
SLDTEXTSTYLE1
 73
     1
 44
1.0
  0
MTEXT
  5
FC
330
1F
100
AcDbEntity
  8
0
  6
Continuous
 62
     7
370
     0
100
AcDbMText
 10
717.7559615361
 20
466.6062272729
 30
0.0
 40
5.2916666667
 41
0.0
 71
     1
 72
     1
  1
A
  7
SLDTEXTSTYLE1
 73
     1
 44
1.0
  0
MTEXT
  5
FD
330
1F
100
AcDbEntity
  8
0
  6
Continuous
 62
     7
370
     0
100
AcDbMText
 10
718.3415103553
 20
387.8262336126
 30
0.0
 40
5.2916666667
 41
0.0
 71
     1
 72
     1
  1
B
  7
SLDTEXTSTYLE1
 73
     1
 44
1.0
  0
MTEXT
  5
FE
330
1F
100
AcDbEntity
  8
0
  6
Continuous
 62
     7
370
     0
100
AcDbMText
 10
718.3415103553
 20
305.2638501106
 30
0.0
 40
5.2916666667
 41
0.0
 71
     1
 72
     1
  1
C
  7
SLDTEXTSTYLE1
 73
     1
 44
1.0
  0
MTEXT
  5
FF
330
1F
100
AcDbEntity
  8
0
  6
Continuous
 62
     7
370
     0
100
AcDbMText
 10
718.3415103553
 20
223.9412766083
 30
0.0
 40
5.2916666667
 41
0.0
 71
     1
 72
     1
  1
D
  7
SLDTEXTSTYLE1
 73
     1
 44
1.0
  0
MTEXT
  5
100
330
1F
100
AcDbEntity
  8
0
  6
Continuous
 62
     7
370
     0
100
AcDbMText
 10
718.3415103553
 20
145.9676838524
 30
0.0
 40
5.2916666667
 41
0.0
 71
     1
 72
     1
  1
E
  7
SLDTEXTSTYLE1
 73
     1
 44
1.0
  0
MTEXT
  5
101
330
1F
100
AcDbEntity
  8
0
  6
Continuous
 62
     7
370
     0
100
AcDbMText
 10
718.3415103553
 20
66.0015246161
 30
0.0
 40
5.2916666667
 41
0.0
 71
     1
 72
     1
  1
F
  7
SLDTEXTSTYLE1
 73
     1
 44
1.0
  0
MTEXT
  5
102
330
1F
100
AcDbEntity
  8
0
  6
Continuous
 62
     7
370
     0
100
AcDbMText
 10
507.8882822005
 20
53.9667871277
 30
0.0
 40
4.6302083333
 41
0.0
 71
     1
 72
     1
  1
Eric
  7
SLDTEXTSTYLE1
 73
     1
 44
1.0
  0
MTEXT
  5
104
330
1F
100
AcDbEntity
  8
0
  6
Continuous
 62
     7
370
     0
100
AcDbMText
 10
632.1205599113
 20
30.5256211399
 30
0.0
 40
6.6145833333
 41
0.0
 71
     1
 72
     1
  1
0
  7
SLDTEXTSTYLE3
 73
     1
 44
1.0
  0
INSERT
  5
10A
330
1F
100
AcDbEntity
  8
DIM
 62
     7
100
AcDbBlockReference
  2
SW_NOTE_1
 10
497.6432787377
 20
83.465519663
 30
0.0
  0
INSERT
  5
10E
330
1F
100
AcDbEntity
  8
0
  6
Continuous
 62
     7
100
AcDbBlockReference
  2
SW_BROKEN_VIEW_0
 10
0.0
 20
0.0
 30
0.0
  0
LINE
  5
10F
330
1F
100
AcDbEntity
  8
0
  6
Continuous
 62
     7
370
    15
100
AcDbLine
 10
283.9397136934
 20
298.842003064
 30
0.0
 11
282.4397143788
 21
300.3420135544
 31
0.0
  0
LINE
  5
110
330
1F
100
AcDbEntity
  8
0
  6
Continuous
 62
     7
370
    15
100
AcDbLine
 10
247.339712537
 20
300.3420135544
 30
0.0
 11
245.8397132225
 21
298.842003064
 31
0.0
  0
LINE
  5
111
330
1F
100
AcDbEntity
  8
0
  6
Continuous
 62
     7
370
    15
100
AcDbLine
 10
283.9397136934
 20
189.9937665627
 30
0.0
 11
283.9397136934
 21
298.842003064
 31
0.0
  0
LINE
  5
112
330
1F
100
AcDbEntity
  8
0
  6
Continuous
 62
     7
370
    15
100
AcDbLine
 10
245.8397132225
 20
298.842003064
 30
0.0
 11
245.8397132225
 21
194.3184337185
 31
0.0
  0
LINE
  5
113
330
1F
100
AcDbEntity
  8
0
  6
Continuous
 62
     7
370
    15
100
AcDbLine
 10
248.2190710373
 20
300.3420135544
 30
0.0
 11
247.339712537
 21
300.3420135544
 31
0.0
  0
LINE
  5
114
330
1F
100
AcDbEntity
  8
0
  6
Continuous
 62
     7
370
    15
100
AcDbLine
 10
282.4397143788
 20
300.3420135544
 30
0.0
 11
248.2190710373
 21
300.3420135544
 31
0.0
  0
LINE
  5
115
330
1F
100
AcDbEntity
  8
0
  6
Continuous
 62
     7
370
    15
100
AcDbLine
 10
246.7942294545
 20
298.842003064
 30
0.0
 11
245.8397132225
 21
298.842003064
 31
0.0
  0
LINE
  5
116
330
1F
100
AcDbEntity
  8
0
  6
Continuous
 62
     7
370
    15
100
AcDbLine
 10
283.9397136934
 20
298.842003064
 30
0.0
 11
246.7942294545
 21
298.842003064
 31
0.0
  0
LINE
  5
117
330
1F
100
AcDbEntity
  8
0
  6
Continuous
 62
     7
370
    15
100
AcDbLine
 10
283.9397136934
 20
90.2251352426
 30
0.0
 11
283.9397136934
 21
184.9937637207
 31
0.0
  0
LINE
  5
118
330
1F
100
AcDbEntity
  8
0
  6
Continuous
 62
     7
370
    15
100
AcDbLine
 10
245.8397132225
 20
189.3184308764
 30
0.0
 11
245.8397132225
 21
90.2251352426
 31
0.0
  0
LINE
  5
119
330
1F
100
AcDbEntity
  8
0
  6
Continuous
 62
     7
370
    15
100
AcDbLine
 10
302.389714948
 20
74.22513262
 30
0.0
 11
302.389714948
 21
85.225140011
 31
0.0
  0
LINE
  5
11A
330
1F
100
AcDbEntity
  8
0
  6
Continuous
 62
     7
370
    15
100
AcDbLine
 10
227.3897119678
 20
85.225140011
 30
0.0
 11
227.3897119678
 21
74.22513262
 31
0.0
  0
LINE
  5
11B
330
1F
100
AcDbEntity
  8
0
  6
Continuous
 62
     7
370
    15
100
AcDbLine
 10
284.4071985103
 20
90.0852729436
 30
0.0
 11
283.889712847
 21
90.2251352426
 31
0.0
  0
LINE
  5
11C
330
1F
100
AcDbEntity
  8
0
  6
Continuous
 62
     7
370
    15
100
AcDbLine
 10
302.389714948
 20
85.225140011
 30
0.0
 11
295.3859736092
 21
87.1180494186
 31
0.0
  0
LINE
  5
11D
330
1F
100
AcDbEntity
  8
0
  6
Continuous
 62
     7
370
    15
100
AcDbLine
 10
234.4089542396
 20
87.1222366449
 30
0.0
 11
227.3897119678
 21
85.225140011
 31
0.0
  0
LINE
  5
11E
330
1F
100
AcDbEntity
  8
0
  6
Continuous
 62
     7
370
    15
100
AcDbLine
 10
245.8897140689
 20
90.2251352426
 30
0.0
 11
245.3819439627
 21
90.0879104492
 31
0.0
  0
LINE
  5
11F
330
1F
100
AcDbEntity
  8
0
  6
Continuous
 62
     7
370
    15
100
AcDbLine
 10
246.7942294545
 20
90.2251352426
 30
0.0
 11
245.8397132225
 21
90.2251352426
 31
0.0
  0
LINE
  5
120
330
1F
100
AcDbEntity
  8
0
  6
Continuous
 62
     7
370
    15
100
AcDbLine
 10
283.9397136934
 20
90.2251352426
 30
0.0
 11
246.7942294545
 21
90.2251352426
 31
0.0
  0
LINE
  5
121
330
1F
100
AcDbEntity
  8
0
  6
Continuous
 62
     7
370
    15
100
AcDbLine
 10
302.389714948
 20
85.225140011
 30
0.0
 11
227.3897119678
 21
85.225140011
 31
0.0
  0
LINE
  5
122
330
1F
100
AcDbEntity
  8
0
  6
Continuous
 62
     7
370
    15
100
AcDbLine
 10
302.389714948
 20
74.22513262
 30
0.0
 11
227.3897119678
 21
74.22513262
 31
0.0
  0
SPLINE
  5
123
330
1F
100
AcDbEntity
  8
0
  6
Continuous
 62
     7
370
    15
100
AcDbSpline
210
0.0
220
0.0
230
1.0
 70
     8
 71
     3
 72
    36
 73
    32
 74
     0
 42
0.000000001
 43
0.00000001
 40
0.0
 40
0.0
 40
0.0
 40
0.0
 40
0.0057230084052523
 40
0.0139501206028716
 40
0.0250534755244234
 40
0.0569572771457436
 40
0.0777329360159221
 40
0.1007300206457474
 40
0.1551737665889517
 40
0.1863979584847164
 40
0.2192191887328823
 40
0.2912551552592224
 40
0.3300849352301403
 40
0.3697057175397881
 40
0.4525856858341978
 40
0.4953357183520136
 40
0.5376709562318558
 40
0.6226793623631589
 40
0.6647503095918484
 40
0.7047384386624225
 40
0.7435640467871721
 40
0.7814608428392905
 40
0.8175210749414321
 40
0.8496986378351932
 40
0.9073725018300532
 40
0.9321700549600127
 40
0.9520768255759215
 40
0.9827314350330039
 40
0.992902320715988
 40
0.9988204887918053
 40
1.0
 40
1.0
 40
1.0
 40
1.0
 10
295.3859270430694
 20
87.11787060466624
 30
0.0
 10
295.3647346835602
 20
87.1225675232113
 30
0.0
 10
295.3130772422149
 20
87.13401649821283
 30
0.0
 10
295.2203175601252
 20
87.1546393658417
 30
0.0
 10
295.0306426211088
 20
87.19689515244721
 30
0.0
 10
294.7945873084416
 20
87.24984029207113
 30
0.0
 10
294.5146295605738
 20
87.31316946067443
 30
0.0
 10
294.1514044584926
 20
87.39587591641042
 30
0.0
 10
293.7497801002037
 20
87.48844060450843
 30
0.0
 10
293.3121679643786
 20
87.59075707236197
 30
0.0
 10
292.8098546017515
 20
87.70941991986984
 30
0.0
 10
292.2799904050436
 20
87.83692390364186
 30
0.0
 10
291.7256568125487
 20
87.9729385764296
 30
0.0
 10
291.1318833783522
 20
88.12079806416664
 30
0.0
 10
290.5245146044712
 20
88.27558373896603
 30
0.0
 10
289.9081516108887
 20
88.43669582399585
 30
0.0
 10
289.2847079226671
 20
88.60261512841367
 30
0.0
 10
288.6649013072271
 20
88.77216760966331
 30
0.0
 10
288.0549947039272
 20
88.94406318494481
 30
0.0
 10
287.614338405704
 20
89.07073588502949
 30
0.0
 10
287.1895620079949
 20
89.19532139981563
 30
0.0
 10
286.7797427949374
 20
89.31794645368932
 30
0.0
 10
286.3947302917827
 20
89.43549366135252
 30
0.0
 10
285.9387461368809
 20
89.57744244265164
 30
0.0
 10
285.5245179217587
 20
89.70979050602845
 30
0.0
 10
285.1555537338914
 20
89.83082197470225
 30
0.0
 10
284.8843403171274
 20
89.92104603610392
 30
0.0
 10
284.666139205509
 20
89.99487056111461
 30
0.0
 10
284.4984545019325
 20
90.05244217523177
 30
0.0
 10
284.436530314899
 20
90.07378016293903
 30
0.0
 10
284.4110956262491
 20
90.08260021062418
 30
0.0
 10
284.4068688220869
 20
90.08406594959116
 30
0.0
  0
SPLINE
  5
124
330
1F
100
AcDbEntity
  8
0
  6
Continuous
 62
     7
370
    15
100
AcDbSpline
210
0.0
220
0.0
230
1.0
 70
    11
 71
     3
 72
    26
 73
    22
 74
     0
 42
0.000000001
 43
0.00000001
 40
0.0
 40
0.0
 40
0.0
 40
0.0
 40
0.033835479355643
 40
0.0827687329997337
 40
0.1116617302148501
 40
0.1341626128349563
 40
0.1739560700875987
 40
0.2329758176749557
 40
0.3048853372949242
 40
0.3817055330750979
 40
0.4557643707737348
 40
0.52030923980446
 40
0.5698095140973279
 40
0.6012219889715719
 40
0.622074960039632
 40
0.656782194532331
 40
0.7122791983449553
 40
0.7832050774065906
 40
0.8597411132864101
 40
0.9334672711801448
 40
1.0
 40
1.0
 40
1.0
 40
1.0
 10
268.0944256364892
 20
89.7443939801774
 30
0.0
 10
268.3553200359915
 20
89.6766330090254
 30
0.0
 10
268.9935228723265
 20
89.51087535357354
 30
0.0
 10
269.7636601084204
 20
89.20281830798363
 30
0.0
 10
270.5194292091549
 20
88.6252935394454
 30
0.0
 10
270.1312975910313
 20
87.8553515389879
 30
0.0
 10
269.1764146825168
 20
87.5830289658306
 30
0.0
 10
267.8798827113434
 20
87.2754254401825
 30
0.0
 10
266.237548439135
 20
87.13570162589798
 30
0.0
 10
264.4801708184123
 20
87.09812925865805
 30
0.0
 10
262.7890927643712
 20
87.18901550272905
 30
0.0
 10
261.2935717797915
 20
87.38405950387781
 30
0.0
 10
260.2386696524944
 20
87.68859008540704
 30
0.0
 10
259.3976644407977
 20
88.05379286861182
 30
0.0
 10
259.4114824389055
 20
88.86443159313094
 30
0.0
 10
260.2870164500268
 20
89.30287121607317
 30
0.0
 10
261.4358742326235
 20
89.73062024514235
 30
0.0
 10
263.0384070041122
 20
90.01318882425197
 30
0.0
 10
264.775118542449
 20
90.11975396662616
 30
0.0
 10
266.4910239628268
 20
90.04977932058438
 30
0.0
 10
267.5785503266132
 20
89.84264806067502
 30
0.0
 10
268.0944256364892
 20
89.7443939801774
 30
0.0
  0
SPLINE
  5
125
330
1F
100
AcDbEntity
  8
0
  6
Continuous
 62
     7
370
    15
100
AcDbSpline
210
0.0
220
0.0
230
1.0
 70
     8
 71
     3
 72
    27
 73
    23
 74
     0
 42
0.000000001
 43
0.00000001
 40
0.0
 40
0.0
 40
0.0
 40
0.0
 40
0.0006098236415058
 40
0.0092404480498055
 40
0.0300661623108249
 40
0.0634827031196617
 40
0.1077348677870645
 40
0.163078330320589
 40
0.2282344049068761
 40
0.3023608023727847
 40
0.3827853361197155
 40
0.4688495295163969
 40
0.554829724128103
 40
0.6418624909374067
 40
0.7217988268530096
 40
0.7976918609733372
 40
0.8613375845621344
 40
0.9163935851798783
 40
0.9568751329957629
 40
0.9855474439715985
 40
0.9996364427534483
 40
1.0
 40
1.0
 40
1.0
 40
1.0
 10
245.3820892490039
 20
90.0873740073762
 30
0.0
 10
245.3844331221709
 20
90.08818284523566
 30
0.0
 10
245.4199490267056
 20
90.10043888733117
 30
0.0
 10
245.1861348734066
 20
90.01963721442254
 30
0.0
 10
245.064998257429
 20
89.97860816763716
 30
0.0
 10
244.6551268245175
 20
89.84049935513812
 30
0.0
 10
244.1983383485141
 20
89.69146603615069
 30
0.0
 10
243.5937385046372
 20
89.49937324333737
 30
0.0
 10
242.8903720086773
 20
89.28400280130859
 30
0.0
 10
242.0895986131352
 20
89.04766391616175
 30
0.0
 10
241.2113167963662
 20
88.79842552811841
 30
0.0
 10
240.2868083874638
 20
88.54599493492037
 30
0.0
 10
239.3358510133714
 20
88.29581957455258
 30
0.0
 10
238.405326732864
 20
88.05941013893519
 30
0.0
 10
237.5102568954964
 20
87.8390848490258
 30
0.0
 10
236.7001345173531
 20
87.64510415320579
 30
0.0
 10
235.9809481607314
 20
87.47693423243331
 30
0.0
 10
235.392060180172
 20
87.34185665047286
 30
0.0
 10
234.932215717616
 20
87.23794464502741
 30
0.0
 10
234.6238736057761
 20
87.16903593566555
 30
0.0
 10
234.4641000852092
 20
87.13348739570232
 30
0.0
 10
234.4105399746147
 20
87.12164058438583
 30
0.0
 10
234.409192658175
 20
87.1213425752244
 30
0.0
  0
DIMENSION
  5
126
330
1F
100
AcDbEntity
  8
DIM
 62
     7
100
AcDbDimension
  2
_D
 10
322.3897134579
 20
74.2251397726
 30
0.0
 11
322.3897134579
 21
187.2835730872
 31
0.0
 70
   160
  1
360
 71
     2
 42
-1.0
  3
SLDDIMSTYLE0
100
AcDbAlignedDimension
 13
282.4397134579
 23
300.3420064018
 33
0.0
 14
302.3897134579
 24
74.2251397726
 34
0.0
 50
90.0
100
AcDbRotatedDimension
  0
DIMENSION
  5
131
330
1F
100
AcDbEntity
  8
DIM
 62
     7
100
AcDbDimension
  2
_D_1
 10
283.9397134579
 20
312.8420064018
 30
0.0
 11
264.8897134579
 21
312.8420064018
 31
0.0
 70
   160
  1
%%c<>
 71
     2
 42
-1.0
  3
SLDDIMSTYLE0
100
AcDbAlignedDimension
 13
245.8397134579
 23
298.8420064018
 33
0.0
 14
283.9397134579
 24
298.8420064018
 34
0.0
100
AcDbRotatedDimension
  0
DIMENSION
  5
13C
330
1F
100
AcDbEntity
  8
DIM
 62
     7
100
AcDbDimension
  2
_D_2
 10
302.3897134579
 20
54.2251397726
 30
0.0
 11
264.8897134579
 21
54.2251397726
 31
0.0
 70
   160
  1
%%c<>
 71
     2
 42
-1.0
  3
SLDDIMSTYLE0
100
AcDbAlignedDimension
 13
227.3897134579
 23
74.2251397726
 33
0.0
 14
302.3897134579
 24
74.2251397726
 34
0.0
100
AcDbRotatedDimension
  0
ARC
  5
147
330
1F
100
AcDbEntity
  8
0
  6
HIDDEN
 62
     7
370
     0
100
AcDbCircle
 10
278.1497288568
 20
218.9801360863
 30
0.0
 40
34.47604003702041
100
AcDbArc
 50
247.380135052
 51
292.619864948
  0
ARC
  5
148
330
1F
100
AcDbEntity
  8
0
  6
HIDDEN
 62
     7
370
     0
100
AcDbCircle
 10
251.6296980591
 20
155.3320621718
 30
0.0
 40
34.47604003702044
100
AcDbArc
 50
67.380135052
 51
112.619864948
  0
ARC
  5
149
330
1F
100
AcDbEntity
  8
0
  6
HIDDEN
 62
     7
370
     0
100
AcDbCircle
 10
278.1497288568
 20
223.9801360863
 30
0.0
 40
34.47604003702046
100
AcDbArc
 50
247.380135052
 51
292.619864948
  0
ARC
  5
14A
330
1F
100
AcDbEntity
  8
0
  6
HIDDEN
 62
     7
370
     0
100
AcDbCircle
 10
251.6296980591
 20
160.3320621718
 30
0.0
 40
34.47604003702041
100
AcDbArc
 50
67.380135052
 51
112.619864948
  0
LINE
  5
14B
330
1F
100
AcDbEntity
  8
0
  6
Continuous
 62
     7
370
    15
100
AcDbLine
 10
601.781202859
 20
440.775143107
 30
0.0
 11
601.0234653469
 21
441.2127178519
 31
0.0
  0
LINE
  5
14C
330
1F
100
AcDbEntity
  8
0
  6
Continuous
 62
     7
370
    15
100
AcDbLine
 10
583.2924075649
 20
441.2127178519
 30
0.0
 11
582.5346700529
 21
440.775143107
 31
0.0
  0
LINE
  5
14D
330
1F
100
AcDbEntity
  8
0
  6
Continuous
 62
     7
370
    15
100
AcDbLine
 10
605.7650793131
 20
235.4606776975
 30
0.0
 11
605.7650793131
 21
435.221554891
 31
0.0
  0
LINE
  5
14E
330
1F
100
AcDbEntity
  8
0
  6
Continuous
 62
     7
370
    15
100
AcDbLine
 10
578.5507935988
 20
435.221554891
 30
0.0
 11
578.5507935988
 21
235.4606776975
 31
0.0
  0
LINE
  5
14F
330
1F
100
AcDbEntity
  8
0
  6
Continuous
 62
     7
370
    15
100
AcDbLine
 10
618.9436507416
 20
226.1287827045
 30
0.0
 11
618.9436507416
 21
232.5444605122
 31
0.0
  0
LINE
  5
150
330
1F
100
AcDbEntity
  8
0
  6
Continuous
 62
     7
370
    15
100
AcDbLine
 10
565.3722221702
 20
232.5444605122
 30
0.0
 11
565.3722221702
 21
226.1287827045
 31
0.0
  0
LWPOLYLINE
  5
151
330
1F
100
AcDbEntity
  8
0
  6
Continuous
 62
     7
370
    15
100
AcDbPolyline
 90
       45
 70
   128
 43
0.0
 10
586.5086548564
 20
429.6362184572
 10
584.9735665586
 20
430.1660998049
 10
583.5847313139
 20
430.8167053711
 10
582.3704218028
 20
431.5747907026
 10
581.3553578651
 20
432.4249233683
 10
580.5602032755
 20
433.3497971186
 10
580.0011450884
 20
434.3305841912
 10
579.6895641162
 20
435.3473185895
 10
579.631803249
 20
436.3793025332
 10
579.8290383315
 20
437.4055278053
 10
580.2772542263
 20
438.4051034185
 10
580.9673265501
 20
439.357680896
 10
581.8852074206
 20
440.2438685073
 10
583.0122114302
 20
441.0456260282
 10
584.3253960272
 20
441.7466319877
 10
585.7980285601
 20
442.3326159259
 10
587.4001304773
 20
442.7916488996
 10
589.0990876039
 20
443.1143863214
 10
590.8603140721
 20
443.294258188
 10
592.64795639
 20
443.3276028269
 10
594.4256233152
 20
443.2137414373
 10
596.1571266754
 20
442.9549919089
 10
597.8072180554
 20
442.5566216359
 10
599.3423063532
 20
442.0267402882
 10
600.7311415979
 20
441.376134722
 10
601.945451109
 20
440.6180493905
 10
602.9605150467
 20
439.7679167248
 10
603.7556696363
 20
438.8430429745
 10
604.3147278234
 20
437.8622559019
 10
604.6263087956
 20
436.8455215036
 10
604.6840696628
 20
435.8135375599
 10
604.4868345803
 20
434.7873122878
 10
604.0386186855
 20
433.7877366746
 10
603.3485463617
 20
432.8351591971
 10
602.4306654912
 20
431.9489715858
 10
601.3036614816
 20
431.1472140649
 10
599.9904768846
 20
430.4462081054
 10
598.5178443517
 20
429.8602241673
 10
596.9157424345
 20
429.4011911935
 10
595.2167853079
 20
429.0784537717
 10
593.4555588397
 20
428.8985819051
 10
591.6679165218
 20
428.8652372663
 10
589.8902495966
 20
428.9790986558
 10
588.1587462365
 20
429.2378481842
 10
586.5086548564
 20
429.6362184572
  0
LWPOLYLINE
  5
152
330
1F
100
AcDbEntity
  8
0
  6
Continuous
 62
     7
370
    15
100
AcDbPolyline
 90
       15
 70
   128
 43
0.0
 10
586.0258102753
 20
428.2091993196
 10
584.4288990993
 20
428.7565428645
 10
582.9759652653
 20
429.4243173511
 10
581.6940741817
 20
430.2000834043
 10
580.6071050538
 20
431.0693899703
 10
579.73530606
 20
432.0160435126
 10
579.0949171659
 20
433.0224096668
 10
578.697867605
 20
434.0697417355
 10
578.5515536593
 20
435.1385299041
 10
578.6587008809
 20
436.208864671
 10
579.0173133197
 20
437.2608077249
 10
579.6207107046
 20
438.2747633568
 10
580.4576528838
 20
439.2318434919
 10
581.5125492082
 20
440.1142195382
 10
582.5346700529
 20
440.775143107
  0
LWPOLYLINE
  5
153
330
1F
100
AcDbEntity
  8
0
  6
Continuous
 62
     7
370
    15
100
AcDbPolyline
 90
       22
 70
   128
 43
0.0
 10
601.781202859
 20
440.775143107
 10
602.6217987301
 20
440.2430263777
 10
603.708767858
 20
439.3737198117
 10
604.5805668519
 20
438.4270662694
 10
605.220955746
 20
437.4207001152
 10
605.6180053069
 20
436.3733680464
 10
605.7643192525
 20
435.3045798779
 10
605.6571720309
 20
434.2342451109
 10
605.2985595921
 20
433.1823020571
 10
604.6951622072
 20
432.1683464251
 10
603.858220028
 20
431.21126629
 10
602.8033237036
 20
430.3288902438
 10
601.5501239566
 20
429.5376552826
 10
600.1219655272
 20
428.8523006168
 10
598.5454523047
 20
428.2855931071
 10
596.8499517476
 20
427.848089442
 10
595.0670478232
 20
427.5479394871
 10
593.2299526583
 20
427.3907344682
 10
591.3728878599
 20
427.3794028172
 10
589.5304470315
 20
427.5141556215
 10
587.7369513596
 20
427.7924826912
 10
586.0258102753
 20
428.2091993196
  0
LWPOLYLINE
  5
154
330
1F
100
AcDbEntity
  8
0
  6
Continuous
 62
     7
370
    15
100
AcDbPolyline
 90
       10
 70
   128
 43
0.0
 10
586.0258102753
 20
228.4483221262
 10
584.4288990993
 20
228.995665671
 10
582.9759652653
 20
229.6634401576
 10
581.6940741817
 20
230.4392062108
 10
580.6071050538
 20
231.3085127768
 10
579.73530606
 20
232.2551663191
 10
579.0949171659
 20
233.2615324733
 10
578.697867605
 20
234.3088645421
 10
578.5515536593
 20
235.3776527106
 10
578.5507935988
 20
235.4606776975
  0
LWPOLYLINE
  5
155
330
1F
100
AcDbEntity
  8
0
  6
Continuous
 62
     7
370
    15
100
AcDbPolyline
 90
       16
 70
   128
 43
0.0
 10
605.7650793131
 20
235.4606776975
 10
605.6571720309
 20
234.4733679174
 10
605.2985595921
 20
233.4214248636
 10
604.6951622072
 20
232.4074692316
 10
603.858220028
 20
231.4503890965
 10
602.8033237036
 20
230.5680130503
 10
601.5501239566
 20
229.7767780891
 10
600.1219655272
 20
229.0914234234
 10
598.5454523047
 20
228.5247159136
 10
596.8499517476
 20
228.0872122485
 10
595.0670478232
 20
227.7870622937
 10
593.2299526583
 20
227.6298572747
 10
591.3728878599
 20
227.6185256238
 10
589.5304470315
 20
227.753278428
 10
587.7369513596
 20
228.0316054977
 10
586.0258102753
 20
228.4483221262
  0
LWPOLYLINE
  5
156
330
1F
100
AcDbEntity
  8
0
  6
Continuous
 62
     7
370
    15
100
AcDbPolyline
 90
       24
 70
   128
 43
0.0
 10
605.7123064058
 20
235.0679825391
 10
605.5320299106
 20
234.1294945752
 10
605.093472577
 20
233.0905914646
 10
604.4139506803
 20
232.0958385761
 10
603.5061224279
 20
231.163766274
 10
602.3868989425
 20
230.3117373016
 10
601.0771292399
 20
229.5556233466
 10
599.6012118514
 20
228.9095093814
 10
597.9866403256
 20
228.3854312866
 10
596.263491075
 20
227.9931516456
 10
594.4638631099
 20
227.7399778858
 10
592.6212800941
 20
227.6306261554
 10
590.7700658631
 20
227.6671334702
 10
588.9447050353
 20
227.848819768
 10
587.1792006292
 20
228.1723005768
 10
585.5064406513
 20
228.6315500612
 10
583.9575854553
 20
229.2180132723
 10
582.5614872827
 20
229.9207655101
 10
581.344152801
 20
230.72671583
 10
580.3282586483
 20
231.6208509025
 10
579.5327290106
 20
232.586514683
 10
578.9723830998
 20
233.6057186823
 10
578.6576591
 20
234.6594770583
 10
578.6372831424
 20
234.7835983421
  0
LWPOLYLINE
  5
157
330
1F
100
AcDbEntity
  8
0
  6
Continuous
 62
     7
370
    15
100
AcDbPolyline
 90
       53
 70
   128
 43
0.0
 10
611.0982966663
 20
243.4784977241
 10
612.8378845737
 20
242.3721668416
 10
614.3843893774
 20
241.1740773131
 10
615.7233717788
 20
239.8954153776
 10
616.8423300599
 20
238.5481195572
 10
617.7308168088
 20
237.1447691898
 10
618.3805364641
 20
235.6984669798
 10
618.7854227684
 20
234.2227166613
 10
618.9416954074
 20
232.7312969172
 10
618.8478953055
 20
231.238132732
 10
618.5048982491
 20
229.7571653772
 10
617.9159067093
 20
228.3022222462
 10
617.0864199412
 20
226.8868877508
 10
616.0241826395
 20
225.524376488
 10
614.7391126276
 20
224.2274098582
 10
613.2432082579
 20
223.0080972895
 10
611.5504363866
 20
221.8778231748
 10
609.6766019684
 20
220.8471405789
 10
607.6392004904
 20
219.9256727075
 10
605.4572546214
 20
219.122023058
 10
603.151136602
 20
218.4436950905
 10
600.7423780347
 20
217.8970221704
 10
598.2534688494
 20
217.4871084357
 10
595.7076473205
 20
217.2177811403
 10
593.1286830976
 20
217.0915549206
 10
590.540655275
 20
217.1096083169
 10
587.9677275709
 20
217.2717727694
 10
585.4339227182
 20
217.5765341924
 10
582.9628981701
 20
218.0210471106
 10
580.577725217
 20
218.6011612266
 10
578.3006735761
 20
219.3114601711
 10
576.1530034651
 20
220.1453120745
 10
574.1547671012
 20
221.094931486
 10
572.3246214788
 20
222.1514520651
 10
570.6796541746
 20
223.3050093639
 10
569.235223805
 20
224.5448329286
 10
568.0048166272
 20
225.8593468606
 10
566.9999206216
 20
227.2362778976
 10
566.2299182314
 20
228.6627700055
 10
565.7019987614
 20
230.1255044118
 10
565.4210912535
 20
231.6108239594
 10
565.3898184654
 20
233.10486062
 10
565.6084723827
 20
234.5936649758
 10
566.0750114927
 20
236.0633364616
 10
566.7850798454
 20
237.5001531507
 10
567.732047724
 20
238.890699873
 10
568.9070735444
 20
240.2219934682
 10
570.2991864073
 20
241.4816040069
 10
571.8953885298
 20
242.6577708447
 10
573.6807766029
 20
243.7395124288
 10
575.6386809391
 20
244.7167288295
 10
577.7508211132
 20
245.5802960405
 10
578.5507935988
 20
245.86367975
  0
ARC
  5
158
330
1F
100
AcDbEntity
  8
0
  6
Continuous
 62
     7
370
    15
100
AcDbCircle
 10
596.1194762306
 20
217.14123957
 30
0.0
 40
30.29878262769949
100
AcDbArc
 50
60.3717594851
 51
71.4368594692
  0
SPLINE
  5
159
330
1F
100
AcDbEntity
  8
0
  6
Continuous
 62
     7
370
    15
100
AcDbSpline
210
0.0
220
0.0
230
1.0
 70
     8
 71
     3
 72
    33
 73
    29
 74
     0
 42
0.000000001
 43
0.00000001
 40
0.0
 40
0.0
 40
0.0
 40
0.0
 40
0.0089485471422945
 40
0.0407396466293407
 40
0.0714288945566852
 40
0.1338715365041567
 40
0.1657044370627274
 40
0.1960437368509392
 40
0.2577625840605541
 40
0.2892162130421328
 40
0.3194397812571389
 40
0.3808991226750598
 40
0.4122034594199526
 40
0.4427156256591456
 40
0.5047421079388522
 40
0.5363218330686185
 40
0.5674581499520459
 40
0.6307423036198208
 40
0.6629553096956354
 40
0.6949072866568335
 40
0.7598508688467409
 40
0.792910885421243
 40
0.8256410253820234
 40
0.8921855188897974
 40
0.9260757761420613
 40
0.9592223063218247
 40
0.992600357294829
 40
1.0
 40
1.0
 40
1.0
 40
1.0
 10
605.7650793130514
 20
243.2301228209673
 30
0.0
 10
605.79571840076
 20
243.2236073974061
 30
0.0
 10
605.9352075922958
 20
243.1939449226713
 30
0.0
 10
606.1701153315288
 20
243.1240351598192
 30
0.0
 10
606.5730944043908
 20
242.9972357569667
 30
0.0
 10
606.9532021095747
 20
242.8483962495938
 30
0.0
 10
607.3006137072905
 20
242.6847223574292
 30
0.0
 10
607.6229123118372
 20
242.5123023203381
 30
0.0
 10
607.9072741353955
 20
242.3276912903987
 30
0.0
 10
608.1467771519427
 20
242.1351263003409
 30
0.0
 10
608.3551826922838
 20
241.9388580143349
 30
0.0
 10
608.515998442593
 20
241.7384357956045
 30
0.0
 10
608.6256091303173
 20
241.5383890706881
 30
0.0
 10
608.7009912173274
 20
241.339255462052
 30
0.0
 10
608.7237779295872
 20
241.1442837117666
 30
0.0
 10
608.6932183488021
 20
240.958148209953
 30
0.0
 10
608.6268512347268
 20
240.7779055533076
 30
0.0
 10
608.5070557626557
 20
240.6102604254904
 30
0.0
 10
608.3361485828631
 20
240.4596508558416
 30
0.0
 10
608.1301782690141
 20
240.3202628091196
 30
0.0
 10
607.8746984003091
 20
240.2014066480791
 30
0.0
 10
607.5754440989341
 20
240.106744424691
 30
0.0
 10
607.2458437341755
 20
240.028281126877
 30
0.0
 10
606.8761744948474
 20
239.9767642619897
 30
0.0
 10
606.4763990328403
 20
239.953614648561
 30
0.0
 10
606.1622510199531
 20
239.9519692755746
 30
0.0
 10
605.9249348888959
 20
239.9580133836093
 30
0.0
 10
605.7896318150051
 20
239.9691907149345
 30
0.0
 10
605.7650793130514
 20
239.97121898703
 30
0.0
  0
SPLINE
  5
15A
330
1F
100
AcDbEntity
  8
0
  6
Continuous
 62
     7
370
    15
100
AcDbSpline
210
0.0
220
0.0
230
1.0
 70
    11
 71
     3
 72
    26
 73
    22
 74
     0
 42
0.000000001
 43
0.00000001
 40
0.0
 40
0.0
 40
0.0
 40
0.0
 40
0.055923283043486
 40
0.1118131428965398
 40
0.1683553245469758
 40
0.2244203526737069
 40
0.279183185154333
 40
0.3324592420123098
 40
0.3845667161521374
 40
0.43611298191695
 40
0.4878021244521913
 40
0.5402850226300894
 40
0.5940328171556748
 40
0.649204255356882
 40
0.7054889972355987
 40
0.7619596501444524
 40
0.817134403898555
 40
0.8697335889703492
 40
0.9200695140179912
 40
0.9701908025133954
 40
1.0
 40
1.0
 40
1.0
 40
1.0
 10
604.873786695302
 20
230.0335981710557
 30
0.0
 10
605.3277126748332
 20
229.9104619147241
 30
0.0
 10
606.2352933398364
 20
229.6642629958543
 30
0.0
 10
607.4155142283491
 20
228.9292062616638
 30
0.0
 10
608.2902972845523
 20
228.0223278177381
 30
0.0
 10
608.7435599658386
 20
227.0152314736977
 30
0.0
 10
608.7210629994274
 20
226.0398975645495
 30
0.0
 10
608.2437331450819
 20
225.2048897704606
 30
0.0
 10
607.3877435188593
 20
224.5932072026932
 30
0.0
 10
606.2586311382568
 20
224.2581761739131
 30
0.0
 10
604.9756331504332
 20
224.2293975901707
 30
0.0
 10
603.6661029520102
 20
224.5157807630561
 30
0.0
 10
602.46408857742
 20
225.1036452212278
 30
0.0
 10
601.5060360926097
 20
225.9495678926104
 30
0.0
 10
600.917703769721
 20
226.9707427257792
 30
0.0
 10
600.7886712061545
 20
228.0401546656113
 30
0.0
 10
601.138329678015
 20
229.0000044996517
 30
0.0
 10
601.8970376364273
 20
229.7116606814207
 30
0.0
 10
602.9384609327433
 20
230.1026762818395
 30
0.0
 10
603.9780027011669
 20
230.1754993390434
 30
0.0
 10
604.630460368591
 20
230.072143679197
 30
0.0
 10
604.8737872947438
 20
230.0335983202157
 30
0.0
  0
SPLINE
  5
15B
330
1F
100
AcDbEntity
  8
0
  6
Continuous
 62
     7
370
    15
100
AcDbSpline
210
0.0
220
0.0
230
1.0
 70
    11
 71
     3
 72
    44
 73
    40
 74
     0
 42
0.000000001
 43
0.00000001
 40
0.0
 40
0.0
 40
0.0
 40
0.0
 40
0.0259991003908129
 40
0.052724990434882
 40
0.0787330564819699
 40
0.1055475158875941
 40
0.1306710151634702
 40
0.1565563089946311
 40
0.1811708940006986
 40
0.2064691271164993
 40
0.2316787586976618
 40
0.2575563069733357
 40
0.2839656635877745
 40
0.3110838877953049
 40
0.3385353909245798
 40
0.3667582095608446
 40
0.3946233908073914
 40
0.4233089744262781
 40
0.4509324092912679
 40
0.4793938860582772
 40
0.506374360354607
 40
0.5341804179472784
 40
0.5604310404827046
 40
0.5874770249612586
 40
0.6131567617673033
 40
0.6395977778693903
 40
0.6650064071357109
 40
0.6911486397799613
 40
0.7166324464952419
 40
0.7428342695909872
 40
0.768712514484548
 40
0.7953075780193309
 40
0.8218101451391937
 40
0.849043125772131
 40
0.8762448659099983
 40
0.9042047960829644
 40
0.9319480475742207
 40
0.9604894203882052
 40
1.0
 40
1.0
 40
1.0
 40
1.0
 10
579.4420862847395
 20
230.0335984524378
 30
0.0
 10
579.6549870091735
 20
230.0685925085823
 30
0.0
 10
580.086739973339
 20
230.1395588592545
 30
0.0
 10
580.7228176323216
 20
230.1452949644896
 30
0.0
 10
581.3359245736603
 20
230.0712425614603
 30
0.0
 10
581.8903269839194
 20
229.9123238866857
 30
0.0
 10
582.3800039327118
 20
229.6734084394289
 30
0.0
 10
582.7810524184633
 20
229.3703171811659
 30
0.0
 10
583.0971134578061
 20
229.0063990655795
 30
0.0
 10
583.319111062084
 20
228.5983017983117
 30
0.0
 10
583.4466516914997
 20
228.1481476782623
 30
0.0
 10
583.4740964237485
 20
227.6692005741677
 30
0.0
 10
583.3965935325076
 20
227.1696065218229
 30
0.0
 10
583.2109512021945
 20
226.6652532704627
 30
0.0
 10
582.9161182269361
 20
226.1693036927527
 30
0.0
 10
582.5188501838
 20
225.7028219426226
 30
0.0
 10
582.0249403506533
 20
225.2774784520718
 30
0.0
 10
581.4567854057183
 20
224.9149171346411
 30
0.0
 10
580.8231390960947
 20
224.6206022636658
 30
0.0
 10
580.1594269962532
 20
224.4096389832407
 30
0.0
 10
579.4721341774118
 20
224.2816545869656
 30
0.0
 10
578.8010082181912
 20
224.2411642766321
 30
0.0
 10
578.1484596802113
 20
224.2852065013009
 30
0.0
 10
577.5498532813034
 20
224.4082571334302
 30
0.0
 10
577.0051602364745
 20
224.6074437999026
 30
0.0
 10
576.5405309418263
 20
224.8704937249593
 30
0.0
 10
576.155947528377
 20
225.1952497940937
 30
0.0
 10
575.8675373644148
 20
225.5662394611028
 30
0.0
 10
575.6764020910704
 20
225.9811044890616
 30
0.0
 10
575.5900229682651
 20
226.4235357023279
 30
0.0
 10
575.6098823175848
 20
226.8897194806868
 30
0.0
 10
575.7364021703941
 20
227.3633929681864
 30
0.0
 10
575.9695712484873
 20
227.8386246887063
 30
0.0
 10
576.3031914991963
 20
228.2990272066511
 30
0.0
 10
576.7339418569642
 20
228.7367604406141
 30
0.0
 10
577.2476303999454
 20
229.1353634985112
 30
0.0
 10
577.837298410117
 20
229.4843404478022
 30
0.0
 10
578.5659801756218
 20
229.8158899977291
 30
0.0
 10
579.1202692029271
 20
229.953628345106
 30
0.0
 10
579.4420862847395
 20
230.0335984524378
 30
0.0
  0
SPLINE
  5
15C
330
1F
100
AcDbEntity
  8
0
  6
Continuous
 62
     7
370
    15
100
AcDbSpline
210
0.0
220
0.0
230
1.0
 70
     8
 71
     3
 72
    15
 73
    11
 74
     0
 42
0.000000001
 43
0.00000001
 40
0.0
 40
0.0
 40
0.0
 40
0.0
 40
0.1074494586803968
 40
0.2419895363620065
 40
0.3769754993704328
 40
0.5096919780659892
 40
0.6389066235590471
 40
0.7648082061268863
 40
0.8885487924462927
 40
0.9999999999999999
 40
0.9999999999999999
 40
0.9999999999999999
 40
0.9999999999999999
 10
578.5507935987657
 20
239.9853661142372
 30
0.0
 10
578.2016683068289
 20
239.9699772476013
 30
0.0
 10
577.4153947549133
 20
239.9353196071804
 30
0.0
 10
576.4419229083086
 20
240.1558222753586
 30
0.0
 10
575.7523103179735
 20
240.5760110346041
 30
0.0
 10
575.5236124759591
 20
241.1495500240611
 30
0.0
 10
575.7676302089077
 20
241.7834961274393
 30
0.0
 10
576.4384012944861
 20
242.3904156054782
 30
0.0
 10
577.3993256042282
 20
242.9042465269177
 30
0.0
 10
578.1805784266076
 20
243.1217627830044
 30
0.0
 10
578.5507935987657
 20
243.2248380179189
 30
0.0
  0
LWPOLYLINE
  5
15D
330
1F
100
AcDbEntity
  8
0
  6
Continuous
 62
     7
370
    15
100
AcDbPolyline
 90
       34
 70
   128
 43
0.0
 10
618.9436507416
 20
226.1287827045
 10
618.8478953055
 20
224.8224549243
 10
618.5048982491
 20
223.3414875696
 10
617.9159067093
 20
221.8865444385
 10
617.0864199412
 20
220.4712099432
 10
616.0241826395
 20
219.1086986803
 10
614.7391126276
 20
217.8117320506
 10
613.2432082579
 20
216.5924194818
 10
611.5504363866
 20
215.4621453671
 10
609.6766019684
 20
214.4314627712
 10
607.6392004904
 20
213.5099948999
 10
605.4572546214
 20
212.7063452503
 10
603.151136602
 20
212.0280172828
 10
600.7423780347
 20
211.4813443628
 10
598.2534688494
 20
211.071430628
 10
595.7076473205
 20
210.8021033326
 10
593.1286830976
 20
210.6758771129
 10
590.540655275
 20
210.6939305092
 10
587.9677275709
 20
210.8560949618
 10
585.4339227182
 20
211.1608563848
 10
582.9628981701
 20
211.6053693029
 10
580.577725217
 20
212.1854834189
 10
578.3006735761
 20
212.8957823635
 10
576.1530034651
 20
213.7296342668
 10
574.1547671012
 20
214.6792536783
 10
572.3246214788
 20
215.7357742574
 10
570.6796541746
 20
216.8893315562
 10
569.235223805
 20
218.1291551209
 10
568.0048166272
 20
219.4436690529
 10
566.9999206216
 20
220.82060009
 10
566.2299182314
 20
222.2470921978
 10
565.7019987614
 20
223.7098266041
 10
565.4210912535
 20
225.1951461518
 10
565.3722221702
 20
226.1287827045
  0
CIRCLE
  5
15E
330
1F
100
AcDbEntity
  8
0
  6
Continuous
 62
     7
370
    15
100
AcDbCircle
 10
264.8897134579
 20
383.485973391
 30
0.0
 40
17.55000000000005
  0
CIRCLE
  5
15F
330
1F
100
AcDbEntity
  8
0
  6
Continuous
 62
     7
370
    15
100
AcDbCircle
 10
264.8897134579
 20
383.485973391
 30
0.0
 40
19.05000000000006
  0
CIRCLE
  5
160
330
1F
100
AcDbEntity
  8
0
  6
Continuous
 62
     7
370
    15
100
AcDbCircle
 10
264.8897134579
 20
383.485973391
 30
0.0
 40
37.49999999999994
  0
SPLINE
  5
161
330
1F
100
AcDbEntity
  8
0
  6
Continuous
 62
     7
370
    15
100
AcDbSpline
210
0.0
220
0.0
230
1.0
 70
    11
 71
     3
 72
    66
 73
    62
 74
     0
 42
0.000000001
 43
0.00000001
 40
0.0
 40
0.0
 40
0.0
 40
0.0
 40
0.0128561841302142
 40
0.0389977515672476
 40
0.052315985631957
 40
0.0651726214124469
 40
0.0913316953197249
 40
0.1046674410925446
 40
0.117377473222872
 40
0.1432333280566006
 40
0.156410185721806
 40
0.1690717344651007
 40
0.194818874629293
 40
0.2079331893505831
 40
0.2207156403620832
 40
0.2467003726469257
 40
0.2599300557268955
 40
0.2729739819470446
 40
0.2994855900616961
 40
0.3129805733044247
 40
0.3263662037124839
 40
0.3535729956310306
 40
0.3674228166824163
 40
0.3811344426406815
 40
0.4090119037714357
 40
0.4232095372563292
 40
0.4370956014217703
 40
0.451078656511243
 40
0.4653705905914759
 40
0.4797707807473412
 40
0.4935244304923065
 40
0.5215283810778943
 40
0.5358207530710498
 40
0.5490687678255792
 40
0.5760572259574536
 40
0.5898394906809281
 40
0.6024353260188962
 40
0.6280786917250064
 40
0.6411596979154627
 40
0.6534293535253474
 40
0.6783748200542461
 40
0.6910759669834253
 40
0.7035790674517356
 40
0.7289781186637951
 40
0.7418971220099358
 40
0.7549813618438793
 40
0.7815623745372097
 40
0.7950849304816766
 40
0.8087158697608673
 40
0.8364243070319909
 40
0.8505327894168191
 40
0.8644144358426746
 40
0.8783927631936833
 40
0.8926780876538433
 40
0.9070705268309328
 40
0.9208677825471958
 40
0.9347636911890279
 40
0.9489749568598098
 40
0.9632970669683519
 40
0.981526548259369
 40
1.0
 40
1.0
 40
1.0
 40
1.0
 10
293.8903238289206
 20
387.2602437389194
 30
0.0
 10
293.9898646013761
 20
387.1494214984992
 30
0.0
 10
294.2918100523526
 20
386.8132550157968
 30
0.0
 10
294.6303400232298
 20
386.3028918302238
 30
0.0
 10
294.9055509060838
 20
385.7580632917081
 30
0.0
 10
295.1343354833974
 20
385.190654739648
 30
0.0
 10
295.2921743208933
 20
384.5952015639634
 30
0.0
 10
295.3730855998105
 20
383.9883920493502
 30
0.0
 10
295.4032135505744
 20
383.3803730078305
 30
0.0
 10
295.35813550564
 20
382.7722994299416
 30
0.0
 10
295.2384320168127
 20
382.1784021418234
 30
0.0
 10
295.0708357504998
 20
381.5981844416695
 30
0.0
 10
294.8331121047901
 20
381.0420616464739
 30
0.0
 10
294.5300633447575
 20
380.5219948314939
 30
0.0
 10
294.1845564530155
 20
380.0272390134675
 30
0.0
 10
293.7795448005545
 20
379.5771119767872
 30
0.0
 10
293.3235148179539
 20
379.1815868750551
 30
0.0
 10
292.8327953049386
 20
378.822267550504
 30
0.0
 10
292.2982558315055
 20
378.5249109710816
 30
0.0
 10
291.7317848487599
 20
378.2968190347095
 30
0.0
 10
291.1420144940296
 20
378.1148487124808
 30
0.0
 10
290.5291512030728
 20
378.0078121514424
 30
0.0
 10
289.9082140350699
 20
377.9793625989661
 30
0.0
 10
289.2802590424961
 20
378.0040060807888
 30
0.0
 10
288.6545105376084
 20
378.1100212119621
 30
0.0
 10
288.0486037478273
 20
378.2959696759929
 30
0.0
 10
287.606479690233
 20
378.4748082826854
 30
0.0
 10
287.1799206040335
 20
378.691774731899
 30
0.0
 10
286.7682245694919
 20
378.9487570215141
 30
0.0
 10
286.3821109394848
 20
379.2404989967299
 30
0.0
 10
285.9058301190252
 20
379.6706286764311
 30
0.0
 10
285.4860046437277
 20
380.1629315224104
 30
0.0
 10
285.1382656890349
 20
380.7021376911568
 30
0.0
 10
284.8429729857723
 20
381.2609422855692
 30
0.0
 10
284.6208652917969
 20
381.8531871241274
 30
0.0
 10
284.4794215390331
 20
382.4612185086067
 30
0.0
 10
284.3916074787776
 20
383.0643288406196
 30
0.0
 10
284.3781781063942
 20
383.6691786297588
 30
0.0
 10
284.4389562976392
 20
384.2639534033393
 30
0.0
 10
284.545877729465
 20
384.8429808948213
 30
0.0
 10
284.7196791257476
 20
385.4017110863942
 30
0.0
 10
284.9578607247167
 20
385.9335850874168
 30
0.0
 10
285.2391681939197
 20
386.4478189385628
 30
0.0
 10
285.581091913312
 20
386.9263812874593
 30
0.0
 10
285.9787182479281
 20
387.3615971848743
 30
0.0
 10
286.4188529773875
 20
387.7712201448377
 30
0.0
 10
286.9118795025703
 20
388.1275293940393
 30
0.0
 10
287.4468557355441
 20
388.4208956975786
 30
0.0
 10
288.0153999274247
 20
388.6732968333664
 30
0.0
 10
288.6198654772979
 20
388.8536444310079
 30
0.0
 10
289.2424996363845
 20
388.9546491853797
 30
0.0
 10
289.7168930928466
 20
388.9900598294285
 30
0.0
 10
290.1950377929382
 20
388.9845142363291
 30
0.0
 10
290.6773795086688
 20
388.9365996525819
 30
0.0
 10
291.1524255388968
 20
388.8462801726905
 30
0.0
 10
291.6144231431043
 20
388.7157390981198
 30
0.0
 10
292.0625326355745
 20
388.5462143757237
 30
0.0
 10
292.5008051947677
 20
388.335126773077
 30
0.0
 10
292.9616305861339
 20
388.0589092026053
 30
0.0
 10
293.4366133476624
 20
387.7098298110766
 30
0.0
 10
293.7384182860994
 20
387.4107683998144
 30
0.0
 10
293.8903238289206
 20
387.2602437389194
 30
0.0
  0
SPLINE
  5
162
330
1F
100
AcDbEntity
  8
0
  6
Continuous
 62
     7
370
    15
100
AcDbSpline
210
0.0
220
0.0
230
1.0
 70
     8
 71
     3
 72
    26
 73
    22
 74
     0
 42
0.000000001
 43
0.00000001
 40
0.0
 40
0.0
 40
0.0
 40
0.0
 40
0.055923283043486
 40
0.1118131428965398
 40
0.1683553245469758
 40
0.2244203526737069
 40
0.279183185154333
 40
0.3324592420123098
 40
0.3845667161521374
 40
0.43611298191695
 40
0.4878021244521913
 40
0.5402850226300894
 40
0.5940328171556748
 40
0.649204255356882
 40
0.7054889972355987
 40
0.7619596501444524
 40
0.817134403898555
 40
0.8697335889703492
 40
0.9200695140179912
 40
0.9701908025133954
 40
1.0
 40
1.0
 40
1.0
 40
1.0
 10
268.865855250861
 20
362.2860161719663
 30
0.0
 10
269.2591350954471
 20
361.7805684293594
 30
0.0
 10
270.0454597364173
 20
360.7699750307765
 30
0.0
 10
270.481548845133
 20
358.8693459975089
 30
0.0
 10
270.2886144216039
 20
356.9444294868767
 30
0.0
 10
269.4334994497659
 20
355.1919001913687
 30
0.0
 10
268.047344724778
 20
353.8502871873961
 30
0.0
 10
266.3179536043428
 20
353.0659609621984
 30
0.0
 10
264.4580263182706
 20
352.9008066702426
 30
0.0
 10
262.6673386837196
 20
353.3456474946197
 30
0.0
 10
261.1230796027725
 20
354.3415948305011
 30
0.0
 10
259.9788451508454
 20
355.7900978922998
 30
0.0
 10
259.3623887385895
 20
357.5535085230422
 30
0.0
 10
259.364226496299
 20
359.4521934252289
 30
0.0
 10
260.0149589171602
 20
361.2677644163866
 30
0.0
 10
261.2563239760682
 20
362.7646009172315
 30
0.0
 10
262.9225313388629
 20
363.7385198256809
 30
0.0
 10
264.7724891054892
 20
364.0863124737733
 30
0.0
 10
266.5671457444445
 20
363.8190561829786
 30
0.0
 10
267.9502253808914
 20
363.1439481248445
 30
0.0
 10
268.6171367210255
 20
362.5190591899746
 30
0.0
 10
268.8658539857821
 20
362.2860137200531
 30
0.0
  0
SPLINE
  5
163
330
1F
100
AcDbEntity
  8
0
  6
Continuous
 62
     7
370
    15
100
AcDbSpline
210
0.0
220
0.0
230
1.0
 70
    11
 71
     3
 72
    44
 73
    40
 74
     0
 42
0.000000001
 43
0.00000001
 40
0.0
 40
0.0
 40
0.0
 40
0.0
 40
0.0259991003908129
 40
0.052724990434882
 40
0.0787330564819699
 40
0.1055475158875941
 40
0.1306710151634702
 40
0.1565563089946311
 40
0.1811708940006986
 40
0.2064691271164993
 40
0.2316787586976618
 40
0.2575563069733357
 40
0.2839656635877745
 40
0.3110838877953049
 40
0.3385353909245798
 40
0.3667582095608446
 40
0.3946233908073914
 40
0.4233089744262781
 40
0.4509324092912679
 40
0.4793938860582772
 40
0.506374360354607
 40
0.5341804179472784
 40
0.5604310404827046
 40
0.5874770249612586
 40
0.6131567617673033
 40
0.6395977778693903
 40
0.6650064071357109
 40
0.6911486397799613
 40
0.7166324464952419
 40
0.7428342695909872
 40
0.768712514484548
 40
0.7953075780193309
 40
0.8218101451391937
 40
0.849043125772131
 40
0.8762448659099983
 40
0.9042047960829644
 40
0.9319480475742207
 40
0.9604894203882052
 40
1.0
 40
1.0
 40
1.0
 40
1.0
 10
243.6897544629543
 20
387.4621132728172
 30
0.0
 10
243.8954102719219
 20
387.2462471530777
 30
0.0
 10
244.3124708777776
 20
386.8084805024088
 30
0.0
 10
244.7930694139062
 20
386.0297095256594
 30
0.0
 10
245.1518012605447
 20
385.1745515600209
 30
0.0
 10
245.3572558788406
 20
384.2823454076762
 30
0.0
 10
245.4129627381068
 20
383.368541371913
 30
0.0
 10
245.3218580084349
 20
382.4834011514346
 30
0.0
 10
245.090222156288
 20
381.6259963675607
 30
0.0
 10
244.7311669294252
 20
380.8274083088002
 30
0.0
 10
244.2450889104791
 20
380.0888127268313
 30
0.0
 10
243.6426546991411
 20
379.4320407179067
 30
0.0
 10
242.928529806802
 20
378.8713637214501
 30
0.0
 10
242.1191261303627
 20
378.4295131068018
 30
0.0
 10
241.2295739461591
 20
378.1237004317416
 30
0.0
 10
240.2924081450001
 20
377.9730852268832
 30
0.0
 10
239.3278479398867
 20
377.9864166002455
 30
0.0
 10
238.383494971248
 20
378.1669530317259
 30
0.0
 10
237.4749969075104
 20
378.5130106547325
 30
0.0
 10
236.6528105657614
 20
379.0049072273333
 30
0.0
 10
235.9233097173411
 20
379.6361767349308
 30
0.0
 10
235.3262183853186
 20
380.3678470099352
 30
0.0
 10
234.8607515446858
 20
381.1943603588274
 30
0.0
 10
234.5487855383876
 20
382.0675745555317
 30
0.0
 10
234.3870098981519
 20
382.9842361231542
 30
0.0
 10
234.379743419588
 20
383.8968887145446
 30
0.0
 10
234.5239602192197
 20
384.8025418250052
 30
0.0
 10
234.8107051201011
 20
385.660309717449
 30
0.0
 10
235.2369395525799
 20
386.464972684064
 30
0.0
 10
235.7850111585966
 20
387.1840662278486
 30
0.0
 10
236.4496562731083
 20
387.8093918367534
 30
0.0
 10
237.2072928822777
 20
388.3165319174696
 30
0.0
 10
238.0482449887872
 20
388.6958328023875
 30
0.0
 10
238.9435232225186
 20
388.9305766395898
 30
0.0
 10
239.878347461872
 20
389.0125586818099
 30
0.0
 10
240.8180130248258
 20
388.9351728187164
 30
0.0
 10
241.7421028554802
 20
388.6917795531754
 30
0.0
 10
242.7418333280209
 20
388.248793736113
 30
0.0
 10
243.3415578115924
 20
387.7510819358386
 30
0.0
 10
243.6897544629543
 20
387.4621132728172
 30
0.0
  0
SPLINE
  5
164
330
1F
100
AcDbEntity
  8
0
  6
Continuous
 62
     7
370
    15
100
AcDbSpline
210
0.0
220
0.0
230
1.0
 70
    11
 71
     3
 72
    26
 73
    22
 74
     0
 42
0.000000001
 43
0.00000001
 40
0.0
 40
0.0
 40
0.0
 40
0.0
 40
0.0542622654953612
 40
0.1084813110041387
 40
0.1637847492843149
 40
0.2201414215791123
 40
0.2765531057758485
 40
0.3315076611733198
 40
0.383824899955976
 40
0.4340277779529325
 40
0.4842588392638464
 40
0.5364686684742357
 40
0.5911485229813944
 40
0.6474206419625546
 40
0.7038792549059224
 40
0.7593886436963064
 40
0.8134333717103717
 40
0.8660923931429289
 40
0.9178475661452999
 40
0.9693733506269442
 40
1.0
 40
1.0
 40
1.0
 40
1.0
 10
268.6639838058969
 20
412.4865837619434
 30
0.0
 10
269.076623869034
 20
412.0108907674025
 30
0.0
 10
269.9015753267975
 20
411.0598836685984
 30
0.0
 10
270.4407088369869
 20
409.225750146656
 30
0.0
 10
270.3799514941125
 20
407.3284840155872
 30
0.0
 10
269.662623373871
 20
405.5327103806575
 30
0.0
 10
268.3692307349025
 20
404.0815521974932
 30
0.0
 10
266.6721203946995
 20
403.168515297506
 30
0.0
 10
264.8192003180123
 20
402.8864906267186
 30
0.0
 10
263.0342102412886
 20
403.2082948284684
 30
0.0
 10
261.4616420648055
 20
404.0636625094957
 30
0.0
 10
260.2202383700558
 20
405.3921089961789
 30
0.0
 10
259.4547441992279
 20
407.1023623930606
 30
0.0
 10
259.3024717022057
 20
409.0198626732642
 30
0.0
 10
259.8204574753916
 20
410.8968193123835
 30
0.0
 10
260.9471524849308
 20
412.4782667891712
 30
0.0
 10
262.5220051753091
 20
413.5684930163962
 30
0.0
 10
264.3408100390765
 20
414.0631935938194
 30
0.0
 10
266.1863359375311
 20
413.9302824520892
 30
0.0
 10
267.664290996765
 20
413.3266329824896
 30
0.0
 10
268.3925040219708
 20
412.7147102211896
 30
0.0
 10
268.6639838058969
 20
412.4865837619434
 30
0.0
  0
CIRCLE
  5
165
330
1F
100
AcDbEntity
  8
0
  6
Continuous
 62
     7
370
    15
100
AcDbCircle
 10
264.8897134579
 20
408.485973391
 30
0.0
 40
3.299999999999955
  0
CIRCLE
  5
166
330
1F
100
AcDbEntity
  8
0
  6
Continuous
 62
     7
370
    15
100
AcDbCircle
 10
239.8897134579
 20
383.485973391
 30
0.0
 40
3.299999999999983
  0
CIRCLE
  5
167
330
1F
100
AcDbEntity
  8
0
  6
Continuous
 62
     7
370
    15
100
AcDbCircle
 10
289.8897134579
 20
383.485973391
 30
0.0
 40
3.300000000000011
  0
CIRCLE
  5
168
330
1F
100
AcDbEntity
  8
0
  6
Continuous
 62
     7
370
    15
100
AcDbCircle
 10
264.8897134579
 20
358.485973391
 30
0.0
 40
3.300000000000011
  0
DIMENSION
  5
169
330
1F
100
AcDbEntity
  8
DIM
 62
     7
100
AcDbDimension
  2
_D_3
 10
214.8897134579
 20
358.485973391
 30
0.0
 11
214.8897134579
 21
370.985973391
 31
0.0
 70
   160
  1
<>
 71
     2
 42
-1.0
  3
SLDDIMSTYLE0
100
AcDbAlignedDimension
 13
289.8897134579
 23
383.485973391
 33
0.0
 14
264.8897134579
 24
358.485973391
 34
0.0
 50
90.0
100
AcDbRotatedDimension
  0
DIMENSION
  5
173
330
1F
100
AcDbEntity
  8
DIM
 62
     7
100
AcDbDimension
  2
_D_4
 10
214.8897134579
 20
408.485973391
 30
0.0
 11
214.8897134579
 21
395.985973391
 31
0.0
 70
   160
  1
<>
 71
     2
 42
-1.0
  3
SLDDIMSTYLE0
100
AcDbAlignedDimension
 13
239.8897134579
 23
383.485973391
 33
0.0
 14
264.8897134579
 24
408.485973391
 34
0.0
 50
90.0
100
AcDbRotatedDimension
  0
DIMENSION
  5
17D
330
1F
100
AcDbEntity
  8
DIM
 62
     7
100
AcDbDimension
  2
_D_5
 10
264.8897134579
 20
430.2675300077
 30
0.0
 11
252.3897134579
 21
430.2675300077
 31
0.0
 70
   160
  1
<>
 71
     2
 42
-1.0
  3
SLDDIMSTYLE0
100
AcDbAlignedDimension
 13
239.8897134579
 23
389.985973391
 33
0.0
 14
264.8897134579
 24
414.985973391
 34
0.0
100
AcDbRotatedDimension
  0
DIMENSION
  5
187
330
1F
100
AcDbEntity
  8
DIM
 62
     7
100
AcDbDimension
  2
_D_6
 10
289.8897134579
 20
430.2675300077
 30
0.0
 11
277.3897134579
 21
430.2675300077
 31
0.0
 70
   160
  1
<>
 71
     2
 42
-1.0
  3
SLDDIMSTYLE0
100
AcDbAlignedDimension
 13
264.8897134579
 23
414.985973391
 33
0.0
 14
289.8897134579
 24
389.985973391
 34
0.0
100
AcDbRotatedDimension
  0
DIMENSION
  5
191
330
1F
100
AcDbEntity
  8
DIM
100
AcDbDimension
  2
_D_7
 10
285.1265737371
 20
380.735973391
 30
0.0
 11
342.6046979744
 21
410.5501811688
 31
0.0
 70
   163
  1
4 HOLES,\P M6 CLR
 71
     1
 42
-1.0
  3
SLDDIMSTYLE1
100
AcDbDiametricDimension
 15
294.6528531787
 25
386.235973391
 35
0.0
 40
0.0
  0
INSERT
  5
1A6
330
1F
100
AcDbEntity
  8
DIM
 62
     7
100
AcDbBlockReference
  2
SW_CENTERMARKSYMBOL_0
 10
264.8897134579
 20
383.485973391
 30
0.0
  0
INSERT
  5
1B2
330
1F
100
AcDbEntity
  8
DIM
 62
     7
100
AcDbBlockReference
  2
SW_CENTERMARKSYMBOL_1
 10
264.8897134579
 20
408.485973391
 30
0.0
  0
INSERT
  5
1BE
330
1F
100
AcDbEntity
  8
DIM
 62
     7
100
AcDbBlockReference
  2
SW_CENTERMARKSYMBOL_2
 10
239.8897134579
 20
383.485973391
 30
0.0
  0
INSERT
  5
1CA
330
1F
100
AcDbEntity
  8
DIM
 62
     7
100
AcDbBlockReference
  2
SW_CENTERMARKSYMBOL_3
 10
289.8897134579
 20
383.485973391
 30
0.0
  0
INSERT
  5
1D6
330
1F
100
AcDbEntity
  8
DIM
 62
     7
100
AcDbBlockReference
  2
SW_CENTERMARKSYMBOL_4
 10
264.8897134579
 20
358.485973391
 30
0.0
  0
ENDSEC
  0
SECTION
  2
OBJECTS
  0
DICTIONARY
  5
C
330
0
100
AcDbDictionary
281
     1
  3
ACAD_GROUP
350
D
  3
ACAD_LAYOUT
350
1A
  3
ACAD_MLINESTYLE
350
17
  3
ACAD_PLOTSETTINGS
350
19
  3
ACAD_PLOTSTYLENAME
350
E
  3
ACAD_SCALELIST
350
47
  0
DICTIONARY
  5
D
102
{ACAD_REACTORS
330
C
102
}
330
C
100
AcDbDictionary
281
     1
  0
DICTIONARY
  5
1A
102
{ACAD_REACTORS
330
C
102
}
330
C
100
AcDbDictionary
281
     1
  3
Layout1
350
1E
  3
Layout2
350
26
  3
Model
350
22
  0
DICTIONARY
  5
17
102
{ACAD_REACTORS
330
C
102
}
330
C
100
AcDbDictionary
281
     1
  3
Standard
350
18
  0
DICTIONARY
  5
19
102
{ACAD_REACTORS
330
C
102
}
330
C
100
AcDbDictionary
281
     1
  0
ACDBDICTIONARYWDFLT
  5
E
102
{ACAD_REACTORS
330
C
102
}
330
C
100
AcDbDictionary
281
     1
  3
Normal
350
F
100
AcDbDictionaryWithDefault
340
F
  0
DICTIONARY
  5
47
102
{ACAD_REACTORS
330
C
102
}
330
C
100
AcDbDictionary
281
     1
  3
A0
350
48
  3
A1
350
49
  3
A2
350
4A
  3
A3
350
4B
  3
A4
350
4C
  3
A5
350
4D
  3
A6
350
4E
  3
A7
350
4F
  3
A8
350
50
  3
A9
350
51
  3
B0
350
52
  3
B1
350
53
  3
B2
350
54
  3
B3
350
55
  3
B4
350
56
  3
B5
350
57
  3
B6
350
58
  3
B7
350
59
  3
B8
350
5A
  3
B9
350
5B
  3
C0
350
5C
  3
C1
350
5D
  3
C2
350
5E
  3
C3
350
5F
  3
C4
350
60
  3
C5
350
61
  3
C6
350
62
  3
C7
350
63
  3
C8
350
64
  3
C9
350
65
  3
D0
350
66
  3
D1
350
67
  3
D2
350
68
  0
LAYOUT
  5
1E
102
{ACAD_REACTORS
330
1A
102
}
330
1A
100
AcDbPlotSettings
  1

  2
none_device
  4

  6

 40
0.0
 41
0.0
 42
0.0
 43
0.0
 44
0.0
 45
0.0
 46
0.0
 47
0.0
 48
0.0
 49
0.0
140
0.0
141
0.0
142
1.0
143
1.0
 70
   688
 72
     1
 73
     0
 74
     5
  7

 75
    16
147
1.0
148
0.0
149
0.0
100
AcDbLayout
  1
Layout1
 70
     1
 71
     1
 10
0.0
 20
0.0
 11
420.0
 21
297.0
 12
0.0
 22
0.0
 32
0.0
 14
1.0000000000E+20
 24
1.0000000000E+20
 34
1.0000000000E+20
 15
-1.0000000000E+20
 25
-1.0000000000E+20
 35
-1.0000000000E+20
146
0.0
 13
0.0
 23
0.0
 33
0.0
 16
1.0
 26
0.0
 36
0.0
 17
0.0
 27
1.0
 37
0.0
 76
     0
330
1B
  0
LAYOUT
  5
26
102
{ACAD_REACTORS
330
1A
102
}
330
1A
100
AcDbPlotSettings
  1

  2
none_device
  4

  6

 40
0.0
 41
0.0
 42
0.0
 43
0.0
 44
0.0
 45
0.0
 46
0.0
 47
0.0
 48
0.0
 49
0.0
140
0.0
141
0.0
142
1.0
143
1.0
 70
   688
 72
     1
 73
     0
 74
     5
  7

 75
    16
147
1.0
148
0.0
149
0.0
100
AcDbLayout
  1
Layout2
 70
     1
 71
     2
 10
0.0
 20
0.0
 11
0.0
 21
0.0
 12
0.0
 22
0.0
 32
0.0
 14
0.0
 24
0.0
 34
0.0
 15
0.0
 25
0.0
 35
0.0
146
0.0
 13
0.0
 23
0.0
 33
0.0
 16
1.0
 26
0.0
 36
0.0
 17
0.0
 27
1.0
 37
0.0
 76
     0
330
23
  0
LAYOUT
  5
22
102
{ACAD_REACTORS
330
1A
102
}
330
1A
100
AcDbPlotSettings
  1

  2
none_device
  4
Letter_(8.50_x_11.00_Inches)
  6

 40
6.35
 41
6.35
 42
6.35000508
 43
6.35000508
 44
215.9
 45
279.4
 46
0.0
 47
0.0
 48
0.0
 49
0.0
140
0.0
141
0.0
142
1.0
143
1.0
 70
  1712
 72
     1
 73
     0
 74
     0
  7

 75
     0
147
1.0
148
0.0
149
0.0
100
AcDbLayout
  1
Model
 70
     1
 71
     0
 10
0.0
 20
0.0
 11
742.5
 21
525.0
 12
0.0
 22
0.0
 32
0.0
 14
0.0
 24
0.0
 34
0.0
 15
742.5
 25
525.0
 35
0.0
146
0.0
 13
0.0
 23
0.0
 33
0.0
 16
1.0
 26
0.0
 36
0.0
 17
0.0
 27
1.0
 37
0.0
 76
     0
330
1F
331
29
  0
MLINESTYLE
  5
18
102
{ACAD_REACTORS
330
17
102
}
330
17
100
AcDbMlineStyle
  2
Standard
 70
     0
  3

 62
   256
 51
90.0
 52
90.0
 71
     2
 49
0.5
 62
   256
  6
BYLAYER
 49
-0.5
 62
   256
  6
BYLAYER
  0
ACDBPLACEHOLDER
  5
F
102
{ACAD_REACTORS
330
E
102
}
330
E
  0
SCALE
  5
48
102
{ACAD_REACTORS
330
47
102
}
330
47
100
AcDbScale
 70
     0
300
1:1
140
1.0
141
1.0
290
     1
  0
SCALE
  5
49
102
{ACAD_REACTORS
330
47
102
}
330
47
100
AcDbScale
 70
     0
300
1:2
140
1.0
141
2.0
290
     0
  0
SCALE
  5
4A
102
{ACAD_REACTORS
330
47
102
}
330
47
100
AcDbScale
 70
     0
300
1:4
140
1.0
141
4.0
290
     0
  0
SCALE
  5
4B
102
{ACAD_REACTORS
330
47
102
}
330
47
100
AcDbScale
 70
     0
300
1:5
140
1.0
141
5.0
290
     0
  0
SCALE
  5
4C
102
{ACAD_REACTORS
330
47
102
}
330
47
100
AcDbScale
 70
     0
300
1:8
140
1.0
141
8.0
290
     0
  0
SCALE
  5
4D
102
{ACAD_REACTORS
330
47
102
}
330
47
100
AcDbScale
 70
     0
300
1:10
140
1.0
141
10.0
290
     0
  0
SCALE
  5
4E
102
{ACAD_REACTORS
330
47
102
}
330
47
100
AcDbScale
 70
     0
300
1:16
140
1.0
141
16.0
290
     0
  0
SCALE
  5
4F
102
{ACAD_REACTORS
330
47
102
}
330
47
100
AcDbScale
 70
     0
300
1:20
140
1.0
141
20.0
290
     0
  0
SCALE
  5
50
102
{ACAD_REACTORS
330
47
102
}
330
47
100
AcDbScale
 70
     0
300
1:30
140
1.0
141
30.0
290
     0
  0
SCALE
  5
51
102
{ACAD_REACTORS
330
47
102
}
330
47
100
AcDbScale
 70
     0
300
1:40
140
1.0
141
40.0
290
     0
  0
SCALE
  5
52
102
{ACAD_REACTORS
330
47
102
}
330
47
100
AcDbScale
 70
     0
300
1:50
140
1.0
141
50.0
290
     0
  0
SCALE
  5
53
102
{ACAD_REACTORS
330
47
102
}
330
47
100
AcDbScale
 70
     0
300
1:100
140
1.0
141
100.0
290
     0
  0
SCALE
  5
54
102
{ACAD_REACTORS
330
47
102
}
330
47
100
AcDbScale
 70
     0
300
2:1
140
2.0
141
1.0
290
     0
  0
SCALE
  5
55
102
{ACAD_REACTORS
330
47
102
}
330
47
100
AcDbScale
 70
     0
300
4:1
140
4.0
141
1.0
290
     0
  0
SCALE
  5
56
102
{ACAD_REACTORS
330
47
102
}
330
47
100
AcDbScale
 70
     0
300
8:1
140
8.0
141
1.0
290
     0
  0
SCALE
  5
57
102
{ACAD_REACTORS
330
47
102
}
330
47
100
AcDbScale
 70
     0
300
10:1
140
10.0
141
1.0
290
     0
  0
SCALE
  5
58
102
{ACAD_REACTORS
330
47
102
}
330
47
100
AcDbScale
 70
     0
300
100:1
140
100.0
141
1.0
290
     0
  0
SCALE
  5
59
102
{ACAD_REACTORS
330
47
102
}
330
47
100
AcDbScale
 70
     0
300
1/128" = 1'-0"
140
0.0078125
141
12.0
290
     0
  0
SCALE
  5
5A
102
{ACAD_REACTORS
330
47
102
}
330
47
100
AcDbScale
 70
     0
300
1/64" = 1'-0"
140
0.015625
141
12.0
290
     0
  0
SCALE
  5
5B
102
{ACAD_REACTORS
330
47
102
}
330
47
100
AcDbScale
 70
     0
300
1/32" = 1'-0"
140
0.03125
141
12.0
290
     0
  0
SCALE
  5
5C
102
{ACAD_REACTORS
330
47
102
}
330
47
100
AcDbScale
 70
     0
300
1/16" = 1'-0"
140
0.0625
141
12.0
290
     0
  0
SCALE
  5
5D
102
{ACAD_REACTORS
330
47
102
}
330
47
100
AcDbScale
 70
     0
300
3/32" = 1'-0"
140
0.09375
141
12.0
290
     0
  0
SCALE
  5
5E
102
{ACAD_REACTORS
330
47
102
}
330
47
100
AcDbScale
 70
     0
300
1/8" = 1'-0"
140
0.125
141
12.0
290
     0
  0
SCALE
  5
5F
102
{ACAD_REACTORS
330
47
102
}
330
47
100
AcDbScale
 70
     0
300
3/16" = 1'-0"
140
0.1875
141
12.0
290
     0
  0
SCALE
  5
60
102
{ACAD_REACTORS
330
47
102
}
330
47
100
AcDbScale
 70
     0
300
1/4" = 1'-0"
140
0.25
141
12.0
290
     0
  0
SCALE
  5
61
102
{ACAD_REACTORS
330
47
102
}
330
47
100
AcDbScale
 70
     0
300
3/8" = 1'-0"
140
0.375
141
12.0
290
     0
  0
SCALE
  5
62
102
{ACAD_REACTORS
330
47
102
}
330
47
100
AcDbScale
 70
     0
300
1/2" = 1'-0"
140
0.5
141
12.0
290
     0
  0
SCALE
  5
63
102
{ACAD_REACTORS
330
47
102
}
330
47
100
AcDbScale
 70
     0
300
3/4" = 1'-0"
140
0.75
141
12.0
290
     0
  0
SCALE
  5
64
102
{ACAD_REACTORS
330
47
102
}
330
47
100
AcDbScale
 70
     0
300
1" = 1'-0"
140
1.0
141
12.0
290
     0
  0
SCALE
  5
65
102
{ACAD_REACTORS
330
47
102
}
330
47
100
AcDbScale
 70
     0
300
1-1/2" = 1'-0"
140
1.5
141
12.0
290
     0
  0
SCALE
  5
66
102
{ACAD_REACTORS
330
47
102
}
330
47
100
AcDbScale
 70
     0
300
3" = 1'-0"
140
3.0
141
12.0
290
     0
  0
SCALE
  5
67
102
{ACAD_REACTORS
330
47
102
}
330
47
100
AcDbScale
 70
     0
300
6" = 1'-0"
140
6.0
141
12.0
290
     0
  0
SCALE
  5
68
102
{ACAD_REACTORS
330
47
102
}
330
47
100
AcDbScale
 70
     0
300
1'-0" = 1'-0"
140
12.0
141
12.0
290
     0
  0
ENDSEC
  0
EOF
