  0
SECTION
  2
HEADER
  9
$ACADVER
  1
AC1015
  9
$ACADMAINTVER
 70
     6
  9
$DWGCODEPAGE
  3
ANSI_950
  9
$INSBASE
 10
0.0
 20
0.0
 30
0.0
  9
$EXTMIN
 10
0.0
 20
0.0
 30
0.0
  9
$EXTMAX
 10
742.5
 20
525.0
 30
0.0
  9
$LIMMIN
 10
0.0
 20
0.0
  9
$LIMMAX
 10
742.5
 20
525.0
  9
$ORTHOMODE
 70
     0
  9
$REGENMODE
 70
     1
  9
$FILLMODE
 70
     1
  9
$QTEXTMODE
 70
     0
  9
$MIRRTEXT
 70
     1
  9
$LTSCALE
 40
2.5
  9
$ATTMODE
 70
     1
  9
$TEXTSIZE
 40
8.8194444444
  9
$TRACEWID
 40
1.0
  9
$TEXTSTYLE
  7
STANDARD
  9
$CLAYER
  8
0
  9
$CELTYPE
  6
ByLayer
  9
$CECOLOR
 62
   256
  9
$CELTSCALE
 40
1.0
  9
$DISPSILH
 70
     0
  9
$DIMSCALE
 40
1.0
  9
$DIMASZ
 40
5.0
  9
$DIMEXO
 40
2.5
  9
$DIMDLI
 40
3.75
  9
$DIMRND
 40
0.0
  9
$DIMDLE
 40
0.0
  9
$DIMEXE
 40
2.5
  9
$DIMTP
 40
0.0
  9
$DIMTM
 40
0.0
  9
$DIMTXT
 40
6.25
  9
$DIMCEN
 40
2.5
  9
$DIMTSZ
 40
0.0
  9
$DIMTOL
 70
     0
  9
$DIMLIM
 70
     0
  9
$DIMTIH
 70
     1
  9
$DIMTOH
 70
     1
  9
$DIMSE1
 70
     0
  9
$DIMSE2
 70
     0
  9
$DIMTAD
 70
     1
  9
$DIMZIN
 70
     0
  9
$DIMBLK
  1

  9
$DIMASO
 70
     1
  9
$DIMSHO
 70
     1
  9
$DIMPOST
  1

  9
$DIMAPOST
  1

  9
$DIMALT
 70
     0
  9
$DIMALTD
 70
     3
  9
$DIMALTF
 40
0.0393700787
  9
$DIMLFAC
 40
1.0
  9
$DIMTOFL
 70
     1
  9
$DIMTVP
 40
0.0
  9
$DIMTIX
 70
     0
  9
$DIMSOXD
 70
     0
  9
$DIMSAH
 70
     0
  9
$DIMBLK1
  1

  9
$DIMBLK2
  1

  9
$DIMSTYLE
  2
ISO-25
  9
$DIMCLRD
 70
     0
  9
$DIMCLRE
 70
     0
  9
$DIMCLRT
 70
     0
  9
$DIMTFAC
 40
1.0
  9
$DIMGAP
 40
2.5
  9
$DIMJUST
 70
     0
  9
$DIMSD1
 70
     0
  9
$DIMSD2
 70
     0
  9
$DIMTOLJ
 70
     0
  9
$DIMTZIN
 70
     0
  9
$DIMALTZ
 70
     0
  9
$DIMALTTZ
 70
     0
  9
$DIMUPT
 70
     0
  9
$DIMDEC
 70
     2
  9
$DIMTDEC
 70
     2
  9
$DIMALTU
 70
     2
  9
$DIMALTTD
 70
     3
  9
$DIMTXSTY
  7
STANDARD
  9
$DIMAUNIT
 70
     0
  9
$DIMADEC
 70
     1
  9
$DIMALTRND
 40
0.0
  9
$DIMAZIN
 70
     0
  9
$DIMDSEP
 70
    44
  9
$DIMATFIT
 70
     3
  9
$DIMFRAC
 70
     0
  9
$DIMLDRBLK
  1

  9
$DIMLUNIT
 70
     2
  9
$DIMLWD
 70
    -2
  9
$DIMLWE
 70
    -2
  9
$DIMTMOVE
 70
     0
  9
$LUNITS
 70
     2
  9
$LUPREC
 70
     2
  9
$SKETCHINC
 40
1.0
  9
$FILLETRAD
 40
10.0
  9
$AUNITS
 70
     0
  9
$AUPREC
 70
     1
  9
$MENU
  1
.
  9
$ELEVATION
 40
0.0
  9
$PELEVATION
 40
0.0
  9
$THICKNESS
 40
0.0
  9
$LIMCHECK
 70
     0
  9
$CHAMFERA
 40
0.0
  9
$CHAMFERB
 40
0.0
  9
$CHAMFERC
 40
0.0
  9
$CHAMFERD
 40
0.0
  9
$SKPOLY
 70
     0
  9
$TDCREATE
 40
2457504.445966539
  9
$TDUCREATE
 40
2457504.112633206
  9
$TDUPDATE
 40
2457504.445970926
  9
$TDUUPDATE
 40
2457504.112637592
  9
$TDINDWG
 40
0.0000000116
  9
$TDUSRTIMER
 40
0.0000000116
  9
$USRTIMER
 70
     1
  9
$ANGBASE
 50
0.0
  9
$ANGDIR
 70
     0
  9
$PDMODE
 70
     0
  9
$PDSIZE
 40
-1.0
  9
$PLINEWID
 40
0.0
  9
$SPLFRAME
 70
     0
  9
$SPLINETYPE
 70
     6
  9
$SPLINESEGS
 70
     8
  9
$HANDSEED
  5
1D2
  9
$SURFTAB1
 70
     6
  9
$SURFTAB2
 70
     6
  9
$SURFTYPE
 70
     6
  9
$SURFU
 70
     6
  9
$SURFV
 70
     6
  9
$UCSBASE
  2

  9
$UCSNAME
  2

  9
$UCSORG
 10
0.0
 20
0.0
 30
0.0
  9
$UCSXDIR
 10
1.0
 20
0.0
 30
0.0
  9
$UCSYDIR
 10
0.0
 20
1.0
 30
0.0
  9
$UCSORTHOREF
  2

  9
$UCSORTHOVIEW
 70
     0
  9
$UCSORGTOP
 10
0.0
 20
0.0
 30
0.0
  9
$UCSORGBOTTOM
 10
0.0
 20
0.0
 30
0.0
  9
$UCSORGLEFT
 10
0.0
 20
0.0
 30
0.0
  9
$UCSORGRIGHT
 10
0.0
 20
0.0
 30
0.0
  9
$UCSORGFRONT
 10
0.0
 20
0.0
 30
0.0
  9
$UCSORGBACK
 10
0.0
 20
0.0
 30
0.0
  9
$PUCSBASE
  2

  9
$PUCSNAME
  2

  9
$PUCSORG
 10
0.0
 20
0.0
 30
0.0
  9
$PUCSXDIR
 10
1.0
 20
0.0
 30
0.0
  9
$PUCSYDIR
 10
0.0
 20
1.0
 30
0.0
  9
$PUCSORTHOREF
  2

  9
$PUCSORTHOVIEW
 70
     0
  9
$PUCSORGTOP
 10
0.0
 20
0.0
 30
0.0
  9
$PUCSORGBOTTOM
 10
0.0
 20
0.0
 30
0.0
  9
$PUCSORGLEFT
 10
0.0
 20
0.0
 30
0.0
  9
$PUCSORGRIGHT
 10
0.0
 20
0.0
 30
0.0
  9
$PUCSORGFRONT
 10
0.0
 20
0.0
 30
0.0
  9
$PUCSORGBACK
 10
0.0
 20
0.0
 30
0.0
  9
$USERI1
 70
     0
  9
$USERI2
 70
     0
  9
$USERI3
 70
     0
  9
$USERI4
 70
     0
  9
$USERI5
 70
     0
  9
$USERR1
 40
0.0
  9
$USERR2
 40
0.0
  9
$USERR3
 40
0.0
  9
$USERR4
 40
0.0
  9
$USERR5
 40
0.0
  9
$WORLDVIEW
 70
     1
  9
$SHADEDGE
 70
     3
  9
$SHADEDIF
 70
    70
  9
$TILEMODE
 70
     1
  9
$MAXACTVP
 70
    64
  9
$PINSBASE
 10
0.0
 20
0.0
 30
0.0
  9
$PLIMCHECK
 70
     0
  9
$PEXTMIN
 10
1.0000000000E+20
 20
1.0000000000E+20
 30
1.0000000000E+20
  9
$PEXTMAX
 10
-1.0000000000E+20
 20
-1.0000000000E+20
 30
-1.0000000000E+20
  9
$PLIMMIN
 10
0.0
 20
0.0
  9
$PLIMMAX
 10
420.0
 20
297.0
  9
$UNITMODE
 70
     0
  9
$VISRETAIN
 70
     1
  9
$PLINEGEN
 70
     0
  9
$PSLTSCALE
 70
     1
  9
$TREEDEPTH
 70
  3020
  9
$CMLSTYLE
  2
Standard
  9
$CMLJUST
 70
     0
  9
$CMLSCALE
 40
20.0
  9
$PROXYGRAPHICS
 70
     1
  9
$MEASUREMENT
 70
     1
  9
$CELWEIGHT
370
    -1
  9
$ENDCAPS
280
     0
  9
$JOINSTYLE
280
     0
  9
$LWDISPLAY
290
     1
  9
$INSUNITS
 70
     4
  9
$HYPERLINKBASE
  1

  9
$STYLESHEET
  1

  9
$XEDIT
290
     1
  9
$CEPSNTYPE
380
     0
  9
$PSTYLEMODE
290
     1
  9
$FINGERPRINTGUID
  2
{F3CC3CC9-C560-475F-8685-22FF0F155FEB}
  9
$VERSIONGUID
  2
{FAEB1C32-E019-11D5-929B-00C0DF256EC4}
  9
$EXTNAMES
290
     1
  9
$PSVPSCALE
 40
0.0
  9
$OLESTARTUP
290
     0
  0
ENDSEC
  0
SECTION
  2
CLASSES
  0
CLASS
  1
ACDBDICTIONARYWDFLT
  2
AcDbDictionaryWithDefault
  3
ObjectDBX Classes
 90
        0
280
     0
281
     0
  0
CLASS
  1
VISUALSTYLE
  2
AcDbVisualStyle
  3
ObjectDBX Classes
 90
     4095
280
     0
281
     0
  0
CLASS
  1
MATERIAL
  2
AcDbMaterial
  3
ObjectDBX Classes
 90
     1153
280
     0
281
     0
  0
CLASS
  1
SCALE
  2
AcDbScale
  3
ObjectDBX Classes
 90
     1153
280
     0
281
     0
  0
CLASS
  1
TABLESTYLE
  2
AcDbTableStyle
  3
ObjectDBX Classes
 90
     4095
280
     0
281
     0
  0
CLASS
  1
MLEADERSTYLE
  2
AcDbMLeaderStyle
  3
ACDB_MLEADERSTYLE_CLASS
 90
     4095
280
     0
281
     0
  0
CLASS
  1
SUN
  2
AcDbSun
  3
SCENEOE
 90
     1153
280
     0
281
     0
  0
CLASS
  1
ACDBPLACEHOLDER
  2
AcDbPlaceHolder
  3
ObjectDBX Classes
 90
        0
280
     0
281
     0
  0
CLASS
  1
LAYOUT
  2
AcDbLayout
  3
ObjectDBX Classes
 90
        0
280
     0
281
     0
  0
ENDSEC
  0
SECTION
  2
TABLES
  0
TABLE
  2
VPORT
  5
8
330
0
100
AcDbSymbolTable
 70
     1
  0
VPORT
  5
29
330
8
100
AcDbSymbolTableRecord
100
AcDbViewportTableRecord
  2
*Active
 70
     0
 10
0.0
 20
0.0
 11
1.0
 21
1.0
 12
371.25
 22
262.5
 13
0.0
 23
0.0
 14
10.0
 24
10.0
 15
10.0
 25
10.0
 16
0.0
 26
0.0
 36
1.0
 17
0.0
 27
0.0
 37
0.0
 40
525.0
 41
1.4142857143
 42
50.0
 43
0.0
 44
0.0
 50
0.0
 51
0.0
 71
     0
 72
  2000
 73
     1
 74
     3
 75
     0
 76
     0
 77
     0
 78
     0
281
     0
 65
     1
110
0.0
120
0.0
130
0.0
111
1.0
121
0.0
131
0.0
112
0.0
122
1.0
132
0.0
 79
     0
146
0.0
  0
ENDTAB
  0
TABLE
  2
LTYPE
  5
5
330
0
100
AcDbSymbolTable
 70
     6
  0
LTYPE
  5
14
330
5
100
AcDbSymbolTableRecord
100
AcDbLinetypeTableRecord
  2
ByBlock
 70
     0
  3

 72
    65
 73
     0
 40
0.0
  0
LTYPE
  5
15
330
5
100
AcDbSymbolTableRecord
100
AcDbLinetypeTableRecord
  2
ByLayer
 70
     0
  3

 72
    65
 73
     0
 40
0.0
  0
LTYPE
  5
16
330
5
100
AcDbSymbolTableRecord
100
AcDbLinetypeTableRecord
  2
Continuous
 70
     0
  3
Solid line
 72
    65
 73
     0
 40
0.0
  0
LTYPE
  5
6E
330
5
100
AcDbSymbolTableRecord
100
AcDbLinetypeTableRecord
  2
HIDDEN
 70
     0
  3
Hidden __ __ __ __ __ __ __ __ __ __ __ __ __ __
 72
    65
 73
     2
 40
1.905
 49
1.27
 74
     0
 49
-0.635
 74
     0
  0
LTYPE
  5
6F
330
5
100
AcDbSymbolTableRecord
100
AcDbLinetypeTableRecord
  2
PHANTOM
 70
     0
  3
Phantom ______  __  __  ______  __  __  ______
 72
    65
 73
     6
 40
12.7
 49
6.35
 74
     0
 49
-1.27
 74
     0
 49
1.27
 74
     0
 49
-1.27
 74
     0
 49
1.27
 74
     0
 49
-1.27
 74
     0
  0
LTYPE
  5
70
330
5
100
AcDbSymbolTableRecord
100
AcDbLinetypeTableRecord
  2
CENTER
 70
     0
  3
Center ____ _ ____ _ ____ _ ____ _ ____ _ ____
 72
    65
 73
     4
 40
10.16
 49
6.35
 74
     0
 49
-1.27
 74
     0
 49
1.27
 74
     0
 49
-1.27
 74
     0
  0
LTYPE
  5
71
330
5
100
AcDbSymbolTableRecord
100
AcDbLinetypeTableRecord
  2
CENTERX2
 70
     0
  3
Center (2x) ________  __  ________  __  _____
 72
    65
 73
     4
 40
20.32
 49
12.7
 74
     0
 49
-2.54
 74
     0
 49
2.54
 74
     0
 49
-2.54
 74
     0
  0
LTYPE
  5
72
330
5
100
AcDbSymbolTableRecord
100
AcDbLinetypeTableRecord
  2
DOT2
 70
     0
  3
Dot (.5x) ........................................
 72
    65
 73
     2
 40
0.635
 49
0.0
 74
     0
 49
-0.635
 74
     0
  0
ENDTAB
  0
TABLE
  2
LAYER
  5
2
330
0
100
AcDbSymbolTable
 70
     8
  0
LAYER
  5
10
330
2
100
AcDbSymbolTableRecord
100
AcDbLayerTableRecord
  2
0
 70
     0
 62
     7
  6
Continuous
370
    -3
390
F
  0
LAYER
  5
73
330
2
100
AcDbSymbolTableRecord
100
AcDbLayerTableRecord
  2
SLD-0
 70
     0
 62
   179
  6
Continuous
370
    15
390
F
  0
LAYER
  5
74
330
2
100
AcDbSymbolTableRecord
100
AcDbLayerTableRecord
  2
輪廓線
 70
     0
 62
   219
  6
Continuous
370
    15
390
F
  0
LAYER
  5
75
330
2
100
AcDbSymbolTableRecord
100
AcDbLayerTableRecord
  2
DIM
 70
     0
 62
     7
  6
Continuous
370
    -3
390
F
  0
LAYER
  5
76
330
2
100
AcDbSymbolTableRecord
100
AcDbLayerTableRecord
  2
中心線
 70
     0
 62
     1
  6
CENTERX2
370
    -3
390
F
  0
LAYER
  5
77
330
2
100
AcDbSymbolTableRecord
100
AcDbLayerTableRecord
  2
虛線
 70
     0
 62
     6
  6
HIDDEN
370
    -3
390
F
  0
LAYER
  5
78
330
2
100
AcDbSymbolTableRecord
100
AcDbLayerTableRecord
  2
SECTION
 70
     0
 62
     5
  6
PHANTOM
370
    15
390
F
  0
LAYER
  5
79
330
2
100
AcDbSymbolTableRecord
100
AcDbLayerTableRecord
  2
假想線
 70
     0
 62
     5
  6
PHANTOM
370
    -3
390
F
  0
ENDTAB
  0
TABLE
  2
STYLE
  5
3
330
0
100
AcDbSymbolTable
 70
     5
  0
STYLE
  5
11
330
3
100
AcDbSymbolTableRecord
100
AcDbTextStyleTableRecord
  2
STANDARD
 70
     0
 40
0.0
 41
1.0
 50
0.0
 71
     0
 42
8.8194444444
  3
ARIALBD.TTF
  4

1001
ACAD
1000
ARIAL
1071
 33554466
  0
STYLE
  5
7A
330
3
100
AcDbSymbolTableRecord
100
AcDbTextStyleTableRecord
  2
SLDTEXTSTYLE0
 70
     0
 40
0.0
 41
1.0
 50
0.0
 71
     0
 42
2.5
  3
ARIAL.TTF
  4

1001
ACAD
1000
Arial
1071
      290
  0
STYLE
  5
CB
330
3
100
AcDbSymbolTableRecord
100
AcDbTextStyleTableRecord
  2
SLDTEXTSTYLE1
 70
     0
 40
0.0
 41
0.948
 50
0.0
 71
     0
 42
8.8194444444
  3
ARIAL.TTF
  4

1001
ACAD
1000
Arial
1071
      290
  0
STYLE
  5
D4
330
3
100
AcDbSymbolTableRecord
100
AcDbTextStyleTableRecord
  2
SLDTEXTSTYLE2
 70
     0
 40
0.0
 41
1.0
 50
0.0
 71
     0
 42
8.8194444444
  3
ARIALBD.TTF
  4

1001
ACAD
1000
Arial CE
1071
 33554722
  0
STYLE
  5
103
330
3
100
AcDbSymbolTableRecord
100
AcDbTextStyleTableRecord
  2
SLDTEXTSTYLE3
 70
     0
 40
0.0
 41
0.948
 50
0.0
 71
     0
 42
8.8194444444
  3
ARIALBD.TTF
  4

1001
ACAD
1000
Arial
1071
 33554722
  0
ENDTAB
  0
TABLE
  2
VIEW
  5
6
330
0
100
AcDbSymbolTable
 70
     0
  0
ENDTAB
  0
TABLE
  2
UCS
  5
7
330
0
100
AcDbSymbolTable
 70
     0
  0
ENDTAB
  0
TABLE
  2
APPID
  5
9
330
0
100
AcDbSymbolTable
 70
     1
  0
APPID
  5
12
330
9
100
AcDbSymbolTableRecord
100
AcDbRegAppTableRecord
  2
ACAD
 70
     0
  0
ENDTAB
  0
TABLE
  2
DIMSTYLE
  5
A
330
0
100
AcDbSymbolTable
 70
     3
100
AcDbDimStyleTable
  0
DIMSTYLE
105
27
330
A
100
AcDbSymbolTableRecord
100
AcDbDimStyleTableRecord
  2
ISO-25
 70
     0
 41
2.5
 42
0.625
 43
3.75
 44
1.25
 73
     0
 74
     0
 77
     1
 78
     8
140
2.5
141
2.5
143
0.0393700787
147
0.625
171
     3
172
     1
178
     0
271
     2
272
     2
274
     3
278
    44
283
     0
284
     8
340
7A
  0
DIMSTYLE
105
124
102
{ACAD_REACTORS
330
123
330
12E
330
139
330
164
330
16E
330
178
330
182
102
}
330
A
100
AcDbSymbolTableRecord
100
AcDbDimStyleTableRecord
  2
SLDDIMSTYLE0
 70
     0
 41
5.0
 44
0.0
 45
0.000000001
 73
     0
 74
     0
 77
     1
 78
    12
 79
     3
140
6.25
147
1.5625
173
     1
178
     0
271
     2
272
     2
276
     2
284
    12
340
CB
  0
DIMSTYLE
105
18D
102
{ACAD_REACTORS
330
18C
102
}
330
A
100
AcDbSymbolTableRecord
100
AcDbDimStyleTableRecord
  2
SLDDIMSTYLE1
 70
     0
  3
<>
 41
5.0
 44
0.0
 45
0.000000001
 78
    12
 79
     3
140
6.25
141
0.0
147
1.5625
173
     1
178
     0
271
     2
272
     2
276
     2
284
    12
340
CB
  0
ENDTAB
  0
TABLE
  2
BLOCK_RECORD
  5
1
330
0
100
AcDbSymbolTable
 70
    17
  0
BLOCK_RECORD
  5
1F
330
1
100
AcDbSymbolTableRecord
100
AcDbBlockTableRecord
  2
*Model_Space
340
22
  0
BLOCK_RECORD
  5
1B
330
1
100
AcDbSymbolTableRecord
100
AcDbBlockTableRecord
  2
*Paper_Space
340
1E
  0
BLOCK_RECORD
  5
23
330
1
100
AcDbSymbolTableRecord
100
AcDbBlockTableRecord
  2
*Paper_Space0
340
26
  0
BLOCK_RECORD
  5
CD
330
1
100
AcDbSymbolTableRecord
100
AcDbBlockTableRecord
  2
SW_NOTE_0
340
0
102
{BLKREFS
331
D3
102
}
  0
BLOCK_RECORD
  5
105
330
1
100
AcDbSymbolTableRecord
100
AcDbBlockTableRecord
  2
SW_NOTE_1
340
0
102
{BLKREFS
331
10A
102
}
  0
BLOCK_RECORD
  5
10B
330
1
100
AcDbSymbolTableRecord
100
AcDbBlockTableRecord
  2
SW_BROKEN_VIEW_0
340
0
102
{BLKREFS
331
10E
102
}
  0
BLOCK_RECORD
  5
125
330
1
100
AcDbSymbolTableRecord
100
AcDbBlockTableRecord
  2
_D
340
0
  0
BLOCK_RECORD
  5
12F
330
1
100
AcDbSymbolTableRecord
100
AcDbBlockTableRecord
  2
_D_1
340
0
  0
BLOCK_RECORD
  5
13A
330
1
100
AcDbSymbolTableRecord
100
AcDbBlockTableRecord
  2
_D_2
340
0
  0
BLOCK_RECORD
  5
165
330
1
100
AcDbSymbolTableRecord
100
AcDbBlockTableRecord
  2
_D_3
340
0
  0
BLOCK_RECORD
  5
16F
330
1
100
AcDbSymbolTableRecord
100
AcDbBlockTableRecord
  2
_D_4
340
0
  0
BLOCK_RECORD
  5
179
330
1
100
AcDbSymbolTableRecord
100
AcDbBlockTableRecord
  2
_D_5
340
0
  0
BLOCK_RECORD
  5
183
330
1
100
AcDbSymbolTableRecord
100
AcDbBlockTableRecord
  2
_D_6
340
0
  0
BLOCK_RECORD
  5
18E
330
1
100
AcDbSymbolTableRecord
100
AcDbBlockTableRecord
  2
_D_7
340
0
  0
BLOCK_RECORD
  5
196
330
1
100
AcDbSymbolTableRecord
100
AcDbBlockTableRecord
  2
SW_CENTERMARKSYMBOL_0
340
0
102
{BLKREFS
331
1A1
102
}
  0
BLOCK_RECORD
  5
1A2
330
1
100
AcDbSymbolTableRecord
100
AcDbBlockTableRecord
  2
SW_CENTERMARKSYMBOL_1
340
0
102
{BLKREFS
331
1AD
102
}
  0
BLOCK_RECORD
  5
1AE
330
1
100
AcDbSymbolTableRecord
100
AcDbBlockTableRecord
  2
SW_CENTERMARKSYMBOL_2
340
0
102
{BLKREFS
331
1B9
102
}
  0
BLOCK_RECORD
  5
1BA
330
1
100
AcDbSymbolTableRecord
100
AcDbBlockTableRecord
  2
SW_CENTERMARKSYMBOL_3
340
0
102
{BLKREFS
331
1C5
102
}
  0
BLOCK_RECORD
  5
1C6
330
1
100
AcDbSymbolTableRecord
100
AcDbBlockTableRecord
  2
SW_CENTERMARKSYMBOL_4
340
0
102
{BLKREFS
331
1D1
102
}
  0
ENDTAB
  0
ENDSEC
  0
SECTION
  2
BLOCKS
  0
BLOCK
  5
20
330
1F
100
AcDbEntity
  8
0
100
AcDbBlockBegin
  2
*Model_Space
 70
     0
 10
0.0
 20
0.0
 30
0.0
  3
*Model_Space
  1

  0
ENDBLK
  5
21
330
1F
100
AcDbEntity
  8
0
100
AcDbBlockEnd
  0
BLOCK
  5
1C
330
1B
100
AcDbEntity
 67
     1
  8
0
100
AcDbBlockBegin
  2
*Paper_Space
 70
     0
 10
0.0
 20
0.0
 30
0.0
  3
*Paper_Space
  1

  0
ENDBLK
  5
1D
330
1B
100
AcDbEntity
 67
     1
  8
0
100
AcDbBlockEnd
  0
BLOCK
  5
24
330
23
100
AcDbEntity
  8
0
100
AcDbBlockBegin
  2
*Paper_Space0
 70
     0
 10
0.0
 20
0.0
 30
0.0
  3
*Paper_Space0
  1

  0
ENDBLK
  5
25
330
23
100
AcDbEntity
  8
0
100
AcDbBlockEnd
  0
BLOCK
  5
CE
330
CD
100
AcDbEntity
  8
0
100
AcDbBlockBegin
  2
SW_NOTE_0
 70
     0
 10
0.0
 20
0.0
 30
0.0
  3
SW_NOTE_0
  1

  0
MTEXT
  5
D0
330
CD
100
AcDbEntity
  8
0
  6
Continuous
 62
     0
370
     0
100
AcDbMText
 10
0.0
 20
8.526645987
 30
0.0
 40
6.6145833333
 41
0.0
 71
     1
 72
     1
  1
PROPRIETARY AND CONFIDENTIAL
  7
SLDTEXTSTYLE1
 73
     1
 44
1.0
  0
MTEXT
  5
D1
330
CD
100
AcDbEntity
  8
0
  6
Continuous
 62
     0
370
     0
100
AcDbMText
 10
0.0
 20
-0.2049587001
 30
0.0
 40
4.6302083333
 41
0.0
 71
     1
 72
     1
  1
THE INFORMATION CONTAINED IN THIS DRAWING IS THE SOLE PROPERTY OF UNICE E-O SERVICES INC. ANY REPRODUCTION IN PART OR AS A WHOLE WITHOUT THE WRITTEN PERMISSION OF UNICE E-O SERVICES INC IS 
  7
SLDTEXTSTYLE1
 73
     1
 44
1.0
  0
MTEXT
  5
D2
330
CD
100
AcDbEntity
  8
0
  6
Continuous
 62
     0
370
     0
100
AcDbMText
 10
0.0
 20
-6.3785697366
 30
0.0
 40
4.6302083333
 41
0.0
 71
     1
 72
     1
  1
PROHIBITED.
  7
SLDTEXTSTYLE1
 73
     1
 44
1.0
  0
ENDBLK
  5
CF
330
CD
100
AcDbEntity
  8
0
100
AcDbBlockEnd
  0
BLOCK
  5
106
330
105
100
AcDbEntity
  8
0
100
AcDbBlockBegin
  2
SW_NOTE_1
 70
     0
 10
0.0
 20
0.0
 30
0.0
  3
SW_NOTE_1
  1

  0
MTEXT
  5
108
330
105
100
AcDbEntity
  8
DIM
 62
     0
100
AcDbMText
 10
0.0
 20
5.9686521909
 30
0.0
 40
4.6302083333
 41
0.0
 71
     1
 72
     1
  1
No.5, Andong Rd., Chung Li District,
  7
SLDTEXTSTYLE0
 73
     1
 44
1.0
  0
MTEXT
  5
109
330
105
100
AcDbEntity
  8
DIM
 62
     0
100
AcDbMText
 10
0.0
 20
-0.2049588456
 30
0.0
 40
4.6302083333
 41
0.0
 71
     1
 72
     1
  1
Taoyuan City 32063, Taiwan, R.O.C.
  7
SLDTEXTSTYLE0
 73
     1
 44
1.0
  0
ENDBLK
  5
107
330
105
100
AcDbEntity
  8
0
100
AcDbBlockEnd
  0
BLOCK
  5
10C
330
10B
100
AcDbEntity
  8
0
100
AcDbBlockBegin
  2
SW_BROKEN_VIEW_0
 70
     0
 10
0.0
 20
0.0
 30
0.0
  3
SW_BROKEN_VIEW_0
  1

  0
ENDBLK
  5
10D
330
10B
100
AcDbEntity
  8
0
100
AcDbBlockEnd
  0
BLOCK
  5
126
330
125
100
AcDbEntity
  8
0
100
AcDbBlockBegin
  2
_D
 70
     0
 10
0.0
 20
0.0
 30
0.0
  3
_D
  1

  0
SOLID
  5
128
330
125
100
AcDbEntity
  8
DIM
 62
     7
100
AcDbTrace
 10
322.2835695318
 20
305.2590592828
 30
0.0
 11
321.6585695318
 21
300.2590592828
 31
0.0
 12
322.9085695318
 22
300.2590592828
 32
0.0
 13
322.9085695318
 23
300.2590592828
 33
0.0
  0
SOLID
  5
129
330
125
100
AcDbEntity
  8
DIM
 62
     7
100
AcDbTrace
 10
322.2835695318
 20
79.1421926535
 30
0.0
 11
322.9085695318
 21
84.1421926535
 31
0.0
 12
321.6585695318
 22
84.1421926535
 32
0.0
 13
321.6585695318
 23
84.1421926535
 33
0.0
  0
LINE
  5
12A
330
125
100
AcDbEntity
  8
DIM
 62
     7
100
AcDbLine
 10
284.8335695318
 20
305.2590592828
 30
0.0
 11
324.7835695318
 21
305.2590592828
 31
0.0
  0
LINE
  5
12B
330
125
100
AcDbEntity
  8
DIM
 62
     7
100
AcDbLine
 10
304.7835695318
 20
79.1421926535
 30
0.0
 11
324.7835695318
 21
79.1421926535
 31
0.0
  0
LINE
  5
12C
330
125
100
AcDbEntity
  8
DIM
 62
     7
100
AcDbLine
 10
322.2835695318
 20
305.2590592828
 30
0.0
 11
322.2835695318
 21
79.1421926535
 31
0.0
  0
MTEXT
  5
12D
330
125
100
AcDbEntity
  8
DIM
 62
     7
100
AcDbMText
 10
314.2268965948
 20
185.0391674796
 30
0.0
 40
6.25
 41
0.0
 71
     1
 72
     1
  1
360
  7
SLDTEXTSTYLE1
 11
-7.044195017643634E-15
 21
1.0
 31
0.0
 73
     1
 44
1.0
  0
ENDBLK
  5
127
330
125
100
AcDbEntity
  8
0
100
AcDbBlockEnd
  0
BLOCK
  5
130
330
12F
100
AcDbEntity
  8
0
100
AcDbBlockBegin
  2
_D_1
 70
     0
 10
0.0
 20
0.0
 30
0.0
  3
_D_1
  1

  0
SOLID
  5
132
330
12F
100
AcDbEntity
  8
DIM
 62
     7
100
AcDbTrace
 10
245.7335695318
 20
317.7590592828
 30
0.0
 11
250.7335695318
 21
317.1340592828
 31
0.0
 12
250.7335695318
 22
318.3840592828
 32
0.0
 13
250.7335695318
 23
318.3840592828
 33
0.0
  0
SOLID
  5
133
330
12F
100
AcDbEntity
  8
DIM
 62
     7
100
AcDbTrace
 10
283.8335695318
 20
317.7590592828
 30
0.0
 11
278.8335695318
 21
318.3840592828
 31
0.0
 12
278.8335695318
 22
317.1340592828
 32
0.0
 13
278.8335695318
 23
317.1340592828
 33
0.0
  0
LINE
  5
134
330
12F
100
AcDbEntity
  8
DIM
 62
     7
100
AcDbLine
 10
245.7335695318
 20
306.2590592828
 30
0.0
 11
245.7335695318
 21
320.2590592828
 31
0.0
  0
LINE
  5
135
330
12F
100
AcDbEntity
  8
DIM
 62
     7
100
AcDbLine
 10
283.8335695318
 20
306.2590592828
 30
0.0
 11
283.8335695318
 21
320.2590592828
 31
0.0
  0
LINE
  5
136
330
12F
100
AcDbEntity
  8
DIM
 62
     7
100
AcDbLine
 10
245.7335695318
 20
317.7590592828
 30
0.0
 11
283.8335695318
 21
317.7590592828
 31
0.0
  0
MTEXT
  5
137
330
12F
100
AcDbEntity
  8
DIM
 62
     7
100
AcDbMText
 10
251.8723280303
 20
325.8157320742
 30
0.0
 40
6.25
 41
0.0
 71
     1
 72
     1
  1
%%c
  7
SLDTEXTSTYLE1
 73
     1
 44
1.0
  0
MTEXT
  5
138
330
12F
100
AcDbEntity
  8
DIM
 62
     7
100
AcDbMText
 10
260.9847414208
 20
325.8330932367
 30
0.0
 40
6.25
 41
0.0
 71
     1
 72
     1
  1
38.1
  7
SLDTEXTSTYLE1
 73
     1
 44
1.0
  0
ENDBLK
  5
131
330
12F
100
AcDbEntity
  8
0
100
AcDbBlockEnd
  0
BLOCK
  5
13B
330
13A
100
AcDbEntity
  8
0
100
AcDbBlockBegin
  2
_D_2
 70
     0
 10
0.0
 20
0.0
 30
0.0
  3
_D_2
  1

  0
SOLID
  5
13D
330
13A
100
AcDbEntity
  8
DIM
 62
     7
100
AcDbTrace
 10
227.2835695318
 20
59.1421926535
 30
0.0
 11
232.2835695318
 21
58.5171926535
 31
0.0
 12
232.2835695318
 22
59.7671926535
 32
0.0
 13
232.2835695318
 23
59.7671926535
 33
0.0
  0
SOLID
  5
13E
330
13A
100
AcDbEntity
  8
DIM
 62
     7
100
AcDbTrace
 10
302.2835695318
 20
59.1421926535
 30
0.0
 11
297.2835695318
 21
59.7671926535
 31
0.0
 12
297.2835695318
 22
58.5171926535
 32
0.0
 13
297.2835695318
 23
58.5171926535
 33
0.0
  0
LINE
  5
13F
330
13A
100
AcDbEntity
  8
DIM
 62
     7
100
AcDbLine
 10
227.2835695318
 20
76.6421926535
 30
0.0
 11
227.2835695318
 21
56.6421926535
 31
0.0
  0
LINE
  5
140
330
13A
100
AcDbEntity
  8
DIM
 62
     7
100
AcDbLine
 10
302.2835695318
 20
76.6421926535
 30
0.0
 11
302.2835695318
 21
56.6421926535
 31
0.0
  0
LINE
  5
141
330
13A
100
AcDbEntity
  8
DIM
 62
     7
100
AcDbLine
 10
227.2835695318
 20
59.1421926535
 30
0.0
 11
302.2835695318
 21
59.1421926535
 31
0.0
  0
MTEXT
  5
142
330
13A
100
AcDbEntity
  8
DIM
 62
     7
100
AcDbMText
 10
255.4530572745
 20
67.198865445
 30
0.0
 40
6.25
 41
0.0
 71
     1
 72
     1
  1
%%c
  7
SLDTEXTSTYLE1
 73
     1
 44
1.0
  0
MTEXT
  5
143
330
13A
100
AcDbEntity
  8
DIM
 62
     7
100
AcDbMText
 10
264.5654706651
 20
67.2162266075
 30
0.0
 40
6.25
 41
0.0
 71
     1
 72
     1
  1
75
  7
SLDTEXTSTYLE1
 73
     1
 44
1.0
  0
ENDBLK
  5
13C
330
13A
100
AcDbEntity
  8
0
100
AcDbBlockEnd
  0
BLOCK
  5
166
330
165
100
AcDbEntity
  8
0
100
AcDbBlockBegin
  2
_D_3
 70
     0
 10
0.0
 20
0.0
 30
0.0
  3
_D_3
  1

  0
SOLID
  5
168
330
165
100
AcDbEntity
  8
DIM
 62
     7
100
AcDbTrace
 10
214.7835695318
 20
389.2079124134
 30
0.0
 11
214.1585695318
 21
384.2079124134
 31
0.0
 12
215.4085695318
 22
384.2079124134
 32
0.0
 13
215.4085695318
 23
384.2079124134
 33
0.0
  0
SOLID
  5
169
330
165
100
AcDbEntity
  8
DIM
 62
     7
100
AcDbTrace
 10
214.7835695318
 20
363.8079124134
 30
0.0
 11
215.4085695318
 21
368.8079124134
 31
0.0
 12
214.1585695318
 22
368.8079124134
 32
0.0
 13
214.1585695318
 23
368.8079124134
 33
0.0
  0
LINE
  5
16A
330
165
100
AcDbEntity
  8
DIM
 62
     7
100
AcDbLine
 10
287.6835695318
 20
389.2079124134
 30
0.0
 11
212.2835695318
 21
389.2079124134
 31
0.0
  0
LINE
  5
16B
330
165
100
AcDbEntity
  8
DIM
 62
     7
100
AcDbLine
 10
262.2835695318
 20
363.8079124134
 30
0.0
 11
212.2835695318
 21
363.8079124134
 31
0.0
  0
LINE
  5
16C
330
165
100
AcDbEntity
  8
DIM
 62
     7
100
AcDbLine
 10
214.7835695318
 20
389.2079124134
 30
0.0
 11
214.7835695318
 21
363.8079124134
 31
0.0
  0
MTEXT
  5
16D
330
165
100
AcDbEntity
  8
DIM
 62
     7
100
AcDbMText
 10
206.7268965948
 20
368.1528778982
 30
0.0
 40
6.25
 41
0.0
 71
     1
 72
     1
  1
25.4
  7
SLDTEXTSTYLE1
 11
-7.044195017643634E-15
 21
1.0
 31
0.0
 73
     1
 44
1.0
  0
ENDBLK
  5
167
330
165
100
AcDbEntity
  8
0
100
AcDbBlockEnd
  0
BLOCK
  5
170
330
16F
100
AcDbEntity
  8
0
100
AcDbBlockBegin
  2
_D_4
 70
     0
 10
0.0
 20
0.0
 30
0.0
  3
_D_4
  1

  0
SOLID
  5
172
330
16F
100
AcDbEntity
  8
DIM
 62
     7
100
AcDbTrace
 10
214.7835695318
 20
389.2079124134
 30
0.0
 11
215.4085695318
 21
394.2079124134
 31
0.0
 12
214.1585695318
 22
394.2079124134
 32
0.0
 13
214.1585695318
 23
394.2079124134
 33
0.0
  0
SOLID
  5
173
330
16F
100
AcDbEntity
  8
DIM
 62
     7
100
AcDbTrace
 10
214.7835695318
 20
414.6079124134
 30
0.0
 11
214.1585695318
 21
409.6079124134
 31
0.0
 12
215.4085695318
 22
409.6079124134
 32
0.0
 13
215.4085695318
 23
409.6079124134
 33
0.0
  0
LINE
  5
174
330
16F
100
AcDbEntity
  8
DIM
 62
     7
100
AcDbLine
 10
236.8835695318
 20
389.2079124134
 30
0.0
 11
212.2835695318
 21
389.2079124134
 31
0.0
  0
LINE
  5
175
330
16F
100
AcDbEntity
  8
DIM
 62
     7
100
AcDbLine
 10
262.2835695318
 20
414.6079124134
 30
0.0
 11
212.2835695318
 21
414.6079124134
 31
0.0
  0
LINE
  5
176
330
16F
100
AcDbEntity
  8
DIM
 62
     7
100
AcDbLine
 10
214.7835695318
 20
389.2079124134
 30
0.0
 11
214.7835695318
 21
414.6079124134
 31
0.0
  0
MTEXT
  5
177
330
16F
100
AcDbEntity
  8
DIM
 62
     7
100
AcDbMText
 10
206.7268965948
 20
393.5528778982
 30
0.0
 40
6.25
 41
0.0
 71
     1
 72
     1
  1
25.4
  7
SLDTEXTSTYLE1
 11
6.123233995736766E-17
 21
1.0
 31
0.0
 73
     1
 44
1.0
  0
ENDBLK
  5
171
330
16F
100
AcDbEntity
  8
0
100
AcDbBlockEnd
  0
BLOCK
  5
17A
330
179
100
AcDbEntity
  8
0
100
AcDbBlockBegin
  2
_D_5
 70
     0
 10
0.0
 20
0.0
 30
0.0
  3
_D_5
  1

  0
SOLID
  5
17C
330
179
100
AcDbEntity
  8
DIM
 62
     7
100
AcDbTrace
 10
239.3835695318
 20
436.6232373692
 30
0.0
 11
244.3835695318
 21
435.9982373692
 31
0.0
 12
244.3835695318
 22
437.2482373692
 32
0.0
 13
244.3835695318
 23
437.2482373692
 33
0.0
  0
SOLID
  5
17D
330
179
100
AcDbEntity
  8
DIM
 62
     7
100
AcDbTrace
 10
264.7835695318
 20
436.6232373692
 30
0.0
 11
259.7835695318
 21
437.2482373692
 31
0.0
 12
259.7835695318
 22
435.9982373692
 32
0.0
 13
259.7835695318
 23
435.9982373692
 33
0.0
  0
LINE
  5
17E
330
179
100
AcDbEntity
  8
DIM
 62
     7
100
AcDbLine
 10
239.3835695318
 20
398.4622824134
 30
0.0
 11
239.3835695318
 21
439.1232373692
 31
0.0
  0
LINE
  5
17F
330
179
100
AcDbEntity
  8
DIM
 62
     7
100
AcDbLine
 10
264.7835695318
 20
423.8622824134
 30
0.0
 11
264.7835695318
 21
439.1232373692
 31
0.0
  0
LINE
  5
180
330
179
100
AcDbEntity
  8
DIM
 62
     7
100
AcDbLine
 10
239.3835695318
 20
436.6232373692
 30
0.0
 11
264.7835695318
 21
436.6232373692
 31
0.0
  0
MTEXT
  5
181
330
179
100
AcDbEntity
  8
DIM
 62
     7
100
AcDbMText
 10
243.7285350166
 20
444.6799103062
 30
0.0
 40
6.25
 41
0.0
 71
     1
 72
     1
  1
25.4
  7
SLDTEXTSTYLE1
 73
     1
 44
1.0
  0
ENDBLK
  5
17B
330
179
100
AcDbEntity
  8
0
100
AcDbBlockEnd
  0
BLOCK
  5
184
330
183
100
AcDbEntity
  8
0
100
AcDbBlockBegin
  2
_D_6
 70
     0
 10
0.0
 20
0.0
 30
0.0
  3
_D_6
  1

  0
SOLID
  5
186
330
183
100
AcDbEntity
  8
DIM
 62
     7
100
AcDbTrace
 10
264.7835695318
 20
436.6232373692
 30
0.0
 11
269.7835695318
 21
435.9982373692
 31
0.0
 12
269.7835695318
 22
437.2482373692
 32
0.0
 13
269.7835695318
 23
437.2482373692
 33
0.0
  0
SOLID
  5
187
330
183
100
AcDbEntity
  8
DIM
 62
     7
100
AcDbTrace
 10
290.1835695318
 20
436.6232373692
 30
0.0
 11
285.1835695318
 21
437.2482373692
 31
0.0
 12
285.1835695318
 22
435.9982373692
 32
0.0
 13
285.1835695318
 23
435.9982373692
 33
0.0
  0
LINE
  5
188
330
183
100
AcDbEntity
  8
DIM
 62
     7
100
AcDbLine
 10
264.7835695318
 20
423.8622824134
 30
0.0
 11
264.7835695318
 21
439.1232373692
 31
0.0
  0
LINE
  5
189
330
183
100
AcDbEntity
  8
DIM
 62
     7
100
AcDbLine
 10
290.1835695318
 20
398.4622824134
 30
0.0
 11
290.1835695318
 21
439.1232373692
 31
0.0
  0
LINE
  5
18A
330
183
100
AcDbEntity
  8
DIM
 62
     7
100
AcDbLine
 10
264.7835695318
 20
436.6232373692
 30
0.0
 11
290.1835695318
 21
436.6232373692
 31
0.0
  0
MTEXT
  5
18B
330
183
100
AcDbEntity
  8
DIM
 62
     7
100
AcDbMText
 10
269.1285350166
 20
444.6799103062
 30
0.0
 40
6.25
 41
0.0
 71
     1
 72
     1
  1
25.4
  7
SLDTEXTSTYLE1
 73
     1
 44
1.0
  0
ENDBLK
  5
185
330
183
100
AcDbEntity
  8
0
100
AcDbBlockEnd
  0
BLOCK
  5
18F
330
18E
100
AcDbEntity
  8
0
100
AcDbBlockBegin
  2
_D_7
 70
     0
 10
0.0
 20
0.0
 30
0.0
  3
_D_7
  1

  0
SOLID
  5
191
330
18E
100
AcDbEntity
  8
DIM
100
AcDbTrace
 10
294.2525235803
 20
393.2768664619
 30
0.0
 11
298.2299992245
 21
396.3704586296
 31
0.0
 12
297.346115748
 22
397.2543421061
 32
0.0
 13
297.346115748
 23
397.2543421061
 33
0.0
  0
LINE
  5
192
330
18E
100
AcDbEntity
  8
DIM
100
AcDbLine
 10
294.2525235803
 20
393.2768664619
 30
0.0
 11
312.5782411373
 21
411.6025840189
 31
0.0
  0
LINE
  5
193
330
18E
100
AcDbEntity
  8
DIM
100
AcDbLine
 10
312.5782411373
 20
411.6025840189
 30
0.0
 11
365.0348391211
 21
411.6025840189
 31
0.0
  0
MTEXT
  5
194
330
18E
100
AcDbEntity
  8
DIM
100
AcDbMText
 10
315.7032411373
 20
429.2512706223
 30
0.0
 40
6.25
 41
0.0
 71
     1
 72
     1
  1
4 HOLES,
  7
SLDTEXTSTYLE1
 73
     1
 44
1.0
  0
MTEXT
  5
195
330
18E
100
AcDbEntity
  8
DIM
100
AcDbMText
 10
315.7032411373
 20
419.6592569559
 30
0.0
 40
6.25
 41
0.0
 71
     1
 72
     1
  1
 1/4"-20 CLR
  7
SLDTEXTSTYLE1
 73
     1
 44
1.0
  0
ENDBLK
  5
190
330
18E
100
AcDbEntity
  8
0
100
AcDbBlockEnd
  0
BLOCK
  5
197
330
196
100
AcDbEntity
  8
0
100
AcDbBlockBegin
  2
SW_CENTERMARKSYMBOL_0
 70
     0
 10
0.0
 20
0.0
 30
0.0
  3
SW_CENTERMARKSYMBOL_0
  1

  0
LINE
  5
199
330
196
100
AcDbEntity
  8
DIM
 62
     0
100
AcDbLine
 10
0.0
 20
0.0
 30
0.0
 11
0.0
 21
1.0
 31
0.0
  0
LINE
  5
19A
330
196
100
AcDbEntity
  8
DIM
 62
     0
100
AcDbLine
 10
0.0
 20
0.0
 30
0.0
 11
-1.0
 21
0.0
 31
0.0
  0
LINE
  5
19B
330
196
100
AcDbEntity
  8
DIM
 62
     0
100
AcDbLine
 10
0.0
 20
0.0
 30
0.0
 11
0.0
 21
-1.0
 31
0.0
  0
LINE
  5
19C
330
196
100
AcDbEntity
  8
DIM
 62
     0
100
AcDbLine
 10
0.0
 20
0.0
 30
0.0
 11
1.0
 21
0.0
 31
0.0
  0
LINE
  5
19D
330
196
100
AcDbEntity
  8
DIM
 62
     0
100
AcDbLine
 10
0.0
 20
2.0
 30
0.0
 11
0.0
 21
38.5
 31
0.0
  0
LINE
  5
19E
330
196
100
AcDbEntity
  8
DIM
 62
     0
100
AcDbLine
 10
-2.0
 20
0.0
 30
0.0
 11
-38.5
 21
0.0
 31
0.0
  0
LINE
  5
19F
330
196
100
AcDbEntity
  8
DIM
 62
     0
100
AcDbLine
 10
0.0
 20
-2.0
 30
0.0
 11
0.0
 21
-38.5
 31
0.0
  0
LINE
  5
1A0
330
196
100
AcDbEntity
  8
DIM
 62
     0
100
AcDbLine
 10
2.0
 20
0.0
 30
0.0
 11
38.5
 21
0.0
 31
0.0
  0
ENDBLK
  5
198
330
196
100
AcDbEntity
  8
0
100
AcDbBlockEnd
  0
BLOCK
  5
1A3
330
1A2
100
AcDbEntity
  8
0
100
AcDbBlockBegin
  2
SW_CENTERMARKSYMBOL_1
 70
     0
 10
0.0
 20
0.0
 30
0.0
  3
SW_CENTERMARKSYMBOL_1
  1

  0
LINE
  5
1A5
330
1A2
100
AcDbEntity
  8
DIM
 62
     0
100
AcDbLine
 10
0.0
 20
0.0
 30
0.0
 11
0.0
 21
1.0
 31
0.0
  0
LINE
  5
1A6
330
1A2
100
AcDbEntity
  8
DIM
 62
     0
100
AcDbLine
 10
0.0
 20
0.0
 30
0.0
 11
-1.0
 21
0.0
 31
0.0
  0
LINE
  5
1A7
330
1A2
100
AcDbEntity
  8
DIM
 62
     0
100
AcDbLine
 10
0.0
 20
0.0
 30
0.0
 11
0.0
 21
-1.0
 31
0.0
  0
LINE
  5
1A8
330
1A2
100
AcDbEntity
  8
DIM
 62
     0
100
AcDbLine
 10
0.0
 20
0.0
 30
0.0
 11
1.0
 21
0.0
 31
0.0
  0
LINE
  5
1A9
330
1A2
100
AcDbEntity
  8
DIM
 62
     0
100
AcDbLine
 10
0.0
 20
2.0
 30
0.0
 11
0.0
 21
6.75437
 31
0.0
  0
LINE
  5
1AA
330
1A2
100
AcDbEntity
  8
DIM
 62
     0
100
AcDbLine
 10
-2.0
 20
0.0
 30
0.0
 11
-6.75437
 21
0.0
 31
0.0
  0
LINE
  5
1AB
330
1A2
100
AcDbEntity
  8
DIM
 62
     0
100
AcDbLine
 10
0.0
 20
-2.0
 30
0.0
 11
0.0
 21
-6.75437
 31
0.0
  0
LINE
  5
1AC
330
1A2
100
AcDbEntity
  8
DIM
 62
     0
100
AcDbLine
 10
2.0
 20
0.0
 30
0.0
 11
6.75437
 21
0.0
 31
0.0
  0
ENDBLK
  5
1A4
330
1A2
100
AcDbEntity
  8
0
100
AcDbBlockEnd
  0
BLOCK
  5
1AF
330
1AE
100
AcDbEntity
  8
0
100
AcDbBlockBegin
  2
SW_CENTERMARKSYMBOL_2
 70
     0
 10
0.0
 20
0.0
 30
0.0
  3
SW_CENTERMARKSYMBOL_2
  1

  0
LINE
  5
1B1
330
1AE
100
AcDbEntity
  8
DIM
 62
     0
100
AcDbLine
 10
0.0
 20
0.0
 30
0.0
 11
0.0
 21
1.0
 31
0.0
  0
LINE
  5
1B2
330
1AE
100
AcDbEntity
  8
DIM
 62
     0
100
AcDbLine
 10
0.0
 20
0.0
 30
0.0
 11
-1.0
 21
0.0
 31
0.0
  0
LINE
  5
1B3
330
1AE
100
AcDbEntity
  8
DIM
 62
     0
100
AcDbLine
 10
0.0
 20
0.0
 30
0.0
 11
0.0
 21
-1.0
 31
0.0
  0
LINE
  5
1B4
330
1AE
100
AcDbEntity
  8
DIM
 62
     0
100
AcDbLine
 10
0.0
 20
0.0
 30
0.0
 11
1.0
 21
0.0
 31
0.0
  0
LINE
  5
1B5
330
1AE
100
AcDbEntity
  8
DIM
 62
     0
100
AcDbLine
 10
0.0
 20
2.0
 30
0.0
 11
0.0
 21
6.75437
 31
0.0
  0
LINE
  5
1B6
330
1AE
100
AcDbEntity
  8
DIM
 62
     0
100
AcDbLine
 10
-2.0
 20
0.0
 30
0.0
 11
-6.75437
 21
0.0
 31
0.0
  0
LINE
  5
1B7
330
1AE
100
AcDbEntity
  8
DIM
 62
     0
100
AcDbLine
 10
0.0
 20
-2.0
 30
0.0
 11
0.0
 21
-6.75437
 31
0.0
  0
LINE
  5
1B8
330
1AE
100
AcDbEntity
  8
DIM
 62
     0
100
AcDbLine
 10
2.0
 20
0.0
 30
0.0
 11
6.75437
 21
0.0
 31
0.0
  0
ENDBLK
  5
1B0
330
1AE
100
AcDbEntity
  8
0
100
AcDbBlockEnd
  0
BLOCK
  5
1BB
330
1BA
100
AcDbEntity
  8
0
100
AcDbBlockBegin
  2
SW_CENTERMARKSYMBOL_3
 70
     0
 10
0.0
 20
0.0
 30
0.0
  3
SW_CENTERMARKSYMBOL_3
  1

  0
LINE
  5
1BD
330
1BA
100
AcDbEntity
  8
DIM
 62
     0
100
AcDbLine
 10
0.0
 20
0.0
 30
0.0
 11
0.0
 21
1.0
 31
0.0
  0
LINE
  5
1BE
330
1BA
100
AcDbEntity
  8
DIM
 62
     0
100
AcDbLine
 10
0.0
 20
0.0
 30
0.0
 11
-1.0
 21
0.0
 31
0.0
  0
LINE
  5
1BF
330
1BA
100
AcDbEntity
  8
DIM
 62
     0
100
AcDbLine
 10
0.0
 20
0.0
 30
0.0
 11
0.0
 21
-1.0
 31
0.0
  0
LINE
  5
1C0
330
1BA
100
AcDbEntity
  8
DIM
 62
     0
100
AcDbLine
 10
0.0
 20
0.0
 30
0.0
 11
1.0
 21
0.0
 31
0.0
  0
LINE
  5
1C1
330
1BA
100
AcDbEntity
  8
DIM
 62
     0
100
AcDbLine
 10
0.0
 20
2.0
 30
0.0
 11
0.0
 21
6.75437
 31
0.0
  0
LINE
  5
1C2
330
1BA
100
AcDbEntity
  8
DIM
 62
     0
100
AcDbLine
 10
-2.0
 20
0.0
 30
0.0
 11
-6.75437
 21
0.0
 31
0.0
  0
LINE
  5
1C3
330
1BA
100
AcDbEntity
  8
DIM
 62
     0
100
AcDbLine
 10
0.0
 20
-2.0
 30
0.0
 11
0.0
 21
-6.75437
 31
0.0
  0
LINE
  5
1C4
330
1BA
100
AcDbEntity
  8
DIM
 62
     0
100
AcDbLine
 10
2.0
 20
0.0
 30
0.0
 11
6.75437
 21
0.0
 31
0.0
  0
ENDBLK
  5
1BC
330
1BA
100
AcDbEntity
  8
0
100
AcDbBlockEnd
  0
BLOCK
  5
1C7
330
1C6
100
AcDbEntity
  8
0
100
AcDbBlockBegin
  2
SW_CENTERMARKSYMBOL_4
 70
     0
 10
0.0
 20
0.0
 30
0.0
  3
SW_CENTERMARKSYMBOL_4
  1

  0
LINE
  5
1C9
330
1C6
100
AcDbEntity
  8
DIM
 62
     0
100
AcDbLine
 10
0.0
 20
0.0
 30
0.0
 11
0.0
 21
1.0
 31
0.0
  0
LINE
  5
1CA
330
1C6
100
AcDbEntity
  8
DIM
 62
     0
100
AcDbLine
 10
0.0
 20
0.0
 30
0.0
 11
-1.0
 21
0.0
 31
0.0
  0
LINE
  5
1CB
330
1C6
100
AcDbEntity
  8
DIM
 62
     0
100
AcDbLine
 10
0.0
 20
0.0
 30
0.0
 11
0.0
 21
-1.0
 31
0.0
  0
LINE
  5
1CC
330
1C6
100
AcDbEntity
  8
DIM
 62
     0
100
AcDbLine
 10
0.0
 20
0.0
 30
0.0
 11
1.0
 21
0.0
 31
0.0
  0
LINE
  5
1CD
330
1C6
100
AcDbEntity
  8
DIM
 62
     0
100
AcDbLine
 10
0.0
 20
2.0
 30
0.0
 11
0.0
 21
6.75437
 31
0.0
  0
LINE
  5
1CE
330
1C6
100
AcDbEntity
  8
DIM
 62
     0
100
AcDbLine
 10
-2.0
 20
0.0
 30
0.0
 11
-6.75437
 21
0.0
 31
0.0
  0
LINE
  5
1CF
330
1C6
100
AcDbEntity
  8
DIM
 62
     0
100
AcDbLine
 10
0.0
 20
-2.0
 30
0.0
 11
0.0
 21
-6.75437
 31
0.0
  0
LINE
  5
1D0
330
1C6
100
AcDbEntity
  8
DIM
 62
     0
100
AcDbLine
 10
2.0
 20
0.0
 30
0.0
 11
6.75437
 21
0.0
 31
0.0
  0
ENDBLK
  5
1C8
330
1C6
100
AcDbEntity
  8
0
100
AcDbBlockEnd
  0
ENDSEC
  0
SECTION
  2
ENTITIES
  0
HATCH
  5
7B
330
1F
100
AcDbEntity
  8
DIM
 62
     7
100
AcDbHatch
 10
0.0
 20
0.0
 30
0.0
210
0.0
220
0.0
230
1.0
  2
SOLID
 70
     1
 71
     0
 91
        1
 92
        0
 93
       10
 72
     2
 10
481.3118979461079
 20
89.26611661844636
 40
7.614378489328119
 50
249.2112209143411
 51
308.9221353953365
 73
     1
 72
     1
 10
486.0957353491943
 20
83.34212645306167
 11
488.5077845022371
 21
81.2239094939558
 72
     1
 10
488.5077845022371
 20
81.2239094939558
 11
480.4824345693477
 21
73.4313102120498
 72
     1
 10
480.4824345693477
 20
73.4313102120498
 11
478.1304334306126
 21
75.4563028873248
 72
     1
 10
478.1304334306126
 20
75.4563028873248
 11
479.7080632316506
 21
76.99605386350235
 72
     1
 10
479.7080632316506
 20
76.99605386350235
 11
469.6850574561615
 21
85.70756346418906
 72
     2
 10
472.2224110300133
 20
88.57646440359034
 40
3.829981169514521
 50
131.490638092959
 51
229.7089352075139
 73
     0
 72
     1
 10
469.7456739112245
 20
91.49785602459045
 11
473.0122445484287
 21
94.65182371585924
 72
     1
 10
473.0122445484287
 20
94.65182371585924
 11
475.5502291669349
 21
92.41299396381477
 72
     2
 10
480.4834049253666
 20
88.2945122453278
 40
6.426360924278208
 50
140.1430462780656
 51
253.0452525074007
 73
     1
 97
        0
 75
     0
 76
     1
 98
        1
 10
0.0
 20
0.0
  0
HATCH
  5
7C
330
1F
100
AcDbEntity
  8
DIM
 62
     1
100
AcDbHatch
 10
0.0
 20
0.0
 30
0.0
210
0.0
220
0.0
230
1.0
  2
SOLID
 70
     1
 71
     0
 91
        1
 92
        0
 93
       10
 72
     2
 10
481.6448115435176
 20
87.38061752169128
 40
7.954091761319676
 50
234.1674444878508
 51
314.4407074583994
 73
     0
 72
     2
 10
482.4389522703288
 20
88.7326720353867
 40
6.443918720865625
 50
317.8184992995784
 51
398.056471157308
 73
     0
 72
     1
 10
487.5129168779475
 20
84.7603966620326
 11
489.9765391104045
 21
82.61365431230888
 72
     1
 10
489.9765391104045
 20
82.61365431230888
 11
493.0807423973889
 21
85.6247366683269
 72
     2
 10
490.8472615832337
 20
88.69460349787923
 40
3.796382343545663
 50
306.0377529468124
 51
403.4396461533871
 73
     1
 72
     1
 10
493.6038112449144
 20
91.3049584279746
 11
483.2869215990561
 21
100.2778990995595
 72
     1
 10
483.2869215990561
 20
100.2778990995595
 11
484.8475498538743
 21
101.8005451766528
 72
     1
 10
484.8475498538743
 20
101.8005451766528
 11
482.5212835784142
 21
103.8760257262641
 72
     1
 10
482.5212835784142
 20
103.8760257262641
 11
474.4323199573895
 21
96.05872510972884
 72
     1
 10
474.4323199573895
 20
96.05872510972884
 11
476.9883396507609
 21
93.82924879192684
 97
        0
 75
     0
 76
     1
 98
        1
 10
0.0
 20
0.0
  0
LINE
  5
7D
330
1F
100
AcDbEntity
  8
0
  6
Continuous
 62
     7
370
     0
100
AcDbLine
 10
419.6484437962
 20
44.4362981281
 30
0.0
 11
422.1484437962
 21
44.4362981281
 31
0.0
  0
LINE
  5
7E
330
1F
100
AcDbEntity
  8
0
  6
Continuous
 62
     7
370
     0
100
AcDbLine
 10
412.1484437962
 20
44.4362981281
 30
0.0
 11
418.3984437962
 21
44.4362981281
 31
0.0
  0
LINE
  5
7F
330
1F
100
AcDbEntity
  8
0
  6
Continuous
 62
     7
370
     0
100
AcDbLine
 10
453.3984437962
 20
38.1862981281
 30
0.0
 11
453.3984437962
 21
50.6862981281
 31
0.0
  0
LINE
  5
80
330
1F
100
AcDbEntity
  8
0
  6
Continuous
 62
     7
370
     0
100
AcDbLine
 10
435.8984437962
 20
40.6862981281
 30
0.0
 11
453.3984437962
 21
38.1862981281
 31
0.0
  0
LINE
  5
81
330
1F
100
AcDbEntity
  8
0
  6
Continuous
 62
     7
370
     0
100
AcDbLine
 10
420.8984437962
 20
41.9362981281
 30
0.0
 11
420.8984437962
 21
35.6862981281
 31
0.0
  0
LINE
  5
82
330
1F
100
AcDbEntity
  8
0
  6
Continuous
 62
     7
370
     0
100
AcDbLine
 10
453.3984437962
 20
50.6862981281
 30
0.0
 11
435.8984437962
 21
48.1862981281
 31
0.0
  0
LINE
  5
83
330
1F
100
AcDbEntity
  8
0
  6
Continuous
 62
     7
370
     0
100
AcDbLine
 10
433.3984437962
 20
44.4362981281
 30
0.0
 11
455.8984437962
 21
44.4362981281
 31
0.0
  0
LINE
  5
84
330
1F
100
AcDbEntity
  8
0
  6
Continuous
 62
     7
370
     0
100
AcDbLine
 10
420.8984437962
 20
45.6862981281
 30
0.0
 11
420.8984437962
 21
43.1862981281
 31
0.0
  0
LINE
  5
85
330
1F
100
AcDbEntity
  8
0
  6
Continuous
 62
     7
370
     0
100
AcDbLine
 10
423.3984437962
 20
44.4362981281
 30
0.0
 11
429.6484437962
 21
44.4362981281
 31
0.0
  0
LINE
  5
86
330
1F
100
AcDbEntity
  8
0
  6
Continuous
 62
     7
370
     0
100
AcDbLine
 10
420.8984437962
 20
53.1862981281
 30
0.0
 11
420.8984437962
 21
46.9362981281
 31
0.0
  0
LINE
  5
87
330
1F
100
AcDbEntity
  8
0
  6
Continuous
 62
     7
370
     0
100
AcDbLine
 10
435.8984437962
 20
48.1862981281
 30
0.0
 11
435.8984437962
 21
40.6862981281
 31
0.0
  0
LINE
  5
88
330
1F
100
AcDbEntity
  8
0
370
     0
100
AcDbLine
 10
488.5077845022
 20
81.223909494
 30
0.0
 11
480.4824345693
 21
73.431310212
 31
0.0
  0
LINE
  5
89
330
1F
100
AcDbEntity
  8
0
370
     0
100
AcDbLine
 10
480.4824345693
 20
73.431310212
 30
0.0
 11
478.1304334306
 21
75.4563028873
 31
0.0
  0
LINE
  5
8A
330
1F
100
AcDbEntity
  8
0
370
     0
100
AcDbLine
 10
478.1304334306
 20
75.4563028873
 30
0.0
 11
479.7080632317
 21
76.9960538635
 31
0.0
  0
LINE
  5
8B
330
1F
100
AcDbEntity
  8
0
370
     0
100
AcDbLine
 10
469.6850574562
 20
85.7075634642
 30
0.0
 11
479.7080632317
 21
76.9960538635
 31
0.0
  0
LINE
  5
8C
330
1F
100
AcDbEntity
  8
0
370
     0
100
AcDbLine
 10
473.0122445484
 20
94.6518237159
 30
0.0
 11
469.7456739112
 21
91.4978560246
 31
0.0
  0
LINE
  5
8D
330
1F
100
AcDbEntity
  8
0
370
     0
100
AcDbLine
 10
473.0122445484
 20
94.6518237159
 30
0.0
 11
475.5502291669
 21
92.4129939638
 31
0.0
  0
LINE
  5
8E
330
1F
100
AcDbEntity
  8
0
370
     0
100
AcDbLine
 10
486.0957353492
 20
83.3421264531
 30
0.0
 11
488.5077845022
 21
81.223909494
 31
0.0
  0
LINE
  5
8F
330
1F
100
AcDbEntity
  8
0
 62
     1
370
     0
100
AcDbLine
 10
476.9883396508
 20
93.8292487919
 30
0.0
 11
474.4323199574
 21
96.0587251097
 31
0.0
  0
LINE
  5
90
330
1F
100
AcDbEntity
  8
0
 62
     1
370
     0
100
AcDbLine
 10
474.4323199574
 20
96.0587251097
 30
0.0
 11
482.5212835784
 21
103.8760257263
 31
0.0
  0
LINE
  5
91
330
1F
100
AcDbEntity
  8
0
 62
     1
370
     0
100
AcDbLine
 10
482.5212835784
 20
103.8760257263
 30
0.0
 11
484.8475498539
 21
101.8005451767
 31
0.0
  0
LINE
  5
92
330
1F
100
AcDbEntity
  8
0
 62
     1
370
     0
100
AcDbLine
 10
484.8475498539
 20
101.8005451767
 30
0.0
 11
483.2869215991
 21
100.2778990996
 31
0.0
  0
LINE
  5
93
330
1F
100
AcDbEntity
  8
0
 62
     1
370
     0
100
AcDbLine
 10
483.2869215991
 20
100.2778990996
 30
0.0
 11
493.6038112449
 21
91.304958428
 31
0.0
  0
LINE
  5
94
330
1F
100
AcDbEntity
  8
0
 62
     1
370
     0
100
AcDbLine
 10
487.5129168779
 20
84.760396662
 30
0.0
 11
489.9765391104
 21
82.6136543123
 31
0.0
  0
LINE
  5
95
330
1F
100
AcDbEntity
  8
0
 62
     1
370
     0
100
AcDbLine
 10
489.9765391104
 20
82.6136543123
 30
0.0
 11
493.0807423974
 21
85.6247366683
 31
0.0
  0
LINE
  5
96
330
1F
100
AcDbEntity
  8
0
  6
Continuous
 62
     7
370
     0
100
AcDbLine
 10
464.2269913023
 20
32.7881160198
 30
0.0
 11
714.2269913023
 21
32.7881160198
 31
0.0
  0
LINE
  5
97
330
1F
100
AcDbEntity
  8
0
  6
Continuous
 62
     7
370
     0
100
AcDbLine
 10
464.2269913023
 20
45.2881160198
 30
0.0
 11
589.2269913023
 21
45.2881160198
 31
0.0
  0
LINE
  5
98
330
1F
100
AcDbEntity
  8
0
  6
Continuous
 62
     7
370
     0
100
AcDbLine
 10
464.2269913023
 20
57.7881160198
 30
0.0
 11
589.2269913023
 21
57.7881160198
 31
0.0
  0
LINE
  5
99
330
1F
100
AcDbEntity
  8
0
  6
Continuous
 62
     7
370
     0
100
AcDbLine
 10
464.2269913023
 20
70.2881160198
 30
0.0
 11
714.2269913023
 21
70.2881160198
 31
0.0
  0
LINE
  5
9A
330
1F
100
AcDbEntity
  8
0
  6
Continuous
 62
     7
370
     0
100
AcDbLine
 10
589.2269913023
 20
82.7881160198
 30
0.0
 11
714.2269913023
 21
82.7881160198
 31
0.0
  0
LINE
  5
9B
330
1F
100
AcDbEntity
  8
0
  6
Continuous
 62
     7
370
    15
100
AcDbLine
 10
589.2269913023
 20
45.2881160198
 30
0.0
 11
714.2269913023
 21
45.2881160198
 31
0.0
  0
LINE
  5
9C
330
1F
100
AcDbEntity
  8
0
  6
Continuous
 62
     7
370
     0
100
AcDbLine
 10
464.2269913023
 20
107.7881160198
 30
0.0
 11
714.2269913023
 21
107.7881160198
 31
0.0
  0
LINE
  5
9D
330
1F
100
AcDbEntity
  8
0
  6
Continuous
 62
     7
370
     0
100
AcDbLine
 10
628.0930441876
 20
20.2881160198
 30
0.0
 11
628.0930441876
 21
45.2881160198
 31
0.0
  0
LINE
  5
9E
330
1F
100
AcDbEntity
  8
0
  6
Continuous
 62
     7
370
     0
100
AcDbLine
 10
589.2269913023
 20
20.2881160198
 30
0.0
 11
589.2269913023
 21
107.7881160198
 31
0.0
  0
LINE
  5
9F
330
1F
100
AcDbEntity
  8
0
  6
Continuous
 62
     7
370
     0
100
AcDbLine
 10
628.0930441876
 20
70.2881160198
 30
0.0
 11
628.0930441876
 21
82.7881160198
 31
0.0
  0
LINE
  5
A0
330
1F
100
AcDbEntity
  8
0
  6
Continuous
 62
     7
370
     0
100
AcDbLine
 10
536.0410215883
 20
20.2881160198
 30
0.0
 11
536.0410215883
 21
70.2881160198
 31
0.0
  0
LINE
  5
A1
330
1F
100
AcDbEntity
  8
0
  6
Continuous
 62
     7
370
     0
100
AcDbLine
 10
499.4464718764
 20
20.2881160198
 30
0.0
 11
499.4464718764
 21
70.2881160198
 31
0.0
  0
LINE
  5
A2
330
1F
100
AcDbEntity
  8
0
  6
Continuous
 62
     7
370
     0
100
AcDbLine
 10
464.2269913023
 20
20.2881160198
 30
0.0
 11
464.2269913023
 21
107.7881160198
 31
0.0
  0
LINE
  5
A3
330
1F
100
AcDbEntity
  8
0
  6
Continuous
 62
     7
370
    15
100
AcDbLine
 10
21.7269913023
 20
261.8590924787
 30
0.0
 11
36.7269913023
 21
261.8590924787
 31
0.0
  0
LINE
  5
A4
330
1F
100
AcDbEntity
  8
0
  6
Continuous
 62
     7
370
    15
100
AcDbLine
 10
714.2269913023
 20
261.8590924787
 30
0.0
 11
699.2269913023
 21
261.8590924787
 31
0.0
  0
LINE
  5
A5
330
1F
100
AcDbEntity
  8
0
  6
Continuous
 62
     7
370
    15
100
AcDbLine
 10
367.9769913023
 20
20.2881160198
 30
0.0
 11
367.9769913023
 21
35.2881160198
 31
0.0
  0
LINE
  5
A6
330
1F
100
AcDbEntity
  8
0
  6
Continuous
 62
     7
370
    15
100
AcDbLine
 10
367.9769913023
 20
503.4300689377
 30
0.0
 11
367.9769913023
 21
488.4300689377
 31
0.0
  0
LINE
  5
A7
330
1F
100
AcDbEntity
  8
0
  6
Continuous
 62
     7
370
    15
100
AcDbLine
 10
108.3019913023
 20
503.4300689377
 30
0.0
 11
108.3019913023
 21
507.1800689377
 31
0.0
  0
LINE
  5
A8
330
1F
100
AcDbEntity
  8
0
  6
Continuous
 62
     7
370
    15
100
AcDbLine
 10
194.8769913023
 20
503.4300689377
 30
0.0
 11
194.8769913023
 21
507.1800689377
 31
0.0
  0
LINE
  5
A9
330
1F
100
AcDbEntity
  8
0
  6
Continuous
 62
     7
370
    15
100
AcDbLine
 10
281.4519913023
 20
503.4300689377
 30
0.0
 11
281.4519913023
 21
507.1800689377
 31
0.0
  0
LINE
  5
AA
330
1F
100
AcDbEntity
  8
0
  6
Continuous
 62
     7
370
    15
100
AcDbLine
 10
368.0269913023
 20
503.4300689377
 30
0.0
 11
368.0269913023
 21
507.1800689377
 31
0.0
  0
LINE
  5
AB
330
1F
100
AcDbEntity
  8
0
  6
Continuous
 62
     7
370
    15
100
AcDbLine
 10
454.6019913023
 20
503.4300689377
 30
0.0
 11
454.6019913023
 21
507.1800689377
 31
0.0
  0
LINE
  5
AC
330
1F
100
AcDbEntity
  8
0
  6
Continuous
 62
     7
370
    15
100
AcDbLine
 10
541.1769913023
 20
503.4300689377
 30
0.0
 11
541.1769913023
 21
507.1800689377
 31
0.0
  0
LINE
  5
AD
330
1F
100
AcDbEntity
  8
0
  6
Continuous
 62
     7
370
    15
100
AcDbLine
 10
627.7519913023
 20
503.4300689377
 30
0.0
 11
627.7519913023
 21
507.1800689377
 31
0.0
  0
LINE
  5
AE
330
1F
100
AcDbEntity
  8
0
  6
Continuous
 62
     7
370
    15
100
AcDbLine
 10
108.2894913023
 20
20.2881160198
 30
0.0
 11
108.2894913023
 21
16.5381160198
 31
0.0
  0
LINE
  5
AF
330
1F
100
AcDbEntity
  8
0
  6
Continuous
 62
     7
370
    15
100
AcDbLine
 10
194.8519913023
 20
20.2881160198
 30
0.0
 11
194.8519913023
 21
16.5381160198
 31
0.0
  0
LINE
  5
B0
330
1F
100
AcDbEntity
  8
0
  6
Continuous
 62
     7
370
    15
100
AcDbLine
 10
281.4144913023
 20
20.2881160198
 30
0.0
 11
281.4144913023
 21
16.5381160198
 31
0.0
  0
LINE
  5
B1
330
1F
100
AcDbEntity
  8
0
  6
Continuous
 62
     7
370
    15
100
AcDbLine
 10
367.9769913023
 20
20.2881160198
 30
0.0
 11
367.9769913023
 21
16.5381160198
 31
0.0
  0
LINE
  5
B2
330
1F
100
AcDbEntity
  8
0
  6
Continuous
 62
     7
370
    15
100
AcDbLine
 10
454.5394913023
 20
20.2881160198
 30
0.0
 11
454.5394913023
 21
16.5381160198
 31
0.0
  0
LINE
  5
B3
330
1F
100
AcDbEntity
  8
0
  6
Continuous
 62
     7
370
    15
100
AcDbLine
 10
541.1019913023
 20
20.2881160198
 30
0.0
 11
541.1019913023
 21
16.5381160198
 31
0.0
  0
LINE
  5
B4
330
1F
100
AcDbEntity
  8
0
  6
Continuous
 62
     7
370
     0
100
AcDbLine
 10
714.2269913023
 20
503.4300689377
 30
0.0
 11
21.7269913023
 21
503.4300689377
 31
0.0
  0
LINE
  5
B5
330
1F
100
AcDbEntity
  8
0
  6
Continuous
 62
     7
370
     0
100
AcDbLine
 10
714.2269913023
 20
20.2881160198
 30
0.0
 11
714.2269913023
 21
503.4300689377
 31
0.0
  0
LINE
  5
B6
330
1F
100
AcDbEntity
  8
0
  6
Continuous
 62
     7
370
     0
100
AcDbLine
 10
21.7269913023
 20
503.4300689377
 30
0.0
 11
21.7269913023
 21
20.2881160198
 31
0.0
  0
LINE
  5
B7
330
1F
100
AcDbEntity
  8
0
  6
Continuous
 62
     7
370
     0
100
AcDbLine
 10
21.7269913023
 20
20.2881160198
 30
0.0
 11
714.2269913023
 21
20.2881160198
 31
0.0
  0
LINE
  5
B8
330
1F
100
AcDbEntity
  8
0
  6
Continuous
 62
     7
370
    15
100
AcDbLine
 10
627.6644913023
 20
20.2881160198
 30
0.0
 11
627.6644913023
 21
16.5381160198
 31
0.0
  0
LINE
  5
B9
330
1F
100
AcDbEntity
  8
0
  6
Continuous
 62
     7
370
    15
100
AcDbLine
 10
21.7269913023
 20
100.8131160198
 30
0.0
 11
17.9769913023
 21
100.8131160198
 31
0.0
  0
LINE
  5
BA
330
1F
100
AcDbEntity
  8
0
  6
Continuous
 62
     7
370
    15
100
AcDbLine
 10
21.7269913023
 20
181.3381160198
 30
0.0
 11
17.9769913023
 21
181.3381160198
 31
0.0
  0
LINE
  5
BB
330
1F
100
AcDbEntity
  8
0
  6
Continuous
 62
     7
370
    15
100
AcDbLine
 10
21.7269913023
 20
261.8631160198
 30
0.0
 11
17.9769913023
 21
261.8631160198
 31
0.0
  0
LINE
  5
BC
330
1F
100
AcDbEntity
  8
0
  6
Continuous
 62
     7
370
    15
100
AcDbLine
 10
21.7269913023
 20
342.3881160198
 30
0.0
 11
17.9769913023
 21
342.3881160198
 31
0.0
  0
LINE
  5
BD
330
1F
100
AcDbEntity
  8
0
  6
Continuous
 62
     7
370
    15
100
AcDbLine
 10
21.7269913023
 20
422.9131160198
 30
0.0
 11
17.9769913023
 21
422.9131160198
 31
0.0
  0
LINE
  5
BE
330
1F
100
AcDbEntity
  8
0
  6
Continuous
 62
     7
370
    15
100
AcDbLine
 10
714.2269913023
 20
100.8131160198
 30
0.0
 11
717.9769913023
 21
100.8131160198
 31
0.0
  0
LINE
  5
BF
330
1F
100
AcDbEntity
  8
0
  6
Continuous
 62
     7
370
    15
100
AcDbLine
 10
714.2269913023
 20
181.3381160198
 30
0.0
 11
717.9769913023
 21
181.3381160198
 31
0.0
  0
LINE
  5
C0
330
1F
100
AcDbEntity
  8
0
  6
Continuous
 62
     7
370
    15
100
AcDbLine
 10
714.2269913023
 20
261.8631160198
 30
0.0
 11
717.9769913023
 21
261.8631160198
 31
0.0
  0
LINE
  5
C1
330
1F
100
AcDbEntity
  8
0
  6
Continuous
 62
     7
370
    15
100
AcDbLine
 10
714.2269913023
 20
342.3881160198
 30
0.0
 11
717.9769913023
 21
342.3881160198
 31
0.0
  0
LINE
  5
C2
330
1F
100
AcDbEntity
  8
0
  6
Continuous
 62
     7
370
    15
100
AcDbLine
 10
714.2269913023
 20
422.9131160198
 30
0.0
 11
717.9769913023
 21
422.9131160198
 31
0.0
  0
CIRCLE
  5
C3
330
1F
100
AcDbEntity
  8
0
  6
Continuous
 62
     7
370
     0
100
AcDbCircle
 10
420.8984437962
 20
44.4362981281
 30
0.0
 40
3.750000000000057
  0
CIRCLE
  5
C4
330
1F
100
AcDbEntity
  8
0
  6
Continuous
 62
     7
370
     0
100
AcDbCircle
 10
420.8984437962
 20
44.4362981281
 30
0.0
 40
6.250000000000057
  0
ARC
  5
C5
330
1F
100
AcDbEntity
  8
0
370
     0
100
AcDbCircle
 10
472.22241103
 20
88.5764644036
 30
0.0
 40
3.829981169514539
100
AcDbArc
 50
130.2910647925
 51
228.509361907
  0
ARC
  5
C6
330
1F
100
AcDbEntity
  8
0
370
     0
100
AcDbCircle
 10
480.4834049254
 20
88.2945122453
 30
0.0
 40
6.426360924278229
100
AcDbArc
 50
140.1430462781
 51
253.0452525074
  0
ARC
  5
C7
330
1F
100
AcDbEntity
  8
0
370
     0
100
AcDbCircle
 10
481.3118979461
 20
89.2661166184
 30
0.0
 40
7.614378489328128
100
AcDbArc
 50
249.2112209143
 51
308.9221353953
  0
ARC
  5
C8
330
1F
100
AcDbEntity
  8
0
 62
     1
370
     0
100
AcDbCircle
 10
490.8472615832
 20
88.6946034979
 30
0.0
 40
3.796382343545658
100
AcDbArc
 50
306.0377529468
 51
43.4396461534
  0
ARC
  5
C9
330
1F
100
AcDbEntity
  8
0
 62
     1
370
     0
100
AcDbCircle
 10
481.6448115435
 20
87.3806175217
 30
0.0
 40
7.954091761319694
100
AcDbArc
 50
45.5592925416
 51
125.8325555121
  0
ARC
  5
CA
330
1F
100
AcDbEntity
  8
0
 62
     1
370
     0
100
AcDbCircle
 10
482.4389522703
 20
88.7326720354
 30
0.0
 40
6.443918720865654
100
AcDbArc
 50
321.9435288427
 51
42.1815007004
  0
MTEXT
  5
CC
330
1F
100
AcDbEntity
  8
0
  6
Continuous
 62
     7
370
     0
100
AcDbMText
 10
413.8567127011
 20
33.0521100923
 30
0.0
 40
6.6145833333
 41
0.0
 71
     1
 72
     1
  1
UNIT:m/m
  7
SLDTEXTSTYLE1
 73
     1
 44
1.0
  0
INSERT
  5
D3
330
1F
100
AcDbEntity
  8
0
  6
Continuous
 62
     7
370
     0
100
AcDbBlockReference
  2
SW_NOTE_0
 10
30.5787690133
 20
484.7260760628
 30
0.0
  0
MTEXT
  5
D5
330
1F
100
AcDbEntity
  8
0
  6
Continuous
 62
     7
370
     0
100
AcDbMText
 10
496.8129734837
 20
101.1016935347
 30
0.0
 40
5.953125
 41
0.0
 71
     1
 72
     1
  1
Unice E-O Services Inc.
  7
SLDTEXTSTYLE2
 73
     1
 44
1.0
  0
MTEXT
  5
D6
330
1F
100
AcDbEntity
  8
0
  6
Continuous
 62
     7
370
     0
100
AcDbMText
 10
543.8976345373
 20
53.9667871277
 30
0.0
 40
4.6302083333
 41
0.0
 71
     1
 72
     1
  1
2010/12/30
  7
SLDTEXTSTYLE1
 73
     1
 44
1.0
  0
MTEXT
  5
D7
330
1F
100
AcDbEntity
  8
0
  6
Continuous
 62
     7
370
     0
100
AcDbMText
 10
631.5222456267
 20
42.1779443499
 30
0.0
 40
6.25
 41
0.0
 71
     1
 72
     1
  1
1:2.5
  7
SLDTEXTSTYLE1
 73
     1
 44
1.0
  0
MTEXT
  5
D8
330
1F
100
AcDbEntity
  8
0
  6
Continuous
 62
     7
370
     0
100
AcDbMText
 10
630.7688999962
 20
80.3797988594
 30
0.0
 40
6.25
 41
0.0
 71
     1
 72
     1
  1
07LSR-1
  7
SLDTEXTSTYLE1
 73
     1
 44
1.0
  0
MTEXT
  5
D9
330
1F
100
AcDbEntity
  8
0
  6
Continuous
 62
     7
370
     0
100
AcDbMText
 10
630.7688999962
 20
95.2705294697
 30
0.0
 40
6.25
 41
0.0
 71
     1
 72
     1
  1
07LSR-1
  7
SLDTEXTSTYLE1
 73
     1
 44
1.0
  0
MTEXT
  5
DA
330
1F
100
AcDbEntity
  8
0
  6
Continuous
 62
     7
370
     0
100
AcDbMText
 10
590.9804666966
 20
41.2661989321
 30
0.0
 40
5.2916666667
 41
0.0
 71
     1
 72
     1
  1
SCALE:
  7
SLDTEXTSTYLE1
 73
     1
 44
1.0
  0
MTEXT
  5
DB
330
1F
100
AcDbEntity
  8
0
  6
Continuous
 62
     7
370
     0
100
AcDbMText
 10
465.8340216973
 20
53.9667871277
 30
0.0
 40
4.6302083333
 41
0.0
 71
     1
 72
     1
  1
DRAWN
  7
SLDTEXTSTYLE1
 73
     1
 44
1.0
  0
MTEXT
  5
DC
330
1F
100
AcDbEntity
  8
0
  6
Continuous
 62
     7
370
     0
100
AcDbMText
 10
508.0570919842
 20
66.70802077
 30
0.0
 40
4.6302083333
 41
0.0
 71
     1
 72
     1
  1
NAME
  7
SLDTEXTSTYLE1
 73
     1
 44
1.0
  0
MTEXT
  5
DD
330
1F
100
AcDbEntity
  8
0
  6
Continuous
 62
     7
370
     0
100
AcDbMText
 10
552.1775389394
 20
66.70802077
 30
0.0
 40
4.6302083333
 41
0.0
 71
     1
 72
     1
  1
DATE
  7
SLDTEXTSTYLE1
 73
     1
 44
1.0
  0
MTEXT
  5
DE
330
1F
100
AcDbEntity
  8
0
  6
Continuous
 62
     7
370
     0
100
AcDbMText
 10
590.6890791613
 20
79.4680534415
 30
0.0
 40
5.2916666667
 41
0.0
 71
     1
 72
     1
  1
DWG. NO.
  7
SLDTEXTSTYLE1
 73
     1
 44
1.0
  0
MTEXT
  5
DF
330
1F
100
AcDbEntity
  8
0
  6
Continuous
 62
     7
370
     0
100
AcDbMText
 10
590.9074767721
 20
104.7101645608
 30
0.0
 40
5.2916666667
 41
0.0
 71
     1
 72
     1
  1
TITLE:
  7
SLDTEXTSTYLE1
 73
     1
 44
1.0
  0
MTEXT
  5
E0
330
1F
100
AcDbEntity
  8
0
  6
Continuous
 62
     7
370
     0
100
AcDbMText
 10
507.5785524505
 20
40.600947431
 30
0.0
 40
4.6302083333
 41
0.0
 71
     1
 72
     1
  1
Johnny
  7
SLDTEXTSTYLE1
 73
     1
 44
1.0
  0
MTEXT
  5
E1
330
1F
100
AcDbEntity
  8
0
  6
Continuous
 62
     7
370
     0
100
AcDbMText
 10
543.8976345373
 20
40.600947431
 30
0.0
 40
4.6302083333
 41
0.0
 71
     1
 72
     1
  1
2010/12/30
  7
SLDTEXTSTYLE1
 73
     1
 44
1.0
  0
MTEXT
  5
E2
330
1F
100
AcDbEntity
  8
0
  6
Continuous
 62
     7
370
     0
100
AcDbMText
 10
465.8340216973
 20
40.600947431
 30
0.0
 40
4.6302083333
 41
0.0
 71
     1
 72
     1
  1
ENG APPR.
  7
SLDTEXTSTYLE1
 73
     1
 44
1.0
  0
MTEXT
  5
E3
330
1F
100
AcDbEntity
  8
0
  6
Continuous
 62
     7
370
     0
100
AcDbMText
 10
590.9804666966
 20
29.2133473219
 30
0.0
 40
5.2916666667
 41
0.0
 71
     1
 72
     1
  1
REV
  7
SLDTEXTSTYLE1
 73
     1
 44
1.0
  0
MTEXT
  5
E4
330
1F
100
AcDbEntity
  8
0
  6
Continuous
 62
     7
370
     0
100
AcDbMText
 10
590.9074767721
 20
67.3732722711
 30
0.0
 40
5.2916666667
 41
0.0
 71
     1
 72
     1
  1
MATERIAL:
  7
SLDTEXTSTYLE1
 73
     1
 44
1.0
  0
MTEXT
  5
E5
330
1F
100
AcDbEntity
  8
0
  6
Continuous
 62
     7
370
     0
100
AcDbMText
 10
631.5222456267
 20
55.5437840467
 30
0.0
 40
6.25
 41
0.0
 71
     1
 72
     1
  1
N/A
  7
SLDTEXTSTYLE1
 73
     1
 44
1.0
  0
MTEXT
  5
E6
330
1F
100
AcDbEntity
  8
0
  6
Continuous
 62
     7
370
     0
100
AcDbMText
 10
66.5074828833
 20
511.1333791424
 30
0.0
 40
5.2916666667
 41
0.0
 71
     1
 72
     1
  1
1
  7
SLDTEXTSTYLE1
 73
     1
 44
1.0
  0
MTEXT
  5
E7
330
1F
100
AcDbEntity
  8
0
  6
Continuous
 62
     7
370
     0
100
AcDbMText
 10
151.792748931
 20
511.1333791424
 30
0.0
 40
5.2916666667
 41
0.0
 71
     1
 72
     1
  1
2
  7
SLDTEXTSTYLE1
 73
     1
 44
1.0
  0
MTEXT
  5
E8
330
1F
100
AcDbEntity
  8
0
  6
Continuous
 62
     7
370
     0
100
AcDbMText
 10
237.2524859765
 20
511.1333791424
 30
0.0
 40
5.2916666667
 41
0.0
 71
     1
 72
     1
  1
3
  7
SLDTEXTSTYLE1
 73
     1
 44
1.0
  0
MTEXT
  5
E9
330
1F
100
AcDbEntity
  8
0
  6
Continuous
 62
     7
370
     0
100
AcDbMText
 10
323.1333407128
 20
510.7481460911
 30
0.0
 40
5.2916666667
 41
0.0
 71
     1
 72
     1
  1
4
  7
SLDTEXTSTYLE1
 73
     1
 44
1.0
  0
MTEXT
  5
EA
330
1F
100
AcDbEntity
  8
0
  6
Continuous
 62
     7
370
     0
100
AcDbMText
 10
409.2558086599
 20
511.1333791424
 30
0.0
 40
5.2916666667
 41
0.0
 71
     1
 72
     1
  1
5
  7
SLDTEXTSTYLE1
 73
     1
 44
1.0
  0
MTEXT
  5
EB
330
1F
100
AcDbEntity
  8
0
  6
Continuous
 62
     7
370
     0
100
AcDbMText
 10
496.5955426038
 20
511.1333791424
 30
0.0
 40
5.2916666667
 41
0.0
 71
     1
 72
     1
  1
6
  7
SLDTEXTSTYLE1
 73
     1
 44
1.0
  0
MTEXT
  5
EC
330
1F
100
AcDbEntity
  8
0
  6
Continuous
 62
     7
370
     0
100
AcDbMText
 10
585.9076643516
 20
511.1333791424
 30
0.0
 40
5.2916666667
 41
0.0
 71
     1
 72
     1
  1
7
  7
SLDTEXTSTYLE1
 73
     1
 44
1.0
  0
MTEXT
  5
ED
330
1F
100
AcDbEntity
  8
0
  6
Continuous
 62
     7
370
     0
100
AcDbMText
 10
665.6969551234
 20
511.1333791424
 30
0.0
 40
5.2916666667
 41
0.0
 71
     1
 72
     1
  1
8
  7
SLDTEXTSTYLE1
 73
     1
 44
1.0
  0
MTEXT
  5
EE
330
1F
100
AcDbEntity
  8
0
  6
Continuous
 62
     7
370
     0
100
AcDbMText
 10
13.3920591386
 20
464.5282557198
 30
0.0
 40
5.2916666667
 41
0.0
 71
     1
 72
     1
  1
A
  7
SLDTEXTSTYLE1
 73
     1
 44
1.0
  0
MTEXT
  5
EF
330
1F
100
AcDbEntity
  8
0
  6
Continuous
 62
     7
370
     0
100
AcDbMText
 10
13.9776079578
 20
385.7482620595
 30
0.0
 40
5.2916666667
 41
0.0
 71
     1
 72
     1
  1
B
  7
SLDTEXTSTYLE1
 73
     1
 44
1.0
  0
MTEXT
  5
F0
330
1F
100
AcDbEntity
  8
0
  6
Continuous
 62
     7
370
     0
100
AcDbMText
 10
13.9776079578
 20
303.1858785575
 30
0.0
 40
5.2916666667
 41
0.0
 71
     1
 72
     1
  1
C
  7
SLDTEXTSTYLE1
 73
     1
 44
1.0
  0
MTEXT
  5
F1
330
1F
100
AcDbEntity
  8
0
  6
Continuous
 62
     7
370
     0
100
AcDbMText
 10
13.9776079578
 20
221.8633050552
 30
0.0
 40
5.2916666667
 41
0.0
 71
     1
 72
     1
  1
D
  7
SLDTEXTSTYLE1
 73
     1
 44
1.0
  0
MTEXT
  5
F2
330
1F
100
AcDbEntity
  8
0
  6
Continuous
 62
     7
370
     0
100
AcDbMText
 10
13.9776079578
 20
143.8897122993
 30
0.0
 40
5.2916666667
 41
0.0
 71
     1
 72
     1
  1
E
  7
SLDTEXTSTYLE1
 73
     1
 44
1.0
  0
MTEXT
  5
F3
330
1F
100
AcDbEntity
  8
0
  6
Continuous
 62
     7
370
     0
100
AcDbMText
 10
13.9776079578
 20
63.923553063
 30
0.0
 40
5.2916666667
 41
0.0
 71
     1
 72
     1
  1
F
  7
SLDTEXTSTYLE1
 73
     1
 44
1.0
  0
MTEXT
  5
F4
330
1F
100
AcDbEntity
  8
0
  6
Continuous
 62
     7
370
     0
100
AcDbMText
 10
665.4646542409
 20
16.5590559908
 30
0.0
 40
5.2916666667
 41
0.0
 71
     1
 72
     1
  1
8
  7
SLDTEXTSTYLE1
 73
     1
 44
1.0
  0
MTEXT
  5
F5
330
1F
100
AcDbEntity
  8
0
  6
Continuous
 62
     7
370
     0
100
AcDbMText
 10
585.6753634691
 20
16.5590559908
 30
0.0
 40
5.2916666667
 41
0.0
 71
     1
 72
     1
  1
7
  7
SLDTEXTSTYLE1
 73
     1
 44
1.0
  0
MTEXT
  5
F6
330
1F
100
AcDbEntity
  8
0
  6
Continuous
 62
     7
370
     0
100
AcDbMText
 10
496.3632417212
 20
16.5590559908
 30
0.0
 40
5.2916666667
 41
0.0
 71
     1
 72
     1
  1
6
  7
SLDTEXTSTYLE1
 73
     1
 44
1.0
  0
MTEXT
  5
F7
330
1F
100
AcDbEntity
  8
0
  6
Continuous
 62
     7
370
     0
100
AcDbMText
 10
409.0235077774
 20
16.5590559908
 30
0.0
 40
5.2916666667
 41
0.0
 71
     1
 72
     1
  1
5
  7
SLDTEXTSTYLE1
 73
     1
 44
1.0
  0
MTEXT
  5
F8
330
1F
100
AcDbEntity
  8
0
  6
Continuous
 62
     7
370
     0
100
AcDbMText
 10
322.9010398302
 20
16.1738229395
 30
0.0
 40
5.2916666667
 41
0.0
 71
     1
 72
     1
  1
4
  7
SLDTEXTSTYLE1
 73
     1
 44
1.0
  0
MTEXT
  5
F9
330
1F
100
AcDbEntity
  8
0
  6
Continuous
 62
     7
370
     0
100
AcDbMText
 10
237.020185094
 20
16.5590559908
 30
0.0
 40
5.2916666667
 41
0.0
 71
     1
 72
     1
  1
3
  7
SLDTEXTSTYLE1
 73
     1
 44
1.0
  0
MTEXT
  5
FA
330
1F
100
AcDbEntity
  8
0
  6
Continuous
 62
     7
370
     0
100
AcDbMText
 10
151.5604480484
 20
16.5590559908
 30
0.0
 40
5.2916666667
 41
0.0
 71
     1
 72
     1
  1
2
  7
SLDTEXTSTYLE1
 73
     1
 44
1.0
  0
MTEXT
  5
FB
330
1F
100
AcDbEntity
  8
0
  6
Continuous
 62
     7
370
     0
100
AcDbMText
 10
66.2751820007
 20
16.5590559908
 30
0.0
 40
5.2916666667
 41
0.0
 71
     1
 72
     1
  1
1
  7
SLDTEXTSTYLE1
 73
     1
 44
1.0
  0
MTEXT
  5
FC
330
1F
100
AcDbEntity
  8
0
  6
Continuous
 62
     7
370
     0
100
AcDbMText
 10
717.7559615361
 20
466.6062272729
 30
0.0
 40
5.2916666667
 41
0.0
 71
     1
 72
     1
  1
A
  7
SLDTEXTSTYLE1
 73
     1
 44
1.0
  0
MTEXT
  5
FD
330
1F
100
AcDbEntity
  8
0
  6
Continuous
 62
     7
370
     0
100
AcDbMText
 10
718.3415103553
 20
387.8262336126
 30
0.0
 40
5.2916666667
 41
0.0
 71
     1
 72
     1
  1
B
  7
SLDTEXTSTYLE1
 73
     1
 44
1.0
  0
MTEXT
  5
FE
330
1F
100
AcDbEntity
  8
0
  6
Continuous
 62
     7
370
     0
100
AcDbMText
 10
718.3415103553
 20
305.2638501106
 30
0.0
 40
5.2916666667
 41
0.0
 71
     1
 72
     1
  1
C
  7
SLDTEXTSTYLE1
 73
     1
 44
1.0
  0
MTEXT
  5
FF
330
1F
100
AcDbEntity
  8
0
  6
Continuous
 62
     7
370
     0
100
AcDbMText
 10
718.3415103553
 20
223.9412766083
 30
0.0
 40
5.2916666667
 41
0.0
 71
     1
 72
     1
  1
D
  7
SLDTEXTSTYLE1
 73
     1
 44
1.0
  0
MTEXT
  5
100
330
1F
100
AcDbEntity
  8
0
  6
Continuous
 62
     7
370
     0
100
AcDbMText
 10
718.3415103553
 20
145.9676838524
 30
0.0
 40
5.2916666667
 41
0.0
 71
     1
 72
     1
  1
E
  7
SLDTEXTSTYLE1
 73
     1
 44
1.0
  0
MTEXT
  5
101
330
1F
100
AcDbEntity
  8
0
  6
Continuous
 62
     7
370
     0
100
AcDbMText
 10
718.3415103553
 20
66.0015246161
 30
0.0
 40
5.2916666667
 41
0.0
 71
     1
 72
     1
  1
F
  7
SLDTEXTSTYLE1
 73
     1
 44
1.0
  0
MTEXT
  5
102
330
1F
100
AcDbEntity
  8
0
  6
Continuous
 62
     7
370
     0
100
AcDbMText
 10
507.8882822005
 20
53.9667871277
 30
0.0
 40
4.6302083333
 41
0.0
 71
     1
 72
     1
  1
Eric
  7
SLDTEXTSTYLE1
 73
     1
 44
1.0
  0
MTEXT
  5
104
330
1F
100
AcDbEntity
  8
0
  6
Continuous
 62
     7
370
     0
100
AcDbMText
 10
632.1205599113
 20
30.5256211399
 30
0.0
 40
6.6145833333
 41
0.0
 71
     1
 72
     1
  1
0
  7
SLDTEXTSTYLE3
 73
     1
 44
1.0
  0
INSERT
  5
10A
330
1F
100
AcDbEntity
  8
DIM
 62
     7
100
AcDbBlockReference
  2
SW_NOTE_1
 10
497.6432787377
 20
83.465519663
 30
0.0
  0
INSERT
  5
10E
330
1F
100
AcDbEntity
  8
0
  6
Continuous
 62
     7
100
AcDbBlockReference
  2
SW_BROKEN_VIEW_0
 10
0.0
 20
0.0
 30
0.0
  0
LINE
  5
10F
330
1F
100
AcDbEntity
  8
0
  6
Continuous
 62
     7
370
    15
100
AcDbLine
 10
283.8335697673
 20
303.7590559449
 30
0.0
 11
282.3335704527
 21
305.2590664353
 31
0.0
  0
LINE
  5
110
330
1F
100
AcDbEntity
  8
0
  6
Continuous
 62
     7
370
    15
100
AcDbLine
 10
247.2335686109
 20
305.2590664353
 30
0.0
 11
245.7335692964
 21
303.7590559449
 31
0.0
  0
LINE
  5
111
330
1F
100
AcDbEntity
  8
0
  6
Continuous
 62
     7
370
    15
100
AcDbLine
 10
283.8335697673
 20
194.9108194437
 30
0.0
 11
283.8335697673
 21
303.7590559449
 31
0.0
  0
LINE
  5
112
330
1F
100
AcDbEntity
  8
0
  6
Continuous
 62
     7
370
    15
100
AcDbLine
 10
245.7335692964
 20
303.7590559449
 30
0.0
 11
245.7335692964
 21
199.2354865994
 31
0.0
  0
LINE
  5
113
330
1F
100
AcDbEntity
  8
0
  6
Continuous
 62
     7
370
    15
100
AcDbLine
 10
282.3335704527
 20
305.2590664353
 30
0.0
 11
247.2335686109
 21
305.2590664353
 31
0.0
  0
LINE
  5
114
330
1F
100
AcDbEntity
  8
0
  6
Continuous
 62
     7
370
    15
100
AcDbLine
 10
283.8335697673
 20
303.7590559449
 30
0.0
 11
245.7335692964
 21
303.7590559449
 31
0.0
  0
LINE
  5
115
330
1F
100
AcDbEntity
  8
0
  6
Continuous
 62
     7
370
    15
100
AcDbLine
 10
283.8335697673
 20
95.1421881235
 30
0.0
 11
283.8335697673
 21
192.0731539048
 31
0.0
  0
LINE
  5
116
330
1F
100
AcDbEntity
  8
0
  6
Continuous
 62
     7
370
    15
100
AcDbLine
 10
245.7335692964
 20
193.7499219693
 30
0.0
 11
245.7335692964
 21
95.1421881235
 31
0.0
  0
LINE
  5
117
330
1F
100
AcDbEntity
  8
0
  6
Continuous
 62
     7
370
    15
100
AcDbLine
 10
302.2835710219
 20
79.1421855009
 30
0.0
 11
302.2835710219
 21
90.1421928919
 31
0.0
  0
LINE
  5
118
330
1F
100
AcDbEntity
  8
0
  6
Continuous
 62
     7
370
    15
100
AcDbLine
 10
227.2835680417
 20
90.1421928919
 30
0.0
 11
227.2835680417
 21
79.1421855009
 31
0.0
  0
LINE
  5
119
330
1F
100
AcDbEntity
  8
0
  6
Continuous
 62
     7
370
    15
100
AcDbLine
 10
284.4407827727
 20
94.9645662821
 30
0.0
 11
283.7835689209
 21
95.1421881235
 31
0.0
  0
LINE
  5
11A
330
1F
100
AcDbEntity
  8
0
  6
Continuous
 62
     7
370
    15
100
AcDbLine
 10
302.2835710219
 20
90.1421928919
 30
0.0
 11
295.9196091763
 21
91.862189225
 31
0.0
  0
LINE
  5
11B
330
1F
100
AcDbEntity
  8
0
  6
Continuous
 62
     7
370
    15
100
AcDbLine
 10
233.6865150503
 20
91.872724346
 30
0.0
 11
227.2835680417
 21
90.1421928919
 31
0.0
  0
LINE
  5
11C
330
1F
100
AcDbEntity
  8
0
  6
Continuous
 62
     7
370
    15
100
AcDbLine
 10
245.7835701428
 20
95.1421881235
 30
0.0
 11
245.0620689563
 21
94.9471915282
 31
0.0
  0
LINE
  5
11D
330
1F
100
AcDbEntity
  8
0
  6
Continuous
 62
     7
370
    15
100
AcDbLine
 10
283.8335697673
 20
95.1421881235
 30
0.0
 11
245.7335692964
 21
95.1421881235
 31
0.0
  0
LINE
  5
11E
330
1F
100
AcDbEntity
  8
0
  6
Continuous
 62
     7
370
    15
100
AcDbLine
 10
302.2835710219
 20
90.1421928919
 30
0.0
 11
227.2835680417
 21
90.1421928919
 31
0.0
  0
LINE
  5
11F
330
1F
100
AcDbEntity
  8
0
  6
Continuous
 62
     7
370
    15
100
AcDbLine
 10
302.2835710219
 20
79.1421855009
 30
0.0
 11
227.2835680417
 21
79.1421855009
 31
0.0
  0
SPLINE
  5
120
330
1F
100
AcDbEntity
  8
0
  6
Continuous
 62
     7
370
    15
100
AcDbSpline
210
0.0
220
0.0
230
1.0
 70
     8
 71
     3
 72
    27
 73
    23
 74
     0
 42
0.000000001
 43
0.00000001
 40
0.0
 40
0.0
 40
0.0
 40
0.0
 40
0.0004713240633293
 40
0.0129604724913121
 40
0.0378555139373123
 40
0.0758071324592726
 40
0.124075080946861
 40
0.1835951843609863
 40
0.2508585555382898
 40
0.3265103811118142
 40
0.4065306210295349
 40
0.4911685479236574
 40
0.5756666600806324
 40
0.6602949122769977
 40
0.7391438590887615
 40
0.813233403387608
 40
0.8756122761935662
 40
0.9285440139142602
 40
0.9657579423820151
 40
0.99019716645274
 40
0.9991998173524074
 40
1.0
 40
1.0
 40
1.0
 40
1.0
 10
295.9193763456668
 20
91.86132495769127
 30
0.0
 10
295.921278305857
 20
91.86090151098404
 30
0.0
 10
295.9735784208794
 20
91.84925757037568
 30
0.0
 10
295.6437050411345
 20
91.9222412995814
 30
0.0
 10
295.4854680629446
 20
91.95746363020199
 30
0.0
 10
294.9888657897017
 20
92.06866626054018
 30
0.0
 10
294.4497494993523
 20
92.19143681588174
 30
0.0
 10
293.762384787244
 20
92.35044598393178
 30
0.0
 10
292.9822079966312
 20
92.5350488829045
 30
0.0
 10
292.1198751117483
 20
92.74427525484964
 30
0.0
 10
291.1932211929104
 20
92.97587979795033
 30
0.0
 10
290.2340260450122
 20
93.22366247983688
 30
0.0
 10
289.2593808552349
 20
93.4847545329437
 30
0.0
 10
288.3099074046751
 20
93.74920962526505
 30
0.0
 10
287.4017279319967
 20
94.01279314322046
 30
0.0
 10
286.5857346263073
 20
94.25942846386134
 30
0.0
 10
285.8572004928823
 20
94.48913287316111
 30
0.0
 10
285.3091846151804
 20
94.6673723945504
 30
0.0
 10
284.8110789931518
 20
94.83586948246882
 30
0.0
 10
284.6708185711262
 20
94.88343085303377
 30
0.0
 10
284.3972719868161
 20
94.97883395649323
 30
0.0
 10
284.4372907532139
 20
94.96487153711513
 30
0.0
 10
284.4405573926295
 20
94.96373181708915
 30
0.0
  0
SPLINE
  5
121
330
1F
100
AcDbEntity
  8
0
  6
Continuous
 62
     7
370
    15
100
AcDbSpline
210
0.0
220
0.0
230
1.0
 70
    11
 71
     3
 72
    26
 73
    22
 74
     0
 42
0.000000001
 43
0.00000001
 40
0.0
 40
0.0
 40
0.0
 40
0.0
 40
0.033940204804757
 40
0.0830980870787349
 40
0.1121726167986712
 40
0.1345601190890773
 40
0.1741257422130952
 40
0.2329607438564161
 40
0.3047738380041556
 40
0.3815963180293176
 40
0.4557385039358977
 40
0.5204167460703987
 40
0.5700702484325315
 40
0.6016144116559485
 40
0.6224176234852463
 40
0.6569279146939584
 40
0.7122595642519608
 40
0.7831282704474404
 40
0.8596829445861538
 40
0.9334191896964871
 40
1.0
 40
1.0
 40
1.0
 40
1.0
 10
268.1203337054129
 20
94.60735564597711
 30
0.0
 10
268.3941887840938
 20
94.53640382849113
 30
0.0
 10
269.0646865994751
 20
94.36268771977116
 30
0.0
 10
269.8732023612018
 20
94.03781654903972
 30
0.0
 10
270.6705673385037
 20
93.43926374241474
 30
0.0
 10
270.2765794498275
 20
92.63012841566398
 30
0.0
 10
269.2782878769449
 20
92.34567217549166
 30
0.0
 10
267.927883225937
 20
92.02415965960782
 30
0.0
 10
266.2113774157323
 20
91.8776864286576
 30
0.0
 10
264.3732006639843
 20
91.83719573204588
 30
0.0
 10
262.6020313900276
 20
91.93082968820785
 30
0.0
 10
261.0342983325365
 20
92.13223369514598
 30
0.0
 10
259.9262812772678
 20
92.45013559482949
 30
0.0
 10
259.043724765107
 20
92.82635539227512
 30
0.0
 10
259.045651550562
 20
93.67334888556424
 30
0.0
 10
259.9586895133438
 20
94.13576190394913
 30
0.0
 10
261.1550069991941
 20
94.58480355000809
 30
0.0
 10
262.8296519911476
 20
94.88465640750279
 30
0.0
 10
264.6460629895279
 20
94.99900514798675
 30
0.0
 10
266.4419886560814
 20
94.92683198037027
 30
0.0
 10
267.58023353103
 20
94.71016479358693
 30
0.0
 10
268.1203337054129
 20
94.60735564597711
 30
0.0
  0
SPLINE
  5
122
330
1F
100
AcDbEntity
  8
0
  6
Continuous
 62
     7
370
    15
100
AcDbSpline
210
0.0
220
0.0
230
1.0
 70
     8
 71
     3
 72
    17
 73
    13
 74
     0
 42
0.000000001
 43
0.00000001
 40
0.0
 40
0.0
 40
0.0
 40
0.0
 40
0.0024323305455589
 40
0.0576559605619846
 40
0.1586525298409917
 40
0.2997485318098066
 40
0.4682078486021928
 40
0.6429834071962424
 40
0.800132842285533
 40
0.919628523955235
 40
0.9890266960248904
 40
1.0
 40
1.0
 40
1.0
 40
1.0
 10
245.0635348580206
 20
94.94176750548942
 30
0.0
 10
245.0545063054909
 20
94.93862743868354
 30
0.0
 10
244.8404935063111
 20
94.86419529858965
 30
0.0
 10
244.2501571006988
 20
94.6635023967577
 30
0.0
 10
243.1381568924977
 20
94.30449490684431
 30
0.0
 10
241.5927341552125
 20
93.84044388068968
 30
0.0
 10
239.758490743057
 20
93.33148729539553
 30
0.0
 10
237.8539759944856
 20
92.84125161482977
 30
0.0
 10
236.1294940826086
 20
92.42450453435471
 30
0.0
 10
234.8042825213568
 20
92.11904642464395
 30
0.0
 10
234.0377804941299
 20
91.94743824046088
 30
0.0
 10
233.7293503077636
 20
91.8793397779681
 30
0.0
 10
233.6872396192874
 20
91.87004213698967
 30
0.0
  0
DIMENSION
  5
123
330
1F
100
AcDbEntity
  8
DIM
 62
     7
100
AcDbDimension
  2
_D
 10
322.2835695318
 20
79.1421926535
 30
0.0
 11
322.2835695318
 21
192.2006259681
 31
0.0
 70
   160
  1
360
 71
     2
 42
-1.0
  3
SLDDIMSTYLE0
100
AcDbAlignedDimension
 13
282.3335695318
 23
305.2590592828
 33
0.0
 14
302.2835695318
 24
79.1421926535
 34
0.0
 50
90.0
100
AcDbRotatedDimension
  0
DIMENSION
  5
12E
330
1F
100
AcDbEntity
  8
DIM
 62
     7
100
AcDbDimension
  2
_D_1
 10
283.8335695318
 20
317.7590592828
 30
0.0
 11
264.7835695318
 21
317.7590592828
 31
0.0
 70
   160
  1
%%c<>
 71
     2
 42
-1.0
  3
SLDDIMSTYLE0
100
AcDbAlignedDimension
 13
245.7335695318
 23
303.7590592828
 33
0.0
 14
283.8335695318
 24
303.7590592828
 34
0.0
100
AcDbRotatedDimension
  0
DIMENSION
  5
139
330
1F
100
AcDbEntity
  8
DIM
 62
     7
100
AcDbDimension
  2
_D_2
 10
302.2835695318
 20
59.1421926535
 30
0.0
 11
264.7835695318
 21
59.1421926535
 31
0.0
 70
   160
  1
%%c<>
 71
     2
 42
-1.0
  3
SLDDIMSTYLE0
100
AcDbAlignedDimension
 13
227.2835695318
 23
79.1421926535
 33
0.0
 14
302.2835695318
 24
79.1421926535
 34
0.0
 50
0.0
100
AcDbRotatedDimension
  0
ARC
  5
144
330
1F
100
AcDbEntity
  8
0
  6
HIDDEN
 62
     7
370
     0
100
AcDbCircle
 10
263.7785618324
 20
212.4851704886
 30
0.0
 40
22.11302001851023
100
AcDbArc
 50
247.380135052
 51
292.619864948
  0
ARC
  5
145
330
1F
100
AcDbEntity
  8
0
  6
HIDDEN
 62
     7
370
     0
100
AcDbCircle
 10
246.7685464335
 20
171.6611335314
 30
0.0
 40
22.11302001851019
100
AcDbArc
 50
67.380135052
 51
112.619864948
  0
ARC
  5
146
330
1F
100
AcDbEntity
  8
0
  6
HIDDEN
 62
     7
370
     0
100
AcDbCircle
 10
278.0435849307
 20
228.8971889673
 30
0.0
 40
34.47604003702041
100
AcDbArc
 50
247.380135052
 51
292.619864948
  0
ARC
  5
147
330
1F
100
AcDbEntity
  8
0
  6
HIDDEN
 62
     7
370
     0
100
AcDbCircle
 10
251.523554133
 20
165.2491150528
 30
0.0
 40
34.47604003702041
100
AcDbArc
 50
67.380135052
 51
112.619864948
  0
LINE
  5
148
330
1F
100
AcDbEntity
  8
0
  6
Continuous
 62
     7
370
    15
100
AcDbLine
 10
601.781202859
 20
440.775143107
 30
0.0
 11
601.0234653469
 21
441.2127178519
 31
0.0
  0
LINE
  5
149
330
1F
100
AcDbEntity
  8
0
  6
Continuous
 62
     7
370
    15
100
AcDbLine
 10
583.2924075649
 20
441.2127178519
 30
0.0
 11
582.5346700529
 21
440.775143107
 31
0.0
  0
LINE
  5
14A
330
1F
100
AcDbEntity
  8
0
  6
Continuous
 62
     7
370
    15
100
AcDbLine
 10
605.7650793131
 20
235.4606776975
 30
0.0
 11
605.7650793131
 21
435.221554891
 31
0.0
  0
LINE
  5
14B
330
1F
100
AcDbEntity
  8
0
  6
Continuous
 62
     7
370
    15
100
AcDbLine
 10
578.5507935988
 20
435.221554891
 30
0.0
 11
578.5507935988
 21
235.4606776975
 31
0.0
  0
LINE
  5
14C
330
1F
100
AcDbEntity
  8
0
  6
Continuous
 62
     7
370
    15
100
AcDbLine
 10
618.9436507416
 20
226.1287827045
 30
0.0
 11
618.9436507416
 21
232.5444605122
 31
0.0
  0
LINE
  5
14D
330
1F
100
AcDbEntity
  8
0
  6
Continuous
 62
     7
370
    15
100
AcDbLine
 10
565.3722221702
 20
232.5444605122
 30
0.0
 11
565.3722221702
 21
226.1287827045
 31
0.0
  0
LWPOLYLINE
  5
14E
330
1F
100
AcDbEntity
  8
0
  6
Continuous
 62
     7
370
    15
100
AcDbPolyline
 90
       45
 70
   128
 43
0.0
 10
601.9282303074
 20
440.630444158
 10
602.9465251262
 20
439.7816001341
 10
603.7451953915
 20
438.8577364708
 10
604.3079824797
 20
437.8776603681
 10
604.6234296687
 20
436.8613233491
 10
604.6851153634
 20
435.8294151047
 10
604.491783821
 20
434.8029423109
 10
604.0473707141
 20
433.8028009937
 10
603.360923012
 20
432.8493511462
 10
602.4464148103
 20
431.9620022577
 10
601.3224628589
 20
431.1588181927
 10
600.0119475782
 20
430.4561494626
 10
598.5415472802
 20
429.8683003764
 10
596.9411950746
 20
429.4072378463
 10
595.2434695173
 20
429.0823477758
 10
593.4829314048
 20
428.9002439897
 10
591.6954202161
 20
428.8646335962
 10
589.9173245243
 20
428.97624152
 10
588.18484123
 20
429.2327957457
 10
586.5332386971
 20
429.6290735691
 10
584.9961387902
 20
430.1570079165
 10
583.6048324309
 20
430.805851567
 10
582.3876426044
 20
431.5623959351
 10
581.3693477856
 20
432.411239959
 10
580.5706775203
 20
433.3351036223
 10
580.0078904321
 20
434.315179725
 10
579.6924432431
 20
435.331516744
 10
579.6307575484
 20
436.3634249884
 10
579.8240890908
 20
437.3898977822
 10
580.2685021977
 20
438.3900390994
 10
580.9549498999
 20
439.3434889469
 10
581.8694581015
 20
440.2308378354
 10
582.9934100529
 20
441.0340219004
 10
584.3039253336
 20
441.7366906305
 10
585.7743256316
 20
442.3245397167
 10
587.3746778372
 20
442.7856022468
 10
589.0724033945
 20
443.1104923174
 10
590.832941507
 20
443.2925961034
 10
592.6204526957
 20
443.328206497
 10
594.3985483875
 20
443.2165985732
 10
596.1310316818
 20
442.9600443474
 10
597.7826342147
 20
442.563766524
 10
599.3197341216
 20
442.0358321766
 10
600.7110404809
 20
441.3869885261
 10
601.9282303074
 20
440.630444158
  0
LWPOLYLINE
  5
14F
330
1F
100
AcDbEntity
  8
0
  6
Continuous
 62
     7
370
    15
100
AcDbPolyline
 90
       36
 70
   128
 43
0.0
 10
601.781202859
 20
440.775143107
 10
602.7632981579
 20
440.1431024308
 10
603.8253799802
 20
439.2636036691
 10
604.6701194052
 20
438.3088091866
 10
605.2817805359
 20
437.2965049978
 10
605.6489692826
 20
436.2455484145
 10
605.7648456138
 20
435.1755167694
 10
605.6272509726
 20
434.1063427273
 10
605.2387484869
 20
433.0579429778
 10
604.6065752229
 20
432.0498472245
 10
603.7425073724
 20
431.1008343839
 10
602.6626408846
 20
430.2285827697
 10
601.3870916289
 20
429.4493407791
 10
599.9396206746
 20
428.7776242158
 10
598.3471916669
 20
428.2259458887
 10
596.639468545
 20
427.8045825211
 10
594.8482629597
 20
427.5213833153
 10
593.006941682
 20
427.3816237367
 10
591.1498050432
 20
427.3879072417
 10
589.3114479853
 20
427.5401167806
 10
587.5261156217
 20
427.8354169777
 10
585.8270653166
 20
428.268306949
 10
584.2459471623
 20
428.8307227734
 10
582.8122143985
 20
429.5121877082
 10
581.5525747539
 20
430.3000073512
 10
580.4904929316
 20
431.1795061128
 10
579.6457535066
 20
432.1343005953
 10
579.0340923759
 20
433.1466047841
 10
578.6669036292
 20
434.1975613674
 10
578.551027298
 20
435.2675930126
 10
578.6886219392
 20
436.3367670546
 10
579.0771244249
 20
437.3851668041
 10
579.7092976889
 20
438.3932625574
 10
580.5733655394
 20
439.342275398
 10
581.6532320272
 20
440.2145270122
 10
582.5346700529
 20
440.775143107
  0
LWPOLYLINE
  5
150
330
1F
100
AcDbEntity
  8
0
  6
Continuous
 62
     7
370
    15
100
AcDbPolyline
 90
       25
 70
   128
 43
0.0
 10
605.7650793131
 20
235.4606776975
 10
605.7648456138
 20
235.4146395759
 10
605.6272509726
 20
234.3454655338
 10
605.2387484869
 20
233.2970657843
 10
604.6065752229
 20
232.288970031
 10
603.7425073724
 20
231.3399571905
 10
602.6626408846
 20
230.4677055762
 10
601.3870916289
 20
229.6884635856
 10
599.9396206746
 20
229.0167470224
 10
598.3471916669
 20
228.4650686952
 10
596.639468545
 20
228.0437053276
 10
594.8482629597
 20
227.7605061218
 10
593.006941682
 20
227.6207465432
 10
591.1498050432
 20
227.6270300482
 10
589.3114479853
 20
227.7792395872
 10
587.5261156217
 20
228.0745397842
 10
585.8270653166
 20
228.5074297555
 10
584.2459471623
 20
229.0698455799
 10
582.8122143985
 20
229.7513105148
 10
581.5525747539
 20
230.5391301577
 10
580.4904929316
 20
231.4186289193
 10
579.6457535066
 20
232.3734234019
 10
579.0340923759
 20
233.3857275906
 10
578.6669036292
 20
234.4366841739
 10
578.5507935988
 20
235.4606776975
  0
LWPOLYLINE
  5
151
330
1F
100
AcDbEntity
  8
0
  6
Continuous
 62
     7
370
    15
100
AcDbPolyline
 90
       24
 70
   128
 43
0.0
 10
605.6984992893
 20
234.9325835493
 10
605.5320299106
 20
234.1294945752
 10
605.093472577
 20
233.0905914646
 10
604.4139506803
 20
232.0958385761
 10
603.5061224279
 20
231.163766274
 10
602.3868989425
 20
230.3117373016
 10
601.0771292399
 20
229.5556233466
 10
599.6012118514
 20
228.9095093814
 10
597.9866403256
 20
228.3854312866
 10
596.263491075
 20
227.9931516456
 10
594.4638631099
 20
227.7399778858
 10
592.6212800941
 20
227.6306261554
 10
590.7700658631
 20
227.6671334702
 10
588.9447050353
 20
227.848819768
 10
587.1792006292
 20
228.1723005768
 10
585.5064406513
 20
228.6315500612
 10
583.9575854553
 20
229.2180132723
 10
582.5614872827
 20
229.9207655101
 10
581.344152801
 20
230.72671583
 10
580.3282586483
 20
231.6208509025
 10
579.5327290106
 20
232.586514683
 10
578.9723830998
 20
233.6057186823
 10
578.6576591
 20
234.6594770583
 10
578.6384284316
 20
234.7760192774
  0
LWPOLYLINE
  5
152
330
1F
100
AcDbEntity
  8
0
  6
Continuous
 62
     7
370
    15
100
AcDbPolyline
 90
       53
 70
   128
 43
0.0
 10
611.0982966663
 20
243.4784977241
 10
612.8378845737
 20
242.3721668416
 10
614.3843893774
 20
241.1740773131
 10
615.7233717788
 20
239.8954153776
 10
616.8423300599
 20
238.5481195572
 10
617.7308168088
 20
237.1447691898
 10
618.3805364641
 20
235.6984669798
 10
618.7854227684
 20
234.2227166613
 10
618.9416954074
 20
232.7312969172
 10
618.8478953055
 20
231.238132732
 10
618.5048982491
 20
229.7571653772
 10
617.9159067093
 20
228.3022222462
 10
617.0864199412
 20
226.8868877508
 10
616.0241826395
 20
225.524376488
 10
614.7391126276
 20
224.2274098582
 10
613.2432082579
 20
223.0080972895
 10
611.5504363866
 20
221.8778231748
 10
609.6766019684
 20
220.8471405789
 10
607.6392004904
 20
219.9256727075
 10
605.4572546214
 20
219.122023058
 10
603.151136602
 20
218.4436950905
 10
600.7423780347
 20
217.8970221704
 10
598.2534688494
 20
217.4871084357
 10
595.7076473205
 20
217.2177811403
 10
593.1286830976
 20
217.0915549206
 10
590.540655275
 20
217.1096083169
 10
587.9677275709
 20
217.2717727694
 10
585.4339227182
 20
217.5765341924
 10
582.9628981701
 20
218.0210471106
 10
580.577725217
 20
218.6011612266
 10
578.3006735761
 20
219.3114601711
 10
576.1530034651
 20
220.1453120745
 10
574.1547671012
 20
221.094931486
 10
572.3246214788
 20
222.1514520651
 10
570.6796541746
 20
223.3050093639
 10
569.235223805
 20
224.5448329286
 10
568.0048166272
 20
225.8593468606
 10
566.9999206216
 20
227.2362778976
 10
566.2299182314
 20
228.6627700055
 10
565.7019987614
 20
230.1255044118
 10
565.4210912535
 20
231.6108239594
 10
565.3898184654
 20
233.10486062
 10
565.6084723827
 20
234.5936649758
 10
566.0750114927
 20
236.0633364616
 10
566.7850798454
 20
237.5001531507
 10
567.732047724
 20
238.890699873
 10
568.9070735444
 20
240.2219934682
 10
570.2991864073
 20
241.4816040069
 10
571.8953885298
 20
242.6577708447
 10
573.6807766029
 20
243.7395124288
 10
575.6386809391
 20
244.7167288295
 10
577.7508211132
 20
245.5802960405
 10
578.5507935988
 20
245.86367975
  0
ARC
  5
153
330
1F
100
AcDbEntity
  8
0
  6
Continuous
 62
     7
370
    15
100
AcDbCircle
 10
596.1194762306
 20
217.14123957
 30
0.0
 40
30.29878262769726
100
AcDbArc
 50
60.3717594851
 51
71.4368594692
  0
SPLINE
  5
154
330
1F
100
AcDbEntity
  8
0
  6
Continuous
 62
     7
370
    15
100
AcDbSpline
210
0.0
220
0.0
230
1.0
 70
     8
 71
     3
 72
    24
 73
    20
 74
     0
 42
0.000000001
 43
0.00000001
 40
0.0
 40
0.0
 40
0.0
 40
0.0
 40
0.0590771484624286
 40
0.1179215441655648
 40
0.1785116586131131
 40
0.2366836837687653
 40
0.2965583519122009
 40
0.3544952475962587
 40
0.4140847236501836
 40
0.4725530241375538
 40
0.5326539723678038
 40
0.5922947312692812
 40
0.6535812815105486
 40
0.7147694746148888
 40
0.7776494305653996
 40
0.8403345272531316
 40
0.9047879471959718
 40
0.9683099949453384
 40
1.0
 40
1.0
 40
1.0
 40
1.0
 10
605.7650793130514
 20
243.4087551336863
 30
0.0
 10
605.9846081814142
 20
243.3566397812843
 30
0.0
 10
606.4228010160381
 20
243.2526144010836
 30
0.0
 10
607.0434959170899
 20
243.0395619307537
 30
0.0
 10
607.6071145015228
 20
242.7934587025719
 30
0.0
 10
608.1009683937575
 20
242.5143285811858
 30
0.0
 10
608.5028953798568
 20
242.2172117148316
 30
0.0
 10
608.8112502958267
 20
241.9042201023127
 30
0.0
 10
609.0137490208792
 20
241.5894659121592
 30
0.0
 10
609.108835704282
 20
241.276296830772
 30
0.0
 10
609.0923997366962
 20
240.9777268011804
 30
0.0
 10
608.9633956338668
 20
240.6987328784352
 30
0.0
 10
608.7246982933273
 20
240.4509894262527
 30
0.0
 10
608.3778645744106
 20
240.2402789900452
 30
0.0
 10
607.9329907452973
 20
240.076735973294
 30
0.0
 10
607.3960802408631
 20
239.964407156207
 30
0.0
 10
606.7849625085693
 20
239.9139732282581
 30
0.0
 10
606.2323543498748
 20
239.9126276661837
 30
0.0
 10
605.8817673205489
 20
239.9511045626716
 30
0.0
 10
605.7650793130514
 20
239.9639110615158
 30
0.0
  0
SPLINE
  5
155
330
1F
100
AcDbEntity
  8
0
  6
Continuous
 62
     7
370
    15
100
AcDbSpline
210
0.0
220
0.0
230
1.0
 70
    11
 71
     3
 72
    26
 73
    22
 74
     0
 42
0.000000001
 43
0.00000001
 40
0.0
 40
0.0
 40
0.0
 40
0.0
 40
0.0559319397325597
 40
0.1118306953507516
 40
0.168374118547794
 40
0.2244312880672722
 40
0.2791890814074346
 40
0.332470343970761
 40
0.3845914917527939
 40
0.4361519959569991
 40
0.4878467214701484
 40
0.5403199791732792
 40
0.5940422594021564
 40
0.649180672919605
 40
0.705443892565301
 40
0.7619280464050335
 40
0.8171537096973471
 40
0.8697931148489002
 40
0.9201103445393882
 40
0.9701843995168137
 40
1.0
 40
1.0
 40
1.0
 40
1.0
 10
605.0658591082696
 20
229.9844535538169
 30
0.0
 10
605.541013352226
 20
229.8564137571449
 30
0.0
 10
606.4910399337207
 20
229.600410129113
 30
0.0
 10
607.7285983900898
 20
228.8336778705601
 30
0.0
 10
608.6476421429037
 20
227.8868520675026
 30
0.0
 10
609.1264402184592
 20
226.8344722811419
 30
0.0
 10
609.1077282909037
 20
225.8141747120796
 30
0.0
 10
608.6127514018165
 20
224.9392825970075
 30
0.0
 10
607.720543140783
 20
224.2967734443405
 30
0.0
 10
606.541184591926
 20
223.9428527274401
 30
0.0
 10
605.1994601007765
 20
223.9089305805307
 30
0.0
 10
603.8288026640072
 20
224.2046773964824
 30
0.0
 10
602.5695483291722
 20
224.8161150888199
 30
0.0
 10
601.5643456816732
 20
225.698336158395
 30
0.0
 10
600.9446836913514
 20
226.7655449765916
 30
0.0
 10
600.80471774982
 20
227.8856617389938
 30
0.0
 10
601.1659092342093
 20
228.893312494539
 30
0.0
 10
601.9563170033005
 20
229.6415548654933
 30
0.0
 10
603.0432879169638
 20
230.0532381958378
 30
0.0
 10
604.129119708398
 20
230.131285022117
 30
0.0
 10
604.8112728766151
 20
230.0243592844904
 30
0.0
 10
605.0658591082696
 20
229.9844535538164
 30
0.0
  0
SPLINE
  5
156
330
1F
100
AcDbEntity
  8
0
  6
Continuous
 62
     7
370
    15
100
AcDbSpline
210
0.0
220
0.0
230
1.0
 70
    11
 71
     3
 72
    26
 73
    22
 74
     0
 42
0.000000001
 43
0.00000001
 40
0.0
 40
0.0
 40
0.0
 40
0.0
 40
0.0527073244824788
 40
0.1054937591610823
 40
0.1564477847427279
 40
0.2063186580335239
 40
0.2574184940667071
 40
0.3109974026744288
 40
0.3667083306702236
 40
0.4232494874151199
 40
0.4792887545409306
 40
0.5340223015583107
 40
0.5872808671850783
 40
0.639386041536443
 40
0.6909396725998285
 40
0.7426367769576626
 40
0.7951200816339431
 40
0.8488568731586758
 40
0.9040091890506476
 40
0.9602784316709999
 40
1.0
 40
1.0
 40
1.0
 40
1.0
 10
579.2500138035474
 20
229.984453553817
 30
0.0
 10
579.7028693895311
 20
230.0425120441637
 30
0.0
 10
580.6092602676794
 20
230.1587161667982
 30
0.0
 10
581.8412291033285
 20
229.892580659491
 30
0.0
 10
582.7826090096413
 20
229.3149775076822
 30
0.0
 10
583.3498597020775
 20
228.4835552689102
 30
0.0
 10
583.5082980508702
 20
227.4912977063155
 30
0.0
 10
583.2241881214591
 20
226.4259473645757
 30
0.0
 10
582.4878136357257
 20
225.4096439715682
 30
0.0
 10
581.3608000921236
 20
224.5802788932421
 30
0.0
 10
579.9843026676338
 20
224.0507873506216
 30
0.0
 10
578.5426703017932
 20
223.878281719745
 30
0.0
 10
577.2153060357099
 20
224.0615419711995
 30
0.0
 10
576.1462011586005
 20
224.5574864438276
 30
0.0
 10
575.4363312161823
 20
225.3000599342145
 30
0.0
 10
575.1482437013801
 20
226.2122346862598
 30
0.0
 10
575.3109218806786
 20
227.2090966793132
 30
0.0
 10
575.9188006180922
 20
228.2003206056764
 30
0.0
 10
576.9243116598111
 20
229.078468257651
 30
0.0
 10
578.0982603586332
 20
229.6975878338695
 30
0.0
 10
578.9129078342646
 20
229.9004910121773
 30
0.0
 10
579.2500138035476
 20
229.9844535538166
 30
0.0
  0
SPLINE
  5
157
330
1F
100
AcDbEntity
  8
0
  6
Continuous
 62
     7
370
    15
100
AcDbSpline
210
0.0
220
0.0
230
1.0
 70
     8
 71
     3
 72
    17
 73
    13
 74
     0
 42
0.000000001
 43
0.00000001
 40
0.0
 40
0.0
 40
0.0
 40
0.0
 40
0.0034623308369223
 40
0.1282962217303729
 40
0.2566792267168013
 40
0.3853779479318999
 40
0.5118542212800749
 40
0.6349970156503909
 40
0.7550232453437132
 40
0.8730367493194436
 40
0.9905604721233878
 40
1.0
 40
1.0
 40
1.0
 40
1.0
 10
578.5507935987657
 20
239.9592195658293
 30
0.0
 10
578.5378845790018
 20
239.9570550748885
 30
0.0
 10
578.0595425198644
 20
239.8768501427921
 30
0.0
 10
577.1719738765215
 20
239.9184593726395
 30
0.0
 10
576.0776693444205
 20
240.1275359406994
 30
0.0
 10
575.3683829300229
 20
240.5820520179842
 30
0.0
 10
575.1361245971412
 20
241.1824252848596
 30
0.0
 10
575.4004226280525
 20
241.8457036496257
 30
0.0
 10
576.1060268193197
 20
242.4856697760731
 30
0.0
 10
577.1587496840765
 20
243.0171841374359
 30
0.0
 10
578.0372094099706
 20
243.312039805952
 30
0.0
 10
578.5152518574728
 20
243.3989186559822
 30
0.0
 10
578.5507935987657
 20
243.4053779685971
 30
0.0
  0
LWPOLYLINE
  5
158
330
1F
100
AcDbEntity
  8
0
  6
Continuous
 62
     7
370
    15
100
AcDbPolyline
 90
       34
 70
   128
 43
0.0
 10
618.9436507416
 20
226.1287827045
 10
618.8478953055
 20
224.8224549243
 10
618.5048982491
 20
223.3414875696
 10
617.9159067093
 20
221.8865444385
 10
617.0864199412
 20
220.4712099432
 10
616.0241826395
 20
219.1086986803
 10
614.7391126276
 20
217.8117320506
 10
613.2432082579
 20
216.5924194818
 10
611.5504363866
 20
215.4621453671
 10
609.6766019684
 20
214.4314627712
 10
607.6392004904
 20
213.5099948999
 10
605.4572546214
 20
212.7063452503
 10
603.151136602
 20
212.0280172828
 10
600.7423780347
 20
211.4813443628
 10
598.2534688494
 20
211.071430628
 10
595.7076473205
 20
210.8021033326
 10
593.1286830976
 20
210.6758771129
 10
590.540655275
 20
210.6939305092
 10
587.9677275709
 20
210.8560949618
 10
585.4339227182
 20
211.1608563848
 10
582.9628981701
 20
211.6053693029
 10
580.577725217
 20
212.1854834189
 10
578.3006735761
 20
212.8957823635
 10
576.1530034651
 20
213.7296342668
 10
574.1547671012
 20
214.6792536783
 10
572.3246214788
 20
215.7357742574
 10
570.6796541746
 20
216.8893315562
 10
569.235223805
 20
218.1291551209
 10
568.0048166272
 20
219.4436690529
 10
566.9999206216
 20
220.82060009
 10
566.2299182314
 20
222.2470921978
 10
565.7019987614
 20
223.7098266041
 10
565.4210912535
 20
225.1951461518
 10
565.3722221702
 20
226.1287827045
  0
CIRCLE
  5
159
330
1F
100
AcDbEntity
  8
0
  6
Continuous
 62
     7
370
    15
100
AcDbCircle
 10
264.7835695318
 20
389.2079124134
 30
0.0
 40
17.55000000000001
  0
CIRCLE
  5
15A
330
1F
100
AcDbEntity
  8
0
  6
Continuous
 62
     7
370
    15
100
AcDbCircle
 10
264.7835695318
 20
389.2079124134
 30
0.0
 40
19.05000000000005
  0
CIRCLE
  5
15B
330
1F
100
AcDbEntity
  8
0
  6
Continuous
 62
     7
370
    15
100
AcDbCircle
 10
264.7835695318
 20
389.2079124134
 30
0.0
 40
37.5
  0
SPLINE
  5
15C
330
1F
100
AcDbEntity
  8
0
  6
Continuous
 62
     7
370
    15
100
AcDbSpline
210
0.0
220
0.0
230
1.0
 70
    11
 71
     3
 72
    45
 73
    41
 74
     0
 42
0.000000001
 43
0.00000001
 40
0.0
 40
0.0
 40
0.0
 40
0.0
 40
0.0258004432496215
 40
0.0523388546883251
 40
0.0781428424970192
 40
0.104712349343847
 40
0.1302214944372257
 40
0.1564772693221818
 40
0.181883307264132
 40
0.2080140219269049
 40
0.2336530873798406
 40
0.2600080888526772
 40
0.2861612916718365
 40
0.3130361941390276
 40
0.3398679657977221
 40
0.3674415961727168
 40
0.3949297783757816
 40
0.4231933919716137
 40
0.4510485874600192
 40
0.479722772541166
 40
0.5073407685015782
 40
0.5358170936910739
 40
0.5624364564072001
 40
0.5899099170399439
 40
0.6151974069584507
 40
0.6412626399375556
 40
0.6658580964570021
 40
0.6911442391071639
 40
0.7161983384521863
 40
0.7419171292034794
 40
0.7681506606057246
 40
0.7950847219917433
 40
0.822427752335553
 40
0.8505339323068092
 40
0.8783840093368924
 40
0.9070496983320814
 40
0.9347320063197707
 40
0.9632517254721745
 40
0.9815036063659753
 40
1.0
 40
1.0
 40
1.0
 40
1.0
 10
294.3458067055211
 20
393.1813939859152
 30
0.0
 10
294.5512803085989
 20
392.9447733537793
 30
0.0
 10
294.9681046611779
 20
392.4647640468926
 30
0.0
 10
295.4328065025142
 20
391.6258480032012
 30
0.0
 10
295.7648973739389
 20
390.7168535546425
 30
0.0
 10
295.9367839522044
 20
389.7734398605216
 30
0.0
 10
295.950556876858
 20
388.8092729467367
 30
0.0
 10
295.8072042959981
 20
387.8701884410791
 30
0.0
 10
295.5098339148731
 20
386.9622951759823
 30
0.0
 10
295.0726451606891
 20
386.1241824147723
 30
0.0
 10
294.4996367282591
 20
385.3629113350373
 30
0.0
 10
293.8125423352972
 20
384.7083579592812
 30
0.0
 10
293.0188819777897
 20
384.1701154992248
 30
0.0
 10
292.1461141879836
 20
383.7699333952096
 30
0.0
 10
291.2068791905027
 20
383.5174355480632
 30
0.0
 10
290.2346984046598
 20
383.4259015126658
 30
0.0
 10
289.2466383262351
 20
383.5014686350136
 30
0.0
 10
288.2832929531443
 20
383.7457925335185
 30
0.0
 10
287.3626234786655
 20
384.158687875564
 30
0.0
 10
286.5308867657612
 20
384.7234214641957
 30
0.0
 10
285.8010911027545
 20
385.4331733628109
 30
0.0
 10
285.2163494150736
 20
386.2457145667545
 30
0.0
 10
284.7787853845361
 20
387.1515740571381
 30
0.0
 10
284.5113642799705
 20
388.0881451156255
 30
0.0
 10
284.4053379341866
 20
389.0522370878392
 30
0.0
 10
284.4566521883535
 20
389.9863485813214
 30
0.0
 10
284.6572721016711
 20
390.8967761734955
 30
0.0
 10
284.9931872159256
 20
391.7483689432559
 30
0.0
 10
285.4637184468927
 20
392.5422698984637
 30
0.0
 10
286.057793506916
 20
393.2554215830694
 30
0.0
 10
286.7719606123093
 20
393.8743636443626
 30
0.0
 10
287.590952011581
 20
394.3754566981556
 30
0.0
 10
288.5003143753956
 20
394.7400390459612
 30
0.0
 10
289.4686479011377
 20
394.946612689586
 30
0.0
 10
290.4748798890656
 20
394.9843757277584
 30
0.0
 10
291.4705724481085
 20
394.8466064549895
 30
0.0
 10
292.4388106658225
 20
394.5345414213905
 30
0.0
 10
293.2303317231261
 20
394.1125446070048
 30
0.0
 10
293.8679153942803
 20
393.6492262757361
 30
0.0
 10
294.1858045532574
 20
393.3380282906391
 30
0.0
 10
294.3458067055211
 20
393.1813939859152
 30
0.0
  0
SPLINE
  5
15D
330
1F
100
AcDbEntity
  8
0
  6
Continuous
 62
     7
370
    15
100
AcDbSpline
210
0.0
220
0.0
230
1.0
 70
    11
 71
     3
 72
    26
 73
    22
 74
     0
 42
0.000000001
 43
0.00000001
 40
0.0
 40
0.0
 40
0.0
 40
0.0
 40
0.0559319397325597
 40
0.1118306953507516
 40
0.168374118547794
 40
0.2244312880672722
 40
0.2791890814074346
 40
0.332470343970761
 40
0.3845914917527939
 40
0.4361519959569991
 40
0.4878467214701484
 40
0.5403199791732792
 40
0.5940422594021564
 40
0.649180672919605
 40
0.705443892565301
 40
0.7619280464050335
 40
0.8171537096973471
 40
0.8697931148489002
 40
0.9201103445393882
 40
0.9701843995168137
 40
1.0
 40
1.0
 40
1.0
 40
1.0
 10
268.9299637172044
 20
367.7979236109629
 30
0.0
 10
269.3432697053972
 20
367.2704721927247
 30
0.0
 10
270.1696364695972
 20
366.2158822902938
 30
0.0
 10
270.632672590735
 20
364.2286776769142
 30
0.0
 10
270.4375117803752
 20
362.2139030710535
 30
0.0
 10
269.5489517926859
 20
360.3773712584398
 30
0.0
 10
268.1034468119869
 20
358.9689140041588
 30
0.0
 10
266.2967297971325
 20
358.1422012307561
 30
0.0
 10
264.3509815197679
 20
357.9629351858924
 30
0.0
 10
262.4754748899164
 20
358.4224393526127
 30
0.0
 10
260.8561831496871
 20
359.459626573676
 30
0.0
 10
259.6543170955737
 20
360.9715237905879
 30
0.0
 10
259.0037722452011
 20
362.8141753225364
 30
0.0
 10
258.9993737713736
 20
364.7999765525458
 30
0.0
 10
259.6736429573118
 20
366.7011138856042
 30
0.0
 10
260.9669088232423
 20
368.2714981774325
 30
0.0
 10
262.7072294644207
 20
369.2966961644391
 30
0.0
 10
264.6423604393485
 20
369.6668995977716
 30
0.0
 10
266.52067282155
 20
369.3931193687623
 30
0.0
 10
267.9692904369718
 20
368.6918997199211
 30
0.0
 10
268.6688727560475
 20
368.040887672045
 30
0.0
 10
268.9299637172039
 20
367.7979236109623
 30
0.0
  0
SPLINE
  5
15E
330
1F
100
AcDbEntity
  8
0
  6
Continuous
 62
     7
370
    15
100
AcDbSpline
210
0.0
220
0.0
230
1.0
 70
    11
 71
     3
 72
    26
 73
    22
 74
     0
 42
0.000000001
 43
0.00000001
 40
0.0
 40
0.0
 40
0.0
 40
0.0
 40
0.0527073244824788
 40
0.1054937591610823
 40
0.1564477847427279
 40
0.2063186580335239
 40
0.2574184940667071
 40
0.3109974026744288
 40
0.3667083306702236
 40
0.4232494874151199
 40
0.4792887545409306
 40
0.5340223015583107
 40
0.5872808671850783
 40
0.639386041536443
 40
0.6909396725998285
 40
0.7426367769576626
 40
0.7951200816339431
 40
0.8488568731586758
 40
0.9040091890506476
 40
0.9602784316709999
 40
1.0
 40
1.0
 40
1.0
 40
1.0
 10
243.3735807293598
 20
393.3543065988078
 30
0.0
 10
243.7878811930674
 20
392.871998746423
 30
0.0
 10
244.6171039579836
 20
391.9066591295754
 30
0.0
 10
245.1811164057031
 20
390.0314977271804
 30
0.0
 10
245.1384250977862
 20
388.1249692960691
 30
0.0
 10
244.4963370370176
 20
386.3597821637881
 30
0.0
 10
243.3322328452871
 20
384.8819860457301
 30
0.0
 10
241.71399657506
 20
383.8262587370322
 30
0.0
 10
239.7804720678172
 20
383.3506813283828
 30
0.0
 10
237.7616193851961
 20
383.5632016194382
 30
0.0
 10
235.9312542022455
 20
384.4581622932869
 30
0.0
 10
234.5292899880945
 20
385.9104845403545
 30
0.0
 10
233.7111441033572
 20
387.7203858218436
 30
0.0
 10
233.5406137799773
 20
389.6665751619938
 30
0.0
 10
234.0083494832952
 20
391.5397816454362
 30
0.0
 10
235.0527802476109
 20
393.1545965885689
 30
0.0
 10
236.5697443827026
 20
394.3494743612079
 30
0.0
 10
238.4172665226134
 20
394.9934580044991
 30
0.0
 10
240.397278894982
 20
394.982660083627
 30
0.0
 10
242.1276997476407
 20
394.3887810963193
 30
0.0
 10
243.0089246323379
 20
393.6570862689892
 30
0.0
 10
243.3735807293594
 20
393.3543065988071
 30
0.0
  0
SPLINE
  5
15F
330
1F
100
AcDbEntity
  8
0
  6
Continuous
 62
     7
370
    15
100
AcDbSpline
210
0.0
220
0.0
230
1.0
 70
    11
 71
     3
 72
    26
 73
    22
 74
     0
 42
0.000000001
 43
0.00000001
 40
0.0
 40
0.0
 40
0.0
 40
0.0
 40
0.0542713951074467
 40
0.1084998373729346
 40
0.1638062607951897
 40
0.2201622218448805
 40
0.2765747637240594
 40
0.3315219331462991
 40
0.3837993283105761
 40
0.4339454222661897
 40
0.4841630375406723
 40
0.5364220286789663
 40
0.5911682576489579
 40
0.6474709598762048
 40
0.7039121202803188
 40
0.759378620366424
 40
0.8133832145383391
 40
0.8660210311293798
 40
0.9177761615988835
 40
0.969316497255986
 40
1.0
 40
1.0
 40
1.0
 40
1.0
 10
268.7570511043124
 20
418.7701495871242
 30
0.0
 10
269.1858755278149
 20
418.2698498790743
 30
0.0
 10
270.0431849837344
 20
417.2696464228396
 30
0.0
 10
270.5958578442849
 20
415.3470756919526
 30
0.0
 10
270.5203329808003
 20
413.3623162799145
 30
0.0
 10
269.7585112961909
 20
411.4880358579421
 30
0.0
 10
268.396251972716
 20
409.9779988164792
 30
0.0
 10
266.6152537584088
 20
409.033588836194
 30
0.0
 10
264.6759994218893
 20
408.7501782139018
 30
0.0
 10
262.8120809569995
 20
409.0970619896141
 30
0.0
 10
261.1725059462658
 20
410.00015887157
 30
0.0
 10
259.8806764471773
 20
411.3971680336687
 30
0.0
 10
259.0889985083542
 20
413.1922453801993
 30
0.0
 10
258.9411909246876
 20
415.2005991090939
 30
0.0
 10
259.4948436011202
 20
417.1614160395325
 30
0.0
 10
260.6830070511019
 20
418.8085886199233
 30
0.0
 10
262.3364660330511
 20
419.9393102505882
 30
0.0
 10
264.2416347736126
 20
420.4461267025583
 30
0.0
 10
266.1715740358489
 20
420.2964551531041
 30
0.0
 10
267.7151140120702
 20
419.656072638623
 30
0.0
 10
268.473896091497
 20
419.0109064954523
 30
0.0
 10
268.7570511043124
 20
418.7701495871242
 30
0.0
  0
CIRCLE
  5
160
330
1F
100
AcDbEntity
  8
0
  6
Continuous
 62
     7
370
    15
100
AcDbCircle
 10
264.7835695318
 20
414.6079124134
 30
0.0
 40
3.378199999999993
  0
CIRCLE
  5
161
330
1F
100
AcDbEntity
  8
0
  6
Continuous
 62
     7
370
    15
100
AcDbCircle
 10
239.3835695318
 20
389.2079124134
 30
0.0
 40
3.378199999999993
  0
CIRCLE
  5
162
330
1F
100
AcDbEntity
  8
0
  6
Continuous
 62
     7
370
    15
100
AcDbCircle
 10
290.1835695318
 20
389.2079124134
 30
0.0
 40
3.378199999999993
  0
CIRCLE
  5
163
330
1F
100
AcDbEntity
  8
0
  6
Continuous
 62
     7
370
    15
100
AcDbCircle
 10
264.7835695318
 20
363.8079124134
 30
0.0
 40
3.378200000000049
  0
DIMENSION
  5
164
330
1F
100
AcDbEntity
  8
DIM
 62
     7
100
AcDbDimension
  2
_D_3
 10
214.7835695318
 20
363.8079124134
 30
0.0
 11
214.7835695318
 21
376.5079124134
 31
0.0
 70
   160
  1
<>
 71
     2
 42
-1.0
  3
SLDDIMSTYLE0
100
AcDbAlignedDimension
 13
290.1835695318
 23
389.2079124134
 33
0.0
 14
264.7835695318
 24
363.8079124134
 34
0.0
 50
90.0
100
AcDbRotatedDimension
  0
DIMENSION
  5
16E
330
1F
100
AcDbEntity
  8
DIM
 62
     7
100
AcDbDimension
  2
_D_4
 10
214.7835695318
 20
414.6079124134
 30
0.0
 11
214.7835695318
 21
401.9079124134
 31
0.0
 70
   160
  1
<>
 71
     2
 42
-1.0
  3
SLDDIMSTYLE0
100
AcDbAlignedDimension
 13
239.3835695318
 23
389.2079124134
 33
0.0
 14
264.7835695318
 24
414.6079124134
 34
0.0
 50
90.0
100
AcDbRotatedDimension
  0
DIMENSION
  5
178
330
1F
100
AcDbEntity
  8
DIM
 62
     7
100
AcDbDimension
  2
_D_5
 10
264.7835695318
 20
436.6232373692
 30
0.0
 11
252.0835695318
 21
436.6232373692
 31
0.0
 70
   160
  1
<>
 71
     2
 42
-1.0
  3
SLDDIMSTYLE0
100
AcDbAlignedDimension
 13
239.3835695318
 23
395.9622824134
 33
0.0
 14
264.7835695318
 24
421.3622824134
 34
0.0
100
AcDbRotatedDimension
  0
DIMENSION
  5
182
330
1F
100
AcDbEntity
  8
DIM
 62
     7
100
AcDbDimension
  2
_D_6
 10
290.1835695318
 20
436.6232373692
 30
0.0
 11
277.4835695318
 21
436.6232373692
 31
0.0
 70
   160
  1
<>
 71
     2
 42
-1.0
  3
SLDDIMSTYLE0
100
AcDbAlignedDimension
 13
264.7835695318
 23
421.3622824134
 33
0.0
 14
290.1835695318
 24
395.9622824134
 34
0.0
100
AcDbRotatedDimension
  0
DIMENSION
  5
18C
330
1F
100
AcDbEntity
  8
DIM
100
AcDbDimension
  2
_D_7
 10
286.1146154834
 20
385.138958365
 30
0.0
 11
340.3690401292
 21
421.1945976853
 31
0.0
 70
   163
  1
4 HOLES,\P 1/4"-20 CLR
 71
     1
 42
-1.0
  3
SLDDIMSTYLE1
100
AcDbDiametricDimension
 15
294.2525235803
 25
393.2768664619
 35
0.0
 40
0.0
  0
INSERT
  5
1A1
330
1F
100
AcDbEntity
  8
DIM
 62
     7
100
AcDbBlockReference
  2
SW_CENTERMARKSYMBOL_0
 10
264.7835695318
 20
389.2079124134
 30
0.0
  0
INSERT
  5
1AD
330
1F
100
AcDbEntity
  8
DIM
 62
     7
100
AcDbBlockReference
  2
SW_CENTERMARKSYMBOL_1
 10
264.7835695318
 20
414.6079124134
 30
0.0
  0
INSERT
  5
1B9
330
1F
100
AcDbEntity
  8
DIM
 62
     7
100
AcDbBlockReference
  2
SW_CENTERMARKSYMBOL_2
 10
239.3835695318
 20
389.2079124134
 30
0.0
  0
INSERT
  5
1C5
330
1F
100
AcDbEntity
  8
DIM
 62
     7
100
AcDbBlockReference
  2
SW_CENTERMARKSYMBOL_3
 10
290.1835695318
 20
389.2079124134
 30
0.0
  0
INSERT
  5
1D1
330
1F
100
AcDbEntity
  8
DIM
 62
     7
100
AcDbBlockReference
  2
SW_CENTERMARKSYMBOL_4
 10
264.7835695318
 20
363.8079124134
 30
0.0
  0
ENDSEC
  0
SECTION
  2
OBJECTS
  0
DICTIONARY
  5
C
330
0
100
AcDbDictionary
281
     1
  3
ACAD_GROUP
350
D
  3
ACAD_LAYOUT
350
1A
  3
ACAD_MLINESTYLE
350
17
  3
ACAD_PLOTSETTINGS
350
19
  3
ACAD_PLOTSTYLENAME
350
E
  3
ACAD_SCALELIST
350
47
  0
DICTIONARY
  5
D
102
{ACAD_REACTORS
330
C
102
}
330
C
100
AcDbDictionary
281
     1
  0
DICTIONARY
  5
1A
102
{ACAD_REACTORS
330
C
102
}
330
C
100
AcDbDictionary
281
     1
  3
Layout1
350
1E
  3
Layout2
350
26
  3
Model
350
22
  0
DICTIONARY
  5
17
102
{ACAD_REACTORS
330
C
102
}
330
C
100
AcDbDictionary
281
     1
  3
Standard
350
18
  0
DICTIONARY
  5
19
102
{ACAD_REACTORS
330
C
102
}
330
C
100
AcDbDictionary
281
     1
  0
ACDBDICTIONARYWDFLT
  5
E
102
{ACAD_REACTORS
330
C
102
}
330
C
100
AcDbDictionary
281
     1
  3
Normal
350
F
100
AcDbDictionaryWithDefault
340
F
  0
DICTIONARY
  5
47
102
{ACAD_REACTORS
330
C
102
}
330
C
100
AcDbDictionary
281
     1
  3
A0
350
48
  3
A1
350
49
  3
A2
350
4A
  3
A3
350
4B
  3
A4
350
4C
  3
A5
350
4D
  3
A6
350
4E
  3
A7
350
4F
  3
A8
350
50
  3
A9
350
51
  3
B0
350
52
  3
B1
350
53
  3
B2
350
54
  3
B3
350
55
  3
B4
350
56
  3
B5
350
57
  3
B6
350
58
  3
B7
350
59
  3
B8
350
5A
  3
B9
350
5B
  3
C0
350
5C
  3
C1
350
5D
  3
C2
350
5E
  3
C3
350
5F
  3
C4
350
60
  3
C5
350
61
  3
C6
350
62
  3
C7
350
63
  3
C8
350
64
  3
C9
350
65
  3
D0
350
66
  3
D1
350
67
  3
D2
350
68
  0
LAYOUT
  5
1E
102
{ACAD_REACTORS
330
1A
102
}
330
1A
100
AcDbPlotSettings
  1

  2
none_device
  4

  6

 40
0.0
 41
0.0
 42
0.0
 43
0.0
 44
0.0
 45
0.0
 46
0.0
 47
0.0
 48
0.0
 49
0.0
140
0.0
141
0.0
142
1.0
143
1.0
 70
   688
 72
     1
 73
     0
 74
     5
  7

 75
    16
147
1.0
148
0.0
149
0.0
100
AcDbLayout
  1
Layout1
 70
     1
 71
     1
 10
0.0
 20
0.0
 11
420.0
 21
297.0
 12
0.0
 22
0.0
 32
0.0
 14
1.0000000000E+20
 24
1.0000000000E+20
 34
1.0000000000E+20
 15
-1.0000000000E+20
 25
-1.0000000000E+20
 35
-1.0000000000E+20
146
0.0
 13
0.0
 23
0.0
 33
0.0
 16
1.0
 26
0.0
 36
0.0
 17
0.0
 27
1.0
 37
0.0
 76
     0
330
1B
  0
LAYOUT
  5
26
102
{ACAD_REACTORS
330
1A
102
}
330
1A
100
AcDbPlotSettings
  1

  2
none_device
  4

  6

 40
0.0
 41
0.0
 42
0.0
 43
0.0
 44
0.0
 45
0.0
 46
0.0
 47
0.0
 48
0.0
 49
0.0
140
0.0
141
0.0
142
1.0
143
1.0
 70
   688
 72
     1
 73
     0
 74
     5
  7

 75
    16
147
1.0
148
0.0
149
0.0
100
AcDbLayout
  1
Layout2
 70
     1
 71
     2
 10
0.0
 20
0.0
 11
0.0
 21
0.0
 12
0.0
 22
0.0
 32
0.0
 14
0.0
 24
0.0
 34
0.0
 15
0.0
 25
0.0
 35
0.0
146
0.0
 13
0.0
 23
0.0
 33
0.0
 16
1.0
 26
0.0
 36
0.0
 17
0.0
 27
1.0
 37
0.0
 76
     0
330
23
  0
LAYOUT
  5
22
102
{ACAD_REACTORS
330
1A
102
}
330
1A
100
AcDbPlotSettings
  1

  2
none_device
  4
Letter_(8.50_x_11.00_Inches)
  6

 40
6.35
 41
6.35
 42
6.35000508
 43
6.35000508
 44
215.9
 45
279.4
 46
0.0
 47
0.0
 48
0.0
 49
0.0
140
0.0
141
0.0
142
1.0
143
1.0
 70
  1712
 72
     1
 73
     0
 74
     0
  7

 75
     0
147
1.0
148
0.0
149
0.0
100
AcDbLayout
  1
Model
 70
     1
 71
     0
 10
0.0
 20
0.0
 11
742.5
 21
525.0
 12
0.0
 22
0.0
 32
0.0
 14
0.0
 24
0.0
 34
0.0
 15
742.5
 25
525.0
 35
0.0
146
0.0
 13
0.0
 23
0.0
 33
0.0
 16
1.0
 26
0.0
 36
0.0
 17
0.0
 27
1.0
 37
0.0
 76
     0
330
1F
331
29
  0
MLINESTYLE
  5
18
102
{ACAD_REACTORS
330
17
102
}
330
17
100
AcDbMlineStyle
  2
Standard
 70
     0
  3

 62
   256
 51
90.0
 52
90.0
 71
     2
 49
0.5
 62
   256
  6
BYLAYER
 49
-0.5
 62
   256
  6
BYLAYER
  0
ACDBPLACEHOLDER
  5
F
102
{ACAD_REACTORS
330
E
102
}
330
E
  0
SCALE
  5
48
102
{ACAD_REACTORS
330
47
102
}
330
47
100
AcDbScale
 70
     0
300
1:1
140
1.0
141
1.0
290
     1
  0
SCALE
  5
49
102
{ACAD_REACTORS
330
47
102
}
330
47
100
AcDbScale
 70
     0
300
1:2
140
1.0
141
2.0
290
     0
  0
SCALE
  5
4A
102
{ACAD_REACTORS
330
47
102
}
330
47
100
AcDbScale
 70
     0
300
1:4
140
1.0
141
4.0
290
     0
  0
SCALE
  5
4B
102
{ACAD_REACTORS
330
47
102
}
330
47
100
AcDbScale
 70
     0
300
1:5
140
1.0
141
5.0
290
     0
  0
SCALE
  5
4C
102
{ACAD_REACTORS
330
47
102
}
330
47
100
AcDbScale
 70
     0
300
1:8
140
1.0
141
8.0
290
     0
  0
SCALE
  5
4D
102
{ACAD_REACTORS
330
47
102
}
330
47
100
AcDbScale
 70
     0
300
1:10
140
1.0
141
10.0
290
     0
  0
SCALE
  5
4E
102
{ACAD_REACTORS
330
47
102
}
330
47
100
AcDbScale
 70
     0
300
1:16
140
1.0
141
16.0
290
     0
  0
SCALE
  5
4F
102
{ACAD_REACTORS
330
47
102
}
330
47
100
AcDbScale
 70
     0
300
1:20
140
1.0
141
20.0
290
     0
  0
SCALE
  5
50
102
{ACAD_REACTORS
330
47
102
}
330
47
100
AcDbScale
 70
     0
300
1:30
140
1.0
141
30.0
290
     0
  0
SCALE
  5
51
102
{ACAD_REACTORS
330
47
102
}
330
47
100
AcDbScale
 70
     0
300
1:40
140
1.0
141
40.0
290
     0
  0
SCALE
  5
52
102
{ACAD_REACTORS
330
47
102
}
330
47
100
AcDbScale
 70
     0
300
1:50
140
1.0
141
50.0
290
     0
  0
SCALE
  5
53
102
{ACAD_REACTORS
330
47
102
}
330
47
100
AcDbScale
 70
     0
300
1:100
140
1.0
141
100.0
290
     0
  0
SCALE
  5
54
102
{ACAD_REACTORS
330
47
102
}
330
47
100
AcDbScale
 70
     0
300
2:1
140
2.0
141
1.0
290
     0
  0
SCALE
  5
55
102
{ACAD_REACTORS
330
47
102
}
330
47
100
AcDbScale
 70
     0
300
4:1
140
4.0
141
1.0
290
     0
  0
SCALE
  5
56
102
{ACAD_REACTORS
330
47
102
}
330
47
100
AcDbScale
 70
     0
300
8:1
140
8.0
141
1.0
290
     0
  0
SCALE
  5
57
102
{ACAD_REACTORS
330
47
102
}
330
47
100
AcDbScale
 70
     0
300
10:1
140
10.0
141
1.0
290
     0
  0
SCALE
  5
58
102
{ACAD_REACTORS
330
47
102
}
330
47
100
AcDbScale
 70
     0
300
100:1
140
100.0
141
1.0
290
     0
  0
SCALE
  5
59
102
{ACAD_REACTORS
330
47
102
}
330
47
100
AcDbScale
 70
     0
300
1/128" = 1'-0"
140
0.0078125
141
12.0
290
     0
  0
SCALE
  5
5A
102
{ACAD_REACTORS
330
47
102
}
330
47
100
AcDbScale
 70
     0
300
1/64" = 1'-0"
140
0.015625
141
12.0
290
     0
  0
SCALE
  5
5B
102
{ACAD_REACTORS
330
47
102
}
330
47
100
AcDbScale
 70
     0
300
1/32" = 1'-0"
140
0.03125
141
12.0
290
     0
  0
SCALE
  5
5C
102
{ACAD_REACTORS
330
47
102
}
330
47
100
AcDbScale
 70
     0
300
1/16" = 1'-0"
140
0.0625
141
12.0
290
     0
  0
SCALE
  5
5D
102
{ACAD_REACTORS
330
47
102
}
330
47
100
AcDbScale
 70
     0
300
3/32" = 1'-0"
140
0.09375
141
12.0
290
     0
  0
SCALE
  5
5E
102
{ACAD_REACTORS
330
47
102
}
330
47
100
AcDbScale
 70
     0
300
1/8" = 1'-0"
140
0.125
141
12.0
290
     0
  0
SCALE
  5
5F
102
{ACAD_REACTORS
330
47
102
}
330
47
100
AcDbScale
 70
     0
300
3/16" = 1'-0"
140
0.1875
141
12.0
290
     0
  0
SCALE
  5
60
102
{ACAD_REACTORS
330
47
102
}
330
47
100
AcDbScale
 70
     0
300
1/4" = 1'-0"
140
0.25
141
12.0
290
     0
  0
SCALE
  5
61
102
{ACAD_REACTORS
330
47
102
}
330
47
100
AcDbScale
 70
     0
300
3/8" = 1'-0"
140
0.375
141
12.0
290
     0
  0
SCALE
  5
62
102
{ACAD_REACTORS
330
47
102
}
330
47
100
AcDbScale
 70
     0
300
1/2" = 1'-0"
140
0.5
141
12.0
290
     0
  0
SCALE
  5
63
102
{ACAD_REACTORS
330
47
102
}
330
47
100
AcDbScale
 70
     0
300
3/4" = 1'-0"
140
0.75
141
12.0
290
     0
  0
SCALE
  5
64
102
{ACAD_REACTORS
330
47
102
}
330
47
100
AcDbScale
 70
     0
300
1" = 1'-0"
140
1.0
141
12.0
290
     0
  0
SCALE
  5
65
102
{ACAD_REACTORS
330
47
102
}
330
47
100
AcDbScale
 70
     0
300
1-1/2" = 1'-0"
140
1.5
141
12.0
290
     0
  0
SCALE
  5
66
102
{ACAD_REACTORS
330
47
102
}
330
47
100
AcDbScale
 70
     0
300
3" = 1'-0"
140
3.0
141
12.0
290
     0
  0
SCALE
  5
67
102
{ACAD_REACTORS
330
47
102
}
330
47
100
AcDbScale
 70
     0
300
6" = 1'-0"
140
6.0
141
12.0
290
     0
  0
SCALE
  5
68
102
{ACAD_REACTORS
330
47
102
}
330
47
100
AcDbScale
 70
     0
300
1'-0" = 1'-0"
140
12.0
141
12.0
290
     0
  0
ENDSEC
  0
EOF
