  0
SECTION
  2
HEADER
  9
$ACADVER
  1
AC1015
  9
$ACADMAINTVER
 70
     6
  9
$DWGCODEPAGE
  3
ANSI_950
  9
$INSBASE
 10
0.0
 20
0.0
 30
0.0
  9
$EXTMIN
 10
0.0
 20
0.0
 30
0.0
  9
$EXTMAX
 10
445.5
 20
315.0
 30
0.0
  9
$LIMMIN
 10
0.0
 20
0.0
  9
$LIMMAX
 10
445.5
 20
315.0
  9
$ORTHOMODE
 70
     0
  9
$REGENMODE
 70
     1
  9
$FILLMODE
 70
     1
  9
$QTEXTMODE
 70
     0
  9
$MIRRTEXT
 70
     1
  9
$LTSCALE
 40
1.5
  9
$ATTMODE
 70
     1
  9
$TEXTSIZE
 40
5.2916666667
  9
$TRACEWID
 40
1.0
  9
$TEXTSTYLE
  7
STANDARD
  9
$CLAYER
  8
0
  9
$CELTYPE
  6
ByLayer
  9
$CECOLOR
 62
   256
  9
$CELTSCALE
 40
1.0
  9
$DISPSILH
 70
     0
  9
$DIMSCALE
 40
1.0
  9
$DIMASZ
 40
3.0
  9
$DIMEXO
 40
1.5
  9
$DIMDLI
 40
3.75
  9
$DIMRND
 40
0.0
  9
$DIMDLE
 40
0.0
  9
$DIMEXE
 40
1.5
  9
$DIMTP
 40
0.0
  9
$DIMTM
 40
0.0
  9
$DIMTXT
 40
3.75
  9
$DIMCEN
 40
2.5
  9
$DIMTSZ
 40
0.0
  9
$DIMTOL
 70
     0
  9
$DIMLIM
 70
     0
  9
$DIMTIH
 70
     1
  9
$DIMTOH
 70
     1
  9
$DIMSE1
 70
     0
  9
$DIMSE2
 70
     0
  9
$DIMTAD
 70
     1
  9
$DIMZIN
 70
     0
  9
$DIMBLK
  1

  9
$DIMASO
 70
     1
  9
$DIMSHO
 70
     1
  9
$DIMPOST
  1

  9
$DIMAPOST
  1

  9
$DIMALT
 70
     0
  9
$DIMALTD
 70
     3
  9
$DIMALTF
 40
0.0393700787
  9
$DIMLFAC
 40
1.0
  9
$DIMTOFL
 70
     1
  9
$DIMTVP
 40
0.0
  9
$DIMTIX
 70
     0
  9
$DIMSOXD
 70
     0
  9
$DIMSAH
 70
     0
  9
$DIMBLK1
  1

  9
$DIMBLK2
  1

  9
$DIMSTYLE
  2
ISO-25
  9
$DIMCLRD
 70
     0
  9
$DIMCLRE
 70
     0
  9
$DIMCLRT
 70
     0
  9
$DIMTFAC
 40
1.0
  9
$DIMGAP
 40
1.5
  9
$DIMJUST
 70
     0
  9
$DIMSD1
 70
     0
  9
$DIMSD2
 70
     0
  9
$DIMTOLJ
 70
     0
  9
$DIMTZIN
 70
     0
  9
$DIMALTZ
 70
     0
  9
$DIMALTTZ
 70
     0
  9
$DIMUPT
 70
     0
  9
$DIMDEC
 70
     2
  9
$DIMTDEC
 70
     2
  9
$DIMALTU
 70
     2
  9
$DIMALTTD
 70
     3
  9
$DIMTXSTY
  7
STANDARD
  9
$DIMAUNIT
 70
     0
  9
$DIMADEC
 70
     1
  9
$DIMALTRND
 40
0.0
  9
$DIMAZIN
 70
     0
  9
$DIMDSEP
 70
    44
  9
$DIMATFIT
 70
     3
  9
$DIMFRAC
 70
     0
  9
$DIMLDRBLK
  1

  9
$DIMLUNIT
 70
     2
  9
$DIMLWD
 70
    -2
  9
$DIMLWE
 70
    -2
  9
$DIMTMOVE
 70
     0
  9
$LUNITS
 70
     2
  9
$LUPREC
 70
     2
  9
$SKETCHINC
 40
1.0
  9
$FILLETRAD
 40
10.0
  9
$AUNITS
 70
     0
  9
$AUPREC
 70
     1
  9
$MENU
  1
.
  9
$ELEVATION
 40
0.0
  9
$PELEVATION
 40
0.0
  9
$THICKNESS
 40
0.0
  9
$LIMCHECK
 70
     0
  9
$CHAMFERA
 40
0.0
  9
$CHAMFERB
 40
0.0
  9
$CHAMFERC
 40
0.0
  9
$CHAMFERD
 40
0.0
  9
$SKPOLY
 70
     0
  9
$TDCREATE
 40
2457504.434480822
  9
$TDUCREATE
 40
2457504.101147488
  9
$TDUPDATE
 40
2457504.434488241
  9
$TDUUPDATE
 40
2457504.101154908
  9
$TDINDWG
 40
0.0000000116
  9
$TDUSRTIMER
 40
0.0000000116
  9
$USRTIMER
 70
     1
  9
$ANGBASE
 50
0.0
  9
$ANGDIR
 70
     0
  9
$PDMODE
 70
     0
  9
$PDSIZE
 40
-1.0
  9
$PLINEWID
 40
0.0
  9
$SPLFRAME
 70
     0
  9
$SPLINETYPE
 70
     6
  9
$SPLINESEGS
 70
     8
  9
$HANDSEED
  5
2D8
  9
$SURFTAB1
 70
     6
  9
$SURFTAB2
 70
     6
  9
$SURFTYPE
 70
     6
  9
$SURFU
 70
     6
  9
$SURFV
 70
     6
  9
$UCSBASE
  2

  9
$UCSNAME
  2

  9
$UCSORG
 10
0.0
 20
0.0
 30
0.0
  9
$UCSXDIR
 10
1.0
 20
0.0
 30
0.0
  9
$UCSYDIR
 10
0.0
 20
1.0
 30
0.0
  9
$UCSORTHOREF
  2

  9
$UCSORTHOVIEW
 70
     0
  9
$UCSORGTOP
 10
0.0
 20
0.0
 30
0.0
  9
$UCSORGBOTTOM
 10
0.0
 20
0.0
 30
0.0
  9
$UCSORGLEFT
 10
0.0
 20
0.0
 30
0.0
  9
$UCSORGRIGHT
 10
0.0
 20
0.0
 30
0.0
  9
$UCSORGFRONT
 10
0.0
 20
0.0
 30
0.0
  9
$UCSORGBACK
 10
0.0
 20
0.0
 30
0.0
  9
$PUCSBASE
  2

  9
$PUCSNAME
  2

  9
$PUCSORG
 10
0.0
 20
0.0
 30
0.0
  9
$PUCSXDIR
 10
1.0
 20
0.0
 30
0.0
  9
$PUCSYDIR
 10
0.0
 20
1.0
 30
0.0
  9
$PUCSORTHOREF
  2

  9
$PUCSORTHOVIEW
 70
     0
  9
$PUCSORGTOP
 10
0.0
 20
0.0
 30
0.0
  9
$PUCSORGBOTTOM
 10
0.0
 20
0.0
 30
0.0
  9
$PUCSORGLEFT
 10
0.0
 20
0.0
 30
0.0
  9
$PUCSORGRIGHT
 10
0.0
 20
0.0
 30
0.0
  9
$PUCSORGFRONT
 10
0.0
 20
0.0
 30
0.0
  9
$PUCSORGBACK
 10
0.0
 20
0.0
 30
0.0
  9
$USERI1
 70
     0
  9
$USERI2
 70
     0
  9
$USERI3
 70
     0
  9
$USERI4
 70
     0
  9
$USERI5
 70
     0
  9
$USERR1
 40
0.0
  9
$USERR2
 40
0.0
  9
$USERR3
 40
0.0
  9
$USERR4
 40
0.0
  9
$USERR5
 40
0.0
  9
$WORLDVIEW
 70
     1
  9
$SHADEDGE
 70
     3
  9
$SHADEDIF
 70
    70
  9
$TILEMODE
 70
     1
  9
$MAXACTVP
 70
    64
  9
$PINSBASE
 10
0.0
 20
0.0
 30
0.0
  9
$PLIMCHECK
 70
     0
  9
$PEXTMIN
 10
1.0000000000E+20
 20
1.0000000000E+20
 30
1.0000000000E+20
  9
$PEXTMAX
 10
-1.0000000000E+20
 20
-1.0000000000E+20
 30
-1.0000000000E+20
  9
$PLIMMIN
 10
0.0
 20
0.0
  9
$PLIMMAX
 10
420.0
 20
297.0
  9
$UNITMODE
 70
     0
  9
$VISRETAIN
 70
     1
  9
$PLINEGEN
 70
     0
  9
$PSLTSCALE
 70
     1
  9
$TREEDEPTH
 70
  3020
  9
$CMLSTYLE
  2
Standard
  9
$CMLJUST
 70
     0
  9
$CMLSCALE
 40
20.0
  9
$PROXYGRAPHICS
 70
     1
  9
$MEASUREMENT
 70
     1
  9
$CELWEIGHT
370
    -1
  9
$ENDCAPS
280
     0
  9
$JOINSTYLE
280
     0
  9
$LWDISPLAY
290
     1
  9
$INSUNITS
 70
     4
  9
$HYPERLINKBASE
  1

  9
$STYLESHEET
  1

  9
$XEDIT
290
     1
  9
$CEPSNTYPE
380
     0
  9
$PSTYLEMODE
290
     1
  9
$FINGERPRINTGUID
  2
{88EEC214-F569-4AE0-8736-60348D6A1DA1}
  9
$VERSIONGUID
  2
{FAEB1C32-E019-11D5-929B-00C0DF256EC4}
  9
$EXTNAMES
290
     1
  9
$PSVPSCALE
 40
0.0
  9
$OLESTARTUP
290
     0
  0
ENDSEC
  0
SECTION
  2
CLASSES
  0
CLASS
  1
ACDBDICTIONARYWDFLT
  2
AcDbDictionaryWithDefault
  3
ObjectDBX Classes
 90
        0
280
     0
281
     0
  0
CLASS
  1
VISUALSTYLE
  2
AcDbVisualStyle
  3
ObjectDBX Classes
 90
     4095
280
     0
281
     0
  0
CLASS
  1
MATERIAL
  2
AcDbMaterial
  3
ObjectDBX Classes
 90
     1153
280
     0
281
     0
  0
CLASS
  1
SCALE
  2
AcDbScale
  3
ObjectDBX Classes
 90
     1153
280
     0
281
     0
  0
CLASS
  1
TABLESTYLE
  2
AcDbTableStyle
  3
ObjectDBX Classes
 90
     4095
280
     0
281
     0
  0
CLASS
  1
MLEADERSTYLE
  2
AcDbMLeaderStyle
  3
ACDB_MLEADERSTYLE_CLASS
 90
     4095
280
     0
281
     0
  0
CLASS
  1
SUN
  2
AcDbSun
  3
SCENEOE
 90
     1153
280
     0
281
     0
  0
CLASS
  1
ACDBPLACEHOLDER
  2
AcDbPlaceHolder
  3
ObjectDBX Classes
 90
        0
280
     0
281
     0
  0
CLASS
  1
LAYOUT
  2
AcDbLayout
  3
ObjectDBX Classes
 90
        0
280
     0
281
     0
  0
ENDSEC
  0
SECTION
  2
TABLES
  0
TABLE
  2
VPORT
  5
8
330
0
100
AcDbSymbolTable
 70
     1
  0
VPORT
  5
29
330
8
100
AcDbSymbolTableRecord
100
AcDbViewportTableRecord
  2
*Active
 70
     0
 10
0.0
 20
0.0
 11
1.0
 21
1.0
 12
222.75
 22
157.5
 13
0.0
 23
0.0
 14
10.0
 24
10.0
 15
10.0
 25
10.0
 16
0.0
 26
0.0
 36
1.0
 17
0.0
 27
0.0
 37
0.0
 40
315.0
 41
1.4142857143
 42
50.0
 43
0.0
 44
0.0
 50
0.0
 51
0.0
 71
     0
 72
  2000
 73
     1
 74
     3
 75
     0
 76
     0
 77
     0
 78
     0
281
     0
 65
     1
110
0.0
120
0.0
130
0.0
111
1.0
121
0.0
131
0.0
112
0.0
122
1.0
132
0.0
 79
     0
146
0.0
  0
ENDTAB
  0
TABLE
  2
LTYPE
  5
5
330
0
100
AcDbSymbolTable
 70
     6
  0
LTYPE
  5
14
330
5
100
AcDbSymbolTableRecord
100
AcDbLinetypeTableRecord
  2
ByBlock
 70
     0
  3

 72
    65
 73
     0
 40
0.0
  0
LTYPE
  5
15
330
5
100
AcDbSymbolTableRecord
100
AcDbLinetypeTableRecord
  2
ByLayer
 70
     0
  3

 72
    65
 73
     0
 40
0.0
  0
LTYPE
  5
16
330
5
100
AcDbSymbolTableRecord
100
AcDbLinetypeTableRecord
  2
Continuous
 70
     0
  3
Solid line
 72
    65
 73
     0
 40
0.0
  0
LTYPE
  5
6E
330
5
100
AcDbSymbolTableRecord
100
AcDbLinetypeTableRecord
  2
HIDDEN
 70
     0
  3
Hidden __ __ __ __ __ __ __ __ __ __ __ __ __ __
 72
    65
 73
     2
 40
1.905
 49
1.27
 74
     0
 49
-0.635
 74
     0
  0
LTYPE
  5
6F
330
5
100
AcDbSymbolTableRecord
100
AcDbLinetypeTableRecord
  2
PHANTOM
 70
     0
  3
Phantom ______  __  __  ______  __  __  ______
 72
    65
 73
     6
 40
12.7
 49
6.35
 74
     0
 49
-1.27
 74
     0
 49
1.27
 74
     0
 49
-1.27
 74
     0
 49
1.27
 74
     0
 49
-1.27
 74
     0
  0
LTYPE
  5
70
330
5
100
AcDbSymbolTableRecord
100
AcDbLinetypeTableRecord
  2
CENTER
 70
     0
  3
Center ____ _ ____ _ ____ _ ____ _ ____ _ ____
 72
    65
 73
     4
 40
10.16
 49
6.35
 74
     0
 49
-1.27
 74
     0
 49
1.27
 74
     0
 49
-1.27
 74
     0
  0
LTYPE
  5
71
330
5
100
AcDbSymbolTableRecord
100
AcDbLinetypeTableRecord
  2
CENTERX2
 70
     0
  3
Center (2x) ________  __  ________  __  _____
 72
    65
 73
     4
 40
20.32
 49
12.7
 74
     0
 49
-2.54
 74
     0
 49
2.54
 74
     0
 49
-2.54
 74
     0
  0
LTYPE
  5
72
330
5
100
AcDbSymbolTableRecord
100
AcDbLinetypeTableRecord
  2
DOT2
 70
     0
  3
Dot (.5x) ........................................
 72
    65
 73
     2
 40
0.635
 49
0.0
 74
     0
 49
-0.635
 74
     0
  0
ENDTAB
  0
TABLE
  2
LAYER
  5
2
330
0
100
AcDbSymbolTable
 70
     8
  0
LAYER
  5
10
330
2
100
AcDbSymbolTableRecord
100
AcDbLayerTableRecord
  2
0
 70
     0
 62
     7
  6
Continuous
370
    -3
390
F
  0
LAYER
  5
73
330
2
100
AcDbSymbolTableRecord
100
AcDbLayerTableRecord
  2
SLD-0
 70
     0
 62
   179
  6
Continuous
370
    15
390
F
  0
LAYER
  5
74
330
2
100
AcDbSymbolTableRecord
100
AcDbLayerTableRecord
  2
輪廓線
 70
     0
 62
   219
  6
Continuous
370
    15
390
F
  0
LAYER
  5
75
330
2
100
AcDbSymbolTableRecord
100
AcDbLayerTableRecord
  2
DIM
 70
     0
 62
     7
  6
Continuous
370
    -3
390
F
  0
LAYER
  5
76
330
2
100
AcDbSymbolTableRecord
100
AcDbLayerTableRecord
  2
中心線
 70
     0
 62
     1
  6
CENTERX2
370
    -3
390
F
  0
LAYER
  5
77
330
2
100
AcDbSymbolTableRecord
100
AcDbLayerTableRecord
  2
虛線
 70
     0
 62
     6
  6
HIDDEN
370
    -3
390
F
  0
LAYER
  5
78
330
2
100
AcDbSymbolTableRecord
100
AcDbLayerTableRecord
  2
SECTION
 70
     0
 62
     5
  6
PHANTOM
370
    15
390
F
  0
LAYER
  5
79
330
2
100
AcDbSymbolTableRecord
100
AcDbLayerTableRecord
  2
假想線
 70
     0
 62
     5
  6
PHANTOM
370
    -3
390
F
  0
ENDTAB
  0
TABLE
  2
STYLE
  5
3
330
0
100
AcDbSymbolTable
 70
     5
  0
STYLE
  5
11
330
3
100
AcDbSymbolTableRecord
100
AcDbTextStyleTableRecord
  2
STANDARD
 70
     0
 40
0.0
 41
1.0
 50
0.0
 71
     0
 42
5.2916666667
  3
ARIALBD.TTF
  4

1001
ACAD
1000
ARIAL
1071
 33554466
  0
STYLE
  5
7A
330
3
100
AcDbSymbolTableRecord
100
AcDbTextStyleTableRecord
  2
SLDTEXTSTYLE0
 70
     0
 40
0.0
 41
1.0
 50
0.0
 71
     0
 42
2.5
  3
ARIAL.TTF
  4

1001
ACAD
1000
Arial
1071
      290
  0
STYLE
  5
CB
330
3
100
AcDbSymbolTableRecord
100
AcDbTextStyleTableRecord
  2
SLDTEXTSTYLE1
 70
     0
 40
0.0
 41
0.948
 50
0.0
 71
     0
 42
5.2916666667
  3
ARIAL.TTF
  4

1001
ACAD
1000
Arial
1071
      290
  0
STYLE
  5
D4
330
3
100
AcDbSymbolTableRecord
100
AcDbTextStyleTableRecord
  2
SLDTEXTSTYLE2
 70
     0
 40
0.0
 41
1.0
 50
0.0
 71
     0
 42
5.2916666667
  3
ARIALBD.TTF
  4

1001
ACAD
1000
Arial CE
1071
 33554722
  0
STYLE
  5
103
330
3
100
AcDbSymbolTableRecord
100
AcDbTextStyleTableRecord
  2
SLDTEXTSTYLE3
 70
     0
 40
0.0
 41
0.948
 50
0.0
 71
     0
 42
5.2916666667
  3
ARIALBD.TTF
  4

1001
ACAD
1000
Arial
1071
 33554722
  0
ENDTAB
  0
TABLE
  2
VIEW
  5
6
330
0
100
AcDbSymbolTable
 70
     0
  0
ENDTAB
  0
TABLE
  2
UCS
  5
7
330
0
100
AcDbSymbolTable
 70
     0
  0
ENDTAB
  0
TABLE
  2
APPID
  5
9
330
0
100
AcDbSymbolTable
 70
     1
  0
APPID
  5
12
330
9
100
AcDbSymbolTableRecord
100
AcDbRegAppTableRecord
  2
ACAD
 70
     0
  0
ENDTAB
  0
TABLE
  2
DIMSTYLE
  5
A
330
0
100
AcDbSymbolTable
 70
     4
100
AcDbDimStyleTable
  0
DIMSTYLE
105
27
330
A
100
AcDbSymbolTableRecord
100
AcDbDimStyleTableRecord
  2
ISO-25
 70
     0
 41
2.5
 42
0.625
 43
3.75
 44
1.25
 73
     0
 74
     0
 77
     1
 78
     8
140
2.5
141
2.5
143
0.0393700787
147
0.625
171
     3
172
     1
178
     0
271
     2
272
     2
274
     3
278
    44
283
     0
284
     8
340
7A
  0
DIMSTYLE
105
12D
102
{ACAD_REACTORS
330
12C
330
209
330
213
330
21D
330
227
330
231
330
23B
330
245
330
24F
330
259
102
}
330
A
100
AcDbSymbolTableRecord
100
AcDbDimStyleTableRecord
  2
SLDDIMSTYLE0
 70
     0
 41
3.0
 44
0.0
 45
0.000000001
 73
     0
 74
     0
 77
     1
 78
    12
 79
     3
140
3.75
147
0.9375
173
     1
178
     0
271
     2
272
     2
276
     2
284
    12
340
CB
  0
DIMSTYLE
105
264
102
{ACAD_REACTORS
330
263
102
}
330
A
100
AcDbSymbolTableRecord
100
AcDbDimStyleTableRecord
  2
SLDDIMSTYLE1
 70
     0
  3
<>
 41
3.0
 44
0.0
 45
0.000000001
 78
    12
 79
     3
140
3.75
141
0.0
147
0.9375
173
     1
178
     0
271
     2
272
     2
276
     2
284
    12
340
CB
  0
DIMSTYLE
105
274
330
A
100
AcDbSymbolTableRecord
100
AcDbDimStyleTableRecord
  2
SLDDIMSTYLE2
 70
     0
 41
3.0
 44
0.0
 45
0.000000001
146
3.0
147
0.0
173
     1
178
     0
271
     0
272
     0
276
     2
340
11
  0
ENDTAB
  0
TABLE
  2
BLOCK_RECORD
  5
1
330
0
100
AcDbSymbolTable
 70
    23
  0
BLOCK_RECORD
  5
1F
330
1
100
AcDbSymbolTableRecord
100
AcDbBlockTableRecord
  2
*Model_Space
340
22
  0
BLOCK_RECORD
  5
1B
330
1
100
AcDbSymbolTableRecord
100
AcDbBlockTableRecord
  2
*Paper_Space
340
1E
  0
BLOCK_RECORD
  5
23
330
1
100
AcDbSymbolTableRecord
100
AcDbBlockTableRecord
  2
*Paper_Space0
340
26
  0
BLOCK_RECORD
  5
CD
330
1
100
AcDbSymbolTableRecord
100
AcDbBlockTableRecord
  2
SW_NOTE_0
340
0
102
{BLKREFS
331
D3
102
}
  0
BLOCK_RECORD
  5
105
330
1
100
AcDbSymbolTableRecord
100
AcDbBlockTableRecord
  2
SW_NOTE_1
340
0
102
{BLKREFS
331
10A
102
}
  0
BLOCK_RECORD
  5
12E
330
1
100
AcDbSymbolTableRecord
100
AcDbBlockTableRecord
  2
_D
340
0
  0
BLOCK_RECORD
  5
20A
330
1
100
AcDbSymbolTableRecord
100
AcDbBlockTableRecord
  2
_D_1
340
0
  0
BLOCK_RECORD
  5
214
330
1
100
AcDbSymbolTableRecord
100
AcDbBlockTableRecord
  2
_D_2
340
0
  0
BLOCK_RECORD
  5
21E
330
1
100
AcDbSymbolTableRecord
100
AcDbBlockTableRecord
  2
_D_3
340
0
  0
BLOCK_RECORD
  5
228
330
1
100
AcDbSymbolTableRecord
100
AcDbBlockTableRecord
  2
_D_4
340
0
  0
BLOCK_RECORD
  5
232
330
1
100
AcDbSymbolTableRecord
100
AcDbBlockTableRecord
  2
_D_5
340
0
  0
BLOCK_RECORD
  5
23C
330
1
100
AcDbSymbolTableRecord
100
AcDbBlockTableRecord
  2
_D_6
340
0
  0
BLOCK_RECORD
  5
246
330
1
100
AcDbSymbolTableRecord
100
AcDbBlockTableRecord
  2
_D_7
340
0
  0
BLOCK_RECORD
  5
250
330
1
100
AcDbSymbolTableRecord
100
AcDbBlockTableRecord
  2
_D_8
340
0
  0
BLOCK_RECORD
  5
25A
330
1
100
AcDbSymbolTableRecord
100
AcDbBlockTableRecord
  2
_D_9
340
0
  0
BLOCK_RECORD
  5
265
330
1
100
AcDbSymbolTableRecord
100
AcDbBlockTableRecord
  2
_D_10
340
0
  0
BLOCK_RECORD
  5
26D
330
1
100
AcDbSymbolTableRecord
100
AcDbBlockTableRecord
  2
SW_NOTE_2
340
0
102
{BLKREFS
331
273
102
}
  0
BLOCK_RECORD
  5
276
330
1
100
AcDbSymbolTableRecord
100
AcDbBlockTableRecord
  2
SW_CENTERMARKSYMBOL_0
340
0
102
{BLKREFS
331
281
102
}
  0
BLOCK_RECORD
  5
282
330
1
100
AcDbSymbolTableRecord
100
AcDbBlockTableRecord
  2
SW_CENTERMARKSYMBOL_1
340
0
102
{BLKREFS
331
28D
102
}
  0
BLOCK_RECORD
  5
28E
330
1
100
AcDbSymbolTableRecord
100
AcDbBlockTableRecord
  2
SW_CENTERMARKSYMBOL_2
340
0
102
{BLKREFS
331
299
102
}
  0
BLOCK_RECORD
  5
29A
330
1
100
AcDbSymbolTableRecord
100
AcDbBlockTableRecord
  2
SW_CENTERMARKSYMBOL_3
340
0
102
{BLKREFS
331
2A5
102
}
  0
BLOCK_RECORD
  5
2A6
330
1
100
AcDbSymbolTableRecord
100
AcDbBlockTableRecord
  2
SW_CENTERMARKSYMBOL_4
340
0
102
{BLKREFS
331
2B1
102
}
  0
BLOCK_RECORD
  5
2B2
330
1
100
AcDbSymbolTableRecord
100
AcDbBlockTableRecord
  2
SW_CENTERMARKSYMBOL_5
340
0
102
{BLKREFS
331
2BD
102
}
  0
BLOCK_RECORD
  5
2BE
330
1
100
AcDbSymbolTableRecord
100
AcDbBlockTableRecord
  2
SW_CENTERMARKSYMBOL_6
340
0
102
{BLKREFS
331
2C9
102
}
  0
BLOCK_RECORD
  5
2CA
330
1
100
AcDbSymbolTableRecord
100
AcDbBlockTableRecord
  2
SW_CENTERMARKSYMBOL_7
340
0
102
{BLKREFS
331
2D5
102
}
  0
ENDTAB
  0
ENDSEC
  0
SECTION
  2
BLOCKS
  0
BLOCK
  5
20
330
1F
100
AcDbEntity
  8
0
100
AcDbBlockBegin
  2
*Model_Space
 70
     0
 10
0.0
 20
0.0
 30
0.0
  3
*Model_Space
  1

  0
ENDBLK
  5
21
330
1F
100
AcDbEntity
  8
0
100
AcDbBlockEnd
  0
BLOCK
  5
1C
330
1B
100
AcDbEntity
 67
     1
  8
0
100
AcDbBlockBegin
  2
*Paper_Space
 70
     0
 10
0.0
 20
0.0
 30
0.0
  3
*Paper_Space
  1

  0
ENDBLK
  5
1D
330
1B
100
AcDbEntity
 67
     1
  8
0
100
AcDbBlockEnd
  0
BLOCK
  5
24
330
23
100
AcDbEntity
  8
0
100
AcDbBlockBegin
  2
*Paper_Space0
 70
     0
 10
0.0
 20
0.0
 30
0.0
  3
*Paper_Space0
  1

  0
ENDBLK
  5
25
330
23
100
AcDbEntity
  8
0
100
AcDbBlockEnd
  0
BLOCK
  5
CE
330
CD
100
AcDbEntity
  8
0
100
AcDbBlockBegin
  2
SW_NOTE_0
 70
     0
 10
0.0
 20
0.0
 30
0.0
  3
SW_NOTE_0
  1

  0
MTEXT
  5
D0
330
CD
100
AcDbEntity
  8
0
  6
Continuous
 62
     0
370
     0
100
AcDbMText
 10
0.0
 20
5.1159875922
 30
0.0
 40
3.96875
 41
0.0
 71
     1
 72
     1
  1
PROPRIETARY AND CONFIDENTIAL
  7
SLDTEXTSTYLE1
 73
     1
 44
1.0
  0
MTEXT
  5
D1
330
CD
100
AcDbEntity
  8
0
  6
Continuous
 62
     0
370
     0
100
AcDbMText
 10
0.0
 20
-0.12297522
 30
0.0
 40
2.778125
 41
0.0
 71
     1
 72
     1
  1
THE INFORMATION CONTAINED IN THIS DRAWING IS THE SOLE PROPERTY OF UNICE E-O SERVICES INC. ANY REPRODUCTION IN PART OR AS A WHOLE WITHOUT THE WRITTEN PERMISSION OF UNICE E-O SERVICES INC IS 
  7
SLDTEXTSTYLE1
 73
     1
 44
1.0
  0
MTEXT
  5
D2
330
CD
100
AcDbEntity
  8
0
  6
Continuous
 62
     0
370
     0
100
AcDbMText
 10
0.0
 20
-3.8271418419
 30
0.0
 40
2.778125
 41
0.0
 71
     1
 72
     1
  1
PROHIBITED.
  7
SLDTEXTSTYLE1
 73
     1
 44
1.0
  0
ENDBLK
  5
CF
330
CD
100
AcDbEntity
  8
0
100
AcDbBlockEnd
  0
BLOCK
  5
106
330
105
100
AcDbEntity
  8
0
100
AcDbBlockBegin
  2
SW_NOTE_1
 70
     0
 10
0.0
 20
0.0
 30
0.0
  3
SW_NOTE_1
  1

  0
MTEXT
  5
108
330
105
100
AcDbEntity
  8
DIM
 62
     0
100
AcDbMText
 10
0.0
 20
3.5811913146
 30
0.0
 40
2.778125
 41
0.0
 71
     1
 72
     1
  1
No.5, Andong Rd., Chung Li District,
  7
SLDTEXTSTYLE0
 73
     1
 44
1.0
  0
MTEXT
  5
109
330
105
100
AcDbEntity
  8
DIM
 62
     0
100
AcDbMText
 10
0.0
 20
-0.1229753073
 30
0.0
 40
2.778125
 41
0.0
 71
     1
 72
     1
  1
Taoyuan City 32063, Taiwan, R.O.C.
  7
SLDTEXTSTYLE0
 73
     1
 44
1.0
  0
ENDBLK
  5
107
330
105
100
AcDbEntity
  8
0
100
AcDbBlockEnd
  0
BLOCK
  5
12F
330
12E
100
AcDbEntity
  8
0
100
AcDbBlockBegin
  2
_D
 70
     0
 10
0.0
 20
0.0
 30
0.0
  3
_D
  1

  0
SOLID
  5
131
330
12E
100
AcDbEntity
  8
DIM
100
AcDbTrace
 10
216.5370505251
 20
80.5784536284
 30
0.0
 11
216.1620505251
 21
77.5784536284
 31
0.0
 12
216.9120505251
 22
77.5784536284
 32
0.0
 13
216.9120505251
 23
77.5784536284
 33
0.0
  0
SOLID
  5
132
330
12E
100
AcDbEntity
  8
DIM
100
AcDbTrace
 10
216.5370505251
 20
60.5784536284
 30
0.0
 11
216.9120505251
 21
63.5784536284
 31
0.0
 12
216.1620505251
 22
63.5784536284
 32
0.0
 13
216.1620505251
 23
63.5784536284
 33
0.0
  0
LINE
  5
133
330
12E
100
AcDbEntity
  8
DIM
100
AcDbLine
 10
197.0370505251
 20
80.5784536284
 30
0.0
 11
218.0370505251
 21
80.5784536284
 31
0.0
  0
LINE
  5
134
330
12E
100
AcDbEntity
  8
DIM
100
AcDbLine
 10
197.0370505251
 20
60.5784536284
 30
0.0
 11
218.0370505251
 21
60.5784536284
 31
0.0
  0
LINE
  5
135
330
12E
100
AcDbEntity
  8
DIM
100
AcDbLine
 10
216.5370505251
 20
80.5784536284
 30
0.0
 11
216.5370505251
 21
60.5784536284
 31
0.0
  0
MTEXT
  5
136
330
12E
100
AcDbEntity
  8
DIM
100
AcDbMText
 10
211.7030467629
 20
67.71449361
 30
0.0
 40
3.75
 41
0.0
 71
     1
 72
     1
  1
20
  7
SLDTEXTSTYLE1
 11
-7.044195017643634E-15
 21
1.0
 31
0.0
 73
     1
 44
1.0
  0
ENDBLK
  5
130
330
12E
100
AcDbEntity
  8
0
100
AcDbBlockEnd
  0
BLOCK
  5
20B
330
20A
100
AcDbEntity
  8
0
100
AcDbBlockBegin
  2
_D_1
 70
     0
 10
0.0
 20
0.0
 30
0.0
  3
_D_1
  1

  0
SOLID
  5
20D
330
20A
100
AcDbEntity
  8
DIM
100
AcDbTrace
 10
95.5370505251
 20
242.2665820738
 30
0.0
 11
98.5370505251
 21
241.8915820738
 31
0.0
 12
98.5370505251
 22
242.6415820738
 32
0.0
 13
98.5370505251
 23
242.6415820738
 33
0.0
  0
SOLID
  5
20E
330
20A
100
AcDbEntity
  8
DIM
100
AcDbTrace
 10
195.5370505251
 20
242.2665820738
 30
0.0
 11
192.5370505251
 21
242.6415820738
 31
0.0
 12
192.5370505251
 22
241.8915820738
 32
0.0
 13
192.5370505251
 23
241.8915820738
 33
0.0
  0
LINE
  5
20F
330
20A
100
AcDbEntity
  8
DIM
100
AcDbLine
 10
95.5370505251
 20
213.2524545219
 30
0.0
 11
95.5370505251
 21
243.7665820738
 31
0.0
  0
LINE
  5
210
330
20A
100
AcDbEntity
  8
DIM
100
AcDbLine
 10
195.5370505251
 20
213.2524545219
 30
0.0
 11
195.5370505251
 21
243.7665820738
 31
0.0
  0
LINE
  5
211
330
20A
100
AcDbEntity
  8
DIM
100
AcDbLine
 10
95.5370505251
 20
242.2665820738
 30
0.0
 11
195.5370505251
 21
242.2665820738
 31
0.0
  0
MTEXT
  5
212
330
20A
100
AcDbEntity
  8
DIM
100
AcDbMText
 10
141.2411104975
 20
247.100585836
 30
0.0
 40
3.75
 41
0.0
 71
     1
 72
     1
  1
100
  7
SLDTEXTSTYLE1
 73
     1
 44
1.0
  0
ENDBLK
  5
20C
330
20A
100
AcDbEntity
  8
0
100
AcDbBlockEnd
  0
BLOCK
  5
215
330
214
100
AcDbEntity
  8
0
100
AcDbBlockBegin
  2
_D_2
 70
     0
 10
0.0
 20
0.0
 30
0.0
  3
_D_2
  1

  0
SOLID
  5
217
330
214
100
AcDbEntity
  8
DIM
100
AcDbTrace
 10
222.3909707232
 20
211.7524545219
 30
0.0
 11
222.0159707232
 21
208.7524545219
 31
0.0
 12
222.7659707232
 22
208.7524545219
 32
0.0
 13
222.7659707232
 23
208.7524545219
 33
0.0
  0
SOLID
  5
218
330
214
100
AcDbEntity
  8
DIM
100
AcDbTrace
 10
222.3909707232
 20
111.7524545219
 30
0.0
 11
222.7659707232
 21
114.7524545219
 31
0.0
 12
222.0159707232
 22
114.7524545219
 32
0.0
 13
222.0159707232
 23
114.7524545219
 33
0.0
  0
LINE
  5
219
330
214
100
AcDbEntity
  8
DIM
100
AcDbLine
 10
197.0370505251
 20
211.7524545219
 30
0.0
 11
223.8909707232
 21
211.7524545219
 31
0.0
  0
LINE
  5
21A
330
214
100
AcDbEntity
  8
DIM
100
AcDbLine
 10
197.0370505251
 20
111.7524545219
 30
0.0
 11
223.8909707232
 21
111.7524545219
 31
0.0
  0
LINE
  5
21B
330
214
100
AcDbEntity
  8
DIM
100
AcDbLine
 10
222.3909707232
 20
211.7524545219
 30
0.0
 11
222.3909707232
 21
111.7524545219
 31
0.0
  0
MTEXT
  5
21C
330
214
100
AcDbEntity
  8
DIM
100
AcDbMText
 10
217.556966961
 20
157.4565144944
 30
0.0
 40
3.75
 41
0.0
 71
     1
 72
     1
  1
100
  7
SLDTEXTSTYLE1
 11
-5.267838178243384E-15
 21
1.0
 31
0.0
 73
     1
 44
1.0
  0
ENDBLK
  5
216
330
214
100
AcDbEntity
  8
0
100
AcDbBlockEnd
  0
BLOCK
  5
21F
330
21E
100
AcDbEntity
  8
0
100
AcDbBlockBegin
  2
_D_3
 70
     0
 10
0.0
 20
0.0
 30
0.0
  3
_D_3
  1

  0
SOLID
  5
221
330
21E
100
AcDbEntity
  8
DIM
 62
     7
100
AcDbTrace
 10
120.5370505251
 20
220.2524545219
 30
0.0
 11
123.5370505251
 21
219.8774545219
 31
0.0
 12
123.5370505251
 22
220.6274545219
 32
0.0
 13
123.5370505251
 23
220.6274545219
 33
0.0
  0
SOLID
  5
222
330
21E
100
AcDbEntity
  8
DIM
 62
     7
100
AcDbTrace
 10
145.5370505251
 20
220.2524545219
 30
0.0
 11
142.5370505251
 21
220.6274545219
 31
0.0
 12
142.5370505251
 22
219.8774545219
 32
0.0
 13
142.5370505251
 23
219.8774545219
 33
0.0
  0
LINE
  5
223
330
21E
100
AcDbEntity
  8
DIM
 62
     7
100
AcDbLine
 10
120.5370505251
 20
166.7524545219
 30
0.0
 11
120.5370505251
 21
221.7524545219
 31
0.0
  0
LINE
  5
224
330
21E
100
AcDbEntity
  8
DIM
 62
     7
100
AcDbLine
 10
145.5370505251
 20
191.7524545219
 30
0.0
 11
145.5370505251
 21
221.7524545219
 31
0.0
  0
LINE
  5
225
330
21E
100
AcDbEntity
  8
DIM
 62
     7
100
AcDbLine
 10
120.5370505251
 20
220.2524545219
 30
0.0
 11
145.5370505251
 21
220.2524545219
 31
0.0
  0
MTEXT
  5
226
330
21E
100
AcDbEntity
  8
DIM
 62
     7
100
AcDbMText
 10
130.1724671879
 20
225.0864582841
 30
0.0
 40
3.75
 41
0.0
 71
     1
 72
     1
  1
25
  7
SLDTEXTSTYLE1
 73
     1
 44
1.0
  0
ENDBLK
  5
220
330
21E
100
AcDbEntity
  8
0
100
AcDbBlockEnd
  0
BLOCK
  5
229
330
228
100
AcDbEntity
  8
0
100
AcDbBlockBegin
  2
_D_4
 70
     0
 10
0.0
 20
0.0
 30
0.0
  3
_D_4
  1

  0
SOLID
  5
22B
330
228
100
AcDbEntity
  8
DIM
 62
     7
100
AcDbTrace
 10
145.5370505251
 20
220.2524545219
 30
0.0
 11
148.5370505251
 21
219.8774545219
 31
0.0
 12
148.5370505251
 22
220.6274545219
 32
0.0
 13
148.5370505251
 23
220.6274545219
 33
0.0
  0
SOLID
  5
22C
330
228
100
AcDbEntity
  8
DIM
 62
     7
100
AcDbTrace
 10
170.5370505251
 20
220.2524545219
 30
0.0
 11
167.5370505251
 21
220.6274545219
 31
0.0
 12
167.5370505251
 22
219.8774545219
 32
0.0
 13
167.5370505251
 23
219.8774545219
 33
0.0
  0
LINE
  5
22D
330
228
100
AcDbEntity
  8
DIM
 62
     7
100
AcDbLine
 10
145.5370505251
 20
191.7524545219
 30
0.0
 11
145.5370505251
 21
221.7524545219
 31
0.0
  0
LINE
  5
22E
330
228
100
AcDbEntity
  8
DIM
 62
     7
100
AcDbLine
 10
170.5370505251
 20
166.7524545219
 30
0.0
 11
170.5370505251
 21
221.7524545219
 31
0.0
  0
LINE
  5
22F
330
228
100
AcDbEntity
  8
DIM
 62
     7
100
AcDbLine
 10
145.5370505251
 20
220.2524545219
 30
0.0
 11
170.5370505251
 21
220.2524545219
 31
0.0
  0
MTEXT
  5
230
330
228
100
AcDbEntity
  8
DIM
 62
     7
100
AcDbMText
 10
155.1724671879
 20
225.0864582841
 30
0.0
 40
3.75
 41
0.0
 71
     1
 72
     1
  1
25
  7
SLDTEXTSTYLE1
 73
     1
 44
1.0
  0
ENDBLK
  5
22A
330
228
100
AcDbEntity
  8
0
100
AcDbBlockEnd
  0
BLOCK
  5
233
330
232
100
AcDbEntity
  8
0
100
AcDbBlockBegin
  2
_D_5
 70
     0
 10
0.0
 20
0.0
 30
0.0
  3
_D_5
  1

  0
SOLID
  5
235
330
232
100
AcDbEntity
  8
DIM
 62
     7
100
AcDbTrace
 10
145.5370505251
 20
230.4833028801
 30
0.0
 11
142.5370505251
 21
230.8583028801
 31
0.0
 12
142.5370505251
 22
230.1083028801
 32
0.0
 13
142.5370505251
 23
230.1083028801
 33
0.0
  0
SOLID
  5
236
330
232
100
AcDbEntity
  8
DIM
 62
     7
100
AcDbTrace
 10
108.0370505251
 20
230.4833028801
 30
0.0
 11
111.0370505251
 21
230.1083028801
 31
0.0
 12
111.0370505251
 22
230.8583028801
 32
0.0
 13
111.0370505251
 23
230.8583028801
 33
0.0
  0
LINE
  5
237
330
232
100
AcDbEntity
  8
DIM
 62
     7
100
AcDbLine
 10
145.5370505251
 20
191.7524545219
 30
0.0
 11
145.5370505251
 21
231.9833028801
 31
0.0
  0
LINE
  5
238
330
232
100
AcDbEntity
  8
DIM
 62
     7
100
AcDbLine
 10
108.0370505251
 20
187.7524545219
 30
0.0
 11
108.0370505251
 21
231.9833028801
 31
0.0
  0
LINE
  5
239
330
232
100
AcDbEntity
  8
DIM
 62
     7
100
AcDbLine
 10
145.5370505251
 20
230.4833028801
 30
0.0
 11
108.0370505251
 21
230.4833028801
 31
0.0
  0
MTEXT
  5
23A
330
232
100
AcDbEntity
  8
DIM
 62
     7
100
AcDbMText
 10
121.7740298159
 20
235.3173066423
 30
0.0
 40
3.75
 41
0.0
 71
     1
 72
     1
  1
37.5
  7
SLDTEXTSTYLE1
 73
     1
 44
1.0
  0
ENDBLK
  5
234
330
232
100
AcDbEntity
  8
0
100
AcDbBlockEnd
  0
BLOCK
  5
23D
330
23C
100
AcDbEntity
  8
0
100
AcDbBlockBegin
  2
_D_6
 70
     0
 10
0.0
 20
0.0
 30
0.0
  3
_D_6
  1

  0
SOLID
  5
23F
330
23C
100
AcDbEntity
  8
DIM
 62
     7
100
AcDbTrace
 10
145.5370505251
 20
230.4833028801
 30
0.0
 11
148.5370505251
 21
230.1083028801
 31
0.0
 12
148.5370505251
 22
230.8583028801
 32
0.0
 13
148.5370505251
 23
230.8583028801
 33
0.0
  0
SOLID
  5
240
330
23C
100
AcDbEntity
  8
DIM
 62
     7
100
AcDbTrace
 10
183.0370505251
 20
230.4833028801
 30
0.0
 11
180.0370505251
 21
230.8583028801
 31
0.0
 12
180.0370505251
 22
230.1083028801
 32
0.0
 13
180.0370505251
 23
230.1083028801
 33
0.0
  0
LINE
  5
241
330
23C
100
AcDbEntity
  8
DIM
 62
     7
100
AcDbLine
 10
145.5370505251
 20
191.7524545219
 30
0.0
 11
145.5370505251
 21
231.9833028801
 31
0.0
  0
LINE
  5
242
330
23C
100
AcDbEntity
  8
DIM
 62
     7
100
AcDbLine
 10
183.0370505251
 20
187.7524545219
 30
0.0
 11
183.0370505251
 21
231.9833028801
 31
0.0
  0
LINE
  5
243
330
23C
100
AcDbEntity
  8
DIM
 62
     7
100
AcDbLine
 10
145.5370505251
 20
230.4833028801
 30
0.0
 11
183.0370505251
 21
230.4833028801
 31
0.0
  0
MTEXT
  5
244
330
23C
100
AcDbEntity
  8
DIM
 62
     7
100
AcDbMText
 10
159.2740298159
 20
235.3173066423
 30
0.0
 40
3.75
 41
0.0
 71
     1
 72
     1
  1
37.5
  7
SLDTEXTSTYLE1
 73
     1
 44
1.0
  0
ENDBLK
  5
23E
330
23C
100
AcDbEntity
  8
0
100
AcDbBlockEnd
  0
BLOCK
  5
247
330
246
100
AcDbEntity
  8
0
100
AcDbBlockBegin
  2
_D_7
 70
     0
 10
0.0
 20
0.0
 30
0.0
  3
_D_7
  1

  0
SOLID
  5
249
330
246
100
AcDbEntity
  8
DIM
 62
     7
100
AcDbTrace
 10
211.1479788321
 20
186.7524545219
 30
0.0
 11
210.7729788321
 21
183.7524545219
 31
0.0
 12
211.5229788321
 22
183.7524545219
 32
0.0
 13
211.5229788321
 23
183.7524545219
 33
0.0
  0
SOLID
  5
24A
330
246
100
AcDbEntity
  8
DIM
 62
     7
100
AcDbTrace
 10
211.1479788321
 20
161.7524545219
 30
0.0
 11
211.5229788321
 21
164.7524545219
 31
0.0
 12
210.7729788321
 22
164.7524545219
 32
0.0
 13
210.7729788321
 23
164.7524545219
 33
0.0
  0
LINE
  5
24B
330
246
100
AcDbEntity
  8
DIM
 62
     7
100
AcDbLine
 10
150.5370505251
 20
186.7524545219
 30
0.0
 11
212.6479788321
 21
186.7524545219
 31
0.0
  0
LINE
  5
24C
330
246
100
AcDbEntity
  8
DIM
 62
     7
100
AcDbLine
 10
175.5370505251
 20
161.7524545219
 30
0.0
 11
212.6479788321
 21
161.7524545219
 31
0.0
  0
LINE
  5
24D
330
246
100
AcDbEntity
  8
DIM
 62
     7
100
AcDbLine
 10
211.1479788321
 20
186.7524545219
 30
0.0
 11
211.1479788321
 21
161.7524545219
 31
0.0
  0
MTEXT
  5
24E
330
246
100
AcDbEntity
  8
DIM
 62
     7
100
AcDbMText
 10
206.3139750699
 20
171.3878711847
 30
0.0
 40
3.75
 41
0.0
 71
     1
 72
     1
  1
25
  7
SLDTEXTSTYLE1
 11
-7.044195017643634E-15
 21
1.0
 31
0.0
 73
     1
 44
1.0
  0
ENDBLK
  5
248
330
246
100
AcDbEntity
  8
0
100
AcDbBlockEnd
  0
BLOCK
  5
251
330
250
100
AcDbEntity
  8
0
100
AcDbBlockBegin
  2
_D_8
 70
     0
 10
0.0
 20
0.0
 30
0.0
  3
_D_8
  1

  0
SOLID
  5
253
330
250
100
AcDbEntity
  8
DIM
 62
     7
100
AcDbTrace
 10
211.1479788321
 20
161.7524545219
 30
0.0
 11
210.7729788321
 21
158.7524545219
 31
0.0
 12
211.5229788321
 22
158.7524545219
 32
0.0
 13
211.5229788321
 23
158.7524545219
 33
0.0
  0
SOLID
  5
254
330
250
100
AcDbEntity
  8
DIM
 62
     7
100
AcDbTrace
 10
211.1479788321
 20
136.7524545219
 30
0.0
 11
211.5229788321
 21
139.7524545219
 31
0.0
 12
210.7729788321
 22
139.7524545219
 32
0.0
 13
210.7729788321
 23
139.7524545219
 33
0.0
  0
LINE
  5
255
330
250
100
AcDbEntity
  8
DIM
 62
     7
100
AcDbLine
 10
175.5370505251
 20
161.7524545219
 30
0.0
 11
212.6479788321
 21
161.7524545219
 31
0.0
  0
LINE
  5
256
330
250
100
AcDbEntity
  8
DIM
 62
     7
100
AcDbLine
 10
150.5370505251
 20
136.7524545219
 30
0.0
 11
212.6479788321
 21
136.7524545219
 31
0.0
  0
LINE
  5
257
330
250
100
AcDbEntity
  8
DIM
 62
     7
100
AcDbLine
 10
211.1479788321
 20
161.7524545219
 30
0.0
 11
211.1479788321
 21
136.7524545219
 31
0.0
  0
MTEXT
  5
258
330
250
100
AcDbEntity
  8
DIM
 62
     7
100
AcDbMText
 10
206.3139750699
 20
146.3878711847
 30
0.0
 40
3.75
 41
0.0
 71
     1
 72
     1
  1
25
  7
SLDTEXTSTYLE1
 11
-7.044195017643634E-15
 21
1.0
 31
0.0
 73
     1
 44
1.0
  0
ENDBLK
  5
252
330
250
100
AcDbEntity
  8
0
100
AcDbBlockEnd
  0
BLOCK
  5
25B
330
25A
100
AcDbEntity
  8
0
100
AcDbBlockBegin
  2
_D_9
 70
     0
 10
0.0
 20
0.0
 30
0.0
  3
_D_9
  1

  0
SOLID
  5
25D
330
25A
100
AcDbEntity
  8
DIM
 62
     7
100
AcDbTrace
 10
85.1083163305
 20
186.2524545219
 30
0.0
 11
84.7333163305
 21
183.2524545219
 31
0.0
 12
85.4833163305
 22
183.2524545219
 32
0.0
 13
85.4833163305
 23
183.2524545219
 33
0.0
  0
SOLID
  5
25E
330
25A
100
AcDbEntity
  8
DIM
 62
     7
100
AcDbTrace
 10
85.1083163305
 20
137.2524545219
 30
0.0
 11
85.4833163305
 21
140.2524545219
 31
0.0
 12
84.7333163305
 22
140.2524545219
 32
0.0
 13
84.7333163305
 23
140.2524545219
 33
0.0
  0
LINE
  5
25F
330
25A
100
AcDbEntity
  8
DIM
 62
     7
100
AcDbLine
 10
100.0370505251
 20
186.2524545219
 30
0.0
 11
83.6083163305
 21
186.2524545219
 31
0.0
  0
LINE
  5
260
330
25A
100
AcDbEntity
  8
DIM
 62
     7
100
AcDbLine
 10
100.0370505251
 20
137.2524545219
 30
0.0
 11
83.6083163305
 21
137.2524545219
 31
0.0
  0
LINE
  5
261
330
25A
100
AcDbEntity
  8
DIM
 62
     7
100
AcDbLine
 10
85.1083163305
 20
186.2524545219
 30
0.0
 11
85.1083163305
 21
137.2524545219
 31
0.0
  0
MTEXT
  5
262
330
25A
100
AcDbEntity
  8
DIM
 62
     7
100
AcDbMText
 10
80.2743125683
 20
158.8878711847
 30
0.0
 40
3.75
 41
0.0
 71
     1
 72
     1
  1
49
  7
SLDTEXTSTYLE1
 11
-7.044195017643634E-15
 21
1.0
 31
0.0
 73
     1
 44
1.0
  0
ENDBLK
  5
25C
330
25A
100
AcDbEntity
  8
0
100
AcDbBlockEnd
  0
BLOCK
  5
266
330
265
100
AcDbEntity
  8
0
100
AcDbBlockBegin
  2
_D_10
 70
     0
 10
0.0
 20
0.0
 30
0.0
  3
_D_10
  1

  0
SOLID
  5
268
330
265
100
AcDbEntity
  8
DIM
100
AcDbTrace
 10
118.7692835721
 20
163.5202214748
 30
0.0
 11
116.9131282715
 21
165.9067068614
 31
0.0
 12
116.3827981856
 22
165.3763767755
 32
0.0
 13
116.3827981856
 23
165.3763767755
 33
0.0
  0
LINE
  5
269
330
265
100
AcDbEntity
  8
DIM
100
AcDbLine
 10
118.7692835721
 20
163.5202214748
 30
0.0
 11
77.1812250589
 21
205.108279988
 31
0.0
  0
LINE
  5
26A
330
265
100
AcDbEntity
  8
DIM
100
AcDbLine
 10
77.1812250589
 20
205.108279988
 30
0.0
 11
52.113517144
 21
205.108279988
 31
0.0
  0
MTEXT
  5
26B
330
265
100
AcDbEntity
  8
DIM
100
AcDbMText
 10
52.113517144
 20
215.6974919501
 30
0.0
 40
3.75
 41
0.0
 71
     1
 72
     1
  1
5 HOLES,
  7
SLDTEXTSTYLE1
 73
     1
 44
1.0
  0
MTEXT
  5
26C
330
265
100
AcDbEntity
  8
DIM
100
AcDbMText
 10
52.113517144
 20
209.9422837503
 30
0.0
 40
3.75
 41
0.0
 71
     1
 72
     1
  1
 M6
  7
SLDTEXTSTYLE1
 73
     1
 44
1.0
  0
ENDBLK
  5
267
330
265
100
AcDbEntity
  8
0
100
AcDbBlockEnd
  0
BLOCK
  5
26E
330
26D
100
AcDbEntity
  8
0
100
AcDbBlockBegin
  2
SW_NOTE_2
 70
     0
 10
0.0
 20
0.0
 30
0.0
  3
SW_NOTE_2
  1

  0
MTEXT
  5
270
330
26D
100
AcDbEntity
  8
DIM
 62
     0
100
AcDbMText
 10
-47.8219394837
 20
7.1681167897
 30
0.0
 40
3.96875
 41
0.0
 71
     1
 72
     1
  1
INTERNAL SLIDER
  7
SLDTEXTSTYLE1
 73
     1
 44
1.0
  0
MTEXT
  5
271
330
26D
100
AcDbEntity
  8
DIM
 62
     0
100
AcDbMText
 10
-47.8219394837
 20
1.876450187
 30
0.0
 40
3.96875
 41
0.0
 71
     1
 72
     1
  1
%%p
  7
SLDTEXTSTYLE1
 73
     1
 44
1.0
  0
MTEXT
  5
272
330
26D
100
AcDbEntity
  8
DIM
 62
     0
100
AcDbMText
 10
-44.2721130358
 20
1.876450187
 30
0.0
 40
3.96875
 41
0.0
 71
     1
 72
     1
  1
0.5"(12.7)TRAVEL
  7
SLDTEXTSTYLE1
 73
     1
 44
1.0
  0
ENDBLK
  5
26F
330
26D
100
AcDbEntity
  8
0
100
AcDbBlockEnd
  0
BLOCK
  5
277
330
276
100
AcDbEntity
  8
0
100
AcDbBlockBegin
  2
SW_CENTERMARKSYMBOL_0
 70
     0
 10
0.0
 20
0.0
 30
0.0
  3
SW_CENTERMARKSYMBOL_0
  1

  0
LINE
  5
279
330
276
100
AcDbEntity
  8
DIM
 62
     0
100
AcDbLine
 10
0.0
 20
0.0
 30
0.0
 11
0.0
 21
1.0
 31
0.0
  0
LINE
  5
27A
330
276
100
AcDbEntity
  8
DIM
 62
     0
100
AcDbLine
 10
0.0
 20
0.0
 30
0.0
 11
-1.0
 21
0.0
 31
0.0
  0
LINE
  5
27B
330
276
100
AcDbEntity
  8
DIM
 62
     0
100
AcDbLine
 10
0.0
 20
0.0
 30
0.0
 11
0.0
 21
-1.0
 31
0.0
  0
LINE
  5
27C
330
276
100
AcDbEntity
  8
DIM
 62
     0
100
AcDbLine
 10
0.0
 20
0.0
 30
0.0
 11
1.0
 21
0.0
 31
0.0
  0
LINE
  5
27D
330
276
100
AcDbEntity
  8
DIM
 62
     0
100
AcDbLine
 10
0.0
 20
2.0
 30
0.0
 11
0.0
 21
3.5
 31
0.0
  0
LINE
  5
27E
330
276
100
AcDbEntity
  8
DIM
 62
     0
100
AcDbLine
 10
-2.0
 20
0.0
 30
0.0
 11
-3.5
 21
0.0
 31
0.0
  0
LINE
  5
27F
330
276
100
AcDbEntity
  8
DIM
 62
     0
100
AcDbLine
 10
0.0
 20
-2.0
 30
0.0
 11
0.0
 21
-3.5
 31
0.0
  0
LINE
  5
280
330
276
100
AcDbEntity
  8
DIM
 62
     0
100
AcDbLine
 10
2.0
 20
0.0
 30
0.0
 11
3.5
 21
0.0
 31
0.0
  0
ENDBLK
  5
278
330
276
100
AcDbEntity
  8
0
100
AcDbBlockEnd
  0
BLOCK
  5
283
330
282
100
AcDbEntity
  8
0
100
AcDbBlockBegin
  2
SW_CENTERMARKSYMBOL_1
 70
     0
 10
0.0
 20
0.0
 30
0.0
  3
SW_CENTERMARKSYMBOL_1
  1

  0
LINE
  5
285
330
282
100
AcDbEntity
  8
DIM
 62
     0
100
AcDbLine
 10
0.0
 20
0.0
 30
0.0
 11
0.0
 21
1.0
 31
0.0
  0
LINE
  5
286
330
282
100
AcDbEntity
  8
DIM
 62
     0
100
AcDbLine
 10
0.0
 20
0.0
 30
0.0
 11
-1.0
 21
0.0
 31
0.0
  0
LINE
  5
287
330
282
100
AcDbEntity
  8
DIM
 62
     0
100
AcDbLine
 10
0.0
 20
0.0
 30
0.0
 11
0.0
 21
-1.0
 31
0.0
  0
LINE
  5
288
330
282
100
AcDbEntity
  8
DIM
 62
     0
100
AcDbLine
 10
0.0
 20
0.0
 30
0.0
 11
1.0
 21
0.0
 31
0.0
  0
LINE
  5
289
330
282
100
AcDbEntity
  8
DIM
 62
     0
100
AcDbLine
 10
0.0
 20
2.0
 30
0.0
 11
0.0
 21
3.5
 31
0.0
  0
LINE
  5
28A
330
282
100
AcDbEntity
  8
DIM
 62
     0
100
AcDbLine
 10
-2.0
 20
0.0
 30
0.0
 11
-3.5
 21
0.0
 31
0.0
  0
LINE
  5
28B
330
282
100
AcDbEntity
  8
DIM
 62
     0
100
AcDbLine
 10
0.0
 20
-2.0
 30
0.0
 11
0.0
 21
-3.5
 31
0.0
  0
LINE
  5
28C
330
282
100
AcDbEntity
  8
DIM
 62
     0
100
AcDbLine
 10
2.0
 20
0.0
 30
0.0
 11
3.5
 21
0.0
 31
0.0
  0
ENDBLK
  5
284
330
282
100
AcDbEntity
  8
0
100
AcDbBlockEnd
  0
BLOCK
  5
28F
330
28E
100
AcDbEntity
  8
0
100
AcDbBlockBegin
  2
SW_CENTERMARKSYMBOL_2
 70
     0
 10
0.0
 20
0.0
 30
0.0
  3
SW_CENTERMARKSYMBOL_2
  1

  0
LINE
  5
291
330
28E
100
AcDbEntity
  8
DIM
 62
     0
100
AcDbLine
 10
0.0
 20
0.0
 30
0.0
 11
0.0
 21
1.0
 31
0.0
  0
LINE
  5
292
330
28E
100
AcDbEntity
  8
DIM
 62
     0
100
AcDbLine
 10
0.0
 20
0.0
 30
0.0
 11
-1.0
 21
0.0
 31
0.0
  0
LINE
  5
293
330
28E
100
AcDbEntity
  8
DIM
 62
     0
100
AcDbLine
 10
0.0
 20
0.0
 30
0.0
 11
0.0
 21
-1.0
 31
0.0
  0
LINE
  5
294
330
28E
100
AcDbEntity
  8
DIM
 62
     0
100
AcDbLine
 10
0.0
 20
0.0
 30
0.0
 11
1.0
 21
0.0
 31
0.0
  0
LINE
  5
295
330
28E
100
AcDbEntity
  8
DIM
 62
     0
100
AcDbLine
 10
0.0
 20
2.0
 30
0.0
 11
0.0
 21
3.5
 31
0.0
  0
LINE
  5
296
330
28E
100
AcDbEntity
  8
DIM
 62
     0
100
AcDbLine
 10
-2.0
 20
0.0
 30
0.0
 11
-3.5
 21
0.0
 31
0.0
  0
LINE
  5
297
330
28E
100
AcDbEntity
  8
DIM
 62
     0
100
AcDbLine
 10
0.0
 20
-2.0
 30
0.0
 11
0.0
 21
-3.5
 31
0.0
  0
LINE
  5
298
330
28E
100
AcDbEntity
  8
DIM
 62
     0
100
AcDbLine
 10
2.0
 20
0.0
 30
0.0
 11
3.5
 21
0.0
 31
0.0
  0
ENDBLK
  5
290
330
28E
100
AcDbEntity
  8
0
100
AcDbBlockEnd
  0
BLOCK
  5
29B
330
29A
100
AcDbEntity
  8
0
100
AcDbBlockBegin
  2
SW_CENTERMARKSYMBOL_3
 70
     0
 10
0.0
 20
0.0
 30
0.0
  3
SW_CENTERMARKSYMBOL_3
  1

  0
LINE
  5
29D
330
29A
100
AcDbEntity
  8
DIM
 62
     0
100
AcDbLine
 10
0.0
 20
0.0
 30
0.0
 11
0.0
 21
1.0
 31
0.0
  0
LINE
  5
29E
330
29A
100
AcDbEntity
  8
DIM
 62
     0
100
AcDbLine
 10
0.0
 20
0.0
 30
0.0
 11
-1.0
 21
0.0
 31
0.0
  0
LINE
  5
29F
330
29A
100
AcDbEntity
  8
DIM
 62
     0
100
AcDbLine
 10
0.0
 20
0.0
 30
0.0
 11
0.0
 21
-1.0
 31
0.0
  0
LINE
  5
2A0
330
29A
100
AcDbEntity
  8
DIM
 62
     0
100
AcDbLine
 10
0.0
 20
0.0
 30
0.0
 11
1.0
 21
0.0
 31
0.0
  0
LINE
  5
2A1
330
29A
100
AcDbEntity
  8
DIM
 62
     0
100
AcDbLine
 10
0.0
 20
2.0
 30
0.0
 11
0.0
 21
3.5
 31
0.0
  0
LINE
  5
2A2
330
29A
100
AcDbEntity
  8
DIM
 62
     0
100
AcDbLine
 10
-2.0
 20
0.0
 30
0.0
 11
-3.5
 21
0.0
 31
0.0
  0
LINE
  5
2A3
330
29A
100
AcDbEntity
  8
DIM
 62
     0
100
AcDbLine
 10
0.0
 20
-2.0
 30
0.0
 11
0.0
 21
-3.5
 31
0.0
  0
LINE
  5
2A4
330
29A
100
AcDbEntity
  8
DIM
 62
     0
100
AcDbLine
 10
2.0
 20
0.0
 30
0.0
 11
3.5
 21
0.0
 31
0.0
  0
ENDBLK
  5
29C
330
29A
100
AcDbEntity
  8
0
100
AcDbBlockEnd
  0
BLOCK
  5
2A7
330
2A6
100
AcDbEntity
  8
0
100
AcDbBlockBegin
  2
SW_CENTERMARKSYMBOL_4
 70
     0
 10
0.0
 20
0.0
 30
0.0
  3
SW_CENTERMARKSYMBOL_4
  1

  0
LINE
  5
2A9
330
2A6
100
AcDbEntity
  8
DIM
 62
     0
100
AcDbLine
 10
0.0
 20
0.0
 30
0.0
 11
0.0
 21
1.0
 31
0.0
  0
LINE
  5
2AA
330
2A6
100
AcDbEntity
  8
DIM
 62
     0
100
AcDbLine
 10
0.0
 20
0.0
 30
0.0
 11
-1.0
 21
0.0
 31
0.0
  0
LINE
  5
2AB
330
2A6
100
AcDbEntity
  8
DIM
 62
     0
100
AcDbLine
 10
0.0
 20
0.0
 30
0.0
 11
0.0
 21
-1.0
 31
0.0
  0
LINE
  5
2AC
330
2A6
100
AcDbEntity
  8
DIM
 62
     0
100
AcDbLine
 10
0.0
 20
0.0
 30
0.0
 11
1.0
 21
0.0
 31
0.0
  0
LINE
  5
2AD
330
2A6
100
AcDbEntity
  8
DIM
 62
     0
100
AcDbLine
 10
0.0
 20
2.0
 30
0.0
 11
0.0
 21
6.5
 31
0.0
  0
LINE
  5
2AE
330
2A6
100
AcDbEntity
  8
DIM
 62
     0
100
AcDbLine
 10
-2.0
 20
0.0
 30
0.0
 11
-6.5
 21
0.0
 31
0.0
  0
LINE
  5
2AF
330
2A6
100
AcDbEntity
  8
DIM
 62
     0
100
AcDbLine
 10
0.0
 20
-2.0
 30
0.0
 11
0.0
 21
-6.5
 31
0.0
  0
LINE
  5
2B0
330
2A6
100
AcDbEntity
  8
DIM
 62
     0
100
AcDbLine
 10
2.0
 20
0.0
 30
0.0
 11
6.5
 21
0.0
 31
0.0
  0
ENDBLK
  5
2A8
330
2A6
100
AcDbEntity
  8
0
100
AcDbBlockEnd
  0
BLOCK
  5
2B3
330
2B2
100
AcDbEntity
  8
0
100
AcDbBlockBegin
  2
SW_CENTERMARKSYMBOL_5
 70
     0
 10
0.0
 20
0.0
 30
0.0
  3
SW_CENTERMARKSYMBOL_5
  1

  0
LINE
  5
2B5
330
2B2
100
AcDbEntity
  8
DIM
 62
     0
100
AcDbLine
 10
0.0
 20
0.0
 30
0.0
 11
0.0
 21
1.0
 31
0.0
  0
LINE
  5
2B6
330
2B2
100
AcDbEntity
  8
DIM
 62
     0
100
AcDbLine
 10
0.0
 20
0.0
 30
0.0
 11
-1.0
 21
0.0
 31
0.0
  0
LINE
  5
2B7
330
2B2
100
AcDbEntity
  8
DIM
 62
     0
100
AcDbLine
 10
0.0
 20
0.0
 30
0.0
 11
0.0
 21
-1.0
 31
0.0
  0
LINE
  5
2B8
330
2B2
100
AcDbEntity
  8
DIM
 62
     0
100
AcDbLine
 10
0.0
 20
0.0
 30
0.0
 11
1.0
 21
0.0
 31
0.0
  0
LINE
  5
2B9
330
2B2
100
AcDbEntity
  8
DIM
 62
     0
100
AcDbLine
 10
0.0
 20
2.0
 30
0.0
 11
0.0
 21
6.5
 31
0.0
  0
LINE
  5
2BA
330
2B2
100
AcDbEntity
  8
DIM
 62
     0
100
AcDbLine
 10
-2.0
 20
0.0
 30
0.0
 11
-6.5
 21
0.0
 31
0.0
  0
LINE
  5
2BB
330
2B2
100
AcDbEntity
  8
DIM
 62
     0
100
AcDbLine
 10
0.0
 20
-2.0
 30
0.0
 11
0.0
 21
-6.5
 31
0.0
  0
LINE
  5
2BC
330
2B2
100
AcDbEntity
  8
DIM
 62
     0
100
AcDbLine
 10
2.0
 20
0.0
 30
0.0
 11
6.5
 21
0.0
 31
0.0
  0
ENDBLK
  5
2B4
330
2B2
100
AcDbEntity
  8
0
100
AcDbBlockEnd
  0
BLOCK
  5
2BF
330
2BE
100
AcDbEntity
  8
0
100
AcDbBlockBegin
  2
SW_CENTERMARKSYMBOL_6
 70
     0
 10
0.0
 20
0.0
 30
0.0
  3
SW_CENTERMARKSYMBOL_6
  1

  0
LINE
  5
2C1
330
2BE
100
AcDbEntity
  8
DIM
 62
     0
100
AcDbLine
 10
0.0
 20
0.0
 30
0.0
 11
0.0
 21
1.0
 31
0.0
  0
LINE
  5
2C2
330
2BE
100
AcDbEntity
  8
DIM
 62
     0
100
AcDbLine
 10
0.0
 20
0.0
 30
0.0
 11
-1.0
 21
0.0
 31
0.0
  0
LINE
  5
2C3
330
2BE
100
AcDbEntity
  8
DIM
 62
     0
100
AcDbLine
 10
0.0
 20
0.0
 30
0.0
 11
0.0
 21
-1.0
 31
0.0
  0
LINE
  5
2C4
330
2BE
100
AcDbEntity
  8
DIM
 62
     0
100
AcDbLine
 10
0.0
 20
0.0
 30
0.0
 11
1.0
 21
0.0
 31
0.0
  0
LINE
  5
2C5
330
2BE
100
AcDbEntity
  8
DIM
 62
     0
100
AcDbLine
 10
0.0
 20
2.0
 30
0.0
 11
0.0
 21
6.5
 31
0.0
  0
LINE
  5
2C6
330
2BE
100
AcDbEntity
  8
DIM
 62
     0
100
AcDbLine
 10
-2.0
 20
0.0
 30
0.0
 11
-6.5
 21
0.0
 31
0.0
  0
LINE
  5
2C7
330
2BE
100
AcDbEntity
  8
DIM
 62
     0
100
AcDbLine
 10
0.0
 20
-2.0
 30
0.0
 11
0.0
 21
-6.5
 31
0.0
  0
LINE
  5
2C8
330
2BE
100
AcDbEntity
  8
DIM
 62
     0
100
AcDbLine
 10
2.0
 20
0.0
 30
0.0
 11
6.5
 21
0.0
 31
0.0
  0
ENDBLK
  5
2C0
330
2BE
100
AcDbEntity
  8
0
100
AcDbBlockEnd
  0
BLOCK
  5
2CB
330
2CA
100
AcDbEntity
  8
0
100
AcDbBlockBegin
  2
SW_CENTERMARKSYMBOL_7
 70
     0
 10
0.0
 20
0.0
 30
0.0
  3
SW_CENTERMARKSYMBOL_7
  1

  0
LINE
  5
2CD
330
2CA
100
AcDbEntity
  8
DIM
 62
     0
100
AcDbLine
 10
0.0
 20
0.0
 30
0.0
 11
0.0
 21
1.0
 31
0.0
  0
LINE
  5
2CE
330
2CA
100
AcDbEntity
  8
DIM
 62
     0
100
AcDbLine
 10
0.0
 20
0.0
 30
0.0
 11
-1.0
 21
0.0
 31
0.0
  0
LINE
  5
2CF
330
2CA
100
AcDbEntity
  8
DIM
 62
     0
100
AcDbLine
 10
0.0
 20
0.0
 30
0.0
 11
0.0
 21
-1.0
 31
0.0
  0
LINE
  5
2D0
330
2CA
100
AcDbEntity
  8
DIM
 62
     0
100
AcDbLine
 10
0.0
 20
0.0
 30
0.0
 11
1.0
 21
0.0
 31
0.0
  0
LINE
  5
2D1
330
2CA
100
AcDbEntity
  8
DIM
 62
     0
100
AcDbLine
 10
0.0
 20
2.0
 30
0.0
 11
0.0
 21
6.5
 31
0.0
  0
LINE
  5
2D2
330
2CA
100
AcDbEntity
  8
DIM
 62
     0
100
AcDbLine
 10
-2.0
 20
0.0
 30
0.0
 11
-6.5
 21
0.0
 31
0.0
  0
LINE
  5
2D3
330
2CA
100
AcDbEntity
  8
DIM
 62
     0
100
AcDbLine
 10
0.0
 20
-2.0
 30
0.0
 11
0.0
 21
-6.5
 31
0.0
  0
LINE
  5
2D4
330
2CA
100
AcDbEntity
  8
DIM
 62
     0
100
AcDbLine
 10
2.0
 20
0.0
 30
0.0
 11
6.5
 21
0.0
 31
0.0
  0
ENDBLK
  5
2CC
330
2CA
100
AcDbEntity
  8
0
100
AcDbBlockEnd
  0
ENDSEC
  0
SECTION
  2
ENTITIES
  0
HATCH
  5
7B
330
1F
100
AcDbEntity
  8
DIM
 62
     7
100
AcDbHatch
 10
0.0
 20
0.0
 30
0.0
210
0.0
220
0.0
230
1.0
  2
SOLID
 70
     1
 71
     0
 91
        1
 92
        0
 93
       10
 72
     2
 10
288.5660015390584
 20
53.25483651034429
 40
4.568627093596871
 50
249.211220914341
 51
308.9221353953367
 73
     1
 72
     1
 10
291.4363039809102
 20
49.70044241111347
 11
292.8835334727359
 21
48.42951223564995
 72
     1
 10
292.8835334727359
 20
48.42951223564995
 11
288.0683235130022
 21
43.75395266650634
 72
     1
 10
288.0683235130022
 20
43.75395266650634
 11
286.6571228297612
 21
44.96894827167134
 72
     1
 10
286.6571228297612
 20
44.96894827167134
 11
287.603700710384
 21
45.89279885737788
 72
     1
 10
287.603700710384
 20
45.89279885737788
 11
281.5898972450906
 21
51.11970461778991
 72
     2
 10
283.1123093894016
 20
52.84104518143068
 40
2.297988701708712
 50
131.4906380929585
 51
229.7089352075136
 73
     0
 72
     1
 10
281.6262671181283
 20
54.59388015403074
 11
283.5862095004509
 21
56.48626076879202
 72
     1
 10
283.5862095004509
 20
56.48626076879202
 11
285.1090002715546
 21
55.14296291756534
 72
     2
 10
288.0689057266136
 20
52.67187388647315
 40
3.855816554566925
 50
140.1430462780654
 51
253.0452525074006
 73
     1
 97
        0
 75
     0
 76
     1
 98
        1
 10
0.0
 20
0.0
  0
HATCH
  5
7C
330
1F
100
AcDbEntity
  8
DIM
 62
     1
100
AcDbHatch
 10
0.0
 20
0.0
 30
0.0
210
0.0
220
0.0
230
1.0
  2
SOLID
 70
     1
 71
     0
 91
        1
 92
        0
 93
       10
 72
     2
 10
288.7657496975042
 20
52.12353705229123
 40
4.772455056791806
 50
234.1674444878509
 51
314.4407074583988
 73
     0
 72
     2
 10
289.242234133591
 20
52.93476976050849
 40
3.866351232519375
 50
317.8184992995779
 51
398.0564711573086
 73
     0
 72
     1
 10
292.2866128981621
 20
50.55140453649602
 11
293.7647862376364
 21
49.26335912666179
 72
     1
 10
293.7647862376364
 20
49.26335912666179
 11
295.627308209827
 21
51.07000854027262
 72
     2
 10
294.2872197213338
 20
52.91192863800401
 40
2.277829406127398
 50
306.0377529468133
 51
403.4396461533869
 73
     1
 72
     1
 10
295.9411495183423
 20
54.47814159606122
 11
289.7510157308273
 21
59.86190599901215
 72
     1
 10
289.7510157308273
 20
59.86190599901215
 11
290.6873926837182
 21
60.77549364526813
 72
     1
 10
290.6873926837182
 20
60.77549364526813
 11
289.2916329184421
 21
62.02078197503494
 72
     1
 10
289.2916329184421
 20
62.02078197503494
 11
284.4382547458274
 21
57.33040160511378
 72
     1
 10
284.4382547458274
 20
57.33040160511378
 11
285.9718665618502
 21
55.99271581443257
 97
        0
 75
     0
 76
     1
 98
        1
 10
0.0
 20
0.0
  0
LINE
  5
7D
330
1F
100
AcDbEntity
  8
0
  6
Continuous
 62
     7
370
     0
100
AcDbLine
 10
251.7890662777
 20
26.6617788769
 30
0.0
 11
253.2890662777
 21
26.6617788769
 31
0.0
  0
LINE
  5
7E
330
1F
100
AcDbEntity
  8
0
  6
Continuous
 62
     7
370
     0
100
AcDbLine
 10
247.2890662777
 20
26.6617788769
 30
0.0
 11
251.0390662777
 21
26.6617788769
 31
0.0
  0
LINE
  5
7F
330
1F
100
AcDbEntity
  8
0
  6
Continuous
 62
     7
370
     0
100
AcDbLine
 10
272.0390662777
 20
22.9117788769
 30
0.0
 11
272.0390662777
 21
30.4117788769
 31
0.0
  0
LINE
  5
80
330
1F
100
AcDbEntity
  8
0
  6
Continuous
 62
     7
370
     0
100
AcDbLine
 10
261.5390662777
 20
24.4117788769
 30
0.0
 11
272.0390662777
 21
22.9117788769
 31
0.0
  0
LINE
  5
81
330
1F
100
AcDbEntity
  8
0
  6
Continuous
 62
     7
370
     0
100
AcDbLine
 10
252.5390662777
 20
25.1617788769
 30
0.0
 11
252.5390662777
 21
21.4117788769
 31
0.0
  0
LINE
  5
82
330
1F
100
AcDbEntity
  8
0
  6
Continuous
 62
     7
370
     0
100
AcDbLine
 10
272.0390662777
 20
30.4117788769
 30
0.0
 11
261.5390662777
 21
28.9117788769
 31
0.0
  0
LINE
  5
83
330
1F
100
AcDbEntity
  8
0
  6
Continuous
 62
     7
370
     0
100
AcDbLine
 10
260.0390662777
 20
26.6617788769
 30
0.0
 11
273.5390662777
 21
26.6617788769
 31
0.0
  0
LINE
  5
84
330
1F
100
AcDbEntity
  8
0
  6
Continuous
 62
     7
370
     0
100
AcDbLine
 10
252.5390662777
 20
27.4117788769
 30
0.0
 11
252.5390662777
 21
25.9117788769
 31
0.0
  0
LINE
  5
85
330
1F
100
AcDbEntity
  8
0
  6
Continuous
 62
     7
370
     0
100
AcDbLine
 10
254.0390662777
 20
26.6617788769
 30
0.0
 11
257.7890662777
 21
26.6617788769
 31
0.0
  0
LINE
  5
86
330
1F
100
AcDbEntity
  8
0
  6
Continuous
 62
     7
370
     0
100
AcDbLine
 10
252.5390662777
 20
31.9117788769
 30
0.0
 11
252.5390662777
 21
28.1617788769
 31
0.0
  0
LINE
  5
87
330
1F
100
AcDbEntity
  8
0
  6
Continuous
 62
     7
370
     0
100
AcDbLine
 10
261.5390662777
 20
28.9117788769
 30
0.0
 11
261.5390662777
 21
24.4117788769
 31
0.0
  0
LINE
  5
88
330
1F
100
AcDbEntity
  8
0
370
     0
100
AcDbLine
 10
292.8835334727
 20
48.4295122356
 30
0.0
 11
288.068323513
 21
43.7539526665
 31
0.0
  0
LINE
  5
89
330
1F
100
AcDbEntity
  8
0
370
     0
100
AcDbLine
 10
288.068323513
 20
43.7539526665
 30
0.0
 11
286.6571228298
 21
44.9689482717
 31
0.0
  0
LINE
  5
8A
330
1F
100
AcDbEntity
  8
0
370
     0
100
AcDbLine
 10
286.6571228298
 20
44.9689482717
 30
0.0
 11
287.6037007104
 21
45.8927988574
 31
0.0
  0
LINE
  5
8B
330
1F
100
AcDbEntity
  8
0
370
     0
100
AcDbLine
 10
281.5898972451
 20
51.1197046178
 30
0.0
 11
287.6037007104
 21
45.8927988574
 31
0.0
  0
LINE
  5
8C
330
1F
100
AcDbEntity
  8
0
370
     0
100
AcDbLine
 10
283.5862095005
 20
56.4862607688
 30
0.0
 11
281.6262671181
 21
54.593880154
 31
0.0
  0
LINE
  5
8D
330
1F
100
AcDbEntity
  8
0
370
     0
100
AcDbLine
 10
283.5862095005
 20
56.4862607688
 30
0.0
 11
285.1090002716
 21
55.1429629176
 31
0.0
  0
LINE
  5
8E
330
1F
100
AcDbEntity
  8
0
370
     0
100
AcDbLine
 10
291.4363039809
 20
49.7004424111
 30
0.0
 11
292.8835334727
 21
48.4295122356
 31
0.0
  0
LINE
  5
8F
330
1F
100
AcDbEntity
  8
0
 62
     1
370
     0
100
AcDbLine
 10
285.9718665619
 20
55.9927158144
 30
0.0
 11
284.4382547458
 21
57.3304016051
 31
0.0
  0
LINE
  5
90
330
1F
100
AcDbEntity
  8
0
 62
     1
370
     0
100
AcDbLine
 10
284.4382547458
 20
57.3304016051
 30
0.0
 11
289.2916329184
 21
62.020781975
 31
0.0
  0
LINE
  5
91
330
1F
100
AcDbEntity
  8
0
 62
     1
370
     0
100
AcDbLine
 10
289.2916329184
 20
62.020781975
 30
0.0
 11
290.6873926837
 21
60.7754936453
 31
0.0
  0
LINE
  5
92
330
1F
100
AcDbEntity
  8
0
 62
     1
370
     0
100
AcDbLine
 10
290.6873926837
 20
60.7754936453
 30
0.0
 11
289.7510157308
 21
59.861905999
 31
0.0
  0
LINE
  5
93
330
1F
100
AcDbEntity
  8
0
 62
     1
370
     0
100
AcDbLine
 10
289.7510157308
 20
59.861905999
 30
0.0
 11
295.9411495183
 21
54.4781415961
 31
0.0
  0
LINE
  5
94
330
1F
100
AcDbEntity
  8
0
 62
     1
370
     0
100
AcDbLine
 10
292.2866128982
 20
50.5514045365
 30
0.0
 11
293.7647862376
 21
49.2633591267
 31
0.0
  0
LINE
  5
95
330
1F
100
AcDbEntity
  8
0
 62
     1
370
     0
100
AcDbLine
 10
293.7647862376
 20
49.2633591267
 30
0.0
 11
295.6273082098
 21
51.0700085403
 31
0.0
  0
LINE
  5
96
330
1F
100
AcDbEntity
  8
0
  6
Continuous
 62
     7
370
     0
100
AcDbLine
 10
278.5361947814
 20
19.6728696119
 30
0.0
 11
428.5361947814
 21
19.6728696119
 31
0.0
  0
LINE
  5
97
330
1F
100
AcDbEntity
  8
0
  6
Continuous
 62
     7
370
     0
100
AcDbLine
 10
278.5361947814
 20
27.1728696119
 30
0.0
 11
353.5361947814
 21
27.1728696119
 31
0.0
  0
LINE
  5
98
330
1F
100
AcDbEntity
  8
0
  6
Continuous
 62
     7
370
     0
100
AcDbLine
 10
278.5361947814
 20
34.6728696119
 30
0.0
 11
353.5361947814
 21
34.6728696119
 31
0.0
  0
LINE
  5
99
330
1F
100
AcDbEntity
  8
0
  6
Continuous
 62
     7
370
     0
100
AcDbLine
 10
278.5361947814
 20
42.1728696119
 30
0.0
 11
428.5361947814
 21
42.1728696119
 31
0.0
  0
LINE
  5
9A
330
1F
100
AcDbEntity
  8
0
  6
Continuous
 62
     7
370
     0
100
AcDbLine
 10
353.5361947814
 20
49.6728696119
 30
0.0
 11
428.5361947814
 21
49.6728696119
 31
0.0
  0
LINE
  5
9B
330
1F
100
AcDbEntity
  8
0
  6
Continuous
 62
     7
370
    15
100
AcDbLine
 10
353.5361947814
 20
27.1728696119
 30
0.0
 11
428.5361947814
 21
27.1728696119
 31
0.0
  0
LINE
  5
9C
330
1F
100
AcDbEntity
  8
0
  6
Continuous
 62
     7
370
     0
100
AcDbLine
 10
278.5361947814
 20
64.6728696119
 30
0.0
 11
428.5361947814
 21
64.6728696119
 31
0.0
  0
LINE
  5
9D
330
1F
100
AcDbEntity
  8
0
  6
Continuous
 62
     7
370
     0
100
AcDbLine
 10
376.8558265126
 20
12.1728696119
 30
0.0
 11
376.8558265126
 21
27.1728696119
 31
0.0
  0
LINE
  5
9E
330
1F
100
AcDbEntity
  8
0
  6
Continuous
 62
     7
370
     0
100
AcDbLine
 10
353.5361947814
 20
12.1728696119
 30
0.0
 11
353.5361947814
 21
64.6728696119
 31
0.0
  0
LINE
  5
9F
330
1F
100
AcDbEntity
  8
0
  6
Continuous
 62
     7
370
     0
100
AcDbLine
 10
376.8558265126
 20
42.1728696119
 30
0.0
 11
376.8558265126
 21
49.6728696119
 31
0.0
  0
LINE
  5
A0
330
1F
100
AcDbEntity
  8
0
  6
Continuous
 62
     7
370
     0
100
AcDbLine
 10
321.624612953
 20
12.1728696119
 30
0.0
 11
321.624612953
 21
42.1728696119
 31
0.0
  0
LINE
  5
A1
330
1F
100
AcDbEntity
  8
0
  6
Continuous
 62
     7
370
     0
100
AcDbLine
 10
299.6678831259
 20
12.1728696119
 30
0.0
 11
299.6678831259
 21
42.1728696119
 31
0.0
  0
LINE
  5
A2
330
1F
100
AcDbEntity
  8
0
  6
Continuous
 62
     7
370
     0
100
AcDbLine
 10
278.5361947814
 20
12.1728696119
 30
0.0
 11
278.5361947814
 21
64.6728696119
 31
0.0
  0
LINE
  5
A3
330
1F
100
AcDbEntity
  8
0
  6
Continuous
 62
     7
370
    15
100
AcDbLine
 10
13.0361947814
 20
157.1154554872
 30
0.0
 11
22.0361947814
 21
157.1154554872
 31
0.0
  0
LINE
  5
A4
330
1F
100
AcDbEntity
  8
0
  6
Continuous
 62
     7
370
    15
100
AcDbLine
 10
428.5361947814
 20
157.1154554872
 30
0.0
 11
419.5361947814
 21
157.1154554872
 31
0.0
  0
LINE
  5
A5
330
1F
100
AcDbEntity
  8
0
  6
Continuous
 62
     7
370
    15
100
AcDbLine
 10
220.7861947814
 20
12.1728696119
 30
0.0
 11
220.7861947814
 21
21.1728696119
 31
0.0
  0
LINE
  5
A6
330
1F
100
AcDbEntity
  8
0
  6
Continuous
 62
     7
370
    15
100
AcDbLine
 10
220.7861947814
 20
302.0580413626
 30
0.0
 11
220.7861947814
 21
293.0580413626
 31
0.0
  0
LINE
  5
A7
330
1F
100
AcDbEntity
  8
0
  6
Continuous
 62
     7
370
    15
100
AcDbLine
 10
64.9811947814
 20
302.0580413626
 30
0.0
 11
64.9811947814
 21
304.3080413626
 31
0.0
  0
LINE
  5
A8
330
1F
100
AcDbEntity
  8
0
  6
Continuous
 62
     7
370
    15
100
AcDbLine
 10
116.9261947814
 20
302.0580413626
 30
0.0
 11
116.9261947814
 21
304.3080413626
 31
0.0
  0
LINE
  5
A9
330
1F
100
AcDbEntity
  8
0
  6
Continuous
 62
     7
370
    15
100
AcDbLine
 10
168.8711947814
 20
302.0580413626
 30
0.0
 11
168.8711947814
 21
304.3080413626
 31
0.0
  0
LINE
  5
AA
330
1F
100
AcDbEntity
  8
0
  6
Continuous
 62
     7
370
    15
100
AcDbLine
 10
220.8161947814
 20
302.0580413626
 30
0.0
 11
220.8161947814
 21
304.3080413626
 31
0.0
  0
LINE
  5
AB
330
1F
100
AcDbEntity
  8
0
  6
Continuous
 62
     7
370
    15
100
AcDbLine
 10
272.7611947814
 20
302.0580413626
 30
0.0
 11
272.7611947814
 21
304.3080413626
 31
0.0
  0
LINE
  5
AC
330
1F
100
AcDbEntity
  8
0
  6
Continuous
 62
     7
370
    15
100
AcDbLine
 10
324.7061947814
 20
302.0580413626
 30
0.0
 11
324.7061947814
 21
304.3080413626
 31
0.0
  0
LINE
  5
AD
330
1F
100
AcDbEntity
  8
0
  6
Continuous
 62
     7
370
    15
100
AcDbLine
 10
376.6511947814
 20
302.0580413626
 30
0.0
 11
376.6511947814
 21
304.3080413626
 31
0.0
  0
LINE
  5
AE
330
1F
100
AcDbEntity
  8
0
  6
Continuous
 62
     7
370
    15
100
AcDbLine
 10
64.9736947814
 20
12.1728696119
 30
0.0
 11
64.9736947814
 21
9.9228696119
 31
0.0
  0
LINE
  5
AF
330
1F
100
AcDbEntity
  8
0
  6
Continuous
 62
     7
370
    15
100
AcDbLine
 10
116.9111947814
 20
12.1728696119
 30
0.0
 11
116.9111947814
 21
9.9228696119
 31
0.0
  0
LINE
  5
B0
330
1F
100
AcDbEntity
  8
0
  6
Continuous
 62
     7
370
    15
100
AcDbLine
 10
168.8486947814
 20
12.1728696119
 30
0.0
 11
168.8486947814
 21
9.9228696119
 31
0.0
  0
LINE
  5
B1
330
1F
100
AcDbEntity
  8
0
  6
Continuous
 62
     7
370
    15
100
AcDbLine
 10
220.7861947814
 20
12.1728696119
 30
0.0
 11
220.7861947814
 21
9.9228696119
 31
0.0
  0
LINE
  5
B2
330
1F
100
AcDbEntity
  8
0
  6
Continuous
 62
     7
370
    15
100
AcDbLine
 10
272.7236947814
 20
12.1728696119
 30
0.0
 11
272.7236947814
 21
9.9228696119
 31
0.0
  0
LINE
  5
B3
330
1F
100
AcDbEntity
  8
0
  6
Continuous
 62
     7
370
    15
100
AcDbLine
 10
324.6611947814
 20
12.1728696119
 30
0.0
 11
324.6611947814
 21
9.9228696119
 31
0.0
  0
LINE
  5
B4
330
1F
100
AcDbEntity
  8
0
  6
Continuous
 62
     7
370
     0
100
AcDbLine
 10
428.5361947814
 20
302.0580413626
 30
0.0
 11
13.0361947814
 21
302.0580413626
 31
0.0
  0
LINE
  5
B5
330
1F
100
AcDbEntity
  8
0
  6
Continuous
 62
     7
370
     0
100
AcDbLine
 10
428.5361947814
 20
12.1728696119
 30
0.0
 11
428.5361947814
 21
302.0580413626
 31
0.0
  0
LINE
  5
B6
330
1F
100
AcDbEntity
  8
0
  6
Continuous
 62
     7
370
     0
100
AcDbLine
 10
13.0361947814
 20
302.0580413626
 30
0.0
 11
13.0361947814
 21
12.1728696119
 31
0.0
  0
LINE
  5
B7
330
1F
100
AcDbEntity
  8
0
  6
Continuous
 62
     7
370
     0
100
AcDbLine
 10
13.0361947814
 20
12.1728696119
 30
0.0
 11
428.5361947814
 21
12.1728696119
 31
0.0
  0
LINE
  5
B8
330
1F
100
AcDbEntity
  8
0
  6
Continuous
 62
     7
370
    15
100
AcDbLine
 10
376.5986947814
 20
12.1728696119
 30
0.0
 11
376.5986947814
 21
9.9228696119
 31
0.0
  0
LINE
  5
B9
330
1F
100
AcDbEntity
  8
0
  6
Continuous
 62
     7
370
    15
100
AcDbLine
 10
13.0361947814
 20
60.4878696119
 30
0.0
 11
10.7861947814
 21
60.4878696119
 31
0.0
  0
LINE
  5
BA
330
1F
100
AcDbEntity
  8
0
  6
Continuous
 62
     7
370
    15
100
AcDbLine
 10
13.0361947814
 20
108.8028696119
 30
0.0
 11
10.7861947814
 21
108.8028696119
 31
0.0
  0
LINE
  5
BB
330
1F
100
AcDbEntity
  8
0
  6
Continuous
 62
     7
370
    15
100
AcDbLine
 10
13.0361947814
 20
157.1178696119
 30
0.0
 11
10.7861947814
 21
157.1178696119
 31
0.0
  0
LINE
  5
BC
330
1F
100
AcDbEntity
  8
0
  6
Continuous
 62
     7
370
    15
100
AcDbLine
 10
13.0361947814
 20
205.4328696119
 30
0.0
 11
10.7861947814
 21
205.4328696119
 31
0.0
  0
LINE
  5
BD
330
1F
100
AcDbEntity
  8
0
  6
Continuous
 62
     7
370
    15
100
AcDbLine
 10
13.0361947814
 20
253.7478696119
 30
0.0
 11
10.7861947814
 21
253.7478696119
 31
0.0
  0
LINE
  5
BE
330
1F
100
AcDbEntity
  8
0
  6
Continuous
 62
     7
370
    15
100
AcDbLine
 10
428.5361947814
 20
60.4878696119
 30
0.0
 11
430.7861947814
 21
60.4878696119
 31
0.0
  0
LINE
  5
BF
330
1F
100
AcDbEntity
  8
0
  6
Continuous
 62
     7
370
    15
100
AcDbLine
 10
428.5361947814
 20
108.8028696119
 30
0.0
 11
430.7861947814
 21
108.8028696119
 31
0.0
  0
LINE
  5
C0
330
1F
100
AcDbEntity
  8
0
  6
Continuous
 62
     7
370
    15
100
AcDbLine
 10
428.5361947814
 20
157.1178696119
 30
0.0
 11
430.7861947814
 21
157.1178696119
 31
0.0
  0
LINE
  5
C1
330
1F
100
AcDbEntity
  8
0
  6
Continuous
 62
     7
370
    15
100
AcDbLine
 10
428.5361947814
 20
205.4328696119
 30
0.0
 11
430.7861947814
 21
205.4328696119
 31
0.0
  0
LINE
  5
C2
330
1F
100
AcDbEntity
  8
0
  6
Continuous
 62
     7
370
    15
100
AcDbLine
 10
428.5361947814
 20
253.7478696119
 30
0.0
 11
430.7861947814
 21
253.7478696119
 31
0.0
  0
CIRCLE
  5
C3
330
1F
100
AcDbEntity
  8
0
  6
Continuous
 62
     7
370
     0
100
AcDbCircle
 10
252.5390662777
 20
26.6617788769
 30
0.0
 40
2.249999999999943
  0
CIRCLE
  5
C4
330
1F
100
AcDbEntity
  8
0
  6
Continuous
 62
     7
370
     0
100
AcDbCircle
 10
252.5390662777
 20
26.6617788769
 30
0.0
 40
3.749999999999943
  0
ARC
  5
C5
330
1F
100
AcDbEntity
  8
0
370
     0
100
AcDbCircle
 10
283.1123093894
 20
52.8410451814
 30
0.0
 40
2.297988701708751
100
AcDbArc
 50
130.2910647925
 51
228.509361907
  0
ARC
  5
C6
330
1F
100
AcDbEntity
  8
0
370
     0
100
AcDbCircle
 10
288.0689057266
 20
52.6718738865
 30
0.0
 40
3.855816554566914
100
AcDbArc
 50
140.1430462781
 51
253.0452525074
  0
ARC
  5
C7
330
1F
100
AcDbEntity
  8
0
370
     0
100
AcDbCircle
 10
288.5660015391
 20
53.2548365103
 30
0.0
 40
4.568627093596879
100
AcDbArc
 50
249.2112209143
 51
308.9221353953
  0
ARC
  5
C8
330
1F
100
AcDbEntity
  8
0
 62
     1
370
     0
100
AcDbCircle
 10
294.2872197213
 20
52.911928638
 30
0.0
 40
2.27782940612741
100
AcDbArc
 50
306.0377529468
 51
43.4396461534
  0
ARC
  5
C9
330
1F
100
AcDbEntity
  8
0
 62
     1
370
     0
100
AcDbCircle
 10
288.7657496975
 20
52.1235370523
 30
0.0
 40
4.772455056791805
100
AcDbArc
 50
45.5592925416
 51
125.8325555121
  0
ARC
  5
CA
330
1F
100
AcDbEntity
  8
0
 62
     1
370
     0
100
AcDbCircle
 10
289.2422341336
 20
52.9347697605
 30
0.0
 40
3.866351232519347
100
AcDbArc
 50
321.9435288427
 51
42.1815007004
  0
MTEXT
  5
CC
330
1F
100
AcDbEntity
  8
0
  6
Continuous
 62
     7
370
     0
100
AcDbMText
 10
248.3140276206
 20
19.8312660554
 30
0.0
 40
3.96875
 41
0.0
 71
     1
 72
     1
  1
UNIT:m/m
  7
SLDTEXTSTYLE1
 73
     1
 44
1.0
  0
INSERT
  5
D3
330
1F
100
AcDbEntity
  8
0
  6
Continuous
 62
     7
370
     0
100
AcDbBlockReference
  2
SW_NOTE_0
 10
18.347261408
 20
290.8356456377
 30
0.0
  0
MTEXT
  5
D5
330
1F
100
AcDbEntity
  8
0
  6
Continuous
 62
     7
370
     0
100
AcDbMText
 10
298.0877840902
 20
60.6610161208
 30
0.0
 40
3.571875
 41
0.0
 71
     1
 72
     1
  1
Unice E-O Services Inc.
  7
SLDTEXTSTYLE2
 73
     1
 44
1.0
  0
MTEXT
  5
D6
330
1F
100
AcDbEntity
  8
0
  6
Continuous
 62
     7
370
     0
100
AcDbMText
 10
326.3385807224
 20
32.3800722766
 30
0.0
 40
2.778125
 41
0.0
 71
     1
 72
     1
  1
2010/12/30
  7
SLDTEXTSTYLE1
 73
     1
 44
1.0
  0
MTEXT
  5
D7
330
1F
100
AcDbEntity
  8
0
  6
Continuous
 62
     7
370
     0
100
AcDbMText
 10
378.913347376
 20
25.30676661
 30
0.0
 40
3.75
 41
0.0
 71
     1
 72
     1
  1
1:1.5
  7
SLDTEXTSTYLE1
 73
     1
 44
1.0
  0
MTEXT
  5
D8
330
1F
100
AcDbEntity
  8
0
  6
Continuous
 62
     7
370
     0
100
AcDbMText
 10
378.4613399977
 20
48.2278793156
 30
0.0
 40
3.75
 41
0.0
 71
     1
 72
     1
  1
07LPB-1M
  7
SLDTEXTSTYLE1
 73
     1
 44
1.0
  0
MTEXT
  5
D9
330
1F
100
AcDbEntity
  8
0
  6
Continuous
 62
     7
370
     0
100
AcDbMText
 10
378.4613399977
 20
57.1623176818
 30
0.0
 40
3.75
 41
0.0
 71
     1
 72
     1
  1
07LPB-1M
  7
SLDTEXTSTYLE1
 73
     1
 44
1.0
  0
MTEXT
  5
DA
330
1F
100
AcDbEntity
  8
0
  6
Continuous
 62
     7
370
     0
100
AcDbMText
 10
354.588280018
 20
24.7597193593
 30
0.0
 40
3.175
 41
0.0
 71
     1
 72
     1
  1
SCALE:
  7
SLDTEXTSTYLE1
 73
     1
 44
1.0
  0
MTEXT
  5
DB
330
1F
100
AcDbEntity
  8
0
  6
Continuous
 62
     7
370
     0
100
AcDbMText
 10
279.5004130184
 20
32.3800722766
 30
0.0
 40
2.778125
 41
0.0
 71
     1
 72
     1
  1
DRAWN
  7
SLDTEXTSTYLE1
 73
     1
 44
1.0
  0
MTEXT
  5
DC
330
1F
100
AcDbEntity
  8
0
  6
Continuous
 62
     7
370
     0
100
AcDbMText
 10
304.8342551905
 20
40.024812462
 30
0.0
 40
2.778125
 41
0.0
 71
     1
 72
     1
  1
NAME
  7
SLDTEXTSTYLE1
 73
     1
 44
1.0
  0
MTEXT
  5
DD
330
1F
100
AcDbEntity
  8
0
  6
Continuous
 62
     7
370
     0
100
AcDbMText
 10
331.3065233636
 20
40.024812462
 30
0.0
 40
2.778125
 41
0.0
 71
     1
 72
     1
  1
DATE
  7
SLDTEXTSTYLE1
 73
     1
 44
1.0
  0
MTEXT
  5
DE
330
1F
100
AcDbEntity
  8
0
  6
Continuous
 62
     7
370
     0
100
AcDbMText
 10
354.4134474968
 20
47.6808320649
 30
0.0
 40
3.175
 41
0.0
 71
     1
 72
     1
  1
DWG. NO.
  7
SLDTEXTSTYLE1
 73
     1
 44
1.0
  0
MTEXT
  5
DF
330
1F
100
AcDbEntity
  8
0
  6
Continuous
 62
     7
370
     0
100
AcDbMText
 10
354.5444860632
 20
62.8260987365
 30
0.0
 40
3.175
 41
0.0
 71
     1
 72
     1
  1
TITLE:
  7
SLDTEXTSTYLE1
 73
     1
 44
1.0
  0
MTEXT
  5
E0
330
1F
100
AcDbEntity
  8
0
  6
Continuous
 62
     7
370
     0
100
AcDbMText
 10
304.5471314703
 20
24.3605684586
 30
0.0
 40
2.778125
 41
0.0
 71
     1
 72
     1
  1
Johnny
  7
SLDTEXTSTYLE1
 73
     1
 44
1.0
  0
MTEXT
  5
E1
330
1F
100
AcDbEntity
  8
0
  6
Continuous
 62
     7
370
     0
100
AcDbMText
 10
326.3385807224
 20
24.3605684586
 30
0.0
 40
2.778125
 41
0.0
 71
     1
 72
     1
  1
2010/12/30
  7
SLDTEXTSTYLE1
 73
     1
 44
1.0
  0
MTEXT
  5
E2
330
1F
100
AcDbEntity
  8
0
  6
Continuous
 62
     7
370
     0
100
AcDbMText
 10
279.5004130184
 20
24.3605684586
 30
0.0
 40
2.778125
 41
0.0
 71
     1
 72
     1
  1
ENG APPR.
  7
SLDTEXTSTYLE1
 73
     1
 44
1.0
  0
MTEXT
  5
E3
330
1F
100
AcDbEntity
  8
0
  6
Continuous
 62
     7
370
     0
100
AcDbMText
 10
354.588280018
 20
17.5280083932
 30
0.0
 40
3.175
 41
0.0
 71
     1
 72
     1
  1
REV
  7
SLDTEXTSTYLE1
 73
     1
 44
1.0
  0
MTEXT
  5
E4
330
1F
100
AcDbEntity
  8
0
  6
Continuous
 62
     7
370
     0
100
AcDbMText
 10
354.5444860632
 20
40.4239633627
 30
0.0
 40
3.175
 41
0.0
 71
     1
 72
     1
  1
MATERIAL:
  7
SLDTEXTSTYLE1
 73
     1
 44
1.0
  0
MTEXT
  5
E5
330
1F
100
AcDbEntity
  8
0
  6
Continuous
 62
     7
370
     0
100
AcDbMText
 10
378.913347376
 20
33.326270428
 30
0.0
 40
3.75
 41
0.0
 71
     1
 72
     1
  1
N/A
  7
SLDTEXTSTYLE1
 73
     1
 44
1.0
  0
MTEXT
  5
E6
330
1F
100
AcDbEntity
  8
0
  6
Continuous
 62
     7
370
     0
100
AcDbMText
 10
39.90448973
 20
306.6800274854
 30
0.0
 40
3.175
 41
0.0
 71
     1
 72
     1
  1
1
  7
SLDTEXTSTYLE1
 73
     1
 44
1.0
  0
MTEXT
  5
E7
330
1F
100
AcDbEntity
  8
0
  6
Continuous
 62
     7
370
     0
100
AcDbMText
 10
91.0756493586
 20
306.6800274854
 30
0.0
 40
3.175
 41
0.0
 71
     1
 72
     1
  1
2
  7
SLDTEXTSTYLE1
 73
     1
 44
1.0
  0
MTEXT
  5
E8
330
1F
100
AcDbEntity
  8
0
  6
Continuous
 62
     7
370
     0
100
AcDbMText
 10
142.3514915859
 20
306.6800274854
 30
0.0
 40
3.175
 41
0.0
 71
     1
 72
     1
  1
3
  7
SLDTEXTSTYLE1
 73
     1
 44
1.0
  0
MTEXT
  5
E9
330
1F
100
AcDbEntity
  8
0
  6
Continuous
 62
     7
370
     0
100
AcDbMText
 10
193.8800044277
 20
306.4488876546
 30
0.0
 40
3.175
 41
0.0
 71
     1
 72
     1
  1
4
  7
SLDTEXTSTYLE1
 73
     1
 44
1.0
  0
MTEXT
  5
EA
330
1F
100
AcDbEntity
  8
0
  6
Continuous
 62
     7
370
     0
100
AcDbMText
 10
245.5534851959
 20
306.6800274854
 30
0.0
 40
3.175
 41
0.0
 71
     1
 72
     1
  1
5
  7
SLDTEXTSTYLE1
 73
     1
 44
1.0
  0
MTEXT
  5
EB
330
1F
100
AcDbEntity
  8
0
  6
Continuous
 62
     7
370
     0
100
AcDbMText
 10
297.9573255623
 20
306.6800274854
 30
0.0
 40
3.175
 41
0.0
 71
     1
 72
     1
  1
6
  7
SLDTEXTSTYLE1
 73
     1
 44
1.0
  0
MTEXT
  5
EC
330
1F
100
AcDbEntity
  8
0
  6
Continuous
 62
     7
370
     0
100
AcDbMText
 10
351.544598611
 20
306.6800274854
 30
0.0
 40
3.175
 41
0.0
 71
     1
 72
     1
  1
7
  7
SLDTEXTSTYLE1
 73
     1
 44
1.0
  0
MTEXT
  5
ED
330
1F
100
AcDbEntity
  8
0
  6
Continuous
 62
     7
370
     0
100
AcDbMText
 10
399.4181730741
 20
306.6800274854
 30
0.0
 40
3.175
 41
0.0
 71
     1
 72
     1
  1
8
  7
SLDTEXTSTYLE1
 73
     1
 44
1.0
  0
MTEXT
  5
EE
330
1F
100
AcDbEntity
  8
0
  6
Continuous
 62
     7
370
     0
100
AcDbMText
 10
8.0352354832
 20
278.7169534319
 30
0.0
 40
3.175
 41
0.0
 71
     1
 72
     1
  1
A
  7
SLDTEXTSTYLE1
 73
     1
 44
1.0
  0
MTEXT
  5
EF
330
1F
100
AcDbEntity
  8
0
  6
Continuous
 62
     7
370
     0
100
AcDbMText
 10
8.3865647747
 20
231.4489572357
 30
0.0
 40
3.175
 41
0.0
 71
     1
 72
     1
  1
B
  7
SLDTEXTSTYLE1
 73
     1
 44
1.0
  0
MTEXT
  5
F0
330
1F
100
AcDbEntity
  8
0
  6
Continuous
 62
     7
370
     0
100
AcDbMText
 10
8.3865647747
 20
181.9115271345
 30
0.0
 40
3.175
 41
0.0
 71
     1
 72
     1
  1
C
  7
SLDTEXTSTYLE1
 73
     1
 44
1.0
  0
MTEXT
  5
F1
330
1F
100
AcDbEntity
  8
0
  6
Continuous
 62
     7
370
     0
100
AcDbMText
 10
8.3865647747
 20
133.1179830331
 30
0.0
 40
3.175
 41
0.0
 71
     1
 72
     1
  1
D
  7
SLDTEXTSTYLE1
 73
     1
 44
1.0
  0
MTEXT
  5
F2
330
1F
100
AcDbEntity
  8
0
  6
Continuous
 62
     7
370
     0
100
AcDbMText
 10
8.3865647747
 20
86.3338273796
 30
0.0
 40
3.175
 41
0.0
 71
     1
 72
     1
  1
E
  7
SLDTEXTSTYLE1
 73
     1
 44
1.0
  0
MTEXT
  5
F3
330
1F
100
AcDbEntity
  8
0
  6
Continuous
 62
     7
370
     0
100
AcDbMText
 10
8.3865647747
 20
38.3541318378
 30
0.0
 40
3.175
 41
0.0
 71
     1
 72
     1
  1
F
  7
SLDTEXTSTYLE1
 73
     1
 44
1.0
  0
MTEXT
  5
F4
330
1F
100
AcDbEntity
  8
0
  6
Continuous
 62
     7
370
     0
100
AcDbMText
 10
399.2787925446
 20
9.9354335945
 30
0.0
 40
3.175
 41
0.0
 71
     1
 72
     1
  1
8
  7
SLDTEXTSTYLE1
 73
     1
 44
1.0
  0
MTEXT
  5
F5
330
1F
100
AcDbEntity
  8
0
  6
Continuous
 62
     7
370
     0
100
AcDbMText
 10
351.4052180815
 20
9.9354335945
 30
0.0
 40
3.175
 41
0.0
 71
     1
 72
     1
  1
7
  7
SLDTEXTSTYLE1
 73
     1
 44
1.0
  0
MTEXT
  5
F6
330
1F
100
AcDbEntity
  8
0
  6
Continuous
 62
     7
370
     0
100
AcDbMText
 10
297.8179450327
 20
9.9354335945
 30
0.0
 40
3.175
 41
0.0
 71
     1
 72
     1
  1
6
  7
SLDTEXTSTYLE1
 73
     1
 44
1.0
  0
MTEXT
  5
F7
330
1F
100
AcDbEntity
  8
0
  6
Continuous
 62
     7
370
     0
100
AcDbMText
 10
245.4141046664
 20
9.9354335945
 30
0.0
 40
3.175
 41
0.0
 71
     1
 72
     1
  1
5
  7
SLDTEXTSTYLE1
 73
     1
 44
1.0
  0
MTEXT
  5
F8
330
1F
100
AcDbEntity
  8
0
  6
Continuous
 62
     7
370
     0
100
AcDbMText
 10
193.7406238981
 20
9.7042937637
 30
0.0
 40
3.175
 41
0.0
 71
     1
 72
     1
  1
4
  7
SLDTEXTSTYLE1
 73
     1
 44
1.0
  0
MTEXT
  5
F9
330
1F
100
AcDbEntity
  8
0
  6
Continuous
 62
     7
370
     0
100
AcDbMText
 10
142.2121110564
 20
9.9354335945
 30
0.0
 40
3.175
 41
0.0
 71
     1
 72
     1
  1
3
  7
SLDTEXTSTYLE1
 73
     1
 44
1.0
  0
MTEXT
  5
FA
330
1F
100
AcDbEntity
  8
0
  6
Continuous
 62
     7
370
     0
100
AcDbMText
 10
90.9362688291
 20
9.9354335945
 30
0.0
 40
3.175
 41
0.0
 71
     1
 72
     1
  1
2
  7
SLDTEXTSTYLE1
 73
     1
 44
1.0
  0
MTEXT
  5
FB
330
1F
100
AcDbEntity
  8
0
  6
Continuous
 62
     7
370
     0
100
AcDbMText
 10
39.7651092004
 20
9.9354335945
 30
0.0
 40
3.175
 41
0.0
 71
     1
 72
     1
  1
1
  7
SLDTEXTSTYLE1
 73
     1
 44
1.0
  0
MTEXT
  5
FC
330
1F
100
AcDbEntity
  8
0
  6
Continuous
 62
     7
370
     0
100
AcDbMText
 10
430.6535769217
 20
279.9637363637
 30
0.0
 40
3.175
 41
0.0
 71
     1
 72
     1
  1
A
  7
SLDTEXTSTYLE1
 73
     1
 44
1.0
  0
MTEXT
  5
FD
330
1F
100
AcDbEntity
  8
0
  6
Continuous
 62
     7
370
     0
100
AcDbMText
 10
431.0049062132
 20
232.6957401676
 30
0.0
 40
3.175
 41
0.0
 71
     1
 72
     1
  1
B
  7
SLDTEXTSTYLE1
 73
     1
 44
1.0
  0
MTEXT
  5
FE
330
1F
100
AcDbEntity
  8
0
  6
Continuous
 62
     7
370
     0
100
AcDbMText
 10
431.0049062132
 20
183.1583100664
 30
0.0
 40
3.175
 41
0.0
 71
     1
 72
     1
  1
C
  7
SLDTEXTSTYLE1
 73
     1
 44
1.0
  0
MTEXT
  5
FF
330
1F
100
AcDbEntity
  8
0
  6
Continuous
 62
     7
370
     0
100
AcDbMText
 10
431.0049062132
 20
134.364765965
 30
0.0
 40
3.175
 41
0.0
 71
     1
 72
     1
  1
D
  7
SLDTEXTSTYLE1
 73
     1
 44
1.0
  0
MTEXT
  5
100
330
1F
100
AcDbEntity
  8
0
  6
Continuous
 62
     7
370
     0
100
AcDbMText
 10
431.0049062132
 20
87.5806103114
 30
0.0
 40
3.175
 41
0.0
 71
     1
 72
     1
  1
E
  7
SLDTEXTSTYLE1
 73
     1
 44
1.0
  0
MTEXT
  5
101
330
1F
100
AcDbEntity
  8
0
  6
Continuous
 62
     7
370
     0
100
AcDbMText
 10
431.0049062132
 20
39.6009147696
 30
0.0
 40
3.175
 41
0.0
 71
     1
 72
     1
  1
F
  7
SLDTEXTSTYLE1
 73
     1
 44
1.0
  0
MTEXT
  5
102
330
1F
100
AcDbEntity
  8
0
  6
Continuous
 62
     7
370
     0
100
AcDbMText
 10
304.7329693203
 20
32.3800722766
 30
0.0
 40
2.778125
 41
0.0
 71
     1
 72
     1
  1
Eric
  7
SLDTEXTSTYLE1
 73
     1
 44
1.0
  0
MTEXT
  5
104
330
1F
100
AcDbEntity
  8
0
  6
Continuous
 62
     7
370
     0
100
AcDbMText
 10
379.2723359468
 20
18.315372684
 30
0.0
 40
3.96875
 41
0.0
 71
     1
 72
     1
  1
0
  7
SLDTEXTSTYLE3
 73
     1
 44
1.0
  0
INSERT
  5
10A
330
1F
100
AcDbEntity
  8
DIM
 62
     7
100
AcDbBlockReference
  2
SW_NOTE_1
 10
298.0877840902
 20
50.7563749503
 30
0.0
  0
LINE
  5
10B
330
1F
100
AcDbEntity
  8
0
  6
Continuous
 62
     7
370
    15
100
AcDbLine
 10
120.5370505251
 20
68.0784536284
 30
0.0
 11
120.5370505251
 21
60.7784536284
 31
0.0
  0
LINE
  5
10C
330
1F
100
AcDbEntity
  8
0
  6
Continuous
 62
     7
370
    15
100
AcDbLine
 10
170.5370505251
 20
68.0784536284
 30
0.0
 11
170.5370505251
 21
60.7784536284
 31
0.0
  0
LINE
  5
10D
330
1F
100
AcDbEntity
  8
0
  6
Continuous
 62
     7
370
    15
100
AcDbLine
 10
170.5370505251
 20
60.7784536284
 30
0.0
 11
120.5370505251
 21
60.7784536284
 31
0.0
  0
LINE
  5
10E
330
1F
100
AcDbEntity
  8
0
  6
Continuous
 62
     7
370
    15
100
AcDbLine
 10
170.5370505251
 20
68.0784536284
 30
0.0
 11
120.5370505251
 21
68.0784536284
 31
0.0
  0
LINE
  5
10F
330
1F
100
AcDbEntity
  8
0
  6
Continuous
 62
     7
370
    15
100
AcDbLine
 10
104.7370505251
 20
60.5784536284
 30
0.0
 11
95.5370505251
 21
60.5784536284
 31
0.0
  0
LINE
  5
110
330
1F
100
AcDbEntity
  8
0
  6
Continuous
 62
     7
370
    15
100
AcDbLine
 10
95.5370505251
 20
80.5784536284
 30
0.0
 11
95.5370505251
 21
60.5784536284
 31
0.0
  0
LINE
  5
111
330
1F
100
AcDbEntity
  8
0
  6
Continuous
 62
     7
370
    15
100
AcDbLine
 10
102.5370505251
 20
73.5784536284
 30
0.0
 11
102.5370505251
 21
80.5784536284
 31
0.0
  0
LINE
  5
112
330
1F
100
AcDbEntity
  8
0
  6
Continuous
 62
     7
370
    15
100
AcDbLine
 10
102.5370505251
 20
73.5784536284
 30
0.0
 11
104.7370505251
 21
73.5784536284
 31
0.0
  0
LINE
  5
113
330
1F
100
AcDbEntity
  8
0
  6
Continuous
 62
     7
370
    15
100
AcDbLine
 10
104.7370505251
 20
60.5784536284
 30
0.0
 11
104.7370505251
 21
73.5784536284
 31
0.0
  0
LINE
  5
114
330
1F
100
AcDbEntity
  8
0
  6
Continuous
 62
     7
370
    15
100
AcDbLine
 10
102.5370505251
 20
80.5784536284
 30
0.0
 11
95.5370505251
 21
80.5784536284
 31
0.0
  0
LINE
  5
115
330
1F
100
AcDbEntity
  8
0
  6
Continuous
 62
     7
370
    15
100
AcDbLine
 10
179.7370505251
 20
60.5784536284
 30
0.0
 11
170.5370505251
 21
60.5784536284
 31
0.0
  0
LINE
  5
116
330
1F
100
AcDbEntity
  8
0
  6
Continuous
 62
     7
370
    15
100
AcDbLine
 10
170.5370505251
 20
60.5784536284
 30
0.0
 11
170.5370505251
 21
68.0784536284
 31
0.0
  0
LINE
  5
117
330
1F
100
AcDbEntity
  8
0
  6
Continuous
 62
     7
370
    15
100
AcDbLine
 10
120.5370505251
 20
68.0784536284
 30
0.0
 11
120.5370505251
 21
60.5784536284
 31
0.0
  0
LINE
  5
118
330
1F
100
AcDbEntity
  8
0
  6
Continuous
 62
     7
370
    15
100
AcDbLine
 10
111.3370505251
 20
60.5784536284
 30
0.0
 11
111.3370505251
 21
73.5784536284
 31
0.0
  0
LINE
  5
119
330
1F
100
AcDbEntity
  8
0
  6
Continuous
 62
     7
370
    15
100
AcDbLine
 10
113.5370505251
 20
73.5784536284
 30
0.0
 11
113.5370505251
 21
80.5784536284
 31
0.0
  0
LINE
  5
11A
330
1F
100
AcDbEntity
  8
0
  6
Continuous
 62
     7
370
    15
100
AcDbLine
 10
177.5370505251
 20
73.5784536284
 30
0.0
 11
177.5370505251
 21
80.5784536284
 31
0.0
  0
LINE
  5
11B
330
1F
100
AcDbEntity
  8
0
  6
Continuous
 62
     7
370
    15
100
AcDbLine
 10
177.5370505251
 20
73.5784536284
 30
0.0
 11
179.7370505251
 21
73.5784536284
 31
0.0
  0
LINE
  5
11C
330
1F
100
AcDbEntity
  8
0
  6
Continuous
 62
     7
370
    15
100
AcDbLine
 10
179.7370505251
 20
60.5784536284
 30
0.0
 11
179.7370505251
 21
73.5784536284
 31
0.0
  0
LINE
  5
11D
330
1F
100
AcDbEntity
  8
0
  6
Continuous
 62
     7
370
    15
100
AcDbLine
 10
120.5370505251
 20
60.5784536284
 30
0.0
 11
111.3370505251
 21
60.5784536284
 31
0.0
  0
LINE
  5
11E
330
1F
100
AcDbEntity
  8
0
  6
Continuous
 62
     7
370
    15
100
AcDbLine
 10
111.3370505251
 20
73.5784536284
 30
0.0
 11
113.5370505251
 21
73.5784536284
 31
0.0
  0
LINE
  5
11F
330
1F
100
AcDbEntity
  8
0
  6
Continuous
 62
     7
370
    15
100
AcDbLine
 10
177.5370505251
 20
80.5784536284
 30
0.0
 11
113.5370505251
 21
80.5784536284
 31
0.0
  0
LINE
  5
120
330
1F
100
AcDbEntity
  8
0
  6
Continuous
 62
     7
370
    15
100
AcDbLine
 10
186.3370505251
 20
60.5784536284
 30
0.0
 11
186.3370505251
 21
73.5784536284
 31
0.0
  0
LINE
  5
121
330
1F
100
AcDbEntity
  8
0
  6
Continuous
 62
     7
370
    15
100
AcDbLine
 10
195.5370505251
 20
80.5784536284
 30
0.0
 11
195.5370505251
 21
60.5784536284
 31
0.0
  0
LINE
  5
122
330
1F
100
AcDbEntity
  8
0
  6
Continuous
 62
     7
370
    15
100
AcDbLine
 10
188.5370505251
 20
73.5784536284
 30
0.0
 11
188.5370505251
 21
80.5784536284
 31
0.0
  0
LINE
  5
123
330
1F
100
AcDbEntity
  8
0
  6
Continuous
 62
     7
370
    15
100
AcDbLine
 10
186.3370505251
 20
73.5784536284
 30
0.0
 11
188.5370505251
 21
73.5784536284
 31
0.0
  0
LINE
  5
124
330
1F
100
AcDbEntity
  8
0
  6
Continuous
 62
     7
370
    15
100
AcDbLine
 10
195.5370505251
 20
60.5784536284
 30
0.0
 11
186.3370505251
 21
60.5784536284
 31
0.0
  0
LINE
  5
125
330
1F
100
AcDbEntity
  8
0
  6
Continuous
 62
     7
370
    15
100
AcDbLine
 10
195.5370505251
 20
80.5784536284
 30
0.0
 11
188.5370505251
 21
80.5784536284
 31
0.0
  0
LINE
  5
126
330
1F
100
AcDbEntity
  8
0
  6
Continuous
 62
     7
370
    15
100
AcDbLine
 10
111.3370505251
 20
60.5784536284
 30
0.0
 11
104.7370505251
 21
60.5784536284
 31
0.0
  0
LINE
  5
127
330
1F
100
AcDbEntity
  8
0
  6
Continuous
 62
     7
370
    15
100
AcDbLine
 10
111.3370505251
 20
73.5784536284
 30
0.0
 11
104.7370505251
 21
73.5784536284
 31
0.0
  0
LINE
  5
128
330
1F
100
AcDbEntity
  8
0
  6
Continuous
 62
     7
370
    15
100
AcDbLine
 10
113.5370505251
 20
80.5784536284
 30
0.0
 11
102.5370505251
 21
80.5784536284
 31
0.0
  0
LINE
  5
129
330
1F
100
AcDbEntity
  8
0
  6
Continuous
 62
     7
370
    15
100
AcDbLine
 10
188.5370505251
 20
80.5784536284
 30
0.0
 11
177.5370505251
 21
80.5784536284
 31
0.0
  0
LINE
  5
12A
330
1F
100
AcDbEntity
  8
0
  6
Continuous
 62
     7
370
    15
100
AcDbLine
 10
186.3370505251
 20
73.5784536284
 30
0.0
 11
179.7370505251
 21
73.5784536284
 31
0.0
  0
LINE
  5
12B
330
1F
100
AcDbEntity
  8
0
  6
Continuous
 62
     7
370
    15
100
AcDbLine
 10
186.3370505251
 20
60.5784536284
 30
0.0
 11
179.7370505251
 21
60.5784536284
 31
0.0
  0
DIMENSION
  5
12C
330
1F
100
AcDbEntity
  8
DIM
100
AcDbDimension
  2
_D
 10
216.5370505251
 20
60.5784536284
 30
0.0
 11
216.5370505251
 21
70.5784536284
 31
0.0
 70
   160
  1
<>
 71
     2
 42
-1.0
  3
SLDDIMSTYLE0
100
AcDbAlignedDimension
 13
195.5370505251
 23
80.5784536284
 33
0.0
 14
195.5370505251
 24
60.5784536284
 34
0.0
 50
90.0
100
AcDbRotatedDimension
  0
LINE
  5
137
330
1F
100
AcDbEntity
  8
0
  6
Continuous
 62
     7
370
    15
100
AcDbLine
 10
388.7390574418
 20
197.1474676868
 30
0.0
 11
364.6974268814
 21
183.2685297858
 31
0.0
  0
LINE
  5
138
330
1F
100
AcDbEntity
  8
0
  6
Continuous
 62
     7
370
    15
100
AcDbLine
 10
323.6852335726
 20
180.0028973385
 30
0.0
 11
288.3298945133
 21
200.4131001341
 31
0.0
  0
LINE
  5
139
330
1F
100
AcDbEntity
  8
0
  6
Continuous
 62
     7
370
    15
100
AcDbLine
 10
323.6852335726
 20
180.0028973385
 30
0.0
 11
323.6852335726
 21
174.0421494118
 31
0.0
  0
LINE
  5
13A
330
1F
100
AcDbEntity
  8
0
  6
Continuous
 62
     7
370
    15
100
AcDbLine
 10
288.3298945133
 20
200.4131001341
 30
0.0
 11
288.3298945133
 21
194.4523522073
 31
0.0
  0
LINE
  5
13B
330
1F
100
AcDbEntity
  8
0
  6
Continuous
 62
     7
370
    15
100
AcDbLine
 10
323.6852335726
 20
174.0421494118
 30
0.0
 11
288.3298945133
 21
194.4523522073
 31
0.0
  0
LINE
  5
13C
330
1F
100
AcDbEntity
  8
0
  6
Continuous
 62
     7
370
    15
100
AcDbLine
 10
364.6974268814
 20
183.2685297858
 30
0.0
 11
364.6974268814
 21
177.3077818591
 31
0.0
  0
LINE
  5
13D
330
1F
100
AcDbEntity
  8
0
  6
Continuous
 62
     7
370
    15
100
AcDbLine
 10
388.7390574418
 20
197.1474676868
 30
0.0
 11
388.7390574418
 21
191.1867197601
 31
0.0
  0
LINE
  5
13E
330
1F
100
AcDbEntity
  8
0
  6
Continuous
 62
     7
370
    15
100
AcDbLine
 10
388.7390574418
 20
191.1867197601
 30
0.0
 11
364.6974268814
 21
177.3077818591
 31
0.0
  0
LINE
  5
13F
330
1F
100
AcDbEntity
  8
0
  6
Continuous
 62
     7
370
    15
100
AcDbLine
 10
344.545400821
 20
213.6810921269
 30
0.0
 11
350.5552912577
 21
217.150528027
 31
0.0
  0
LINE
  5
140
330
1F
100
AcDbEntity
  8
0
  6
Continuous
 62
     7
370
    15
100
AcDbLine
 10
362.5766237412
 20
203.2718887011
 30
0.0
 11
368.586514178
 21
206.7413246012
 31
0.0
  0
LINE
  5
141
330
1F
100
AcDbEntity
  8
0
  6
Continuous
 62
     7
370
    15
100
AcDbLine
 10
323.331680182
 20
232.8663841796
 30
0.0
 11
317.3217897453
 21
229.3969482795
 31
0.0
  0
LWPOLYLINE
  5
142
330
1F
100
AcDbEntity
  8
0
  6
Continuous
 62
     7
370
    15
100
AcDbPolyline
 90
       11
 70
   128
 43
0.0
 10
361.1265883793
 20
226.5601993728
 10
361.2508611157
 20
226.6812583314
 10
361.496988815
 20
227.0873182089
 10
361.5248531567
 20
227.5172187154
 10
361.3319782716
 20
227.9327613043
 10
360.9355019398
 20
228.297023193
 10
360.3706528232
 20
228.5776381141
 10
359.6876202447
 20
228.7496722005
 10
358.9470946462
 20
228.7978394686
 10
358.214874977
 20
228.7178600453
 10
357.6626980724
 20
228.5598606829
  0
LWPOLYLINE
  5
143
330
1F
100
AcDbEntity
  8
0
  6
Continuous
 62
     7
370
    15
100
AcDbPolyline
 90
       15
 70
   128
 43
0.0
 10
325.4530005256
 20
226.335119285
 10
325.8955220564
 20
226.6812583314
 10
326.1416497557
 20
227.0873182089
 10
326.1695140973
 20
227.5172187154
 10
325.9766392123
 20
227.9327613043
 10
325.5801628805
 20
228.297023193
 10
325.0153137639
 20
228.5776381141
 10
324.3322811854
 20
228.7496722005
 10
323.5917555869
 20
228.7978394686
 10
322.8595359177
 20
228.7178600453
 10
322.2006831087
 20
228.5168404533
 10
321.6737391232
 20
228.2126421656
 10
321.3255252468
 20
227.8322945348
 10
321.1869818106
 20
227.4095931173
 10
321.2101877874
 20
227.1522238701
  0
ARC
  5
144
330
1F
100
AcDbEntity
  8
0
  6
Continuous
 62
     7
370
    15
100
AcDbCircle
 10
323.6976729487
 20
229.7411579632
 30
0.0
 40
3.831745604804476
100
AcDbArc
 50
264.5371068622
 51
297.2646544603
  0
LWPOLYLINE
  5
145
330
1F
100
AcDbEntity
  8
0
  6
Continuous
 62
     7
370
    15
100
AcDbPolyline
 90
       11
 70
   128
 43
0.0
 10
325.77124932
 20
206.1499965772
 10
325.8955220564
 20
206.2710555358
 10
326.1416497557
 20
206.6771154133
 10
326.1695140973
 20
207.1070159198
 10
325.9766392123
 20
207.5225585087
 10
325.5801628805
 20
207.8868203974
 10
325.0153137639
 20
208.1674353185
 10
324.3322811854
 20
208.339469405
 10
323.5917555869
 20
208.3876366731
 10
322.8595359177
 20
208.3076572498
 10
322.3073590131
 20
208.1496578874
  0
LWPOLYLINE
  5
146
330
1F
100
AcDbEntity
  8
0
  6
Continuous
 62
     7
370
    15
100
AcDbPolyline
 90
       15
 70
   128
 43
0.0
 10
360.8083395849
 20
205.9249164894
 10
361.2508611157
 20
206.2710555358
 10
361.496988815
 20
206.6771154133
 10
361.5248531567
 20
207.1070159198
 10
361.3319782716
 20
207.5225585087
 10
360.9355019398
 20
207.8868203974
 10
360.3706528232
 20
208.1674353185
 10
359.6876202447
 20
208.339469405
 10
358.9470946462
 20
208.3876366731
 10
358.214874977
 20
208.3076572498
 10
357.556022168
 20
208.1066376578
 10
357.0290781825
 20
207.80243937
 10
356.6808643062
 20
207.4220917393
 10
356.54232087
 20
206.9993903217
 10
356.5655268467
 20
206.7420210745
  0
ARC
  5
147
330
1F
100
AcDbEntity
  8
0
  6
Continuous
 62
     7
370
    15
100
AcDbCircle
 10
359.053012008
 20
209.3309551677
 30
0.0
 40
3.831745604805946
100
AcDbArc
 50
264.5371068622
 51
297.2646544603
  0
LINE
  5
148
330
1F
100
AcDbEntity
  8
0
  6
Continuous
 62
     7
370
    15
100
AcDbLine
 10
372.8291548651
 20
204.2166122761
 30
0.0
 11
372.8291548651
 21
203.5517772939
 31
0.0
  0
LINE
  5
149
330
1F
100
AcDbEntity
  8
0
  6
Continuous
 62
     7
370
    15
100
AcDbLine
 10
350.5552912577
 20
218.7836096508
 30
0.0
 11
341.3629031023
 21
224.0902623776
 31
0.0
  0
LINE
  5
14A
330
1F
100
AcDbEntity
  8
0
  6
Continuous
 62
     7
370
    15
100
AcDbLine
 10
343.1309573904
 20
214.4976329388
 30
0.0
 11
350.5552912577
 21
218.7836096508
 31
0.0
  0
LINE
  5
14B
330
1F
100
AcDbEntity
  8
0
  6
Continuous
 62
     7
370
    15
100
AcDbLine
 10
341.3629031023
 20
224.0902623776
 30
0.0
 11
333.938569235
 21
219.8042856656
 31
0.0
  0
LWPOLYLINE
  5
14C
330
1F
100
AcDbEntity
  8
0
  6
Continuous
 62
     7
370
    15
100
AcDbPolyline
 90
       22
 70
   128
 43
0.0
 10
343.1306700552
 20
217.763099511
 10
343.573191586
 20
218.1092385574
 10
343.8193192854
 20
218.5152984349
 10
343.847183627
 20
218.9451989414
 10
343.6543087419
 20
219.3607415303
 10
343.2578324101
 20
219.7250034189
 10
342.6929832936
 20
220.0056183401
 10
342.009950715
 20
220.1776524265
 10
341.2694251166
 20
220.2258196946
 10
340.5372054474
 20
220.1458402713
 10
339.8783526383
 20
219.9448206793
 10
339.3514086529
 20
219.6406223916
 10
339.0031947765
 20
219.2602747608
 10
338.8646513403
 20
218.8375733432
 10
338.9480885365
 20
218.4100770148
 10
339.2460926042
 20
218.0157707002
 10
339.7321845741
 20
217.6896902461
 10
340.3631730415
 20
217.4608093316
 10
341.082991912
 20
217.3494650304
 10
341.8276821202
 20
217.3655507725
 10
342.531074673
 20
217.5076372689
 10
343.1306700552
 20
217.763099511
  0
LINE
  5
14D
330
1F
100
AcDbEntity
  8
0
  6
Continuous
 62
     7
370
    15
100
AcDbLine
 10
350.5552912577
 20
218.7836096508
 30
0.0
 11
350.5552912577
 21
217.150528027
 31
0.0
  0
LINE
  5
14E
330
1F
100
AcDbEntity
  8
0
  6
Continuous
 62
     7
370
    15
100
AcDbLine
 10
364.6974268814
 20
183.2685297858
 30
0.0
 11
364.6974268814
 21
177.1444736967
 31
0.0
  0
LINE
  5
14F
330
1F
100
AcDbEntity
  8
0
  6
Continuous
 62
     7
370
    15
100
AcDbLine
 10
364.6974268814
 20
177.1444736967
 30
0.0
 11
341.3629031023
 21
163.6737398516
 31
0.0
  0
LINE
  5
150
330
1F
100
AcDbEntity
  8
0
  6
Continuous
 62
     7
370
    15
100
AcDbLine
 10
341.3629031023
 20
180.0045560893
 30
0.0
 11
341.3629031023
 21
163.6737398516
 31
0.0
  0
LINE
  5
151
330
1F
100
AcDbEntity
  8
0
  6
Continuous
 62
     7
370
    15
100
AcDbLine
 10
412.0735812209
 20
220.8249616805
 30
0.0
 11
341.3629031023
 21
180.0045560893
 31
0.0
  0
LINE
  5
152
330
1F
100
AcDbEntity
  8
0
  6
Continuous
 62
     7
370
    15
100
AcDbLine
 10
412.0735812209
 20
220.8249616805
 30
0.0
 11
412.0735812209
 21
204.4941454428
 31
0.0
  0
LINE
  5
153
330
1F
100
AcDbEntity
  8
0
  6
Continuous
 62
     7
370
    15
100
AcDbLine
 10
412.0735812209
 20
204.4941454428
 30
0.0
 11
388.7390574418
 21
191.0234115977
 31
0.0
  0
LINE
  5
154
330
1F
100
AcDbEntity
  8
0
  6
Continuous
 62
     7
370
    15
100
AcDbLine
 10
388.7390574418
 20
191.0234115977
 30
0.0
 11
388.7390574418
 21
197.1474676868
 31
0.0
  0
LINE
  5
155
330
1F
100
AcDbEntity
  8
0
  6
Continuous
 62
     7
370
    15
100
AcDbLine
 10
334.8575207154
 20
178.0442477205
 30
0.0
 11
336.413155634
 21
177.1461987975
 31
0.0
  0
LINE
  5
156
330
1F
100
AcDbEntity
  8
0
  6
Continuous
 62
     7
370
    15
100
AcDbLine
 10
336.413155634
 20
177.1461987975
 30
0.0
 11
336.413155634
 21
182.8619844807
 31
0.0
  0
LINE
  5
157
330
1F
100
AcDbEntity
  8
0
  6
Continuous
 62
     7
370
    15
100
AcDbLine
 10
341.3629031023
 20
180.0045560893
 30
0.0
 11
336.413155634
 21
182.8619844807
 31
0.0
  0
LINE
  5
158
330
1F
100
AcDbEntity
  8
0
  6
Continuous
 62
     7
370
    15
100
AcDbLine
 10
341.3629031023
 20
163.6737398516
 30
0.0
 11
334.8575207154
 21
167.429217166
 31
0.0
  0
LINE
  5
159
330
1F
100
AcDbEntity
  8
0
  6
Continuous
 62
     7
370
    15
100
AcDbLine
 10
334.8575207154
 20
167.429217166
 30
0.0
 11
334.8575207154
 21
178.0442477205
 31
0.0
  0
LINE
  5
15A
330
1F
100
AcDbEntity
  8
0
  6
Continuous
 62
     7
370
    15
100
AcDbLine
 10
329.6956412127
 20
203.8844933601
 30
0.0
 11
312.017971683
 21
214.0895947579
 31
0.0
  0
LWPOLYLINE
  5
15B
330
1F
100
AcDbEntity
  8
0
  6
Continuous
 62
     7
370
    15
100
AcDbPolyline
 90
       14
 70
   128
 43
0.0
 10
335.3524954622
 20
207.1501258074
 10
335.9471934266
 20
206.7119206363
 10
336.3429518035
 20
206.204289013
 10
336.5167705543
 20
205.6567326423
 10
336.4585479652
 20
205.1010735103
 10
336.1716677214
 20
204.5696045059
 10
335.6728022599
 20
204.0932126759
 10
334.990943828
 20
203.6995841817
 10
334.1657195592
 20
203.4115952808
 10
333.2450884887
 20
203.2459828412
 10
332.2825543477
 20
203.212371656
 10
331.334056122
 20
203.312715085
 10
330.4547170807
 20
203.5411815329
 10
329.6956412127
 20
203.8844933601
  0
LINE
  5
15C
330
1F
100
AcDbEntity
  8
0
  6
Continuous
 62
     7
370
    15
100
AcDbLine
 10
317.6748259325
 20
217.3552272052
 30
0.0
 11
335.3524954622
 21
207.1501258074
 31
0.0
  0
LWPOLYLINE
  5
15D
330
1F
100
AcDbEntity
  8
0
  6
Continuous
 62
     7
370
    15
100
AcDbPolyline
 90
       14
 70
   128
 43
0.0
 10
317.6748259325
 20
217.3552272052
 10
316.9157500645
 20
217.6985390325
 10
316.0364110232
 20
217.9270054804
 10
315.0879127975
 20
218.0273489094
 10
314.1253786565
 20
217.9937377241
 10
313.204747586
 20
217.8281252845
 10
312.3795233173
 20
217.5401363836
 10
311.6976648853
 20
217.1465078895
 10
311.1987994238
 20
216.6701160595
 10
310.91191918
 20
216.1386470551
 10
310.8536965909
 20
215.582987923
 10
311.0275153417
 20
215.0354315524
 10
311.4232737186
 20
214.5277999291
 10
312.017971683
 20
214.0895947579
  0
LINE
  5
15E
330
1F
100
AcDbEntity
  8
0
  6
Continuous
 62
     7
370
    15
100
AcDbLine
 10
353.0301649918
 20
237.7654300008
 30
0.0
 11
370.7078345215
 21
227.560328603
 31
0.0
  0
LWPOLYLINE
  5
15F
330
1F
100
AcDbEntity
  8
0
  6
Continuous
 62
     7
370
    15
100
AcDbPolyline
 90
       14
 70
   128
 43
0.0
 10
347.3733107424
 20
234.4997975535
 10
346.7786127779
 20
234.9380027247
 10
346.3828544011
 20
235.4456343479
 10
346.2090356502
 20
235.9931907186
 10
346.2672582393
 20
236.5488498506
 10
346.5541384831
 20
237.080318855
 10
347.0530039447
 20
237.5567106851
 10
347.7348623766
 20
237.9503391792
 10
348.5600866453
 20
238.2383280801
 10
349.4807177158
 20
238.4039405197
 10
350.4432518568
 20
238.437551705
 10
351.3917500825
 20
238.337208276
 10
352.2710891238
 20
238.1087418281
 10
353.0301649918
 20
237.7654300008
  0
LINE
  5
160
330
1F
100
AcDbEntity
  8
0
  6
Continuous
 62
     7
370
    15
100
AcDbLine
 10
365.050980272
 20
224.2946961557
 30
0.0
 11
347.3733107424
 21
234.4997975535
 31
0.0
  0
LWPOLYLINE
  5
161
330
1F
100
AcDbEntity
  8
0
  6
Continuous
 62
     7
370
    15
100
AcDbPolyline
 90
       14
 70
   128
 43
0.0
 10
365.050980272
 20
224.2946961557
 10
365.8100561401
 20
223.9513843284
 10
366.6893951813
 20
223.7229178805
 10
367.6378934071
 20
223.6225744515
 10
368.600427548
 20
223.6561856368
 10
369.5210586186
 20
223.8217980764
 10
370.3462828873
 20
224.1097869773
 10
371.0281413192
 20
224.5034154714
 10
371.5270067807
 20
224.9798073015
 10
371.8138870246
 20
225.5112763059
 10
371.8721096137
 20
226.0669354379
 10
371.6982908628
 20
226.6144918086
 10
371.302532486
 20
227.1221234318
 10
370.7078345215
 20
227.560328603
  0
LINE
  5
162
330
1F
100
AcDbEntity
  8
0
  6
Continuous
 62
     7
370
    15
100
AcDbLine
 10
319.7961462761
 20
238.5818381126
 30
0.0
 11
372.1220480839
 21
208.3747379752
 31
0.0
  0
LWPOLYLINE
  5
163
330
1F
100
AcDbEntity
  8
0
  6
Continuous
 62
     7
370
    15
100
AcDbPolyline
 90
       18
 70
   128
 43
0.0
 10
310.6037581207
 20
233.2751853858
 10
309.8374686135
 20
233.8079107491
 10
309.2537920532
 20
234.4128506362
 10
308.872604845
 20
235.0694045446
 10
308.7068878622
 20
235.7552143185
 10
308.7622843977
 20
236.4469255286
 10
309.036907989
 20
237.1209827791
 10
309.5214066592
 20
237.754431859
 10
310.199281387
 20
238.3257014194
 10
311.0474479616
 20
238.8153375608
 10
312.0370230877
 20
239.2066663115
 10
313.1343079711
 20
239.4863614403
 10
314.3019358912
 20
239.644898265
 10
315.5001446796
 20
239.6768780043
 10
316.688130773
 20
239.5812116264
 10
317.82543873
 20
239.3611569351
 10
318.8733388921
 20
239.024207629
 10
319.7961462761
 20
238.5818381126
  0
LINE
  5
164
330
1F
100
AcDbEntity
  8
0
  6
Continuous
 62
     7
370
    15
100
AcDbLine
 10
310.6037581207
 20
233.2751853858
 30
0.0
 11
362.9296599285
 21
203.0680852483
 31
0.0
  0
LWPOLYLINE
  5
165
330
1F
100
AcDbEntity
  8
0
  6
Continuous
 62
     7
370
    15
100
AcDbPolyline
 90
       18
 70
   128
 43
0.0
 10
362.9296599285
 20
203.0680852483
 10
363.8524673124
 20
202.6257157319
 10
364.9003674745
 20
202.2887664258
 10
366.0376754315
 20
202.0687117346
 10
367.225661525
 20
201.9730453567
 10
368.4238703134
 20
202.0050250959
 10
369.5914982335
 20
202.1635619207
 10
370.6887831169
 20
202.4432570494
 10
371.6783582429
 20
202.8345858001
 10
372.5265248176
 20
203.3242219415
 10
373.2043995454
 20
203.8954915019
 10
373.6888982155
 20
204.5289405818
 10
373.9635218069
 20
205.2029978324
 10
374.0189183424
 20
205.8947090424
 10
373.8532013595
 20
206.5805188163
 10
373.4720141513
 20
207.2370727247
 10
372.8883375911
 20
207.8420126118
 10
372.1220480839
 20
208.3747379752
  0
LINE
  5
166
330
1F
100
AcDbEntity
  8
0
  6
Continuous
 62
     7
370
    15
100
AcDbLine
 10
283.380147045
 20
213.4772886741
 30
0.0
 11
301.4113699652
 21
223.8864920998
 31
0.0
  0
LWPOLYLINE
  5
167
330
1F
100
AcDbEntity
  8
0
  6
Continuous
 62
     7
370
    15
100
AcDbPolyline
 90
       16
 70
   128
 43
0.0
 10
301.4113699652
 20
223.8864920998
 10
302.1349707924
 20
224.4023405839
 10
302.6569750144
 20
224.9937666321
 10
302.954568542
 20
225.634922088
 10
303.0147451099
 20
226.2977853817
 10
302.8348747133
 20
226.9533862065
 10
302.4228185517
 20
227.5730716603
 10
301.7965854567
 20
228.1297585153
 10
300.9835448195
 20
228.5991168846
 10
300.0192304173
 20
228.9606335552
 10
298.9457874168
 20
229.198508514
 10
297.810130428
 20
229.3023454837
 10
296.661893111
 20
229.2676062905
 10
295.5512589462
 20
229.0958092038
 10
294.5267679761
 20
228.7944625808
 10
293.6331953722
 20
228.3767367148
  0
LINE
  5
168
330
1F
100
AcDbEntity
  8
0
  6
Continuous
 62
     7
370
    15
100
AcDbLine
 10
293.6331953722
 20
228.3767367148
 30
0.0
 11
275.6019724519
 21
217.9675332891
 31
0.0
  0
LINE
  5
169
330
1F
100
AcDbEntity
  8
0
  6
Continuous
 62
     7
370
    15
100
AcDbLine
 10
275.6019724519
 20
217.9675332891
 30
0.0
 11
270.6522249836
 21
220.8249616805
 31
0.0
  0
LINE
  5
16A
330
1F
100
AcDbEntity
  8
0
  6
Continuous
 62
     7
370
    15
100
AcDbLine
 10
270.6522249836
 20
220.8249616805
 30
0.0
 11
341.3629031023
 21
261.6453672716
 31
0.0
  0
LINE
  5
16B
330
1F
100
AcDbEntity
  8
0
  6
Continuous
 62
     7
370
    15
100
AcDbLine
 10
341.3629031023
 20
261.6453672716
 30
0.0
 11
346.3126505706
 21
258.7879388802
 31
0.0
  0
LINE
  5
16C
330
1F
100
AcDbEntity
  8
0
  6
Continuous
 62
     7
370
    15
100
AcDbLine
 10
346.3126505706
 20
258.7879388802
 30
0.0
 11
328.2814276503
 21
248.3787354545
 31
0.0
  0
LWPOLYLINE
  5
16D
330
1F
100
AcDbEntity
  8
0
  6
Continuous
 62
     7
370
    15
100
AcDbPolyline
 90
       16
 70
   128
 43
0.0
 10
328.2814276503
 20
248.3787354545
 10
327.5578268231
 20
247.8628869704
 10
327.0358226011
 20
247.2714609222
 10
326.7382290736
 20
246.6303054662
 10
326.6780525057
 20
245.9674421726
 10
326.8579229023
 20
245.3118413478
 10
327.2699790638
 20
244.692155894
 10
327.8962121588
 20
244.135469039
 10
328.7092527961
 20
243.6661106697
 10
329.6735671983
 20
243.3045939991
 10
330.7470101988
 20
243.0667190403
 10
331.8826671875
 20
242.9628820706
 10
333.0309045046
 20
242.9976212638
 10
334.1415386693
 20
243.1694183504
 10
335.1660296394
 20
243.4707649735
 10
336.0596022434
 20
243.8884908395
  0
LINE
  5
16E
330
1F
100
AcDbEntity
  8
0
  6
Continuous
 62
     7
370
    15
100
AcDbLine
 10
336.0596022434
 20
243.8884908395
 30
0.0
 11
354.0908251636
 21
254.2976942652
 31
0.0
  0
LINE
  5
16F
330
1F
100
AcDbEntity
  8
0
  6
Continuous
 62
     7
370
    15
100
AcDbLine
 10
354.0908251636
 20
254.2976942652
 30
0.0
 11
399.3456591596
 21
228.1726346869
 31
0.0
  0
LINE
  5
170
330
1F
100
AcDbEntity
  8
0
  6
Continuous
 62
     7
370
    15
100
AcDbLine
 10
399.3456591596
 20
228.1726346869
 30
0.0
 11
381.3144362393
 21
217.7634312611
 31
0.0
  0
LWPOLYLINE
  5
171
330
1F
100
AcDbEntity
  8
0
  6
Continuous
 62
     7
370
    15
100
AcDbPolyline
 90
       16
 70
   128
 43
0.0
 10
381.3144362393
 20
217.7634312611
 10
380.5908354121
 20
217.247582777
 10
380.0688311901
 20
216.6561567288
 10
379.7712376626
 20
216.0150012729
 10
379.7110610947
 20
215.3521379792
 10
379.8909314912
 20
214.6965371545
 10
380.3029876528
 20
214.0768517007
 10
380.9292207478
 20
213.5201648457
 10
381.7422613851
 20
213.0508064764
 10
382.7065757873
 20
212.6892898057
 10
383.7800187878
 20
212.451414847
 10
384.9156757765
 20
212.3475778773
 10
386.0639130936
 20
212.3823170704
 10
387.1745472583
 20
212.5541141571
 10
388.1990382284
 20
212.8554607801
 10
389.0926108324
 20
213.2731866461
  0
LINE
  5
172
330
1F
100
AcDbEntity
  8
0
  6
Continuous
 62
     7
370
    15
100
AcDbLine
 10
389.0926108324
 20
213.2731866461
 30
0.0
 11
407.1238337526
 21
223.6823900718
 31
0.0
  0
LINE
  5
173
330
1F
100
AcDbEntity
  8
0
  6
Continuous
 62
     7
370
    15
100
AcDbLine
 10
407.1238337526
 20
223.6823900718
 30
0.0
 11
412.0735812209
 21
220.8249616805
 31
0.0
  0
LINE
  5
174
330
1F
100
AcDbEntity
  8
0
  6
Continuous
 62
     7
370
    15
100
AcDbLine
 10
336.413155634
 20
182.8619844807
 30
0.0
 11
354.4443785542
 21
193.2711879064
 31
0.0
  0
LWPOLYLINE
  5
175
330
1F
100
AcDbEntity
  8
0
  6
Continuous
 62
     7
370
    15
100
AcDbPolyline
 90
       16
 70
   128
 43
0.0
 10
354.4443785542
 20
193.2711879064
 10
355.1679793814
 20
193.7870363906
 10
355.6899836034
 20
194.3784624387
 10
355.987577131
 20
195.0196178947
 10
356.0477536988
 20
195.6824811884
 10
355.8678833023
 20
196.3380820131
 10
355.4558271407
 20
196.9577674669
 10
354.8295940457
 20
197.5144543219
 10
354.0165534085
 20
197.9838126912
 10
353.0522390063
 20
198.3453293619
 10
351.9787960058
 20
198.5832043206
 10
350.843139017
 20
198.6870412903
 10
349.6949017
 20
198.6523020971
 10
348.5842675352
 20
198.4805050105
 10
347.5597765651
 20
198.1791583875
 10
346.6662039612
 20
197.7614325215
  0
LINE
  5
176
330
1F
100
AcDbEntity
  8
0
  6
Continuous
 62
     7
370
    15
100
AcDbLine
 10
346.6662039612
 20
197.7614325215
 30
0.0
 11
328.6349810409
 21
187.3522290957
 31
0.0
  0
LINE
  5
177
330
1F
100
AcDbEntity
  8
0
  6
Continuous
 62
     7
370
    15
100
AcDbLine
 10
328.6349810409
 20
187.3522290957
 30
0.0
 11
283.380147045
 21
213.4772886741
 31
0.0
  0
LINE
  5
178
330
1F
100
AcDbEntity
  8
0
  6
Continuous
 62
     7
370
    15
100
AcDbLine
 10
348.2218388798
 20
191.1475979153
 30
0.0
 11
330.1906159595
 21
180.7383944895
 31
0.0
  0
LINE
  5
179
330
1F
100
AcDbEntity
  8
0
  6
Continuous
 62
     7
370
    15
100
AcDbLine
 10
328.6349810409
 20
181.6364434125
 30
0.0
 11
330.1906159595
 21
180.7383944895
 31
0.0
  0
LINE
  5
17A
330
1F
100
AcDbEntity
  8
0
  6
Continuous
 62
     7
370
    15
100
AcDbLine
 10
346.6662039612
 20
192.0456468383
 30
0.0
 11
328.6349810409
 21
181.6364434125
 31
0.0
  0
ARC
  5
17B
330
1F
100
AcDbEntity
  8
0
  6
Continuous
 62
     7
370
    15
100
AcDbCircle
 10
350.5815098872
 20
184.4546321288
 30
0.0
 40
8.541260142021288
100
AcDbArc
 50
71.8987460265
 51
117.2838522343
  0
LINE
  5
17C
330
1F
100
AcDbEntity
  8
0
  6
Continuous
 62
     7
370
    15
100
AcDbLine
 10
334.8575207154
 20
178.0442477205
 30
0.0
 11
336.413155634
 21
178.9422966435
 31
0.0
  0
ARC
  5
17D
330
1F
100
AcDbEntity
  8
0
  6
Continuous
 62
     7
370
    15
100
AcDbCircle
 10
350.5591139904
 20
186.6124996896
 30
0.0
 40
5.101957551668657
100
AcDbArc
 50
78.550466001
 51
117.2654353742
  0
LINE
  5
17E
330
1F
100
AcDbEntity
  8
0
  6
Continuous
 62
     7
370
    15
100
AcDbLine
 10
330.1906159595
 20
170.123363935
 30
0.0
 11
323.6852335726
 21
173.8788412494
 31
0.0
  0
LINE
  5
17F
330
1F
100
AcDbEntity
  8
0
  6
Continuous
 62
     7
370
    15
100
AcDbLine
 10
323.6852335726
 20
173.8788412494
 30
0.0
 11
323.6852335726
 21
180.0028973385
 31
0.0
  0
LINE
  5
180
330
1F
100
AcDbEntity
  8
0
  6
Continuous
 62
     7
370
    15
100
AcDbLine
 10
288.3298945133
 20
200.4131001341
 30
0.0
 11
288.3298945133
 21
194.289044045
 31
0.0
  0
LINE
  5
181
330
1F
100
AcDbEntity
  8
0
  6
Continuous
 62
     7
370
    15
100
AcDbLine
 10
288.3298945133
 20
194.289044045
 30
0.0
 11
281.8245121264
 21
198.0445213594
 31
0.0
  0
LINE
  5
182
330
1F
100
AcDbEntity
  8
0
  6
Continuous
 62
     7
370
    15
100
AcDbLine
 10
281.8245121264
 20
198.0445213594
 30
0.0
 11
281.8245121264
 21
208.6595519139
 31
0.0
  0
LINE
  5
183
330
1F
100
AcDbEntity
  8
0
  6
Continuous
 62
     7
370
    15
100
AcDbLine
 10
281.8245121264
 20
208.6595519139
 30
0.0
 11
283.380147045
 21
207.7615029909
 31
0.0
  0
LINE
  5
184
330
1F
100
AcDbEntity
  8
0
  6
Continuous
 62
     7
370
    15
100
AcDbLine
 10
283.380147045
 20
207.7615029909
 30
0.0
 11
283.380147045
 21
213.4772886741
 31
0.0
  0
LINE
  5
185
330
1F
100
AcDbEntity
  8
0
  6
Continuous
 62
     7
370
    15
100
AcDbLine
 10
328.6349810409
 20
181.6364434125
 30
0.0
 11
328.6349810409
 21
187.3522290957
 31
0.0
  0
LINE
  5
186
330
1F
100
AcDbEntity
  8
0
  6
Continuous
 62
     7
370
    15
100
AcDbLine
 10
330.1906159595
 20
170.123363935
 30
0.0
 11
330.1906159595
 21
180.7383944895
 31
0.0
  0
LINE
  5
187
330
1F
100
AcDbEntity
  8
0
  6
Continuous
 62
     7
370
    15
100
AcDbLine
 10
346.6662039612
 20
192.0456468383
 30
0.0
 11
346.6662039612
 21
197.7614325215
 31
0.0
  0
LINE
  5
188
330
1F
100
AcDbEntity
  8
0
  6
Continuous
 62
     7
370
    15
100
AcDbLine
 10
334.8575207154
 20
172.817510704
 30
0.0
 11
330.1906159595
 21
170.123363935
 31
0.0
  0
LINE
  5
189
330
1F
100
AcDbEntity
  8
0
  6
Continuous
 62
     7
370
    15
100
AcDbLine
 10
372.1220480839
 20
208.3747379752
 30
0.0
 11
372.1220480839
 21
204.7003043217
 31
0.0
  0
LWPOLYLINE
  5
18A
330
1F
100
AcDbEntity
  8
0
  6
Continuous
 62
     7
370
    15
100
AcDbPolyline
 90
        3
 70
   128
 43
0.0
 10
372.1220480839
 20
204.7003043217
 10
372.8883375911
 20
204.1675789583
 10
373.1934556392
 20
203.884194785
  0
LINE
  5
18B
330
1F
100
AcDbEntity
  8
0
  6
Continuous
 62
     7
370
    15
100
AcDbLine
 10
317.6748259325
 20
217.3552272052
 30
0.0
 11
317.6748259325
 21
213.6807935517
 31
0.0
  0
LINE
  5
18C
330
1F
100
AcDbEntity
  8
0
  6
Continuous
 62
     7
370
    15
100
AcDbLine
 10
334.9761755737
 20
203.6929370014
 30
0.0
 11
317.6748259325
 21
213.6807935517
 31
0.0
  0
LINE
  5
18D
330
1F
100
AcDbEntity
  8
0
  6
Continuous
 62
     7
370
    15
100
AcDbLine
 10
319.7961462761
 20
238.5818381126
 30
0.0
 11
319.7961462761
 21
234.9074044591
 31
0.0
  0
LINE
  5
18E
330
1F
100
AcDbEntity
  8
0
  6
Continuous
 62
     7
370
    15
100
AcDbLine
 10
372.1220480839
 20
204.7003043217
 30
0.0
 11
350.5552912577
 21
217.150528027
 31
0.0
  0
LINE
  5
18F
330
1F
100
AcDbEntity
  8
0
  6
Continuous
 62
     7
370
    15
100
AcDbLine
 10
339.9484596717
 20
223.2737215657
 30
0.0
 11
319.7961462761
 21
234.9074044591
 31
0.0
  0
LINE
  5
190
330
1F
100
AcDbEntity
  8
0
  6
Continuous
 62
     7
370
    15
100
AcDbLine
 10
388.5976130987
 20
191.1050656789
 30
0.0
 11
388.7390574418
 21
191.0234115977
 31
0.0
  0
LINE
  5
191
330
1F
100
AcDbEntity
  8
0
  6
Continuous
 62
     7
370
    15
100
AcDbLine
 10
288.4713388563
 20
194.3706981262
 30
0.0
 11
288.3298945133
 21
194.289044045
 31
0.0
  0
LINE
  5
192
330
1F
100
AcDbEntity
  8
0
  6
Continuous
 62
     7
370
    15
100
AcDbLine
 10
399.3456591596
 20
222.4568490037
 30
0.0
 11
382.5235590181
 21
212.7456573005
 31
0.0
  0
LINE
  5
193
330
1F
100
AcDbEntity
  8
0
  6
Continuous
 62
     7
370
    15
100
AcDbLine
 10
400.9012940782
 20
221.5588000807
 30
0.0
 11
399.3456591596
 21
222.4568490037
 31
0.0
  0
LINE
  5
194
330
1F
100
AcDbEntity
  8
0
  6
Continuous
 62
     7
370
    15
100
AcDbLine
 10
400.9012940782
 20
221.5588000807
 30
0.0
 11
384.9438559632
 21
212.3467671405
 31
0.0
  0
ARC
  5
195
330
1F
100
AcDbEntity
  8
0
  6
Continuous
 62
     7
370
    15
100
AcDbCircle
 10
314.8324679947
 20
208.2056410902
 30
0.0
 40
6.168978288454857
100
AcDbArc
 50
62.5644733051
 51
113.2804319194
  0
LINE
  5
196
330
1F
100
AcDbEntity
  8
0
  6
Continuous
 62
     7
370
    15
100
AcDbLine
 10
293.6331953722
 20
222.6609510316
 30
0.0
 11
275.6019724519
 21
212.2517476059
 31
0.0
  0
ARC
  5
197
330
1F
100
AcDbEntity
  8
0
  6
Continuous
 62
     7
370
    15
100
AcDbCircle
 10
297.5485012982
 20
215.0699363221
 30
0.0
 40
8.541260142021654
100
AcDbArc
 50
71.8987460265
 51
117.2838522343
  0
LINE
  5
198
330
1F
100
AcDbEntity
  8
0
  6
Continuous
 62
     7
370
    15
100
AcDbLine
 10
281.8245121264
 20
208.6595519139
 30
0.0
 11
283.380147045
 21
209.5576008369
 31
0.0
  0
ARC
  5
199
330
1F
100
AcDbEntity
  8
0
  6
Continuous
 62
     7
370
    15
100
AcDbCircle
 10
297.5261054014
 20
217.227803883
 30
0.0
 40
5.101957551668875
100
AcDbArc
 50
78.550466001
 51
117.2654353742
  0
LINE
  5
19A
330
1F
100
AcDbEntity
  8
0
  6
Continuous
 62
     7
370
    15
100
AcDbLine
 10
295.1888302908
 20
221.7629021086
 30
0.0
 11
277.1576073705
 21
211.3536986829
 31
0.0
  0
LINE
  5
19B
330
1F
100
AcDbEntity
  8
0
  6
Continuous
 62
     7
370
    15
100
AcDbLine
 10
275.6019724519
 20
212.2517476059
 30
0.0
 11
277.1576073705
 21
211.3536986829
 31
0.0
  0
LINE
  5
19C
330
1F
100
AcDbEntity
  8
0
  6
Continuous
 62
     7
370
    15
100
AcDbLine
 10
277.1576073705
 20
200.7386681284
 30
0.0
 11
270.6522249836
 21
204.4941454428
 31
0.0
  0
LINE
  5
19D
330
1F
100
AcDbEntity
  8
0
  6
Continuous
 62
     7
370
    15
100
AcDbLine
 10
270.6522249836
 20
220.8249616805
 30
0.0
 11
270.6522249836
 21
204.4941454428
 31
0.0
  0
LINE
  5
19E
330
1F
100
AcDbEntity
  8
0
  6
Continuous
 62
     7
370
    15
100
AcDbLine
 10
275.6019724519
 20
212.2517476059
 30
0.0
 11
275.6019724519
 21
217.9675332891
 31
0.0
  0
LINE
  5
19F
330
1F
100
AcDbEntity
  8
0
  6
Continuous
 62
     7
370
    15
100
AcDbLine
 10
277.1576073705
 20
200.7386681284
 30
0.0
 11
277.1576073705
 21
211.3536986829
 31
0.0
  0
LINE
  5
1A0
330
1F
100
AcDbEntity
  8
0
  6
Continuous
 62
     7
370
    15
100
AcDbLine
 10
399.3456591596
 20
222.4568490037
 30
0.0
 11
399.3456591596
 21
228.1726346869
 31
0.0
  0
LINE
  5
1A1
330
1F
100
AcDbEntity
  8
0
  6
Continuous
 62
     7
370
    15
100
AcDbLine
 10
293.6331953722
 20
222.6609510316
 30
0.0
 11
293.6331953722
 21
228.3767367148
 31
0.0
  0
LINE
  5
1A2
330
1F
100
AcDbEntity
  8
0
  6
Continuous
 62
     7
370
    15
100
AcDbLine
 10
400.9012940782
 20
220.0901943798
 30
0.0
 11
400.9012940782
 21
221.5588000807
 31
0.0
  0
LINE
  5
1A3
330
1F
100
AcDbEntity
  8
0
  6
Continuous
 62
     7
370
    15
100
AcDbLine
 10
281.8245121264
 20
203.4328148974
 30
0.0
 11
277.1576073705
 21
200.7386681284
 31
0.0
  0
LINE
  5
1A4
330
1F
100
AcDbEntity
  8
0
  6
Continuous
 62
     7
370
    15
100
AcDbLine
 10
353.0301649918
 20
237.7654300008
 30
0.0
 11
353.0301649918
 21
234.0909963473
 31
0.0
  0
LINE
  5
1A5
330
1F
100
AcDbEntity
  8
0
  6
Continuous
 62
     7
370
    15
100
AcDbLine
 10
370.331514633
 20
224.103139797
 30
0.0
 11
353.0301649918
 21
234.0909963473
 31
0.0
  0
ARC
  5
1A6
330
1F
100
AcDbEntity
  8
0
  6
Continuous
 62
     7
370
    15
100
AcDbCircle
 10
315.2774754647
 20
226.7871041889
 30
0.0
 40
9.292882350539623
100
AcDbArc
 50
60.9055507324
 51
128.186886686
  0
ARC
  5
1A7
330
1F
100
AcDbEntity
  8
0
  6
Continuous
 62
     7
370
    15
100
AcDbCircle
 10
350.187807054
 20
228.6158438858
 30
0.0
 40
6.168978288454843
100
AcDbArc
 50
62.5644733051
 51
113.2804319194
  0
LINE
  5
1A8
330
1F
100
AcDbEntity
  8
0
  6
Continuous
 62
     7
370
    15
100
AcDbLine
 10
316.9323638123
 20
235.8707176544
 30
0.0
 11
316.9323638123
 21
232.8857327819
 31
0.0
  0
LINE
  5
1A9
330
1F
100
AcDbEntity
  8
0
  6
Continuous
 62
     7
370
    15
100
AcDbLine
 10
314.1053733635
 20
231.2537459336
 30
0.0
 11
316.9323638123
 21
232.8857327819
 31
0.0
  0
LINE
  5
1AA
330
1F
100
AcDbEntity
  8
0
  6
Continuous
 62
     7
370
    15
100
AcDbLine
 10
346.3126505706
 20
253.072153197
 30
0.0
 11
329.4905504291
 21
243.3609614939
 31
0.0
  0
LINE
  5
1AB
330
1F
100
AcDbEntity
  8
0
  6
Continuous
 62
     7
370
    15
100
AcDbLine
 10
347.8682854892
 20
252.174104274
 30
0.0
 11
346.3126505706
 21
253.072153197
 31
0.0
  0
LINE
  5
1AC
330
1F
100
AcDbEntity
  8
0
  6
Continuous
 62
     7
370
    15
100
AcDbLine
 10
347.8682854892
 20
252.174104274
 30
0.0
 11
331.9108473742
 21
242.9620713339
 31
0.0
  0
LINE
  5
1AD
330
1F
100
AcDbEntity
  8
0
  6
Continuous
 62
     7
370
    15
100
AcDbLine
 10
316.9323638123
 20
235.7431611732
 30
0.0
 11
317.1128815862
 21
235.8402710095
 31
0.0
  0
LINE
  5
1AE
330
1F
100
AcDbEntity
  8
0
  6
Continuous
 62
     7
370
    15
100
AcDbLine
 10
346.3126505706
 20
253.072153197
 30
0.0
 11
346.3126505706
 21
258.7879388802
 31
0.0
  0
LINE
  5
1AF
330
1F
100
AcDbEntity
  8
0
  6
Continuous
 62
     7
370
    15
100
AcDbLine
 10
347.8682854892
 20
250.7054985732
 30
0.0
 11
347.8682854892
 21
252.174104274
 31
0.0
  0
LINE
  5
1B0
330
1F
100
AcDbEntity
  8
0
  6
Continuous
 62
     8
370
    15
100
AcDbLine
 10
348.2218388798
 20
189.6789922144
 30
0.0
 11
348.2218388798
 21
191.1475979153
 31
0.0
  0
LINE
  5
1B1
330
1F
100
AcDbEntity
  8
0
  6
Continuous
 62
     8
370
    15
100
AcDbLine
 10
335.3524954622
 20
207.1501258074
 30
0.0
 11
335.3524954622
 21
203.8844933601
 31
0.0
  0
LINE
  5
1B2
330
1F
100
AcDbEntity
  8
0
  6
Continuous
 62
     8
370
    15
100
AcDbLine
 10
381.3144362393
 20
213.2731866461
 30
0.0
 11
381.3144362393
 21
217.7634312611
 31
0.0
  0
LINE
  5
1B3
330
1F
100
AcDbEntity
  8
0
  6
Continuous
 62
     8
370
    15
100
AcDbLine
 10
295.1888302908
 20
220.2942964078
 30
0.0
 11
295.1888302908
 21
221.7629021086
 31
0.0
  0
LINE
  5
1B4
330
1F
100
AcDbEntity
  8
0
  6
Continuous
 62
     8
370
    15
100
AcDbLine
 10
370.7078345215
 20
227.560328603
 30
0.0
 11
370.7078345215
 21
224.2946961557
 31
0.0
  0
LINE
  5
1B5
330
1F
100
AcDbEntity
  8
0
  6
Continuous
 62
     8
370
    15
100
AcDbLine
 10
328.2814276503
 20
243.8884908395
 30
0.0
 11
328.2814276503
 21
248.3787354545
 31
0.0
  0
ARC
  5
1B6
330
1F
100
AcDbEntity
  8
0
  6
Continuous
 62
     7
370
    15
100
AcDbCircle
 10
106.0370505251
 20
161.7524545219
 30
0.0
 40
4.000000000000028
100
AcDbArc
 50
90.0
 51
270.0
  0
LINE
  5
1B7
330
1F
100
AcDbEntity
  8
0
  6
Continuous
 62
     7
370
    15
100
AcDbLine
 10
185.0370505251
 20
157.7524545219
 30
0.0
 11
177.5370505251
 21
157.7524545219
 31
0.0
  0
LINE
  5
1B8
330
1F
100
AcDbEntity
  8
0
  6
Continuous
 62
     7
370
    15
100
AcDbLine
 10
113.5370505251
 20
157.7524545219
 30
0.0
 11
106.0370505251
 21
157.7524545219
 31
0.0
  0
ARC
  5
1B9
330
1F
100
AcDbEntity
  8
0
  6
Continuous
 62
     7
370
    15
100
AcDbCircle
 10
185.0370505251
 20
161.7524545219
 30
0.0
 40
4.0
100
AcDbArc
 50
270.0
 51
90.0
  0
LINE
  5
1BA
330
1F
100
AcDbEntity
  8
0
  6
Continuous
 62
     7
370
    15
100
AcDbLine
 10
106.0370505251
 20
165.7524545219
 30
0.0
 11
113.5370505251
 21
165.7524545219
 31
0.0
  0
LINE
  5
1BB
330
1F
100
AcDbEntity
  8
0
  6
Continuous
 62
     7
370
    15
100
AcDbLine
 10
177.5370505251
 20
165.7524545219
 30
0.0
 11
185.0370505251
 21
165.7524545219
 31
0.0
  0
LINE
  5
1BC
330
1F
100
AcDbEntity
  8
0
  6
Continuous
 62
     7
370
    15
100
AcDbLine
 10
152.0370505251
 20
155.2524545219
 30
0.0
 11
152.0370505251
 21
168.2524545219
 31
0.0
  0
LINE
  5
1BD
330
1F
100
AcDbEntity
  8
0
  6
Continuous
 62
     7
370
    15
100
AcDbLine
 10
139.0370505251
 20
168.2524545219
 30
0.0
 11
139.0370505251
 21
155.2524545219
 31
0.0
  0
CIRCLE
  5
1BE
330
1F
100
AcDbEntity
  8
0
  6
Continuous
 62
     7
370
    15
100
AcDbCircle
 10
145.5370505251
 20
161.7524545219
 30
0.0
 40
2.5
  0
LINE
  5
1BF
330
1F
100
AcDbEntity
  8
0
  6
Continuous
 62
     7
370
    15
100
AcDbLine
 10
177.5370505251
 20
155.2524545219
 30
0.0
 11
177.5370505251
 21
168.2524545219
 31
0.0
  0
LINE
  5
1C0
330
1F
100
AcDbEntity
  8
0
  6
Continuous
 62
     7
370
    15
100
AcDbLine
 10
113.5370505251
 20
168.2524545219
 30
0.0
 11
113.5370505251
 21
155.2524545219
 31
0.0
  0
CIRCLE
  5
1C1
330
1F
100
AcDbEntity
  8
0
  6
Continuous
 62
     7
370
    15
100
AcDbCircle
 10
145.5370505251
 20
186.7524545219
 30
0.0
 40
2.5
  0
CIRCLE
  5
1C2
330
1F
100
AcDbEntity
  8
0
  6
Continuous
 62
     7
370
    15
100
AcDbCircle
 10
120.5370505251
 20
161.7524545219
 30
0.0
 40
2.500000000000014
  0
CIRCLE
  5
1C3
330
1F
100
AcDbEntity
  8
0
  6
Continuous
 62
     7
370
    15
100
AcDbCircle
 10
145.5370505251
 20
136.7524545219
 30
0.0
 40
2.500000000000028
  0
CIRCLE
  5
1C4
330
1F
100
AcDbEntity
  8
0
  6
Continuous
 62
     7
370
    15
100
AcDbCircle
 10
170.5370505251
 20
161.7524545219
 30
0.0
 40
2.5
  0
LINE
  5
1C5
330
1F
100
AcDbEntity
  8
0
  6
Continuous
 62
     7
370
    15
100
AcDbLine
 10
158.0370505251
 20
132.7524545219
 30
0.0
 11
133.0370505251
 21
132.7524545219
 31
0.0
  0
ARC
  5
1C6
330
1F
100
AcDbEntity
  8
0
  6
Continuous
 62
     7
370
    15
100
AcDbCircle
 10
158.0370505251
 20
136.7524545219
 30
0.0
 40
4.000000000000028
100
AcDbArc
 50
270.0
 51
90.0
  0
LINE
  5
1C7
330
1F
100
AcDbEntity
  8
0
  6
Continuous
 62
     7
370
    15
100
AcDbLine
 10
133.0370505251
 20
140.7524545219
 30
0.0
 11
158.0370505251
 21
140.7524545219
 31
0.0
  0
ARC
  5
1C8
330
1F
100
AcDbEntity
  8
0
  6
Continuous
 62
     7
370
    15
100
AcDbCircle
 10
133.0370505251
 20
136.7524545219
 30
0.0
 40
4.000000000000028
100
AcDbArc
 50
90.0
 51
270.0
  0
LINE
  5
1C9
330
1F
100
AcDbEntity
  8
0
  6
Continuous
 62
     7
370
    15
100
AcDbLine
 10
133.0370505251
 20
190.7524545219
 30
0.0
 11
158.0370505251
 21
190.7524545219
 31
0.0
  0
ARC
  5
1CA
330
1F
100
AcDbEntity
  8
0
  6
Continuous
 62
     7
370
    15
100
AcDbCircle
 10
133.0370505251
 20
186.7524545219
 30
0.0
 40
4.0
100
AcDbArc
 50
90.0
 51
270.0
  0
LINE
  5
1CB
330
1F
100
AcDbEntity
  8
0
  6
Continuous
 62
     7
370
    15
100
AcDbLine
 10
158.0370505251
 20
182.7524545219
 30
0.0
 11
133.0370505251
 21
182.7524545219
 31
0.0
  0
ARC
  5
1CC
330
1F
100
AcDbEntity
  8
0
  6
Continuous
 62
     7
370
    15
100
AcDbCircle
 10
158.0370505251
 20
186.7524545219
 30
0.0
 40
4.0
100
AcDbArc
 50
270.0
 51
90.0
  0
LINE
  5
1CD
330
1F
100
AcDbEntity
  8
0
  6
Continuous
 62
     7
370
    15
100
AcDbLine
 10
108.5370505251
 20
168.2524545219
 30
0.0
 11
182.5370505251
 21
168.2524545219
 31
0.0
  0
ARC
  5
1CE
330
1F
100
AcDbEntity
  8
0
  6
Continuous
 62
     7
370
    15
100
AcDbCircle
 10
108.5370505251
 20
161.7524545219
 30
0.0
 40
6.5
100
AcDbArc
 50
90.0
 51
270.0
  0
LINE
  5
1CF
330
1F
100
AcDbEntity
  8
0
  6
Continuous
 62
     7
370
    15
100
AcDbLine
 10
108.5370505251
 20
155.2524545219
 30
0.0
 11
182.5370505251
 21
155.2524545219
 31
0.0
  0
ARC
  5
1D0
330
1F
100
AcDbEntity
  8
0
  6
Continuous
 62
     7
370
    15
100
AcDbCircle
 10
182.5370505251
 20
161.7524545219
 30
0.0
 40
6.5
100
AcDbArc
 50
270.0
 51
90.0
  0
LINE
  5
1D1
330
1F
100
AcDbEntity
  8
0
  6
Continuous
 62
     7
370
    15
100
AcDbLine
 10
113.5370505251
 20
111.7524545219
 30
0.0
 11
113.5370505251
 21
137.2524545219
 31
0.0
  0
ARC
  5
1D2
330
1F
100
AcDbEntity
  8
0
  6
Continuous
 62
     7
370
    15
100
AcDbCircle
 10
108.0370505251
 20
137.2524545219
 30
0.0
 40
5.5
100
AcDbArc
 50
0.0
 51
180.0
  0
LINE
  5
1D3
330
1F
100
AcDbEntity
  8
0
  6
Continuous
 62
     7
370
    15
100
AcDbLine
 10
102.5370505251
 20
137.2524545219
 30
0.0
 11
102.5370505251
 21
111.7524545219
 31
0.0
  0
LINE
  5
1D4
330
1F
100
AcDbEntity
  8
0
  6
Continuous
 62
     7
370
    15
100
AcDbLine
 10
102.5370505251
 20
111.7524545219
 30
0.0
 11
95.5370505251
 21
111.7524545219
 31
0.0
  0
LINE
  5
1D5
330
1F
100
AcDbEntity
  8
0
  6
Continuous
 62
     7
370
    15
100
AcDbLine
 10
95.5370505251
 20
111.7524545219
 30
0.0
 11
95.5370505251
 21
211.7524545219
 31
0.0
  0
ARC
  5
1D6
330
1F
100
AcDbEntity
  8
0
  6
Continuous
 62
     7
370
    15
100
AcDbCircle
 10
108.0370505251
 20
186.2524545219
 30
0.0
 40
5.5
100
AcDbArc
 50
180.0
 51
0.0
  0
LINE
  5
1D7
330
1F
100
AcDbEntity
  8
0
  6
Continuous
 62
     7
370
    15
100
AcDbLine
 10
113.5370505251
 20
211.7524545219
 30
0.0
 11
177.5370505251
 21
211.7524545219
 31
0.0
  0
ARC
  5
1D8
330
1F
100
AcDbEntity
  8
0
  6
Continuous
 62
     7
370
    15
100
AcDbCircle
 10
183.0370505251
 20
186.2524545219
 30
0.0
 40
5.500000000000057
100
AcDbArc
 50
180.0
 51
0.0
  0
LINE
  5
1D9
330
1F
100
AcDbEntity
  8
0
  6
Continuous
 62
     7
370
    15
100
AcDbLine
 10
195.5370505251
 20
111.7524545219
 30
0.0
 11
188.5370505251
 21
111.7524545219
 31
0.0
  0
LINE
  5
1DA
330
1F
100
AcDbEntity
  8
0
  6
Continuous
 62
     7
370
    15
100
AcDbLine
 10
188.5370505251
 20
111.7524545219
 30
0.0
 11
188.5370505251
 21
137.2524545219
 31
0.0
  0
ARC
  5
1DB
330
1F
100
AcDbEntity
  8
0
  6
Continuous
 62
     7
370
    15
100
AcDbCircle
 10
183.0370505251
 20
137.2524545219
 30
0.0
 40
5.5
100
AcDbArc
 50
0.0
 51
180.0
  0
LINE
  5
1DC
330
1F
100
AcDbEntity
  8
0
  6
Continuous
 62
     7
370
    15
100
AcDbLine
 10
177.5370505251
 20
137.2524545219
 30
0.0
 11
177.5370505251
 21
111.7524545219
 31
0.0
  0
LINE
  5
1DD
330
1F
100
AcDbEntity
  8
0
  6
Continuous
 62
     7
370
    15
100
AcDbLine
 10
177.5370505251
 20
111.7524545219
 30
0.0
 11
113.5370505251
 21
111.7524545219
 31
0.0
  0
LINE
  5
1DE
330
1F
100
AcDbEntity
  8
0
  6
Continuous
 62
     7
370
    15
100
AcDbLine
 10
102.5370505251
 20
211.7524545219
 30
0.0
 11
102.5370505251
 21
186.2524545219
 31
0.0
  0
LINE
  5
1DF
330
1F
100
AcDbEntity
  8
0
  6
Continuous
 62
     7
370
    15
100
AcDbLine
 10
113.5370505251
 20
186.2524545219
 30
0.0
 11
113.5370505251
 21
211.7524545219
 31
0.0
  0
LINE
  5
1E0
330
1F
100
AcDbEntity
  8
0
  6
Continuous
 62
     7
370
    15
100
AcDbLine
 10
188.5370505251
 20
186.2524545219
 30
0.0
 11
188.5370505251
 21
211.7524545219
 31
0.0
  0
LINE
  5
1E1
330
1F
100
AcDbEntity
  8
0
  6
Continuous
 62
     7
370
    15
100
AcDbLine
 10
177.5370505251
 20
211.7524545219
 30
0.0
 11
177.5370505251
 21
186.2524545219
 31
0.0
  0
LINE
  5
1E2
330
1F
100
AcDbEntity
  8
0
  6
Continuous
 62
     7
370
    15
100
AcDbLine
 10
95.5370505251
 20
211.7524545219
 30
0.0
 11
102.5370505251
 21
211.7524545219
 31
0.0
  0
LINE
  5
1E3
330
1F
100
AcDbEntity
  8
0
  6
Continuous
 62
     7
370
    15
100
AcDbLine
 10
188.5370505251
 20
211.7524545219
 30
0.0
 11
195.5370505251
 21
211.7524545219
 31
0.0
  0
LINE
  5
1E4
330
1F
100
AcDbEntity
  8
0
  6
Continuous
 62
     7
370
    15
100
AcDbLine
 10
195.5370505251
 20
211.7524545219
 30
0.0
 11
195.5370505251
 21
111.7524545219
 31
0.0
  0
ARC
  5
1E5
330
1F
100
AcDbEntity
  8
0
  6
Continuous
 62
     7
370
    15
100
AcDbCircle
 10
183.0370505251
 20
186.2524545219
 30
0.0
 40
3.299999999999983
100
AcDbArc
 50
180.0
 51
0.0
  0
LINE
  5
1E6
330
1F
100
AcDbEntity
  8
0
  6
Continuous
 62
     7
370
    15
100
AcDbLine
 10
186.3370505251
 20
186.2524545219
 30
0.0
 11
186.3370505251
 21
211.7524545219
 31
0.0
  0
LINE
  5
1E7
330
1F
100
AcDbEntity
  8
0
  6
Continuous
 62
     7
370
    15
100
AcDbLine
 10
179.7370505251
 20
211.7524545219
 30
0.0
 11
179.7370505251
 21
186.2524545219
 31
0.0
  0
LINE
  5
1E8
330
1F
100
AcDbEntity
  8
0
  6
Continuous
 62
     7
370
    15
100
AcDbLine
 10
179.7370505251
 20
211.7524545219
 30
0.0
 11
177.5370505251
 21
211.7524545219
 31
0.0
  0
LINE
  5
1E9
330
1F
100
AcDbEntity
  8
0
  6
Continuous
 62
     7
370
    15
100
AcDbLine
 10
188.5370505251
 20
211.7524545219
 30
0.0
 11
186.3370505251
 21
211.7524545219
 31
0.0
  0
ARC
  5
1EA
330
1F
100
AcDbEntity
  8
0
  6
Continuous
 62
     7
370
    15
100
AcDbCircle
 10
108.0370505251
 20
186.2524545219
 30
0.0
 40
3.300000000000054
100
AcDbArc
 50
180.0
 51
0.0
  0
LINE
  5
1EB
330
1F
100
AcDbEntity
  8
0
  6
Continuous
 62
     7
370
    15
100
AcDbLine
 10
104.7370505251
 20
211.7524545219
 30
0.0
 11
104.7370505251
 21
186.2524545219
 31
0.0
  0
LINE
  5
1EC
330
1F
100
AcDbEntity
  8
0
  6
Continuous
 62
     7
370
    15
100
AcDbLine
 10
111.3370505251
 20
186.2524545219
 30
0.0
 11
111.3370505251
 21
211.7524545219
 31
0.0
  0
LINE
  5
1ED
330
1F
100
AcDbEntity
  8
0
  6
Continuous
 62
     7
370
    15
100
AcDbLine
 10
113.5370505251
 20
211.7524545219
 30
0.0
 11
111.3370505251
 21
211.7524545219
 31
0.0
  0
LINE
  5
1EE
330
1F
100
AcDbEntity
  8
0
  6
Continuous
 62
     7
370
    15
100
AcDbLine
 10
104.7370505251
 20
211.7524545219
 30
0.0
 11
102.5370505251
 21
211.7524545219
 31
0.0
  0
LINE
  5
1EF
330
1F
100
AcDbEntity
  8
0
  6
Continuous
 62
     7
370
    15
100
AcDbLine
 10
111.3370505251
 20
111.7524545219
 30
0.0
 11
111.3370505251
 21
137.2524545219
 31
0.0
  0
ARC
  5
1F0
330
1F
100
AcDbEntity
  8
0
  6
Continuous
 62
     7
370
    15
100
AcDbCircle
 10
108.0370505251
 20
137.2524545219
 30
0.0
 40
3.299999999999997
100
AcDbArc
 50
0.0
 51
180.0
  0
LINE
  5
1F1
330
1F
100
AcDbEntity
  8
0
  6
Continuous
 62
     7
370
    15
100
AcDbLine
 10
104.7370505251
 20
137.2524545219
 30
0.0
 11
104.7370505251
 21
111.7524545219
 31
0.0
  0
LINE
  5
1F2
330
1F
100
AcDbEntity
  8
0
  6
Continuous
 62
     7
370
    15
100
AcDbLine
 10
111.3370505251
 20
111.7524545219
 30
0.0
 11
113.5370505251
 21
111.7524545219
 31
0.0
  0
LINE
  5
1F3
330
1F
100
AcDbEntity
  8
0
  6
Continuous
 62
     7
370
    15
100
AcDbLine
 10
102.5370505251
 20
111.7524545219
 30
0.0
 11
104.7370505251
 21
111.7524545219
 31
0.0
  0
LINE
  5
1F4
330
1F
100
AcDbEntity
  8
0
  6
Continuous
 62
     7
370
    15
100
AcDbLine
 10
179.7370505251
 20
137.2524545219
 30
0.0
 11
179.7370505251
 21
111.7524545219
 31
0.0
  0
LINE
  5
1F5
330
1F
100
AcDbEntity
  8
0
  6
Continuous
 62
     7
370
    15
100
AcDbLine
 10
186.3370505251
 20
111.7524545219
 30
0.0
 11
186.3370505251
 21
137.2524545219
 31
0.0
  0
ARC
  5
1F6
330
1F
100
AcDbEntity
  8
0
  6
Continuous
 62
     7
370
    15
100
AcDbCircle
 10
183.0370505251
 20
137.2524545219
 30
0.0
 40
3.300000000000011
100
AcDbArc
 50
0.0
 51
180.0
  0
LINE
  5
1F7
330
1F
100
AcDbEntity
  8
0
  6
Continuous
 62
     7
370
    15
100
AcDbLine
 10
177.5370505251
 20
111.7524545219
 30
0.0
 11
179.7370505251
 21
111.7524545219
 31
0.0
  0
LINE
  5
1F8
330
1F
100
AcDbEntity
  8
0
  6
Continuous
 62
     7
370
    15
100
AcDbLine
 10
186.3370505251
 20
111.7524545219
 30
0.0
 11
188.5370505251
 21
111.7524545219
 31
0.0
  0
LINE
  5
1F9
330
1F
100
AcDbEntity
  8
DIM
  6
HIDDEN
100
AcDbLine
 10
159.5370505251
 20
130.7524545219
 30
0.0
 11
162.5370505251
 21
133.7524545219
 31
0.0
  0
LINE
  5
1FA
330
1F
100
AcDbEntity
  8
DIM
  6
HIDDEN
100
AcDbLine
 10
162.5370505251
 20
133.7524545219
 30
0.0
 11
162.5370505251
 21
149.2524545219
 31
0.0
  0
LINE
  5
1FB
330
1F
100
AcDbEntity
  8
DIM
  6
HIDDEN
100
AcDbLine
 10
162.5370505251
 20
149.2524545219
 30
0.0
 11
177.5370505251
 21
149.2524545219
 31
0.0
  0
LINE
  5
1FC
330
1F
100
AcDbEntity
  8
DIM
  6
HIDDEN
100
AcDbLine
 10
177.5370505251
 20
149.2524545219
 30
0.0
 11
177.5370505251
 21
174.2524545219
 31
0.0
  0
LINE
  5
1FD
330
1F
100
AcDbEntity
  8
DIM
  6
HIDDEN
100
AcDbLine
 10
177.5370505251
 20
174.2524545219
 30
0.0
 11
162.5370505251
 21
174.2524545219
 31
0.0
  0
LINE
  5
1FE
330
1F
100
AcDbEntity
  8
DIM
  6
HIDDEN
100
AcDbLine
 10
162.5370505251
 20
174.2524545219
 30
0.0
 11
162.5370505251
 21
189.7524545219
 31
0.0
  0
LINE
  5
1FF
330
1F
100
AcDbEntity
  8
DIM
  6
HIDDEN
100
AcDbLine
 10
162.5370505251
 20
189.7524545219
 30
0.0
 11
159.5370505251
 21
192.7524545219
 31
0.0
  0
LINE
  5
200
330
1F
100
AcDbEntity
  8
DIM
  6
HIDDEN
100
AcDbLine
 10
159.5370505251
 20
192.7524545219
 30
0.0
 11
131.5370505251
 21
192.7524545219
 31
0.0
  0
LINE
  5
201
330
1F
100
AcDbEntity
  8
DIM
  6
HIDDEN
100
AcDbLine
 10
131.5370505251
 20
192.7524545219
 30
0.0
 11
128.5370505251
 21
189.7524545219
 31
0.0
  0
LINE
  5
202
330
1F
100
AcDbEntity
  8
DIM
  6
HIDDEN
100
AcDbLine
 10
128.5370505251
 20
189.7524545219
 30
0.0
 11
128.5370505251
 21
174.2524545219
 31
0.0
  0
LINE
  5
203
330
1F
100
AcDbEntity
  8
DIM
  6
HIDDEN
100
AcDbLine
 10
128.5370505251
 20
174.2524545219
 30
0.0
 11
113.5370505251
 21
174.2524545219
 31
0.0
  0
LINE
  5
204
330
1F
100
AcDbEntity
  8
DIM
  6
HIDDEN
100
AcDbLine
 10
113.5370505251
 20
174.2524545219
 30
0.0
 11
113.5370505251
 21
149.2524545219
 31
0.0
  0
LINE
  5
205
330
1F
100
AcDbEntity
  8
DIM
  6
HIDDEN
100
AcDbLine
 10
113.5370505251
 20
149.2524545219
 30
0.0
 11
128.5370505251
 21
149.2524545219
 31
0.0
  0
LINE
  5
206
330
1F
100
AcDbEntity
  8
DIM
  6
HIDDEN
100
AcDbLine
 10
128.5370505251
 20
149.2524545219
 30
0.0
 11
128.5370505251
 21
133.7524545219
 31
0.0
  0
LINE
  5
207
330
1F
100
AcDbEntity
  8
DIM
  6
HIDDEN
100
AcDbLine
 10
128.5370505251
 20
133.7524545219
 30
0.0
 11
131.5370505251
 21
130.7524545219
 31
0.0
  0
LINE
  5
208
330
1F
100
AcDbEntity
  8
DIM
  6
HIDDEN
100
AcDbLine
 10
131.5370505251
 20
130.7524545219
 30
0.0
 11
159.5370505251
 21
130.7524545219
 31
0.0
  0
DIMENSION
  5
209
330
1F
100
AcDbEntity
  8
DIM
100
AcDbDimension
  2
_D_1
 10
195.5370505251
 20
242.2665820738
 30
0.0
 11
145.5370505251
 21
242.2665820738
 31
0.0
 70
   160
  1
<>
 71
     2
 42
-1.0
  3
SLDDIMSTYLE0
100
AcDbAlignedDimension
 13
95.5370505251
 23
211.7524545219
 33
0.0
 14
195.5370505251
 24
211.7524545219
 34
0.0
 50
0.0
100
AcDbRotatedDimension
  0
DIMENSION
  5
213
330
1F
100
AcDbEntity
  8
DIM
100
AcDbDimension
  2
_D_2
 10
222.3909707232
 20
111.7524545219
 30
0.0
 11
222.3909707232
 21
161.7524545219
 31
0.0
 70
   160
  1
<>
 71
     2
 42
-1.0
  3
SLDDIMSTYLE0
100
AcDbAlignedDimension
 13
195.5370505251
 23
211.7524545219
 33
0.0
 14
195.5370505251
 24
111.7524545219
 34
0.0
 50
90.0
100
AcDbRotatedDimension
  0
DIMENSION
  5
21D
330
1F
100
AcDbEntity
  8
DIM
 62
     7
100
AcDbDimension
  2
_D_3
 10
145.5370505251
 20
220.2524545219
 30
0.0
 11
133.0370505251
 21
220.2524545219
 31
0.0
 70
   160
  1
<>
 71
     2
 42
-1.0
  3
SLDDIMSTYLE0
100
AcDbAlignedDimension
 13
120.5370505251
 23
165.2524545219
 33
0.0
 14
145.5370505251
 24
190.2524545219
 34
0.0
100
AcDbRotatedDimension
  0
DIMENSION
  5
227
330
1F
100
AcDbEntity
  8
DIM
 62
     7
100
AcDbDimension
  2
_D_4
 10
170.5370505251
 20
220.2524545219
 30
0.0
 11
158.0370505251
 21
220.2524545219
 31
0.0
 70
   160
  1
<>
 71
     2
 42
-1.0
  3
SLDDIMSTYLE0
100
AcDbAlignedDimension
 13
145.5370505251
 23
190.2524545219
 33
0.0
 14
170.5370505251
 24
165.2524545219
 34
0.0
100
AcDbRotatedDimension
  0
DIMENSION
  5
231
330
1F
100
AcDbEntity
  8
DIM
 62
     7
100
AcDbDimension
  2
_D_5
 10
108.0370505251
 20
230.4833028801
 30
0.0
 11
126.7870505251
 21
230.4833028801
 31
0.0
 70
   160
  1
<>
 71
     2
 42
-1.0
  3
SLDDIMSTYLE0
100
AcDbAlignedDimension
 13
145.5370505251
 23
190.2524545219
 33
0.0
 14
108.0370505251
 24
186.2524545219
 34
0.0
100
AcDbRotatedDimension
  0
DIMENSION
  5
23B
330
1F
100
AcDbEntity
  8
DIM
 62
     7
100
AcDbDimension
  2
_D_6
 10
183.0370505251
 20
230.4833028801
 30
0.0
 11
164.2870505251
 21
230.4833028801
 31
0.0
 70
   160
  1
<>
 71
     2
 42
-1.0
  3
SLDDIMSTYLE0
100
AcDbAlignedDimension
 13
145.5370505251
 23
190.2524545219
 33
0.0
 14
183.0370505251
 24
186.2524545219
 34
0.0
100
AcDbRotatedDimension
  0
DIMENSION
  5
245
330
1F
100
AcDbEntity
  8
DIM
 62
     7
100
AcDbDimension
  2
_D_7
 10
211.1479788321
 20
161.7524545219
 30
0.0
 11
211.1479788321
 21
174.2524545219
 31
0.0
 70
   160
  1
<>
 71
     2
 42
-1.0
  3
SLDDIMSTYLE0
100
AcDbAlignedDimension
 13
149.0370505251
 23
186.7524545219
 33
0.0
 14
174.0370505251
 24
161.7524545219
 34
0.0
 50
90.0
100
AcDbRotatedDimension
  0
DIMENSION
  5
24F
330
1F
100
AcDbEntity
  8
DIM
 62
     7
100
AcDbDimension
  2
_D_8
 10
211.1479788321
 20
136.7524545219
 30
0.0
 11
211.1479788321
 21
149.2524545219
 31
0.0
 70
   160
  1
<>
 71
     2
 42
-1.0
  3
SLDDIMSTYLE0
100
AcDbAlignedDimension
 13
174.0370505251
 23
161.7524545219
 33
0.0
 14
149.0370505251
 24
136.7524545219
 34
0.0
 50
90.0
100
AcDbRotatedDimension
  0
DIMENSION
  5
259
330
1F
100
AcDbEntity
  8
DIM
 62
     7
100
AcDbDimension
  2
_D_9
 10
85.1083163305
 20
137.2524545219
 30
0.0
 11
85.1083163305
 21
161.7524545219
 31
0.0
 70
   160
  1
<>
 71
     2
 42
-1.0
  3
SLDDIMSTYLE0
100
AcDbAlignedDimension
 13
101.5370505251
 23
186.2524545219
 33
0.0
 14
101.5370505251
 24
137.2524545219
 34
0.0
 50
90.0
100
AcDbRotatedDimension
  0
DIMENSION
  5
263
330
1F
100
AcDbEntity
  8
DIM
100
AcDbDimension
  2
_D_10
 10
122.304817478
 20
159.9846875689
 30
0.0
 11
63.7098711015
 21
210.8634881879
 31
0.0
 70
   163
  1
5 HOLES,\P M6
 71
     1
 42
-1.0
  3
SLDDIMSTYLE1
100
AcDbDiametricDimension
 15
118.7692835721
 25
163.5202214748
 35
0.0
 40
0.0
  0
INSERT
  5
273
102
{ACAD_REACTORS
330
275
102
}
330
1F
100
AcDbEntity
  8
DIM
100
AcDbBlockReference
  2
SW_NOTE_2
 10
82.9345794393
 20
120.5607476636
 30
0.0
  0
LEADER
  5
275
330
1F
100
AcDbEntity
  8
DIM
100
AcDbLeader
  3
SLDDIMSTYLE2
 73
     2
 76
     3
 10
113.5370505251
 20
152.2263889102
 30
0.0
 10
84.4345794393
 20
120.5607476636
 30
0.0
 10
82.9345794393
 20
120.5607476636
 30
0.0
340
273
  0
INSERT
  5
281
330
1F
100
AcDbEntity
  8
DIM
 62
     7
100
AcDbBlockReference
  2
SW_CENTERMARKSYMBOL_0
 10
145.5370505251
 20
186.7524545219
 30
0.0
  0
INSERT
  5
28D
330
1F
100
AcDbEntity
  8
DIM
 62
     7
100
AcDbBlockReference
  2
SW_CENTERMARKSYMBOL_1
 10
120.5370505251
 20
161.7524545219
 30
0.0
  0
INSERT
  5
299
330
1F
100
AcDbEntity
  8
DIM
 62
     7
100
AcDbBlockReference
  2
SW_CENTERMARKSYMBOL_2
 10
170.5370505251
 20
161.7524545219
 30
0.0
  0
INSERT
  5
2A5
330
1F
100
AcDbEntity
  8
DIM
 62
     7
100
AcDbBlockReference
  2
SW_CENTERMARKSYMBOL_3
 10
145.5370505251
 20
136.7524545219
 30
0.0
  0
INSERT
  5
2B1
330
1F
100
AcDbEntity
  8
DIM
 62
     7
100
AcDbBlockReference
  2
SW_CENTERMARKSYMBOL_4
 10
108.0370505251
 20
186.2524545219
 30
0.0
  0
INSERT
  5
2BD
330
1F
100
AcDbEntity
  8
DIM
 62
     7
100
AcDbBlockReference
  2
SW_CENTERMARKSYMBOL_5
 10
183.0370505251
 20
186.2524545219
 30
0.0
  0
INSERT
  5
2C9
330
1F
100
AcDbEntity
  8
DIM
 62
     7
100
AcDbBlockReference
  2
SW_CENTERMARKSYMBOL_6
 10
183.0370505251
 20
137.2524545219
 30
0.0
  0
INSERT
  5
2D5
330
1F
100
AcDbEntity
  8
DIM
 62
     7
100
AcDbBlockReference
  2
SW_CENTERMARKSYMBOL_7
 10
108.0370505251
 20
137.2524545219
 30
0.0
  0
LINE
  5
2D6
330
1F
100
AcDbEntity
  8
DIM
  6
CENTERX2
370
     0
100
AcDbLine
 10
145.5370505251
 20
214.7524545219
 30
0.0
 11
145.5370505251
 21
108.7524545219
 31
0.0
  0
LINE
  5
2D7
330
1F
100
AcDbEntity
  8
DIM
  6
CENTERX2
370
     0
100
AcDbLine
 10
182.7370505251
 20
161.7524545219
 30
0.0
 11
108.3370505251
 21
161.7524545219
 31
0.0
  0
ENDSEC
  0
SECTION
  2
OBJECTS
  0
DICTIONARY
  5
C
330
0
100
AcDbDictionary
281
     1
  3
ACAD_GROUP
350
D
  3
ACAD_LAYOUT
350
1A
  3
ACAD_MLINESTYLE
350
17
  3
ACAD_PLOTSETTINGS
350
19
  3
ACAD_PLOTSTYLENAME
350
E
  3
ACAD_SCALELIST
350
47
  0
DICTIONARY
  5
D
102
{ACAD_REACTORS
330
C
102
}
330
C
100
AcDbDictionary
281
     1
  0
DICTIONARY
  5
1A
102
{ACAD_REACTORS
330
C
102
}
330
C
100
AcDbDictionary
281
     1
  3
Layout1
350
1E
  3
Layout2
350
26
  3
Model
350
22
  0
DICTIONARY
  5
17
102
{ACAD_REACTORS
330
C
102
}
330
C
100
AcDbDictionary
281
     1
  3
Standard
350
18
  0
DICTIONARY
  5
19
102
{ACAD_REACTORS
330
C
102
}
330
C
100
AcDbDictionary
281
     1
  0
ACDBDICTIONARYWDFLT
  5
E
102
{ACAD_REACTORS
330
C
102
}
330
C
100
AcDbDictionary
281
     1
  3
Normal
350
F
100
AcDbDictionaryWithDefault
340
F
  0
DICTIONARY
  5
47
102
{ACAD_REACTORS
330
C
102
}
330
C
100
AcDbDictionary
281
     1
  3
A0
350
48
  3
A1
350
49
  3
A2
350
4A
  3
A3
350
4B
  3
A4
350
4C
  3
A5
350
4D
  3
A6
350
4E
  3
A7
350
4F
  3
A8
350
50
  3
A9
350
51
  3
B0
350
52
  3
B1
350
53
  3
B2
350
54
  3
B3
350
55
  3
B4
350
56
  3
B5
350
57
  3
B6
350
58
  3
B7
350
59
  3
B8
350
5A
  3
B9
350
5B
  3
C0
350
5C
  3
C1
350
5D
  3
C2
350
5E
  3
C3
350
5F
  3
C4
350
60
  3
C5
350
61
  3
C6
350
62
  3
C7
350
63
  3
C8
350
64
  3
C9
350
65
  3
D0
350
66
  3
D1
350
67
  3
D2
350
68
  0
LAYOUT
  5
1E
102
{ACAD_REACTORS
330
1A
102
}
330
1A
100
AcDbPlotSettings
  1

  2
none_device
  4

  6

 40
0.0
 41
0.0
 42
0.0
 43
0.0
 44
0.0
 45
0.0
 46
0.0
 47
0.0
 48
0.0
 49
0.0
140
0.0
141
0.0
142
1.0
143
1.0
 70
   688
 72
     1
 73
     0
 74
     5
  7

 75
    16
147
1.0
148
0.0
149
0.0
100
AcDbLayout
  1
Layout1
 70
     1
 71
     1
 10
0.0
 20
0.0
 11
420.0
 21
297.0
 12
0.0
 22
0.0
 32
0.0
 14
1.0000000000E+20
 24
1.0000000000E+20
 34
1.0000000000E+20
 15
-1.0000000000E+20
 25
-1.0000000000E+20
 35
-1.0000000000E+20
146
0.0
 13
0.0
 23
0.0
 33
0.0
 16
1.0
 26
0.0
 36
0.0
 17
0.0
 27
1.0
 37
0.0
 76
     0
330
1B
  0
LAYOUT
  5
26
102
{ACAD_REACTORS
330
1A
102
}
330
1A
100
AcDbPlotSettings
  1

  2
none_device
  4

  6

 40
0.0
 41
0.0
 42
0.0
 43
0.0
 44
0.0
 45
0.0
 46
0.0
 47
0.0
 48
0.0
 49
0.0
140
0.0
141
0.0
142
1.0
143
1.0
 70
   688
 72
     1
 73
     0
 74
     5
  7

 75
    16
147
1.0
148
0.0
149
0.0
100
AcDbLayout
  1
Layout2
 70
     1
 71
     2
 10
0.0
 20
0.0
 11
0.0
 21
0.0
 12
0.0
 22
0.0
 32
0.0
 14
0.0
 24
0.0
 34
0.0
 15
0.0
 25
0.0
 35
0.0
146
0.0
 13
0.0
 23
0.0
 33
0.0
 16
1.0
 26
0.0
 36
0.0
 17
0.0
 27
1.0
 37
0.0
 76
     0
330
23
  0
LAYOUT
  5
22
102
{ACAD_REACTORS
330
1A
102
}
330
1A
100
AcDbPlotSettings
  1

  2
none_device
  4
Letter_(8.50_x_11.00_Inches)
  6

 40
6.35
 41
6.35
 42
6.35000508
 43
6.35000508
 44
215.9
 45
279.4
 46
0.0
 47
0.0
 48
0.0
 49
0.0
140
0.0
141
0.0
142
1.0
143
1.0
 70
  1712
 72
     1
 73
     0
 74
     0
  7

 75
     0
147
1.0
148
0.0
149
0.0
100
AcDbLayout
  1
Model
 70
     1
 71
     0
 10
0.0
 20
0.0
 11
445.5
 21
315.0
 12
0.0
 22
0.0
 32
0.0
 14
0.0
 24
0.0
 34
0.0
 15
445.5
 25
315.0
 35
0.0
146
0.0
 13
0.0
 23
0.0
 33
0.0
 16
1.0
 26
0.0
 36
0.0
 17
0.0
 27
1.0
 37
0.0
 76
     0
330
1F
331
29
  0
MLINESTYLE
  5
18
102
{ACAD_REACTORS
330
17
102
}
330
17
100
AcDbMlineStyle
  2
Standard
 70
     0
  3

 62
   256
 51
90.0
 52
90.0
 71
     2
 49
0.5
 62
   256
  6
BYLAYER
 49
-0.5
 62
   256
  6
BYLAYER
  0
ACDBPLACEHOLDER
  5
F
102
{ACAD_REACTORS
330
E
102
}
330
E
  0
SCALE
  5
48
102
{ACAD_REACTORS
330
47
102
}
330
47
100
AcDbScale
 70
     0
300
1:1
140
1.0
141
1.0
290
     1
  0
SCALE
  5
49
102
{ACAD_REACTORS
330
47
102
}
330
47
100
AcDbScale
 70
     0
300
1:2
140
1.0
141
2.0
290
     0
  0
SCALE
  5
4A
102
{ACAD_REACTORS
330
47
102
}
330
47
100
AcDbScale
 70
     0
300
1:4
140
1.0
141
4.0
290
     0
  0
SCALE
  5
4B
102
{ACAD_REACTORS
330
47
102
}
330
47
100
AcDbScale
 70
     0
300
1:5
140
1.0
141
5.0
290
     0
  0
SCALE
  5
4C
102
{ACAD_REACTORS
330
47
102
}
330
47
100
AcDbScale
 70
     0
300
1:8
140
1.0
141
8.0
290
     0
  0
SCALE
  5
4D
102
{ACAD_REACTORS
330
47
102
}
330
47
100
AcDbScale
 70
     0
300
1:10
140
1.0
141
10.0
290
     0
  0
SCALE
  5
4E
102
{ACAD_REACTORS
330
47
102
}
330
47
100
AcDbScale
 70
     0
300
1:16
140
1.0
141
16.0
290
     0
  0
SCALE
  5
4F
102
{ACAD_REACTORS
330
47
102
}
330
47
100
AcDbScale
 70
     0
300
1:20
140
1.0
141
20.0
290
     0
  0
SCALE
  5
50
102
{ACAD_REACTORS
330
47
102
}
330
47
100
AcDbScale
 70
     0
300
1:30
140
1.0
141
30.0
290
     0
  0
SCALE
  5
51
102
{ACAD_REACTORS
330
47
102
}
330
47
100
AcDbScale
 70
     0
300
1:40
140
1.0
141
40.0
290
     0
  0
SCALE
  5
52
102
{ACAD_REACTORS
330
47
102
}
330
47
100
AcDbScale
 70
     0
300
1:50
140
1.0
141
50.0
290
     0
  0
SCALE
  5
53
102
{ACAD_REACTORS
330
47
102
}
330
47
100
AcDbScale
 70
     0
300
1:100
140
1.0
141
100.0
290
     0
  0
SCALE
  5
54
102
{ACAD_REACTORS
330
47
102
}
330
47
100
AcDbScale
 70
     0
300
2:1
140
2.0
141
1.0
290
     0
  0
SCALE
  5
55
102
{ACAD_REACTORS
330
47
102
}
330
47
100
AcDbScale
 70
     0
300
4:1
140
4.0
141
1.0
290
     0
  0
SCALE
  5
56
102
{ACAD_REACTORS
330
47
102
}
330
47
100
AcDbScale
 70
     0
300
8:1
140
8.0
141
1.0
290
     0
  0
SCALE
  5
57
102
{ACAD_REACTORS
330
47
102
}
330
47
100
AcDbScale
 70
     0
300
10:1
140
10.0
141
1.0
290
     0
  0
SCALE
  5
58
102
{ACAD_REACTORS
330
47
102
}
330
47
100
AcDbScale
 70
     0
300
100:1
140
100.0
141
1.0
290
     0
  0
SCALE
  5
59
102
{ACAD_REACTORS
330
47
102
}
330
47
100
AcDbScale
 70
     0
300
1/128" = 1'-0"
140
0.0078125
141
12.0
290
     0
  0
SCALE
  5
5A
102
{ACAD_REACTORS
330
47
102
}
330
47
100
AcDbScale
 70
     0
300
1/64" = 1'-0"
140
0.015625
141
12.0
290
     0
  0
SCALE
  5
5B
102
{ACAD_REACTORS
330
47
102
}
330
47
100
AcDbScale
 70
     0
300
1/32" = 1'-0"
140
0.03125
141
12.0
290
     0
  0
SCALE
  5
5C
102
{ACAD_REACTORS
330
47
102
}
330
47
100
AcDbScale
 70
     0
300
1/16" = 1'-0"
140
0.0625
141
12.0
290
     0
  0
SCALE
  5
5D
102
{ACAD_REACTORS
330
47
102
}
330
47
100
AcDbScale
 70
     0
300
3/32" = 1'-0"
140
0.09375
141
12.0
290
     0
  0
SCALE
  5
5E
102
{ACAD_REACTORS
330
47
102
}
330
47
100
AcDbScale
 70
     0
300
1/8" = 1'-0"
140
0.125
141
12.0
290
     0
  0
SCALE
  5
5F
102
{ACAD_REACTORS
330
47
102
}
330
47
100
AcDbScale
 70
     0
300
3/16" = 1'-0"
140
0.1875
141
12.0
290
     0
  0
SCALE
  5
60
102
{ACAD_REACTORS
330
47
102
}
330
47
100
AcDbScale
 70
     0
300
1/4" = 1'-0"
140
0.25
141
12.0
290
     0
  0
SCALE
  5
61
102
{ACAD_REACTORS
330
47
102
}
330
47
100
AcDbScale
 70
     0
300
3/8" = 1'-0"
140
0.375
141
12.0
290
     0
  0
SCALE
  5
62
102
{ACAD_REACTORS
330
47
102
}
330
47
100
AcDbScale
 70
     0
300
1/2" = 1'-0"
140
0.5
141
12.0
290
     0
  0
SCALE
  5
63
102
{ACAD_REACTORS
330
47
102
}
330
47
100
AcDbScale
 70
     0
300
3/4" = 1'-0"
140
0.75
141
12.0
290
     0
  0
SCALE
  5
64
102
{ACAD_REACTORS
330
47
102
}
330
47
100
AcDbScale
 70
     0
300
1" = 1'-0"
140
1.0
141
12.0
290
     0
  0
SCALE
  5
65
102
{ACAD_REACTORS
330
47
102
}
330
47
100
AcDbScale
 70
     0
300
1-1/2" = 1'-0"
140
1.5
141
12.0
290
     0
  0
SCALE
  5
66
102
{ACAD_REACTORS
330
47
102
}
330
47
100
AcDbScale
 70
     0
300
3" = 1'-0"
140
3.0
141
12.0
290
     0
  0
SCALE
  5
67
102
{ACAD_REACTORS
330
47
102
}
330
47
100
AcDbScale
 70
     0
300
6" = 1'-0"
140
6.0
141
12.0
290
     0
  0
SCALE
  5
68
102
{ACAD_REACTORS
330
47
102
}
330
47
100
AcDbScale
 70
     0
300
1'-0" = 1'-0"
140
12.0
141
12.0
290
     0
  0
ENDSEC
  0
EOF
