  0
SECTION
  2
HEADER
  9
$ACADVER
  1
AC1015
  9
$ACADMAINTVER
 70
     6
  9
$DWGCODEPAGE
  3
ANSI_950
  9
$INSBASE
 10
0.0
 20
0.0
 30
0.0
  9
$EXTMIN
 10
0.0
 20
0.0
 30
0.0
  9
$EXTMAX
 10
475.2
 20
336.0
 30
0.0
  9
$LIMMIN
 10
0.0
 20
0.0
  9
$LIMMAX
 10
475.2
 20
336.0
  9
$ORTHOMODE
 70
     0
  9
$REGENMODE
 70
     1
  9
$FILLMODE
 70
     1
  9
$QTEXTMODE
 70
     0
  9
$MIRRTEXT
 70
     1
  9
$LTSCALE
 40
1.6
  9
$ATTMODE
 70
     1
  9
$TEXTSIZE
 40
5.6444444444
  9
$TRACEWID
 40
1.0
  9
$TEXTSTYLE
  7
STANDARD
  9
$CLAYER
  8
0
  9
$CELTYPE
  6
ByLayer
  9
$CECOLOR
 62
   256
  9
$CELTSCALE
 40
1.0
  9
$DISPSILH
 70
     0
  9
$DIMSCALE
 40
1.0
  9
$DIMASZ
 40
3.2
  9
$DIMEXO
 40
1.6
  9
$DIMDLI
 40
3.75
  9
$DIMRND
 40
0.0
  9
$DIMDLE
 40
0.0
  9
$DIMEXE
 40
1.6
  9
$DIMTP
 40
0.0
  9
$DIMTM
 40
0.0
  9
$DIMTXT
 40
4.0
  9
$DIMCEN
 40
2.5
  9
$DIMTSZ
 40
0.0
  9
$DIMTOL
 70
     0
  9
$DIMLIM
 70
     0
  9
$DIMTIH
 70
     1
  9
$DIMTOH
 70
     1
  9
$DIMSE1
 70
     0
  9
$DIMSE2
 70
     0
  9
$DIMTAD
 70
     1
  9
$DIMZIN
 70
     0
  9
$DIMBLK
  1

  9
$DIMASO
 70
     1
  9
$DIMSHO
 70
     1
  9
$DIMPOST
  1

  9
$DIMAPOST
  1

  9
$DIMALT
 70
     0
  9
$DIMALTD
 70
     3
  9
$DIMALTF
 40
0.0393700787
  9
$DIMLFAC
 40
1.0
  9
$DIMTOFL
 70
     1
  9
$DIMTVP
 40
0.0
  9
$DIMTIX
 70
     0
  9
$DIMSOXD
 70
     0
  9
$DIMSAH
 70
     0
  9
$DIMBLK1
  1

  9
$DIMBLK2
  1

  9
$DIMSTYLE
  2
ISO-25
  9
$DIMCLRD
 70
     0
  9
$DIMCLRE
 70
     0
  9
$DIMCLRT
 70
     0
  9
$DIMTFAC
 40
1.0
  9
$DIMGAP
 40
1.6
  9
$DIMJUST
 70
     0
  9
$DIMSD1
 70
     0
  9
$DIMSD2
 70
     0
  9
$DIMTOLJ
 70
     0
  9
$DIMTZIN
 70
     0
  9
$DIMALTZ
 70
     0
  9
$DIMALTTZ
 70
     0
  9
$DIMUPT
 70
     0
  9
$DIMDEC
 70
     2
  9
$DIMTDEC
 70
     2
  9
$DIMALTU
 70
     2
  9
$DIMALTTD
 70
     3
  9
$DIMTXSTY
  7
STANDARD
  9
$DIMAUNIT
 70
     0
  9
$DIMADEC
 70
     1
  9
$DIMALTRND
 40
0.0
  9
$DIMAZIN
 70
     0
  9
$DIMDSEP
 70
    44
  9
$DIMATFIT
 70
     3
  9
$DIMFRAC
 70
     0
  9
$DIMLDRBLK
  1

  9
$DIMLUNIT
 70
     2
  9
$DIMLWD
 70
    -2
  9
$DIMLWE
 70
    -2
  9
$DIMTMOVE
 70
     0
  9
$LUNITS
 70
     2
  9
$LUPREC
 70
     2
  9
$SKETCHINC
 40
1.0
  9
$FILLETRAD
 40
10.0
  9
$AUNITS
 70
     0
  9
$AUPREC
 70
     1
  9
$MENU
  1
.
  9
$ELEVATION
 40
0.0
  9
$PELEVATION
 40
0.0
  9
$THICKNESS
 40
0.0
  9
$LIMCHECK
 70
     0
  9
$CHAMFERA
 40
0.0
  9
$CHAMFERB
 40
0.0
  9
$CHAMFERC
 40
0.0
  9
$CHAMFERD
 40
0.0
  9
$SKPOLY
 70
     0
  9
$TDCREATE
 40
2457504.438596944
  9
$TDUCREATE
 40
2457504.105263611
  9
$TDUPDATE
 40
2457504.438603993
  9
$TDUUPDATE
 40
2457504.10527066
  9
$TDINDWG
 40
0.0000000116
  9
$TDUSRTIMER
 40
0.0000000116
  9
$USRTIMER
 70
     1
  9
$ANGBASE
 50
0.0
  9
$ANGDIR
 70
     0
  9
$PDMODE
 70
     0
  9
$PDSIZE
 40
-1.0
  9
$PLINEWID
 40
0.0
  9
$SPLFRAME
 70
     0
  9
$SPLINETYPE
 70
     6
  9
$SPLINESEGS
 70
     8
  9
$HANDSEED
  5
2D8
  9
$SURFTAB1
 70
     6
  9
$SURFTAB2
 70
     6
  9
$SURFTYPE
 70
     6
  9
$SURFU
 70
     6
  9
$SURFV
 70
     6
  9
$UCSBASE
  2

  9
$UCSNAME
  2

  9
$UCSORG
 10
0.0
 20
0.0
 30
0.0
  9
$UCSXDIR
 10
1.0
 20
0.0
 30
0.0
  9
$UCSYDIR
 10
0.0
 20
1.0
 30
0.0
  9
$UCSORTHOREF
  2

  9
$UCSORTHOVIEW
 70
     0
  9
$UCSORGTOP
 10
0.0
 20
0.0
 30
0.0
  9
$UCSORGBOTTOM
 10
0.0
 20
0.0
 30
0.0
  9
$UCSORGLEFT
 10
0.0
 20
0.0
 30
0.0
  9
$UCSORGRIGHT
 10
0.0
 20
0.0
 30
0.0
  9
$UCSORGFRONT
 10
0.0
 20
0.0
 30
0.0
  9
$UCSORGBACK
 10
0.0
 20
0.0
 30
0.0
  9
$PUCSBASE
  2

  9
$PUCSNAME
  2

  9
$PUCSORG
 10
0.0
 20
0.0
 30
0.0
  9
$PUCSXDIR
 10
1.0
 20
0.0
 30
0.0
  9
$PUCSYDIR
 10
0.0
 20
1.0
 30
0.0
  9
$PUCSORTHOREF
  2

  9
$PUCSORTHOVIEW
 70
     0
  9
$PUCSORGTOP
 10
0.0
 20
0.0
 30
0.0
  9
$PUCSORGBOTTOM
 10
0.0
 20
0.0
 30
0.0
  9
$PUCSORGLEFT
 10
0.0
 20
0.0
 30
0.0
  9
$PUCSORGRIGHT
 10
0.0
 20
0.0
 30
0.0
  9
$PUCSORGFRONT
 10
0.0
 20
0.0
 30
0.0
  9
$PUCSORGBACK
 10
0.0
 20
0.0
 30
0.0
  9
$USERI1
 70
     0
  9
$USERI2
 70
     0
  9
$USERI3
 70
     0
  9
$USERI4
 70
     0
  9
$USERI5
 70
     0
  9
$USERR1
 40
0.0
  9
$USERR2
 40
0.0
  9
$USERR3
 40
0.0
  9
$USERR4
 40
0.0
  9
$USERR5
 40
0.0
  9
$WORLDVIEW
 70
     1
  9
$SHADEDGE
 70
     3
  9
$SHADEDIF
 70
    70
  9
$TILEMODE
 70
     1
  9
$MAXACTVP
 70
    64
  9
$PINSBASE
 10
0.0
 20
0.0
 30
0.0
  9
$PLIMCHECK
 70
     0
  9
$PEXTMIN
 10
1.0000000000E+20
 20
1.0000000000E+20
 30
1.0000000000E+20
  9
$PEXTMAX
 10
-1.0000000000E+20
 20
-1.0000000000E+20
 30
-1.0000000000E+20
  9
$PLIMMIN
 10
0.0
 20
0.0
  9
$PLIMMAX
 10
420.0
 20
297.0
  9
$UNITMODE
 70
     0
  9
$VISRETAIN
 70
     1
  9
$PLINEGEN
 70
     0
  9
$PSLTSCALE
 70
     1
  9
$TREEDEPTH
 70
  3020
  9
$CMLSTYLE
  2
Standard
  9
$CMLJUST
 70
     0
  9
$CMLSCALE
 40
20.0
  9
$PROXYGRAPHICS
 70
     1
  9
$MEASUREMENT
 70
     1
  9
$CELWEIGHT
370
    -1
  9
$ENDCAPS
280
     0
  9
$JOINSTYLE
280
     0
  9
$LWDISPLAY
290
     1
  9
$INSUNITS
 70
     4
  9
$HYPERLINKBASE
  1

  9
$STYLESHEET
  1

  9
$XEDIT
290
     1
  9
$CEPSNTYPE
380
     0
  9
$PSTYLEMODE
290
     1
  9
$FINGERPRINTGUID
  2
{0A474D9B-FA83-4D29-B2ED-CA10E2255CA7}
  9
$VERSIONGUID
  2
{FAEB1C32-E019-11D5-929B-00C0DF256EC4}
  9
$EXTNAMES
290
     1
  9
$PSVPSCALE
 40
0.0
  9
$OLESTARTUP
290
     0
  0
ENDSEC
  0
SECTION
  2
CLASSES
  0
CLASS
  1
ACDBDICTIONARYWDFLT
  2
AcDbDictionaryWithDefault
  3
ObjectDBX Classes
 90
        0
280
     0
281
     0
  0
CLASS
  1
VISUALSTYLE
  2
AcDbVisualStyle
  3
ObjectDBX Classes
 90
     4095
280
     0
281
     0
  0
CLASS
  1
MATERIAL
  2
AcDbMaterial
  3
ObjectDBX Classes
 90
     1153
280
     0
281
     0
  0
CLASS
  1
SCALE
  2
AcDbScale
  3
ObjectDBX Classes
 90
     1153
280
     0
281
     0
  0
CLASS
  1
TABLESTYLE
  2
AcDbTableStyle
  3
ObjectDBX Classes
 90
     4095
280
     0
281
     0
  0
CLASS
  1
MLEADERSTYLE
  2
AcDbMLeaderStyle
  3
ACDB_MLEADERSTYLE_CLASS
 90
     4095
280
     0
281
     0
  0
CLASS
  1
SUN
  2
AcDbSun
  3
SCENEOE
 90
     1153
280
     0
281
     0
  0
CLASS
  1
ACDBPLACEHOLDER
  2
AcDbPlaceHolder
  3
ObjectDBX Classes
 90
        0
280
     0
281
     0
  0
CLASS
  1
LAYOUT
  2
AcDbLayout
  3
ObjectDBX Classes
 90
        0
280
     0
281
     0
  0
ENDSEC
  0
SECTION
  2
TABLES
  0
TABLE
  2
VPORT
  5
8
330
0
100
AcDbSymbolTable
 70
     1
  0
VPORT
  5
29
330
8
100
AcDbSymbolTableRecord
100
AcDbViewportTableRecord
  2
*Active
 70
     0
 10
0.0
 20
0.0
 11
1.0
 21
1.0
 12
237.6
 22
168.0
 13
0.0
 23
0.0
 14
10.0
 24
10.0
 15
10.0
 25
10.0
 16
0.0
 26
0.0
 36
1.0
 17
0.0
 27
0.0
 37
0.0
 40
336.0
 41
1.4142857143
 42
50.0
 43
0.0
 44
0.0
 50
0.0
 51
0.0
 71
     0
 72
  2000
 73
     1
 74
     3
 75
     0
 76
     0
 77
     0
 78
     0
281
     0
 65
     1
110
0.0
120
0.0
130
0.0
111
1.0
121
0.0
131
0.0
112
0.0
122
1.0
132
0.0
 79
     0
146
0.0
  0
ENDTAB
  0
TABLE
  2
LTYPE
  5
5
330
0
100
AcDbSymbolTable
 70
     6
  0
LTYPE
  5
14
330
5
100
AcDbSymbolTableRecord
100
AcDbLinetypeTableRecord
  2
ByBlock
 70
     0
  3

 72
    65
 73
     0
 40
0.0
  0
LTYPE
  5
15
330
5
100
AcDbSymbolTableRecord
100
AcDbLinetypeTableRecord
  2
ByLayer
 70
     0
  3

 72
    65
 73
     0
 40
0.0
  0
LTYPE
  5
16
330
5
100
AcDbSymbolTableRecord
100
AcDbLinetypeTableRecord
  2
Continuous
 70
     0
  3
Solid line
 72
    65
 73
     0
 40
0.0
  0
LTYPE
  5
6E
330
5
100
AcDbSymbolTableRecord
100
AcDbLinetypeTableRecord
  2
HIDDEN
 70
     0
  3
Hidden __ __ __ __ __ __ __ __ __ __ __ __ __ __
 72
    65
 73
     2
 40
1.905
 49
1.27
 74
     0
 49
-0.635
 74
     0
  0
LTYPE
  5
6F
330
5
100
AcDbSymbolTableRecord
100
AcDbLinetypeTableRecord
  2
PHANTOM
 70
     0
  3
Phantom ______  __  __  ______  __  __  ______
 72
    65
 73
     6
 40
12.7
 49
6.35
 74
     0
 49
-1.27
 74
     0
 49
1.27
 74
     0
 49
-1.27
 74
     0
 49
1.27
 74
     0
 49
-1.27
 74
     0
  0
LTYPE
  5
70
330
5
100
AcDbSymbolTableRecord
100
AcDbLinetypeTableRecord
  2
CENTER
 70
     0
  3
Center ____ _ ____ _ ____ _ ____ _ ____ _ ____
 72
    65
 73
     4
 40
10.16
 49
6.35
 74
     0
 49
-1.27
 74
     0
 49
1.27
 74
     0
 49
-1.27
 74
     0
  0
LTYPE
  5
71
330
5
100
AcDbSymbolTableRecord
100
AcDbLinetypeTableRecord
  2
CENTERX2
 70
     0
  3
Center (2x) ________  __  ________  __  _____
 72
    65
 73
     4
 40
20.32
 49
12.7
 74
     0
 49
-2.54
 74
     0
 49
2.54
 74
     0
 49
-2.54
 74
     0
  0
LTYPE
  5
72
330
5
100
AcDbSymbolTableRecord
100
AcDbLinetypeTableRecord
  2
DOT2
 70
     0
  3
Dot (.5x) ........................................
 72
    65
 73
     2
 40
0.635
 49
0.0
 74
     0
 49
-0.635
 74
     0
  0
ENDTAB
  0
TABLE
  2
LAYER
  5
2
330
0
100
AcDbSymbolTable
 70
     8
  0
LAYER
  5
10
330
2
100
AcDbSymbolTableRecord
100
AcDbLayerTableRecord
  2
0
 70
     0
 62
     7
  6
Continuous
370
    -3
390
F
  0
LAYER
  5
73
330
2
100
AcDbSymbolTableRecord
100
AcDbLayerTableRecord
  2
SLD-0
 70
     0
 62
   179
  6
Continuous
370
    15
390
F
  0
LAYER
  5
74
330
2
100
AcDbSymbolTableRecord
100
AcDbLayerTableRecord
  2
輪廓線
 70
     0
 62
   219
  6
Continuous
370
    15
390
F
  0
LAYER
  5
75
330
2
100
AcDbSymbolTableRecord
100
AcDbLayerTableRecord
  2
DIM
 70
     0
 62
     7
  6
Continuous
370
    -3
390
F
  0
LAYER
  5
76
330
2
100
AcDbSymbolTableRecord
100
AcDbLayerTableRecord
  2
中心線
 70
     0
 62
     1
  6
CENTERX2
370
    -3
390
F
  0
LAYER
  5
77
330
2
100
AcDbSymbolTableRecord
100
AcDbLayerTableRecord
  2
虛線
 70
     0
 62
     6
  6
HIDDEN
370
    -3
390
F
  0
LAYER
  5
78
330
2
100
AcDbSymbolTableRecord
100
AcDbLayerTableRecord
  2
SECTION
 70
     0
 62
     5
  6
PHANTOM
370
    15
390
F
  0
LAYER
  5
79
330
2
100
AcDbSymbolTableRecord
100
AcDbLayerTableRecord
  2
假想線
 70
     0
 62
     5
  6
PHANTOM
370
    -3
390
F
  0
ENDTAB
  0
TABLE
  2
STYLE
  5
3
330
0
100
AcDbSymbolTable
 70
     5
  0
STYLE
  5
11
330
3
100
AcDbSymbolTableRecord
100
AcDbTextStyleTableRecord
  2
STANDARD
 70
     0
 40
0.0
 41
1.0
 50
0.0
 71
     0
 42
5.6444444444
  3
ARIALBD.TTF
  4

1001
ACAD
1000
ARIAL
1071
 33554466
  0
STYLE
  5
7A
330
3
100
AcDbSymbolTableRecord
100
AcDbTextStyleTableRecord
  2
SLDTEXTSTYLE0
 70
     0
 40
0.0
 41
1.0
 50
0.0
 71
     0
 42
2.5
  3
ARIAL.TTF
  4

1001
ACAD
1000
Arial
1071
      290
  0
STYLE
  5
CB
330
3
100
AcDbSymbolTableRecord
100
AcDbTextStyleTableRecord
  2
SLDTEXTSTYLE1
 70
     0
 40
0.0
 41
0.948
 50
0.0
 71
     0
 42
5.6444444444
  3
ARIAL.TTF
  4

1001
ACAD
1000
Arial
1071
      290
  0
STYLE
  5
D4
330
3
100
AcDbSymbolTableRecord
100
AcDbTextStyleTableRecord
  2
SLDTEXTSTYLE2
 70
     0
 40
0.0
 41
1.0
 50
0.0
 71
     0
 42
5.6444444444
  3
ARIALBD.TTF
  4

1001
ACAD
1000
Arial CE
1071
 33554722
  0
STYLE
  5
103
330
3
100
AcDbSymbolTableRecord
100
AcDbTextStyleTableRecord
  2
SLDTEXTSTYLE3
 70
     0
 40
0.0
 41
0.948
 50
0.0
 71
     0
 42
5.6444444444
  3
ARIALBD.TTF
  4

1001
ACAD
1000
Arial
1071
 33554722
  0
ENDTAB
  0
TABLE
  2
VIEW
  5
6
330
0
100
AcDbSymbolTable
 70
     0
  0
ENDTAB
  0
TABLE
  2
UCS
  5
7
330
0
100
AcDbSymbolTable
 70
     0
  0
ENDTAB
  0
TABLE
  2
APPID
  5
9
330
0
100
AcDbSymbolTable
 70
     1
  0
APPID
  5
12
330
9
100
AcDbSymbolTableRecord
100
AcDbRegAppTableRecord
  2
ACAD
 70
     0
  0
ENDTAB
  0
TABLE
  2
DIMSTYLE
  5
A
330
0
100
AcDbSymbolTable
 70
     4
100
AcDbDimStyleTable
  0
DIMSTYLE
105
27
330
A
100
AcDbSymbolTableRecord
100
AcDbDimStyleTableRecord
  2
ISO-25
 70
     0
 41
2.5
 42
0.625
 43
3.75
 44
1.25
 73
     0
 74
     0
 77
     1
 78
     8
140
2.5
141
2.5
143
0.0393700787
147
0.625
171
     3
172
     1
178
     0
271
     2
272
     2
274
     3
278
    44
283
     0
284
     8
340
7A
  0
DIMSTYLE
105
12D
102
{ACAD_REACTORS
330
12C
330
209
330
213
330
21D
330
227
330
231
330
23B
330
245
330
24F
330
259
102
}
330
A
100
AcDbSymbolTableRecord
100
AcDbDimStyleTableRecord
  2
SLDDIMSTYLE0
 70
     0
 41
3.2
 44
0.0
 45
0.000000001
 73
     0
 74
     0
 77
     1
 78
    12
 79
     3
140
4.0
147
1.0
173
     1
178
     0
271
     2
272
     2
276
     2
284
    12
340
CB
  0
DIMSTYLE
105
264
102
{ACAD_REACTORS
330
263
102
}
330
A
100
AcDbSymbolTableRecord
100
AcDbDimStyleTableRecord
  2
SLDDIMSTYLE1
 70
     0
  3
<>
 41
3.2
 44
0.0
 45
0.000000001
 78
    12
 79
     3
140
4.0
141
0.0
147
1.0
173
     1
178
     0
271
     2
272
     2
276
     2
284
    12
340
CB
  0
DIMSTYLE
105
274
330
A
100
AcDbSymbolTableRecord
100
AcDbDimStyleTableRecord
  2
SLDDIMSTYLE2
 70
     0
 41
3.2
 44
0.0
 45
0.000000001
146
3.2
147
0.0
173
     1
178
     0
271
     0
272
     0
276
     2
340
11
  0
ENDTAB
  0
TABLE
  2
BLOCK_RECORD
  5
1
330
0
100
AcDbSymbolTable
 70
    23
  0
BLOCK_RECORD
  5
1F
330
1
100
AcDbSymbolTableRecord
100
AcDbBlockTableRecord
  2
*Model_Space
340
22
  0
BLOCK_RECORD
  5
1B
330
1
100
AcDbSymbolTableRecord
100
AcDbBlockTableRecord
  2
*Paper_Space
340
1E
  0
BLOCK_RECORD
  5
23
330
1
100
AcDbSymbolTableRecord
100
AcDbBlockTableRecord
  2
*Paper_Space0
340
26
  0
BLOCK_RECORD
  5
CD
330
1
100
AcDbSymbolTableRecord
100
AcDbBlockTableRecord
  2
SW_NOTE_0
340
0
102
{BLKREFS
331
D3
102
}
  0
BLOCK_RECORD
  5
105
330
1
100
AcDbSymbolTableRecord
100
AcDbBlockTableRecord
  2
SW_NOTE_1
340
0
102
{BLKREFS
331
10A
102
}
  0
BLOCK_RECORD
  5
12E
330
1
100
AcDbSymbolTableRecord
100
AcDbBlockTableRecord
  2
_D
340
0
  0
BLOCK_RECORD
  5
20A
330
1
100
AcDbSymbolTableRecord
100
AcDbBlockTableRecord
  2
_D_1
340
0
  0
BLOCK_RECORD
  5
214
330
1
100
AcDbSymbolTableRecord
100
AcDbBlockTableRecord
  2
_D_2
340
0
  0
BLOCK_RECORD
  5
21E
330
1
100
AcDbSymbolTableRecord
100
AcDbBlockTableRecord
  2
_D_3
340
0
  0
BLOCK_RECORD
  5
228
330
1
100
AcDbSymbolTableRecord
100
AcDbBlockTableRecord
  2
_D_4
340
0
  0
BLOCK_RECORD
  5
232
330
1
100
AcDbSymbolTableRecord
100
AcDbBlockTableRecord
  2
_D_5
340
0
  0
BLOCK_RECORD
  5
23C
330
1
100
AcDbSymbolTableRecord
100
AcDbBlockTableRecord
  2
_D_6
340
0
  0
BLOCK_RECORD
  5
246
330
1
100
AcDbSymbolTableRecord
100
AcDbBlockTableRecord
  2
_D_7
340
0
  0
BLOCK_RECORD
  5
250
330
1
100
AcDbSymbolTableRecord
100
AcDbBlockTableRecord
  2
_D_8
340
0
  0
BLOCK_RECORD
  5
25A
330
1
100
AcDbSymbolTableRecord
100
AcDbBlockTableRecord
  2
_D_9
340
0
  0
BLOCK_RECORD
  5
265
330
1
100
AcDbSymbolTableRecord
100
AcDbBlockTableRecord
  2
_D_10
340
0
  0
BLOCK_RECORD
  5
26D
330
1
100
AcDbSymbolTableRecord
100
AcDbBlockTableRecord
  2
SW_NOTE_2
340
0
102
{BLKREFS
331
273
102
}
  0
BLOCK_RECORD
  5
276
330
1
100
AcDbSymbolTableRecord
100
AcDbBlockTableRecord
  2
SW_CENTERMARKSYMBOL_0
340
0
102
{BLKREFS
331
281
102
}
  0
BLOCK_RECORD
  5
282
330
1
100
AcDbSymbolTableRecord
100
AcDbBlockTableRecord
  2
SW_CENTERMARKSYMBOL_1
340
0
102
{BLKREFS
331
28D
102
}
  0
BLOCK_RECORD
  5
28E
330
1
100
AcDbSymbolTableRecord
100
AcDbBlockTableRecord
  2
SW_CENTERMARKSYMBOL_2
340
0
102
{BLKREFS
331
299
102
}
  0
BLOCK_RECORD
  5
29A
330
1
100
AcDbSymbolTableRecord
100
AcDbBlockTableRecord
  2
SW_CENTERMARKSYMBOL_3
340
0
102
{BLKREFS
331
2A5
102
}
  0
BLOCK_RECORD
  5
2A6
330
1
100
AcDbSymbolTableRecord
100
AcDbBlockTableRecord
  2
SW_CENTERMARKSYMBOL_4
340
0
102
{BLKREFS
331
2B1
102
}
  0
BLOCK_RECORD
  5
2B2
330
1
100
AcDbSymbolTableRecord
100
AcDbBlockTableRecord
  2
SW_CENTERMARKSYMBOL_5
340
0
102
{BLKREFS
331
2BD
102
}
  0
BLOCK_RECORD
  5
2BE
330
1
100
AcDbSymbolTableRecord
100
AcDbBlockTableRecord
  2
SW_CENTERMARKSYMBOL_6
340
0
102
{BLKREFS
331
2C9
102
}
  0
BLOCK_RECORD
  5
2CA
330
1
100
AcDbSymbolTableRecord
100
AcDbBlockTableRecord
  2
SW_CENTERMARKSYMBOL_7
340
0
102
{BLKREFS
331
2D5
102
}
  0
ENDTAB
  0
ENDSEC
  0
SECTION
  2
BLOCKS
  0
BLOCK
  5
20
330
1F
100
AcDbEntity
  8
0
100
AcDbBlockBegin
  2
*Model_Space
 70
     0
 10
0.0
 20
0.0
 30
0.0
  3
*Model_Space
  1

  0
ENDBLK
  5
21
330
1F
100
AcDbEntity
  8
0
100
AcDbBlockEnd
  0
BLOCK
  5
1C
330
1B
100
AcDbEntity
 67
     1
  8
0
100
AcDbBlockBegin
  2
*Paper_Space
 70
     0
 10
0.0
 20
0.0
 30
0.0
  3
*Paper_Space
  1

  0
ENDBLK
  5
1D
330
1B
100
AcDbEntity
 67
     1
  8
0
100
AcDbBlockEnd
  0
BLOCK
  5
24
330
23
100
AcDbEntity
  8
0
100
AcDbBlockBegin
  2
*Paper_Space0
 70
     0
 10
0.0
 20
0.0
 30
0.0
  3
*Paper_Space0
  1

  0
ENDBLK
  5
25
330
23
100
AcDbEntity
  8
0
100
AcDbBlockEnd
  0
BLOCK
  5
CE
330
CD
100
AcDbEntity
  8
0
100
AcDbBlockBegin
  2
SW_NOTE_0
 70
     0
 10
0.0
 20
0.0
 30
0.0
  3
SW_NOTE_0
  1

  0
MTEXT
  5
D0
330
CD
100
AcDbEntity
  8
0
  6
Continuous
 62
     0
370
     0
100
AcDbMText
 10
0.0
 20
5.4570534317
 30
0.0
 40
4.2333333333
 41
0.0
 71
     1
 72
     1
  1
PROPRIETARY AND CONFIDENTIAL
  7
SLDTEXTSTYLE1
 73
     1
 44
1.0
  0
MTEXT
  5
D1
330
CD
100
AcDbEntity
  8
0
  6
Continuous
 62
     0
370
     0
100
AcDbMText
 10
0.0
 20
-0.131173568
 30
0.0
 40
2.9633333333
 41
0.0
 71
     1
 72
     1
  1
THE INFORMATION CONTAINED IN THIS DRAWING IS THE SOLE PROPERTY OF UNICE E-O SERVICES INC. ANY REPRODUCTION IN PART OR AS A WHOLE WITHOUT THE WRITTEN PERMISSION OF UNICE E-O SERVICES INC IS 
  7
SLDTEXTSTYLE1
 73
     1
 44
1.0
  0
MTEXT
  5
D2
330
CD
100
AcDbEntity
  8
0
  6
Continuous
 62
     0
370
     0
100
AcDbMText
 10
0.0
 20
-4.0822846314
 30
0.0
 40
2.9633333333
 41
0.0
 71
     1
 72
     1
  1
PROHIBITED.
  7
SLDTEXTSTYLE1
 73
     1
 44
1.0
  0
ENDBLK
  5
CF
330
CD
100
AcDbEntity
  8
0
100
AcDbBlockEnd
  0
BLOCK
  5
106
330
105
100
AcDbEntity
  8
0
100
AcDbBlockBegin
  2
SW_NOTE_1
 70
     0
 10
0.0
 20
0.0
 30
0.0
  3
SW_NOTE_1
  1

  0
MTEXT
  5
108
330
105
100
AcDbEntity
  8
DIM
 62
     0
100
AcDbMText
 10
0.0
 20
3.8199374022
 30
0.0
 40
2.9633333333
 41
0.0
 71
     1
 72
     1
  1
No.5, Andong Rd., Chung Li District,
  7
SLDTEXTSTYLE0
 73
     1
 44
1.0
  0
MTEXT
  5
109
330
105
100
AcDbEntity
  8
DIM
 62
     0
100
AcDbMText
 10
0.0
 20
-0.1311736612
 30
0.0
 40
2.9633333333
 41
0.0
 71
     1
 72
     1
  1
Taoyuan City 32063, Taiwan, R.O.C.
  7
SLDTEXTSTYLE0
 73
     1
 44
1.0
  0
ENDBLK
  5
107
330
105
100
AcDbEntity
  8
0
100
AcDbBlockEnd
  0
BLOCK
  5
12F
330
12E
100
AcDbEntity
  8
0
100
AcDbBlockBegin
  2
_D
 70
     0
 10
0.0
 20
0.0
 30
0.0
  3
_D
  1

  0
SOLID
  5
131
330
12E
100
AcDbEntity
  8
DIM
100
AcDbTrace
 10
225.6782781905
 20
97.7175301456
 30
0.0
 11
225.2782781905
 21
94.5175301456
 31
0.0
 12
226.0782781905
 22
94.5175301456
 32
0.0
 13
226.0782781905
 23
94.5175301456
 33
0.0
  0
SOLID
  5
132
330
12E
100
AcDbEntity
  8
DIM
100
AcDbTrace
 10
225.6782781905
 20
77.7175301456
 30
0.0
 11
226.0782781905
 21
80.9175301456
 31
0.0
 12
225.2782781905
 22
80.9175301456
 32
0.0
 13
225.2782781905
 23
80.9175301456
 33
0.0
  0
LINE
  5
133
330
12E
100
AcDbEntity
  8
DIM
100
AcDbLine
 10
204.8782781905
 20
97.7175301456
 30
0.0
 11
227.2782781905
 21
97.7175301456
 31
0.0
  0
LINE
  5
134
330
12E
100
AcDbEntity
  8
DIM
100
AcDbLine
 10
204.8782781905
 20
77.7175301456
 30
0.0
 11
227.2782781905
 21
77.7175301456
 31
0.0
  0
LINE
  5
135
330
12E
100
AcDbEntity
  8
DIM
100
AcDbLine
 10
225.6782781905
 20
97.7175301456
 30
0.0
 11
225.6782781905
 21
77.7175301456
 31
0.0
  0
MTEXT
  5
136
330
12E
100
AcDbEntity
  8
DIM
100
AcDbMText
 10
220.5220075108
 20
84.6634878275
 30
0.0
 40
4.0
 41
0.0
 71
     1
 72
     1
  1
20
  7
SLDTEXTSTYLE1
 11
-7.044195017643634E-15
 21
1.0
 31
0.0
 73
     1
 44
1.0
  0
ENDBLK
  5
130
330
12E
100
AcDbEntity
  8
0
100
AcDbBlockEnd
  0
BLOCK
  5
20B
330
20A
100
AcDbEntity
  8
0
100
AcDbBlockBegin
  2
_D_1
 70
     0
 10
0.0
 20
0.0
 30
0.0
  3
_D_1
  1

  0
SOLID
  5
20D
330
20A
100
AcDbEntity
  8
DIM
100
AcDbTrace
 10
103.2782781905
 20
257.4167457086
 30
0.0
 11
106.4782781905
 21
257.0167457086
 31
0.0
 12
106.4782781905
 22
257.8167457086
 32
0.0
 13
106.4782781905
 23
257.8167457086
 33
0.0
  0
SOLID
  5
20E
330
20A
100
AcDbEntity
  8
DIM
100
AcDbTrace
 10
203.2782781905
 20
257.4167457086
 30
0.0
 11
200.0782781905
 21
257.8167457086
 31
0.0
 12
200.0782781905
 22
257.0167457086
 32
0.0
 13
200.0782781905
 23
257.0167457086
 33
0.0
  0
LINE
  5
20F
330
20A
100
AcDbEntity
  8
DIM
100
AcDbLine
 10
103.2782781905
 20
228.8026181567
 30
0.0
 11
103.2782781905
 21
259.0167457086
 31
0.0
  0
LINE
  5
210
330
20A
100
AcDbEntity
  8
DIM
100
AcDbLine
 10
203.2782781905
 20
228.8026181567
 30
0.0
 11
203.2782781905
 21
259.0167457086
 31
0.0
  0
LINE
  5
211
330
20A
100
AcDbEntity
  8
DIM
100
AcDbLine
 10
103.2782781905
 20
257.4167457086
 30
0.0
 11
203.2782781905
 21
257.4167457086
 31
0.0
  0
MTEXT
  5
212
330
20A
100
AcDbEntity
  8
DIM
100
AcDbMText
 10
148.6961200745
 20
262.5730163883
 30
0.0
 40
4.0
 41
0.0
 71
     1
 72
     1
  1
100
  7
SLDTEXTSTYLE1
 73
     1
 44
1.0
  0
ENDBLK
  5
20C
330
20A
100
AcDbEntity
  8
0
100
AcDbBlockEnd
  0
BLOCK
  5
215
330
214
100
AcDbEntity
  8
0
100
AcDbBlockBegin
  2
_D_2
 70
     0
 10
0.0
 20
0.0
 30
0.0
  3
_D_2
  1

  0
SOLID
  5
217
330
214
100
AcDbEntity
  8
DIM
100
AcDbTrace
 10
227.7600807137
 20
227.2026181567
 30
0.0
 11
227.3600807137
 21
224.0026181567
 31
0.0
 12
228.1600807137
 22
224.0026181567
 32
0.0
 13
228.1600807137
 23
224.0026181567
 33
0.0
  0
SOLID
  5
218
330
214
100
AcDbEntity
  8
DIM
100
AcDbTrace
 10
227.7600807137
 20
127.2026181567
 30
0.0
 11
228.1600807137
 21
130.4026181567
 31
0.0
 12
227.3600807137
 22
130.4026181567
 32
0.0
 13
227.3600807137
 23
130.4026181567
 33
0.0
  0
LINE
  5
219
330
214
100
AcDbEntity
  8
DIM
100
AcDbLine
 10
204.8782781905
 20
227.2026181567
 30
0.0
 11
229.3600807137
 21
227.2026181567
 31
0.0
  0
LINE
  5
21A
330
214
100
AcDbEntity
  8
DIM
100
AcDbLine
 10
204.8782781905
 20
127.2026181567
 30
0.0
 11
229.3600807137
 21
127.2026181567
 31
0.0
  0
LINE
  5
21B
330
214
100
AcDbEntity
  8
DIM
100
AcDbLine
 10
227.7600807137
 20
227.2026181567
 30
0.0
 11
227.7600807137
 21
127.2026181567
 31
0.0
  0
MTEXT
  5
21C
330
214
100
AcDbEntity
  8
DIM
100
AcDbMText
 10
222.603810034
 20
172.6204600407
 30
0.0
 40
4.0
 41
0.0
 71
     1
 72
     1
  1
100
  7
SLDTEXTSTYLE1
 11
-8.269460797427576E-16
 21
1.0
 31
0.0
 73
     1
 44
1.0
  0
ENDBLK
  5
216
330
214
100
AcDbEntity
  8
0
100
AcDbBlockEnd
  0
BLOCK
  5
21F
330
21E
100
AcDbEntity
  8
0
100
AcDbBlockBegin
  2
_D_3
 70
     0
 10
0.0
 20
0.0
 30
0.0
  3
_D_3
  1

  0
SOLID
  5
221
330
21E
100
AcDbEntity
  8
DIM
 62
     7
100
AcDbTrace
 10
127.8782781905
 20
235.7026181567
 30
0.0
 11
131.0782781905
 21
235.3026181567
 31
0.0
 12
131.0782781905
 22
236.1026181567
 32
0.0
 13
131.0782781905
 23
236.1026181567
 33
0.0
  0
SOLID
  5
222
330
21E
100
AcDbEntity
  8
DIM
 62
     7
100
AcDbTrace
 10
153.2782781905
 20
235.7026181567
 30
0.0
 11
150.0782781905
 21
236.1026181567
 31
0.0
 12
150.0782781905
 22
235.3026181567
 32
0.0
 13
150.0782781905
 23
235.3026181567
 33
0.0
  0
LINE
  5
223
330
21E
100
AcDbEntity
  8
DIM
 62
     7
100
AcDbLine
 10
127.8782781905
 20
182.3553181567
 30
0.0
 11
127.8782781905
 21
237.3026181567
 31
0.0
  0
LINE
  5
224
330
21E
100
AcDbEntity
  8
DIM
 62
     7
100
AcDbLine
 10
153.2782781905
 20
207.7553181567
 30
0.0
 11
153.2782781905
 21
237.3026181567
 31
0.0
  0
LINE
  5
225
330
21E
100
AcDbEntity
  8
DIM
 62
     7
100
AcDbLine
 10
127.8782781905
 20
235.7026181567
 30
0.0
 11
153.2782781905
 21
235.7026181567
 31
0.0
  0
MTEXT
  5
226
330
21E
100
AcDbEntity
  8
DIM
 62
     7
100
AcDbMText
 10
135.2310561007
 20
240.8588888364
 30
0.0
 40
4.0
 41
0.0
 71
     1
 72
     1
  1
25.4
  7
SLDTEXTSTYLE1
 73
     1
 44
1.0
  0
ENDBLK
  5
220
330
21E
100
AcDbEntity
  8
0
100
AcDbBlockEnd
  0
BLOCK
  5
229
330
228
100
AcDbEntity
  8
0
100
AcDbBlockBegin
  2
_D_4
 70
     0
 10
0.0
 20
0.0
 30
0.0
  3
_D_4
  1

  0
SOLID
  5
22B
330
228
100
AcDbEntity
  8
DIM
 62
     7
100
AcDbTrace
 10
153.2782781905
 20
235.7026181567
 30
0.0
 11
156.4782781905
 21
235.3026181567
 31
0.0
 12
156.4782781905
 22
236.1026181567
 32
0.0
 13
156.4782781905
 23
236.1026181567
 33
0.0
  0
SOLID
  5
22C
330
228
100
AcDbEntity
  8
DIM
 62
     7
100
AcDbTrace
 10
178.6782781905
 20
235.7026181567
 30
0.0
 11
175.4782781905
 21
236.1026181567
 31
0.0
 12
175.4782781905
 22
235.3026181567
 32
0.0
 13
175.4782781905
 23
235.3026181567
 33
0.0
  0
LINE
  5
22D
330
228
100
AcDbEntity
  8
DIM
 62
     7
100
AcDbLine
 10
153.2782781905
 20
207.7553181567
 30
0.0
 11
153.2782781905
 21
237.3026181567
 31
0.0
  0
LINE
  5
22E
330
228
100
AcDbEntity
  8
DIM
 62
     7
100
AcDbLine
 10
178.6782781905
 20
182.3553181567
 30
0.0
 11
178.6782781905
 21
237.3026181567
 31
0.0
  0
LINE
  5
22F
330
228
100
AcDbEntity
  8
DIM
 62
     7
100
AcDbLine
 10
153.2782781905
 20
235.7026181567
 30
0.0
 11
178.6782781905
 21
235.7026181567
 31
0.0
  0
MTEXT
  5
230
330
228
100
AcDbEntity
  8
DIM
 62
     7
100
AcDbMText
 10
160.6310561007
 20
240.8588888364
 30
0.0
 40
4.0
 41
0.0
 71
     1
 72
     1
  1
25.4
  7
SLDTEXTSTYLE1
 73
     1
 44
1.0
  0
ENDBLK
  5
22A
330
228
100
AcDbEntity
  8
0
100
AcDbBlockEnd
  0
BLOCK
  5
233
330
232
100
AcDbEntity
  8
0
100
AcDbBlockBegin
  2
_D_5
 70
     0
 10
0.0
 20
0.0
 30
0.0
  3
_D_5
  1

  0
SOLID
  5
235
330
232
100
AcDbEntity
  8
DIM
 62
     7
100
AcDbTrace
 10
153.2782781905
 20
246.9791161831
 30
0.0
 11
150.0782781905
 21
247.3791161831
 31
0.0
 12
150.0782781905
 22
246.5791161831
 32
0.0
 13
150.0782781905
 23
246.5791161831
 33
0.0
  0
SOLID
  5
236
330
232
100
AcDbEntity
  8
DIM
 62
     7
100
AcDbTrace
 10
115.1782781905
 20
246.9791161831
 30
0.0
 11
118.3782781905
 21
246.5791161831
 31
0.0
 12
118.3782781905
 22
247.3791161831
 32
0.0
 13
118.3782781905
 23
247.3791161831
 33
0.0
  0
LINE
  5
237
330
232
100
AcDbEntity
  8
DIM
 62
     7
100
AcDbLine
 10
153.2782781905
 20
207.7553181567
 30
0.0
 11
153.2782781905
 21
248.5791161831
 31
0.0
  0
LINE
  5
238
330
232
100
AcDbEntity
  8
DIM
 62
     7
100
AcDbLine
 10
115.1782781905
 20
203.3026181567
 30
0.0
 11
115.1782781905
 21
248.5791161831
 31
0.0
  0
LINE
  5
239
330
232
100
AcDbEntity
  8
DIM
 62
     7
100
AcDbLine
 10
153.2782781905
 20
246.9791161831
 30
0.0
 11
115.1782781905
 21
246.9791161831
 31
0.0
  0
MTEXT
  5
23A
330
232
100
AcDbEntity
  8
DIM
 62
     7
100
AcDbMText
 10
128.8810561007
 20
252.1353868628
 30
0.0
 40
4.0
 41
0.0
 71
     1
 72
     1
  1
38.1
  7
SLDTEXTSTYLE1
 73
     1
 44
1.0
  0
ENDBLK
  5
234
330
232
100
AcDbEntity
  8
0
100
AcDbBlockEnd
  0
BLOCK
  5
23D
330
23C
100
AcDbEntity
  8
0
100
AcDbBlockBegin
  2
_D_6
 70
     0
 10
0.0
 20
0.0
 30
0.0
  3
_D_6
  1

  0
SOLID
  5
23F
330
23C
100
AcDbEntity
  8
DIM
 62
     7
100
AcDbTrace
 10
153.2782781905
 20
246.9791161831
 30
0.0
 11
156.4782781905
 21
246.5791161831
 31
0.0
 12
156.4782781905
 22
247.3791161831
 32
0.0
 13
156.4782781905
 23
247.3791161831
 33
0.0
  0
SOLID
  5
240
330
23C
100
AcDbEntity
  8
DIM
 62
     7
100
AcDbTrace
 10
191.3782781905
 20
246.9791161831
 30
0.0
 11
188.1782781905
 21
247.3791161831
 31
0.0
 12
188.1782781905
 22
246.5791161831
 32
0.0
 13
188.1782781905
 23
246.5791161831
 33
0.0
  0
LINE
  5
241
330
23C
100
AcDbEntity
  8
DIM
 62
     7
100
AcDbLine
 10
153.2782781905
 20
207.7553181567
 30
0.0
 11
153.2782781905
 21
248.5791161831
 31
0.0
  0
LINE
  5
242
330
23C
100
AcDbEntity
  8
DIM
 62
     7
100
AcDbLine
 10
191.3782781905
 20
203.3026181567
 30
0.0
 11
191.3782781905
 21
248.5791161831
 31
0.0
  0
LINE
  5
243
330
23C
100
AcDbEntity
  8
DIM
 62
     7
100
AcDbLine
 10
153.2782781905
 20
246.9791161831
 30
0.0
 11
191.3782781905
 21
246.9791161831
 31
0.0
  0
MTEXT
  5
244
330
23C
100
AcDbEntity
  8
DIM
 62
     7
100
AcDbMText
 10
166.9810561007
 20
252.1353868628
 30
0.0
 40
4.0
 41
0.0
 71
     1
 72
     1
  1
38.1
  7
SLDTEXTSTYLE1
 73
     1
 44
1.0
  0
ENDBLK
  5
23E
330
23C
100
AcDbEntity
  8
0
100
AcDbBlockEnd
  0
BLOCK
  5
247
330
246
100
AcDbEntity
  8
0
100
AcDbBlockBegin
  2
_D_7
 70
     0
 10
0.0
 20
0.0
 30
0.0
  3
_D_7
  1

  0
SOLID
  5
249
330
246
100
AcDbEntity
  8
DIM
 62
     7
100
AcDbTrace
 10
216.0782781905
 20
202.6026181567
 30
0.0
 11
215.6782781905
 21
199.4026181567
 31
0.0
 12
216.4782781905
 22
199.4026181567
 32
0.0
 13
216.4782781905
 23
199.4026181567
 33
0.0
  0
SOLID
  5
24A
330
246
100
AcDbEntity
  8
DIM
 62
     7
100
AcDbTrace
 10
216.0782781905
 20
177.2026181567
 30
0.0
 11
216.4782781905
 21
180.4026181567
 31
0.0
 12
215.6782781905
 22
180.4026181567
 32
0.0
 13
215.6782781905
 23
180.4026181567
 33
0.0
  0
LINE
  5
24B
330
246
100
AcDbEntity
  8
DIM
 62
     7
100
AcDbLine
 10
158.4309781905
 20
202.6026181567
 30
0.0
 11
217.6782781905
 21
202.6026181567
 31
0.0
  0
LINE
  5
24C
330
246
100
AcDbEntity
  8
DIM
 62
     7
100
AcDbLine
 10
183.8309781905
 20
177.2026181567
 30
0.0
 11
217.6782781905
 21
177.2026181567
 31
0.0
  0
LINE
  5
24D
330
246
100
AcDbEntity
  8
DIM
 62
     7
100
AcDbLine
 10
216.0782781905
 20
202.6026181567
 30
0.0
 11
216.0782781905
 21
177.2026181567
 31
0.0
  0
MTEXT
  5
24E
330
246
100
AcDbEntity
  8
DIM
 62
     7
100
AcDbMText
 10
210.9220075108
 20
184.5553960669
 30
0.0
 40
4.0
 41
0.0
 71
     1
 72
     1
  1
25.4
  7
SLDTEXTSTYLE1
 11
-7.044195017643634E-15
 21
1.0
 31
0.0
 73
     1
 44
1.0
  0
ENDBLK
  5
248
330
246
100
AcDbEntity
  8
0
100
AcDbBlockEnd
  0
BLOCK
  5
251
330
250
100
AcDbEntity
  8
0
100
AcDbBlockBegin
  2
_D_8
 70
     0
 10
0.0
 20
0.0
 30
0.0
  3
_D_8
  1

  0
SOLID
  5
253
330
250
100
AcDbEntity
  8
DIM
 62
     7
100
AcDbTrace
 10
216.0782781905
 20
177.2026181567
 30
0.0
 11
215.6782781905
 21
174.0026181567
 31
0.0
 12
216.4782781905
 22
174.0026181567
 32
0.0
 13
216.4782781905
 23
174.0026181567
 33
0.0
  0
SOLID
  5
254
330
250
100
AcDbEntity
  8
DIM
 62
     7
100
AcDbTrace
 10
216.0782781905
 20
151.8026181567
 30
0.0
 11
216.4782781905
 21
155.0026181567
 31
0.0
 12
215.6782781905
 22
155.0026181567
 32
0.0
 13
215.6782781905
 23
155.0026181567
 33
0.0
  0
LINE
  5
255
330
250
100
AcDbEntity
  8
DIM
 62
     7
100
AcDbLine
 10
183.8309781905
 20
177.2026181567
 30
0.0
 11
217.6782781905
 21
177.2026181567
 31
0.0
  0
LINE
  5
256
330
250
100
AcDbEntity
  8
DIM
 62
     7
100
AcDbLine
 10
158.4309781905
 20
151.8026181567
 30
0.0
 11
217.6782781905
 21
151.8026181567
 31
0.0
  0
LINE
  5
257
330
250
100
AcDbEntity
  8
DIM
 62
     7
100
AcDbLine
 10
216.0782781905
 20
177.2026181567
 30
0.0
 11
216.0782781905
 21
151.8026181567
 31
0.0
  0
MTEXT
  5
258
330
250
100
AcDbEntity
  8
DIM
 62
     7
100
AcDbMText
 10
210.9220075108
 20
159.1553960669
 30
0.0
 40
4.0
 41
0.0
 71
     1
 72
     1
  1
25.4
  7
SLDTEXTSTYLE1
 11
-7.044195017643634E-15
 21
1.0
 31
0.0
 73
     1
 44
1.0
  0
ENDBLK
  5
252
330
250
100
AcDbEntity
  8
0
100
AcDbBlockEnd
  0
BLOCK
  5
25B
330
25A
100
AcDbEntity
  8
0
100
AcDbBlockBegin
  2
_D_9
 70
     0
 10
0.0
 20
0.0
 30
0.0
  3
_D_9
  1

  0
SOLID
  5
25D
330
25A
100
AcDbEntity
  8
DIM
 62
     7
100
AcDbTrace
 10
92.8495439959
 20
201.7026181567
 30
0.0
 11
92.4495439959
 21
198.5026181567
 31
0.0
 12
93.2495439959
 22
198.5026181567
 32
0.0
 13
93.2495439959
 23
198.5026181567
 33
0.0
  0
SOLID
  5
25E
330
25A
100
AcDbEntity
  8
DIM
 62
     7
100
AcDbTrace
 10
92.8495439959
 20
152.7026181567
 30
0.0
 11
93.2495439959
 21
155.9026181567
 31
0.0
 12
92.4495439959
 22
155.9026181567
 32
0.0
 13
92.4495439959
 23
155.9026181567
 33
0.0
  0
LINE
  5
25F
330
25A
100
AcDbEntity
  8
DIM
 62
     7
100
AcDbLine
 10
107.0782781905
 20
201.7026181567
 30
0.0
 11
91.2495439959
 21
201.7026181567
 31
0.0
  0
LINE
  5
260
330
25A
100
AcDbEntity
  8
DIM
 62
     7
100
AcDbLine
 10
107.0782781905
 20
152.7026181567
 30
0.0
 11
91.2495439959
 21
152.7026181567
 31
0.0
  0
LINE
  5
261
330
25A
100
AcDbEntity
  8
DIM
 62
     7
100
AcDbLine
 10
92.8495439959
 20
201.7026181567
 30
0.0
 11
92.8495439959
 21
152.7026181567
 31
0.0
  0
MTEXT
  5
262
330
25A
100
AcDbEntity
  8
DIM
 62
     7
100
AcDbMText
 10
87.6932733162
 20
174.147062597
 30
0.0
 40
4.0
 41
0.0
 71
     1
 72
     1
  1
49
  7
SLDTEXTSTYLE1
 11
-7.044195017643634E-15
 21
1.0
 31
0.0
 73
     1
 44
1.0
  0
ENDBLK
  5
25C
330
25A
100
AcDbEntity
  8
0
100
AcDbBlockEnd
  0
BLOCK
  5
266
330
265
100
AcDbEntity
  8
0
100
AcDbBlockBegin
  2
_D_10
 70
     0
 10
0.0
 20
0.0
 30
0.0
  3
_D_10
  1

  0
SOLID
  5
268
330
265
100
AcDbEntity
  8
DIM
100
AcDbTrace
 10
126.0732467102
 20
179.007649637
 30
0.0
 11
124.0933477228
 21
181.5532340493
 31
0.0
 12
123.5276622979
 22
180.9875486243
 32
0.0
 13
123.5276622979
 23
180.9875486243
 33
0.0
  0
LINE
  5
269
330
265
100
AcDbEntity
  8
DIM
100
AcDbLine
 10
126.0732467102
 20
179.007649637
 30
0.0
 11
91.3138799633
 21
213.7670163839
 31
0.0
  0
LINE
  5
26A
330
265
100
AcDbEntity
  8
DIM
100
AcDbLine
 10
91.3138799633
 20
213.7670163839
 30
0.0
 11
64.5749915208
 21
213.7670163839
 31
0.0
  0
MTEXT
  5
26B
330
265
100
AcDbEntity
  8
DIM
100
AcDbMText
 10
64.5749915208
 20
225.06217581
 30
0.0
 40
4.0
 41
0.0
 71
     1
 72
     1
  1
5 HOLES,
  7
SLDTEXTSTYLE1
 73
     1
 44
1.0
  0
MTEXT
  5
26C
330
265
100
AcDbEntity
  8
DIM
100
AcDbMText
 10
64.5749915208
 20
218.9232870635
 30
0.0
 40
4.0
 41
0.0
 71
     1
 72
     1
  1
 1/4"-20
  7
SLDTEXTSTYLE1
 73
     1
 44
1.0
  0
ENDBLK
  5
267
330
265
100
AcDbEntity
  8
0
100
AcDbBlockEnd
  0
BLOCK
  5
26E
330
26D
100
AcDbEntity
  8
0
100
AcDbBlockBegin
  2
SW_NOTE_2
 70
     0
 10
0.0
 20
0.0
 30
0.0
  3
SW_NOTE_2
  1

  0
MTEXT
  5
270
330
26D
100
AcDbEntity
  8
DIM
 62
     0
100
AcDbMText
 10
-50.9679676457
 20
7.6667254387
 30
0.0
 40
4.2333333333
 41
0.0
 71
     1
 72
     1
  1
INTERNAL SLIDER
  7
SLDTEXTSTYLE1
 73
     1
 44
1.0
  0
MTEXT
  5
271
330
26D
100
AcDbEntity
  8
DIM
 62
     0
100
AcDbMText
 10
-50.9679676457
 20
2.0222810625
 30
0.0
 40
4.2333333333
 41
0.0
 71
     1
 72
     1
  1
%%p
  7
SLDTEXTSTYLE1
 73
     1
 44
1.0
  0
MTEXT
  5
272
330
26D
100
AcDbEntity
  8
DIM
 62
     0
100
AcDbMText
 10
-47.1814861013
 20
2.0222810625
 30
0.0
 40
4.2333333333
 41
0.0
 71
     1
 72
     1
  1
0.5"(12.7)TRAVEL
  7
SLDTEXTSTYLE1
 73
     1
 44
1.0
  0
ENDBLK
  5
26F
330
26D
100
AcDbEntity
  8
0
100
AcDbBlockEnd
  0
BLOCK
  5
277
330
276
100
AcDbEntity
  8
0
100
AcDbBlockBegin
  2
SW_CENTERMARKSYMBOL_0
 70
     0
 10
0.0
 20
0.0
 30
0.0
  3
SW_CENTERMARKSYMBOL_0
  1

  0
LINE
  5
279
330
276
100
AcDbEntity
  8
DIM
 62
     0
100
AcDbLine
 10
0.0
 20
0.0
 30
0.0
 11
0.0
 21
1.0
 31
0.0
  0
LINE
  5
27A
330
276
100
AcDbEntity
  8
DIM
 62
     0
100
AcDbLine
 10
0.0
 20
0.0
 30
0.0
 11
-1.0
 21
0.0
 31
0.0
  0
LINE
  5
27B
330
276
100
AcDbEntity
  8
DIM
 62
     0
100
AcDbLine
 10
0.0
 20
0.0
 30
0.0
 11
0.0
 21
-1.0
 31
0.0
  0
LINE
  5
27C
330
276
100
AcDbEntity
  8
DIM
 62
     0
100
AcDbLine
 10
0.0
 20
0.0
 30
0.0
 11
1.0
 21
0.0
 31
0.0
  0
LINE
  5
27D
330
276
100
AcDbEntity
  8
DIM
 62
     0
100
AcDbLine
 10
0.0
 20
2.0
 30
0.0
 11
0.0
 21
3.5527
 31
0.0
  0
LINE
  5
27E
330
276
100
AcDbEntity
  8
DIM
 62
     0
100
AcDbLine
 10
-2.0
 20
0.0
 30
0.0
 11
-3.5527
 21
0.0
 31
0.0
  0
LINE
  5
27F
330
276
100
AcDbEntity
  8
DIM
 62
     0
100
AcDbLine
 10
0.0
 20
-2.0
 30
0.0
 11
0.0
 21
-3.5527
 31
0.0
  0
LINE
  5
280
330
276
100
AcDbEntity
  8
DIM
 62
     0
100
AcDbLine
 10
2.0
 20
0.0
 30
0.0
 11
3.5527
 21
0.0
 31
0.0
  0
ENDBLK
  5
278
330
276
100
AcDbEntity
  8
0
100
AcDbBlockEnd
  0
BLOCK
  5
283
330
282
100
AcDbEntity
  8
0
100
AcDbBlockBegin
  2
SW_CENTERMARKSYMBOL_1
 70
     0
 10
0.0
 20
0.0
 30
0.0
  3
SW_CENTERMARKSYMBOL_1
  1

  0
LINE
  5
285
330
282
100
AcDbEntity
  8
DIM
 62
     0
100
AcDbLine
 10
0.0
 20
0.0
 30
0.0
 11
0.0
 21
1.0
 31
0.0
  0
LINE
  5
286
330
282
100
AcDbEntity
  8
DIM
 62
     0
100
AcDbLine
 10
0.0
 20
0.0
 30
0.0
 11
-1.0
 21
0.0
 31
0.0
  0
LINE
  5
287
330
282
100
AcDbEntity
  8
DIM
 62
     0
100
AcDbLine
 10
0.0
 20
0.0
 30
0.0
 11
0.0
 21
-1.0
 31
0.0
  0
LINE
  5
288
330
282
100
AcDbEntity
  8
DIM
 62
     0
100
AcDbLine
 10
0.0
 20
0.0
 30
0.0
 11
1.0
 21
0.0
 31
0.0
  0
LINE
  5
289
330
282
100
AcDbEntity
  8
DIM
 62
     0
100
AcDbLine
 10
0.0
 20
2.0
 30
0.0
 11
0.0
 21
3.5527
 31
0.0
  0
LINE
  5
28A
330
282
100
AcDbEntity
  8
DIM
 62
     0
100
AcDbLine
 10
-2.0
 20
0.0
 30
0.0
 11
-3.5527
 21
0.0
 31
0.0
  0
LINE
  5
28B
330
282
100
AcDbEntity
  8
DIM
 62
     0
100
AcDbLine
 10
0.0
 20
-2.0
 30
0.0
 11
0.0
 21
-3.5527
 31
0.0
  0
LINE
  5
28C
330
282
100
AcDbEntity
  8
DIM
 62
     0
100
AcDbLine
 10
2.0
 20
0.0
 30
0.0
 11
3.5527
 21
0.0
 31
0.0
  0
ENDBLK
  5
284
330
282
100
AcDbEntity
  8
0
100
AcDbBlockEnd
  0
BLOCK
  5
28F
330
28E
100
AcDbEntity
  8
0
100
AcDbBlockBegin
  2
SW_CENTERMARKSYMBOL_2
 70
     0
 10
0.0
 20
0.0
 30
0.0
  3
SW_CENTERMARKSYMBOL_2
  1

  0
LINE
  5
291
330
28E
100
AcDbEntity
  8
DIM
 62
     0
100
AcDbLine
 10
0.0
 20
0.0
 30
0.0
 11
0.0
 21
1.0
 31
0.0
  0
LINE
  5
292
330
28E
100
AcDbEntity
  8
DIM
 62
     0
100
AcDbLine
 10
0.0
 20
0.0
 30
0.0
 11
-1.0
 21
0.0
 31
0.0
  0
LINE
  5
293
330
28E
100
AcDbEntity
  8
DIM
 62
     0
100
AcDbLine
 10
0.0
 20
0.0
 30
0.0
 11
0.0
 21
-1.0
 31
0.0
  0
LINE
  5
294
330
28E
100
AcDbEntity
  8
DIM
 62
     0
100
AcDbLine
 10
0.0
 20
0.0
 30
0.0
 11
1.0
 21
0.0
 31
0.0
  0
LINE
  5
295
330
28E
100
AcDbEntity
  8
DIM
 62
     0
100
AcDbLine
 10
0.0
 20
2.0
 30
0.0
 11
0.0
 21
3.5527
 31
0.0
  0
LINE
  5
296
330
28E
100
AcDbEntity
  8
DIM
 62
     0
100
AcDbLine
 10
-2.0
 20
0.0
 30
0.0
 11
-3.5527
 21
0.0
 31
0.0
  0
LINE
  5
297
330
28E
100
AcDbEntity
  8
DIM
 62
     0
100
AcDbLine
 10
0.0
 20
-2.0
 30
0.0
 11
0.0
 21
-3.5527
 31
0.0
  0
LINE
  5
298
330
28E
100
AcDbEntity
  8
DIM
 62
     0
100
AcDbLine
 10
2.0
 20
0.0
 30
0.0
 11
3.5527
 21
0.0
 31
0.0
  0
ENDBLK
  5
290
330
28E
100
AcDbEntity
  8
0
100
AcDbBlockEnd
  0
BLOCK
  5
29B
330
29A
100
AcDbEntity
  8
0
100
AcDbBlockBegin
  2
SW_CENTERMARKSYMBOL_3
 70
     0
 10
0.0
 20
0.0
 30
0.0
  3
SW_CENTERMARKSYMBOL_3
  1

  0
LINE
  5
29D
330
29A
100
AcDbEntity
  8
DIM
 62
     0
100
AcDbLine
 10
0.0
 20
0.0
 30
0.0
 11
0.0
 21
1.0
 31
0.0
  0
LINE
  5
29E
330
29A
100
AcDbEntity
  8
DIM
 62
     0
100
AcDbLine
 10
0.0
 20
0.0
 30
0.0
 11
-1.0
 21
0.0
 31
0.0
  0
LINE
  5
29F
330
29A
100
AcDbEntity
  8
DIM
 62
     0
100
AcDbLine
 10
0.0
 20
0.0
 30
0.0
 11
0.0
 21
-1.0
 31
0.0
  0
LINE
  5
2A0
330
29A
100
AcDbEntity
  8
DIM
 62
     0
100
AcDbLine
 10
0.0
 20
0.0
 30
0.0
 11
1.0
 21
0.0
 31
0.0
  0
LINE
  5
2A1
330
29A
100
AcDbEntity
  8
DIM
 62
     0
100
AcDbLine
 10
0.0
 20
2.0
 30
0.0
 11
0.0
 21
3.5527
 31
0.0
  0
LINE
  5
2A2
330
29A
100
AcDbEntity
  8
DIM
 62
     0
100
AcDbLine
 10
-2.0
 20
0.0
 30
0.0
 11
-3.5527
 21
0.0
 31
0.0
  0
LINE
  5
2A3
330
29A
100
AcDbEntity
  8
DIM
 62
     0
100
AcDbLine
 10
0.0
 20
-2.0
 30
0.0
 11
0.0
 21
-3.5527
 31
0.0
  0
LINE
  5
2A4
330
29A
100
AcDbEntity
  8
DIM
 62
     0
100
AcDbLine
 10
2.0
 20
0.0
 30
0.0
 11
3.5527
 21
0.0
 31
0.0
  0
ENDBLK
  5
29C
330
29A
100
AcDbEntity
  8
0
100
AcDbBlockEnd
  0
BLOCK
  5
2A7
330
2A6
100
AcDbEntity
  8
0
100
AcDbBlockBegin
  2
SW_CENTERMARKSYMBOL_4
 70
     0
 10
0.0
 20
0.0
 30
0.0
  3
SW_CENTERMARKSYMBOL_4
  1

  0
LINE
  5
2A9
330
2A6
100
AcDbEntity
  8
DIM
 62
     0
100
AcDbLine
 10
0.0
 20
0.0
 30
0.0
 11
0.0
 21
1.0
 31
0.0
  0
LINE
  5
2AA
330
2A6
100
AcDbEntity
  8
DIM
 62
     0
100
AcDbLine
 10
0.0
 20
0.0
 30
0.0
 11
-1.0
 21
0.0
 31
0.0
  0
LINE
  5
2AB
330
2A6
100
AcDbEntity
  8
DIM
 62
     0
100
AcDbLine
 10
0.0
 20
0.0
 30
0.0
 11
0.0
 21
-1.0
 31
0.0
  0
LINE
  5
2AC
330
2A6
100
AcDbEntity
  8
DIM
 62
     0
100
AcDbLine
 10
0.0
 20
0.0
 30
0.0
 11
1.0
 21
0.0
 31
0.0
  0
LINE
  5
2AD
330
2A6
100
AcDbEntity
  8
DIM
 62
     0
100
AcDbLine
 10
0.0
 20
2.0
 30
0.0
 11
0.0
 21
6.5
 31
0.0
  0
LINE
  5
2AE
330
2A6
100
AcDbEntity
  8
DIM
 62
     0
100
AcDbLine
 10
-2.0
 20
0.0
 30
0.0
 11
-6.5
 21
0.0
 31
0.0
  0
LINE
  5
2AF
330
2A6
100
AcDbEntity
  8
DIM
 62
     0
100
AcDbLine
 10
0.0
 20
-2.0
 30
0.0
 11
0.0
 21
-6.5
 31
0.0
  0
LINE
  5
2B0
330
2A6
100
AcDbEntity
  8
DIM
 62
     0
100
AcDbLine
 10
2.0
 20
0.0
 30
0.0
 11
6.5
 21
0.0
 31
0.0
  0
ENDBLK
  5
2A8
330
2A6
100
AcDbEntity
  8
0
100
AcDbBlockEnd
  0
BLOCK
  5
2B3
330
2B2
100
AcDbEntity
  8
0
100
AcDbBlockBegin
  2
SW_CENTERMARKSYMBOL_5
 70
     0
 10
0.0
 20
0.0
 30
0.0
  3
SW_CENTERMARKSYMBOL_5
  1

  0
LINE
  5
2B5
330
2B2
100
AcDbEntity
  8
DIM
 62
     0
100
AcDbLine
 10
0.0
 20
0.0
 30
0.0
 11
0.0
 21
1.0
 31
0.0
  0
LINE
  5
2B6
330
2B2
100
AcDbEntity
  8
DIM
 62
     0
100
AcDbLine
 10
0.0
 20
0.0
 30
0.0
 11
-1.0
 21
0.0
 31
0.0
  0
LINE
  5
2B7
330
2B2
100
AcDbEntity
  8
DIM
 62
     0
100
AcDbLine
 10
0.0
 20
0.0
 30
0.0
 11
0.0
 21
-1.0
 31
0.0
  0
LINE
  5
2B8
330
2B2
100
AcDbEntity
  8
DIM
 62
     0
100
AcDbLine
 10
0.0
 20
0.0
 30
0.0
 11
1.0
 21
0.0
 31
0.0
  0
LINE
  5
2B9
330
2B2
100
AcDbEntity
  8
DIM
 62
     0
100
AcDbLine
 10
0.0
 20
2.0
 30
0.0
 11
0.0
 21
6.5
 31
0.0
  0
LINE
  5
2BA
330
2B2
100
AcDbEntity
  8
DIM
 62
     0
100
AcDbLine
 10
-2.0
 20
0.0
 30
0.0
 11
-6.5
 21
0.0
 31
0.0
  0
LINE
  5
2BB
330
2B2
100
AcDbEntity
  8
DIM
 62
     0
100
AcDbLine
 10
0.0
 20
-2.0
 30
0.0
 11
0.0
 21
-6.5
 31
0.0
  0
LINE
  5
2BC
330
2B2
100
AcDbEntity
  8
DIM
 62
     0
100
AcDbLine
 10
2.0
 20
0.0
 30
0.0
 11
6.5
 21
0.0
 31
0.0
  0
ENDBLK
  5
2B4
330
2B2
100
AcDbEntity
  8
0
100
AcDbBlockEnd
  0
BLOCK
  5
2BF
330
2BE
100
AcDbEntity
  8
0
100
AcDbBlockBegin
  2
SW_CENTERMARKSYMBOL_6
 70
     0
 10
0.0
 20
0.0
 30
0.0
  3
SW_CENTERMARKSYMBOL_6
  1

  0
LINE
  5
2C1
330
2BE
100
AcDbEntity
  8
DIM
 62
     0
100
AcDbLine
 10
0.0
 20
0.0
 30
0.0
 11
0.0
 21
1.0
 31
0.0
  0
LINE
  5
2C2
330
2BE
100
AcDbEntity
  8
DIM
 62
     0
100
AcDbLine
 10
0.0
 20
0.0
 30
0.0
 11
-1.0
 21
0.0
 31
0.0
  0
LINE
  5
2C3
330
2BE
100
AcDbEntity
  8
DIM
 62
     0
100
AcDbLine
 10
0.0
 20
0.0
 30
0.0
 11
0.0
 21
-1.0
 31
0.0
  0
LINE
  5
2C4
330
2BE
100
AcDbEntity
  8
DIM
 62
     0
100
AcDbLine
 10
0.0
 20
0.0
 30
0.0
 11
1.0
 21
0.0
 31
0.0
  0
LINE
  5
2C5
330
2BE
100
AcDbEntity
  8
DIM
 62
     0
100
AcDbLine
 10
0.0
 20
2.0
 30
0.0
 11
0.0
 21
6.5
 31
0.0
  0
LINE
  5
2C6
330
2BE
100
AcDbEntity
  8
DIM
 62
     0
100
AcDbLine
 10
-2.0
 20
0.0
 30
0.0
 11
-6.5
 21
0.0
 31
0.0
  0
LINE
  5
2C7
330
2BE
100
AcDbEntity
  8
DIM
 62
     0
100
AcDbLine
 10
0.0
 20
-2.0
 30
0.0
 11
0.0
 21
-6.5
 31
0.0
  0
LINE
  5
2C8
330
2BE
100
AcDbEntity
  8
DIM
 62
     0
100
AcDbLine
 10
2.0
 20
0.0
 30
0.0
 11
6.5
 21
0.0
 31
0.0
  0
ENDBLK
  5
2C0
330
2BE
100
AcDbEntity
  8
0
100
AcDbBlockEnd
  0
BLOCK
  5
2CB
330
2CA
100
AcDbEntity
  8
0
100
AcDbBlockBegin
  2
SW_CENTERMARKSYMBOL_7
 70
     0
 10
0.0
 20
0.0
 30
0.0
  3
SW_CENTERMARKSYMBOL_7
  1

  0
LINE
  5
2CD
330
2CA
100
AcDbEntity
  8
DIM
 62
     0
100
AcDbLine
 10
0.0
 20
0.0
 30
0.0
 11
0.0
 21
1.0
 31
0.0
  0
LINE
  5
2CE
330
2CA
100
AcDbEntity
  8
DIM
 62
     0
100
AcDbLine
 10
0.0
 20
0.0
 30
0.0
 11
-1.0
 21
0.0
 31
0.0
  0
LINE
  5
2CF
330
2CA
100
AcDbEntity
  8
DIM
 62
     0
100
AcDbLine
 10
0.0
 20
0.0
 30
0.0
 11
0.0
 21
-1.0
 31
0.0
  0
LINE
  5
2D0
330
2CA
100
AcDbEntity
  8
DIM
 62
     0
100
AcDbLine
 10
0.0
 20
0.0
 30
0.0
 11
1.0
 21
0.0
 31
0.0
  0
LINE
  5
2D1
330
2CA
100
AcDbEntity
  8
DIM
 62
     0
100
AcDbLine
 10
0.0
 20
2.0
 30
0.0
 11
0.0
 21
6.5
 31
0.0
  0
LINE
  5
2D2
330
2CA
100
AcDbEntity
  8
DIM
 62
     0
100
AcDbLine
 10
-2.0
 20
0.0
 30
0.0
 11
-6.5
 21
0.0
 31
0.0
  0
LINE
  5
2D3
330
2CA
100
AcDbEntity
  8
DIM
 62
     0
100
AcDbLine
 10
0.0
 20
-2.0
 30
0.0
 11
0.0
 21
-6.5
 31
0.0
  0
LINE
  5
2D4
330
2CA
100
AcDbEntity
  8
DIM
 62
     0
100
AcDbLine
 10
2.0
 20
0.0
 30
0.0
 11
6.5
 21
0.0
 31
0.0
  0
ENDBLK
  5
2CC
330
2CA
100
AcDbEntity
  8
0
100
AcDbBlockEnd
  0
ENDSEC
  0
SECTION
  2
ENTITIES
  0
HATCH
  5
7B
330
1F
100
AcDbEntity
  8
DIM
 62
     7
100
AcDbHatch
 10
0.0
 20
0.0
 30
0.0
210
0.0
220
0.0
230
1.0
  2
SOLID
 70
     1
 71
     0
 91
        1
 92
        0
 93
       10
 72
     2
 10
307.8037349749956
 20
56.80515894436724
 40
4.873202233169996
 50
249.2112209143412
 51
308.9221353953366
 73
     1
 72
     1
 10
310.8653909129709
 20
53.01380523852104
 11
312.4091023709183
 21
51.65814638469328
 72
     1
 10
312.4091023709183
 20
51.65814638469328
 11
307.2728784138691
 21
46.67088284427343
 72
     1
 10
307.2728784138691
 20
46.67088284427343
 11
305.7675976850787
 21
47.96687815644943
 72
     1
 10
305.7675976850787
 20
47.96687815644943
 11
306.7772807577429
 21
48.95231878120308
 72
     1
 10
306.7772807577429
 20
48.95231878120308
 11
300.3625570614299
 21
54.52768492564257
 72
     2
 10
301.9864633486951
 20
56.36378152685939
 40
2.451187948489293
 50
131.490638092959
 51
229.7089352075133
 73
     0
 72
     1
 10
300.4013515926702
 20
58.23347216429946
 11
302.4919568004809
 21
60.25201148671149
 72
     1
 10
302.4919568004809
 20
60.25201148671149
 11
304.1162669563249
 21
58.81916044540303
 72
     2
 10
307.2734994417212
 20
56.18333214557136
 40
4.112870991538053
 50
140.1430462780658
 51
253.0452525074005
 73
     1
 97
        0
 75
     0
 76
     1
 98
        1
 10
0.0
 20
0.0
  0
HATCH
  5
7C
330
1F
100
AcDbEntity
  8
DIM
 62
     1
100
AcDbHatch
 10
0.0
 20
0.0
 30
0.0
210
0.0
220
0.0
230
1.0
  2
SOLID
 70
     1
 71
     0
 91
        1
 92
        0
 93
       10
 72
     2
 10
308.0167996773378
 20
55.59843952244398
 40
5.090618727244593
 50
234.1674444878513
 51
314.4407074583996
 73
     0
 72
     2
 10
308.525049742497
 20
56.46375441120905
 40
4.124107981354
 50
317.8184992995784
 51
398.0564711573083
 73
     0
 72
     1
 10
311.7723870913729
 20
53.92149817226242
 11
313.3491053201454
 21
52.54758306843924
 72
     1
 10
313.3491053201454
 20
52.54758306843924
 11
315.3357954238155
 21
54.47467577629079
 72
     2
 10
313.9063677027561
 20
56.43939054720428
 40
2.429684699869225
 50
306.0377529468132
 51
403.4396461533871
 73
     1
 72
     1
 10
315.6705594862318
 20
58.1100177024653
 11
309.0677501128824
 21
63.85269973227962
 72
     1
 10
309.0677501128824
 20
63.85269973227962
 11
310.0665521959661
 21
64.82719322161934
 72
     1
 10
310.0665521959661
 20
64.82719322161934
 11
308.5777417796716
 21
66.1555007733706
 72
     1
 10
308.5777417796716
 20
66.1555007733706
 11
303.4008050622159
 21
61.15242837878802
 72
     1
 10
303.4008050622159
 20
61.15242837878802
 11
305.0366576659736
 21
59.72556353539474
 97
        0
 75
     0
 76
     1
 98
        1
 10
0.0
 20
0.0
  0
LINE
  5
7D
330
1F
100
AcDbEntity
  8
0
  6
Continuous
 62
     7
370
     0
100
AcDbLine
 10
268.5750040296
 20
28.439230802
 30
0.0
 11
270.1750040296
 21
28.439230802
 31
0.0
  0
LINE
  5
7E
330
1F
100
AcDbEntity
  8
0
  6
Continuous
 62
     7
370
     0
100
AcDbLine
 10
263.7750040296
 20
28.439230802
 30
0.0
 11
267.7750040296
 21
28.439230802
 31
0.0
  0
LINE
  5
7F
330
1F
100
AcDbEntity
  8
0
  6
Continuous
 62
     7
370
     0
100
AcDbLine
 10
290.1750040296
 20
24.439230802
 30
0.0
 11
290.1750040296
 21
32.439230802
 31
0.0
  0
LINE
  5
80
330
1F
100
AcDbEntity
  8
0
  6
Continuous
 62
     7
370
     0
100
AcDbLine
 10
278.9750040296
 20
26.039230802
 30
0.0
 11
290.1750040296
 21
24.439230802
 31
0.0
  0
LINE
  5
81
330
1F
100
AcDbEntity
  8
0
  6
Continuous
 62
     7
370
     0
100
AcDbLine
 10
269.3750040296
 20
26.839230802
 30
0.0
 11
269.3750040296
 21
22.839230802
 31
0.0
  0
LINE
  5
82
330
1F
100
AcDbEntity
  8
0
  6
Continuous
 62
     7
370
     0
100
AcDbLine
 10
290.1750040296
 20
32.439230802
 30
0.0
 11
278.9750040296
 21
30.839230802
 31
0.0
  0
LINE
  5
83
330
1F
100
AcDbEntity
  8
0
  6
Continuous
 62
     7
370
     0
100
AcDbLine
 10
277.3750040296
 20
28.439230802
 30
0.0
 11
291.7750040296
 21
28.439230802
 31
0.0
  0
LINE
  5
84
330
1F
100
AcDbEntity
  8
0
  6
Continuous
 62
     7
370
     0
100
AcDbLine
 10
269.3750040296
 20
29.239230802
 30
0.0
 11
269.3750040296
 21
27.639230802
 31
0.0
  0
LINE
  5
85
330
1F
100
AcDbEntity
  8
0
  6
Continuous
 62
     7
370
     0
100
AcDbLine
 10
270.9750040296
 20
28.439230802
 30
0.0
 11
274.9750040296
 21
28.439230802
 31
0.0
  0
LINE
  5
86
330
1F
100
AcDbEntity
  8
0
  6
Continuous
 62
     7
370
     0
100
AcDbLine
 10
269.3750040296
 20
34.039230802
 30
0.0
 11
269.3750040296
 21
30.039230802
 31
0.0
  0
LINE
  5
87
330
1F
100
AcDbEntity
  8
0
  6
Continuous
 62
     7
370
     0
100
AcDbLine
 10
278.9750040296
 20
30.839230802
 30
0.0
 11
278.9750040296
 21
26.039230802
 31
0.0
  0
LINE
  5
88
330
1F
100
AcDbEntity
  8
0
370
     0
100
AcDbLine
 10
312.4091023709
 20
51.6581463847
 30
0.0
 11
307.2728784139
 21
46.6708828443
 31
0.0
  0
LINE
  5
89
330
1F
100
AcDbEntity
  8
0
370
     0
100
AcDbLine
 10
307.2728784139
 20
46.6708828443
 30
0.0
 11
305.7675976851
 21
47.9668781564
 31
0.0
  0
LINE
  5
8A
330
1F
100
AcDbEntity
  8
0
370
     0
100
AcDbLine
 10
305.7675976851
 20
47.9668781564
 30
0.0
 11
306.7772807577
 21
48.9523187812
 31
0.0
  0
LINE
  5
8B
330
1F
100
AcDbEntity
  8
0
370
     0
100
AcDbLine
 10
300.3625570614
 20
54.5276849256
 30
0.0
 11
306.7772807577
 21
48.9523187812
 31
0.0
  0
LINE
  5
8C
330
1F
100
AcDbEntity
  8
0
370
     0
100
AcDbLine
 10
302.4919568005
 20
60.2520114867
 30
0.0
 11
300.4013515927
 21
58.2334721643
 31
0.0
  0
LINE
  5
8D
330
1F
100
AcDbEntity
  8
0
370
     0
100
AcDbLine
 10
302.4919568005
 20
60.2520114867
 30
0.0
 11
304.1162669563
 21
58.8191604454
 31
0.0
  0
LINE
  5
8E
330
1F
100
AcDbEntity
  8
0
370
     0
100
AcDbLine
 10
310.865390913
 20
53.0138052385
 30
0.0
 11
312.4091023709
 21
51.6581463847
 31
0.0
  0
LINE
  5
8F
330
1F
100
AcDbEntity
  8
0
 62
     1
370
     0
100
AcDbLine
 10
305.036657666
 20
59.7255635354
 30
0.0
 11
303.4008050622
 21
61.1524283788
 31
0.0
  0
LINE
  5
90
330
1F
100
AcDbEntity
  8
0
 62
     1
370
     0
100
AcDbLine
 10
303.4008050622
 20
61.1524283788
 30
0.0
 11
308.5777417797
 21
66.1555007734
 31
0.0
  0
LINE
  5
91
330
1F
100
AcDbEntity
  8
0
 62
     1
370
     0
100
AcDbLine
 10
308.5777417797
 20
66.1555007734
 30
0.0
 11
310.066552196
 21
64.8271932216
 31
0.0
  0
LINE
  5
92
330
1F
100
AcDbEntity
  8
0
 62
     1
370
     0
100
AcDbLine
 10
310.066552196
 20
64.8271932216
 30
0.0
 11
309.0677501129
 21
63.8526997323
 31
0.0
  0
LINE
  5
93
330
1F
100
AcDbEntity
  8
0
 62
     1
370
     0
100
AcDbLine
 10
309.0677501129
 20
63.8526997323
 30
0.0
 11
315.6705594862
 21
58.1100177025
 31
0.0
  0
LINE
  5
94
330
1F
100
AcDbEntity
  8
0
 62
     1
370
     0
100
AcDbLine
 10
311.7723870914
 20
53.9214981723
 30
0.0
 11
313.3491053201
 21
52.5475830684
 31
0.0
  0
LINE
  5
95
330
1F
100
AcDbEntity
  8
0
 62
     1
370
     0
100
AcDbLine
 10
313.3491053201
 20
52.5475830684
 30
0.0
 11
315.3357954238
 21
54.4746757763
 31
0.0
  0
LINE
  5
96
330
1F
100
AcDbEntity
  8
0
  6
Continuous
 62
     7
370
     0
100
AcDbLine
 10
297.1052744335
 20
20.9843942527
 30
0.0
 11
457.1052744335
 21
20.9843942527
 31
0.0
  0
LINE
  5
97
330
1F
100
AcDbEntity
  8
0
  6
Continuous
 62
     7
370
     0
100
AcDbLine
 10
297.1052744335
 20
28.9843942527
 30
0.0
 11
377.1052744335
 21
28.9843942527
 31
0.0
  0
LINE
  5
98
330
1F
100
AcDbEntity
  8
0
  6
Continuous
 62
     7
370
     0
100
AcDbLine
 10
297.1052744335
 20
36.9843942527
 30
0.0
 11
377.1052744335
 21
36.9843942527
 31
0.0
  0
LINE
  5
99
330
1F
100
AcDbEntity
  8
0
  6
Continuous
 62
     7
370
     0
100
AcDbLine
 10
297.1052744335
 20
44.9843942527
 30
0.0
 11
457.1052744335
 21
44.9843942527
 31
0.0
  0
LINE
  5
9A
330
1F
100
AcDbEntity
  8
0
  6
Continuous
 62
     7
370
     0
100
AcDbLine
 10
377.1052744335
 20
52.9843942527
 30
0.0
 11
457.1052744335
 21
52.9843942527
 31
0.0
  0
LINE
  5
9B
330
1F
100
AcDbEntity
  8
0
  6
Continuous
 62
     7
370
    15
100
AcDbLine
 10
377.1052744335
 20
28.9843942527
 30
0.0
 11
457.1052744335
 21
28.9843942527
 31
0.0
  0
LINE
  5
9C
330
1F
100
AcDbEntity
  8
0
  6
Continuous
 62
     7
370
     0
100
AcDbLine
 10
297.1052744335
 20
68.9843942527
 30
0.0
 11
457.1052744335
 21
68.9843942527
 31
0.0
  0
LINE
  5
9D
330
1F
100
AcDbEntity
  8
0
  6
Continuous
 62
     7
370
     0
100
AcDbLine
 10
401.9795482801
 20
12.9843942527
 30
0.0
 11
401.9795482801
 21
28.9843942527
 31
0.0
  0
LINE
  5
9E
330
1F
100
AcDbEntity
  8
0
  6
Continuous
 62
     7
370
     0
100
AcDbLine
 10
377.1052744335
 20
12.9843942527
 30
0.0
 11
377.1052744335
 21
68.9843942527
 31
0.0
  0
LINE
  5
9F
330
1F
100
AcDbEntity
  8
0
  6
Continuous
 62
     7
370
     0
100
AcDbLine
 10
401.9795482801
 20
44.9843942527
 30
0.0
 11
401.9795482801
 21
52.9843942527
 31
0.0
  0
LINE
  5
A0
330
1F
100
AcDbEntity
  8
0
  6
Continuous
 62
     7
370
     0
100
AcDbLine
 10
343.0662538165
 20
12.9843942527
 30
0.0
 11
343.0662538165
 21
44.9843942527
 31
0.0
  0
LINE
  5
A1
330
1F
100
AcDbEntity
  8
0
  6
Continuous
 62
     7
370
     0
100
AcDbLine
 10
319.6457420009
 20
12.9843942527
 30
0.0
 11
319.6457420009
 21
44.9843942527
 31
0.0
  0
LINE
  5
A2
330
1F
100
AcDbEntity
  8
0
  6
Continuous
 62
     7
370
     0
100
AcDbLine
 10
297.1052744335
 20
12.9843942527
 30
0.0
 11
297.1052744335
 21
68.9843942527
 31
0.0
  0
LINE
  5
A3
330
1F
100
AcDbEntity
  8
0
  6
Continuous
 62
     7
370
    15
100
AcDbLine
 10
13.9052744335
 20
167.5898191864
 30
0.0
 11
23.5052744335
 21
167.5898191864
 31
0.0
  0
LINE
  5
A4
330
1F
100
AcDbEntity
  8
0
  6
Continuous
 62
     7
370
    15
100
AcDbLine
 10
457.1052744335
 20
167.5898191864
 30
0.0
 11
447.5052744335
 21
167.5898191864
 31
0.0
  0
LINE
  5
A5
330
1F
100
AcDbEntity
  8
0
  6
Continuous
 62
     7
370
    15
100
AcDbLine
 10
235.5052744335
 20
12.9843942527
 30
0.0
 11
235.5052744335
 21
22.5843942527
 31
0.0
  0
LINE
  5
A6
330
1F
100
AcDbEntity
  8
0
  6
Continuous
 62
     7
370
    15
100
AcDbLine
 10
235.5052744335
 20
322.1952441201
 30
0.0
 11
235.5052744335
 21
312.5952441201
 31
0.0
  0
LINE
  5
A7
330
1F
100
AcDbEntity
  8
0
  6
Continuous
 62
     7
370
    15
100
AcDbLine
 10
69.3132744335
 20
322.1952441201
 30
0.0
 11
69.3132744335
 21
324.5952441201
 31
0.0
  0
LINE
  5
A8
330
1F
100
AcDbEntity
  8
0
  6
Continuous
 62
     7
370
    15
100
AcDbLine
 10
124.7212744335
 20
322.1952441201
 30
0.0
 11
124.7212744335
 21
324.5952441201
 31
0.0
  0
LINE
  5
A9
330
1F
100
AcDbEntity
  8
0
  6
Continuous
 62
     7
370
    15
100
AcDbLine
 10
180.1292744335
 20
322.1952441201
 30
0.0
 11
180.1292744335
 21
324.5952441201
 31
0.0
  0
LINE
  5
AA
330
1F
100
AcDbEntity
  8
0
  6
Continuous
 62
     7
370
    15
100
AcDbLine
 10
235.5372744335
 20
322.1952441201
 30
0.0
 11
235.5372744335
 21
324.5952441201
 31
0.0
  0
LINE
  5
AB
330
1F
100
AcDbEntity
  8
0
  6
Continuous
 62
     7
370
    15
100
AcDbLine
 10
290.9452744335
 20
322.1952441201
 30
0.0
 11
290.9452744335
 21
324.5952441201
 31
0.0
  0
LINE
  5
AC
330
1F
100
AcDbEntity
  8
0
  6
Continuous
 62
     7
370
    15
100
AcDbLine
 10
346.3532744335
 20
322.1952441201
 30
0.0
 11
346.3532744335
 21
324.5952441201
 31
0.0
  0
LINE
  5
AD
330
1F
100
AcDbEntity
  8
0
  6
Continuous
 62
     7
370
    15
100
AcDbLine
 10
401.7612744335
 20
322.1952441201
 30
0.0
 11
401.7612744335
 21
324.5952441201
 31
0.0
  0
LINE
  5
AE
330
1F
100
AcDbEntity
  8
0
  6
Continuous
 62
     7
370
    15
100
AcDbLine
 10
69.3052744335
 20
12.9843942527
 30
0.0
 11
69.3052744335
 21
10.5843942527
 31
0.0
  0
LINE
  5
AF
330
1F
100
AcDbEntity
  8
0
  6
Continuous
 62
     7
370
    15
100
AcDbLine
 10
124.7052744335
 20
12.9843942527
 30
0.0
 11
124.7052744335
 21
10.5843942527
 31
0.0
  0
LINE
  5
B0
330
1F
100
AcDbEntity
  8
0
  6
Continuous
 62
     7
370
    15
100
AcDbLine
 10
180.1052744335
 20
12.9843942527
 30
0.0
 11
180.1052744335
 21
10.5843942527
 31
0.0
  0
LINE
  5
B1
330
1F
100
AcDbEntity
  8
0
  6
Continuous
 62
     7
370
    15
100
AcDbLine
 10
235.5052744335
 20
12.9843942527
 30
0.0
 11
235.5052744335
 21
10.5843942527
 31
0.0
  0
LINE
  5
B2
330
1F
100
AcDbEntity
  8
0
  6
Continuous
 62
     7
370
    15
100
AcDbLine
 10
290.9052744335
 20
12.9843942527
 30
0.0
 11
290.9052744335
 21
10.5843942527
 31
0.0
  0
LINE
  5
B3
330
1F
100
AcDbEntity
  8
0
  6
Continuous
 62
     7
370
    15
100
AcDbLine
 10
346.3052744335
 20
12.9843942527
 30
0.0
 11
346.3052744335
 21
10.5843942527
 31
0.0
  0
LINE
  5
B4
330
1F
100
AcDbEntity
  8
0
  6
Continuous
 62
     7
370
     0
100
AcDbLine
 10
457.1052744335
 20
322.1952441201
 30
0.0
 11
13.9052744335
 21
322.1952441201
 31
0.0
  0
LINE
  5
B5
330
1F
100
AcDbEntity
  8
0
  6
Continuous
 62
     7
370
     0
100
AcDbLine
 10
457.1052744335
 20
12.9843942527
 30
0.0
 11
457.1052744335
 21
322.1952441201
 31
0.0
  0
LINE
  5
B6
330
1F
100
AcDbEntity
  8
0
  6
Continuous
 62
     7
370
     0
100
AcDbLine
 10
13.9052744335
 20
322.1952441201
 30
0.0
 11
13.9052744335
 21
12.9843942527
 31
0.0
  0
LINE
  5
B7
330
1F
100
AcDbEntity
  8
0
  6
Continuous
 62
     7
370
     0
100
AcDbLine
 10
13.9052744335
 20
12.9843942527
 30
0.0
 11
457.1052744335
 21
12.9843942527
 31
0.0
  0
LINE
  5
B8
330
1F
100
AcDbEntity
  8
0
  6
Continuous
 62
     7
370
    15
100
AcDbLine
 10
401.7052744335
 20
12.9843942527
 30
0.0
 11
401.7052744335
 21
10.5843942527
 31
0.0
  0
LINE
  5
B9
330
1F
100
AcDbEntity
  8
0
  6
Continuous
 62
     7
370
    15
100
AcDbLine
 10
13.9052744335
 20
64.5203942527
 30
0.0
 11
11.5052744335
 21
64.5203942527
 31
0.0
  0
LINE
  5
BA
330
1F
100
AcDbEntity
  8
0
  6
Continuous
 62
     7
370
    15
100
AcDbLine
 10
13.9052744335
 20
116.0563942527
 30
0.0
 11
11.5052744335
 21
116.0563942527
 31
0.0
  0
LINE
  5
BB
330
1F
100
AcDbEntity
  8
0
  6
Continuous
 62
     7
370
    15
100
AcDbLine
 10
13.9052744335
 20
167.5923942527
 30
0.0
 11
11.5052744335
 21
167.5923942527
 31
0.0
  0
LINE
  5
BC
330
1F
100
AcDbEntity
  8
0
  6
Continuous
 62
     7
370
    15
100
AcDbLine
 10
13.9052744335
 20
219.1283942527
 30
0.0
 11
11.5052744335
 21
219.1283942527
 31
0.0
  0
LINE
  5
BD
330
1F
100
AcDbEntity
  8
0
  6
Continuous
 62
     7
370
    15
100
AcDbLine
 10
13.9052744335
 20
270.6643942527
 30
0.0
 11
11.5052744335
 21
270.6643942527
 31
0.0
  0
LINE
  5
BE
330
1F
100
AcDbEntity
  8
0
  6
Continuous
 62
     7
370
    15
100
AcDbLine
 10
457.1052744335
 20
64.5203942527
 30
0.0
 11
459.5052744335
 21
64.5203942527
 31
0.0
  0
LINE
  5
BF
330
1F
100
AcDbEntity
  8
0
  6
Continuous
 62
     7
370
    15
100
AcDbLine
 10
457.1052744335
 20
116.0563942527
 30
0.0
 11
459.5052744335
 21
116.0563942527
 31
0.0
  0
LINE
  5
C0
330
1F
100
AcDbEntity
  8
0
  6
Continuous
 62
     7
370
    15
100
AcDbLine
 10
457.1052744335
 20
167.5923942527
 30
0.0
 11
459.5052744335
 21
167.5923942527
 31
0.0
  0
LINE
  5
C1
330
1F
100
AcDbEntity
  8
0
  6
Continuous
 62
     7
370
    15
100
AcDbLine
 10
457.1052744335
 20
219.1283942527
 30
0.0
 11
459.5052744335
 21
219.1283942527
 31
0.0
  0
LINE
  5
C2
330
1F
100
AcDbEntity
  8
0
  6
Continuous
 62
     7
370
    15
100
AcDbLine
 10
457.1052744335
 20
270.6643942527
 30
0.0
 11
459.5052744335
 21
270.6643942527
 31
0.0
  0
CIRCLE
  5
C3
330
1F
100
AcDbEntity
  8
0
  6
Continuous
 62
     7
370
     0
100
AcDbCircle
 10
269.3750040296
 20
28.439230802
 30
0.0
 40
2.400000000000034
  0
CIRCLE
  5
C4
330
1F
100
AcDbEntity
  8
0
  6
Continuous
 62
     7
370
     0
100
AcDbCircle
 10
269.3750040296
 20
28.439230802
 30
0.0
 40
4.0
  0
ARC
  5
C5
330
1F
100
AcDbEntity
  8
0
370
     0
100
AcDbCircle
 10
301.9864633487
 20
56.3637815269
 30
0.0
 40
2.451187948489304
100
AcDbArc
 50
130.2910647925
 51
228.509361907
  0
ARC
  5
C6
330
1F
100
AcDbEntity
  8
0
370
     0
100
AcDbCircle
 10
307.2734994417
 20
56.1833321456
 30
0.0
 40
4.11287099153811
100
AcDbArc
 50
140.1430462781
 51
253.0452525074
  0
ARC
  5
C7
330
1F
100
AcDbEntity
  8
0
370
     0
100
AcDbCircle
 10
307.803734975
 20
56.8051589444
 30
0.0
 40
4.873202233170029
100
AcDbArc
 50
249.2112209143
 51
308.9221353953
  0
ARC
  5
C8
330
1F
100
AcDbEntity
  8
0
 62
     1
370
     0
100
AcDbCircle
 10
313.9063677028
 20
56.4393905472
 30
0.0
 40
2.429684699869259
100
AcDbArc
 50
306.0377529468
 51
43.4396461534
  0
ARC
  5
C9
330
1F
100
AcDbEntity
  8
0
 62
     1
370
     0
100
AcDbCircle
 10
308.0167996773
 20
55.5984395224
 30
0.0
 40
5.090618727244593
100
AcDbArc
 50
45.5592925416
 51
125.8325555122
  0
ARC
  5
CA
330
1F
100
AcDbEntity
  8
0
 62
     1
370
     0
100
AcDbCircle
 10
308.5250497425
 20
56.4637544112
 30
0.0
 40
4.124107981354018
100
AcDbArc
 50
321.9435288427
 51
42.1815007004
  0
MTEXT
  5
CC
330
1F
100
AcDbEntity
  8
0
  6
Continuous
 62
     7
370
     0
100
AcDbMText
 10
264.8682961287
 20
21.153350459
 30
0.0
 40
4.2333333333
 41
0.0
 71
     1
 72
     1
  1
UNIT:m/m
  7
SLDTEXTSTYLE1
 73
     1
 44
1.0
  0
INSERT
  5
D3
330
1F
100
AcDbEntity
  8
0
  6
Continuous
 62
     7
370
     0
100
AcDbBlockReference
  2
SW_NOTE_0
 10
19.5704121685
 20
310.2246886802
 30
0.0
  0
MTEXT
  5
D5
330
1F
100
AcDbEntity
  8
0
  6
Continuous
 62
     7
370
     0
100
AcDbMText
 10
317.9603030296
 20
64.7050838622
 30
0.0
 40
3.81
 41
0.0
 71
     1
 72
     1
  1
Unice E-O Services Inc.
  7
SLDTEXTSTYLE2
 73
     1
 44
1.0
  0
MTEXT
  5
D6
330
1F
100
AcDbEntity
  8
0
  6
Continuous
 62
     7
370
     0
100
AcDbMText
 10
348.0944861039
 20
34.5387437617
 30
0.0
 40
2.9633333333
 41
0.0
 71
     1
 72
     1
  1
2010/12/30
  7
SLDTEXTSTYLE1
 73
     1
 44
1.0
  0
MTEXT
  5
D7
330
1F
100
AcDbEntity
  8
0
  6
Continuous
 62
     7
370
     0
100
AcDbMText
 10
404.1742372011
 20
26.993884384
 30
0.0
 40
4.0
 41
0.0
 71
     1
 72
     1
  1
1:1.6
  7
SLDTEXTSTYLE1
 73
     1
 44
1.0
  0
MTEXT
  5
D8
330
1F
100
AcDbEntity
  8
0
  6
Continuous
 62
     7
370
     0
100
AcDbMText
 10
403.6920959976
 20
51.44307127
 30
0.0
 40
4.0
 41
0.0
 71
     1
 72
     1
  1
07LPB-1
  7
SLDTEXTSTYLE1
 73
     1
 44
1.0
  0
MTEXT
  5
D9
330
1F
100
AcDbEntity
  8
0
  6
Continuous
 62
     7
370
     0
100
AcDbMText
 10
403.6920959976
 20
60.9731388606
 30
0.0
 40
4.0
 41
0.0
 71
     1
 72
     1
  1
07LPB-1
  7
SLDTEXTSTYLE1
 73
     1
 44
1.0
  0
MTEXT
  5
DA
330
1F
100
AcDbEntity
  8
0
  6
Continuous
 62
     7
370
     0
100
AcDbMText
 10
378.2274986858
 20
26.4103673165
 30
0.0
 40
3.3866666667
 41
0.0
 71
     1
 72
     1
  1
SCALE:
  7
SLDTEXTSTYLE1
 73
     1
 44
1.0
  0
MTEXT
  5
DB
330
1F
100
AcDbEntity
  8
0
  6
Continuous
 62
     7
370
     0
100
AcDbMText
 10
298.1337738863
 20
34.5387437617
 30
0.0
 40
2.9633333333
 41
0.0
 71
     1
 72
     1
  1
DRAWN
  7
SLDTEXTSTYLE1
 73
     1
 44
1.0
  0
MTEXT
  5
DC
330
1F
100
AcDbEntity
  8
0
  6
Continuous
 62
     7
370
     0
100
AcDbMText
 10
325.1565388699
 20
42.6931332928
 30
0.0
 40
2.9633333333
 41
0.0
 71
     1
 72
     1
  1
NAME
  7
SLDTEXTSTYLE1
 73
     1
 44
1.0
  0
MTEXT
  5
DD
330
1F
100
AcDbEntity
  8
0
  6
Continuous
 62
     7
370
     0
100
AcDbMText
 10
353.3936249212
 20
42.6931332928
 30
0.0
 40
2.9633333333
 41
0.0
 71
     1
 72
     1
  1
DATE
  7
SLDTEXTSTYLE1
 73
     1
 44
1.0
  0
MTEXT
  5
DE
330
1F
100
AcDbEntity
  8
0
  6
Continuous
 62
     7
370
     0
100
AcDbMText
 10
378.0410106632
 20
50.8595542026
 30
0.0
 40
3.3866666667
 41
0.0
 71
     1
 72
     1
  1
DWG. NO.
  7
SLDTEXTSTYLE1
 73
     1
 44
1.0
  0
MTEXT
  5
DF
330
1F
100
AcDbEntity
  8
0
  6
Continuous
 62
     7
370
     0
100
AcDbMText
 10
378.1807851341
 20
67.0145053189
 30
0.0
 40
3.3866666667
 41
0.0
 71
     1
 72
     1
  1
TITLE:
  7
SLDTEXTSTYLE1
 73
     1
 44
1.0
  0
MTEXT
  5
E0
330
1F
100
AcDbEntity
  8
0
  6
Continuous
 62
     7
370
     0
100
AcDbMText
 10
324.8502735683
 20
25.9846063558
 30
0.0
 40
2.9633333333
 41
0.0
 71
     1
 72
     1
  1
Johnny
  7
SLDTEXTSTYLE1
 73
     1
 44
1.0
  0
MTEXT
  5
E1
330
1F
100
AcDbEntity
  8
0
  6
Continuous
 62
     7
370
     0
100
AcDbMText
 10
348.0944861039
 20
25.9846063558
 30
0.0
 40
2.9633333333
 41
0.0
 71
     1
 72
     1
  1
2010/12/30
  7
SLDTEXTSTYLE1
 73
     1
 44
1.0
  0
MTEXT
  5
E2
330
1F
100
AcDbEntity
  8
0
  6
Continuous
 62
     7
370
     0
100
AcDbMText
 10
298.1337738863
 20
25.9846063558
 30
0.0
 40
2.9633333333
 41
0.0
 71
     1
 72
     1
  1
ENG APPR.
  7
SLDTEXTSTYLE1
 73
     1
 44
1.0
  0
MTEXT
  5
E3
330
1F
100
AcDbEntity
  8
0
  6
Continuous
 62
     7
370
     0
100
AcDbMText
 10
378.2274986858
 20
18.696542286
 30
0.0
 40
3.3866666667
 41
0.0
 71
     1
 72
     1
  1
REV
  7
SLDTEXTSTYLE1
 73
     1
 44
1.0
  0
MTEXT
  5
E4
330
1F
100
AcDbEntity
  8
0
  6
Continuous
 62
     7
370
     0
100
AcDbMText
 10
378.1807851341
 20
43.1188942535
 30
0.0
 40
3.3866666667
 41
0.0
 71
     1
 72
     1
  1
MATERIAL:
  7
SLDTEXTSTYLE1
 73
     1
 44
1.0
  0
MTEXT
  5
E5
330
1F
100
AcDbEntity
  8
0
  6
Continuous
 62
     7
370
     0
100
AcDbMText
 10
404.1742372011
 20
35.5480217899
 30
0.0
 40
4.0
 41
0.0
 71
     1
 72
     1
  1
N/A
  7
SLDTEXTSTYLE1
 73
     1
 44
1.0
  0
MTEXT
  5
E6
330
1F
100
AcDbEntity
  8
0
  6
Continuous
 62
     7
370
     0
100
AcDbMText
 10
42.5647890453
 20
327.1253626511
 30
0.0
 40
3.3866666667
 41
0.0
 71
     1
 72
     1
  1
1
  7
SLDTEXTSTYLE1
 73
     1
 44
1.0
  0
MTEXT
  5
E7
330
1F
100
AcDbEntity
  8
0
  6
Continuous
 62
     7
370
     0
100
AcDbMText
 10
97.1473593158
 20
327.1253626511
 30
0.0
 40
3.3866666667
 41
0.0
 71
     1
 72
     1
  1
2
  7
SLDTEXTSTYLE1
 73
     1
 44
1.0
  0
MTEXT
  5
E8
330
1F
100
AcDbEntity
  8
0
  6
Continuous
 62
     7
370
     0
100
AcDbMText
 10
151.841591025
 20
327.1253626511
 30
0.0
 40
3.3866666667
 41
0.0
 71
     1
 72
     1
  1
3
  7
SLDTEXTSTYLE1
 73
     1
 44
1.0
  0
MTEXT
  5
E9
330
1F
100
AcDbEntity
  8
0
  6
Continuous
 62
     7
370
     0
100
AcDbMText
 10
206.8053380562
 20
326.8788134983
 30
0.0
 40
3.3866666667
 41
0.0
 71
     1
 72
     1
  1
4
  7
SLDTEXTSTYLE1
 73
     1
 44
1.0
  0
MTEXT
  5
EA
330
1F
100
AcDbEntity
  8
0
  6
Continuous
 62
     7
370
     0
100
AcDbMText
 10
261.9237175423
 20
327.1253626511
 30
0.0
 40
3.3866666667
 41
0.0
 71
     1
 72
     1
  1
5
  7
SLDTEXTSTYLE1
 73
     1
 44
1.0
  0
MTEXT
  5
EB
330
1F
100
AcDbEntity
  8
0
  6
Continuous
 62
     7
370
     0
100
AcDbMText
 10
317.8211472664
 20
327.1253626511
 30
0.0
 40
3.3866666667
 41
0.0
 71
     1
 72
     1
  1
6
  7
SLDTEXTSTYLE1
 73
     1
 44
1.0
  0
MTEXT
  5
EC
330
1F
100
AcDbEntity
  8
0
  6
Continuous
 62
     7
370
     0
100
AcDbMText
 10
374.980905185
 20
327.1253626511
 30
0.0
 40
3.3866666667
 41
0.0
 71
     1
 72
     1
  1
7
  7
SLDTEXTSTYLE1
 73
     1
 44
1.0
  0
MTEXT
  5
ED
330
1F
100
AcDbEntity
  8
0
  6
Continuous
 62
     7
370
     0
100
AcDbMText
 10
426.046051279
 20
327.1253626511
 30
0.0
 40
3.3866666667
 41
0.0
 71
     1
 72
     1
  1
8
  7
SLDTEXTSTYLE1
 73
     1
 44
1.0
  0
MTEXT
  5
EE
330
1F
100
AcDbEntity
  8
0
  6
Continuous
 62
     7
370
     0
100
AcDbMText
 10
8.5709178487
 20
297.2980836607
 30
0.0
 40
3.3866666667
 41
0.0
 71
     1
 72
     1
  1
A
  7
SLDTEXTSTYLE1
 73
     1
 44
1.0
  0
MTEXT
  5
EF
330
1F
100
AcDbEntity
  8
0
  6
Continuous
 62
     7
370
     0
100
AcDbMText
 10
8.945669093
 20
246.8788877181
 30
0.0
 40
3.3866666667
 41
0.0
 71
     1
 72
     1
  1
B
  7
SLDTEXTSTYLE1
 73
     1
 44
1.0
  0
MTEXT
  5
F0
330
1F
100
AcDbEntity
  8
0
  6
Continuous
 62
     7
370
     0
100
AcDbMText
 10
8.945669093
 20
194.0389622768
 30
0.0
 40
3.3866666667
 41
0.0
 71
     1
 72
     1
  1
C
  7
SLDTEXTSTYLE1
 73
     1
 44
1.0
  0
MTEXT
  5
F1
330
1F
100
AcDbEntity
  8
0
  6
Continuous
 62
     7
370
     0
100
AcDbMText
 10
8.945669093
 20
141.9925152353
 30
0.0
 40
3.3866666667
 41
0.0
 71
     1
 72
     1
  1
D
  7
SLDTEXTSTYLE1
 73
     1
 44
1.0
  0
MTEXT
  5
F2
330
1F
100
AcDbEntity
  8
0
  6
Continuous
 62
     7
370
     0
100
AcDbMText
 10
8.945669093
 20
92.0894158715
 30
0.0
 40
3.3866666667
 41
0.0
 71
     1
 72
     1
  1
E
  7
SLDTEXTSTYLE1
 73
     1
 44
1.0
  0
MTEXT
  5
F3
330
1F
100
AcDbEntity
  8
0
  6
Continuous
 62
     7
370
     0
100
AcDbMText
 10
8.945669093
 20
40.9110739603
 30
0.0
 40
3.3866666667
 41
0.0
 71
     1
 72
     1
  1
F
  7
SLDTEXTSTYLE1
 73
     1
 44
1.0
  0
MTEXT
  5
F4
330
1F
100
AcDbEntity
  8
0
  6
Continuous
 62
     7
370
     0
100
AcDbMText
 10
425.8973787142
 20
10.5977958341
 30
0.0
 40
3.3866666667
 41
0.0
 71
     1
 72
     1
  1
8
  7
SLDTEXTSTYLE1
 73
     1
 44
1.0
  0
MTEXT
  5
F5
330
1F
100
AcDbEntity
  8
0
  6
Continuous
 62
     7
370
     0
100
AcDbMText
 10
374.8322326202
 20
10.5977958341
 30
0.0
 40
3.3866666667
 41
0.0
 71
     1
 72
     1
  1
7
  7
SLDTEXTSTYLE1
 73
     1
 44
1.0
  0
MTEXT
  5
F6
330
1F
100
AcDbEntity
  8
0
  6
Continuous
 62
     7
370
     0
100
AcDbMText
 10
317.6724747016
 20
10.5977958341
 30
0.0
 40
3.3866666667
 41
0.0
 71
     1
 72
     1
  1
6
  7
SLDTEXTSTYLE1
 73
     1
 44
1.0
  0
MTEXT
  5
F7
330
1F
100
AcDbEntity
  8
0
  6
Continuous
 62
     7
370
     0
100
AcDbMText
 10
261.7750449775
 20
10.5977958341
 30
0.0
 40
3.3866666667
 41
0.0
 71
     1
 72
     1
  1
5
  7
SLDTEXTSTYLE1
 73
     1
 44
1.0
  0
MTEXT
  5
F8
330
1F
100
AcDbEntity
  8
0
  6
Continuous
 62
     7
370
     0
100
AcDbMText
 10
206.6566654914
 20
10.3512466813
 30
0.0
 40
3.3866666667
 41
0.0
 71
     1
 72
     1
  1
4
  7
SLDTEXTSTYLE1
 73
     1
 44
1.0
  0
MTEXT
  5
F9
330
1F
100
AcDbEntity
  8
0
  6
Continuous
 62
     7
370
     0
100
AcDbMText
 10
151.6929184602
 20
10.5977958341
 30
0.0
 40
3.3866666667
 41
0.0
 71
     1
 72
     1
  1
3
  7
SLDTEXTSTYLE1
 73
     1
 44
1.0
  0
MTEXT
  5
FA
330
1F
100
AcDbEntity
  8
0
  6
Continuous
 62
     7
370
     0
100
AcDbMText
 10
96.998686751
 20
10.5977958341
 30
0.0
 40
3.3866666667
 41
0.0
 71
     1
 72
     1
  1
2
  7
SLDTEXTSTYLE1
 73
     1
 44
1.0
  0
MTEXT
  5
FB
330
1F
100
AcDbEntity
  8
0
  6
Continuous
 62
     7
370
     0
100
AcDbMText
 10
42.4161164805
 20
10.5977958341
 30
0.0
 40
3.3866666667
 41
0.0
 71
     1
 72
     1
  1
1
  7
SLDTEXTSTYLE1
 73
     1
 44
1.0
  0
MTEXT
  5
FC
330
1F
100
AcDbEntity
  8
0
  6
Continuous
 62
     7
370
     0
100
AcDbMText
 10
459.3638153831
 20
298.6279854547
 30
0.0
 40
3.3866666667
 41
0.0
 71
     1
 72
     1
  1
A
  7
SLDTEXTSTYLE1
 73
     1
 44
1.0
  0
MTEXT
  5
FD
330
1F
100
AcDbEntity
  8
0
  6
Continuous
 62
     7
370
     0
100
AcDbMText
 10
459.7385666274
 20
248.2087895121
 30
0.0
 40
3.3866666667
 41
0.0
 71
     1
 72
     1
  1
B
  7
SLDTEXTSTYLE1
 73
     1
 44
1.0
  0
MTEXT
  5
FE
330
1F
100
AcDbEntity
  8
0
  6
Continuous
 62
     7
370
     0
100
AcDbMText
 10
459.7385666274
 20
195.3688640708
 30
0.0
 40
3.3866666667
 41
0.0
 71
     1
 72
     1
  1
C
  7
SLDTEXTSTYLE1
 73
     1
 44
1.0
  0
MTEXT
  5
FF
330
1F
100
AcDbEntity
  8
0
  6
Continuous
 62
     7
370
     0
100
AcDbMText
 10
459.7385666274
 20
143.3224170293
 30
0.0
 40
3.3866666667
 41
0.0
 71
     1
 72
     1
  1
D
  7
SLDTEXTSTYLE1
 73
     1
 44
1.0
  0
MTEXT
  5
100
330
1F
100
AcDbEntity
  8
0
  6
Continuous
 62
     7
370
     0
100
AcDbMText
 10
459.7385666274
 20
93.4193176655
 30
0.0
 40
3.3866666667
 41
0.0
 71
     1
 72
     1
  1
E
  7
SLDTEXTSTYLE1
 73
     1
 44
1.0
  0
MTEXT
  5
101
330
1F
100
AcDbEntity
  8
0
  6
Continuous
 62
     7
370
     0
100
AcDbMText
 10
459.7385666274
 20
42.2409757543
 30
0.0
 40
3.3866666667
 41
0.0
 71
     1
 72
     1
  1
F
  7
SLDTEXTSTYLE1
 73
     1
 44
1.0
  0
MTEXT
  5
102
330
1F
100
AcDbEntity
  8
0
  6
Continuous
 62
     7
370
     0
100
AcDbMText
 10
325.0485006084
 20
34.5387437617
 30
0.0
 40
2.9633333333
 41
0.0
 71
     1
 72
     1
  1
Eric
  7
SLDTEXTSTYLE1
 73
     1
 44
1.0
  0
MTEXT
  5
104
330
1F
100
AcDbEntity
  8
0
  6
Continuous
 62
     7
370
     0
100
AcDbMText
 10
404.5571583432
 20
19.5363975296
 30
0.0
 40
4.2333333333
 41
0.0
 71
     1
 72
     1
  1
0
  7
SLDTEXTSTYLE3
 73
     1
 44
1.0
  0
INSERT
  5
10A
330
1F
100
AcDbEntity
  8
DIM
 62
     7
100
AcDbBlockReference
  2
SW_NOTE_1
 10
317.9603030296
 20
54.1401332803
 30
0.0
  0
LINE
  5
10B
330
1F
100
AcDbEntity
  8
0
  6
Continuous
 62
     7
370
    15
100
AcDbLine
 10
128.2782781905
 20
85.2175301456
 30
0.0
 11
128.2782781905
 21
77.9175301456
 31
0.0
  0
LINE
  5
10C
330
1F
100
AcDbEntity
  8
0
  6
Continuous
 62
     7
370
    15
100
AcDbLine
 10
178.2782781905
 20
85.2175301456
 30
0.0
 11
178.2782781905
 21
77.9175301456
 31
0.0
  0
LINE
  5
10D
330
1F
100
AcDbEntity
  8
0
  6
Continuous
 62
     7
370
    15
100
AcDbLine
 10
178.2782781905
 20
77.9175301456
 30
0.0
 11
128.2782781905
 21
77.9175301456
 31
0.0
  0
LINE
  5
10E
330
1F
100
AcDbEntity
  8
0
  6
Continuous
 62
     7
370
    15
100
AcDbLine
 10
178.2782781905
 20
85.2175301456
 30
0.0
 11
128.2782781905
 21
85.2175301456
 31
0.0
  0
LINE
  5
10F
330
1F
100
AcDbEntity
  8
0
  6
Continuous
 62
     7
370
    15
100
AcDbLine
 10
111.8782781905
 20
77.7175301456
 30
0.0
 11
103.2782781905
 21
77.7175301456
 31
0.0
  0
LINE
  5
110
330
1F
100
AcDbEntity
  8
0
  6
Continuous
 62
     7
370
    15
100
AcDbLine
 10
103.2782781905
 20
97.7175301456
 30
0.0
 11
103.2782781905
 21
77.7175301456
 31
0.0
  0
LINE
  5
111
330
1F
100
AcDbEntity
  8
0
  6
Continuous
 62
     7
370
    15
100
AcDbLine
 10
109.6782781905
 20
90.7175301456
 30
0.0
 11
109.6782781905
 21
97.7175301456
 31
0.0
  0
LINE
  5
112
330
1F
100
AcDbEntity
  8
0
  6
Continuous
 62
     7
370
    15
100
AcDbLine
 10
109.6782781905
 20
90.7175301456
 30
0.0
 11
111.8782781905
 21
90.7175301456
 31
0.0
  0
LINE
  5
113
330
1F
100
AcDbEntity
  8
0
  6
Continuous
 62
     7
370
    15
100
AcDbLine
 10
111.8782781905
 20
77.7175301456
 30
0.0
 11
111.8782781905
 21
90.7175301456
 31
0.0
  0
LINE
  5
114
330
1F
100
AcDbEntity
  8
0
  6
Continuous
 62
     7
370
    15
100
AcDbLine
 10
109.6782781905
 20
97.7175301456
 30
0.0
 11
103.2782781905
 21
97.7175301456
 31
0.0
  0
LINE
  5
115
330
1F
100
AcDbEntity
  8
0
  6
Continuous
 62
     7
370
    15
100
AcDbLine
 10
188.0782781905
 20
77.7175301456
 30
0.0
 11
178.2782781905
 21
77.7175301456
 31
0.0
  0
LINE
  5
116
330
1F
100
AcDbEntity
  8
0
  6
Continuous
 62
     7
370
    15
100
AcDbLine
 10
178.2782781905
 20
77.7175301456
 30
0.0
 11
178.2782781905
 21
85.2175301456
 31
0.0
  0
LINE
  5
117
330
1F
100
AcDbEntity
  8
0
  6
Continuous
 62
     7
370
    15
100
AcDbLine
 10
128.2782781905
 20
85.2175301456
 30
0.0
 11
128.2782781905
 21
77.7175301456
 31
0.0
  0
LINE
  5
118
330
1F
100
AcDbEntity
  8
0
  6
Continuous
 62
     7
370
    15
100
AcDbLine
 10
128.2782781905
 20
77.7175301456
 30
0.0
 11
118.4782781905
 21
77.7175301456
 31
0.0
  0
LINE
  5
119
330
1F
100
AcDbEntity
  8
0
  6
Continuous
 62
     7
370
    15
100
AcDbLine
 10
118.4782781905
 20
77.7175301456
 30
0.0
 11
118.4782781905
 21
90.7175301456
 31
0.0
  0
LINE
  5
11A
330
1F
100
AcDbEntity
  8
0
  6
Continuous
 62
     7
370
    15
100
AcDbLine
 10
120.6782781905
 20
90.7175301456
 30
0.0
 11
120.6782781905
 21
97.7175301456
 31
0.0
  0
LINE
  5
11B
330
1F
100
AcDbEntity
  8
0
  6
Continuous
 62
     7
370
    15
100
AcDbLine
 10
185.8782781905
 20
90.7175301456
 30
0.0
 11
185.8782781905
 21
97.7175301456
 31
0.0
  0
LINE
  5
11C
330
1F
100
AcDbEntity
  8
0
  6
Continuous
 62
     7
370
    15
100
AcDbLine
 10
185.8782781905
 20
90.7175301456
 30
0.0
 11
188.0782781905
 21
90.7175301456
 31
0.0
  0
LINE
  5
11D
330
1F
100
AcDbEntity
  8
0
  6
Continuous
 62
     7
370
    15
100
AcDbLine
 10
188.0782781905
 20
77.7175301456
 30
0.0
 11
188.0782781905
 21
90.7175301456
 31
0.0
  0
LINE
  5
11E
330
1F
100
AcDbEntity
  8
0
  6
Continuous
 62
     7
370
    15
100
AcDbLine
 10
118.4782781905
 20
90.7175301456
 30
0.0
 11
120.6782781905
 21
90.7175301456
 31
0.0
  0
LINE
  5
11F
330
1F
100
AcDbEntity
  8
0
  6
Continuous
 62
     7
370
    15
100
AcDbLine
 10
185.8782781905
 20
97.7175301456
 30
0.0
 11
120.6782781905
 21
97.7175301456
 31
0.0
  0
LINE
  5
120
330
1F
100
AcDbEntity
  8
0
  6
Continuous
 62
     7
370
    15
100
AcDbLine
 10
194.6782781905
 20
77.7175301456
 30
0.0
 11
194.6782781905
 21
90.7175301456
 31
0.0
  0
LINE
  5
121
330
1F
100
AcDbEntity
  8
0
  6
Continuous
 62
     7
370
    15
100
AcDbLine
 10
203.2782781905
 20
97.7175301456
 30
0.0
 11
203.2782781905
 21
77.7175301456
 31
0.0
  0
LINE
  5
122
330
1F
100
AcDbEntity
  8
0
  6
Continuous
 62
     7
370
    15
100
AcDbLine
 10
196.8782781905
 20
90.7175301456
 30
0.0
 11
196.8782781905
 21
97.7175301456
 31
0.0
  0
LINE
  5
123
330
1F
100
AcDbEntity
  8
0
  6
Continuous
 62
     7
370
    15
100
AcDbLine
 10
194.6782781905
 20
90.7175301456
 30
0.0
 11
196.8782781905
 21
90.7175301456
 31
0.0
  0
LINE
  5
124
330
1F
100
AcDbEntity
  8
0
  6
Continuous
 62
     7
370
    15
100
AcDbLine
 10
203.2782781905
 20
77.7175301456
 30
0.0
 11
194.6782781905
 21
77.7175301456
 31
0.0
  0
LINE
  5
125
330
1F
100
AcDbEntity
  8
0
  6
Continuous
 62
     7
370
    15
100
AcDbLine
 10
203.2782781905
 20
97.7175301456
 30
0.0
 11
196.8782781905
 21
97.7175301456
 31
0.0
  0
LINE
  5
126
330
1F
100
AcDbEntity
  8
0
  6
Continuous
 62
     7
370
    15
100
AcDbLine
 10
120.6782781905
 20
97.7175301456
 30
0.0
 11
109.6782781905
 21
97.7175301456
 31
0.0
  0
LINE
  5
127
330
1F
100
AcDbEntity
  8
0
  6
Continuous
 62
     7
370
    15
100
AcDbLine
 10
118.4782781905
 20
77.7175301456
 30
0.0
 11
111.8782781905
 21
77.7175301456
 31
0.0
  0
LINE
  5
128
330
1F
100
AcDbEntity
  8
0
  6
Continuous
 62
     7
370
    15
100
AcDbLine
 10
118.4782781905
 20
90.7175301456
 30
0.0
 11
111.8782781905
 21
90.7175301456
 31
0.0
  0
LINE
  5
129
330
1F
100
AcDbEntity
  8
0
  6
Continuous
 62
     7
370
    15
100
AcDbLine
 10
196.8782781905
 20
97.7175301456
 30
0.0
 11
185.8782781905
 21
97.7175301456
 31
0.0
  0
LINE
  5
12A
330
1F
100
AcDbEntity
  8
0
  6
Continuous
 62
     7
370
    15
100
AcDbLine
 10
194.6782781905
 20
90.7175301456
 30
0.0
 11
188.0782781905
 21
90.7175301456
 31
0.0
  0
LINE
  5
12B
330
1F
100
AcDbEntity
  8
0
  6
Continuous
 62
     7
370
    15
100
AcDbLine
 10
194.6782781905
 20
77.7175301456
 30
0.0
 11
188.0782781905
 21
77.7175301456
 31
0.0
  0
DIMENSION
  5
12C
330
1F
100
AcDbEntity
  8
DIM
100
AcDbDimension
  2
_D
 10
225.6782781905
 20
77.7175301456
 30
0.0
 11
225.6782781905
 21
87.7175301456
 31
0.0
 70
   160
  1
<>
 71
     2
 42
-1.0
  3
SLDDIMSTYLE0
100
AcDbAlignedDimension
 13
203.2782781905
 23
97.7175301456
 33
0.0
 14
203.2782781905
 24
77.7175301456
 34
0.0
 50
90.0
100
AcDbRotatedDimension
  0
LINE
  5
137
330
1F
100
AcDbEntity
  8
0
  6
Continuous
 62
     7
370
    15
100
AcDbLine
 10
405.3336799181
 20
219.698116906
 30
0.0
 11
381.2920493577
 21
205.819179005
 31
0.0
  0
LINE
  5
138
330
1F
100
AcDbEntity
  8
0
  6
Continuous
 62
     7
370
    15
100
AcDbLine
 10
340.2798560489
 20
202.5535465577
 30
0.0
 11
304.9245169896
 21
222.9637493533
 31
0.0
  0
LINE
  5
139
330
1F
100
AcDbEntity
  8
0
  6
Continuous
 62
     7
370
    15
100
AcDbLine
 10
340.2798560489
 20
202.5535465577
 30
0.0
 11
340.2798560489
 21
196.592798631
 31
0.0
  0
LINE
  5
13A
330
1F
100
AcDbEntity
  8
0
  6
Continuous
 62
     7
370
    15
100
AcDbLine
 10
304.9245169896
 20
222.9637493533
 30
0.0
 11
304.9245169896
 21
217.0030014265
 31
0.0
  0
LINE
  5
13B
330
1F
100
AcDbEntity
  8
0
  6
Continuous
 62
     7
370
    15
100
AcDbLine
 10
340.2798560489
 20
196.592798631
 30
0.0
 11
304.9245169896
 21
217.0030014265
 31
0.0
  0
LINE
  5
13C
330
1F
100
AcDbEntity
  8
0
  6
Continuous
 62
     7
370
    15
100
AcDbLine
 10
381.2920493577
 20
205.819179005
 30
0.0
 11
381.2920493577
 21
199.8584310783
 31
0.0
  0
LINE
  5
13D
330
1F
100
AcDbEntity
  8
0
  6
Continuous
 62
     7
370
    15
100
AcDbLine
 10
405.3336799181
 20
219.698116906
 30
0.0
 11
405.3336799181
 21
213.7373689792
 31
0.0
  0
LINE
  5
13E
330
1F
100
AcDbEntity
  8
0
  6
Continuous
 62
     7
370
    15
100
AcDbLine
 10
405.3336799181
 20
213.7373689792
 30
0.0
 11
381.2920493577
 21
199.8584310783
 31
0.0
  0
LINE
  5
13F
330
1F
100
AcDbEntity
  8
0
  6
Continuous
 62
     7
370
    15
100
AcDbLine
 10
361.1400232973
 20
236.2317413461
 30
0.0
 11
367.149913734
 21
239.7011772462
 31
0.0
  0
LINE
  5
140
330
1F
100
AcDbEntity
  8
0
  6
Continuous
 62
     7
370
    15
100
AcDbLine
 10
379.1712462175
 20
225.8225379203
 30
0.0
 11
385.1811366542
 21
229.2919738204
 31
0.0
  0
LINE
  5
141
330
1F
100
AcDbEntity
  8
0
  6
Continuous
 62
     7
370
    15
100
AcDbLine
 10
339.9263026583
 20
255.4170333988
 30
0.0
 11
333.9164122216
 21
251.9475974987
 31
0.0
  0
LWPOLYLINE
  5
142
330
1F
100
AcDbEntity
  8
0
  6
Continuous
 62
     7
370
    15
100
AcDbPolyline
 90
       11
 70
   128
 43
0.0
 10
378.0420724424
 20
249.2521823854
 10
378.1749191857
 20
249.3809734303
 10
378.4262352569
 20
249.79559305
 10
378.4546869789
 20
250.2345558592
 10
378.2577462913
 20
250.6588580858
 10
377.8529122384
 20
251.0307986152
 10
377.2761561024
 20
251.3173288988
 10
376.5787251971
 20
251.4929894638
 10
375.8225893191
 20
251.5421720979
 10
375.0749344593
 20
251.4605067084
 10
374.5021443869
 20
251.2957393535
  0
LWPOLYLINE
  5
143
330
1F
100
AcDbEntity
  8
0
  6
Continuous
 62
     7
370
    15
100
AcDbPolyline
 90
       15
 70
   128
 43
0.0
 10
341.8020448168
 20
249.0275377728
 10
342.2538947014
 20
249.3809734303
 10
342.5052107726
 20
249.79559305
 10
342.5336624946
 20
250.2345558592
 10
342.336721807
 20
250.6588580858
 10
341.9318877541
 20
251.0307986152
 10
341.3551316181
 20
251.3173288988
 10
340.6577007129
 20
251.4929894638
 10
339.9015648348
 20
251.5421720979
 10
339.153909975
 20
251.4605067084
 10
338.4811685487
 20
251.2552496234
 10
337.943116584
 20
250.9446388357
 10
337.5875623591
 20
250.5562734769
 10
337.4460984273
 20
250.1246615134
 10
337.460997393
 20
249.9013520347
  0
ARC
  5
144
330
1F
100
AcDbEntity
  8
0
  6
Continuous
 62
     7
370
    15
100
AcDbCircle
 10
340.0137081263
 20
252.4934698012
 30
0.0
 40
3.90010678625308
100
AcDbArc
 50
265.4694553437
 51
297.2926343188
  0
LWPOLYLINE
  5
145
330
1F
100
AcDbEntity
  8
0
  6
Continuous
 62
     7
370
    15
100
AcDbPolyline
 90
       11
 70
   128
 43
0.0
 10
342.1210479581
 20
228.5154163451
 10
342.2538947014
 20
228.64420739
 10
342.5052107726
 20
229.0588270097
 10
342.5336624946
 20
229.4977898189
 10
342.336721807
 20
229.9220920455
 10
341.9318877541
 20
230.2940325749
 10
341.3551316181
 20
230.5805628585
 10
340.6577007129
 20
230.7562234235
 10
339.9015648348
 20
230.8054060576
 10
339.153909975
 20
230.7237406681
 10
338.5811199026
 20
230.5589733132
  0
LWPOLYLINE
  5
146
330
1F
100
AcDbEntity
  8
0
  6
Continuous
 62
     7
370
    15
100
AcDbPolyline
 90
       15
 70
   128
 43
0.0
 10
377.723069301
 20
228.2907717325
 10
378.1749191857
 20
228.64420739
 10
378.4262352569
 20
229.0588270097
 10
378.4546869789
 20
229.4977898189
 10
378.2577462913
 20
229.9220920455
 10
377.8529122384
 20
230.2940325749
 10
377.2761561024
 20
230.5805628585
 10
376.5787251971
 20
230.7562234235
 10
375.8225893191
 20
230.8054060576
 10
375.0749344593
 20
230.7237406681
 10
374.402193033
 20
230.5184835831
 10
373.8641410683
 20
230.2078727954
 10
373.5085868434
 20
229.8195074366
 10
373.3671229116
 20
229.3878954732
 10
373.3820218773
 20
229.1645859944
  0
ARC
  5
147
330
1F
100
AcDbEntity
  8
0
  6
Continuous
 62
     7
370
    15
100
AcDbCircle
 10
375.9347326105
 20
231.7567037609
 30
0.0
 40
3.900106786246323
100
AcDbArc
 50
265.4694553437
 51
297.2926343188
  0
LINE
  5
148
330
1F
100
AcDbEntity
  8
0
  6
Continuous
 62
     7
370
    15
100
AcDbLine
 10
389.4237773414
 20
226.7672614953
 30
0.0
 11
389.4237773414
 21
226.1024265131
 31
0.0
  0
LINE
  5
149
330
1F
100
AcDbEntity
  8
0
  6
Continuous
 62
     7
370
    15
100
AcDbLine
 10
367.149913734
 20
241.3342588699
 30
0.0
 11
357.9575255786
 21
246.6409115968
 31
0.0
  0
LINE
  5
14A
330
1F
100
AcDbEntity
  8
0
  6
Continuous
 62
     7
370
    15
100
AcDbLine
 10
359.7255798667
 20
237.048282158
 30
0.0
 11
367.149913734
 21
241.3342588699
 31
0.0
  0
LINE
  5
14B
330
1F
100
AcDbEntity
  8
0
  6
Continuous
 62
     7
370
    15
100
AcDbLine
 10
357.9575255786
 20
246.6409115968
 30
0.0
 11
350.5331917113
 21
242.3549348848
 31
0.0
  0
LWPOLYLINE
  5
14C
330
1F
100
AcDbEntity
  8
0
  6
Continuous
 62
     7
370
    15
100
AcDbPolyline
 90
       22
 70
   128
 43
0.0
 10
359.7625570589
 20
240.2922363764
 10
360.2144069436
 20
240.6456720339
 10
360.4657230148
 20
241.0602916536
 10
360.4941747368
 20
241.4992544628
 10
360.2972340491
 20
241.9235566895
 10
359.8923999962
 20
242.2954972188
 10
359.3156438603
 20
242.5820275025
 10
358.618212955
 20
242.7576880674
 10
357.8620770769
 20
242.8068707015
 10
357.1144222171
 20
242.725205312
 10
356.4416807909
 20
242.519948227
 10
355.9036288262
 20
242.2093374393
 10
355.5480746013
 20
241.8209720805
 10
355.4066106695
 20
241.3893601171
 10
355.4918067218
 20
240.952852166
 10
355.7960927152
 20
240.5502338743
 10
356.2924315038
 20
240.2172796442
 10
356.9367212081
 20
239.98357392
 10
357.6717138604
 20
239.869882481
 10
358.4321021382
 20
239.8863073105
 10
359.150322206
 20
240.0313889903
 10
359.7625570589
 20
240.2922363764
  0
LINE
  5
14D
330
1F
100
AcDbEntity
  8
0
  6
Continuous
 62
     7
370
    15
100
AcDbLine
 10
367.149913734
 20
241.3342588699
 30
0.0
 11
367.149913734
 21
239.7011772462
 31
0.0
  0
LINE
  5
14E
330
1F
100
AcDbEntity
  8
0
  6
Continuous
 62
     7
370
    15
100
AcDbLine
 10
381.2920493577
 20
205.819179005
 30
0.0
 11
381.2920493577
 21
199.6951229159
 31
0.0
  0
LINE
  5
14F
330
1F
100
AcDbEntity
  8
0
  6
Continuous
 62
     7
370
    15
100
AcDbLine
 10
381.2920493577
 20
199.6951229159
 30
0.0
 11
357.9575255786
 21
186.2243890708
 31
0.0
  0
LINE
  5
150
330
1F
100
AcDbEntity
  8
0
  6
Continuous
 62
     7
370
    15
100
AcDbLine
 10
357.9575255786
 20
202.5552053085
 30
0.0
 11
357.9575255786
 21
186.2243890708
 31
0.0
  0
LINE
  5
151
330
1F
100
AcDbEntity
  8
0
  6
Continuous
 62
     7
370
    15
100
AcDbLine
 10
428.6682036972
 20
243.3756108997
 30
0.0
 11
357.9575255786
 21
202.5552053085
 31
0.0
  0
LINE
  5
152
330
1F
100
AcDbEntity
  8
0
  6
Continuous
 62
     7
370
    15
100
AcDbLine
 10
428.6682036972
 20
243.3756108997
 30
0.0
 11
428.6682036972
 21
227.0447946619
 31
0.0
  0
LINE
  5
153
330
1F
100
AcDbEntity
  8
0
  6
Continuous
 62
     7
370
    15
100
AcDbLine
 10
428.6682036972
 20
227.0447946619
 30
0.0
 11
405.3336799181
 21
213.5740608169
 31
0.0
  0
LINE
  5
154
330
1F
100
AcDbEntity
  8
0
  6
Continuous
 62
     7
370
    15
100
AcDbLine
 10
405.3336799181
 20
213.5740608169
 30
0.0
 11
405.3336799181
 21
219.698116906
 31
0.0
  0
LINE
  5
155
330
1F
100
AcDbEntity
  8
0
  6
Continuous
 62
     7
370
    15
100
AcDbLine
 10
351.8764072604
 20
200.3499745062
 30
0.0
 11
353.432042179
 21
199.4519255832
 31
0.0
  0
LINE
  5
156
330
1F
100
AcDbEntity
  8
0
  6
Continuous
 62
     7
370
    15
100
AcDbLine
 10
353.432042179
 20
199.4519255832
 30
0.0
 11
353.432042179
 21
205.1677112664
 31
0.0
  0
LINE
  5
157
330
1F
100
AcDbEntity
  8
0
  6
Continuous
 62
     7
370
    15
100
AcDbLine
 10
357.9575255786
 20
202.5552053085
 30
0.0
 11
353.432042179
 21
205.1677112664
 31
0.0
  0
LINE
  5
158
330
1F
100
AcDbEntity
  8
0
  6
Continuous
 62
     7
370
    15
100
AcDbLine
 10
357.9575255786
 20
186.2243890708
 30
0.0
 11
351.8764072604
 21
189.7349439516
 31
0.0
  0
LINE
  5
159
330
1F
100
AcDbEntity
  8
0
  6
Continuous
 62
     7
370
    15
100
AcDbLine
 10
351.8764072604
 20
189.7349439516
 30
0.0
 11
351.8764072604
 21
200.3499745062
 31
0.0
  0
LINE
  5
15A
330
1F
100
AcDbEntity
  8
0
  6
Continuous
 62
     7
370
    15
100
AcDbLine
 10
346.0074209765
 20
226.271860957
 30
0.0
 11
328.3297514468
 21
236.4769623548
 31
0.0
  0
LWPOLYLINE
  5
15B
330
1F
100
AcDbEntity
  8
0
  6
Continuous
 62
     7
370
    15
100
AcDbPolyline
 90
       14
 70
   128
 43
0.0
 10
351.664275226
 20
229.5374934043
 10
352.2589731905
 20
229.0992882331
 10
352.6547315673
 20
228.5916566098
 10
352.8285503182
 20
228.0441002392
 10
352.770327729
 20
227.4884411071
 10
352.4834474852
 20
226.9569721027
 10
351.9845820237
 20
226.4805802727
 10
351.3027235918
 20
226.0869517786
 10
350.4774993231
 20
225.7989628776
 10
349.5568682525
 20
225.633350438
 10
348.5943341116
 20
225.5997392528
 10
347.6458358858
 20
225.7000826818
 10
346.7664968445
 20
225.9285491297
 10
346.0074209765
 20
226.271860957
  0
LINE
  5
15C
330
1F
100
AcDbEntity
  8
0
  6
Continuous
 62
     7
370
    15
100
AcDbLine
 10
333.9866056963
 20
239.742594802
 30
0.0
 11
351.664275226
 21
229.5374934043
 31
0.0
  0
LWPOLYLINE
  5
15D
330
1F
100
AcDbEntity
  8
0
  6
Continuous
 62
     7
370
    15
100
AcDbPolyline
 90
       14
 70
   128
 43
0.0
 10
333.9866056963
 20
239.742594802
 10
333.2275298283
 20
240.0859066293
 10
332.348190787
 20
240.3143730772
 10
331.3996925613
 20
240.4147165062
 10
330.4371584203
 20
240.381105321
 10
329.5165273498
 20
240.2154928814
 10
328.6913030811
 20
239.9275039805
 10
328.0094446492
 20
239.5338754863
 10
327.5105791876
 20
239.0574836563
 10
327.2236989438
 20
238.5260146519
 10
327.1654763547
 20
237.9703555199
 10
327.3392951056
 20
237.4227991492
 10
327.7350534824
 20
236.9151675259
 10
328.3297514468
 20
236.4769623548
  0
LINE
  5
15E
330
1F
100
AcDbEntity
  8
0
  6
Continuous
 62
     7
370
    15
100
AcDbLine
 10
369.9076301806
 20
260.4793608423
 30
0.0
 11
387.5852997103
 21
250.2742594446
 31
0.0
  0
LWPOLYLINE
  5
15F
330
1F
100
AcDbEntity
  8
0
  6
Continuous
 62
     7
370
    15
100
AcDbPolyline
 90
       14
 70
   128
 43
0.0
 10
364.2507759311
 20
257.2137283951
 10
363.6560779667
 20
257.6519335662
 10
363.2603195898
 20
258.1595651895
 10
363.086500839
 20
258.7071215602
 10
363.1447234281
 20
259.2627806922
 10
363.4316036719
 20
259.7942496966
 10
363.9304691334
 20
260.2706415266
 10
364.6123275654
 20
260.6642700207
 10
365.4375518341
 20
260.9522589217
 10
366.3581829046
 20
261.1178713613
 10
367.3207170456
 20
261.1514825465
 10
368.2692152713
 20
261.0511391175
 10
369.1485543126
 20
260.8226726696
 10
369.9076301806
 20
260.4793608423
  0
LINE
  5
160
330
1F
100
AcDbEntity
  8
0
  6
Continuous
 62
     7
370
    15
100
AcDbLine
 10
381.9284454608
 20
247.0086269973
 30
0.0
 11
364.2507759311
 21
257.2137283951
 31
0.0
  0
LWPOLYLINE
  5
161
330
1F
100
AcDbEntity
  8
0
  6
Continuous
 62
     7
370
    15
100
AcDbPolyline
 90
       14
 70
   128
 43
0.0
 10
381.9284454608
 20
247.0086269973
 10
382.6875213288
 20
246.66531517
 10
383.5668603701
 20
246.4368487221
 10
384.5153585958
 20
246.3365052931
 10
385.4778927368
 20
246.3701164783
 10
386.3985238073
 20
246.5357289179
 10
387.223748076
 20
246.8237178189
 10
387.905606508
 20
247.217346313
 10
388.4044719695
 20
247.693738143
 10
388.6913522133
 20
248.2252071474
 10
388.7495748024
 20
248.7808662795
 10
388.5757560516
 20
249.3284226501
 10
388.1799976747
 20
249.8360542734
 10
387.5852997103
 20
250.2742594446
  0
LINE
  5
162
330
1F
100
AcDbEntity
  8
0
  6
Continuous
 62
     7
370
    15
100
AcDbLine
 10
336.3907687524
 20
261.1324873318
 30
0.0
 11
388.7166705602
 21
230.9253871944
 31
0.0
  0
LWPOLYLINE
  5
163
330
1F
100
AcDbEntity
  8
0
  6
Continuous
 62
     7
370
    15
100
AcDbPolyline
 90
       18
 70
   128
 43
0.0
 10
327.198380597
 20
255.825834605
 10
326.4320910898
 20
256.3585599683
 10
325.8484145295
 20
256.9634998554
 10
325.4672273213
 20
257.6200537638
 10
325.3015103384
 20
258.3058635377
 10
325.356906874
 20
258.9975747478
 10
325.6315304653
 20
259.6716319983
 10
326.1160291355
 20
260.3050810782
 10
326.7939038633
 20
260.8763506386
 10
327.6420704379
 20
261.36598678
 10
328.631645564
 20
261.7573155307
 10
329.7289304474
 20
262.0370106595
 10
330.8965583675
 20
262.1955474842
 10
332.0947671559
 20
262.2275272235
 10
333.2827532493
 20
262.1318608456
 10
334.4200612063
 20
261.9118061543
 10
335.4679613684
 20
261.5748568482
 10
336.3907687524
 20
261.1324873318
  0
LINE
  5
164
330
1F
100
AcDbEntity
  8
0
  6
Continuous
 62
     7
370
    15
100
AcDbLine
 10
327.198380597
 20
255.825834605
 30
0.0
 11
379.5242824048
 21
225.6187344675
 31
0.0
  0
LWPOLYLINE
  5
165
330
1F
100
AcDbEntity
  8
0
  6
Continuous
 62
     7
370
    15
100
AcDbPolyline
 90
       18
 70
   128
 43
0.0
 10
379.5242824048
 20
225.6187344675
 10
380.4470897887
 20
225.1763649511
 10
381.4949899508
 20
224.839415645
 10
382.6322979078
 20
224.6193609538
 10
383.8202840013
 20
224.5236945759
 10
385.0184927897
 20
224.5556743151
 10
386.1861207097
 20
224.7142111398
 10
387.2834055932
 20
224.9939062686
 10
388.2729807192
 20
225.3852350193
 10
389.1211472939
 20
225.8748711607
 10
389.7990220217
 20
226.4461407211
 10
390.2835206918
 20
227.079589801
 10
390.5581442832
 20
227.7536470515
 10
390.6135408187
 20
228.4453582616
 10
390.4478238358
 20
229.1311680355
 10
390.0666366276
 20
229.7877219439
 10
389.4829600674
 20
230.392661831
 10
388.7166705602
 20
230.9253871944
  0
LINE
  5
166
330
1F
100
AcDbEntity
  8
0
  6
Continuous
 62
     7
370
    15
100
AcDbLine
 10
299.5505054526
 20
236.2728603268
 30
0.0
 11
317.5817283728
 21
246.6820637525
 31
0.0
  0
LWPOLYLINE
  5
167
330
1F
100
AcDbEntity
  8
0
  6
Continuous
 62
     7
370
    15
100
AcDbPolyline
 90
       16
 70
   128
 43
0.0
 10
317.5817283728
 20
246.6820637525
 10
318.3053292
 20
247.1979122367
 10
318.827333422
 20
247.7893382848
 10
319.1249269496
 20
248.4304937408
 10
319.1851035174
 20
249.0933570345
 10
319.0052331209
 20
249.7489578592
 10
318.5931769593
 20
250.368643313
 10
317.9669438643
 20
250.925330168
 10
317.1539032271
 20
251.3946885373
 10
316.1895888249
 20
251.756205208
 10
315.1161458244
 20
251.9940801667
 10
313.9804888356
 20
252.0979171364
 10
312.8322515186
 20
252.0631779432
 10
311.7216173538
 20
251.8913808566
 10
310.6971263837
 20
251.5900342335
 10
309.8035537798
 20
251.1723083676
  0
LINE
  5
168
330
1F
100
AcDbEntity
  8
0
  6
Continuous
 62
     7
370
    15
100
AcDbLine
 10
309.8035537798
 20
251.1723083676
 30
0.0
 11
291.7723308595
 21
240.7631049418
 31
0.0
  0
LINE
  5
169
330
1F
100
AcDbEntity
  8
0
  6
Continuous
 62
     7
370
    15
100
AcDbLine
 10
291.7723308595
 20
240.7631049418
 30
0.0
 11
287.2468474599
 21
243.3756108997
 31
0.0
  0
LINE
  5
16A
330
1F
100
AcDbEntity
  8
0
  6
Continuous
 62
     7
370
    15
100
AcDbLine
 10
287.2468474599
 20
243.3756108997
 30
0.0
 11
357.9575255786
 21
284.1960164908
 31
0.0
  0
LINE
  5
16B
330
1F
100
AcDbEntity
  8
0
  6
Continuous
 62
     7
370
    15
100
AcDbLine
 10
357.9575255786
 20
284.1960164908
 30
0.0
 11
362.4830089782
 21
281.583510533
 31
0.0
  0
LINE
  5
16C
330
1F
100
AcDbEntity
  8
0
  6
Continuous
 62
     7
370
    15
100
AcDbLine
 10
362.4830089782
 20
281.583510533
 30
0.0
 11
344.4517860579
 21
271.1743071072
 31
0.0
  0
LWPOLYLINE
  5
16D
330
1F
100
AcDbEntity
  8
0
  6
Continuous
 62
     7
370
    15
100
AcDbPolyline
 90
       16
 70
   128
 43
0.0
 10
344.4517860579
 20
271.1743071072
 10
343.7281852307
 20
270.6584586231
 10
343.2061810087
 20
270.0670325749
 10
342.9085874812
 20
269.425877119
 10
342.8484109133
 20
268.7630138253
 10
343.0282813098
 20
268.1074130006
 10
343.4403374714
 20
267.4877275467
 10
344.0665705664
 20
266.9310406918
 10
344.8796112037
 20
266.4616823225
 10
345.8439256059
 20
266.1001656518
 10
346.9173686064
 20
265.862290693
 10
348.0530255951
 20
265.7584537233
 10
349.2012629121
 20
265.7931929165
 10
350.3118970769
 20
265.9649900032
 10
351.336388047
 20
266.2663366262
 10
352.229960651
 20
266.6840624922
  0
LINE
  5
16E
330
1F
100
AcDbEntity
  8
0
  6
Continuous
 62
     7
370
    15
100
AcDbLine
 10
352.229960651
 20
266.6840624922
 30
0.0
 11
370.2611835712
 21
277.0932659179
 31
0.0
  0
LINE
  5
16F
330
1F
100
AcDbEntity
  8
0
  6
Continuous
 62
     7
370
    15
100
AcDbLine
 10
370.2611835712
 20
277.0932659179
 30
0.0
 11
416.3645457046
 21
250.4783614725
 31
0.0
  0
LINE
  5
170
330
1F
100
AcDbEntity
  8
0
  6
Continuous
 62
     7
370
    15
100
AcDbLine
 10
416.3645457046
 20
250.4783614725
 30
0.0
 11
398.3333227843
 21
240.0691580468
 31
0.0
  0
LWPOLYLINE
  5
171
330
1F
100
AcDbEntity
  8
0
  6
Continuous
 62
     7
370
    15
100
AcDbPolyline
 90
       16
 70
   128
 43
0.0
 10
398.3333227843
 20
240.0691580468
 10
397.6097219571
 20
239.5533095627
 10
397.0877177351
 20
238.9618835145
 10
396.7901242076
 20
238.3207280585
 10
396.7299476397
 20
237.6578647648
 10
396.9098180363
 20
237.0022639401
 10
397.3218741978
 20
236.3825784863
 10
397.9481072928
 20
235.8258916313
 10
398.7611479301
 20
235.356533262
 10
399.7254623323
 20
234.9950165914
 10
400.7989053328
 20
234.7571416326
 10
401.9345623215
 20
234.6533046629
 10
403.0827996386
 20
234.6880438561
 10
404.1934338033
 20
234.8598409427
 10
405.2179247734
 20
235.1611875658
 10
406.1114973774
 20
235.5789134318
  0
LINE
  5
172
330
1F
100
AcDbEntity
  8
0
  6
Continuous
 62
     7
370
    15
100
AcDbLine
 10
406.1114973774
 20
235.5789134318
 30
0.0
 11
424.1427202976
 21
245.9881168575
 31
0.0
  0
LINE
  5
173
330
1F
100
AcDbEntity
  8
0
  6
Continuous
 62
     7
370
    15
100
AcDbLine
 10
424.1427202976
 20
245.9881168575
 30
0.0
 11
428.6682036972
 21
243.3756108997
 31
0.0
  0
LINE
  5
174
330
1F
100
AcDbEntity
  8
0
  6
Continuous
 62
     7
370
    15
100
AcDbLine
 10
353.432042179
 20
205.1677112664
 30
0.0
 11
371.4632650992
 21
215.5769146921
 31
0.0
  0
LWPOLYLINE
  5
175
330
1F
100
AcDbEntity
  8
0
  6
Continuous
 62
     7
370
    15
100
AcDbPolyline
 90
       16
 70
   128
 43
0.0
 10
371.4632650992
 20
215.5769146921
 10
372.1868659264
 20
216.0927631762
 10
372.7088701484
 20
216.6841892244
 10
373.006463676
 20
217.3253446803
 10
373.0666402439
 20
217.988207974
 10
372.8867698473
 20
218.6438087988
 10
372.4747136857
 20
219.2634942526
 10
371.8484805907
 20
219.8201811076
 10
371.0354399535
 20
220.2895394769
 10
370.0711255513
 20
220.6510561475
 10
368.9976825508
 20
220.8889311063
 10
367.862025562
 20
220.992768076
 10
366.713788245
 20
220.9580288828
 10
365.6031540802
 20
220.7862317961
 10
364.5786631101
 20
220.4848851731
 10
363.6850905062
 20
220.0671593071
  0
LINE
  5
176
330
1F
100
AcDbEntity
  8
0
  6
Continuous
 62
     7
370
    15
100
AcDbLine
 10
363.6850905062
 20
220.0671593071
 30
0.0
 11
345.6538675859
 21
209.6579558814
 31
0.0
  0
LINE
  5
177
330
1F
100
AcDbEntity
  8
0
  6
Continuous
 62
     7
370
    15
100
AcDbLine
 10
345.6538675859
 20
209.6579558814
 30
0.0
 11
299.5505054526
 21
236.2728603268
 31
0.0
  0
LINE
  5
178
330
1F
100
AcDbEntity
  8
0
  6
Continuous
 62
     7
370
    15
100
AcDbLine
 10
365.2407254248
 20
213.4533247009
 30
0.0
 11
347.2095025045
 21
203.0441212752
 31
0.0
  0
LINE
  5
179
330
1F
100
AcDbEntity
  8
0
  6
Continuous
 62
     7
370
    15
100
AcDbLine
 10
345.6538675859
 20
203.9421701982
 30
0.0
 11
347.2095025045
 21
203.0441212752
 31
0.0
  0
LINE
  5
17A
330
1F
100
AcDbEntity
  8
0
  6
Continuous
 62
     7
370
    15
100
AcDbLine
 10
363.6850905062
 20
214.3513736239
 30
0.0
 11
345.6538675859
 21
203.9421701982
 31
0.0
  0
ARC
  5
17B
330
1F
100
AcDbEntity
  8
0
  6
Continuous
 62
     7
370
    15
100
AcDbCircle
 10
367.6003964322
 20
206.7603589144
 30
0.0
 40
8.541260142021963
100
AcDbArc
 50
71.8987460265
 51
117.2838522343
  0
LINE
  5
17C
330
1F
100
AcDbEntity
  8
0
  6
Continuous
 62
     7
370
    15
100
AcDbLine
 10
351.8764072604
 20
200.3499745062
 30
0.0
 11
353.432042179
 21
201.2480234292
 31
0.0
  0
ARC
  5
17D
330
1F
100
AcDbEntity
  8
0
  6
Continuous
 62
     7
370
    15
100
AcDbCircle
 10
367.5780005354
 20
208.9182264752
 30
0.0
 40
5.101957551669793
100
AcDbArc
 50
78.550466001
 51
117.2654353742
  0
LINE
  5
17E
330
1F
100
AcDbEntity
  8
0
  6
Continuous
 62
     7
370
    15
100
AcDbLine
 10
347.2095025045
 20
192.4290907207
 30
0.0
 11
340.2798560489
 21
196.4294904686
 31
0.0
  0
LINE
  5
17F
330
1F
100
AcDbEntity
  8
0
  6
Continuous
 62
     7
370
    15
100
AcDbLine
 10
340.2798560489
 20
196.4294904686
 30
0.0
 11
340.2798560489
 21
202.5535465577
 31
0.0
  0
LINE
  5
180
330
1F
100
AcDbEntity
  8
0
  6
Continuous
 62
     7
370
    15
100
AcDbLine
 10
304.9245169896
 20
222.9637493533
 30
0.0
 11
304.9245169896
 21
216.8396932642
 31
0.0
  0
LINE
  5
181
330
1F
100
AcDbEntity
  8
0
  6
Continuous
 62
     7
370
    15
100
AcDbLine
 10
304.9245169896
 20
216.8396932642
 30
0.0
 11
297.9948705339
 21
220.8400930121
 31
0.0
  0
LINE
  5
182
330
1F
100
AcDbEntity
  8
0
  6
Continuous
 62
     7
370
    15
100
AcDbLine
 10
297.9948705339
 20
220.8400930121
 30
0.0
 11
297.9948705339
 21
231.4551235666
 31
0.0
  0
LINE
  5
183
330
1F
100
AcDbEntity
  8
0
  6
Continuous
 62
     7
370
    15
100
AcDbLine
 10
297.9948705339
 20
231.4551235666
 30
0.0
 11
299.5505054526
 21
230.5570746436
 31
0.0
  0
LINE
  5
184
330
1F
100
AcDbEntity
  8
0
  6
Continuous
 62
     7
370
    15
100
AcDbLine
 10
299.5505054526
 20
230.5570746436
 30
0.0
 11
299.5505054526
 21
236.2728603268
 31
0.0
  0
LINE
  5
185
330
1F
100
AcDbEntity
  8
0
  6
Continuous
 62
     7
370
    15
100
AcDbLine
 10
345.6538675859
 20
203.9421701982
 30
0.0
 11
345.6538675859
 21
209.6579558814
 31
0.0
  0
LINE
  5
186
330
1F
100
AcDbEntity
  8
0
  6
Continuous
 62
     7
370
    15
100
AcDbLine
 10
347.2095025045
 20
192.4290907207
 30
0.0
 11
347.2095025045
 21
203.0441212752
 31
0.0
  0
LINE
  5
187
330
1F
100
AcDbEntity
  8
0
  6
Continuous
 62
     7
370
    15
100
AcDbLine
 10
363.6850905062
 20
214.3513736239
 30
0.0
 11
363.6850905062
 21
220.0671593071
 31
0.0
  0
LINE
  5
188
330
1F
100
AcDbEntity
  8
0
  6
Continuous
 62
     7
370
    15
100
AcDbLine
 10
351.8764072604
 20
195.1232374897
 30
0.0
 11
347.2095025045
 21
192.4290907207
 31
0.0
  0
LINE
  5
189
330
1F
100
AcDbEntity
  8
0
  6
Continuous
 62
     7
370
    15
100
AcDbLine
 10
388.7166705602
 20
230.9253871944
 30
0.0
 11
388.7166705602
 21
227.2509535409
 31
0.0
  0
LWPOLYLINE
  5
18A
330
1F
100
AcDbEntity
  8
0
  6
Continuous
 62
     7
370
    15
100
AcDbPolyline
 90
        3
 70
   128
 43
0.0
 10
388.7166705602
 20
227.2509535409
 10
389.4829600674
 20
226.7182281775
 10
389.7880781155
 20
226.4348440042
  0
LINE
  5
18B
330
1F
100
AcDbEntity
  8
0
  6
Continuous
 62
     7
370
    15
100
AcDbLine
 10
333.9866056963
 20
239.742594802
 30
0.0
 11
333.9866056963
 21
236.0681611486
 31
0.0
  0
LINE
  5
18C
330
1F
100
AcDbEntity
  8
0
  6
Continuous
 62
     7
370
    15
100
AcDbLine
 10
351.2879553375
 20
226.0803045982
 30
0.0
 11
333.9866056963
 21
236.0681611486
 31
0.0
  0
LINE
  5
18D
330
1F
100
AcDbEntity
  8
0
  6
Continuous
 62
     7
370
    15
100
AcDbLine
 10
336.3907687524
 20
261.1324873318
 30
0.0
 11
336.3907687524
 21
257.4580536783
 31
0.0
  0
LINE
  5
18E
330
1F
100
AcDbEntity
  8
0
  6
Continuous
 62
     7
370
    15
100
AcDbLine
 10
388.7166705602
 20
227.2509535409
 30
0.0
 11
367.149913734
 21
239.7011772462
 31
0.0
  0
LINE
  5
18F
330
1F
100
AcDbEntity
  8
0
  6
Continuous
 62
     7
370
    15
100
AcDbLine
 10
356.543082148
 20
245.8243707849
 30
0.0
 11
336.3907687524
 21
257.4580536783
 31
0.0
  0
LINE
  5
190
330
1F
100
AcDbEntity
  8
0
  6
Continuous
 62
     7
370
    15
100
AcDbLine
 10
405.192235575
 20
213.6557148981
 30
0.0
 11
405.3336799181
 21
213.5740608169
 31
0.0
  0
LINE
  5
191
330
1F
100
AcDbEntity
  8
0
  6
Continuous
 62
     7
370
    15
100
AcDbLine
 10
305.0659613326
 20
216.9213473453
 30
0.0
 11
304.9245169896
 21
216.8396932642
 31
0.0
  0
LINE
  5
192
330
1F
100
AcDbEntity
  8
0
  6
Continuous
 62
     7
370
    15
100
AcDbLine
 10
416.3645457046
 20
244.7625757893
 30
0.0
 11
399.5424455631
 21
235.0513840862
 31
0.0
  0
LINE
  5
193
330
1F
100
AcDbEntity
  8
0
  6
Continuous
 62
     7
370
    15
100
AcDbLine
 10
417.9201806232
 20
243.8645268663
 30
0.0
 11
416.3645457046
 21
244.7625757893
 31
0.0
  0
LINE
  5
194
330
1F
100
AcDbEntity
  8
0
  6
Continuous
 62
     7
370
    15
100
AcDbLine
 10
417.9201806232
 20
243.8645268663
 30
0.0
 11
401.9627425082
 21
234.6524939262
 31
0.0
  0
ARC
  5
195
330
1F
100
AcDbEntity
  8
0
  6
Continuous
 62
     7
370
    15
100
AcDbCircle
 10
331.1442477585
 20
230.5930086871
 30
0.0
 40
6.168978288454687
100
AcDbArc
 50
62.5644733051
 51
113.2804319194
  0
LINE
  5
196
330
1F
100
AcDbEntity
  8
0
  6
Continuous
 62
     7
370
    15
100
AcDbLine
 10
309.8035537798
 20
245.4565226844
 30
0.0
 11
291.7723308595
 21
235.0473192586
 31
0.0
  0
ARC
  5
197
330
1F
100
AcDbEntity
  8
0
  6
Continuous
 62
     7
370
    15
100
AcDbCircle
 10
313.7188597057
 20
237.8655079749
 30
0.0
 40
8.541260142021326
100
AcDbArc
 50
71.8987460265
 51
117.2838522343
  0
LINE
  5
198
330
1F
100
AcDbEntity
  8
0
  6
Continuous
 62
     7
370
    15
100
AcDbLine
 10
297.9948705339
 20
231.4551235666
 30
0.0
 11
299.5505054526
 21
232.3531724896
 31
0.0
  0
ARC
  5
199
330
1F
100
AcDbEntity
  8
0
  6
Continuous
 62
     7
370
    15
100
AcDbCircle
 10
313.696463809
 20
240.0233755357
 30
0.0
 40
5.101957551669643
100
AcDbArc
 50
78.550466001
 51
117.2654353742
  0
LINE
  5
19A
330
1F
100
AcDbEntity
  8
0
  6
Continuous
 62
     7
370
    15
100
AcDbLine
 10
311.3591886984
 20
244.5584737614
 30
0.0
 11
293.3279657781
 21
234.1492703356
 31
0.0
  0
LINE
  5
19B
330
1F
100
AcDbEntity
  8
0
  6
Continuous
 62
     7
370
    15
100
AcDbLine
 10
291.7723308595
 20
235.0473192586
 30
0.0
 11
293.3279657781
 21
234.1492703356
 31
0.0
  0
LINE
  5
19C
330
1F
100
AcDbEntity
  8
0
  6
Continuous
 62
     7
370
    15
100
AcDbLine
 10
293.3279657781
 20
223.5342397811
 30
0.0
 11
287.2468474599
 21
227.0447946619
 31
0.0
  0
LINE
  5
19D
330
1F
100
AcDbEntity
  8
0
  6
Continuous
 62
     7
370
    15
100
AcDbLine
 10
287.2468474599
 20
243.3756108997
 30
0.0
 11
287.2468474599
 21
227.0447946619
 31
0.0
  0
LINE
  5
19E
330
1F
100
AcDbEntity
  8
0
  6
Continuous
 62
     7
370
    15
100
AcDbLine
 10
291.7723308595
 20
235.0473192586
 30
0.0
 11
291.7723308595
 21
240.7631049418
 31
0.0
  0
LINE
  5
19F
330
1F
100
AcDbEntity
  8
0
  6
Continuous
 62
     7
370
    15
100
AcDbLine
 10
293.3279657781
 20
223.5342397811
 30
0.0
 11
293.3279657781
 21
234.1492703356
 31
0.0
  0
LINE
  5
1A0
330
1F
100
AcDbEntity
  8
0
  6
Continuous
 62
     7
370
    15
100
AcDbLine
 10
416.3645457046
 20
244.7625757893
 30
0.0
 11
416.3645457046
 21
250.4783614725
 31
0.0
  0
LINE
  5
1A1
330
1F
100
AcDbEntity
  8
0
  6
Continuous
 62
     7
370
    15
100
AcDbLine
 10
309.8035537798
 20
245.4565226844
 30
0.0
 11
309.8035537798
 21
251.1723083676
 31
0.0
  0
LINE
  5
1A2
330
1F
100
AcDbEntity
  8
0
  6
Continuous
 62
     7
370
    15
100
AcDbLine
 10
417.9201806232
 20
242.3959211655
 30
0.0
 11
417.9201806232
 21
243.8645268663
 31
0.0
  0
LINE
  5
1A3
330
1F
100
AcDbEntity
  8
0
  6
Continuous
 62
     7
370
    15
100
AcDbLine
 10
297.9948705339
 20
226.2283865501
 30
0.0
 11
293.3279657781
 21
223.5342397811
 31
0.0
  0
LINE
  5
1A4
330
1F
100
AcDbEntity
  8
0
  6
Continuous
 62
     7
370
    15
100
AcDbLine
 10
369.9076301806
 20
260.4793608423
 30
0.0
 11
369.9076301806
 21
256.8049271889
 31
0.0
  0
LINE
  5
1A5
330
1F
100
AcDbEntity
  8
0
  6
Continuous
 62
     7
370
    15
100
AcDbLine
 10
387.2089798217
 20
246.8170706385
 30
0.0
 11
369.9076301806
 21
256.8049271889
 31
0.0
  0
ARC
  5
1A6
330
1F
100
AcDbEntity
  8
0
  6
Continuous
 62
     7
370
    15
100
AcDbCircle
 10
331.872097941
 20
249.3377534081
 30
0.0
 40
9.29288235053958
100
AcDbArc
 50
60.9055507324
 51
128.186886686
  0
ARC
  5
1A7
330
1F
100
AcDbEntity
  8
0
  6
Continuous
 62
     7
370
    15
100
AcDbCircle
 10
367.0666433968
 20
251.3407413369
 30
0.0
 40
6.158614530160296
100
AcDbArc
 50
62.5287863078
 51
113.8314749912
  0
LINE
  5
1A8
330
1F
100
AcDbEntity
  8
0
  6
Continuous
 62
     7
370
    15
100
AcDbLine
 10
333.5269862886
 20
258.4213668736
 30
0.0
 11
333.5269862886
 21
255.436382001
 31
0.0
  0
LINE
  5
1A9
330
1F
100
AcDbEntity
  8
0
  6
Continuous
 62
     7
370
    15
100
AcDbLine
 10
330.6999958398
 20
253.8043951528
 30
0.0
 11
333.5269862886
 21
255.436382001
 31
0.0
  0
LINE
  5
1AA
330
1F
100
AcDbEntity
  8
0
  6
Continuous
 62
     7
370
    15
100
AcDbLine
 10
362.4830089782
 20
275.8677248498
 30
0.0
 11
345.6609088367
 21
266.1565331466
 31
0.0
  0
LINE
  5
1AB
330
1F
100
AcDbEntity
  8
0
  6
Continuous
 62
     7
370
    15
100
AcDbLine
 10
364.0386438968
 20
274.9696759268
 30
0.0
 11
362.4830089782
 21
275.8677248498
 31
0.0
  0
LINE
  5
1AC
330
1F
100
AcDbEntity
  8
0
  6
Continuous
 62
     7
370
    15
100
AcDbLine
 10
364.0386438968
 20
274.9696759268
 30
0.0
 11
348.0812057818
 21
265.7576429866
 31
0.0
  0
LINE
  5
1AD
330
1F
100
AcDbEntity
  8
0
  6
Continuous
 62
     7
370
    15
100
AcDbLine
 10
333.5269862886
 20
258.2938103924
 30
0.0
 11
333.7075040625
 21
258.3909202287
 31
0.0
  0
LINE
  5
1AE
330
1F
100
AcDbEntity
  8
0
  6
Continuous
 62
     7
370
    15
100
AcDbLine
 10
362.4830089782
 20
275.8677248498
 30
0.0
 11
362.4830089782
 21
281.583510533
 31
0.0
  0
LINE
  5
1AF
330
1F
100
AcDbEntity
  8
0
  6
Continuous
 62
     7
370
    15
100
AcDbLine
 10
364.0386438968
 20
273.5010702259
 30
0.0
 11
364.0386438968
 21
274.9696759268
 31
0.0
  0
LINE
  5
1B0
330
1F
100
AcDbEntity
  8
0
  6
Continuous
 62
     8
370
    15
100
AcDbLine
 10
365.2407254248
 20
211.9847190001
 30
0.0
 11
365.2407254248
 21
213.4533247009
 31
0.0
  0
LINE
  5
1B1
330
1F
100
AcDbEntity
  8
0
  6
Continuous
 62
     8
370
    15
100
AcDbLine
 10
351.664275226
 20
229.5374934043
 30
0.0
 11
351.664275226
 21
226.271860957
 31
0.0
  0
LINE
  5
1B2
330
1F
100
AcDbEntity
  8
0
  6
Continuous
 62
     8
370
    15
100
AcDbLine
 10
398.3333227843
 20
235.5789134318
 30
0.0
 11
398.3333227843
 21
240.0691580468
 31
0.0
  0
LINE
  5
1B3
330
1F
100
AcDbEntity
  8
0
  6
Continuous
 62
     8
370
    15
100
AcDbLine
 10
311.3591886984
 20
243.0898680605
 30
0.0
 11
311.3591886984
 21
244.5584737614
 31
0.0
  0
LINE
  5
1B4
330
1F
100
AcDbEntity
  8
0
  6
Continuous
 62
     8
370
    15
100
AcDbLine
 10
387.5852997103
 20
250.2742594446
 30
0.0
 11
387.5852997103
 21
247.0086269973
 31
0.0
  0
LINE
  5
1B5
330
1F
100
AcDbEntity
  8
0
  6
Continuous
 62
     8
370
    15
100
AcDbLine
 10
344.4517860579
 20
266.6840624922
 30
0.0
 11
344.4517860579
 21
271.1743071072
 31
0.0
  0
ARC
  5
1B6
330
1F
100
AcDbEntity
  8
0
  6
Continuous
 62
     7
370
    15
100
AcDbCircle
 10
113.7782781905
 20
177.2026181567
 30
0.0
 40
4.0
100
AcDbArc
 50
90.0
 51
270.0
  0
LINE
  5
1B7
330
1F
100
AcDbEntity
  8
0
  6
Continuous
 62
     7
370
    15
100
AcDbLine
 10
192.7782781905
 20
173.2026181567
 30
0.0
 11
185.2782781905
 21
173.2026181567
 31
0.0
  0
LINE
  5
1B8
330
1F
100
AcDbEntity
  8
0
  6
Continuous
 62
     7
370
    15
100
AcDbLine
 10
121.2782781905
 20
173.2026181567
 30
0.0
 11
113.7782781905
 21
173.2026181567
 31
0.0
  0
ARC
  5
1B9
330
1F
100
AcDbEntity
  8
0
  6
Continuous
 62
     7
370
    15
100
AcDbCircle
 10
192.7782781905
 20
177.2026181567
 30
0.0
 40
4.000000000000028
100
AcDbArc
 50
270.0
 51
90.0
  0
LINE
  5
1BA
330
1F
100
AcDbEntity
  8
0
  6
Continuous
 62
     7
370
    15
100
AcDbLine
 10
113.7782781905
 20
181.2026181567
 30
0.0
 11
121.2782781905
 21
181.2026181567
 31
0.0
  0
LINE
  5
1BB
330
1F
100
AcDbEntity
  8
0
  6
Continuous
 62
     7
370
    15
100
AcDbLine
 10
185.2782781905
 20
181.2026181567
 30
0.0
 11
192.7782781905
 21
181.2026181567
 31
0.0
  0
LINE
  5
1BC
330
1F
100
AcDbEntity
  8
0
  6
Continuous
 62
     7
370
    15
100
AcDbLine
 10
159.7782781905
 20
170.7026181567
 30
0.0
 11
159.7782781905
 21
183.7026181567
 31
0.0
  0
LINE
  5
1BD
330
1F
100
AcDbEntity
  8
0
  6
Continuous
 62
     7
370
    15
100
AcDbLine
 10
146.7782781905
 20
183.7026181567
 30
0.0
 11
146.7782781905
 21
170.7026181567
 31
0.0
  0
CIRCLE
  5
1BE
330
1F
100
AcDbEntity
  8
0
  6
Continuous
 62
     7
370
    15
100
AcDbCircle
 10
153.2782781905
 20
177.2026181567
 30
0.0
 40
2.552699999999987
  0
LINE
  5
1BF
330
1F
100
AcDbEntity
  8
0
  6
Continuous
 62
     7
370
    15
100
AcDbLine
 10
185.2782781905
 20
170.7026181567
 30
0.0
 11
185.2782781905
 21
183.7026181567
 31
0.0
  0
LINE
  5
1C0
330
1F
100
AcDbEntity
  8
0
  6
Continuous
 62
     7
370
    15
100
AcDbLine
 10
121.2782781905
 20
183.7026181567
 30
0.0
 11
121.2782781905
 21
170.7026181567
 31
0.0
  0
CIRCLE
  5
1C1
330
1F
100
AcDbEntity
  8
0
  6
Continuous
 62
     7
370
    15
100
AcDbCircle
 10
153.2782781905
 20
202.6026181567
 30
0.0
 40
2.552700000000016
  0
CIRCLE
  5
1C2
330
1F
100
AcDbEntity
  8
0
  6
Continuous
 62
     7
370
    15
100
AcDbCircle
 10
127.8782781905
 20
177.2026181567
 30
0.0
 40
2.552699999999973
  0
CIRCLE
  5
1C3
330
1F
100
AcDbEntity
  8
0
  6
Continuous
 62
     7
370
    15
100
AcDbCircle
 10
153.2782781905
 20
151.8026181567
 30
0.0
 40
2.552699999999987
  0
CIRCLE
  5
1C4
330
1F
100
AcDbEntity
  8
0
  6
Continuous
 62
     7
370
    15
100
AcDbCircle
 10
178.6782781905
 20
177.2026181567
 30
0.0
 40
2.552699999999987
  0
LINE
  5
1C5
330
1F
100
AcDbEntity
  8
0
  6
Continuous
 62
     7
370
    15
100
AcDbLine
 10
165.7782781905
 20
147.8026181567
 30
0.0
 11
140.7782781905
 21
147.8026181567
 31
0.0
  0
ARC
  5
1C6
330
1F
100
AcDbEntity
  8
0
  6
Continuous
 62
     7
370
    15
100
AcDbCircle
 10
165.7782781905
 20
151.8026181567
 30
0.0
 40
4.0
100
AcDbArc
 50
270.0
 51
90.0
  0
LINE
  5
1C7
330
1F
100
AcDbEntity
  8
0
  6
Continuous
 62
     7
370
    15
100
AcDbLine
 10
140.7782781905
 20
155.8026181567
 30
0.0
 11
165.7782781905
 21
155.8026181567
 31
0.0
  0
ARC
  5
1C8
330
1F
100
AcDbEntity
  8
0
  6
Continuous
 62
     7
370
    15
100
AcDbCircle
 10
140.7782781905
 20
151.8026181567
 30
0.0
 40
4.000000000000028
100
AcDbArc
 50
90.0
 51
270.0
  0
LINE
  5
1C9
330
1F
100
AcDbEntity
  8
0
  6
Continuous
 62
     7
370
    15
100
AcDbLine
 10
140.7782781905
 20
206.6026181567
 30
0.0
 11
165.7782781905
 21
206.6026181567
 31
0.0
  0
ARC
  5
1CA
330
1F
100
AcDbEntity
  8
0
  6
Continuous
 62
     7
370
    15
100
AcDbCircle
 10
140.7782781905
 20
202.6026181567
 30
0.0
 40
4.0
100
AcDbArc
 50
90.0
 51
270.0
  0
LINE
  5
1CB
330
1F
100
AcDbEntity
  8
0
  6
Continuous
 62
     7
370
    15
100
AcDbLine
 10
165.7782781905
 20
198.6026181567
 30
0.0
 11
140.7782781905
 21
198.6026181567
 31
0.0
  0
ARC
  5
1CC
330
1F
100
AcDbEntity
  8
0
  6
Continuous
 62
     7
370
    15
100
AcDbCircle
 10
165.7782781905
 20
202.6026181567
 30
0.0
 40
4.000000000000028
100
AcDbArc
 50
270.0
 51
90.0
  0
LINE
  5
1CD
330
1F
100
AcDbEntity
  8
0
  6
Continuous
 62
     7
370
    15
100
AcDbLine
 10
116.2782781905
 20
183.7026181567
 30
0.0
 11
190.2782781905
 21
183.7026181567
 31
0.0
  0
ARC
  5
1CE
330
1F
100
AcDbEntity
  8
0
  6
Continuous
 62
     7
370
    15
100
AcDbCircle
 10
116.2782781905
 20
177.2026181567
 30
0.0
 40
6.5
100
AcDbArc
 50
90.0
 51
270.0
  0
LINE
  5
1CF
330
1F
100
AcDbEntity
  8
0
  6
Continuous
 62
     7
370
    15
100
AcDbLine
 10
116.2782781905
 20
170.7026181567
 30
0.0
 11
190.2782781905
 21
170.7026181567
 31
0.0
  0
ARC
  5
1D0
330
1F
100
AcDbEntity
  8
0
  6
Continuous
 62
     7
370
    15
100
AcDbCircle
 10
190.2782781905
 20
177.2026181567
 30
0.0
 40
6.5
100
AcDbArc
 50
270.0
 51
90.0
  0
LINE
  5
1D1
330
1F
100
AcDbEntity
  8
0
  6
Continuous
 62
     7
370
    15
100
AcDbLine
 10
120.6782781905
 20
127.2026181567
 30
0.0
 11
120.6782781905
 21
152.7026181567
 31
0.0
  0
ARC
  5
1D2
330
1F
100
AcDbEntity
  8
0
  6
Continuous
 62
     7
370
    15
100
AcDbCircle
 10
115.1782781905
 20
152.7026181567
 30
0.0
 40
5.5
100
AcDbArc
 50
0.0
 51
180.0
  0
LINE
  5
1D3
330
1F
100
AcDbEntity
  8
0
  6
Continuous
 62
     7
370
    15
100
AcDbLine
 10
109.6782781905
 20
152.7026181567
 30
0.0
 11
109.6782781905
 21
127.2026181567
 31
0.0
  0
LINE
  5
1D4
330
1F
100
AcDbEntity
  8
0
  6
Continuous
 62
     7
370
    15
100
AcDbLine
 10
109.6782781905
 20
127.2026181567
 30
0.0
 11
103.2782781905
 21
127.2026181567
 31
0.0
  0
LINE
  5
1D5
330
1F
100
AcDbEntity
  8
0
  6
Continuous
 62
     7
370
    15
100
AcDbLine
 10
103.2782781905
 20
127.2026181567
 30
0.0
 11
103.2782781905
 21
227.2026181567
 31
0.0
  0
ARC
  5
1D6
330
1F
100
AcDbEntity
  8
0
  6
Continuous
 62
     7
370
    15
100
AcDbCircle
 10
115.1782781905
 20
201.7026181567
 30
0.0
 40
5.5
100
AcDbArc
 50
180.0
 51
0.0
  0
LINE
  5
1D7
330
1F
100
AcDbEntity
  8
0
  6
Continuous
 62
     7
370
    15
100
AcDbLine
 10
120.6782781905
 20
227.2026181567
 30
0.0
 11
185.8782781905
 21
227.2026181567
 31
0.0
  0
ARC
  5
1D8
330
1F
100
AcDbEntity
  8
0
  6
Continuous
 62
     7
370
    15
100
AcDbCircle
 10
191.3782781905
 20
201.7026181567
 30
0.0
 40
5.500000000000028
100
AcDbArc
 50
180.0
 51
0.0
  0
LINE
  5
1D9
330
1F
100
AcDbEntity
  8
0
  6
Continuous
 62
     7
370
    15
100
AcDbLine
 10
203.2782781905
 20
127.2026181567
 30
0.0
 11
196.8782781905
 21
127.2026181567
 31
0.0
  0
LINE
  5
1DA
330
1F
100
AcDbEntity
  8
0
  6
Continuous
 62
     7
370
    15
100
AcDbLine
 10
196.8782781905
 20
127.2026181567
 30
0.0
 11
196.8782781905
 21
152.7026181567
 31
0.0
  0
ARC
  5
1DB
330
1F
100
AcDbEntity
  8
0
  6
Continuous
 62
     7
370
    15
100
AcDbCircle
 10
191.3782781905
 20
152.7026181567
 30
0.0
 40
5.5
100
AcDbArc
 50
0.0
 51
180.0
  0
LINE
  5
1DC
330
1F
100
AcDbEntity
  8
0
  6
Continuous
 62
     7
370
    15
100
AcDbLine
 10
185.8782781905
 20
152.7026181567
 30
0.0
 11
185.8782781905
 21
127.2026181567
 31
0.0
  0
LINE
  5
1DD
330
1F
100
AcDbEntity
  8
0
  6
Continuous
 62
     7
370
    15
100
AcDbLine
 10
185.8782781905
 20
127.2026181567
 30
0.0
 11
120.6782781905
 21
127.2026181567
 31
0.0
  0
LINE
  5
1DE
330
1F
100
AcDbEntity
  8
0
  6
Continuous
 62
     7
370
    15
100
AcDbLine
 10
109.6782781905
 20
227.2026181567
 30
0.0
 11
109.6782781905
 21
201.7026181567
 31
0.0
  0
LINE
  5
1DF
330
1F
100
AcDbEntity
  8
0
  6
Continuous
 62
     7
370
    15
100
AcDbLine
 10
120.6782781905
 20
201.7026181567
 30
0.0
 11
120.6782781905
 21
227.2026181567
 31
0.0
  0
LINE
  5
1E0
330
1F
100
AcDbEntity
  8
0
  6
Continuous
 62
     7
370
    15
100
AcDbLine
 10
196.8782781905
 20
201.7026181567
 30
0.0
 11
196.8782781905
 21
227.2026181567
 31
0.0
  0
LINE
  5
1E1
330
1F
100
AcDbEntity
  8
0
  6
Continuous
 62
     7
370
    15
100
AcDbLine
 10
185.8782781905
 20
227.2026181567
 30
0.0
 11
185.8782781905
 21
201.7026181567
 31
0.0
  0
LINE
  5
1E2
330
1F
100
AcDbEntity
  8
0
  6
Continuous
 62
     7
370
    15
100
AcDbLine
 10
103.2782781905
 20
227.2026181567
 30
0.0
 11
109.6782781905
 21
227.2026181567
 31
0.0
  0
LINE
  5
1E3
330
1F
100
AcDbEntity
  8
0
  6
Continuous
 62
     7
370
    15
100
AcDbLine
 10
196.8782781905
 20
227.2026181567
 30
0.0
 11
203.2782781905
 21
227.2026181567
 31
0.0
  0
LINE
  5
1E4
330
1F
100
AcDbEntity
  8
0
  6
Continuous
 62
     7
370
    15
100
AcDbLine
 10
203.2782781905
 20
227.2026181567
 30
0.0
 11
203.2782781905
 21
127.2026181567
 31
0.0
  0
ARC
  5
1E5
330
1F
100
AcDbEntity
  8
0
  6
Continuous
 62
     7
370
    15
100
AcDbCircle
 10
191.3782781905
 20
201.7026181567
 30
0.0
 40
3.300000000000011
100
AcDbArc
 50
180.0
 51
0.0
  0
LINE
  5
1E6
330
1F
100
AcDbEntity
  8
0
  6
Continuous
 62
     7
370
    15
100
AcDbLine
 10
194.6782781905
 20
201.7026181567
 30
0.0
 11
194.6782781905
 21
227.2026181567
 31
0.0
  0
LINE
  5
1E7
330
1F
100
AcDbEntity
  8
0
  6
Continuous
 62
     7
370
    15
100
AcDbLine
 10
188.0782781905
 20
227.2026181567
 30
0.0
 11
188.0782781905
 21
201.7026181567
 31
0.0
  0
LINE
  5
1E8
330
1F
100
AcDbEntity
  8
0
  6
Continuous
 62
     7
370
    15
100
AcDbLine
 10
188.0782781905
 20
227.2026181567
 30
0.0
 11
185.8782781905
 21
227.2026181567
 31
0.0
  0
LINE
  5
1E9
330
1F
100
AcDbEntity
  8
0
  6
Continuous
 62
     7
370
    15
100
AcDbLine
 10
196.8782781905
 20
227.2026181567
 30
0.0
 11
194.6782781905
 21
227.2026181567
 31
0.0
  0
ARC
  5
1EA
330
1F
100
AcDbEntity
  8
0
  6
Continuous
 62
     7
370
    15
100
AcDbCircle
 10
115.1782781905
 20
201.7026181567
 30
0.0
 40
3.299999999999997
100
AcDbArc
 50
180.0
 51
0.0
  0
LINE
  5
1EB
330
1F
100
AcDbEntity
  8
0
  6
Continuous
 62
     7
370
    15
100
AcDbLine
 10
111.8782781905
 20
227.2026181567
 30
0.0
 11
111.8782781905
 21
201.7026181567
 31
0.0
  0
LINE
  5
1EC
330
1F
100
AcDbEntity
  8
0
  6
Continuous
 62
     7
370
    15
100
AcDbLine
 10
118.4782781905
 20
201.7026181567
 30
0.0
 11
118.4782781905
 21
227.2026181567
 31
0.0
  0
LINE
  5
1ED
330
1F
100
AcDbEntity
  8
0
  6
Continuous
 62
     7
370
    15
100
AcDbLine
 10
120.6782781905
 20
227.2026181567
 30
0.0
 11
118.4782781905
 21
227.2026181567
 31
0.0
  0
LINE
  5
1EE
330
1F
100
AcDbEntity
  8
0
  6
Continuous
 62
     7
370
    15
100
AcDbLine
 10
111.8782781905
 20
227.2026181567
 30
0.0
 11
109.6782781905
 21
227.2026181567
 31
0.0
  0
LINE
  5
1EF
330
1F
100
AcDbEntity
  8
0
  6
Continuous
 62
     7
370
    15
100
AcDbLine
 10
118.4782781905
 20
127.2026181567
 30
0.0
 11
118.4782781905
 21
152.7026181567
 31
0.0
  0
ARC
  5
1F0
330
1F
100
AcDbEntity
  8
0
  6
Continuous
 62
     7
370
    15
100
AcDbCircle
 10
115.1782781905
 20
152.7026181567
 30
0.0
 40
3.299999999999997
100
AcDbArc
 50
0.0
 51
180.0
  0
LINE
  5
1F1
330
1F
100
AcDbEntity
  8
0
  6
Continuous
 62
     7
370
    15
100
AcDbLine
 10
111.8782781905
 20
152.7026181567
 30
0.0
 11
111.8782781905
 21
127.2026181567
 31
0.0
  0
LINE
  5
1F2
330
1F
100
AcDbEntity
  8
0
  6
Continuous
 62
     7
370
    15
100
AcDbLine
 10
118.4782781905
 20
127.2026181567
 30
0.0
 11
120.6782781905
 21
127.2026181567
 31
0.0
  0
LINE
  5
1F3
330
1F
100
AcDbEntity
  8
0
  6
Continuous
 62
     7
370
    15
100
AcDbLine
 10
109.6782781905
 20
127.2026181567
 30
0.0
 11
111.8782781905
 21
127.2026181567
 31
0.0
  0
LINE
  5
1F4
330
1F
100
AcDbEntity
  8
0
  6
Continuous
 62
     7
370
    15
100
AcDbLine
 10
188.0782781905
 20
152.7026181567
 30
0.0
 11
188.0782781905
 21
127.2026181567
 31
0.0
  0
LINE
  5
1F5
330
1F
100
AcDbEntity
  8
0
  6
Continuous
 62
     7
370
    15
100
AcDbLine
 10
194.6782781905
 20
127.2026181567
 30
0.0
 11
194.6782781905
 21
152.7026181567
 31
0.0
  0
ARC
  5
1F6
330
1F
100
AcDbEntity
  8
0
  6
Continuous
 62
     7
370
    15
100
AcDbCircle
 10
191.3782781905
 20
152.7026181567
 30
0.0
 40
3.300000000000011
100
AcDbArc
 50
0.0
 51
180.0
  0
LINE
  5
1F7
330
1F
100
AcDbEntity
  8
0
  6
Continuous
 62
     7
370
    15
100
AcDbLine
 10
185.8782781905
 20
127.2026181567
 30
0.0
 11
188.0782781905
 21
127.2026181567
 31
0.0
  0
LINE
  5
1F8
330
1F
100
AcDbEntity
  8
0
  6
Continuous
 62
     7
370
    15
100
AcDbLine
 10
194.6782781905
 20
127.2026181567
 30
0.0
 11
196.8782781905
 21
127.2026181567
 31
0.0
  0
LINE
  5
1F9
330
1F
100
AcDbEntity
  8
DIM
  6
HIDDEN
100
AcDbLine
 10
167.2782781905
 20
146.2026181567
 30
0.0
 11
170.2782781905
 21
149.2026181567
 31
0.0
  0
LINE
  5
1FA
330
1F
100
AcDbEntity
  8
DIM
  6
HIDDEN
100
AcDbLine
 10
170.2782781905
 20
149.2026181567
 30
0.0
 11
170.2782781905
 21
164.7026181567
 31
0.0
  0
LINE
  5
1FB
330
1F
100
AcDbEntity
  8
DIM
  6
HIDDEN
100
AcDbLine
 10
170.2782781905
 20
164.7026181567
 30
0.0
 11
185.2782781905
 21
164.7026181567
 31
0.0
  0
LINE
  5
1FC
330
1F
100
AcDbEntity
  8
DIM
  6
HIDDEN
100
AcDbLine
 10
185.2782781905
 20
164.7026181567
 30
0.0
 11
185.2782781905
 21
189.7026181567
 31
0.0
  0
LINE
  5
1FD
330
1F
100
AcDbEntity
  8
DIM
  6
HIDDEN
100
AcDbLine
 10
185.2782781905
 20
189.7026181567
 30
0.0
 11
170.2782781905
 21
189.7026181567
 31
0.0
  0
LINE
  5
1FE
330
1F
100
AcDbEntity
  8
DIM
  6
HIDDEN
100
AcDbLine
 10
170.2782781905
 20
189.7026181567
 30
0.0
 11
170.2782781905
 21
205.2026181567
 31
0.0
  0
LINE
  5
1FF
330
1F
100
AcDbEntity
  8
DIM
  6
HIDDEN
100
AcDbLine
 10
170.2782781905
 20
205.2026181567
 30
0.0
 11
167.2782781905
 21
208.2026181567
 31
0.0
  0
LINE
  5
200
330
1F
100
AcDbEntity
  8
DIM
  6
HIDDEN
100
AcDbLine
 10
167.2782781905
 20
208.2026181567
 30
0.0
 11
139.2782781905
 21
208.2026181567
 31
0.0
  0
LINE
  5
201
330
1F
100
AcDbEntity
  8
DIM
  6
HIDDEN
100
AcDbLine
 10
139.2782781905
 20
208.2026181567
 30
0.0
 11
136.2782781905
 21
205.2026181567
 31
0.0
  0
LINE
  5
202
330
1F
100
AcDbEntity
  8
DIM
  6
HIDDEN
100
AcDbLine
 10
136.2782781905
 20
205.2026181567
 30
0.0
 11
136.2782781905
 21
189.7026181567
 31
0.0
  0
LINE
  5
203
330
1F
100
AcDbEntity
  8
DIM
  6
HIDDEN
100
AcDbLine
 10
136.2782781905
 20
189.7026181567
 30
0.0
 11
121.2782781905
 21
189.7026181567
 31
0.0
  0
LINE
  5
204
330
1F
100
AcDbEntity
  8
DIM
  6
HIDDEN
100
AcDbLine
 10
121.2782781905
 20
189.7026181567
 30
0.0
 11
121.2782781905
 21
164.7026181567
 31
0.0
  0
LINE
  5
205
330
1F
100
AcDbEntity
  8
DIM
  6
HIDDEN
100
AcDbLine
 10
121.2782781905
 20
164.7026181567
 30
0.0
 11
136.2782781905
 21
164.7026181567
 31
0.0
  0
LINE
  5
206
330
1F
100
AcDbEntity
  8
DIM
  6
HIDDEN
100
AcDbLine
 10
136.2782781905
 20
164.7026181567
 30
0.0
 11
136.2782781905
 21
149.2026181567
 31
0.0
  0
LINE
  5
207
330
1F
100
AcDbEntity
  8
DIM
  6
HIDDEN
100
AcDbLine
 10
136.2782781905
 20
149.2026181567
 30
0.0
 11
139.2782781905
 21
146.2026181567
 31
0.0
  0
LINE
  5
208
330
1F
100
AcDbEntity
  8
DIM
  6
HIDDEN
100
AcDbLine
 10
139.2782781905
 20
146.2026181567
 30
0.0
 11
167.2782781905
 21
146.2026181567
 31
0.0
  0
DIMENSION
  5
209
330
1F
100
AcDbEntity
  8
DIM
100
AcDbDimension
  2
_D_1
 10
203.2782781905
 20
257.4167457086
 30
0.0
 11
153.2782781905
 21
257.4167457086
 31
0.0
 70
   160
  1
<>
 71
     2
 42
-1.0
  3
SLDDIMSTYLE0
100
AcDbAlignedDimension
 13
103.2782781905
 23
227.2026181567
 33
0.0
 14
203.2782781905
 24
227.2026181567
 34
0.0
100
AcDbRotatedDimension
  0
DIMENSION
  5
213
330
1F
100
AcDbEntity
  8
DIM
100
AcDbDimension
  2
_D_2
 10
227.7600807137
 20
127.2026181567
 30
0.0
 11
227.7600807137
 21
177.2026181567
 31
0.0
 70
   160
  1
<>
 71
     2
 42
-1.0
  3
SLDDIMSTYLE0
100
AcDbAlignedDimension
 13
203.2782781905
 23
227.2026181567
 33
0.0
 14
203.2782781905
 24
127.2026181567
 34
0.0
 50
90.0
100
AcDbRotatedDimension
  0
DIMENSION
  5
21D
330
1F
100
AcDbEntity
  8
DIM
 62
     7
100
AcDbDimension
  2
_D_3
 10
153.2782781905
 20
235.7026181567
 30
0.0
 11
140.5782781905
 21
235.7026181567
 31
0.0
 70
   160
  1
<>
 71
     2
 42
-1.0
  3
SLDDIMSTYLE0
100
AcDbAlignedDimension
 13
127.8782781905
 23
180.7553181567
 33
0.0
 14
153.2782781905
 24
206.1553181567
 34
0.0
100
AcDbRotatedDimension
  0
DIMENSION
  5
227
330
1F
100
AcDbEntity
  8
DIM
 62
     7
100
AcDbDimension
  2
_D_4
 10
178.6782781905
 20
235.7026181567
 30
0.0
 11
165.9782781905
 21
235.7026181567
 31
0.0
 70
   160
  1
<>
 71
     2
 42
-1.0
  3
SLDDIMSTYLE0
100
AcDbAlignedDimension
 13
153.2782781905
 23
206.1553181567
 33
0.0
 14
178.6782781905
 24
180.7553181567
 34
0.0
100
AcDbRotatedDimension
  0
DIMENSION
  5
231
330
1F
100
AcDbEntity
  8
DIM
 62
     7
100
AcDbDimension
  2
_D_5
 10
115.1782781905
 20
246.9791161831
 30
0.0
 11
134.2282781905
 21
246.9791161831
 31
0.0
 70
   160
  1
<>
 71
     2
 42
-1.0
  3
SLDDIMSTYLE0
100
AcDbAlignedDimension
 13
153.2782781905
 23
206.1553181567
 33
0.0
 14
115.1782781905
 24
201.7026181567
 34
0.0
100
AcDbRotatedDimension
  0
DIMENSION
  5
23B
330
1F
100
AcDbEntity
  8
DIM
 62
     7
100
AcDbDimension
  2
_D_6
 10
191.3782781905
 20
246.9791161831
 30
0.0
 11
172.3282781905
 21
246.9791161831
 31
0.0
 70
   160
  1
<>
 71
     2
 42
-1.0
  3
SLDDIMSTYLE0
100
AcDbAlignedDimension
 13
153.2782781905
 23
206.1553181567
 33
0.0
 14
191.3782781905
 24
201.7026181567
 34
0.0
100
AcDbRotatedDimension
  0
DIMENSION
  5
245
330
1F
100
AcDbEntity
  8
DIM
 62
     7
100
AcDbDimension
  2
_D_7
 10
216.0782781905
 20
177.2026181567
 30
0.0
 11
216.0782781905
 21
189.9026181567
 31
0.0
 70
   160
  1
<>
 71
     2
 42
-1.0
  3
SLDDIMSTYLE0
100
AcDbAlignedDimension
 13
156.8309781905
 23
202.6026181567
 33
0.0
 14
182.2309781905
 24
177.2026181567
 34
0.0
 50
90.0
100
AcDbRotatedDimension
  0
DIMENSION
  5
24F
330
1F
100
AcDbEntity
  8
DIM
 62
     7
100
AcDbDimension
  2
_D_8
 10
216.0782781905
 20
151.8026181567
 30
0.0
 11
216.0782781905
 21
164.5026181567
 31
0.0
 70
   160
  1
<>
 71
     2
 42
-1.0
  3
SLDDIMSTYLE0
100
AcDbAlignedDimension
 13
182.2309781905
 23
177.2026181567
 33
0.0
 14
156.8309781905
 24
151.8026181567
 34
0.0
 50
90.0
100
AcDbRotatedDimension
  0
DIMENSION
  5
259
330
1F
100
AcDbEntity
  8
DIM
 62
     7
100
AcDbDimension
  2
_D_9
 10
92.8495439959
 20
152.7026181567
 30
0.0
 11
92.8495439959
 21
177.2026181567
 31
0.0
 70
   160
  1
<>
 71
     2
 42
-1.0
  3
SLDDIMSTYLE0
100
AcDbAlignedDimension
 13
108.6782781905
 23
201.7026181567
 33
0.0
 14
108.6782781905
 24
152.7026181567
 34
0.0
 50
90.0
100
AcDbRotatedDimension
  0
DIMENSION
  5
263
330
1F
100
AcDbEntity
  8
DIM
100
AcDbDimension
  2
_D_10
 10
129.6833096708
 20
175.3975866763
 30
0.0
 11
76.9444357421
 21
219.9059051304
 31
0.0
 70
   163
  1
5 HOLES,\P 1/4"-20
 71
     1
 42
-1.0
  3
SLDDIMSTYLE1
100
AcDbDiametricDimension
 15
126.0732467102
 25
179.007649637
 35
0.0
 40
0.0
  0
INSERT
  5
273
102
{ACAD_REACTORS
330
275
102
}
330
1F
100
AcDbEntity
  8
DIM
100
AcDbBlockReference
  2
SW_NOTE_2
 10
89.7719626168
 20
134.3925233645
 30
0.0
  0
LEADER
  5
275
330
1F
100
AcDbEntity
  8
DIM
100
AcDbLeader
  3
SLDDIMSTYLE2
 73
     2
 76
     3
 10
121.2782781905
 20
167.6765525449
 30
0.0
 10
91.3719626168
 20
134.3925233645
 30
0.0
 10
89.7719626168
 20
134.3925233645
 30
0.0
340
273
  0
INSERT
  5
281
330
1F
100
AcDbEntity
  8
DIM
 62
     7
100
AcDbBlockReference
  2
SW_CENTERMARKSYMBOL_0
 10
153.2782781905
 20
202.6026181567
 30
0.0
  0
INSERT
  5
28D
330
1F
100
AcDbEntity
  8
DIM
 62
     7
100
AcDbBlockReference
  2
SW_CENTERMARKSYMBOL_1
 10
127.8782781905
 20
177.2026181567
 30
0.0
  0
INSERT
  5
299
330
1F
100
AcDbEntity
  8
DIM
 62
     7
100
AcDbBlockReference
  2
SW_CENTERMARKSYMBOL_2
 10
178.6782781905
 20
177.2026181567
 30
0.0
  0
INSERT
  5
2A5
330
1F
100
AcDbEntity
  8
DIM
 62
     7
100
AcDbBlockReference
  2
SW_CENTERMARKSYMBOL_3
 10
153.2782781905
 20
151.8026181567
 30
0.0
  0
INSERT
  5
2B1
330
1F
100
AcDbEntity
  8
DIM
 62
     7
100
AcDbBlockReference
  2
SW_CENTERMARKSYMBOL_4
 10
115.1782781905
 20
201.7026181567
 30
0.0
  0
INSERT
  5
2BD
330
1F
100
AcDbEntity
  8
DIM
 62
     7
100
AcDbBlockReference
  2
SW_CENTERMARKSYMBOL_5
 10
191.3782781905
 20
201.7026181567
 30
0.0
  0
INSERT
  5
2C9
330
1F
100
AcDbEntity
  8
DIM
 62
     7
100
AcDbBlockReference
  2
SW_CENTERMARKSYMBOL_6
 10
191.3782781905
 20
152.7026181567
 30
0.0
  0
INSERT
  5
2D5
330
1F
100
AcDbEntity
  8
DIM
 62
     7
100
AcDbBlockReference
  2
SW_CENTERMARKSYMBOL_7
 10
115.1782781905
 20
152.7026181567
 30
0.0
  0
LINE
  5
2D6
330
1F
100
AcDbEntity
  8
DIM
  6
CENTERX2
370
     0
100
AcDbLine
 10
153.2782781905
 20
230.4026181567
 30
0.0
 11
153.2782781905
 21
124.0026181567
 31
0.0
  0
LINE
  5
2D7
330
1F
100
AcDbEntity
  8
DIM
  6
CENTERX2
370
     0
100
AcDbLine
 10
191.2782781905
 20
177.2026181567
 30
0.0
 11
115.2782781905
 21
177.2026181567
 31
0.0
  0
ENDSEC
  0
SECTION
  2
OBJECTS
  0
DICTIONARY
  5
C
330
0
100
AcDbDictionary
281
     1
  3
ACAD_GROUP
350
D
  3
ACAD_LAYOUT
350
1A
  3
ACAD_MLINESTYLE
350
17
  3
ACAD_PLOTSETTINGS
350
19
  3
ACAD_PLOTSTYLENAME
350
E
  3
ACAD_SCALELIST
350
47
  0
DICTIONARY
  5
D
102
{ACAD_REACTORS
330
C
102
}
330
C
100
AcDbDictionary
281
     1
  0
DICTIONARY
  5
1A
102
{ACAD_REACTORS
330
C
102
}
330
C
100
AcDbDictionary
281
     1
  3
Layout1
350
1E
  3
Layout2
350
26
  3
Model
350
22
  0
DICTIONARY
  5
17
102
{ACAD_REACTORS
330
C
102
}
330
C
100
AcDbDictionary
281
     1
  3
Standard
350
18
  0
DICTIONARY
  5
19
102
{ACAD_REACTORS
330
C
102
}
330
C
100
AcDbDictionary
281
     1
  0
ACDBDICTIONARYWDFLT
  5
E
102
{ACAD_REACTORS
330
C
102
}
330
C
100
AcDbDictionary
281
     1
  3
Normal
350
F
100
AcDbDictionaryWithDefault
340
F
  0
DICTIONARY
  5
47
102
{ACAD_REACTORS
330
C
102
}
330
C
100
AcDbDictionary
281
     1
  3
A0
350
48
  3
A1
350
49
  3
A2
350
4A
  3
A3
350
4B
  3
A4
350
4C
  3
A5
350
4D
  3
A6
350
4E
  3
A7
350
4F
  3
A8
350
50
  3
A9
350
51
  3
B0
350
52
  3
B1
350
53
  3
B2
350
54
  3
B3
350
55
  3
B4
350
56
  3
B5
350
57
  3
B6
350
58
  3
B7
350
59
  3
B8
350
5A
  3
B9
350
5B
  3
C0
350
5C
  3
C1
350
5D
  3
C2
350
5E
  3
C3
350
5F
  3
C4
350
60
  3
C5
350
61
  3
C6
350
62
  3
C7
350
63
  3
C8
350
64
  3
C9
350
65
  3
D0
350
66
  3
D1
350
67
  3
D2
350
68
  0
LAYOUT
  5
1E
102
{ACAD_REACTORS
330
1A
102
}
330
1A
100
AcDbPlotSettings
  1

  2
none_device
  4

  6

 40
0.0
 41
0.0
 42
0.0
 43
0.0
 44
0.0
 45
0.0
 46
0.0
 47
0.0
 48
0.0
 49
0.0
140
0.0
141
0.0
142
1.0
143
1.0
 70
   688
 72
     1
 73
     0
 74
     5
  7

 75
    16
147
1.0
148
0.0
149
0.0
100
AcDbLayout
  1
Layout1
 70
     1
 71
     1
 10
0.0
 20
0.0
 11
420.0
 21
297.0
 12
0.0
 22
0.0
 32
0.0
 14
1.0000000000E+20
 24
1.0000000000E+20
 34
1.0000000000E+20
 15
-1.0000000000E+20
 25
-1.0000000000E+20
 35
-1.0000000000E+20
146
0.0
 13
0.0
 23
0.0
 33
0.0
 16
1.0
 26
0.0
 36
0.0
 17
0.0
 27
1.0
 37
0.0
 76
     0
330
1B
  0
LAYOUT
  5
26
102
{ACAD_REACTORS
330
1A
102
}
330
1A
100
AcDbPlotSettings
  1

  2
none_device
  4

  6

 40
0.0
 41
0.0
 42
0.0
 43
0.0
 44
0.0
 45
0.0
 46
0.0
 47
0.0
 48
0.0
 49
0.0
140
0.0
141
0.0
142
1.0
143
1.0
 70
   688
 72
     1
 73
     0
 74
     5
  7

 75
    16
147
1.0
148
0.0
149
0.0
100
AcDbLayout
  1
Layout2
 70
     1
 71
     2
 10
0.0
 20
0.0
 11
0.0
 21
0.0
 12
0.0
 22
0.0
 32
0.0
 14
0.0
 24
0.0
 34
0.0
 15
0.0
 25
0.0
 35
0.0
146
0.0
 13
0.0
 23
0.0
 33
0.0
 16
1.0
 26
0.0
 36
0.0
 17
0.0
 27
1.0
 37
0.0
 76
     0
330
23
  0
LAYOUT
  5
22
102
{ACAD_REACTORS
330
1A
102
}
330
1A
100
AcDbPlotSettings
  1

  2
none_device
  4
Letter_(8.50_x_11.00_Inches)
  6

 40
6.35
 41
6.35
 42
6.35000508
 43
6.35000508
 44
215.9
 45
279.4
 46
0.0
 47
0.0
 48
0.0
 49
0.0
140
0.0
141
0.0
142
1.0
143
1.0
 70
  1712
 72
     1
 73
     0
 74
     0
  7

 75
     0
147
1.0
148
0.0
149
0.0
100
AcDbLayout
  1
Model
 70
     1
 71
     0
 10
0.0
 20
0.0
 11
475.2
 21
336.0
 12
0.0
 22
0.0
 32
0.0
 14
0.0
 24
0.0
 34
0.0
 15
475.2
 25
336.0
 35
0.0
146
0.0
 13
0.0
 23
0.0
 33
0.0
 16
1.0
 26
0.0
 36
0.0
 17
0.0
 27
1.0
 37
0.0
 76
     0
330
1F
331
29
  0
MLINESTYLE
  5
18
102
{ACAD_REACTORS
330
17
102
}
330
17
100
AcDbMlineStyle
  2
Standard
 70
     0
  3

 62
   256
 51
90.0
 52
90.0
 71
     2
 49
0.5
 62
   256
  6
BYLAYER
 49
-0.5
 62
   256
  6
BYLAYER
  0
ACDBPLACEHOLDER
  5
F
102
{ACAD_REACTORS
330
E
102
}
330
E
  0
SCALE
  5
48
102
{ACAD_REACTORS
330
47
102
}
330
47
100
AcDbScale
 70
     0
300
1:1
140
1.0
141
1.0
290
     1
  0
SCALE
  5
49
102
{ACAD_REACTORS
330
47
102
}
330
47
100
AcDbScale
 70
     0
300
1:2
140
1.0
141
2.0
290
     0
  0
SCALE
  5
4A
102
{ACAD_REACTORS
330
47
102
}
330
47
100
AcDbScale
 70
     0
300
1:4
140
1.0
141
4.0
290
     0
  0
SCALE
  5
4B
102
{ACAD_REACTORS
330
47
102
}
330
47
100
AcDbScale
 70
     0
300
1:5
140
1.0
141
5.0
290
     0
  0
SCALE
  5
4C
102
{ACAD_REACTORS
330
47
102
}
330
47
100
AcDbScale
 70
     0
300
1:8
140
1.0
141
8.0
290
     0
  0
SCALE
  5
4D
102
{ACAD_REACTORS
330
47
102
}
330
47
100
AcDbScale
 70
     0
300
1:10
140
1.0
141
10.0
290
     0
  0
SCALE
  5
4E
102
{ACAD_REACTORS
330
47
102
}
330
47
100
AcDbScale
 70
     0
300
1:16
140
1.0
141
16.0
290
     0
  0
SCALE
  5
4F
102
{ACAD_REACTORS
330
47
102
}
330
47
100
AcDbScale
 70
     0
300
1:20
140
1.0
141
20.0
290
     0
  0
SCALE
  5
50
102
{ACAD_REACTORS
330
47
102
}
330
47
100
AcDbScale
 70
     0
300
1:30
140
1.0
141
30.0
290
     0
  0
SCALE
  5
51
102
{ACAD_REACTORS
330
47
102
}
330
47
100
AcDbScale
 70
     0
300
1:40
140
1.0
141
40.0
290
     0
  0
SCALE
  5
52
102
{ACAD_REACTORS
330
47
102
}
330
47
100
AcDbScale
 70
     0
300
1:50
140
1.0
141
50.0
290
     0
  0
SCALE
  5
53
102
{ACAD_REACTORS
330
47
102
}
330
47
100
AcDbScale
 70
     0
300
1:100
140
1.0
141
100.0
290
     0
  0
SCALE
  5
54
102
{ACAD_REACTORS
330
47
102
}
330
47
100
AcDbScale
 70
     0
300
2:1
140
2.0
141
1.0
290
     0
  0
SCALE
  5
55
102
{ACAD_REACTORS
330
47
102
}
330
47
100
AcDbScale
 70
     0
300
4:1
140
4.0
141
1.0
290
     0
  0
SCALE
  5
56
102
{ACAD_REACTORS
330
47
102
}
330
47
100
AcDbScale
 70
     0
300
8:1
140
8.0
141
1.0
290
     0
  0
SCALE
  5
57
102
{ACAD_REACTORS
330
47
102
}
330
47
100
AcDbScale
 70
     0
300
10:1
140
10.0
141
1.0
290
     0
  0
SCALE
  5
58
102
{ACAD_REACTORS
330
47
102
}
330
47
100
AcDbScale
 70
     0
300
100:1
140
100.0
141
1.0
290
     0
  0
SCALE
  5
59
102
{ACAD_REACTORS
330
47
102
}
330
47
100
AcDbScale
 70
     0
300
1/128" = 1'-0"
140
0.0078125
141
12.0
290
     0
  0
SCALE
  5
5A
102
{ACAD_REACTORS
330
47
102
}
330
47
100
AcDbScale
 70
     0
300
1/64" = 1'-0"
140
0.015625
141
12.0
290
     0
  0
SCALE
  5
5B
102
{ACAD_REACTORS
330
47
102
}
330
47
100
AcDbScale
 70
     0
300
1/32" = 1'-0"
140
0.03125
141
12.0
290
     0
  0
SCALE
  5
5C
102
{ACAD_REACTORS
330
47
102
}
330
47
100
AcDbScale
 70
     0
300
1/16" = 1'-0"
140
0.0625
141
12.0
290
     0
  0
SCALE
  5
5D
102
{ACAD_REACTORS
330
47
102
}
330
47
100
AcDbScale
 70
     0
300
3/32" = 1'-0"
140
0.09375
141
12.0
290
     0
  0
SCALE
  5
5E
102
{ACAD_REACTORS
330
47
102
}
330
47
100
AcDbScale
 70
     0
300
1/8" = 1'-0"
140
0.125
141
12.0
290
     0
  0
SCALE
  5
5F
102
{ACAD_REACTORS
330
47
102
}
330
47
100
AcDbScale
 70
     0
300
3/16" = 1'-0"
140
0.1875
141
12.0
290
     0
  0
SCALE
  5
60
102
{ACAD_REACTORS
330
47
102
}
330
47
100
AcDbScale
 70
     0
300
1/4" = 1'-0"
140
0.25
141
12.0
290
     0
  0
SCALE
  5
61
102
{ACAD_REACTORS
330
47
102
}
330
47
100
AcDbScale
 70
     0
300
3/8" = 1'-0"
140
0.375
141
12.0
290
     0
  0
SCALE
  5
62
102
{ACAD_REACTORS
330
47
102
}
330
47
100
AcDbScale
 70
     0
300
1/2" = 1'-0"
140
0.5
141
12.0
290
     0
  0
SCALE
  5
63
102
{ACAD_REACTORS
330
47
102
}
330
47
100
AcDbScale
 70
     0
300
3/4" = 1'-0"
140
0.75
141
12.0
290
     0
  0
SCALE
  5
64
102
{ACAD_REACTORS
330
47
102
}
330
47
100
AcDbScale
 70
     0
300
1" = 1'-0"
140
1.0
141
12.0
290
     0
  0
SCALE
  5
65
102
{ACAD_REACTORS
330
47
102
}
330
47
100
AcDbScale
 70
     0
300
1-1/2" = 1'-0"
140
1.5
141
12.0
290
     0
  0
SCALE
  5
66
102
{ACAD_REACTORS
330
47
102
}
330
47
100
AcDbScale
 70
     0
300
3" = 1'-0"
140
3.0
141
12.0
290
     0
  0
SCALE
  5
67
102
{ACAD_REACTORS
330
47
102
}
330
47
100
AcDbScale
 70
     0
300
6" = 1'-0"
140
6.0
141
12.0
290
     0
  0
SCALE
  5
68
102
{ACAD_REACTORS
330
47
102
}
330
47
100
AcDbScale
 70
     0
300
1'-0" = 1'-0"
140
12.0
141
12.0
290
     0
  0
ENDSEC
  0
EOF
