  0
SECTION
  2
HEADER
  9
$ACADVER
  1
AC1015
  9
$ACADMAINTVER
 70
     6
  9
$DWGCODEPAGE
  3
ANSI_950
  9
$INSBASE
 10
0.0
 20
0.0
 30
0.0
  9
$EXTMIN
 10
0.0
 20
0.0
 30
0.0
  9
$EXTMAX
 10
297.0
 20
210.0
 30
0.0
  9
$LIMMIN
 10
0.0
 20
0.0
  9
$LIMMAX
 10
297.0
 20
210.0
  9
$ORTHOMODE
 70
     0
  9
$REGENMODE
 70
     1
  9
$FILLMODE
 70
     1
  9
$QTEXTMODE
 70
     0
  9
$MIRRTEXT
 70
     1
  9
$LTSCALE
 40
1.0
  9
$ATTMODE
 70
     1
  9
$TEXTSIZE
 40
2.5
  9
$TRACEWID
 40
1.0
  9
$TEXTSTYLE
  7
STANDARD
  9
$CLAYER
  8
0
  9
$CELTYPE
  6
ByLayer
  9
$CECOLOR
 62
   256
  9
$CELTSCALE
 40
1.0
  9
$DISPSILH
 70
     0
  9
$DIMSCALE
 40
1.0
  9
$DIMASZ
 40
2.0
  9
$DIMEXO
 40
1.0
  9
$DIMDLI
 40
3.75
  9
$DIMRND
 40
0.0
  9
$DIMDLE
 40
0.0
  9
$DIMEXE
 40
1.0
  9
$DIMTP
 40
0.0
  9
$DIMTM
 40
0.0
  9
$DIMTXT
 40
2.5
  9
$DIMCEN
 40
2.5
  9
$DIMTSZ
 40
0.0
  9
$DIMTOL
 70
     0
  9
$DIMLIM
 70
     0
  9
$DIMTIH
 70
     1
  9
$DIMTOH
 70
     1
  9
$DIMSE1
 70
     0
  9
$DIMSE2
 70
     0
  9
$DIMTAD
 70
     1
  9
$DIMZIN
 70
     0
  9
$DIMBLK
  1

  9
$DIMASO
 70
     1
  9
$DIMSHO
 70
     1
  9
$DIMPOST
  1

  9
$DIMAPOST
  1

  9
$DIMALT
 70
     0
  9
$DIMALTD
 70
     3
  9
$DIMALTF
 40
0.0393700787
  9
$DIMLFAC
 40
1.0
  9
$DIMTOFL
 70
     1
  9
$DIMTVP
 40
0.0
  9
$DIMTIX
 70
     0
  9
$DIMSOXD
 70
     0
  9
$DIMSAH
 70
     0
  9
$DIMBLK1
  1

  9
$DIMBLK2
  1

  9
$DIMSTYLE
  2
ISO-25
  9
$DIMCLRD
 70
     0
  9
$DIMCLRE
 70
     0
  9
$DIMCLRT
 70
     0
  9
$DIMTFAC
 40
1.0
  9
$DIMGAP
 40
1.0
  9
$DIMJUST
 70
     0
  9
$DIMSD1
 70
     0
  9
$DIMSD2
 70
     0
  9
$DIMTOLJ
 70
     0
  9
$DIMTZIN
 70
     0
  9
$DIMALTZ
 70
     0
  9
$DIMALTTZ
 70
     0
  9
$DIMUPT
 70
     0
  9
$DIMDEC
 70
     2
  9
$DIMTDEC
 70
     2
  9
$DIMALTU
 70
     2
  9
$DIMALTTD
 70
     3
  9
$DIMTXSTY
  7
STANDARD
  9
$DIMAUNIT
 70
     0
  9
$DIMADEC
 70
     1
  9
$DIMALTRND
 40
0.0
  9
$DIMAZIN
 70
     0
  9
$DIMDSEP
 70
    44
  9
$DIMATFIT
 70
     3
  9
$DIMFRAC
 70
     0
  9
$DIMLDRBLK
  1

  9
$DIMLUNIT
 70
     2
  9
$DIMLWD
 70
    -2
  9
$DIMLWE
 70
    -2
  9
$DIMTMOVE
 70
     0
  9
$LUNITS
 70
     2
  9
$LUPREC
 70
     2
  9
$SKETCHINC
 40
1.0
  9
$FILLETRAD
 40
10.0
  9
$AUNITS
 70
     0
  9
$AUPREC
 70
     1
  9
$MENU
  1
.
  9
$ELEVATION
 40
0.0
  9
$PELEVATION
 40
0.0
  9
$THICKNESS
 40
0.0
  9
$LIMCHECK
 70
     0
  9
$CHAMFERA
 40
0.0
  9
$CHAMFERB
 40
0.0
  9
$CHAMFERC
 40
0.0
  9
$CHAMFERD
 40
0.0
  9
$SKPOLY
 70
     0
  9
$TDCREATE
 40
2457504.413551771
  9
$TDUCREATE
 40
2457504.080218438
  9
$TDUPDATE
 40
2457504.413555208
  9
$TDUUPDATE
 40
2457504.080221875
  9
$TDINDWG
 40
0.0000000116
  9
$TDUSRTIMER
 40
0.0000000116
  9
$USRTIMER
 70
     1
  9
$ANGBASE
 50
0.0
  9
$ANGDIR
 70
     0
  9
$PDMODE
 70
     0
  9
$PDSIZE
 40
-1.0
  9
$PLINEWID
 40
0.0
  9
$SPLFRAME
 70
     0
  9
$SPLINETYPE
 70
     6
  9
$SPLINESEGS
 70
     8
  9
$HANDSEED
  5
188
  9
$SURFTAB1
 70
     6
  9
$SURFTAB2
 70
     6
  9
$SURFTYPE
 70
     6
  9
$SURFU
 70
     6
  9
$SURFV
 70
     6
  9
$UCSBASE
  2

  9
$UCSNAME
  2

  9
$UCSORG
 10
0.0
 20
0.0
 30
0.0
  9
$UCSXDIR
 10
1.0
 20
0.0
 30
0.0
  9
$UCSYDIR
 10
0.0
 20
1.0
 30
0.0
  9
$UCSORTHOREF
  2

  9
$UCSORTHOVIEW
 70
     0
  9
$UCSORGTOP
 10
0.0
 20
0.0
 30
0.0
  9
$UCSORGBOTTOM
 10
0.0
 20
0.0
 30
0.0
  9
$UCSORGLEFT
 10
0.0
 20
0.0
 30
0.0
  9
$UCSORGRIGHT
 10
0.0
 20
0.0
 30
0.0
  9
$UCSORGFRONT
 10
0.0
 20
0.0
 30
0.0
  9
$UCSORGBACK
 10
0.0
 20
0.0
 30
0.0
  9
$PUCSBASE
  2

  9
$PUCSNAME
  2

  9
$PUCSORG
 10
0.0
 20
0.0
 30
0.0
  9
$PUCSXDIR
 10
1.0
 20
0.0
 30
0.0
  9
$PUCSYDIR
 10
0.0
 20
1.0
 30
0.0
  9
$PUCSORTHOREF
  2

  9
$PUCSORTHOVIEW
 70
     0
  9
$PUCSORGTOP
 10
0.0
 20
0.0
 30
0.0
  9
$PUCSORGBOTTOM
 10
0.0
 20
0.0
 30
0.0
  9
$PUCSORGLEFT
 10
0.0
 20
0.0
 30
0.0
  9
$PUCSORGRIGHT
 10
0.0
 20
0.0
 30
0.0
  9
$PUCSORGFRONT
 10
0.0
 20
0.0
 30
0.0
  9
$PUCSORGBACK
 10
0.0
 20
0.0
 30
0.0
  9
$USERI1
 70
     0
  9
$USERI2
 70
     0
  9
$USERI3
 70
     0
  9
$USERI4
 70
     0
  9
$USERI5
 70
     0
  9
$USERR1
 40
0.0
  9
$USERR2
 40
0.0
  9
$USERR3
 40
0.0
  9
$USERR4
 40
0.0
  9
$USERR5
 40
0.0
  9
$WORLDVIEW
 70
     1
  9
$SHADEDGE
 70
     3
  9
$SHADEDIF
 70
    70
  9
$TILEMODE
 70
     1
  9
$MAXACTVP
 70
    64
  9
$PINSBASE
 10
0.0
 20
0.0
 30
0.0
  9
$PLIMCHECK
 70
     0
  9
$PEXTMIN
 10
1.0000000000E+20
 20
1.0000000000E+20
 30
1.0000000000E+20
  9
$PEXTMAX
 10
-1.0000000000E+20
 20
-1.0000000000E+20
 30
-1.0000000000E+20
  9
$PLIMMIN
 10
0.0
 20
0.0
  9
$PLIMMAX
 10
420.0
 20
297.0
  9
$UNITMODE
 70
     0
  9
$VISRETAIN
 70
     1
  9
$PLINEGEN
 70
     0
  9
$PSLTSCALE
 70
     1
  9
$TREEDEPTH
 70
  3020
  9
$CMLSTYLE
  2
Standard
  9
$CMLJUST
 70
     0
  9
$CMLSCALE
 40
20.0
  9
$PROXYGRAPHICS
 70
     1
  9
$MEASUREMENT
 70
     1
  9
$CELWEIGHT
370
    -1
  9
$ENDCAPS
280
     0
  9
$JOINSTYLE
280
     0
  9
$LWDISPLAY
290
     1
  9
$INSUNITS
 70
     4
  9
$HYPERLINKBASE
  1

  9
$STYLESHEET
  1

  9
$XEDIT
290
     1
  9
$CEPSNTYPE
380
     0
  9
$PSTYLEMODE
290
     1
  9
$FINGERPRINTGUID
  2
{9FE36F38-8EF9-4CE1-B0E4-C160A9435510}
  9
$VERSIONGUID
  2
{FAEB1C32-E019-11D5-929B-00C0DF256EC4}
  9
$EXTNAMES
290
     1
  9
$PSVPSCALE
 40
0.0
  9
$OLESTARTUP
290
     0
  0
ENDSEC
  0
SECTION
  2
CLASSES
  0
CLASS
  1
ACDBDICTIONARYWDFLT
  2
AcDbDictionaryWithDefault
  3
ObjectDBX Classes
 90
        0
280
     0
281
     0
  0
CLASS
  1
VISUALSTYLE
  2
AcDbVisualStyle
  3
ObjectDBX Classes
 90
     4095
280
     0
281
     0
  0
CLASS
  1
MATERIAL
  2
AcDbMaterial
  3
ObjectDBX Classes
 90
     1153
280
     0
281
     0
  0
CLASS
  1
SCALE
  2
AcDbScale
  3
ObjectDBX Classes
 90
     1153
280
     0
281
     0
  0
CLASS
  1
TABLESTYLE
  2
AcDbTableStyle
  3
ObjectDBX Classes
 90
     4095
280
     0
281
     0
  0
CLASS
  1
MLEADERSTYLE
  2
AcDbMLeaderStyle
  3
ACDB_MLEADERSTYLE_CLASS
 90
     4095
280
     0
281
     0
  0
CLASS
  1
SUN
  2
AcDbSun
  3
SCENEOE
 90
     1153
280
     0
281
     0
  0
CLASS
  1
ACDBPLACEHOLDER
  2
AcDbPlaceHolder
  3
ObjectDBX Classes
 90
        0
280
     0
281
     0
  0
CLASS
  1
LAYOUT
  2
AcDbLayout
  3
ObjectDBX Classes
 90
        0
280
     0
281
     0
  0
ENDSEC
  0
SECTION
  2
TABLES
  0
TABLE
  2
VPORT
  5
8
330
0
100
AcDbSymbolTable
 70
     1
  0
VPORT
  5
29
330
8
100
AcDbSymbolTableRecord
100
AcDbViewportTableRecord
  2
*Active
 70
     0
 10
0.0
 20
0.0
 11
1.0
 21
1.0
 12
148.5
 22
105.0
 13
0.0
 23
0.0
 14
10.0
 24
10.0
 15
10.0
 25
10.0
 16
0.0
 26
0.0
 36
1.0
 17
0.0
 27
0.0
 37
0.0
 40
210.0
 41
1.4142857143
 42
50.0
 43
0.0
 44
0.0
 50
0.0
 51
0.0
 71
     0
 72
  2000
 73
     1
 74
     3
 75
     0
 76
     0
 77
     0
 78
     0
281
     0
 65
     1
110
0.0
120
0.0
130
0.0
111
1.0
121
0.0
131
0.0
112
0.0
122
1.0
132
0.0
 79
     0
146
0.0
  0
ENDTAB
  0
TABLE
  2
LTYPE
  5
5
330
0
100
AcDbSymbolTable
 70
     6
  0
LTYPE
  5
14
330
5
100
AcDbSymbolTableRecord
100
AcDbLinetypeTableRecord
  2
ByBlock
 70
     0
  3

 72
    65
 73
     0
 40
0.0
  0
LTYPE
  5
15
330
5
100
AcDbSymbolTableRecord
100
AcDbLinetypeTableRecord
  2
ByLayer
 70
     0
  3

 72
    65
 73
     0
 40
0.0
  0
LTYPE
  5
16
330
5
100
AcDbSymbolTableRecord
100
AcDbLinetypeTableRecord
  2
Continuous
 70
     0
  3
Solid line
 72
    65
 73
     0
 40
0.0
  0
LTYPE
  5
6E
330
5
100
AcDbSymbolTableRecord
100
AcDbLinetypeTableRecord
  2
HIDDEN
 70
     0
  3
Hidden __ __ __ __ __ __ __ __ __ __ __ __ __ __
 72
    65
 73
     2
 40
1.905
 49
1.27
 74
     0
 49
-0.635
 74
     0
  0
LTYPE
  5
6F
330
5
100
AcDbSymbolTableRecord
100
AcDbLinetypeTableRecord
  2
PHANTOM
 70
     0
  3
Phantom ______  __  __  ______  __  __  ______
 72
    65
 73
     6
 40
12.7
 49
6.35
 74
     0
 49
-1.27
 74
     0
 49
1.27
 74
     0
 49
-1.27
 74
     0
 49
1.27
 74
     0
 49
-1.27
 74
     0
  0
LTYPE
  5
70
330
5
100
AcDbSymbolTableRecord
100
AcDbLinetypeTableRecord
  2
CENTER
 70
     0
  3
Center ____ _ ____ _ ____ _ ____ _ ____ _ ____
 72
    65
 73
     4
 40
10.16
 49
6.35
 74
     0
 49
-1.27
 74
     0
 49
1.27
 74
     0
 49
-1.27
 74
     0
  0
LTYPE
  5
71
330
5
100
AcDbSymbolTableRecord
100
AcDbLinetypeTableRecord
  2
CENTERX2
 70
     0
  3
Center (2x) ________  __  ________  __  _____
 72
    65
 73
     4
 40
20.32
 49
12.7
 74
     0
 49
-2.54
 74
     0
 49
2.54
 74
     0
 49
-2.54
 74
     0
  0
LTYPE
  5
72
330
5
100
AcDbSymbolTableRecord
100
AcDbLinetypeTableRecord
  2
DOT2
 70
     0
  3
Dot (.5x) ........................................
 72
    65
 73
     2
 40
0.635
 49
0.0
 74
     0
 49
-0.635
 74
     0
  0
ENDTAB
  0
TABLE
  2
LAYER
  5
2
330
0
100
AcDbSymbolTable
 70
     3
  0
LAYER
  5
10
330
2
100
AcDbSymbolTableRecord
100
AcDbLayerTableRecord
  2
0
 70
     0
 62
     7
  6
Continuous
370
    -3
390
F
  0
LAYER
  5
73
330
2
100
AcDbSymbolTableRecord
100
AcDbLayerTableRecord
  2
SLD-0
 70
     0
 62
     7
  6
Continuous
370
    15
390
F
  0
LAYER
  5
74
330
2
100
AcDbSymbolTableRecord
100
AcDbLayerTableRecord
  2
DIM
 70
     0
 62
     7
  6
Continuous
370
    -3
390
F
  0
ENDTAB
  0
TABLE
  2
STYLE
  5
3
330
0
100
AcDbSymbolTable
 70
     4
  0
STYLE
  5
11
330
3
100
AcDbSymbolTableRecord
100
AcDbTextStyleTableRecord
  2
STANDARD
 70
     0
 40
0.0
 41
1.0
 50
0.0
 71
     0
 42
2.5
  3
ARIAL.TTF
  4

1001
ACAD
1000
ARIAL
1071
       34
  0
STYLE
  5
C5
330
3
100
AcDbSymbolTableRecord
100
AcDbTextStyleTableRecord
  2
SLDTEXTSTYLE0
 70
     0
 40
0.0
 41
0.948
 50
0.0
 71
     0
 42
2.5
  3
ARIAL.TTF
  4

1001
ACAD
1000
Arial
1071
      290
  0
STYLE
  5
CF
330
3
100
AcDbSymbolTableRecord
100
AcDbTextStyleTableRecord
  2
SLDTEXTSTYLE1
 70
     0
 40
0.0
 41
1.0
 50
0.0
 71
     0
 42
2.5
  3
ARIALBD.TTF
  4

1001
ACAD
1000
Arial CE
1071
 33554722
  0
STYLE
  5
101
330
3
100
AcDbSymbolTableRecord
100
AcDbTextStyleTableRecord
  2
SLDTEXTSTYLE2
 70
     0
 40
0.0
 41
1.0
 50
0.0
 71
     0
 42
2.5
  3
ARIAL.TTF
  4

1001
ACAD
1000
Arial CE
1071
      290
  0
ENDTAB
  0
TABLE
  2
VIEW
  5
6
330
0
100
AcDbSymbolTable
 70
     0
  0
ENDTAB
  0
TABLE
  2
UCS
  5
7
330
0
100
AcDbSymbolTable
 70
     0
  0
ENDTAB
  0
TABLE
  2
APPID
  5
9
330
0
100
AcDbSymbolTable
 70
     1
  0
APPID
  5
12
330
9
100
AcDbSymbolTableRecord
100
AcDbRegAppTableRecord
  2
ACAD
 70
     0
  0
ENDTAB
  0
TABLE
  2
DIMSTYLE
  5
A
330
0
100
AcDbSymbolTable
 70
     4
100
AcDbDimStyleTable
  0
DIMSTYLE
105
27
330
A
100
AcDbSymbolTableRecord
100
AcDbDimStyleTableRecord
  2
ISO-25
 70
     0
 41
2.5
 42
0.625
 43
3.75
 44
1.25
 73
     0
 74
     0
 77
     1
 78
     8
140
2.5
141
2.5
143
0.0393700787
147
0.625
171
     3
172
     1
178
     0
271
     2
272
     2
274
     3
278
    44
283
     0
284
     8
340
11
  0
DIMSTYLE
105
10F
102
{ACAD_REACTORS
330
10E
330
119
330
123
330
12D
330
141
102
}
330
A
100
AcDbSymbolTableRecord
100
AcDbDimStyleTableRecord
  2
SLDDIMSTYLE0
 70
     0
 41
2.0
 44
0.0
 45
0.000000001
 73
     0
 74
     0
 77
     1
 78
    12
 79
     3
140
2.5
147
0.625
173
     1
178
     0
271
     2
272
     2
276
     2
284
    12
340
C5
  0
DIMSTYLE
105
138
102
{ACAD_REACTORS
330
137
102
}
330
A
100
AcDbSymbolTableRecord
100
AcDbDimStyleTableRecord
  2
SLDDIMSTYLE1
 70
     0
  3
<>
 41
2.0
 44
0.0
 45
0.000000001
 78
    12
 79
     3
140
2.5
141
0.0
147
0.625
173
     1
178
     0
271
     2
272
     2
276
     2
284
    12
340
C5
  0
DIMSTYLE
105
15C
102
{ACAD_REACTORS
330
15B
330
165
102
}
330
A
100
AcDbSymbolTableRecord
100
AcDbDimStyleTableRecord
  2
SLDDIMSTYLE2
 70
     0
 41
2.0
 44
0.0
 45
0.000000001
 78
    12
 79
     3
140
2.5
141
0.0
147
0.625
173
     1
178
     0
271
     2
272
     2
276
     2
284
    12
340
C5
  0
ENDTAB
  0
TABLE
  2
BLOCK_RECORD
  5
1
330
0
100
AcDbSymbolTable
 70
    13
  0
BLOCK_RECORD
  5
1F
330
1
100
AcDbSymbolTableRecord
100
AcDbBlockTableRecord
  2
*Model_Space
340
22
  0
BLOCK_RECORD
  5
1B
330
1
100
AcDbSymbolTableRecord
100
AcDbBlockTableRecord
  2
*Paper_Space
340
1E
  0
BLOCK_RECORD
  5
23
330
1
100
AcDbSymbolTableRecord
100
AcDbBlockTableRecord
  2
*Paper_Space0
340
26
  0
BLOCK_RECORD
  5
C8
330
1
100
AcDbSymbolTableRecord
100
AcDbBlockTableRecord
  2
SW_NOTE_0
340
0
102
{BLKREFS
331
CE
102
}
  0
BLOCK_RECORD
  5
FE
330
1
100
AcDbSymbolTableRecord
100
AcDbBlockTableRecord
  2
SW_NOTE_1
340
0
102
{BLKREFS
331
104
102
}
  0
BLOCK_RECORD
  5
110
330
1
100
AcDbSymbolTableRecord
100
AcDbBlockTableRecord
  2
_D
340
0
  0
BLOCK_RECORD
  5
11A
330
1
100
AcDbSymbolTableRecord
100
AcDbBlockTableRecord
  2
_D_1
340
0
  0
BLOCK_RECORD
  5
124
330
1
100
AcDbSymbolTableRecord
100
AcDbBlockTableRecord
  2
_D_2
340
0
  0
BLOCK_RECORD
  5
12E
330
1
100
AcDbSymbolTableRecord
100
AcDbBlockTableRecord
  2
_D_3
340
0
  0
BLOCK_RECORD
  5
139
330
1
100
AcDbSymbolTableRecord
100
AcDbBlockTableRecord
  2
_D_4
340
0
  0
BLOCK_RECORD
  5
142
330
1
100
AcDbSymbolTableRecord
100
AcDbBlockTableRecord
  2
_D_5
340
0
  0
BLOCK_RECORD
  5
14B
330
1
100
AcDbSymbolTableRecord
100
AcDbBlockTableRecord
  2
SW_CENTERMARKSYMBOL_0
340
0
102
{BLKREFS
331
156
102
}
  0
BLOCK_RECORD
  5
15D
330
1
100
AcDbSymbolTableRecord
100
AcDbBlockTableRecord
  2
_D_6
340
0
  0
BLOCK_RECORD
  5
166
330
1
100
AcDbSymbolTableRecord
100
AcDbBlockTableRecord
  2
_D_7
340
0
  0
BLOCK_RECORD
  5
16E
330
1
100
AcDbSymbolTableRecord
100
AcDbBlockTableRecord
  2
SW_CENTERMARKSYMBOL_1
340
0
102
{BLKREFS
331
179
102
}
  0
ENDTAB
  0
ENDSEC
  0
SECTION
  2
BLOCKS
  0
BLOCK
  5
20
330
1F
100
AcDbEntity
  8
0
100
AcDbBlockBegin
  2
*Model_Space
 70
     0
 10
0.0
 20
0.0
 30
0.0
  3
*Model_Space
  1

  0
ENDBLK
  5
21
330
1F
100
AcDbEntity
  8
0
100
AcDbBlockEnd
  0
BLOCK
  5
1C
330
1B
100
AcDbEntity
 67
     1
  8
0
100
AcDbBlockBegin
  2
*Paper_Space
 70
     0
 10
0.0
 20
0.0
 30
0.0
  3
*Paper_Space
  1

  0
ENDBLK
  5
1D
330
1B
100
AcDbEntity
 67
     1
  8
0
100
AcDbBlockEnd
  0
BLOCK
  5
24
330
23
100
AcDbEntity
  8
0
100
AcDbBlockBegin
  2
*Paper_Space0
 70
     0
 10
0.0
 20
0.0
 30
0.0
  3
*Paper_Space0
  1

  0
ENDBLK
  5
25
330
23
100
AcDbEntity
  8
0
100
AcDbBlockEnd
  0
BLOCK
  5
C9
330
C8
100
AcDbEntity
  8
0
100
AcDbBlockBegin
  2
SW_NOTE_0
 70
     0
 10
0.0
 20
0.0
 30
0.0
  3
SW_NOTE_0
  1

  0
MTEXT
  5
CB
330
C8
100
AcDbEntity
  8
0
  6
Continuous
 62
     0
370
     0
100
AcDbMText
 10
0.0
 20
3.4106583948
 30
0.0
 40
2.6458333333
 41
0.0
 71
     1
 72
     1
  1
PROPRIETARY AND CONFIDENTIAL
  7
SLDTEXTSTYLE0
 73
     1
 44
1.0
  0
MTEXT
  5
CC
330
C8
100
AcDbEntity
  8
0
  6
Continuous
 62
     0
370
     0
100
AcDbMText
 10
0.0
 20
-0.08198348
 30
0.0
 40
1.8520833333
 41
0.0
 71
     1
 72
     1
  1
THE INFORMATION CONTAINED IN THIS DRAWING IS THE SOLE PROPERTY OF UNICE E-O SERVICES INC. ANY REPRODUCTION IN PART OR AS A WHOLE WITHOUT THE WRITTEN PERMISSION OF UNICE E-O SERVICES INC IS 
  7
SLDTEXTSTYLE0
 73
     1
 44
1.0
  0
MTEXT
  5
CD
330
C8
100
AcDbEntity
  8
0
  6
Continuous
 62
     0
370
     0
100
AcDbMText
 10
0.0
 20
-2.5514278946
 30
0.0
 40
1.8520833333
 41
0.0
 71
     1
 72
     1
  1
PROHIBITED.
  7
SLDTEXTSTYLE0
 73
     1
 44
1.0
  0
ENDBLK
  5
CA
330
C8
100
AcDbEntity
  8
0
100
AcDbBlockEnd
  0
BLOCK
  5
FF
330
FE
100
AcDbEntity
  8
0
100
AcDbBlockBegin
  2
SW_NOTE_1
 70
     0
 10
0.0
 20
0.0
 30
0.0
  3
SW_NOTE_1
  1

  0
MTEXT
  5
102
330
FE
100
AcDbEntity
  8
SLD-0
 62
     0
100
AcDbMText
 10
0.0
 20
2.3874608764
 30
0.0
 40
1.8520833333
 41
0.0
 71
     1
 72
     1
  1
No.5, Andong Rd., Chung Li District,
  7
SLDTEXTSTYLE2
 73
     1
 44
1.0
  0
MTEXT
  5
103
330
FE
100
AcDbEntity
  8
SLD-0
 62
     0
100
AcDbMText
 10
0.0
 20
-0.0819835382
 30
0.0
 40
1.8520833333
 41
0.0
 71
     1
 72
     1
  1
Taoyuan City 32063, Taiwan, R.O.C.
  7
SLDTEXTSTYLE2
 73
     1
 44
1.0
  0
ENDBLK
  5
100
330
FE
100
AcDbEntity
  8
0
100
AcDbBlockEnd
  0
BLOCK
  5
111
330
110
100
AcDbEntity
  8
0
100
AcDbBlockBegin
  2
_D
 70
     0
 10
0.0
 20
0.0
 30
0.0
  3
_D
  1

  0
SOLID
  5
113
330
110
100
AcDbEntity
  8
SLD-0
100
AcDbTrace
 10
136.1502130286
 20
100.5677885725
 30
0.0
 11
135.9002130286
 21
98.5677885725
 31
0.0
 12
136.4002130286
 22
98.5677885725
 32
0.0
 13
136.4002130286
 23
98.5677885725
 33
0.0
  0
SOLID
  5
114
330
110
100
AcDbEntity
  8
SLD-0
100
AcDbTrace
 10
136.1502130286
 20
54.5677885725
 30
0.0
 11
136.4002130286
 21
56.5677885725
 31
0.0
 12
135.9002130286
 22
56.5677885725
 32
0.0
 13
135.9002130286
 23
56.5677885725
 33
0.0
  0
LINE
  5
115
330
110
100
AcDbEntity
  8
SLD-0
100
AcDbLine
 10
121.9972075425
 20
100.5677885725
 30
0.0
 11
137.1502130286
 21
100.5677885725
 31
0.0
  0
LINE
  5
116
330
110
100
AcDbEntity
  8
SLD-0
100
AcDbLine
 10
121.9972075425
 20
54.5677885725
 30
0.0
 11
137.1502130286
 21
54.5677885725
 31
0.0
  0
LINE
  5
117
330
110
100
AcDbEntity
  8
SLD-0
100
AcDbLine
 10
136.1502130286
 20
100.5677885725
 30
0.0
 11
136.1502130286
 21
54.5677885725
 31
0.0
  0
MTEXT
  5
118
330
110
100
AcDbEntity
  8
SLD-0
100
AcDbMText
 10
132.9275438538
 20
75.6580663477
 30
0.0
 40
2.5
 41
0.0
 71
     1
 72
     1
  1
46
  7
SLDTEXTSTYLE0
 11
-7.044195017643634E-15
 21
1.0
 31
0.0
 73
     1
 44
1.0
  0
ENDBLK
  5
112
330
110
100
AcDbEntity
  8
0
100
AcDbBlockEnd
  0
BLOCK
  5
11B
330
11A
100
AcDbEntity
  8
0
100
AcDbBlockBegin
  2
_D_1
 70
     0
 10
0.0
 20
0.0
 30
0.0
  3
_D_1
  1

  0
SOLID
  5
11D
330
11A
100
AcDbEntity
  8
SLD-0
 62
     7
100
AcDbTrace
 10
129.2135347401
 20
100.5677885725
 30
0.0
 11
128.9635347401
 21
98.5677885725
 31
0.0
 12
129.4635347401
 22
98.5677885725
 32
0.0
 13
129.4635347401
 23
98.5677885725
 33
0.0
  0
SOLID
  5
11E
330
11A
100
AcDbEntity
  8
SLD-0
 62
     7
100
AcDbTrace
 10
129.2135347401
 20
77.5677885725
 30
0.0
 11
129.4635347401
 21
79.5677885725
 31
0.0
 12
128.9635347401
 22
79.5677885725
 32
0.0
 13
128.9635347401
 23
79.5677885725
 33
0.0
  0
LINE
  5
11F
330
11A
100
AcDbEntity
  8
SLD-0
 62
     7
100
AcDbLine
 10
121.9972075425
 20
100.5677885725
 30
0.0
 11
130.2135347401
 21
100.5677885725
 31
0.0
  0
LINE
  5
120
330
11A
100
AcDbEntity
  8
SLD-0
 62
     7
100
AcDbLine
 10
105.5499075425
 20
77.5677885725
 30
0.0
 11
130.2135347401
 21
77.5677885725
 31
0.0
  0
LINE
  5
121
330
11A
100
AcDbEntity
  8
SLD-0
 62
     7
100
AcDbLine
 10
129.2135347401
 20
100.5677885725
 30
0.0
 11
129.2135347401
 21
77.5677885725
 31
0.0
  0
MTEXT
  5
122
330
11A
100
AcDbEntity
  8
SLD-0
 62
     7
100
AcDbMText
 10
125.9908655653
 20
87.1580663477
 30
0.0
 40
2.5
 41
0.0
 71
     1
 72
     1
  1
23
  7
SLDTEXTSTYLE0
 11
-7.044195017643634E-15
 21
1.0
 31
0.0
 73
     1
 44
1.0
  0
ENDBLK
  5
11C
330
11A
100
AcDbEntity
  8
0
100
AcDbBlockEnd
  0
BLOCK
  5
125
330
124
100
AcDbEntity
  8
0
100
AcDbBlockBegin
  2
_D_2
 70
     0
 10
0.0
 20
0.0
 30
0.0
  3
_D_2
  1

  0
SOLID
  5
127
330
124
100
AcDbEntity
  8
SLD-0
 62
     7
100
AcDbTrace
 10
94.7522095441
 20
44.5192771497
 30
0.0
 11
96.7522095441
 21
44.2692771497
 31
0.0
 12
96.7522095441
 22
44.7692771497
 32
0.0
 13
96.7522095441
 23
44.7692771497
 33
0.0
  0
SOLID
  5
128
330
124
100
AcDbEntity
  8
SLD-0
 62
     7
100
AcDbTrace
 10
107.2422055409
 20
44.5192771497
 30
0.0
 11
105.2422055409
 21
44.7692771497
 31
0.0
 12
105.2422055409
 22
44.2692771497
 32
0.0
 13
105.2422055409
 23
44.2692771497
 33
0.0
  0
LINE
  5
129
330
124
100
AcDbEntity
  8
SLD-0
 62
     7
100
AcDbLine
 10
94.7522095441
 20
69.0677885725
 30
0.0
 11
94.7522095441
 21
43.5192771497
 31
0.0
  0
LINE
  5
12A
330
124
100
AcDbEntity
  8
SLD-0
 62
     7
100
AcDbLine
 10
107.2422055409
 20
69.0677885725
 30
0.0
 11
107.2422055409
 21
43.5192771497
 31
0.0
  0
LINE
  5
12B
330
124
100
AcDbEntity
  8
SLD-0
 62
     7
100
AcDbLine
 10
94.7522095441
 20
44.5192771497
 30
0.0
 11
107.2422055409
 21
44.5192771497
 31
0.0
  0
MTEXT
  5
12C
330
124
100
AcDbEntity
  8
SLD-0
 62
     7
100
AcDbMText
 10
96.7003324494
 20
47.7419463245
 30
0.0
 40
2.5
 41
0.0
 71
     1
 72
     1
  1
12.49
  7
SLDTEXTSTYLE0
 73
     1
 44
1.0
  0
ENDBLK
  5
126
330
124
100
AcDbEntity
  8
0
100
AcDbBlockEnd
  0
BLOCK
  5
12F
330
12E
100
AcDbEntity
  8
0
100
AcDbBlockBegin
  2
_D_3
 70
     0
 10
0.0
 20
0.0
 30
0.0
  3
_D_3
  1

  0
SOLID
  5
131
330
12E
100
AcDbEntity
  8
SLD-0
 62
     7
100
AcDbTrace
 10
73.9972075425
 20
85.0677885725
 30
0.0
 11
73.7472075425
 21
83.0677885725
 31
0.0
 12
74.2472075425
 22
83.0677885725
 32
0.0
 13
74.2472075425
 23
83.0677885725
 33
0.0
  0
SOLID
  5
132
330
12E
100
AcDbEntity
  8
SLD-0
 62
     7
100
AcDbTrace
 10
73.9972075425
 20
70.0677885725
 30
0.0
 11
74.2472075425
 21
72.0677885725
 31
0.0
 12
73.7472075425
 22
72.0677885725
 32
0.0
 13
73.7472075425
 23
72.0677885725
 33
0.0
  0
LINE
  5
133
330
12E
100
AcDbEntity
  8
SLD-0
 62
     7
100
AcDbLine
 10
93.7522095441
 20
85.0677885725
 30
0.0
 11
72.9972075425
 21
85.0677885725
 31
0.0
  0
LINE
  5
134
330
12E
100
AcDbEntity
  8
SLD-0
 62
     7
100
AcDbLine
 10
93.7522095441
 20
70.0677885725
 30
0.0
 11
72.9972075425
 21
70.0677885725
 31
0.0
  0
LINE
  5
135
330
12E
100
AcDbEntity
  8
SLD-0
 62
     7
100
AcDbLine
 10
73.9972075425
 20
85.0677885725
 30
0.0
 11
73.9972075425
 21
70.0677885725
 31
0.0
  0
MTEXT
  5
136
330
12E
100
AcDbEntity
  8
SLD-0
 62
     7
100
AcDbMText
 10
70.7745383677
 20
75.6580663477
 30
0.0
 40
2.5
 41
0.0
 71
     1
 72
     1
  1
15
  7
SLDTEXTSTYLE0
 11
-7.044195017643634E-15
 21
1.0
 31
0.0
 73
     1
 44
1.0
  0
ENDBLK
  5
130
330
12E
100
AcDbEntity
  8
0
100
AcDbBlockEnd
  0
BLOCK
  5
13A
330
139
100
AcDbEntity
  8
0
100
AcDbBlockBegin
  2
_D_4
 70
     0
 10
0.0
 20
0.0
 30
0.0
  3
_D_4
  1

  0
SOLID
  5
13C
330
139
100
AcDbEntity
  8
SLD-0
 62
     7
100
AcDbTrace
 10
98.7254354086
 20
78.7319744088
 30
0.0
 11
97.0595530845
 21
79.8665827475
 31
0.0
 12
96.8315227957
 22
79.4216083804
 32
0.0
 13
96.8315227957
 23
79.4216083804
 33
0.0
  0
LINE
  5
13D
330
139
100
AcDbEntity
  8
SLD-0
 62
     7
100
AcDbLine
 10
98.7254354086
 20
78.7319744088
 30
0.0
 11
70.9700396135
 21
92.9554249846
 31
0.0
  0
LINE
  5
13E
330
139
100
AcDbEntity
  8
SLD-0
 62
     7
100
AcDbLine
 10
70.9700396135
 20
92.9554249846
 30
0.0
 11
56.5499006808
 21
92.9554249846
 31
0.0
  0
MTEXT
  5
13F
330
139
100
AcDbEntity
  8
SLD-0
 62
     7
100
AcDbMText
 10
56.5499006808
 20
100.014899626
 30
0.0
 40
2.5
 41
0.0
 71
     1
 72
     1
  1
1 HOLE,
  7
SLDTEXTSTYLE0
 73
     1
 44
1.0
  0
MTEXT
  5
140
330
139
100
AcDbEntity
  8
SLD-0
 62
     7
100
AcDbMText
 10
56.5499006808
 20
96.1780941594
 30
0.0
 40
2.5
 41
0.0
 71
     1
 72
     1
  1
 1/4"-20
  7
SLDTEXTSTYLE0
 73
     1
 44
1.0
  0
ENDBLK
  5
13B
330
139
100
AcDbEntity
  8
0
100
AcDbBlockEnd
  0
BLOCK
  5
143
330
142
100
AcDbEntity
  8
0
100
AcDbBlockBegin
  2
_D_5
 70
     0
 10
0.0
 20
0.0
 30
0.0
  3
_D_5
  1

  0
SOLID
  5
145
330
142
100
AcDbEntity
  8
SLD-0
 62
     7
100
AcDbTrace
 10
100.9972075425
 20
107.5677885725
 30
0.0
 11
102.9972075425
 21
107.3177885725
 31
0.0
 12
102.9972075425
 22
107.8177885725
 32
0.0
 13
102.9972075425
 23
107.8177885725
 33
0.0
  0
SOLID
  5
146
330
142
100
AcDbEntity
  8
SLD-0
 62
     7
100
AcDbTrace
 10
120.9972075425
 20
107.5677885725
 30
0.0
 11
118.9972075425
 21
107.8177885725
 31
0.0
 12
118.9972075425
 22
107.3177885725
 32
0.0
 13
118.9972075425
 23
107.3177885725
 33
0.0
  0
LINE
  5
147
330
142
100
AcDbEntity
  8
SLD-0
 62
     7
100
AcDbLine
 10
100.9972075425
 20
82.1204885725
 30
0.0
 11
100.9972075425
 21
108.5677885725
 31
0.0
  0
LINE
  5
148
330
142
100
AcDbEntity
  8
SLD-0
 62
     7
100
AcDbLine
 10
120.9972075425
 20
101.5677885725
 30
0.0
 11
120.9972075425
 21
108.5677885725
 31
0.0
  0
LINE
  5
149
330
142
100
AcDbEntity
  8
SLD-0
 62
     7
100
AcDbLine
 10
100.9972075425
 20
107.5677885725
 30
0.0
 11
120.9972075425
 21
107.5677885725
 31
0.0
  0
MTEXT
  5
14A
330
142
100
AcDbEntity
  8
SLD-0
 62
     7
100
AcDbMText
 10
109.0874853177
 20
110.7904577473
 30
0.0
 40
2.5
 41
0.0
 71
     1
 72
     1
  1
20
  7
SLDTEXTSTYLE0
 73
     1
 44
1.0
  0
ENDBLK
  5
144
330
142
100
AcDbEntity
  8
0
100
AcDbBlockEnd
  0
BLOCK
  5
14C
330
14B
100
AcDbEntity
  8
0
100
AcDbBlockBegin
  2
SW_CENTERMARKSYMBOL_0
 70
     0
 10
0.0
 20
0.0
 30
0.0
  3
SW_CENTERMARKSYMBOL_0
  1

  0
LINE
  5
14E
330
14B
100
AcDbEntity
  8
SLD-0
 62
     0
100
AcDbLine
 10
0.0
 20
0.0
 30
0.0
 11
0.0
 21
1.0
 31
0.0
  0
LINE
  5
14F
330
14B
100
AcDbEntity
  8
SLD-0
 62
     0
100
AcDbLine
 10
0.0
 20
0.0
 30
0.0
 11
-1.0
 21
0.0
 31
0.0
  0
LINE
  5
150
330
14B
100
AcDbEntity
  8
SLD-0
 62
     0
100
AcDbLine
 10
0.0
 20
0.0
 30
0.0
 11
0.0
 21
-1.0
 31
0.0
  0
LINE
  5
151
330
14B
100
AcDbEntity
  8
SLD-0
 62
     0
100
AcDbLine
 10
0.0
 20
0.0
 30
0.0
 11
1.0
 21
0.0
 31
0.0
  0
LINE
  5
152
330
14B
100
AcDbEntity
  8
SLD-0
 62
     0
100
AcDbLine
 10
0.0
 20
2.0
 30
0.0
 11
0.0
 21
3.5527
 31
0.0
  0
LINE
  5
153
330
14B
100
AcDbEntity
  8
SLD-0
 62
     0
100
AcDbLine
 10
-2.0
 20
0.0
 30
0.0
 11
-3.5527
 21
0.0
 31
0.0
  0
LINE
  5
154
330
14B
100
AcDbEntity
  8
SLD-0
 62
     0
100
AcDbLine
 10
0.0
 20
-2.0
 30
0.0
 11
0.0
 21
-3.5527
 31
0.0
  0
LINE
  5
155
330
14B
100
AcDbEntity
  8
SLD-0
 62
     0
100
AcDbLine
 10
2.0
 20
0.0
 30
0.0
 11
3.5527
 21
0.0
 31
0.0
  0
ENDBLK
  5
14D
330
14B
100
AcDbEntity
  8
0
100
AcDbBlockEnd
  0
BLOCK
  5
15E
330
15D
100
AcDbEntity
  8
0
100
AcDbBlockBegin
  2
_D_6
 70
     0
 10
0.0
 20
0.0
 30
0.0
  3
_D_6
  1

  0
SOLID
  5
160
330
15D
100
AcDbEntity
  8
SLD-0
100
AcDbTrace
 10
97.4864839101
 20
146.8221611479
 30
0.0
 11
95.8509334622
 21
148.0000723213
 31
0.0
 12
95.6113107256
 22
147.5612318672
 32
0.0
 13
95.6113107256
 23
147.5612318672
 33
0.0
  0
LINE
  5
161
330
15D
100
AcDbEntity
  8
SLD-0
100
AcDbLine
 10
97.4864839101
 20
146.8221611479
 30
0.0
 11
77.2380633962
 21
157.8785300177
 31
0.0
  0
LINE
  5
162
330
15D
100
AcDbEntity
  8
SLD-0
100
AcDbLine
 10
77.2380633962
 20
157.8785300177
 30
0.0
 11
70.4333756988
 21
157.8785300177
 31
0.0
  0
MTEXT
  5
163
330
15D
100
AcDbEntity
  8
SLD-0
100
AcDbMText
 10
70.4333756988
 20
161.1011991343
 30
0.0
 40
2.5
 41
0.0
 71
     1
 72
     1
  1
%%c
  7
SLDTEXTSTYLE0
 73
     1
 44
1.0
  0
MTEXT
  5
164
330
15D
100
AcDbEntity
  8
SLD-0
100
AcDbMText
 10
74.078341055
 20
161.1081435993
 30
0.0
 40
2.5
 41
0.0
 71
     1
 72
     1
  1
8
  7
SLDTEXTSTYLE0
 73
     1
 44
1.0
  0
ENDBLK
  5
15F
330
15D
100
AcDbEntity
  8
0
100
AcDbBlockEnd
  0
BLOCK
  5
167
330
166
100
AcDbEntity
  8
0
100
AcDbBlockBegin
  2
_D_7
 70
     0
 10
0.0
 20
0.0
 30
0.0
  3
_D_7
  1

  0
SOLID
  5
169
330
166
100
AcDbEntity
  8
SLD-0
100
AcDbTrace
 10
117.1146536788
 20
156.7469667067
 30
0.0
 11
118.8744206355
 21
157.7296773751
 31
0.0
 12
118.5783759492
 22
158.1326135285
 32
0.0
 13
118.5783759492
 23
158.1326135285
 33
0.0
  0
LINE
  5
16A
330
166
100
AcDbEntity
  8
SLD-0
100
AcDbLine
 10
117.1146536788
 20
156.7469667067
 30
0.0
 11
124.3712764535
 21
162.0785424283
 31
0.0
  0
LINE
  5
16B
330
166
100
AcDbEntity
  8
SLD-0
100
AcDbLine
 10
124.3712764535
 20
162.0785424283
 30
0.0
 11
133.0856862594
 21
162.0785424283
 31
0.0
  0
MTEXT
  5
16C
330
166
100
AcDbEntity
  8
SLD-0
100
AcDbMText
 10
125.6212764535
 20
165.3012115449
 30
0.0
 40
2.5
 41
0.0
 71
     1
 72
     1
  1
%%c
  7
SLDTEXTSTYLE0
 73
     1
 44
1.0
  0
MTEXT
  5
16D
330
166
100
AcDbEntity
  8
SLD-0
100
AcDbMText
 10
129.2662418098
 20
165.3081560098
 30
0.0
 40
2.5
 41
0.0
 71
     1
 72
     1
  1
40
  7
SLDTEXTSTYLE0
 73
     1
 44
1.0
  0
ENDBLK
  5
168
330
166
100
AcDbEntity
  8
0
100
AcDbBlockEnd
  0
BLOCK
  5
16F
330
16E
100
AcDbEntity
  8
0
100
AcDbBlockBegin
  2
SW_CENTERMARKSYMBOL_1
 70
     0
 10
0.0
 20
0.0
 30
0.0
  3
SW_CENTERMARKSYMBOL_1
  1

  0
LINE
  5
171
330
16E
100
AcDbEntity
  8
SLD-0
 62
     0
100
AcDbLine
 10
0.0
 20
0.0
 30
0.0
 11
0.0
 21
1.0
 31
0.0
  0
LINE
  5
172
330
16E
100
AcDbEntity
  8
SLD-0
 62
     0
100
AcDbLine
 10
0.0
 20
0.0
 30
0.0
 11
-1.0
 21
0.0
 31
0.0
  0
LINE
  5
173
330
16E
100
AcDbEntity
  8
SLD-0
 62
     0
100
AcDbLine
 10
0.0
 20
0.0
 30
0.0
 11
0.0
 21
-1.0
 31
0.0
  0
LINE
  5
174
330
16E
100
AcDbEntity
  8
SLD-0
 62
     0
100
AcDbLine
 10
0.0
 20
0.0
 30
0.0
 11
1.0
 21
0.0
 31
0.0
  0
LINE
  5
175
330
16E
100
AcDbEntity
  8
SLD-0
 62
     0
100
AcDbLine
 10
0.0
 20
2.0
 30
0.0
 11
0.0
 21
21.0
 31
0.0
  0
LINE
  5
176
330
16E
100
AcDbEntity
  8
SLD-0
 62
     0
100
AcDbLine
 10
-2.0
 20
0.0
 30
0.0
 11
-21.0
 21
0.0
 31
0.0
  0
LINE
  5
177
330
16E
100
AcDbEntity
  8
SLD-0
 62
     0
100
AcDbLine
 10
0.0
 20
-2.0
 30
0.0
 11
0.0
 21
-21.0
 31
0.0
  0
LINE
  5
178
330
16E
100
AcDbEntity
  8
SLD-0
 62
     0
100
AcDbLine
 10
2.0
 20
0.0
 30
0.0
 11
21.0
 21
0.0
 31
0.0
  0
ENDBLK
  5
170
330
16E
100
AcDbEntity
  8
0
100
AcDbBlockEnd
  0
ENDSEC
  0
SECTION
  2
ENTITIES
  0
HATCH
  5
75
330
1F
100
AcDbEntity
  8
DIM
 62
     7
100
AcDbHatch
 10
0.0
 20
0.0
 30
0.0
210
0.0
220
0.0
230
1.0
  2
SOLID
 70
     1
 71
     0
 91
        1
 92
        0
 93
       10
 72
     2
 10
192.0745787220038
 20
35.99317245156018
 40
3.045751395731247
 50
249.211220914341
 51
308.9221353953366
 73
     1
 72
     1
 10
193.9881136832383
 20
33.62357638540631
 11
194.9529333444555
 21
32.77628960176396
 72
     1
 10
194.9529333444555
 20
32.77628960176396
 11
191.7427933712997
 21
29.65924988900155
 72
     1
 10
191.7427933712997
 20
29.65924988900155
 11
190.8019929158057
 21
30.46924695911155
 72
     1
 10
190.8019929158057
 20
30.46924695911155
 11
191.4330448362208
 21
31.08514734958258
 72
     1
 10
191.4330448362208
 20
31.08514734958258
 11
187.4238425260252
 21
34.56975118985726
 72
     2
 10
188.4387839555659
 20
35.71731156561778
 40
1.531992467805808
 50
131.4906380929588
 51
229.7089352075141
 73
     0
 72
     1
 10
187.4480891080504
 20
36.88586821401782
 11
188.7547173629321
 21
38.14745529052534
 72
     1
 10
188.7547173629321
 20
38.14745529052534
 11
189.7699112103346
 21
37.25192338970755
 72
     2
 10
191.7431815137072
 20
35.60453070231276
 40
2.570544369711283
 50
140.1430462780655
 51
253.045252507401
 73
     1
 97
        0
 75
     0
 76
     1
 98
        1
 10
0.0
 20
0.0
  0
HATCH
  5
76
330
1F
100
AcDbEntity
  8
DIM
 62
     1
100
AcDbHatch
 10
0.0
 20
0.0
 30
0.0
210
0.0
220
0.0
230
1.0
  2
SOLID
 70
     1
 71
     0
 91
        1
 92
        0
 93
       10
 72
     2
 10
192.2077441609677
 20
35.23897281285814
 40
3.18163670452787
 50
234.1674444878508
 51
314.4407074583992
 73
     0
 72
     2
 10
192.5254004516921
 20
35.77979461833632
 40
2.57756748834625
 50
317.8184992995783
 51
398.0564711573081
 73
     0
 72
     1
 10
194.5549862947396
 20
34.19088446899467
 11
195.5404351877224
 21
33.33218752910518
 72
     1
 10
195.5404351877224
 20
33.33218752910518
 11
196.7821165025162
 21
34.5366204715124
 72
     2
 10
195.8887241768541
 20
35.76456720333334
 40
1.518552937418266
 50
306.0377529468126
 51
403.4396461533867
 73
     1
 72
     1
 10
196.9913440415264
 20
36.80870917537147
 11
192.8645881831831
 21
40.39788544400542
 72
     1
 10
192.8645881831831
 20
40.39788544400542
 11
193.4888394851103
 21
41.00694387484275
 72
     1
 10
193.4888394851103
 20
41.00694387484275
 11
192.5583329749263
 21
41.83713609468728
 72
     1
 10
192.5583329749263
 20
41.83713609468728
 11
189.3227475265164
 21
38.71021584807318
 72
     1
 10
189.3227475265164
 20
38.71021584807318
 11
190.345155403865
 21
37.81842532095237
 97
        0
 75
     0
 76
     1
 98
        1
 10
0.0
 20
0.0
  0
LINE
  5
77
330
1F
100
AcDbEntity
  8
0
  6
Continuous
 62
     7
370
     0
100
AcDbLine
 10
167.8593775185
 20
17.7745192513
 30
0.0
 11
168.8593775185
 21
17.7745192513
 31
0.0
  0
LINE
  5
78
330
1F
100
AcDbEntity
  8
0
  6
Continuous
 62
     7
370
     0
100
AcDbLine
 10
164.8593775185
 20
17.7745192513
 30
0.0
 11
167.3593775185
 21
17.7745192513
 31
0.0
  0
LINE
  5
79
330
1F
100
AcDbEntity
  8
0
  6
Continuous
 62
     7
370
     0
100
AcDbLine
 10
181.3593775185
 20
15.2745192513
 30
0.0
 11
181.3593775185
 21
20.2745192513
 31
0.0
  0
LINE
  5
7A
330
1F
100
AcDbEntity
  8
0
  6
Continuous
 62
     7
370
     0
100
AcDbLine
 10
174.3593775185
 20
16.2745192513
 30
0.0
 11
181.3593775185
 21
15.2745192513
 31
0.0
  0
LINE
  5
7B
330
1F
100
AcDbEntity
  8
0
  6
Continuous
 62
     7
370
     0
100
AcDbLine
 10
168.3593775185
 20
16.7745192513
 30
0.0
 11
168.3593775185
 21
14.2745192513
 31
0.0
  0
LINE
  5
7C
330
1F
100
AcDbEntity
  8
0
  6
Continuous
 62
     7
370
     0
100
AcDbLine
 10
181.3593775185
 20
20.2745192513
 30
0.0
 11
174.3593775185
 21
19.2745192513
 31
0.0
  0
LINE
  5
7D
330
1F
100
AcDbEntity
  8
0
  6
Continuous
 62
     7
370
     0
100
AcDbLine
 10
173.3593775185
 20
17.7745192513
 30
0.0
 11
182.3593775185
 21
17.7745192513
 31
0.0
  0
LINE
  5
7E
330
1F
100
AcDbEntity
  8
0
  6
Continuous
 62
     7
370
     0
100
AcDbLine
 10
168.3593775185
 20
18.2745192513
 30
0.0
 11
168.3593775185
 21
17.2745192513
 31
0.0
  0
LINE
  5
7F
330
1F
100
AcDbEntity
  8
0
  6
Continuous
 62
     7
370
     0
100
AcDbLine
 10
169.3593775185
 20
17.7745192513
 30
0.0
 11
171.8593775185
 21
17.7745192513
 31
0.0
  0
LINE
  5
80
330
1F
100
AcDbEntity
  8
0
  6
Continuous
 62
     7
370
     0
100
AcDbLine
 10
168.3593775185
 20
21.2745192513
 30
0.0
 11
168.3593775185
 21
18.7745192513
 31
0.0
  0
LINE
  5
81
330
1F
100
AcDbEntity
  8
0
  6
Continuous
 62
     7
370
     0
100
AcDbLine
 10
174.3593775185
 20
19.2745192513
 30
0.0
 11
174.3593775185
 21
16.2745192513
 31
0.0
  0
LINE
  5
82
330
1F
100
AcDbEntity
  8
0
370
     0
100
AcDbLine
 10
194.9529333445
 20
32.7762896018
 30
0.0
 11
191.7427933713
 21
29.659249889
 31
0.0
  0
LINE
  5
83
330
1F
100
AcDbEntity
  8
0
370
     0
100
AcDbLine
 10
191.7427933713
 20
29.659249889
 30
0.0
 11
190.8019929158
 21
30.4692469591
 31
0.0
  0
LINE
  5
84
330
1F
100
AcDbEntity
  8
0
370
     0
100
AcDbLine
 10
190.8019929158
 20
30.4692469591
 30
0.0
 11
191.4330448362
 21
31.0851473496
 31
0.0
  0
LINE
  5
85
330
1F
100
AcDbEntity
  8
0
370
     0
100
AcDbLine
 10
187.423842526
 20
34.5697511899
 30
0.0
 11
191.4330448362
 21
31.0851473496
 31
0.0
  0
LINE
  5
86
330
1F
100
AcDbEntity
  8
0
370
     0
100
AcDbLine
 10
188.7547173629
 20
38.1474552905
 30
0.0
 11
187.4480891081
 21
36.885868214
 31
0.0
  0
LINE
  5
87
330
1F
100
AcDbEntity
  8
0
370
     0
100
AcDbLine
 10
188.7547173629
 20
38.1474552905
 30
0.0
 11
189.7699112103
 21
37.2519233897
 31
0.0
  0
LINE
  5
88
330
1F
100
AcDbEntity
  8
0
370
     0
100
AcDbLine
 10
193.9881136832
 20
33.6235763854
 30
0.0
 11
194.9529333445
 21
32.7762896018
 31
0.0
  0
LINE
  5
89
330
1F
100
AcDbEntity
  8
0
 62
     1
370
     0
100
AcDbLine
 10
190.3451554039
 20
37.818425321
 30
0.0
 11
189.3227475265
 21
38.7102158481
 31
0.0
  0
LINE
  5
8A
330
1F
100
AcDbEntity
  8
0
 62
     1
370
     0
100
AcDbLine
 10
189.3227475265
 20
38.7102158481
 30
0.0
 11
192.5583329749
 21
41.8371360947
 31
0.0
  0
LINE
  5
8B
330
1F
100
AcDbEntity
  8
0
 62
     1
370
     0
100
AcDbLine
 10
192.5583329749
 20
41.8371360947
 30
0.0
 11
193.4888394851
 21
41.0069438748
 31
0.0
  0
LINE
  5
8C
330
1F
100
AcDbEntity
  8
0
 62
     1
370
     0
100
AcDbLine
 10
193.4888394851
 20
41.0069438748
 30
0.0
 11
192.8645881832
 21
40.397885444
 31
0.0
  0
LINE
  5
8D
330
1F
100
AcDbEntity
  8
0
 62
     1
370
     0
100
AcDbLine
 10
192.8645881832
 20
40.397885444
 30
0.0
 11
196.9913440415
 21
36.8087091754
 31
0.0
  0
LINE
  5
8E
330
1F
100
AcDbEntity
  8
0
 62
     1
370
     0
100
AcDbLine
 10
194.5549862947
 20
34.190884469
 30
0.0
 11
195.5404351877
 21
33.3321875291
 31
0.0
  0
LINE
  5
8F
330
1F
100
AcDbEntity
  8
0
 62
     1
370
     0
100
AcDbLine
 10
195.5404351877
 20
33.3321875291
 30
0.0
 11
196.7821165025
 21
34.5366204715
 31
0.0
  0
LINE
  5
90
330
1F
100
AcDbEntity
  8
0
  6
Continuous
 62
     7
370
     0
100
AcDbLine
 10
185.6907965209
 20
13.1152464079
 30
0.0
 11
285.6907965209
 21
13.1152464079
 31
0.0
  0
LINE
  5
91
330
1F
100
AcDbEntity
  8
0
  6
Continuous
 62
     7
370
     0
100
AcDbLine
 10
185.6907965209
 20
18.1152464079
 30
0.0
 11
235.6907965209
 21
18.1152464079
 31
0.0
  0
LINE
  5
92
330
1F
100
AcDbEntity
  8
0
  6
Continuous
 62
     7
370
     0
100
AcDbLine
 10
185.6907965209
 20
23.1152464079
 30
0.0
 11
235.6907965209
 21
23.1152464079
 31
0.0
  0
LINE
  5
93
330
1F
100
AcDbEntity
  8
0
  6
Continuous
 62
     7
370
     0
100
AcDbLine
 10
185.6907965209
 20
28.1152464079
 30
0.0
 11
285.6907965209
 21
28.1152464079
 31
0.0
  0
LINE
  5
94
330
1F
100
AcDbEntity
  8
0
  6
Continuous
 62
     7
370
     0
100
AcDbLine
 10
235.6907965209
 20
33.1152464079
 30
0.0
 11
285.6907965209
 21
33.1152464079
 31
0.0
  0
LINE
  5
95
330
1F
100
AcDbEntity
  8
0
  6
Continuous
 62
     7
370
    15
100
AcDbLine
 10
235.6907965209
 20
18.1152464079
 30
0.0
 11
285.6907965209
 21
18.1152464079
 31
0.0
  0
LINE
  5
96
330
1F
100
AcDbEntity
  8
0
  6
Continuous
 62
     7
370
     0
100
AcDbLine
 10
185.6907965209
 20
43.1152464079
 30
0.0
 11
285.6907965209
 21
43.1152464079
 31
0.0
  0
LINE
  5
97
330
1F
100
AcDbEntity
  8
0
  6
Continuous
 62
     7
370
     0
100
AcDbLine
 10
251.237217675
 20
8.1152464079
 30
0.0
 11
251.237217675
 21
18.1152464079
 31
0.0
  0
LINE
  5
98
330
1F
100
AcDbEntity
  8
0
  6
Continuous
 62
     7
370
     0
100
AcDbLine
 10
235.6907965209
 20
8.1152464079
 30
0.0
 11
235.6907965209
 21
43.1152464079
 31
0.0
  0
LINE
  5
99
330
1F
100
AcDbEntity
  8
0
  6
Continuous
 62
     7
370
     0
100
AcDbLine
 10
251.237217675
 20
28.1152464079
 30
0.0
 11
251.237217675
 21
33.1152464079
 31
0.0
  0
LINE
  5
9A
330
1F
100
AcDbEntity
  8
0
  6
Continuous
 62
     7
370
     0
100
AcDbLine
 10
214.4164086353
 20
8.1152464079
 30
0.0
 11
214.4164086353
 21
28.1152464079
 31
0.0
  0
LINE
  5
9B
330
1F
100
AcDbEntity
  8
0
  6
Continuous
 62
     7
370
     0
100
AcDbLine
 10
199.7785887506
 20
8.1152464079
 30
0.0
 11
199.7785887506
 21
28.1152464079
 31
0.0
  0
LINE
  5
9C
330
1F
100
AcDbEntity
  8
0
  6
Continuous
 62
     7
370
     0
100
AcDbLine
 10
185.6907965209
 20
8.1152464079
 30
0.0
 11
185.6907965209
 21
43.1152464079
 31
0.0
  0
LINE
  5
9D
330
1F
100
AcDbEntity
  8
0
  6
Continuous
 62
     7
370
    15
100
AcDbLine
 10
8.6907965209
 20
104.7436369915
 30
0.0
 11
14.6907965209
 21
104.7436369915
 31
0.0
  0
LINE
  5
9E
330
1F
100
AcDbEntity
  8
0
  6
Continuous
 62
     7
370
    15
100
AcDbLine
 10
285.6907965209
 20
104.7436369915
 30
0.0
 11
279.6907965209
 21
104.7436369915
 31
0.0
  0
LINE
  5
9F
330
1F
100
AcDbEntity
  8
0
  6
Continuous
 62
     7
370
    15
100
AcDbLine
 10
147.1907965209
 20
8.1152464079
 30
0.0
 11
147.1907965209
 21
14.1152464079
 31
0.0
  0
LINE
  5
A0
330
1F
100
AcDbEntity
  8
0
  6
Continuous
 62
     7
370
    15
100
AcDbLine
 10
147.1907965209
 20
201.3720275751
 30
0.0
 11
147.1907965209
 21
195.3720275751
 31
0.0
  0
LINE
  5
A1
330
1F
100
AcDbEntity
  8
0
  6
Continuous
 62
     7
370
    15
100
AcDbLine
 10
43.3207965209
 20
201.3720275751
 30
0.0
 11
43.3207965209
 21
202.8720275751
 31
0.0
  0
LINE
  5
A2
330
1F
100
AcDbEntity
  8
0
  6
Continuous
 62
     7
370
    15
100
AcDbLine
 10
77.9507965209
 20
201.3720275751
 30
0.0
 11
77.9507965209
 21
202.8720275751
 31
0.0
  0
LINE
  5
A3
330
1F
100
AcDbEntity
  8
0
  6
Continuous
 62
     7
370
    15
100
AcDbLine
 10
112.5807965209
 20
201.3720275751
 30
0.0
 11
112.5807965209
 21
202.8720275751
 31
0.0
  0
LINE
  5
A4
330
1F
100
AcDbEntity
  8
0
  6
Continuous
 62
     7
370
    15
100
AcDbLine
 10
147.2107965209
 20
201.3720275751
 30
0.0
 11
147.2107965209
 21
202.8720275751
 31
0.0
  0
LINE
  5
A5
330
1F
100
AcDbEntity
  8
0
  6
Continuous
 62
     7
370
    15
100
AcDbLine
 10
181.8407965209
 20
201.3720275751
 30
0.0
 11
181.8407965209
 21
202.8720275751
 31
0.0
  0
LINE
  5
A6
330
1F
100
AcDbEntity
  8
0
  6
Continuous
 62
     7
370
    15
100
AcDbLine
 10
216.4707965209
 20
201.3720275751
 30
0.0
 11
216.4707965209
 21
202.8720275751
 31
0.0
  0
LINE
  5
A7
330
1F
100
AcDbEntity
  8
0
  6
Continuous
 62
     7
370
    15
100
AcDbLine
 10
251.1007965209
 20
201.3720275751
 30
0.0
 11
251.1007965209
 21
202.8720275751
 31
0.0
  0
LINE
  5
A8
330
1F
100
AcDbEntity
  8
0
  6
Continuous
 62
     7
370
    15
100
AcDbLine
 10
43.3157965209
 20
8.1152464079
 30
0.0
 11
43.3157965209
 21
6.6152464079
 31
0.0
  0
LINE
  5
A9
330
1F
100
AcDbEntity
  8
0
  6
Continuous
 62
     7
370
    15
100
AcDbLine
 10
77.9407965209
 20
8.1152464079
 30
0.0
 11
77.9407965209
 21
6.6152464079
 31
0.0
  0
LINE
  5
AA
330
1F
100
AcDbEntity
  8
0
  6
Continuous
 62
     7
370
    15
100
AcDbLine
 10
112.5657965209
 20
8.1152464079
 30
0.0
 11
112.5657965209
 21
6.6152464079
 31
0.0
  0
LINE
  5
AB
330
1F
100
AcDbEntity
  8
0
  6
Continuous
 62
     7
370
    15
100
AcDbLine
 10
147.1907965209
 20
8.1152464079
 30
0.0
 11
147.1907965209
 21
6.6152464079
 31
0.0
  0
LINE
  5
AC
330
1F
100
AcDbEntity
  8
0
  6
Continuous
 62
     7
370
    15
100
AcDbLine
 10
181.8157965209
 20
8.1152464079
 30
0.0
 11
181.8157965209
 21
6.6152464079
 31
0.0
  0
LINE
  5
AD
330
1F
100
AcDbEntity
  8
0
  6
Continuous
 62
     7
370
    15
100
AcDbLine
 10
216.4407965209
 20
8.1152464079
 30
0.0
 11
216.4407965209
 21
6.6152464079
 31
0.0
  0
LINE
  5
AE
330
1F
100
AcDbEntity
  8
0
  6
Continuous
 62
     7
370
     0
100
AcDbLine
 10
285.6907965209
 20
201.3720275751
 30
0.0
 11
8.6907965209
 21
201.3720275751
 31
0.0
  0
LINE
  5
AF
330
1F
100
AcDbEntity
  8
0
  6
Continuous
 62
     7
370
     0
100
AcDbLine
 10
285.6907965209
 20
8.1152464079
 30
0.0
 11
285.6907965209
 21
201.3720275751
 31
0.0
  0
LINE
  5
B0
330
1F
100
AcDbEntity
  8
0
  6
Continuous
 62
     7
370
     0
100
AcDbLine
 10
8.6907965209
 20
201.3720275751
 30
0.0
 11
8.6907965209
 21
8.1152464079
 31
0.0
  0
LINE
  5
B1
330
1F
100
AcDbEntity
  8
0
  6
Continuous
 62
     7
370
     0
100
AcDbLine
 10
8.6907965209
 20
8.1152464079
 30
0.0
 11
285.6907965209
 21
8.1152464079
 31
0.0
  0
LINE
  5
B2
330
1F
100
AcDbEntity
  8
0
  6
Continuous
 62
     7
370
    15
100
AcDbLine
 10
251.0657965209
 20
8.1152464079
 30
0.0
 11
251.0657965209
 21
6.6152464079
 31
0.0
  0
LINE
  5
B3
330
1F
100
AcDbEntity
  8
0
  6
Continuous
 62
     7
370
    15
100
AcDbLine
 10
8.6907965209
 20
40.3252464079
 30
0.0
 11
7.1907965209
 21
40.3252464079
 31
0.0
  0
LINE
  5
B4
330
1F
100
AcDbEntity
  8
0
  6
Continuous
 62
     7
370
    15
100
AcDbLine
 10
8.6907965209
 20
72.5352464079
 30
0.0
 11
7.1907965209
 21
72.5352464079
 31
0.0
  0
LINE
  5
B5
330
1F
100
AcDbEntity
  8
0
  6
Continuous
 62
     7
370
    15
100
AcDbLine
 10
8.6907965209
 20
104.7452464079
 30
0.0
 11
7.1907965209
 21
104.7452464079
 31
0.0
  0
LINE
  5
B6
330
1F
100
AcDbEntity
  8
0
  6
Continuous
 62
     7
370
    15
100
AcDbLine
 10
8.6907965209
 20
136.9552464079
 30
0.0
 11
7.1907965209
 21
136.9552464079
 31
0.0
  0
LINE
  5
B7
330
1F
100
AcDbEntity
  8
0
  6
Continuous
 62
     7
370
    15
100
AcDbLine
 10
8.6907965209
 20
169.1652464079
 30
0.0
 11
7.1907965209
 21
169.1652464079
 31
0.0
  0
LINE
  5
B8
330
1F
100
AcDbEntity
  8
0
  6
Continuous
 62
     7
370
    15
100
AcDbLine
 10
285.6907965209
 20
40.3252464079
 30
0.0
 11
287.1907965209
 21
40.3252464079
 31
0.0
  0
LINE
  5
B9
330
1F
100
AcDbEntity
  8
0
  6
Continuous
 62
     7
370
    15
100
AcDbLine
 10
285.6907965209
 20
72.5352464079
 30
0.0
 11
287.1907965209
 21
72.5352464079
 31
0.0
  0
LINE
  5
BA
330
1F
100
AcDbEntity
  8
0
  6
Continuous
 62
     7
370
    15
100
AcDbLine
 10
285.6907965209
 20
104.7452464079
 30
0.0
 11
287.1907965209
 21
104.7452464079
 31
0.0
  0
LINE
  5
BB
330
1F
100
AcDbEntity
  8
0
  6
Continuous
 62
     7
370
    15
100
AcDbLine
 10
285.6907965209
 20
136.9552464079
 30
0.0
 11
287.1907965209
 21
136.9552464079
 31
0.0
  0
LINE
  5
BC
330
1F
100
AcDbEntity
  8
0
  6
Continuous
 62
     7
370
    15
100
AcDbLine
 10
285.6907965209
 20
169.1652464079
 30
0.0
 11
287.1907965209
 21
169.1652464079
 31
0.0
  0
CIRCLE
  5
BD
330
1F
100
AcDbEntity
  8
0
  6
Continuous
 62
     7
370
     0
100
AcDbCircle
 10
168.3593775185
 20
17.7745192513
 30
0.0
 40
1.5
  0
CIRCLE
  5
BE
330
1F
100
AcDbEntity
  8
0
  6
Continuous
 62
     7
370
     0
100
AcDbCircle
 10
168.3593775185
 20
17.7745192513
 30
0.0
 40
2.5
  0
ARC
  5
BF
330
1F
100
AcDbEntity
  8
0
370
     0
100
AcDbCircle
 10
188.4387839556
 20
35.7173115656
 30
0.0
 40
1.531992467805807
100
AcDbArc
 50
130.2910647925
 51
228.509361907
  0
ARC
  5
C0
330
1F
100
AcDbEntity
  8
0
370
     0
100
AcDbCircle
 10
191.7431815137
 20
35.6045307023
 30
0.0
 40
2.570544369711281
100
AcDbArc
 50
140.1430462781
 51
253.0452525074
  0
ARC
  5
C1
330
1F
100
AcDbEntity
  8
0
370
     0
100
AcDbCircle
 10
192.074578722
 20
35.9931724516
 30
0.0
 40
3.045751395731247
100
AcDbArc
 50
249.2112209143
 51
308.9221353953
  0
ARC
  5
C2
330
1F
100
AcDbEntity
  8
0
 62
     1
370
     0
100
AcDbCircle
 10
195.8887241769
 20
35.7645672033
 30
0.0
 40
1.51855293741827
100
AcDbArc
 50
306.0377529468
 51
43.4396461534
  0
ARC
  5
C3
330
1F
100
AcDbEntity
  8
0
 62
     1
370
     0
100
AcDbCircle
 10
192.207744161
 20
35.2389728129
 30
0.0
 40
3.181636704527866
100
AcDbArc
 50
45.5592925416
 51
125.8325555121
  0
ARC
  5
C4
330
1F
100
AcDbEntity
  8
0
 62
     1
370
     0
100
AcDbCircle
 10
192.5254004517
 20
35.7797946183
 30
0.0
 40
2.57756748834625
100
AcDbArc
 50
321.9435288427
 51
42.1815007004
  0
MTEXT
  5
C6
330
1F
100
AcDbEntity
  8
SLD-0
 62
     7
100
AcDbMText
 10
252.300395779
 20
16.7361260772
 30
0.0
 40
2.5
 41
0.0
 71
     1
 72
     1
  1
1:1
  7
SLDTEXTSTYLE0
 73
     1
 44
1.0
  0
MTEXT
  5
C7
330
1F
100
AcDbEntity
  8
0
  6
Continuous
 62
     7
370
     0
100
AcDbMText
 10
165.5426850804
 20
13.2208440369
 30
0.0
 40
2.6458333333
 41
0.0
 71
     1
 72
     1
  1
UNIT:m/m
  7
SLDTEXTSTYLE0
 73
     1
 44
1.0
  0
INSERT
  5
CE
330
1F
100
AcDbEntity
  8
0
  6
Continuous
 62
     7
370
     0
100
AcDbBlockReference
  2
SW_NOTE_0
 10
12.2315076053
 20
193.8904304251
 30
0.0
  0
MTEXT
  5
D0
330
1F
100
AcDbEntity
  8
0
  6
Continuous
 62
     7
370
     0
100
AcDbMText
 10
198.7251893935
 20
40.4406774139
 30
0.0
 40
2.38125
 41
0.0
 71
     1
 72
     1
  1
Unice E-O Services Inc.
  7
SLDTEXTSTYLE1
 73
     1
 44
1.0
  0
MTEXT
  5
D1
330
1F
100
AcDbEntity
  8
0
  6
Continuous
 62
     7
370
     0
100
AcDbMText
 10
217.5590538149
 20
21.5867148511
 30
0.0
 40
1.8520833333
 41
0.0
 71
     1
 72
     1
  1
2014/03/28
  7
SLDTEXTSTYLE0
 73
     1
 44
1.0
  0
MTEXT
  5
D2
330
1F
100
AcDbEntity
  8
0
  6
Continuous
 62
     7
370
     0
100
AcDbMText
 10
252.3075599985
 20
32.1519195438
 30
0.0
 40
2.5
 41
0.0
 71
     1
 72
     1
  1
07BDA-1
  7
SLDTEXTSTYLE0
 73
     1
 44
1.0
  0
MTEXT
  5
D3
330
1F
100
AcDbEntity
  8
0
  6
Continuous
 62
     7
370
     0
100
AcDbMText
 10
252.3075599985
 20
38.1082117879
 30
0.0
 40
2.5
 41
0.0
 71
     1
 72
     1
  1
07BDA-1
  7
SLDTEXTSTYLE0
 73
     1
 44
1.0
  0
MTEXT
  5
D4
330
1F
100
AcDbEntity
  8
0
  6
Continuous
 62
     7
370
     0
100
AcDbMText
 10
236.3921866786
 20
16.5064795728
 30
0.0
 40
2.1166666667
 41
0.0
 71
     1
 72
     1
  1
SCALE:
  7
SLDTEXTSTYLE0
 73
     1
 44
1.0
  0
MTEXT
  5
D5
330
1F
100
AcDbEntity
  8
0
  6
Continuous
 62
     7
370
     0
100
AcDbMText
 10
186.3336086789
 20
21.5867148511
 30
0.0
 40
1.8520833333
 41
0.0
 71
     1
 72
     1
  1
DRAWN
  7
SLDTEXTSTYLE0
 73
     1
 44
1.0
  0
MTEXT
  5
D6
330
1F
100
AcDbEntity
  8
0
  6
Continuous
 62
     7
370
     0
100
AcDbMText
 10
203.2228367937
 20
26.683208308
 30
0.0
 40
1.8520833333
 41
0.0
 71
     1
 72
     1
  1
NAME
  7
SLDTEXTSTYLE0
 73
     1
 44
1.0
  0
MTEXT
  5
D7
330
1F
100
AcDbEntity
  8
0
  6
Continuous
 62
     7
370
     0
100
AcDbMText
 10
220.8710155758
 20
26.683208308
 30
0.0
 40
1.8520833333
 41
0.0
 71
     1
 72
     1
  1
DATE
  7
SLDTEXTSTYLE0
 73
     1
 44
1.0
  0
MTEXT
  5
D8
330
1F
100
AcDbEntity
  8
0
  6
Continuous
 62
     7
370
     0
100
AcDbMText
 10
236.2756316645
 20
31.7872213766
 30
0.0
 40
2.1166666667
 41
0.0
 71
     1
 72
     1
  1
DWG. NO.
  7
SLDTEXTSTYLE0
 73
     1
 44
1.0
  0
MTEXT
  5
D9
330
1F
100
AcDbEntity
  8
0
  6
Continuous
 62
     7
370
     0
100
AcDbMText
 10
236.3629907088
 20
41.8840658243
 30
0.0
 40
2.1166666667
 41
0.0
 71
     1
 72
     1
  1
TITLE:
  7
SLDTEXTSTYLE0
 73
     1
 44
1.0
  0
MTEXT
  5
DA
330
1F
100
AcDbEntity
  8
0
  6
Continuous
 62
     7
370
     0
100
AcDbMText
 10
203.0314209802
 20
16.2403789724
 30
0.0
 40
1.8520833333
 41
0.0
 71
     1
 72
     1
  1
Johnny
  7
SLDTEXTSTYLE0
 73
     1
 44
1.0
  0
MTEXT
  5
DB
330
1F
100
AcDbEntity
  8
0
  6
Continuous
 62
     7
370
     0
100
AcDbMText
 10
217.5590538149
 20
16.2403789724
 30
0.0
 40
1.8520833333
 41
0.0
 71
     1
 72
     1
  1
2014/03/28
  7
SLDTEXTSTYLE0
 73
     1
 44
1.0
  0
MTEXT
  5
DC
330
1F
100
AcDbEntity
  8
0
  6
Continuous
 62
     7
370
     0
100
AcDbMText
 10
186.3336086789
 20
16.2403789724
 30
0.0
 40
1.8520833333
 41
0.0
 71
     1
 72
     1
  1
ENG APPR.
  7
SLDTEXTSTYLE0
 73
     1
 44
1.0
  0
MTEXT
  5
DD
330
1F
100
AcDbEntity
  8
0
  6
Continuous
 62
     7
370
     0
100
AcDbMText
 10
236.3921866786
 20
11.6853389288
 30
0.0
 40
2.1166666667
 41
0.0
 71
     1
 72
     1
  1
REV
  7
SLDTEXTSTYLE0
 73
     1
 44
1.0
  0
MTEXT
  5
DE
330
1F
100
AcDbEntity
  8
0
  6
Continuous
 62
     7
370
     0
100
AcDbMText
 10
236.3629907088
 20
26.9493089085
 30
0.0
 40
2.1166666667
 41
0.0
 71
     1
 72
     1
  1
MATERIAL:
  7
SLDTEXTSTYLE0
 73
     1
 44
1.0
  0
MTEXT
  5
DF
330
1F
100
AcDbEntity
  8
0
  6
Continuous
 62
     7
370
     0
100
AcDbMText
 10
252.6088982507
 20
22.2175136187
 30
0.0
 40
2.5
 41
0.0
 71
     1
 72
     1
  1
N/A
  7
SLDTEXTSTYLE0
 73
     1
 44
1.0
  0
MTEXT
  5
E0
330
1F
100
AcDbEntity
  8
0
  6
Continuous
 62
     7
370
     0
100
AcDbMText
 10
26.6029931533
 20
204.453351657
 30
0.0
 40
2.1166666667
 41
0.0
 71
     1
 72
     1
  1
1
  7
SLDTEXTSTYLE0
 73
     1
 44
1.0
  0
MTEXT
  5
E1
330
1F
100
AcDbEntity
  8
0
  6
Continuous
 62
     7
370
     0
100
AcDbMText
 10
60.7170995724
 20
204.453351657
 30
0.0
 40
2.1166666667
 41
0.0
 71
     1
 72
     1
  1
2
  7
SLDTEXTSTYLE0
 73
     1
 44
1.0
  0
MTEXT
  5
E2
330
1F
100
AcDbEntity
  8
0
  6
Continuous
 62
     7
370
     0
100
AcDbMText
 10
94.9009943906
 20
204.453351657
 30
0.0
 40
2.1166666667
 41
0.0
 71
     1
 72
     1
  1
3
  7
SLDTEXTSTYLE0
 73
     1
 44
1.0
  0
MTEXT
  5
E3
330
1F
100
AcDbEntity
  8
0
  6
Continuous
 62
     7
370
     0
100
AcDbMText
 10
129.2533362851
 20
204.2992584364
 30
0.0
 40
2.1166666667
 41
0.0
 71
     1
 72
     1
  1
4
  7
SLDTEXTSTYLE0
 73
     1
 44
1.0
  0
MTEXT
  5
E4
330
1F
100
AcDbEntity
  8
0
  6
Continuous
 62
     7
370
     0
100
AcDbMText
 10
163.702323464
 20
204.453351657
 30
0.0
 40
2.1166666667
 41
0.0
 71
     1
 72
     1
  1
5
  7
SLDTEXTSTYLE0
 73
     1
 44
1.0
  0
MTEXT
  5
E5
330
1F
100
AcDbEntity
  8
0
  6
Continuous
 62
     7
370
     0
100
AcDbMText
 10
198.6382170415
 20
204.453351657
 30
0.0
 40
2.1166666667
 41
0.0
 71
     1
 72
     1
  1
6
  7
SLDTEXTSTYLE0
 73
     1
 44
1.0
  0
MTEXT
  5
E6
330
1F
100
AcDbEntity
  8
0
  6
Continuous
 62
     7
370
     0
100
AcDbMText
 10
234.3630657407
 20
204.453351657
 30
0.0
 40
2.1166666667
 41
0.0
 71
     1
 72
     1
  1
7
  7
SLDTEXTSTYLE0
 73
     1
 44
1.0
  0
MTEXT
  5
E7
330
1F
100
AcDbEntity
  8
0
  6
Continuous
 62
     7
370
     0
100
AcDbMText
 10
266.2787820494
 20
204.453351657
 30
0.0
 40
2.1166666667
 41
0.0
 71
     1
 72
     1
  1
8
  7
SLDTEXTSTYLE0
 73
     1
 44
1.0
  0
MTEXT
  5
E8
330
1F
100
AcDbEntity
  8
0
  6
Continuous
 62
     7
370
     0
100
AcDbMText
 10
5.3568236555
 20
185.8113022879
 30
0.0
 40
2.1166666667
 41
0.0
 71
     1
 72
     1
  1
A
  7
SLDTEXTSTYLE0
 73
     1
 44
1.0
  0
MTEXT
  5
E9
330
1F
100
AcDbEntity
  8
0
  6
Continuous
 62
     7
370
     0
100
AcDbMText
 10
5.5910431831
 20
154.2993048238
 30
0.0
 40
2.1166666667
 41
0.0
 71
     1
 72
     1
  1
B
  7
SLDTEXTSTYLE0
 73
     1
 44
1.0
  0
MTEXT
  5
EA
330
1F
100
AcDbEntity
  8
0
  6
Continuous
 62
     7
370
     0
100
AcDbMText
 10
5.5910431831
 20
121.274351423
 30
0.0
 40
2.1166666667
 41
0.0
 71
     1
 72
     1
  1
C
  7
SLDTEXTSTYLE0
 73
     1
 44
1.0
  0
MTEXT
  5
EB
330
1F
100
AcDbEntity
  8
0
  6
Continuous
 62
     7
370
     0
100
AcDbMText
 10
5.5910431831
 20
88.7453220221
 30
0.0
 40
2.1166666667
 41
0.0
 71
     1
 72
     1
  1
D
  7
SLDTEXTSTYLE0
 73
     1
 44
1.0
  0
MTEXT
  5
EC
330
1F
100
AcDbEntity
  8
0
  6
Continuous
 62
     7
370
     0
100
AcDbMText
 10
5.5910431831
 20
57.5558849197
 30
0.0
 40
2.1166666667
 41
0.0
 71
     1
 72
     1
  1
E
  7
SLDTEXTSTYLE0
 73
     1
 44
1.0
  0
MTEXT
  5
ED
330
1F
100
AcDbEntity
  8
0
  6
Continuous
 62
     7
370
     0
100
AcDbMText
 10
5.5910431831
 20
25.5694212252
 30
0.0
 40
2.1166666667
 41
0.0
 71
     1
 72
     1
  1
F
  7
SLDTEXTSTYLE0
 73
     1
 44
1.0
  0
MTEXT
  5
EE
330
1F
100
AcDbEntity
  8
0
  6
Continuous
 62
     7
370
     0
100
AcDbMText
 10
266.1858616964
 20
6.6236223963
 30
0.0
 40
2.1166666667
 41
0.0
 71
     1
 72
     1
  1
8
  7
SLDTEXTSTYLE0
 73
     1
 44
1.0
  0
MTEXT
  5
EF
330
1F
100
AcDbEntity
  8
0
  6
Continuous
 62
     7
370
     0
100
AcDbMText
 10
234.2701453876
 20
6.6236223963
 30
0.0
 40
2.1166666667
 41
0.0
 71
     1
 72
     1
  1
7
  7
SLDTEXTSTYLE0
 73
     1
 44
1.0
  0
MTEXT
  5
F0
330
1F
100
AcDbEntity
  8
0
  6
Continuous
 62
     7
370
     0
100
AcDbMText
 10
198.5452966885
 20
6.6236223963
 30
0.0
 40
2.1166666667
 41
0.0
 71
     1
 72
     1
  1
6
  7
SLDTEXTSTYLE0
 73
     1
 44
1.0
  0
MTEXT
  5
F1
330
1F
100
AcDbEntity
  8
0
  6
Continuous
 62
     7
370
     0
100
AcDbMText
 10
163.6094031109
 20
6.6236223963
 30
0.0
 40
2.1166666667
 41
0.0
 71
     1
 72
     1
  1
5
  7
SLDTEXTSTYLE0
 73
     1
 44
1.0
  0
MTEXT
  5
F2
330
1F
100
AcDbEntity
  8
0
  6
Continuous
 62
     7
370
     0
100
AcDbMText
 10
129.1604159321
 20
6.4695291758
 30
0.0
 40
2.1166666667
 41
0.0
 71
     1
 72
     1
  1
4
  7
SLDTEXTSTYLE0
 73
     1
 44
1.0
  0
MTEXT
  5
F3
330
1F
100
AcDbEntity
  8
0
  6
Continuous
 62
     7
370
     0
100
AcDbMText
 10
94.8080740376
 20
6.6236223963
 30
0.0
 40
2.1166666667
 41
0.0
 71
     1
 72
     1
  1
3
  7
SLDTEXTSTYLE0
 73
     1
 44
1.0
  0
MTEXT
  5
F4
330
1F
100
AcDbEntity
  8
0
  6
Continuous
 62
     7
370
     0
100
AcDbMText
 10
60.6241792194
 20
6.6236223963
 30
0.0
 40
2.1166666667
 41
0.0
 71
     1
 72
     1
  1
2
  7
SLDTEXTSTYLE0
 73
     1
 44
1.0
  0
MTEXT
  5
F5
330
1F
100
AcDbEntity
  8
0
  6
Continuous
 62
     7
370
     0
100
AcDbMText
 10
26.5100728003
 20
6.6236223963
 30
0.0
 40
2.1166666667
 41
0.0
 71
     1
 72
     1
  1
1
  7
SLDTEXTSTYLE0
 73
     1
 44
1.0
  0
MTEXT
  5
F6
330
1F
100
AcDbEntity
  8
0
  6
Continuous
 62
     7
370
     0
100
AcDbMText
 10
287.1023846145
 20
186.6424909092
 30
0.0
 40
2.1166666667
 41
0.0
 71
     1
 72
     1
  1
A
  7
SLDTEXTSTYLE0
 73
     1
 44
1.0
  0
MTEXT
  5
F7
330
1F
100
AcDbEntity
  8
0
  6
Continuous
 62
     7
370
     0
100
AcDbMText
 10
287.3366041421
 20
155.1304934451
 30
0.0
 40
2.1166666667
 41
0.0
 71
     1
 72
     1
  1
B
  7
SLDTEXTSTYLE0
 73
     1
 44
1.0
  0
MTEXT
  5
F8
330
1F
100
AcDbEntity
  8
0
  6
Continuous
 62
     7
370
     0
100
AcDbMText
 10
287.3366041421
 20
122.1055400442
 30
0.0
 40
2.1166666667
 41
0.0
 71
     1
 72
     1
  1
C
  7
SLDTEXTSTYLE0
 73
     1
 44
1.0
  0
MTEXT
  5
F9
330
1F
100
AcDbEntity
  8
0
  6
Continuous
 62
     7
370
     0
100
AcDbMText
 10
287.3366041421
 20
89.5765106433
 30
0.0
 40
2.1166666667
 41
0.0
 71
     1
 72
     1
  1
D
  7
SLDTEXTSTYLE0
 73
     1
 44
1.0
  0
MTEXT
  5
FA
330
1F
100
AcDbEntity
  8
0
  6
Continuous
 62
     7
370
     0
100
AcDbMText
 10
287.3366041421
 20
58.3870735409
 30
0.0
 40
2.1166666667
 41
0.0
 71
     1
 72
     1
  1
E
  7
SLDTEXTSTYLE0
 73
     1
 44
1.0
  0
MTEXT
  5
FB
330
1F
100
AcDbEntity
  8
0
  6
Continuous
 62
     7
370
     0
100
AcDbMText
 10
287.3366041421
 20
26.4006098464
 30
0.0
 40
2.1166666667
 41
0.0
 71
     1
 72
     1
  1
F
  7
SLDTEXTSTYLE0
 73
     1
 44
1.0
  0
MTEXT
  5
FC
330
1F
100
AcDbEntity
  8
0
  6
Continuous
 62
     7
370
     0
100
AcDbMText
 10
203.1553128802
 20
21.5867148511
 30
0.0
 40
1.8520833333
 41
0.0
 71
     1
 72
     1
  1
Sammy
  7
SLDTEXTSTYLE0
 73
     1
 44
1.0
  0
MTEXT
  5
FD
330
1F
100
AcDbEntity
  8
0
  6
Continuous
 62
     7
370
     0
100
AcDbMText
 10
252.8482239645
 20
12.0500370959
 30
0.0
 40
2.5
 41
0.0
 71
     1
 72
     1
  1
0
  7
SLDTEXTSTYLE0
 73
     1
 44
1.0
  0
INSERT
  5
104
330
1F
100
AcDbEntity
  8
SLD-0
 62
     7
100
AcDbBlockReference
  2
SW_NOTE_1
 10
198.7251893935
 20
33.3023915775
 30
0.0
  0
LINE
  5
105
330
1F
100
AcDbEntity
  8
0
  6
Continuous
 62
     7
370
    30
100
AcDbLine
 10
120.9972075425
 20
54.5677885725
 30
0.0
 11
120.9972075425
 21
100.5677885725
 31
0.0
  0
LINE
  5
106
330
1F
100
AcDbEntity
  8
0
  6
Continuous
 62
     7
370
    30
100
AcDbLine
 10
80.9972075425
 20
100.5677885725
 30
0.0
 11
80.9972075425
 21
54.5677885725
 31
0.0
  0
LINE
  5
107
330
1F
100
AcDbEntity
  8
0
  6
Continuous
 62
     7
370
    30
100
AcDbLine
 10
107.2422055409
 20
70.0677885725
 30
0.0
 11
107.2422055409
 21
85.0677885725
 31
0.0
  0
LINE
  5
108
330
1F
100
AcDbEntity
  8
0
  6
Continuous
 62
     7
370
    30
100
AcDbLine
 10
107.2422055409
 20
85.0677885725
 30
0.0
 11
94.7522095441
 21
85.0677885725
 31
0.0
  0
LINE
  5
109
330
1F
100
AcDbEntity
  8
0
  6
Continuous
 62
     7
370
    30
100
AcDbLine
 10
94.7522095441
 20
85.0677885725
 30
0.0
 11
94.7522095441
 21
70.0677885725
 31
0.0
  0
LINE
  5
10A
330
1F
100
AcDbEntity
  8
0
  6
Continuous
 62
     7
370
    30
100
AcDbLine
 10
94.7522095441
 20
70.0677885725
 30
0.0
 11
107.2422055409
 21
70.0677885725
 31
0.0
  0
LINE
  5
10B
330
1F
100
AcDbEntity
  8
0
  6
Continuous
 62
     7
370
    30
100
AcDbLine
 10
80.9972075425
 20
54.5677885725
 30
0.0
 11
120.9972075425
 21
54.5677885725
 31
0.0
  0
LINE
  5
10C
330
1F
100
AcDbEntity
  8
0
  6
Continuous
 62
     7
370
    30
100
AcDbLine
 10
80.9972075425
 20
100.5677885725
 30
0.0
 11
120.9972075425
 21
100.5677885725
 31
0.0
  0
CIRCLE
  5
10D
330
1F
100
AcDbEntity
  8
0
  6
Continuous
 62
     7
370
    30
100
AcDbCircle
 10
100.9972075425
 20
77.5677885725
 30
0.0
 40
2.552700000000002
  0
DIMENSION
  5
10E
330
1F
100
AcDbEntity
  8
SLD-0
100
AcDbDimension
  2
_D
 10
136.1502130286
 20
54.5677885725
 30
0.0
 11
136.1502130286
 21
77.5677885725
 31
0.0
 70
   160
  1
<>
 71
     2
 42
-1.0
  3
SLDDIMSTYLE0
100
AcDbAlignedDimension
 13
120.9972075425
 23
100.5677885725
 33
0.0
 14
120.9972075425
 24
54.5677885725
 34
0.0
 50
90.0
100
AcDbRotatedDimension
  0
DIMENSION
  5
119
330
1F
100
AcDbEntity
  8
SLD-0
 62
     7
100
AcDbDimension
  2
_D_1
 10
129.2135347401
 20
77.5677885725
 30
0.0
 11
129.2135347401
 21
89.0677885725
 31
0.0
 70
   160
  1
<>
 71
     2
 42
-1.0
  3
SLDDIMSTYLE0
100
AcDbAlignedDimension
 13
120.9972075425
 23
100.5677885725
 33
0.0
 14
104.5499075425
 24
77.5677885725
 34
0.0
 50
90.0
100
AcDbRotatedDimension
  0
DIMENSION
  5
123
330
1F
100
AcDbEntity
  8
SLD-0
 62
     7
100
AcDbDimension
  2
_D_2
 10
107.2422055409
 20
44.5192771497
 30
0.0
 11
100.9972075425
 21
44.5192771497
 31
0.0
 70
   160
  1
<>
 71
     2
 42
-1.0
  3
SLDDIMSTYLE0
100
AcDbAlignedDimension
 13
94.7522095441
 23
70.0677885725
 33
0.0
 14
107.2422055409
 24
70.0677885725
 34
0.0
100
AcDbRotatedDimension
  0
DIMENSION
  5
12D
330
1F
100
AcDbEntity
  8
SLD-0
 62
     7
100
AcDbDimension
  2
_D_3
 10
73.9972075425
 20
70.0677885725
 30
0.0
 11
73.9972075425
 21
77.5677885725
 31
0.0
 70
   160
  1
<>
 71
     2
 42
-1.0
  3
SLDDIMSTYLE0
100
AcDbAlignedDimension
 13
94.7522095441
 23
85.0677885725
 33
0.0
 14
94.7522095441
 24
70.0677885725
 34
0.0
 50
90.0
100
AcDbRotatedDimension
  0
DIMENSION
  5
137
330
1F
100
AcDbEntity
  8
SLD-0
 62
     7
100
AcDbDimension
  2
_D_4
 10
103.2689796764
 20
76.4036027361
 30
0.0
 11
63.1349701472
 21
96.7922304512
 31
0.0
 70
   163
  1
1 HOLE,\P 1/4"-20
 71
     1
 42
-1.0
  3
SLDDIMSTYLE1
100
AcDbDiametricDimension
 15
98.7254354086
 25
78.7319744088
 35
0.0
 40
0.0
  0
DIMENSION
  5
141
330
1F
100
AcDbEntity
  8
SLD-0
 62
     7
100
AcDbDimension
  2
_D_5
 10
120.9972075425
 20
107.5677885725
 30
0.0
 11
110.9972075425
 21
107.5677885725
 31
0.0
 70
   160
  1
<>
 71
     2
 42
-1.0
  3
SLDDIMSTYLE0
100
AcDbAlignedDimension
 13
100.9972075425
 23
81.1204885725
 33
0.0
 14
120.9972075425
 24
100.5677885725
 34
0.0
100
AcDbRotatedDimension
  0
INSERT
  5
156
330
1F
100
AcDbEntity
  8
SLD-0
100
AcDbBlockReference
  2
SW_CENTERMARKSYMBOL_0
 10
100.9972075425
 20
77.5677885725
 30
0.0
  0
LINE
  5
157
330
1F
100
AcDbEntity
  8
SLD-0
  6
CENTERX2
370
     0
100
AcDbLine
 10
100.9972075425
 20
52.5677885725
 30
0.0
 11
100.9972075425
 21
102.5677885725
 31
0.0
  0
LINE
  5
158
330
1F
100
AcDbEntity
  8
SLD-0
  6
CENTERX2
370
     0
100
AcDbLine
 10
122.9972075425
 20
77.5677885725
 30
0.0
 11
78.9972075425
 21
77.5677885725
 31
0.0
  0
CIRCLE
  5
159
330
1F
100
AcDbEntity
  8
0
  6
Continuous
 62
     7
370
    30
100
AcDbCircle
 10
100.9972075425
 20
144.9051792553
 30
0.0
 40
20.0
  0
CIRCLE
  5
15A
330
1F
100
AcDbEntity
  8
0
  6
Continuous
 62
     7
370
    30
100
AcDbCircle
 10
100.9972075425
 20
144.9051792553
 30
0.0
 40
4.0
  0
DIMENSION
  5
15B
330
1F
100
AcDbEntity
  8
SLD-0
100
AcDbDimension
  2
_D_6
 10
104.5079311749
 20
142.9881973626
 30
0.0
 11
73.2107195475
 21
159.9931132902
 31
0.0
 70
   163
  1
<>
 71
     1
 42
-1.0
  3
SLDDIMSTYLE2
100
AcDbDiametricDimension
 15
97.4864839101
 25
146.8221611479
 35
0.0
 40
0.0
  0
DIMENSION
  5
165
330
1F
100
AcDbEntity
  8
SLD-0
100
AcDbDimension
  2
_D_7
 10
84.8797614062
 20
133.0633918038
 30
0.0
 11
129.3534813565
 21
164.1931257007
 31
0.0
 70
   163
  1
<>
 71
     1
 42
-1.0
  3
SLDDIMSTYLE2
100
AcDbDiametricDimension
 15
117.1146536788
 25
156.7469667067
 35
0.0
 40
0.0
  0
INSERT
  5
179
330
1F
100
AcDbEntity
  8
SLD-0
100
AcDbBlockReference
  2
SW_CENTERMARKSYMBOL_1
 10
100.9972075425
 20
144.9051792553
 30
0.0
  0
LINE
  5
17A
330
1F
100
AcDbEntity
  8
0
  6
Continuous
 62
     7
370
    30
100
AcDbLine
 10
225.8610596107
 20
115.1700801559
 30
0.0
 11
258.3879715453
 21
133.9474667278
 31
0.0
  0
LINE
  5
17B
330
1F
100
AcDbEntity
  8
0
  6
Continuous
 62
     7
370
    30
100
AcDbLine
 10
238.3895968926
 20
168.589421223
 30
0.0
 11
205.862684958
 21
149.8120346511
 31
0.0
  0
LWPOLYLINE
  5
17C
330
1F
100
AcDbEntity
  8
0
  6
Continuous
 62
     7
370
    30
100
AcDbPolyline
 90
       79
 70
   128
 43
0.0
 10
226.4684740022
 20
126.3679965648
 10
226.4340800611
 20
125.4022882041
 10
226.3311212956
 20
124.4825532319
 10
226.160265433
 20
123.6147564823
 10
225.9226205389
 20
122.8045259504
 10
225.6197278318
 20
122.0571162919
 10
225.2535516871
 20
121.3773747454
 10
224.8264668976
 20
120.7697096956
 10
224.341243272
 20
120.2380620835
 10
223.8010276717
 20
119.7858798479
 10
223.2093236023
 20
119.4160955642
 10
222.5699684916
 20
119.1311074252
 10
221.8871088029
 20
118.9327636886
 10
221.1651731433
 20
118.8223506893
 10
220.4088435426
 20
118.8005844983
 10
219.6230250884
 20
118.8676062775
 10
218.8128141151
 20
119.022981365
 10
217.9834651516
 20
119.2657020937
 10
217.1403568442
 20
119.5941943266
 10
216.2889570739
 20
120.0063276655
 10
215.4347874948
 20
120.4994292676
 10
214.5833877245
 20
121.0703011796
 10
213.7402794172
 20
121.7152410783
 10
212.9109304537
 20
122.4300662809
 10
212.1007194803
 20
123.2101408716
 10
211.3149010262
 20
124.0504057674
 10
210.5585714255
 20
124.945411528
 10
209.8366357659
 20
125.8893536976
 10
209.1537760772
 20
126.8761104491
 10
208.5144209665
 20
127.8992822861
 10
207.922716897
 20
128.9522335468
 10
207.3825012968
 20
130.0281354382
 10
206.8972776712
 20
131.1200103236
 10
206.4701928816
 20
132.2207769755
 10
206.1040167369
 20
133.3232964996
 10
205.8011240298
 20
134.4204186339
 10
205.5634791358
 20
135.5050281202
 10
205.3926232731
 20
136.5700908498
 10
205.2896645077
 20
137.6086994823
 10
205.2552705666
 20
138.6141182421
 10
205.2896645077
 20
139.5798266028
 10
205.3926232731
 20
140.499561575
 10
205.5634791358
 20
141.3673583246
 10
205.8011240298
 20
142.1775888566
 10
206.1040167369
 20
142.924998515
 10
206.4701928816
 20
143.6047400616
 10
206.8972776712
 20
144.2124051114
 10
207.3825012968
 20
144.7440527235
 10
207.922716897
 20
145.196234959
 10
208.5144209665
 20
145.5660192428
 10
209.1537760772
 20
145.8510073817
 10
209.8366357659
 20
146.0493511184
 10
210.5585714255
 20
146.1597641176
 10
211.3149010262
 20
146.1815303087
 10
212.1007194803
 20
146.1145085295
 10
212.9109304537
 20
145.959133442
 10
213.7402794172
 20
145.7164127132
 10
214.5833877245
 20
145.3879204803
 10
215.4347874948
 20
144.9757871414
 10
216.2889570739
 20
144.4826855394
 10
217.1403568442
 20
143.9118136273
 10
217.9834651516
 20
143.2668737286
 10
218.8128141151
 20
142.5520485261
 10
219.6230250884
 20
141.7719739354
 10
220.4088435426
 20
140.9317090395
 10
221.1651731433
 20
140.0367032789
 10
221.8871088029
 20
139.0927611093
 10
222.5699684916
 20
138.1060043579
 10
223.2093236023
 20
137.0828325208
 10
223.8010276717
 20
136.0298812601
 10
224.341243272
 20
134.9539793687
 10
224.8264668976
 20
133.8621044833
 10
225.2535516871
 20
132.7613378315
 10
225.6197278318
 20
131.6588183073
 10
225.9226205389
 20
130.5616961731
 10
226.160265433
 20
129.4770866868
 10
226.3311212956
 20
128.4120239571
 10
226.4340800611
 20
127.3734153246
 10
226.4684740022
 20
126.3679965648
  0
LINE
  5
17D
330
1F
100
AcDbEntity
  8
0
  6
Continuous
 62
     7
370
    30
100
AcDbLine
 10
231.2379078259
 20
151.7832621838
 30
0.0
 11
241.8445095437
 21
157.9063230225
 31
0.0
  0
ARC
  5
17E
330
1F
100
AcDbEntity
  8
0
  6
Continuous
 62
     7
370
    30
100
AcDbCircle
 10
228.5293348722
 20
145.0398564391
 30
0.0
 40
18.51593472858398
100
AcDbArc
 50
44.0181454714
 51
75.9872310613
  0
LINE
  5
17F
330
1F
100
AcDbEntity
  8
0
  6
Continuous
 62
     7
370
    30
100
AcDbLine
 10
233.0127486774
 20
163.0047900467
 30
0.0
 11
222.4061469596
 21
156.881729208
 31
0.0
  0
ARC
  5
180
330
1F
100
AcDbEntity
  8
0
  6
Continuous
 62
     7
370
    30
100
AcDbCircle
 10
217.8118917253
 20
138.7247918095
 30
0.0
 40
18.72916327156405
100
AcDbArc
 50
44.2049131423
 51
75.8004633904
  0
LWPOLYLINE
  5
181
330
1F
100
AcDbEntity
  8
0
  6
Continuous
 62
     7
370
    30
100
AcDbPolyline
 90
       91
 70
   128
 43
0.0
 10
230.0040079081
 20
124.3269762852
 10
229.9695583765
 20
123.2076834224
 10
229.8663776164
 20
122.1336182245
 10
229.694968314
 20
121.1100134291
 10
229.4561655582
 20
120.1418559359
 10
229.1511327721
 20
119.2338625109
 10
228.7813560448
 20
118.3904568069
 10
228.3486368912
 20
117.6157478115
 10
227.8550834757
 20
116.9135098293
 10
227.3031003407
 20
116.2871640929
 10
226.6953766928
 20
115.739762096
 10
226.0348733003
 20
115.273970726
 10
225.3248080695
 20
114.8920592716
 10
224.5686403667
 20
114.5958883671
 10
223.7700541651
 20
114.3869009272
 10
222.9329400962
 20
114.266115118
 10
222.0613764958
 20
114.2341193955
 10
221.159609534
 20
114.2910696399
 10
220.2320325289
 20
114.4366883952
 10
219.2831645423
 20
114.6702662215
 10
218.3176283638
 20
114.990665151
 10
217.3401279884
 20
115.3963242325
 10
216.3554256999
 20
115.8852671357
 10
215.3683188688
 20
116.4551117798
 10
214.3836165803
 20
117.1030819391
 10
213.406116205
 20
117.8260207681
 10
212.4405800265
 20
118.6204061814
 10
211.4917120399
 20
119.4823680132
 10
210.5641350347
 20
120.407706872
 10
209.6623680729
 20
121.3919146001
 10
208.7908044725
 20
122.4301962362
 10
207.9536904037
 20
123.5174933766
 10
207.155104202
 20
124.6485088189
 10
206.3989364993
 20
125.8177323696
 10
205.6888712684
 20
127.0194676891
 10
205.028367876
 20
128.2478600436
 10
204.420644228
 20
129.4969248291
 10
203.8686610931
 20
130.7605767276
 10
203.3751076775
 20
132.032659354
 10
202.9423885239
 20
133.3069752496
 10
202.5726117966
 20
134.5773160755
 10
202.2675790105
 20
135.8374928589
 10
202.0287762548
 20
137.081366145
 10
201.8573669524
 20
138.3028759085
 10
201.7541861922
 20
139.4960710763
 10
201.7197366606
 20
140.6551385217
 10
201.7541861922
 20
141.7744313845
 10
201.8573669524
 20
142.8484965825
 10
202.0287762548
 20
143.8721013779
 10
202.2675790105
 20
144.8402588711
 10
202.5726117966
 20
145.748252296
 10
202.9423885239
 20
146.5916580001
 10
203.3751076775
 20
147.3663669954
 10
203.8686610931
 20
148.0686049777
 10
204.420644228
 20
148.694950714
 10
205.028367876
 20
149.2423527109
 10
205.6888712684
 20
149.708144081
 10
206.3989364993
 20
150.0900555354
 10
207.155104202
 20
150.3862264399
 10
207.9536904037
 20
150.5952138797
 10
208.7908044725
 20
150.715999689
 10
209.6623680729
 20
150.7479954114
 10
210.5641350347
 20
150.6910451671
 10
211.4917120399
 20
150.5454264118
 10
212.4405800265
 20
150.3118485855
 10
213.406116205
 20
149.9914496559
 10
214.3836165803
 20
149.5857905744
 10
215.3683188688
 20
149.0968476712
 10
216.3554256999
 20
148.5270030271
 10
217.3401279884
 20
147.8790328678
 10
218.3176283638
 20
147.1560940389
 10
219.2831645423
 20
146.3617086256
 10
220.2320325289
 20
145.4997467938
 10
221.159609534
 20
144.5744079349
 10
222.0613764958
 20
143.5902002069
 10
222.9329400962
 20
142.5519185708
 10
223.7700541651
 20
141.4646214304
 10
224.5686403667
 20
140.333605988
 10
225.3248080695
 20
139.1643824374
 10
226.0348733003
 20
137.9626471179
 10
226.6953766928
 20
136.7342547634
 10
227.3031003407
 20
135.4851899778
 10
227.8550834757
 20
134.2215380793
 10
228.3486368912
 20
132.9494554529
 10
228.7813560448
 20
131.6751395573
 10
229.1511327721
 20
130.4047987314
 10
229.4561655582
 20
129.1446219481
 10
229.694968314
 20
127.9007486619
 10
229.8663776164
 20
126.6792388985
 10
229.9695583765
 20
125.4860437306
 10
230.0040079081
 20
124.3269762852
  0
LWPOLYLINE
  5
182
330
1F
100
AcDbEntity
  8
0
  6
Continuous
 62
     7
370
    30
100
AcDbPolyline
 90
       13
 70
   128
 43
0.0
 10
262.5309198427
 20
143.1043628572
 10
262.4964703111
 20
141.9850699943
 10
262.3932895509
 20
140.9110047964
 10
262.2218802486
 20
139.887400001
 10
261.9830774928
 20
138.9192425078
 10
261.6780447067
 20
138.0112490829
 10
261.3082679794
 20
137.1678433788
 10
260.8755488258
 20
136.3931343835
 10
260.3819954102
 20
135.6908964012
 10
259.8300122753
 20
135.0645506649
 10
259.2222886273
 20
134.5171486679
 10
258.5617852349
 20
134.0513572979
 10
258.3879715453
 20
133.9474667278
  0
LWPOLYLINE
  5
183
330
1F
100
AcDbEntity
  8
0
  6
Continuous
 62
     7
370
    30
100
AcDbPolyline
 90
       35
 70
   128
 43
0.0
 10
238.3895968926
 20
168.589421223
 10
238.9258484338
 20
168.8674421073
 10
239.6820161366
 20
169.1636130118
 10
240.4806023382
 20
169.3726004516
 10
241.3177164071
 20
169.4933862609
 10
242.1892800075
 20
169.5253819833
 10
243.0910469693
 20
169.468431739
 10
244.0186239745
 20
169.3228129837
 10
244.967491961
 20
169.0892351574
 10
245.9330281396
 20
168.7688362278
 10
246.9105285149
 20
168.3631771463
 10
247.8952308034
 20
167.8742342432
 10
248.8823376345
 20
167.304389599
 10
249.867039923
 20
166.6564194398
 10
250.8445402983
 20
165.9334806108
 10
251.8100764769
 20
165.1390951975
 10
252.7589444634
 20
164.2771333657
 10
253.6865214686
 20
163.3517945068
 10
254.5882884304
 20
162.3675867788
 10
255.4598520308
 20
161.3293051427
 10
256.2969660997
 20
160.2420080023
 10
257.0955523013
 20
159.11099256
 10
257.8517200041
 20
157.9417690093
 10
258.5617852349
 20
156.7400336898
 10
259.2222886273
 20
155.5116413353
 10
259.8300122753
 20
154.2625765497
 10
260.3819954102
 20
152.9989246512
 10
260.8755488258
 20
151.7268420248
 10
261.3082679794
 20
150.4525261292
 10
261.6780447067
 20
149.1821853033
 10
261.9830774928
 20
147.92200852
 10
262.2218802486
 20
146.6781352338
 10
262.3932895509
 20
145.4566254704
 10
262.4964703111
 20
144.2634303026
 10
262.5309198427
 20
143.1043628572
  0
LWPOLYLINE
  5
184
330
1F
100
AcDbEntity
  8
0
  6
Continuous
 62
     7
370
    30
100
AcDbPolyline
 90
       79
 70
   128
 43
0.0
 10
205.2552705666
 20
138.6141182421
 10
205.2896645077
 20
137.6086994823
 10
205.3926232731
 20
136.5700908498
 10
205.5634791358
 20
135.5050281202
 10
205.8011240298
 20
134.4204186339
 10
206.1040167369
 20
133.3232964996
 10
206.4701928816
 20
132.2207769755
 10
206.8972776712
 20
131.1200103236
 10
207.3825012968
 20
130.0281354382
 10
207.922716897
 20
128.9522335468
 10
208.5144209665
 20
127.8992822861
 10
209.1537760772
 20
126.8761104491
 10
209.8366357659
 20
125.8893536976
 10
210.5585714255
 20
124.945411528
 10
211.3149010262
 20
124.0504057674
 10
212.1007194803
 20
123.2101408716
 10
212.9109304537
 20
122.4300662809
 10
213.7402794172
 20
121.7152410783
 10
214.5833877245
 20
121.0703011796
 10
215.4347874948
 20
120.4994292676
 10
216.2889570739
 20
120.0063276655
 10
217.1403568442
 20
119.5941943266
 10
217.9834651516
 20
119.2657020937
 10
218.8128141151
 20
119.022981365
 10
219.6230250884
 20
118.8676062775
 10
220.4088435426
 20
118.8005844983
 10
221.1651731433
 20
118.8223506893
 10
221.8871088029
 20
118.9327636886
 10
222.5699684916
 20
119.1311074252
 10
223.2093236023
 20
119.4160955642
 10
223.8010276717
 20
119.7858798479
 10
224.341243272
 20
120.2380620835
 10
224.8264668976
 20
120.7697096956
 10
225.2535516871
 20
121.3773747454
 10
225.6197278318
 20
122.0571162919
 10
225.9226205389
 20
122.8045259504
 10
226.160265433
 20
123.6147564824
 10
226.3311212956
 20
124.4825532319
 10
226.4340800611
 20
125.4022882041
 10
226.4684740022
 20
126.3679965648
 10
226.4340800611
 20
127.3734153246
 10
226.3311212956
 20
128.4120239571
 10
226.160265433
 20
129.4770866868
 10
225.9226205389
 20
130.5616961731
 10
225.6197278318
 20
131.6588183073
 10
225.2535516871
 20
132.7613378315
 10
224.8264668976
 20
133.8621044833
 10
224.341243272
 20
134.9539793687
 10
223.8010276717
 20
136.0298812601
 10
223.2093236023
 20
137.0828325208
 10
222.5699684916
 20
138.1060043579
 10
221.8871088029
 20
139.0927611093
 10
221.1651731433
 20
140.0367032789
 10
220.4088435426
 20
140.9317090395
 10
219.6230250884
 20
141.7719739354
 10
218.8128141151
 20
142.5520485261
 10
217.9834651516
 20
143.2668737286
 10
217.1403568442
 20
143.9118136273
 10
216.2889570739
 20
144.4826855394
 10
215.4347874948
 20
144.9757871414
 10
214.5833877245
 20
145.3879204803
 10
213.7402794172
 20
145.7164127132
 10
212.9109304537
 20
145.959133442
 10
212.1007194803
 20
146.1145085295
 10
211.3149010262
 20
146.1815303087
 10
210.5585714255
 20
146.1597641176
 10
209.8366357659
 20
146.0493511184
 10
209.1537760772
 20
145.8510073817
 10
208.5144209665
 20
145.5660192428
 10
207.922716897
 20
145.196234959
 10
207.3825012968
 20
144.7440527235
 10
206.8972776712
 20
144.2124051114
 10
206.4701928816
 20
143.6047400616
 10
206.1040167369
 20
142.924998515
 10
205.8011240298
 20
142.1775888566
 10
205.5634791358
 20
141.3673583246
 10
205.3926232731
 20
140.499561575
 10
205.2896645077
 20
139.5798266028
 10
205.2552705666
 20
138.6141182421
  0
LINE
  5
185
330
1F
100
AcDbEntity
  8
0
  6
Continuous
 62
     7
370
    30
100
AcDbLine
 10
233.0127486774
 20
163.0047900467
 30
0.0
 11
241.8445095437
 21
157.9063230225
 31
0.0
  0
LWPOLYLINE
  5
186
330
1F
100
AcDbEntity
  8
0
  6
Continuous
 62
     7
370
    30
100
AcDbPolyline
 90
       33
 70
   128
 43
0.0
 10
230.3202967713
 20
156.3520036217
 10
230.7071241178
 20
156.168737288
 10
231.1484522539
 20
156.0325581167
 10
231.6273211867
 20
155.948699397
 10
232.1253282517
 20
155.9203837726
 10
232.6233353167
 20
155.948699397
 10
233.1022042495
 20
156.0325581167
 10
233.5435323855
 20
156.168737288
 10
233.930359732
 20
156.3520036217
 10
234.247820731
 20
156.5753142956
 10
234.4837155343
 20
156.8300876055
 10
234.6289788369
 20
157.1065327561
 10
234.6780282517
 20
157.3940261153
 10
234.6289788369
 20
157.6815194744
 10
234.4837155343
 20
157.957964625
 10
234.247820731
 20
158.212737935
 10
233.930359732
 20
158.4360486088
 10
233.5435323855
 20
158.6193149426
 10
233.1022042495
 20
158.7554941139
 10
232.6233353167
 20
158.8393528335
 10
232.1253282517
 20
158.8676684579
 10
231.6273211867
 20
158.8393528335
 10
231.1484522539
 20
158.7554941139
 10
230.7071241178
 20
158.6193149426
 10
230.3202967713
 20
158.4360486088
 10
230.0028357723
 20
158.212737935
 10
229.766940969
 20
157.957964625
 10
229.6216776664
 20
157.6815194744
 10
229.5726282517
 20
157.3940261153
 10
229.6216776664
 20
157.1065327561
 10
229.766940969
 20
156.8300876055
 10
230.0028357723
 20
156.5753142956
 10
230.3202967713
 20
156.3520036217
  0
ARC
  5
187
330
1F
100
AcDbEntity
  8
0
  6
Continuous
 62
     7
370
    30
100
AcDbCircle
 10
232.1253282517
 20
152.319880036
 30
0.0
 40
4.102705592006509
100
AcDbArc
 50
69.7585565059
 51
110.2414434941
  0
ENDSEC
  0
SECTION
  2
OBJECTS
  0
DICTIONARY
  5
C
330
0
100
AcDbDictionary
281
     1
  3
ACAD_GROUP
350
D
  3
ACAD_LAYOUT
350
1A
  3
ACAD_MLINESTYLE
350
17
  3
ACAD_PLOTSETTINGS
350
19
  3
ACAD_PLOTSTYLENAME
350
E
  3
ACAD_SCALELIST
350
47
  0
DICTIONARY
  5
D
102
{ACAD_REACTORS
330
C
102
}
330
C
100
AcDbDictionary
281
     1
  0
DICTIONARY
  5
1A
102
{ACAD_REACTORS
330
C
102
}
330
C
100
AcDbDictionary
281
     1
  3
Layout1
350
1E
  3
Layout2
350
26
  3
Model
350
22
  0
DICTIONARY
  5
17
102
{ACAD_REACTORS
330
C
102
}
330
C
100
AcDbDictionary
281
     1
  3
Standard
350
18
  0
DICTIONARY
  5
19
102
{ACAD_REACTORS
330
C
102
}
330
C
100
AcDbDictionary
281
     1
  0
ACDBDICTIONARYWDFLT
  5
E
102
{ACAD_REACTORS
330
C
102
}
330
C
100
AcDbDictionary
281
     1
  3
Normal
350
F
100
AcDbDictionaryWithDefault
340
F
  0
DICTIONARY
  5
47
102
{ACAD_REACTORS
330
C
102
}
330
C
100
AcDbDictionary
281
     1
  3
A0
350
48
  3
A1
350
49
  3
A2
350
4A
  3
A3
350
4B
  3
A4
350
4C
  3
A5
350
4D
  3
A6
350
4E
  3
A7
350
4F
  3
A8
350
50
  3
A9
350
51
  3
B0
350
52
  3
B1
350
53
  3
B2
350
54
  3
B3
350
55
  3
B4
350
56
  3
B5
350
57
  3
B6
350
58
  3
B7
350
59
  3
B8
350
5A
  3
B9
350
5B
  3
C0
350
5C
  3
C1
350
5D
  3
C2
350
5E
  3
C3
350
5F
  3
C4
350
60
  3
C5
350
61
  3
C6
350
62
  3
C7
350
63
  3
C8
350
64
  3
C9
350
65
  3
D0
350
66
  3
D1
350
67
  3
D2
350
68
  0
LAYOUT
  5
1E
102
{ACAD_REACTORS
330
1A
102
}
330
1A
100
AcDbPlotSettings
  1

  2
none_device
  4

  6

 40
0.0
 41
0.0
 42
0.0
 43
0.0
 44
0.0
 45
0.0
 46
0.0
 47
0.0
 48
0.0
 49
0.0
140
0.0
141
0.0
142
1.0
143
1.0
 70
   688
 72
     1
 73
     0
 74
     5
  7

 75
    16
147
1.0
148
0.0
149
0.0
100
AcDbLayout
  1
Layout1
 70
     1
 71
     1
 10
0.0
 20
0.0
 11
420.0
 21
297.0
 12
0.0
 22
0.0
 32
0.0
 14
1.0000000000E+20
 24
1.0000000000E+20
 34
1.0000000000E+20
 15
-1.0000000000E+20
 25
-1.0000000000E+20
 35
-1.0000000000E+20
146
0.0
 13
0.0
 23
0.0
 33
0.0
 16
1.0
 26
0.0
 36
0.0
 17
0.0
 27
1.0
 37
0.0
 76
     0
330
1B
  0
LAYOUT
  5
26
102
{ACAD_REACTORS
330
1A
102
}
330
1A
100
AcDbPlotSettings
  1

  2
none_device
  4

  6

 40
0.0
 41
0.0
 42
0.0
 43
0.0
 44
0.0
 45
0.0
 46
0.0
 47
0.0
 48
0.0
 49
0.0
140
0.0
141
0.0
142
1.0
143
1.0
 70
   688
 72
     1
 73
     0
 74
     5
  7

 75
    16
147
1.0
148
0.0
149
0.0
100
AcDbLayout
  1
Layout2
 70
     1
 71
     2
 10
0.0
 20
0.0
 11
0.0
 21
0.0
 12
0.0
 22
0.0
 32
0.0
 14
0.0
 24
0.0
 34
0.0
 15
0.0
 25
0.0
 35
0.0
146
0.0
 13
0.0
 23
0.0
 33
0.0
 16
1.0
 26
0.0
 36
0.0
 17
0.0
 27
1.0
 37
0.0
 76
     0
330
23
  0
LAYOUT
  5
22
102
{ACAD_REACTORS
330
1A
102
}
330
1A
100
AcDbPlotSettings
  1

  2
none_device
  4
Letter_(8.50_x_11.00_Inches)
  6

 40
6.35
 41
6.35
 42
6.35000508
 43
6.35000508
 44
215.9
 45
279.4
 46
0.0
 47
0.0
 48
0.0
 49
0.0
140
0.0
141
0.0
142
1.0
143
1.0
 70
  1712
 72
     1
 73
     0
 74
     0
  7

 75
     0
147
1.0
148
0.0
149
0.0
100
AcDbLayout
  1
Model
 70
     1
 71
     0
 10
0.0
 20
0.0
 11
297.0
 21
210.0
 12
0.0
 22
0.0
 32
0.0
 14
0.0
 24
0.0
 34
0.0
 15
297.0
 25
210.0
 35
0.0
146
0.0
 13
0.0
 23
0.0
 33
0.0
 16
1.0
 26
0.0
 36
0.0
 17
0.0
 27
1.0
 37
0.0
 76
     0
330
1F
331
29
  0
MLINESTYLE
  5
18
102
{ACAD_REACTORS
330
17
102
}
330
17
100
AcDbMlineStyle
  2
Standard
 70
     0
  3

 62
   256
 51
90.0
 52
90.0
 71
     2
 49
0.5
 62
   256
  6
BYLAYER
 49
-0.5
 62
   256
  6
BYLAYER
  0
ACDBPLACEHOLDER
  5
F
102
{ACAD_REACTORS
330
E
102
}
330
E
  0
SCALE
  5
48
102
{ACAD_REACTORS
330
47
102
}
330
47
100
AcDbScale
 70
     0
300
1:1
140
1.0
141
1.0
290
     1
  0
SCALE
  5
49
102
{ACAD_REACTORS
330
47
102
}
330
47
100
AcDbScale
 70
     0
300
1:2
140
1.0
141
2.0
290
     0
  0
SCALE
  5
4A
102
{ACAD_REACTORS
330
47
102
}
330
47
100
AcDbScale
 70
     0
300
1:4
140
1.0
141
4.0
290
     0
  0
SCALE
  5
4B
102
{ACAD_REACTORS
330
47
102
}
330
47
100
AcDbScale
 70
     0
300
1:5
140
1.0
141
5.0
290
     0
  0
SCALE
  5
4C
102
{ACAD_REACTORS
330
47
102
}
330
47
100
AcDbScale
 70
     0
300
1:8
140
1.0
141
8.0
290
     0
  0
SCALE
  5
4D
102
{ACAD_REACTORS
330
47
102
}
330
47
100
AcDbScale
 70
     0
300
1:10
140
1.0
141
10.0
290
     0
  0
SCALE
  5
4E
102
{ACAD_REACTORS
330
47
102
}
330
47
100
AcDbScale
 70
     0
300
1:16
140
1.0
141
16.0
290
     0
  0
SCALE
  5
4F
102
{ACAD_REACTORS
330
47
102
}
330
47
100
AcDbScale
 70
     0
300
1:20
140
1.0
141
20.0
290
     0
  0
SCALE
  5
50
102
{ACAD_REACTORS
330
47
102
}
330
47
100
AcDbScale
 70
     0
300
1:30
140
1.0
141
30.0
290
     0
  0
SCALE
  5
51
102
{ACAD_REACTORS
330
47
102
}
330
47
100
AcDbScale
 70
     0
300
1:40
140
1.0
141
40.0
290
     0
  0
SCALE
  5
52
102
{ACAD_REACTORS
330
47
102
}
330
47
100
AcDbScale
 70
     0
300
1:50
140
1.0
141
50.0
290
     0
  0
SCALE
  5
53
102
{ACAD_REACTORS
330
47
102
}
330
47
100
AcDbScale
 70
     0
300
1:100
140
1.0
141
100.0
290
     0
  0
SCALE
  5
54
102
{ACAD_REACTORS
330
47
102
}
330
47
100
AcDbScale
 70
     0
300
2:1
140
2.0
141
1.0
290
     0
  0
SCALE
  5
55
102
{ACAD_REACTORS
330
47
102
}
330
47
100
AcDbScale
 70
     0
300
4:1
140
4.0
141
1.0
290
     0
  0
SCALE
  5
56
102
{ACAD_REACTORS
330
47
102
}
330
47
100
AcDbScale
 70
     0
300
8:1
140
8.0
141
1.0
290
     0
  0
SCALE
  5
57
102
{ACAD_REACTORS
330
47
102
}
330
47
100
AcDbScale
 70
     0
300
10:1
140
10.0
141
1.0
290
     0
  0
SCALE
  5
58
102
{ACAD_REACTORS
330
47
102
}
330
47
100
AcDbScale
 70
     0
300
100:1
140
100.0
141
1.0
290
     0
  0
SCALE
  5
59
102
{ACAD_REACTORS
330
47
102
}
330
47
100
AcDbScale
 70
     0
300
1/128" = 1'-0"
140
0.0078125
141
12.0
290
     0
  0
SCALE
  5
5A
102
{ACAD_REACTORS
330
47
102
}
330
47
100
AcDbScale
 70
     0
300
1/64" = 1'-0"
140
0.015625
141
12.0
290
     0
  0
SCALE
  5
5B
102
{ACAD_REACTORS
330
47
102
}
330
47
100
AcDbScale
 70
     0
300
1/32" = 1'-0"
140
0.03125
141
12.0
290
     0
  0
SCALE
  5
5C
102
{ACAD_REACTORS
330
47
102
}
330
47
100
AcDbScale
 70
     0
300
1/16" = 1'-0"
140
0.0625
141
12.0
290
     0
  0
SCALE
  5
5D
102
{ACAD_REACTORS
330
47
102
}
330
47
100
AcDbScale
 70
     0
300
3/32" = 1'-0"
140
0.09375
141
12.0
290
     0
  0
SCALE
  5
5E
102
{ACAD_REACTORS
330
47
102
}
330
47
100
AcDbScale
 70
     0
300
1/8" = 1'-0"
140
0.125
141
12.0
290
     0
  0
SCALE
  5
5F
102
{ACAD_REACTORS
330
47
102
}
330
47
100
AcDbScale
 70
     0
300
3/16" = 1'-0"
140
0.1875
141
12.0
290
     0
  0
SCALE
  5
60
102
{ACAD_REACTORS
330
47
102
}
330
47
100
AcDbScale
 70
     0
300
1/4" = 1'-0"
140
0.25
141
12.0
290
     0
  0
SCALE
  5
61
102
{ACAD_REACTORS
330
47
102
}
330
47
100
AcDbScale
 70
     0
300
3/8" = 1'-0"
140
0.375
141
12.0
290
     0
  0
SCALE
  5
62
102
{ACAD_REACTORS
330
47
102
}
330
47
100
AcDbScale
 70
     0
300
1/2" = 1'-0"
140
0.5
141
12.0
290
     0
  0
SCALE
  5
63
102
{ACAD_REACTORS
330
47
102
}
330
47
100
AcDbScale
 70
     0
300
3/4" = 1'-0"
140
0.75
141
12.0
290
     0
  0
SCALE
  5
64
102
{ACAD_REACTORS
330
47
102
}
330
47
100
AcDbScale
 70
     0
300
1" = 1'-0"
140
1.0
141
12.0
290
     0
  0
SCALE
  5
65
102
{ACAD_REACTORS
330
47
102
}
330
47
100
AcDbScale
 70
     0
300
1-1/2" = 1'-0"
140
1.5
141
12.0
290
     0
  0
SCALE
  5
66
102
{ACAD_REACTORS
330
47
102
}
330
47
100
AcDbScale
 70
     0
300
3" = 1'-0"
140
3.0
141
12.0
290
     0
  0
SCALE
  5
67
102
{ACAD_REACTORS
330
47
102
}
330
47
100
AcDbScale
 70
     0
300
6" = 1'-0"
140
6.0
141
12.0
290
     0
  0
SCALE
  5
68
102
{ACAD_REACTORS
330
47
102
}
330
47
100
AcDbScale
 70
     0
300
1'-0" = 1'-0"
140
12.0
141
12.0
290
     0
  0
ENDSEC
  0
EOF
