  0
SECTION
  2
HEADER
  9
$ACADVER
  1
AC1015
  9
$ACADMAINTVER
 70
     6
  9
$DWGCODEPAGE
  3
ANSI_950
  9
$INSBASE
 10
0.0
 20
0.0
 30
0.0
  9
$EXTMIN
 10
0.0
 20
0.0
 30
0.0
  9
$EXTMAX
 10
148.5
 20
105.0
 30
0.0
  9
$LIMMIN
 10
0.0
 20
0.0
  9
$LIMMAX
 10
148.5
 20
105.0
  9
$ORTHOMODE
 70
     0
  9
$REGENMODE
 70
     1
  9
$FILLMODE
 70
     1
  9
$QTEXTMODE
 70
     0
  9
$MIRRTEXT
 70
     1
  9
$LTSCALE
 40
0.5
  9
$ATTMODE
 70
     1
  9
$TEXTSIZE
 40
1.5875
  9
$TRACEWID
 40
1.0
  9
$TEXTSTYLE
  7
Standard
  9
$CLAYER
  8
0
  9
$CELTYPE
  6
ByLayer
  9
$CECOLOR
 62
   256
  9
$CELTSCALE
 40
1.0
  9
$DISPSILH
 70
     0
  9
$DIMSCALE
 40
1.0
  9
$DIMASZ
 40
1.0
  9
$DIMEXO
 40
0.5
  9
$DIMDLI
 40
3.75
  9
$DIMRND
 40
0.0
  9
$DIMDLE
 40
0.0
  9
$DIMEXE
 40
0.5
  9
$DIMTP
 40
0.0
  9
$DIMTM
 40
0.0
  9
$DIMTXT
 40
1.5875
  9
$DIMCEN
 40
2.5
  9
$DIMTSZ
 40
0.0
  9
$DIMTOL
 70
     0
  9
$DIMLIM
 70
     0
  9
$DIMTIH
 70
     1
  9
$DIMTOH
 70
     1
  9
$DIMSE1
 70
     0
  9
$DIMSE2
 70
     0
  9
$DIMTAD
 70
     1
  9
$DIMZIN
 70
     0
  9
$DIMBLK
  1

  9
$DIMASO
 70
     1
  9
$DIMSHO
 70
     1
  9
$DIMPOST
  1

  9
$DIMAPOST
  1

  9
$DIMALT
 70
     0
  9
$DIMALTD
 70
     3
  9
$DIMALTF
 40
0.0393700787
  9
$DIMLFAC
 40
1.0
  9
$DIMTOFL
 70
     1
  9
$DIMTVP
 40
0.0
  9
$DIMTIX
 70
     0
  9
$DIMSOXD
 70
     0
  9
$DIMSAH
 70
     0
  9
$DIMBLK1
  1

  9
$DIMBLK2
  1

  9
$DIMSTYLE
  2
ISO-25
  9
$DIMCLRD
 70
     0
  9
$DIMCLRE
 70
     0
  9
$DIMCLRT
 70
     0
  9
$DIMTFAC
 40
1.0
  9
$DIMGAP
 40
0.5
  9
$DIMJUST
 70
     0
  9
$DIMSD1
 70
     0
  9
$DIMSD2
 70
     0
  9
$DIMTOLJ
 70
     0
  9
$DIMTZIN
 70
     0
  9
$DIMALTZ
 70
     0
  9
$DIMALTTZ
 70
     0
  9
$DIMUPT
 70
     0
  9
$DIMDEC
 70
     2
  9
$DIMTDEC
 70
     2
  9
$DIMALTU
 70
     2
  9
$DIMALTTD
 70
     3
  9
$DIMTXSTY
  7
Standard
  9
$DIMAUNIT
 70
     0
  9
$DIMADEC
 70
     2
  9
$DIMALTRND
 40
0.0
  9
$DIMAZIN
 70
     0
  9
$DIMDSEP
 70
    44
  9
$DIMATFIT
 70
     3
  9
$DIMFRAC
 70
     0
  9
$DIMLDRBLK
  1

  9
$DIMLUNIT
 70
     2
  9
$DIMLWD
 70
    -2
  9
$DIMLWE
 70
    -2
  9
$DIMTMOVE
 70
     0
  9
$LUNITS
 70
     2
  9
$LUPREC
 70
     2
  9
$SKETCHINC
 40
1.0
  9
$FILLETRAD
 40
10.0
  9
$AUNITS
 70
     0
  9
$AUPREC
 70
     2
  9
$MENU
  1
.
  9
$ELEVATION
 40
0.0
  9
$PELEVATION
 40
0.0
  9
$THICKNESS
 40
0.0
  9
$LIMCHECK
 70
     0
  9
$CHAMFERA
 40
0.0
  9
$CHAMFERB
 40
0.0
  9
$CHAMFERC
 40
0.0
  9
$CHAMFERD
 40
0.0
  9
$SKPOLY
 70
     0
  9
$TDCREATE
 40
2458374.40429037
  9
$TDUCREATE
 40
2458374.070957037
  9
$TDUPDATE
 40
2458374.404295614
  9
$TDUUPDATE
 40
2458374.07096228
  9
$TDINDWG
 40
0.0000000116
  9
$TDUSRTIMER
 40
0.0000000116
  9
$USRTIMER
 70
     1
  9
$ANGBASE
 50
0.0
  9
$ANGDIR
 70
     0
  9
$PDMODE
 70
     0
  9
$PDSIZE
 40
-1.0
  9
$PLINEWID
 40
0.0
  9
$SPLFRAME
 70
     0
  9
$SPLINETYPE
 70
     6
  9
$SPLINESEGS
 70
     8
  9
$HANDSEED
  5
28E
  9
$SURFTAB1
 70
     6
  9
$SURFTAB2
 70
     6
  9
$SURFTYPE
 70
     6
  9
$SURFU
 70
     6
  9
$SURFV
 70
     6
  9
$UCSBASE
  2

  9
$UCSNAME
  2

  9
$UCSORG
 10
0.0
 20
0.0
 30
0.0
  9
$UCSXDIR
 10
1.0
 20
0.0
 30
0.0
  9
$UCSYDIR
 10
0.0
 20
1.0
 30
0.0
  9
$UCSORTHOREF
  2

  9
$UCSORTHOVIEW
 70
     0
  9
$UCSORGTOP
 10
0.0
 20
0.0
 30
0.0
  9
$UCSORGBOTTOM
 10
0.0
 20
0.0
 30
0.0
  9
$UCSORGLEFT
 10
0.0
 20
0.0
 30
0.0
  9
$UCSORGRIGHT
 10
0.0
 20
0.0
 30
0.0
  9
$UCSORGFRONT
 10
0.0
 20
0.0
 30
0.0
  9
$UCSORGBACK
 10
0.0
 20
0.0
 30
0.0
  9
$PUCSBASE
  2

  9
$PUCSNAME
  2

  9
$PUCSORG
 10
0.0
 20
0.0
 30
0.0
  9
$PUCSXDIR
 10
1.0
 20
0.0
 30
0.0
  9
$PUCSYDIR
 10
0.0
 20
1.0
 30
0.0
  9
$PUCSORTHOREF
  2

  9
$PUCSORTHOVIEW
 70
     0
  9
$PUCSORGTOP
 10
0.0
 20
0.0
 30
0.0
  9
$PUCSORGBOTTOM
 10
0.0
 20
0.0
 30
0.0
  9
$PUCSORGLEFT
 10
0.0
 20
0.0
 30
0.0
  9
$PUCSORGRIGHT
 10
0.0
 20
0.0
 30
0.0
  9
$PUCSORGFRONT
 10
0.0
 20
0.0
 30
0.0
  9
$PUCSORGBACK
 10
0.0
 20
0.0
 30
0.0
  9
$USERI1
 70
     0
  9
$USERI2
 70
     0
  9
$USERI3
 70
     0
  9
$USERI4
 70
     0
  9
$USERI5
 70
     0
  9
$USERR1
 40
0.0
  9
$USERR2
 40
0.0
  9
$USERR3
 40
0.0
  9
$USERR4
 40
0.0
  9
$USERR5
 40
0.0
  9
$WORLDVIEW
 70
     1
  9
$SHADEDGE
 70
     3
  9
$SHADEDIF
 70
    70
  9
$TILEMODE
 70
     1
  9
$MAXACTVP
 70
    64
  9
$PINSBASE
 10
0.0
 20
0.0
 30
0.0
  9
$PLIMCHECK
 70
     0
  9
$PEXTMIN
 10
1.0000000000E+20
 20
1.0000000000E+20
 30
1.0000000000E+20
  9
$PEXTMAX
 10
-1.0000000000E+20
 20
-1.0000000000E+20
 30
-1.0000000000E+20
  9
$PLIMMIN
 10
0.0
 20
0.0
  9
$PLIMMAX
 10
420.0
 20
297.0
  9
$UNITMODE
 70
     0
  9
$VISRETAIN
 70
     1
  9
$PLINEGEN
 70
     0
  9
$PSLTSCALE
 70
     1
  9
$TREEDEPTH
 70
  3020
  9
$CMLSTYLE
  2
Standard
  9
$CMLJUST
 70
     0
  9
$CMLSCALE
 40
20.0
  9
$PROXYGRAPHICS
 70
     1
  9
$MEASUREMENT
 70
     1
  9
$CELWEIGHT
370
    -1
  9
$ENDCAPS
280
     0
  9
$JOINSTYLE
280
     0
  9
$LWDISPLAY
290
     1
  9
$INSUNITS
 70
     4
  9
$HYPERLINKBASE
  1

  9
$STYLESHEET
  1

  9
$XEDIT
290
     1
  9
$CEPSNTYPE
380
     0
  9
$PSTYLEMODE
290
     1
  9
$FINGERPRINTGUID
  2
{BFE800CC-72BC-4D61-BC10-4D4C70B1A21C}
  9
$VERSIONGUID
  2
{FAEB1C32-E019-11D5-929B-00C0DF256EC4}
  9
$EXTNAMES
290
     1
  9
$PSVPSCALE
 40
0.0
  9
$OLESTARTUP
290
     0
  0
ENDSEC
  0
SECTION
  2
CLASSES
  0
CLASS
  1
ACDBDICTIONARYWDFLT
  2
AcDbDictionaryWithDefault
  3
ObjectDBX Classes
 90
        0
280
     0
281
     0
  0
CLASS
  1
VISUALSTYLE
  2
AcDbVisualStyle
  3
ObjectDBX Classes
 90
     4095
280
     0
281
     0
  0
CLASS
  1
MATERIAL
  2
AcDbMaterial
  3
ObjectDBX Classes
 90
     1153
280
     0
281
     0
  0
CLASS
  1
SCALE
  2
AcDbScale
  3
ObjectDBX Classes
 90
     1153
280
     0
281
     0
  0
CLASS
  1
TABLESTYLE
  2
AcDbTableStyle
  3
ObjectDBX Classes
 90
     4095
280
     0
281
     0
  0
CLASS
  1
MLEADERSTYLE
  2
AcDbMLeaderStyle
  3
ACDB_MLEADERSTYLE_CLASS
 90
     4095
280
     0
281
     0
  0
CLASS
  1
SUN
  2
AcDbSun
  3
SCENEOE
 90
     1153
280
     0
281
     0
  0
CLASS
  1
ACDBPLACEHOLDER
  2
AcDbPlaceHolder
  3
ObjectDBX Classes
 90
        0
280
     0
281
     0
  0
CLASS
  1
LAYOUT
  2
AcDbLayout
  3
ObjectDBX Classes
 90
        0
280
     0
281
     0
  0
ENDSEC
  0
SECTION
  2
TABLES
  0
TABLE
  2
VPORT
  5
8
330
0
100
AcDbSymbolTable
 70
     1
  0
VPORT
  5
29
330
8
100
AcDbSymbolTableRecord
100
AcDbViewportTableRecord
  2
*Active
 70
     0
 10
0.0
 20
0.0
 11
1.0
 21
1.0
 12
74.25
 22
52.5
 13
0.0
 23
0.0
 14
10.0
 24
10.0
 15
10.0
 25
10.0
 16
0.0
 26
0.0
 36
1.0
 17
0.0
 27
0.0
 37
0.0
 40
105.0
 41
1.4142857143
 42
50.0
 43
0.0
 44
0.0
 50
0.0
 51
0.0
 71
     0
 72
  2000
 73
     1
 74
     3
 75
     0
 76
     0
 77
     0
 78
     0
281
     0
 65
     1
110
0.0
120
0.0
130
0.0
111
1.0
121
0.0
131
0.0
112
0.0
122
1.0
132
0.0
 79
     0
146
0.0
  0
ENDTAB
  0
TABLE
  2
LTYPE
  5
5
330
0
100
AcDbSymbolTable
 70
     6
  0
LTYPE
  5
14
330
5
100
AcDbSymbolTableRecord
100
AcDbLinetypeTableRecord
  2
ByBlock
 70
     0
  3

 72
    65
 73
     0
 40
0.0
  0
LTYPE
  5
15
330
5
100
AcDbSymbolTableRecord
100
AcDbLinetypeTableRecord
  2
ByLayer
 70
     0
  3

 72
    65
 73
     0
 40
0.0
  0
LTYPE
  5
16
330
5
100
AcDbSymbolTableRecord
100
AcDbLinetypeTableRecord
  2
Continuous
 70
     0
  3
Solid line
 72
    65
 73
     0
 40
0.0
  0
LTYPE
  5
6E
330
5
100
AcDbSymbolTableRecord
100
AcDbLinetypeTableRecord
  2
HIDDEN
 70
     0
  3
Hidden __ __ __ __ __ __ __ __ __ __ __ __ __ __
 72
    65
 73
     2
 40
1.905
 49
1.27
 74
     0
 49
-0.635
 74
     0
  0
LTYPE
  5
6F
330
5
100
AcDbSymbolTableRecord
100
AcDbLinetypeTableRecord
  2
PHANTOM
 70
     0
  3
Phantom ______  __  __  ______  __  __  ______
 72
    65
 73
     6
 40
12.7
 49
6.35
 74
     0
 49
-1.27
 74
     0
 49
1.27
 74
     0
 49
-1.27
 74
     0
 49
1.27
 74
     0
 49
-1.27
 74
     0
  0
LTYPE
  5
70
330
5
100
AcDbSymbolTableRecord
100
AcDbLinetypeTableRecord
  2
CENTER
 70
     0
  3
Center ____ _ ____ _ ____ _ ____ _ ____ _ ____
 72
    65
 73
     4
 40
10.16
 49
6.35
 74
     0
 49
-1.27
 74
     0
 49
1.27
 74
     0
 49
-1.27
 74
     0
  0
LTYPE
  5
71
330
5
100
AcDbSymbolTableRecord
100
AcDbLinetypeTableRecord
  2
CENTERX2
 70
     0
  3
Center (2x) ________  __  ________  __  _____
 72
    65
 73
     4
 40
20.32
 49
12.7
 74
     0
 49
-2.54
 74
     0
 49
2.54
 74
     0
 49
-2.54
 74
     0
  0
LTYPE
  5
72
330
5
100
AcDbSymbolTableRecord
100
AcDbLinetypeTableRecord
  2
DOT2
 70
     0
  3
Dot (.5x) ........................................
 72
    65
 73
     2
 40
0.635
 49
0.0
 74
     0
 49
-0.635
 74
     0
  0
ENDTAB
  0
TABLE
  2
LAYER
  5
2
330
0
100
AcDbSymbolTable
 70
    10
  0
LAYER
  5
10
330
2
100
AcDbSymbolTableRecord
100
AcDbLayerTableRecord
  2
0
 70
     0
 62
     7
  6
Continuous
370
    -3
390
F
  0
LAYER
  5
73
330
2
100
AcDbSymbolTableRecord
100
AcDbLayerTableRecord
  2
SLD-0
 70
     0
 62
     7
  6
Continuous
370
    15
390
F
  0
LAYER
  5
74
330
2
100
AcDbSymbolTableRecord
100
AcDbLayerTableRecord
  2
輪廓線
 70
     0
 62
   219
  6
Continuous
370
    15
390
F
  0
LAYER
  5
75
330
2
100
AcDbSymbolTableRecord
100
AcDbLayerTableRecord
  2
DIM
 70
     0
 62
     7
  6
Continuous
370
    -3
390
F
  0
LAYER
  5
76
330
2
100
AcDbSymbolTableRecord
100
AcDbLayerTableRecord
  2
中心線
 70
     0
 62
     7
  6
CENTERX2
370
    -3
390
F
  0
LAYER
  5
77
330
2
100
AcDbSymbolTableRecord
100
AcDbLayerTableRecord
  2
虛線
 70
     0
 62
     7
  6
HIDDEN
370
    -3
390
F
  0
LAYER
  5
78
330
2
100
AcDbSymbolTableRecord
100
AcDbLayerTableRecord
  2
SECTION
 70
     0
 62
     7
  6
PHANTOM
370
    15
390
F
  0
LAYER
  5
79
330
2
100
AcDbSymbolTableRecord
100
AcDbLayerTableRecord
  2
假想線
 70
     0
 62
     7
  6
PHANTOM
370
    -3
390
F
  0
LAYER
  5
7A
330
2
100
AcDbSymbolTableRecord
100
AcDbLayerTableRecord
  2
圖層_1
 70
     0
 62
   179
  6
Continuous
370
    -3
390
F
  0
LAYER
  5
7B
330
2
100
AcDbSymbolTableRecord
100
AcDbLayerTableRecord
  2
工作區域參考線
 70
     0
 62
   179
  6
Continuous
370
    -3
390
F
  0
ENDTAB
  0
TABLE
  2
STYLE
  5
3
330
0
100
AcDbSymbolTable
 70
     3
  0
STYLE
  5
11
330
3
100
AcDbSymbolTableRecord
100
AcDbTextStyleTableRecord
  2
Standard
 70
     0
 40
0.0
 41
1.0
 50
0.0
 71
     0
 42
1.5875
  3
txt
  4

  0
STYLE
  5
CC
330
3
100
AcDbSymbolTableRecord
100
AcDbTextStyleTableRecord
  2
SLDTEXTSTYLE0
 70
     0
 40
0.0
 41
0.605
 50
0.0
 71
     0
 42
1.5875
  3
TXT
  4

  0
STYLE
  5
103
330
3
100
AcDbSymbolTableRecord
100
AcDbTextStyleTableRecord
  2
SLDTEXTSTYLE1
 70
     0
 40
0.0
 41
0.7
 50
0.0
 71
     0
 42
1.5875
  3
TXT
  4

  0
ENDTAB
  0
TABLE
  2
VIEW
  5
6
330
0
100
AcDbSymbolTable
 70
     0
  0
ENDTAB
  0
TABLE
  2
UCS
  5
7
330
0
100
AcDbSymbolTable
 70
     0
  0
ENDTAB
  0
TABLE
  2
APPID
  5
9
330
0
100
AcDbSymbolTable
 70
     1
  0
APPID
  5
12
330
9
100
AcDbSymbolTableRecord
100
AcDbRegAppTableRecord
  2
ACAD
 70
     0
  0
ENDTAB
  0
TABLE
  2
DIMSTYLE
  5
A
330
0
100
AcDbSymbolTable
 70
     5
100
AcDbDimStyleTable
  0
DIMSTYLE
105
27
330
A
100
AcDbSymbolTableRecord
100
AcDbDimStyleTableRecord
  2
ISO-25
 70
     0
 41
2.5
 42
0.625
 43
3.75
 44
1.25
 73
     0
 74
     0
 77
     1
 78
     8
140
2.5
141
2.5
143
0.0393700787
147
0.625
171
     3
172
     1
178
     0
271
     2
272
     2
274
     3
278
    44
283
     0
284
     8
340
11
  0
DIMSTYLE
105
17E
102
{ACAD_REACTORS
330
17D
330
188
330
192
330
19C
102
}
330
A
100
AcDbSymbolTableRecord
100
AcDbDimStyleTableRecord
  2
SLDDIMSTYLE0
 70
     0
 41
1.0
 44
0.0
 45
0.000000001
 73
     0
 74
     0
 77
     1
 78
    12
 79
     3
140
1.2712402344
147
0.3178100586
173
     1
178
     0
271
     2
272
     2
276
     2
284
    12
340
103
  0
DIMSTYLE
105
1AD
330
A
100
AcDbSymbolTableRecord
100
AcDbDimStyleTableRecord
  2
SLDDIMSTYLE1
 70
     0
 41
1.0
 44
0.0
 45
0.000000001
147
0.0
173
     1
178
     0
271
     0
272
     0
276
     2
340
11
  0
DIMSTYLE
105
1E8
102
{ACAD_REACTORS
330
1E7
102
}
330
A
100
AcDbSymbolTableRecord
100
AcDbDimStyleTableRecord
  2
SLDDIMSTYLE2
 70
     0
 41
1.0
 44
0.0
 45
0.000000001
 78
    12
 79
     3
140
1.2712402344
141
0.0
147
0.3178100586
173
     1
178
     0
271
     2
272
     2
276
     2
284
    12
340
103
  0
DIMSTYLE
105
1F3
102
{ACAD_REACTORS
330
1F2
102
}
330
A
100
AcDbSymbolTableRecord
100
AcDbDimStyleTableRecord
  2
SLDDIMSTYLE3
 70
     0
 41
1.0
 44
0.0
 45
0.000000001
 73
     0
 74
     0
 77
     1
 78
    12
 79
     3
140
1.2712402344
147
0.3178100586
172
     1
173
     1
178
     0
271
     2
272
     2
276
     2
284
    12
289
     0
340
103
  0
ENDTAB
  0
TABLE
  2
BLOCK_RECORD
  5
1
330
0
100
AcDbSymbolTable
 70
    12
  0
BLOCK_RECORD
  5
1F
330
1
100
AcDbSymbolTableRecord
100
AcDbBlockTableRecord
  2
*Model_Space
340
22
  0
BLOCK_RECORD
  5
1B
330
1
100
AcDbSymbolTableRecord
100
AcDbBlockTableRecord
  2
*Paper_Space
340
1E
  0
BLOCK_RECORD
  5
23
330
1
100
AcDbSymbolTableRecord
100
AcDbBlockTableRecord
  2
*Paper_Space0
340
26
  0
BLOCK_RECORD
  5
7C
330
1
100
AcDbSymbolTableRecord
100
AcDbBlockTableRecord
  2
圖塊6
340
0
102
{BLKREFS
331
CB
102
}
  0
BLOCK_RECORD
  5
CE
330
1
100
AcDbSymbolTableRecord
100
AcDbBlockTableRecord
  2
SW_NOTE_0
340
0
102
{BLKREFS
331
D4
102
}
  0
BLOCK_RECORD
  5
105
330
1
100
AcDbSymbolTableRecord
100
AcDbBlockTableRecord
  2
SW_NOTE_1
340
0
102
{BLKREFS
331
10A
102
}
  0
BLOCK_RECORD
  5
17F
330
1
100
AcDbSymbolTableRecord
100
AcDbBlockTableRecord
  2
_D
340
0
  0
BLOCK_RECORD
  5
189
330
1
100
AcDbSymbolTableRecord
100
AcDbBlockTableRecord
  2
_D_1
340
0
  0
BLOCK_RECORD
  5
193
330
1
100
AcDbSymbolTableRecord
100
AcDbBlockTableRecord
  2
_D_2
340
0
  0
BLOCK_RECORD
  5
19D
330
1
100
AcDbSymbolTableRecord
100
AcDbBlockTableRecord
  2
_D_3
340
0
  0
BLOCK_RECORD
  5
1A7
330
1
100
AcDbSymbolTableRecord
100
AcDbBlockTableRecord
  2
SW_NOTE_2
340
0
102
{BLKREFS
331
1AC
102
}
  0
BLOCK_RECORD
  5
1E9
330
1
100
AcDbSymbolTableRecord
100
AcDbBlockTableRecord
  2
_D_4
340
0
  0
BLOCK_RECORD
  5
1F4
330
1
100
AcDbSymbolTableRecord
100
AcDbBlockTableRecord
  2
_D_5
340
0
  0
BLOCK_RECORD
  5
1FF
330
1
100
AcDbSymbolTableRecord
100
AcDbBlockTableRecord
  2
SW_CENTERMARKSYMBOL_0
340
0
102
{BLKREFS
331
20A
102
}
  0
ENDTAB
  0
ENDSEC
  0
SECTION
  2
BLOCKS
  0
BLOCK
  5
20
330
1F
100
AcDbEntity
  8
0
100
AcDbBlockBegin
  2
*Model_Space
 70
     0
 10
0.0
 20
0.0
 30
0.0
  3
*Model_Space
  1

  0
ENDBLK
  5
21
330
1F
100
AcDbEntity
  8
0
100
AcDbBlockEnd
  0
BLOCK
  5
1C
330
1B
100
AcDbEntity
 67
     1
  8
0
100
AcDbBlockBegin
  2
*Paper_Space
 70
     0
 10
0.0
 20
0.0
 30
0.0
  3
*Paper_Space
  1

  0
ENDBLK
  5
1D
330
1B
100
AcDbEntity
 67
     1
  8
0
100
AcDbBlockEnd
  0
BLOCK
  5
24
330
23
100
AcDbEntity
  8
0
100
AcDbBlockBegin
  2
*Paper_Space0
 70
     0
 10
0.0
 20
0.0
 30
0.0
  3
*Paper_Space0
  1

  0
ENDBLK
  5
25
330
23
100
AcDbEntity
  8
0
100
AcDbBlockEnd
  0
BLOCK
  5
7D
330
7C
100
AcDbEntity
  8
0
100
AcDbBlockBegin
  2
圖塊6
 70
     0
 10
0.0
 20
0.0
 30
0.0
  3
圖塊6
  1

  0
ARC
  5
7F
330
7C
100
AcDbEntity
  8
圖層_1
 62
     7
370
    30
100
AcDbCircle
 10
0.765077217
 20
3.0510341446
 30
0.0
 40
0.765077216971835
100
AcDbArc
 50
130.2115225915
 51
228.588904108
  0
ARC
  5
80
330
7C
100
AcDbEntity
  8
圖層_1
 62
     7
370
    30
100
AcDbCircle
 10
2.4254567991
 20
2.9974727207
 30
0.0
 40
1.288667713408811
100
AcDbArc
 50
140.4331765613
 51
251.0865666567
  0
ARC
  5
81
330
7C
100
AcDbEntity
  8
圖層_1
 62
     7
370
    30
100
AcDbCircle
 10
2.5882520991
 20
3.1558779856
 30
0.0
 40
1.494818328884931
100
AcDbArc
 50
247.1485306747
 51
309.6030773927
  0
LINE
  5
82
330
7C
100
AcDbEntity
  8
圖層_1
 62
     7
370
    30
100
AcDbLine
 10
0.9244488634
 20
4.2660912992
 30
0.0
 11
0.271134736
 21
3.6352977609
 31
0.0
  0
LINE
  5
83
330
7C
100
AcDbEntity
  8
圖層_1
 62
     7
370
    30
100
AcDbLine
 10
0.259011445
 20
2.4772392488
 30
0.0
 11
2.2636126001
 21
0.7349373287
 31
0.0
  0
LINE
  5
84
330
7C
100
AcDbEntity
  8
圖層_1
 62
     7
370
    30
100
AcDbLine
 10
2.2636126001
 20
0.7349373287
 30
0.0
 11
1.9480866399
 21
0.4269871335
 31
0.0
  0
LINE
  5
85
330
7C
100
AcDbEntity
  8
圖層_1
 62
     7
370
    30
100
AcDbLine
 10
1.9480866399
 20
0.4269871335
 30
0.0
 11
2.4440263222
 21
0.0
 31
0.0
  0
LINE
  5
86
330
7C
100
AcDbEntity
  8
圖層_1
 62
     7
370
    30
100
AcDbLine
 10
4.0488585394
 20
1.5582889828
 30
0.0
 11
3.5411470236
 21
2.0041518466
 31
0.0
  0
LINE
  5
87
330
7C
100
AcDbEntity
  8
圖層_1
 62
     7
370
    30
100
AcDbLine
 10
1.4320457871
 20
3.8183253488
 30
0.0
 11
0.9244488634
 21
4.2660912992
 31
0.0
  0
LINE
  5
88
330
7C
100
AcDbEntity
  8
圖層_1
 62
     7
370
    30
100
AcDbLine
 10
2.4440263222
 20
0.0
 30
0.0
 11
4.0488585394
 21
1.5582889828
 31
0.0
  0
ENDBLK
  5
7E
330
7C
100
AcDbEntity
  8
0
100
AcDbBlockEnd
  0
BLOCK
  5
CF
330
CE
100
AcDbEntity
  8
0
100
AcDbBlockBegin
  2
SW_NOTE_0
 70
     0
 10
0.0
 20
0.0
 30
0.0
  3
SW_NOTE_0
  1

  0
MTEXT
  5
D1
330
CE
100
AcDbEntity
  8
0
  6
Continuous
 62
     0
370
     0
100
AcDbMText
 10
0.0
 20
1.7053291974
 30
0.0
 40
1.3229166667
 41
0.0
 71
     1
 72
     1
  1
PROPRIETARY AND CONFIDENTIAL
  7
SLDTEXTSTYLE0
 73
     1
 44
1.0
  0
MTEXT
  5
D2
330
CE
100
AcDbEntity
  8
0
  6
Continuous
 62
     0
370
     0
100
AcDbMText
 10
0.0
 20
-0.04099174
 30
0.0
 40
0.9260416667
 41
0.0
 71
     1
 72
     1
  1
THE INFORMATION CONTAINED IN THIS DRAWING IS THE SOLE PROPERTY OF UNICE E-O SERVICES INC. ANY REPRODUCTION IN PART OR AS A WHOLE WITHOUT THE WRITTEN PERMISSION OF UNICE E-O SERVICES INC IS
  7
SLDTEXTSTYLE0
 73
     1
 44
1.0
  0
MTEXT
  5
D3
330
CE
100
AcDbEntity
  8
0
  6
Continuous
 62
     0
370
     0
100
AcDbMText
 10
0.0
 20
-1.2757139473
 30
0.0
 40
0.9260416667
 41
0.0
 71
     1
 72
     1
  1
PROHIBITED.
  7
SLDTEXTSTYLE0
 73
     1
 44
1.0
  0
ENDBLK
  5
D0
330
CE
100
AcDbEntity
  8
0
100
AcDbBlockEnd
  0
BLOCK
  5
106
330
105
100
AcDbEntity
  8
0
100
AcDbBlockBegin
  2
SW_NOTE_1
 70
     0
 10
0.0
 20
0.0
 30
0.0
  3
SW_NOTE_1
  1

  0
MTEXT
  5
108
330
105
100
AcDbEntity
  8
SLD-0
 62
     0
100
AcDbMText
 10
0.0
 20
1.0231975184
 30
0.0
 40
0.79375
 41
0.0
 71
     1
 72
     1
  1
No.5, Andong Rd., Chung Li District,
  7
SLDTEXTSTYLE0
 73
     1
 44
1.0
  0
MTEXT
  5
109
330
105
100
AcDbEntity
  8
SLD-0
 62
     0
100
AcDbMText
 10
0.0
 20
-0.0351358021
 30
0.0
 40
0.79375
 41
0.0
 71
     1
 72
     1
  1
Taoyuan City 32063, Taiwan, R.O.C.
  7
SLDTEXTSTYLE0
 73
     1
 44
1.0
  0
ENDBLK
  5
107
330
105
100
AcDbEntity
  8
0
100
AcDbBlockEnd
  0
BLOCK
  5
180
330
17F
100
AcDbEntity
  8
0
100
AcDbBlockBegin
  2
_D
 70
     0
 10
0.0
 20
0.0
 30
0.0
  3
_D
  1

  0
SOLID
  5
182
330
17F
100
AcDbEntity
  8
DIM
100
AcDbTrace
 10
23.7990280126
 20
32.2743784298
 30
0.0
 11
24.7990280126
 21
32.1493784298
 31
0.0
 12
24.7990280126
 22
32.3993784298
 32
0.0
 13
24.7990280126
 23
32.3993784298
 33
0.0
  0
SOLID
  5
183
330
17F
100
AcDbEntity
  8
DIM
100
AcDbTrace
 10
72.2990280126
 20
32.2743784298
 30
0.0
 11
71.2990280126
 21
32.3993784298
 31
0.0
 12
71.2990280126
 22
32.1493784298
 32
0.0
 13
71.2990280126
 23
32.1493784298
 33
0.0
  0
LINE
  5
184
330
17F
100
AcDbEntity
  8
DIM
100
AcDbLine
 10
23.7990280126
 20
45.2743784298
 30
0.0
 11
23.7990280126
 21
31.7743784298
 31
0.0
  0
LINE
  5
185
330
17F
100
AcDbEntity
  8
DIM
100
AcDbLine
 10
72.2990280126
 20
38.7743784298
 30
0.0
 11
72.2990280126
 21
31.7743784298
 31
0.0
  0
LINE
  5
186
330
17F
100
AcDbEntity
  8
DIM
100
AcDbLine
 10
23.7990280126
 20
32.2743784298
 30
0.0
 11
72.2990280126
 21
32.2743784298
 31
0.0
  0
MTEXT
  5
187
330
17F
100
AcDbEntity
  8
DIM
100
AcDbMText
 10
46.7448527736
 20
33.8091746492
 30
0.0
 40
1.190625
 41
0.0
 71
     1
 72
     1
  1
48.5
  7
SLDTEXTSTYLE1
 73
     1
 44
1.0
  0
ENDBLK
  5
181
330
17F
100
AcDbEntity
  8
0
100
AcDbBlockEnd
  0
BLOCK
  5
18A
330
189
100
AcDbEntity
  8
0
100
AcDbBlockBegin
  2
_D_1
 70
     0
 10
0.0
 20
0.0
 30
0.0
  3
_D_1
  1

  0
SOLID
  5
18C
330
189
100
AcDbEntity
  8
DIM
100
AcDbTrace
 10
62.7990280126
 20
34.7743784298
 30
0.0
 11
63.7990280126
 21
34.6493784298
 31
0.0
 12
63.7990280126
 22
34.8993784298
 32
0.0
 13
63.7990280126
 23
34.8993784298
 33
0.0
  0
SOLID
  5
18D
330
189
100
AcDbEntity
  8
DIM
100
AcDbTrace
 10
72.2990280126
 20
34.7743784298
 30
0.0
 11
71.2990280126
 21
34.8993784298
 31
0.0
 12
71.2990280126
 22
34.6493784298
 32
0.0
 13
71.2990280126
 23
34.6493784298
 33
0.0
  0
LINE
  5
18E
330
189
100
AcDbEntity
  8
DIM
100
AcDbLine
 10
62.7990280126
 20
40.7743784298
 30
0.0
 11
62.7990280126
 21
34.2743784298
 31
0.0
  0
LINE
  5
18F
330
189
100
AcDbEntity
  8
DIM
100
AcDbLine
 10
72.2990280126
 20
38.7743784298
 30
0.0
 11
72.2990280126
 21
34.2743784298
 31
0.0
  0
LINE
  5
190
330
189
100
AcDbEntity
  8
DIM
100
AcDbLine
 10
62.7990280126
 20
34.7743784298
 30
0.0
 11
72.2990280126
 21
34.7743784298
 31
0.0
  0
MTEXT
  5
191
330
189
100
AcDbEntity
  8
DIM
100
AcDbMText
 10
66.617474179
 20
36.3091746492
 30
0.0
 40
1.190625
 41
0.0
 71
     1
 72
     1
  1
9.5
  7
SLDTEXTSTYLE1
 73
     1
 44
1.0
  0
ENDBLK
  5
18B
330
189
100
AcDbEntity
  8
0
100
AcDbBlockEnd
  0
BLOCK
  5
194
330
193
100
AcDbEntity
  8
0
100
AcDbBlockBegin
  2
_D_2
 70
     0
 10
0.0
 20
0.0
 30
0.0
  3
_D_2
  1

  0
SOLID
  5
196
330
193
100
AcDbEntity
  8
DIM
100
AcDbTrace
 10
38.7990280126
 20
34.7743784298
 30
0.0
 11
39.7990280126
 21
34.6493784298
 31
0.0
 12
39.7990280126
 22
34.8993784298
 32
0.0
 13
39.7990280126
 23
34.8993784298
 33
0.0
  0
SOLID
  5
197
330
193
100
AcDbEntity
  8
DIM
100
AcDbTrace
 10
50.7990280126
 20
34.7743784298
 30
0.0
 11
49.7990280126
 21
34.8993784298
 31
0.0
 12
49.7990280126
 22
34.6493784298
 32
0.0
 13
49.7990280126
 23
34.6493784298
 33
0.0
  0
LINE
  5
198
330
193
100
AcDbEntity
  8
DIM
100
AcDbLine
 10
38.7990280126
 20
41.0243784298
 30
0.0
 11
38.7990280126
 21
34.2743784298
 31
0.0
  0
LINE
  5
199
330
193
100
AcDbEntity
  8
DIM
100
AcDbLine
 10
50.7990280126
 20
41.0243784298
 30
0.0
 11
50.7990280126
 21
34.2743784298
 31
0.0
  0
LINE
  5
19A
330
193
100
AcDbEntity
  8
DIM
100
AcDbLine
 10
38.7990280126
 20
34.7743784298
 30
0.0
 11
50.7990280126
 21
34.7743784298
 31
0.0
  0
MTEXT
  5
19B
330
193
100
AcDbEntity
  8
DIM
100
AcDbMText
 10
44.053784969
 20
36.3091746492
 30
0.0
 40
1.190625
 41
0.0
 71
     1
 72
     1
  1
12
  7
SLDTEXTSTYLE1
 73
     1
 44
1.0
  0
ENDBLK
  5
195
330
193
100
AcDbEntity
  8
0
100
AcDbBlockEnd
  0
BLOCK
  5
19E
330
19D
100
AcDbEntity
  8
0
100
AcDbBlockBegin
  2
_D_3
 70
     0
 10
0.0
 20
0.0
 30
0.0
  3
_D_3
  1

  0
SOLID
  5
1A0
330
19D
100
AcDbEntity
  8
DIM
100
AcDbTrace
 10
20.2990280126
 20
50.5243784298
 30
0.0
 11
20.1740280126
 21
49.5243784298
 31
0.0
 12
20.4240280126
 22
49.5243784298
 32
0.0
 13
20.4240280126
 23
49.5243784298
 33
0.0
  0
SOLID
  5
1A1
330
19D
100
AcDbEntity
  8
DIM
100
AcDbTrace
 10
20.2990280126
 20
41.0243784298
 30
0.0
 11
20.4240280126
 21
42.0243784298
 31
0.0
 12
20.1740280126
 22
42.0243784298
 32
0.0
 13
20.1740280126
 23
42.0243784298
 33
0.0
  0
LINE
  5
1A2
330
19D
100
AcDbEntity
  8
DIM
100
AcDbLine
 10
39.2990280126
 20
50.5243784298
 30
0.0
 11
19.7990280126
 21
50.5243784298
 31
0.0
  0
LINE
  5
1A3
330
19D
100
AcDbEntity
  8
DIM
100
AcDbLine
 10
39.2990280126
 20
41.0243784298
 30
0.0
 11
19.7990280126
 21
41.0243784298
 31
0.0
  0
LINE
  5
1A4
330
19D
100
AcDbEntity
  8
DIM
100
AcDbLine
 10
20.2990280126
 20
50.5243784298
 30
0.0
 11
20.2990280126
 21
41.0243784298
 31
0.0
  0
MTEXT
  5
1A5
330
19D
100
AcDbEntity
  8
DIM
100
AcDbMText
 10
18.7642316768
 20
44.0887621023
 30
0.0
 40
1.190625
 41
0.0
 71
     1
 72
     1
  1
%%c
  7
SLDTEXTSTYLE1
 11
-7.044195017643634E-15
 21
1.0
 31
0.0
 73
     1
 44
1.0
  0
MTEXT
  5
1A6
330
19D
100
AcDbEntity
  8
DIM
100
AcDbMText
 10
18.7642316768
 20
45.5968870899
 30
0.0
 40
1.190625
 41
0.0
 71
     1
 72
     1
  1
9.5
  7
SLDTEXTSTYLE1
 11
-7.044195017643634E-15
 21
1.0
 31
0.0
 73
     1
 44
1.0
  0
ENDBLK
  5
19F
330
19D
100
AcDbEntity
  8
0
100
AcDbBlockEnd
  0
BLOCK
  5
1A8
330
1A7
100
AcDbEntity
  8
0
100
AcDbBlockBegin
  2
SW_NOTE_2
 70
     0
 10
0.0
 20
0.0
 30
0.0
  3
SW_NOTE_2
  1

  0
LINE
  5
1AA
330
1A7
100
AcDbEntity
  8
DIM
 62
     0
100
AcDbLine
 10
9.5862578588
 20
0.0
 30
0.0
 11
0.0
 21
0.0
 31
0.0
  0
MTEXT
  5
1AB
330
1A7
100
AcDbEntity
  8
DIM
 62
     0
100
AcDbMText
 10
0.2024308752
 20
1.5819931537
 30
0.0
 40
1.190625
 41
0.0
 71
     1
 72
     1
  1
M6x0.125 THD
  7
SLDTEXTSTYLE1
 73
     1
 44
1.0
  0
ENDBLK
  5
1A9
330
1A7
100
AcDbEntity
  8
0
100
AcDbBlockEnd
  0
BLOCK
  5
1EA
330
1E9
100
AcDbEntity
  8
0
100
AcDbBlockBegin
  2
_D_4
 70
     0
 10
0.0
 20
0.0
 30
0.0
  3
_D_4
  1

  0
ARC
  5
1EC
330
1E9
100
AcDbEntity
  8
DIM
100
AcDbCircle
 10
100.7988873734
 20
45.7743784298
 30
0.0
 40
7.499999999999975
100
AcDbArc
 50
129.6861481778
 51
138.4802851399
  0
SOLID
  5
1ED
330
1E9
100
AcDbEntity
  8
DIM
100
AcDbTrace
 10
95.5265719287
 20
51.108484714
 30
0.0
 11
94.9124983075
 21
51.9075708094
 31
0.0
 12
94.7346947647
 22
51.7318269612
 32
0.0
 13
94.7346947647
 23
51.7318269612
 33
0.0
  0
LINE
  5
1EE
330
1E9
100
AcDbEntity
  8
DIM
100
AcDbLine
 10
95.5265719287
 20
51.108484714
 30
0.0
 11
90.0821338981
 21
56.6167308382
 31
0.0
  0
LINE
  5
1EF
330
1E9
100
AcDbEntity
  8
DIM
100
AcDbLine
 10
90.0821338981
 20
56.6167308382
 30
0.0
 11
86.4585229396
 21
56.6167308382
 31
0.0
  0
MTEXT
  5
1F0
330
1E9
100
AcDbEntity
  8
DIM
100
AcDbMText
 10
86.4585229396
 20
58.1515271741
 30
0.0
 40
1.190625
 41
0.0
 71
     1
 72
     1
  1
%%c
  7
SLDTEXTSTYLE1
 73
     1
 44
1.0
  0
MTEXT
  5
1F1
330
1E9
100
AcDbEntity
  8
DIM
100
AcDbMText
 10
87.9666479272
 20
58.1515271741
 30
0.0
 40
1.190625
 41
0.0
 71
     1
 72
     1
  1
15
  7
SLDTEXTSTYLE1
 73
     1
 44
1.0
  0
ENDBLK
  5
1EB
330
1E9
100
AcDbEntity
  8
0
100
AcDbBlockEnd
  0
BLOCK
  5
1F5
330
1F4
100
AcDbEntity
  8
0
100
AcDbBlockBegin
  2
_D_5
 70
     0
 10
0.0
 20
0.0
 30
0.0
  3
_D_5
  1

  0
SOLID
  5
1F7
330
1F4
100
AcDbEntity
  8
DIM
100
AcDbTrace
 10
108.0157657383
 20
35.2743784298
 30
0.0
 11
108.9442911421
 21
35.6661252543
 31
0.0
 12
108.8192911421
 22
35.8826316053
 32
0.0
 13
108.8192911421
 23
35.8826316053
 33
0.0
  0
SOLID
  5
1F8
330
1F4
100
AcDbEntity
  8
DIM
100
AcDbTrace
 10
106.2837149307
 20
34.2743784298
 30
0.0
 11
105.3551895269
 21
33.8826316053
 31
0.0
 12
105.4801895269
 22
33.6661252543
 32
0.0
 13
105.4801895269
 23
33.6661252543
 33
0.0
  0
LINE
  5
1F9
330
1F4
100
AcDbEntity
  8
DIM
100
AcDbLine
 10
102.2035879118
 20
45.3413657279
 30
0.0
 11
108.2657657383
 21
34.8413657279
 31
0.0
  0
LINE
  5
1FA
330
1F4
100
AcDbEntity
  8
DIM
100
AcDbLine
 10
100.4715371042
 20
44.3413657279
 30
0.0
 11
106.5337149307
 21
33.8413657279
 31
0.0
  0
LINE
  5
1FB
330
1F4
100
AcDbEntity
  8
DIM
100
AcDbLine
 10
108.0157657383
 20
35.2743784298
 30
0.0
 11
109.314803844
 21
36.0243784298
 31
0.0
  0
LINE
  5
1FC
330
1F4
100
AcDbEntity
  8
DIM
100
AcDbLine
 10
108.0157657383
 20
35.2743784298
 30
0.0
 11
106.2837149307
 21
34.2743784298
 31
0.0
  0
LINE
  5
1FD
330
1F4
100
AcDbEntity
  8
DIM
100
AcDbLine
 10
106.2837149307
 20
34.2743784298
 30
0.0
 11
104.984676825
 21
33.5243784298
 31
0.0
  0
MTEXT
  5
1FE
330
1F4
100
AcDbEntity
  8
DIM
100
AcDbMText
 10
106.0596425209
 20
35.9172401846
 30
0.0
 40
1.190625
 41
0.0
 71
     1
 72
     1
  1
2
  7
SLDTEXTSTYLE1
 11
0.8660254037844349
 21
0.5000000000000064
 31
0.0
 73
     1
 44
1.0
  0
ENDBLK
  5
1F6
330
1F4
100
AcDbEntity
  8
0
100
AcDbBlockEnd
  0
BLOCK
  5
200
330
1FF
100
AcDbEntity
  8
0
100
AcDbBlockBegin
  2
SW_CENTERMARKSYMBOL_0
 70
     0
 10
0.0
 20
0.0
 30
0.0
  3
SW_CENTERMARKSYMBOL_0
  1

  0
LINE
  5
202
330
1FF
100
AcDbEntity
  8
DIM
 62
     0
100
AcDbLine
 10
0.0
 20
0.0
 30
0.0
 11
0.0
 21
1.0
 31
0.0
  0
LINE
  5
203
330
1FF
100
AcDbEntity
  8
DIM
 62
     0
100
AcDbLine
 10
0.0
 20
0.0
 30
0.0
 11
-1.0
 21
0.0
 31
0.0
  0
LINE
  5
204
330
1FF
100
AcDbEntity
  8
DIM
 62
     0
100
AcDbLine
 10
0.0
 20
0.0
 30
0.0
 11
0.0
 21
-1.0
 31
0.0
  0
LINE
  5
205
330
1FF
100
AcDbEntity
  8
DIM
 62
     0
100
AcDbLine
 10
0.0
 20
0.0
 30
0.0
 11
1.0
 21
0.0
 31
0.0
  0
LINE
  5
206
330
1FF
100
AcDbEntity
  8
DIM
 62
     0
100
AcDbLine
 10
0.0
 20
2.0
 30
0.0
 11
0.0
 21
8.5
 31
0.0
  0
LINE
  5
207
330
1FF
100
AcDbEntity
  8
DIM
 62
     0
100
AcDbLine
 10
-2.0
 20
0.0
 30
0.0
 11
-8.5
 21
0.0
 31
0.0
  0
LINE
  5
208
330
1FF
100
AcDbEntity
  8
DIM
 62
     0
100
AcDbLine
 10
0.0
 20
-2.0
 30
0.0
 11
0.0
 21
-8.5
 31
0.0
  0
LINE
  5
209
330
1FF
100
AcDbEntity
  8
DIM
 62
     0
100
AcDbLine
 10
2.0
 20
0.0
 30
0.0
 11
8.5
 21
0.0
 31
0.0
  0
ENDBLK
  5
201
330
1FF
100
AcDbEntity
  8
0
100
AcDbBlockEnd
  0
ENDSEC
  0
SECTION
  2
ENTITIES
  0
HATCH
  5
89
330
1F
100
AcDbEntity
  8
0
  6
Continuous
 62
     7
100
AcDbHatch
 10
0.0
 20
0.0
 30
0.0
210
0.0
220
0.0
230
1.0
  2
SOLID
 70
     1
 71
     0
 91
        1
 92
        0
 93
       10
 72
     2
 10
96.07029828146834
 20
17.87790440494428
 40
1.494818328884929
 50
50.39692260731407
 51
112.8514693252983
 73
     0
 72
     2
 10
95.907502981406
 20
17.71949914003102
 40
1.288667713408809
 50
108.9134333432861
 51
219.5668234386827
 73
     0
 72
     1
 10
94.91409196948017
 20
18.54035176807505
 11
94.40649504577894
 21
18.98811771848393
 72
     1
 10
94.40649504577894
 20
18.98811771848393
 11
93.75318091833812
 21
18.35732418023018
 72
     2
 10
94.24712339931945
 20
17.77306056386223
 40
0.7650772169718307
 50
130.2115225915088
 51
228.5889041080191
 73
     1
 72
     1
 10
93.7410576273255
 20
17.19926566814989
 11
95.7456587824233
 21
15.45696374801255
 72
     1
 10
95.7456587824233
 20
15.45696374801255
 11
95.43013282221574
 21
15.14901355277703
 72
     1
 10
95.43013282221574
 20
15.14901355277703
 11
95.92607250457851
 21
14.72202641930012
 72
     1
 10
95.92607250457851
 20
14.72202641930012
 11
97.53090472176115
 21
16.28031540205786
 72
     1
 10
97.53090472176115
 20
16.28031540205786
 11
97.02319320593206
 21
16.72617826592441
 97
        0
 75
     0
 76
     1
 98
        1
 10
0.0
 20
0.0
  0
HATCH
  5
8A
330
1F
100
AcDbEntity
  8
0
  6
Continuous
 62
     1
100
AcDbHatch
 10
0.0
 20
0.0
 30
0.0
210
0.0
220
0.0
230
1.0
  2
SOLID
 70
     1
 71
     0
 91
        1
 92
        0
 93
       10
 72
     2
 10
96.29462278138442
 20
17.83153457815805
 40
1.288783744173125
 50
317.8184992995785
 51
398.0564711573078
 73
     0
 72
     1
 10
97.30941570290815
 20
17.03707950348723
 11
97.80214014939956
 21
16.60773103354249
 72
     1
 10
97.80214014939956
 20
16.60773103354249
 11
98.42298080679645
 21
17.2099475047461
 72
     2
 10
97.97628464396539
 20
17.82392087065656
 40
0.7592764687091326
 50
306.0377529468138
 51
403.4396461533871
 73
     1
 72
     1
 10
98.52759457630154
 20
18.34599185667563
 11
96.46421664712989
 21
20.14057999099261
 72
     1
 10
96.46421664712989
 20
20.14057999099261
 11
96.77634229809352
 21
20.44510920641128
 72
     1
 10
96.77634229809352
 20
20.44510920641128
 11
96.3110890430015
 21
20.86020531633353
 72
     1
 10
96.3110890430015
 20
20.86020531633353
 11
94.69329631879657
 21
19.29674519302649
 72
     1
 10
94.69329631879657
 20
19.29674519302649
 11
95.20450025747084
 21
18.85084992946609
 72
     2
 10
96.13579463602218
 20
17.56112367541896
 40
1.590818352263938
 50
234.1674444878512
 51
314.4407074583994
 73
     0
 97
        0
 75
     0
 76
     1
 98
        1
 10
0.0
 20
0.0
  0
LINE
  5
8B
330
1F
100
AcDbEntity
  8
0
  6
Continuous
 62
     7
370
     0
100
AcDbLine
 10
83.9296887592
 20
8.8872596256
 30
0.0
 11
84.4296887592
 21
8.8872596256
 31
0.0
  0
LINE
  5
8C
330
1F
100
AcDbEntity
  8
0
  6
Continuous
 62
     7
370
     0
100
AcDbLine
 10
82.4296887592
 20
8.8872596256
 30
0.0
 11
83.6796887592
 21
8.8872596256
 31
0.0
  0
LINE
  5
8D
330
1F
100
AcDbEntity
  8
0
  6
Continuous
 62
     7
370
     0
100
AcDbLine
 10
90.6796887592
 20
7.6372596256
 30
0.0
 11
90.6796887592
 21
10.1372596256
 31
0.0
  0
LINE
  5
8E
330
1F
100
AcDbEntity
  8
0
  6
Continuous
 62
     7
370
     0
100
AcDbLine
 10
87.1796887592
 20
8.1372596256
 30
0.0
 11
90.6796887592
 21
7.6372596256
 31
0.0
  0
LINE
  5
8F
330
1F
100
AcDbEntity
  8
0
  6
Continuous
 62
     7
370
     0
100
AcDbLine
 10
84.1796887592
 20
8.3872596256
 30
0.0
 11
84.1796887592
 21
7.1372596256
 31
0.0
  0
LINE
  5
90
330
1F
100
AcDbEntity
  8
0
  6
Continuous
 62
     7
370
     0
100
AcDbLine
 10
90.6796887592
 20
10.1372596256
 30
0.0
 11
87.1796887592
 21
9.6372596256
 31
0.0
  0
LINE
  5
91
330
1F
100
AcDbEntity
  8
0
  6
Continuous
 62
     7
370
     0
100
AcDbLine
 10
86.6796887592
 20
8.8872596256
 30
0.0
 11
91.1796887592
 21
8.8872596256
 31
0.0
  0
LINE
  5
92
330
1F
100
AcDbEntity
  8
0
  6
Continuous
 62
     7
370
     0
100
AcDbLine
 10
84.1796887592
 20
9.1372596256
 30
0.0
 11
84.1796887592
 21
8.6372596256
 31
0.0
  0
LINE
  5
93
330
1F
100
AcDbEntity
  8
0
  6
Continuous
 62
     7
370
     0
100
AcDbLine
 10
84.6796887592
 20
8.8872596256
 30
0.0
 11
85.9296887592
 21
8.8872596256
 31
0.0
  0
LINE
  5
94
330
1F
100
AcDbEntity
  8
0
  6
Continuous
 62
     7
370
     0
100
AcDbLine
 10
84.1796887592
 20
10.6372596256
 30
0.0
 11
84.1796887592
 21
9.3872596256
 31
0.0
  0
LINE
  5
95
330
1F
100
AcDbEntity
  8
0
  6
Continuous
 62
     7
370
     0
100
AcDbLine
 10
87.1796887592
 20
9.6372596256
 30
0.0
 11
87.1796887592
 21
8.1372596256
 31
0.0
  0
LINE
  5
96
330
1F
100
AcDbEntity
  8
工作區域參考線
 62
     1
370
    30
100
AcDbLine
 10
95.2045002575
 20
18.8508499295
 30
0.0
 11
94.6932963188
 21
19.296745193
 31
0.0
  0
LINE
  5
97
330
1F
100
AcDbEntity
  8
工作區域參考線
 62
     1
370
    30
100
AcDbLine
 10
94.6932963188
 20
19.296745193
 30
0.0
 11
96.311089043
 21
20.8602053163
 31
0.0
  0
LINE
  5
98
330
1F
100
AcDbEntity
  8
工作區域參考線
 62
     1
370
    30
100
AcDbLine
 10
96.311089043
 20
20.8602053163
 30
0.0
 11
96.7763422981
 21
20.4451092064
 31
0.0
  0
LINE
  5
99
330
1F
100
AcDbEntity
  8
工作區域參考線
 62
     1
370
    30
100
AcDbLine
 10
96.7763422981
 20
20.4451092064
 30
0.0
 11
96.4642166471
 21
20.140579991
 31
0.0
  0
LINE
  5
9A
330
1F
100
AcDbEntity
  8
工作區域參考線
 62
     1
370
    30
100
AcDbLine
 10
96.4642166471
 20
20.140579991
 30
0.0
 11
98.5275945763
 21
18.3459918567
 31
0.0
  0
LINE
  5
9B
330
1F
100
AcDbEntity
  8
工作區域參考線
 62
     1
370
    30
100
AcDbLine
 10
97.3094157029
 20
17.0370795035
 30
0.0
 11
97.8021401494
 21
16.6077310335
 31
0.0
  0
LINE
  5
9C
330
1F
100
AcDbEntity
  8
工作區域參考線
 62
     1
370
    30
100
AcDbLine
 10
97.8021401494
 20
16.6077310335
 30
0.0
 11
98.4229808068
 21
17.2099475047
 31
0.0
  0
LINE
  5
9D
330
1F
100
AcDbEntity
  8
0
  6
Continuous
 62
     7
370
     0
100
AcDbLine
 10
92.8453982605
 20
6.557623204
 30
0.0
 11
142.8453982605
 21
6.557623204
 31
0.0
  0
LINE
  5
9E
330
1F
100
AcDbEntity
  8
0
  6
Continuous
 62
     7
370
     0
100
AcDbLine
 10
92.8453982605
 20
9.057623204
 30
0.0
 11
117.8453982605
 21
9.057623204
 31
0.0
  0
LINE
  5
9F
330
1F
100
AcDbEntity
  8
0
  6
Continuous
 62
     7
370
     0
100
AcDbLine
 10
92.8453982605
 20
11.557623204
 30
0.0
 11
117.8453982605
 21
11.557623204
 31
0.0
  0
LINE
  5
A0
330
1F
100
AcDbEntity
  8
0
  6
Continuous
 62
     7
370
     0
100
AcDbLine
 10
92.8453982605
 20
14.057623204
 30
0.0
 11
142.8453982605
 21
14.057623204
 31
0.0
  0
LINE
  5
A1
330
1F
100
AcDbEntity
  8
0
  6
Continuous
 62
     7
370
     0
100
AcDbLine
 10
117.8453982605
 20
16.557623204
 30
0.0
 11
142.8453982605
 21
16.557623204
 31
0.0
  0
LINE
  5
A2
330
1F
100
AcDbEntity
  8
0
  6
Continuous
 62
     7
370
    15
100
AcDbLine
 10
117.8453982605
 20
9.057623204
 30
0.0
 11
142.8453982605
 21
9.057623204
 31
0.0
  0
LINE
  5
A3
330
1F
100
AcDbEntity
  8
0
  6
Continuous
 62
     7
370
     0
100
AcDbLine
 10
92.8453982605
 20
21.557623204
 30
0.0
 11
142.8453982605
 21
21.557623204
 31
0.0
  0
LINE
  5
A4
330
1F
100
AcDbEntity
  8
0
  6
Continuous
 62
     7
370
     0
100
AcDbLine
 10
125.6186088375
 20
4.057623204
 30
0.0
 11
125.6186088375
 21
9.057623204
 31
0.0
  0
LINE
  5
A5
330
1F
100
AcDbEntity
  8
0
  6
Continuous
 62
     7
370
     0
100
AcDbLine
 10
117.8453982605
 20
4.057623204
 30
0.0
 11
117.8453982605
 21
21.557623204
 31
0.0
  0
LINE
  5
A6
330
1F
100
AcDbEntity
  8
0
  6
Continuous
 62
     7
370
     0
100
AcDbLine
 10
125.6186088375
 20
14.057623204
 30
0.0
 11
125.6186088375
 21
16.557623204
 31
0.0
  0
LINE
  5
A7
330
1F
100
AcDbEntity
  8
0
  6
Continuous
 62
     7
370
     0
100
AcDbLine
 10
107.2082043177
 20
4.057623204
 30
0.0
 11
107.2082043177
 21
14.057623204
 31
0.0
  0
LINE
  5
A8
330
1F
100
AcDbEntity
  8
0
  6
Continuous
 62
     7
370
     0
100
AcDbLine
 10
99.8892943753
 20
4.057623204
 30
0.0
 11
99.8892943753
 21
14.057623204
 31
0.0
  0
LINE
  5
A9
330
1F
100
AcDbEntity
  8
0
  6
Continuous
 62
     7
370
     0
100
AcDbLine
 10
92.8453982605
 20
4.057623204
 30
0.0
 11
92.8453982605
 21
21.557623204
 31
0.0
  0
LINE
  5
AA
330
1F
100
AcDbEntity
  8
0
  6
Continuous
 62
     7
370
    15
100
AcDbLine
 10
21.6603982605
 20
100.6860137875
 30
0.0
 11
21.6603982605
 21
101.4360137875
 31
0.0
  0
LINE
  5
AB
330
1F
100
AcDbEntity
  8
0
  6
Continuous
 62
     7
370
    15
100
AcDbLine
 10
38.9753982605
 20
100.6860137875
 30
0.0
 11
38.9753982605
 21
101.4360137875
 31
0.0
  0
LINE
  5
AC
330
1F
100
AcDbEntity
  8
0
  6
Continuous
 62
     7
370
    15
100
AcDbLine
 10
56.2903982605
 20
100.6860137875
 30
0.0
 11
56.2903982605
 21
101.4360137875
 31
0.0
  0
LINE
  5
AD
330
1F
100
AcDbEntity
  8
0
  6
Continuous
 62
     7
370
    15
100
AcDbLine
 10
73.6053982605
 20
100.6860137875
 30
0.0
 11
73.6053982605
 21
101.4360137875
 31
0.0
  0
LINE
  5
AE
330
1F
100
AcDbEntity
  8
0
  6
Continuous
 62
     7
370
    15
100
AcDbLine
 10
90.9203982605
 20
100.6860137875
 30
0.0
 11
90.9203982605
 21
101.4360137875
 31
0.0
  0
LINE
  5
AF
330
1F
100
AcDbEntity
  8
0
  6
Continuous
 62
     7
370
    15
100
AcDbLine
 10
108.2353982605
 20
100.6860137875
 30
0.0
 11
108.2353982605
 21
101.4360137875
 31
0.0
  0
LINE
  5
B0
330
1F
100
AcDbEntity
  8
0
  6
Continuous
 62
     7
370
    15
100
AcDbLine
 10
125.5503982605
 20
100.6860137875
 30
0.0
 11
125.5503982605
 21
101.4360137875
 31
0.0
  0
LINE
  5
B1
330
1F
100
AcDbEntity
  8
0
  6
Continuous
 62
     7
370
    15
100
AcDbLine
 10
21.6578982605
 20
4.057623204
 30
0.0
 11
21.6578982605
 21
3.307623204
 31
0.0
  0
LINE
  5
B2
330
1F
100
AcDbEntity
  8
0
  6
Continuous
 62
     7
370
    15
100
AcDbLine
 10
38.9703982605
 20
4.057623204
 30
0.0
 11
38.9703982605
 21
3.307623204
 31
0.0
  0
LINE
  5
B3
330
1F
100
AcDbEntity
  8
0
  6
Continuous
 62
     7
370
    15
100
AcDbLine
 10
56.2828982605
 20
4.057623204
 30
0.0
 11
56.2828982605
 21
3.307623204
 31
0.0
  0
LINE
  5
B4
330
1F
100
AcDbEntity
  8
0
  6
Continuous
 62
     7
370
    15
100
AcDbLine
 10
73.5953982605
 20
4.057623204
 30
0.0
 11
73.5953982605
 21
3.307623204
 31
0.0
  0
LINE
  5
B5
330
1F
100
AcDbEntity
  8
0
  6
Continuous
 62
     7
370
    15
100
AcDbLine
 10
90.9078982605
 20
4.057623204
 30
0.0
 11
90.9078982605
 21
3.307623204
 31
0.0
  0
LINE
  5
B6
330
1F
100
AcDbEntity
  8
0
  6
Continuous
 62
     7
370
    15
100
AcDbLine
 10
108.2203982605
 20
4.057623204
 30
0.0
 11
108.2203982605
 21
3.307623204
 31
0.0
  0
LINE
  5
B7
330
1F
100
AcDbEntity
  8
0
  6
Continuous
 62
     7
370
     0
100
AcDbLine
 10
142.8453982605
 20
100.6860137875
 30
0.0
 11
4.3453982605
 21
100.6860137875
 31
0.0
  0
LINE
  5
B8
330
1F
100
AcDbEntity
  8
0
  6
Continuous
 62
     7
370
     0
100
AcDbLine
 10
142.8453982605
 20
4.057623204
 30
0.0
 11
142.8453982605
 21
100.6860137875
 31
0.0
  0
LINE
  5
B9
330
1F
100
AcDbEntity
  8
0
  6
Continuous
 62
     7
370
     0
100
AcDbLine
 10
4.3453982605
 20
100.6860137875
 30
0.0
 11
4.3453982605
 21
4.057623204
 31
0.0
  0
LINE
  5
BA
330
1F
100
AcDbEntity
  8
0
  6
Continuous
 62
     7
370
     0
100
AcDbLine
 10
4.3453982605
 20
4.057623204
 30
0.0
 11
142.8453982605
 21
4.057623204
 31
0.0
  0
LINE
  5
BB
330
1F
100
AcDbEntity
  8
0
  6
Continuous
 62
     7
370
    15
100
AcDbLine
 10
125.5328982605
 20
4.057623204
 30
0.0
 11
125.5328982605
 21
3.307623204
 31
0.0
  0
LINE
  5
BC
330
1F
100
AcDbEntity
  8
0
  6
Continuous
 62
     7
370
    15
100
AcDbLine
 10
4.3453982605
 20
20.162623204
 30
0.0
 11
3.5953982605
 21
20.162623204
 31
0.0
  0
LINE
  5
BD
330
1F
100
AcDbEntity
  8
0
  6
Continuous
 62
     7
370
    15
100
AcDbLine
 10
4.3453982605
 20
36.267623204
 30
0.0
 11
3.5953982605
 21
36.267623204
 31
0.0
  0
LINE
  5
BE
330
1F
100
AcDbEntity
  8
0
  6
Continuous
 62
     7
370
    15
100
AcDbLine
 10
4.3453982605
 20
52.372623204
 30
0.0
 11
3.5953982605
 21
52.372623204
 31
0.0
  0
LINE
  5
BF
330
1F
100
AcDbEntity
  8
0
  6
Continuous
 62
     7
370
    15
100
AcDbLine
 10
4.3453982605
 20
68.477623204
 30
0.0
 11
3.5953982605
 21
68.477623204
 31
0.0
  0
LINE
  5
C0
330
1F
100
AcDbEntity
  8
0
  6
Continuous
 62
     7
370
    15
100
AcDbLine
 10
4.3453982605
 20
84.582623204
 30
0.0
 11
3.5953982605
 21
84.582623204
 31
0.0
  0
LINE
  5
C1
330
1F
100
AcDbEntity
  8
0
  6
Continuous
 62
     7
370
    15
100
AcDbLine
 10
142.8453982605
 20
20.162623204
 30
0.0
 11
143.5953982605
 21
20.162623204
 31
0.0
  0
LINE
  5
C2
330
1F
100
AcDbEntity
  8
0
  6
Continuous
 62
     7
370
    15
100
AcDbLine
 10
142.8453982605
 20
36.267623204
 30
0.0
 11
143.5953982605
 21
36.267623204
 31
0.0
  0
LINE
  5
C3
330
1F
100
AcDbEntity
  8
0
  6
Continuous
 62
     7
370
    15
100
AcDbLine
 10
142.8453982605
 20
52.372623204
 30
0.0
 11
143.5953982605
 21
52.372623204
 31
0.0
  0
LINE
  5
C4
330
1F
100
AcDbEntity
  8
0
  6
Continuous
 62
     7
370
    15
100
AcDbLine
 10
142.8453982605
 20
68.477623204
 30
0.0
 11
143.5953982605
 21
68.477623204
 31
0.0
  0
LINE
  5
C5
330
1F
100
AcDbEntity
  8
0
  6
Continuous
 62
     7
370
    15
100
AcDbLine
 10
142.8453982605
 20
84.582623204
 30
0.0
 11
143.5953982605
 21
84.582623204
 31
0.0
  0
CIRCLE
  5
C6
330
1F
100
AcDbEntity
  8
0
  6
Continuous
 62
     7
370
     0
100
AcDbCircle
 10
84.1796887592
 20
8.8872596256
 30
0.0
 40
0.75
  0
CIRCLE
  5
C7
330
1F
100
AcDbEntity
  8
0
  6
Continuous
 62
     7
370
     0
100
AcDbCircle
 10
84.1796887592
 20
8.8872596256
 30
0.0
 40
1.25
  0
ARC
  5
C8
330
1F
100
AcDbEntity
  8
工作區域參考線
 62
     1
370
    30
100
AcDbCircle
 10
97.976284644
 20
17.8239208707
 30
0.0
 40
0.7592764687091375
100
AcDbArc
 50
306.0377529468
 51
43.4396461534
  0
ARC
  5
C9
330
1F
100
AcDbEntity
  8
工作區域參考線
 62
     1
370
    30
100
AcDbCircle
 10
96.135794636
 20
17.5611236754
 30
0.0
 40
1.590818352263945
100
AcDbArc
 50
45.5592925416
 51
125.8325555121
  0
ARC
  5
CA
330
1F
100
AcDbEntity
  8
工作區域參考線
 62
     1
370
    30
100
AcDbCircle
 10
96.2946227814
 20
17.8315345782
 30
0.0
 40
1.288783744173133
100
AcDbArc
 50
321.9435288427
 51
42.1815007004
  0
INSERT
  5
CB
330
1F
100
AcDbEntity
  8
0
  6
Continuous
 62
     7
100
AcDbBlockReference
  2
圖塊6
 10
93.4820461823
 20
14.7220264193
 30
0.0
  0
MTEXT
  5
CD
330
1F
100
AcDbEntity
  8
0
  6
Continuous
 62
     7
370
     0
100
AcDbMText
 10
82.7713425402
 20
6.6104220185
 30
0.0
 40
1.3229166667
 41
0.0
 71
     1
 72
     1
  1
UNIT:m/m
  7
SLDTEXTSTYLE0
 73
     1
 44
1.0
  0
INSERT
  5
D4
330
1F
100
AcDbEntity
  8
0
  6
Continuous
 62
     7
370
     0
100
AcDbBlockReference
  2
SW_NOTE_0
 10
6.1157538027
 20
96.9452152126
 30
0.0
  0
MTEXT
  5
D5
330
1F
100
AcDbEntity
  8
0
  6
Continuous
 62
     7
370
     0
100
AcDbMText
 10
99.3625946967
 20
20.2203387069
 30
0.0
 40
1.190625
 41
0.0
 71
     1
 72
     1
  1
Unice E-O Services Inc.
  7
SLDTEXTSTYLE0
 73
     1
 44
1.0
  0
MTEXT
  5
D6
330
1F
100
AcDbEntity
  8
0
  6
Continuous
 62
     7
370
     0
100
AcDbMText
 10
108.7795269075
 20
10.7933574255
 30
0.0
 40
0.9260416667
 41
0.0
 71
     1
 72
     1
  1
2018/9/12
  7
SLDTEXTSTYLE0
 73
     1
 44
1.0
  0
MTEXT
  5
D7
330
1F
100
AcDbEntity
  8
0
  6
Continuous
 62
     7
370
     0
100
AcDbMText
 10
126.3044491253
 20
8.43558887
 30
0.0
 40
1.25
 41
0.0
 71
     1
 72
     1
  1
2:1
  7
SLDTEXTSTYLE0
 73
     1
 44
1.0
  0
MTEXT
  5
D8
330
1F
100
AcDbEntity
  8
0
  6
Continuous
 62
     7
370
     0
100
AcDbMText
 10
126.1537799992
 20
16.0759597719
 30
0.0
 40
1.25
 41
0.0
 71
     1
 72
     1
  1
07AST-1
  7
SLDTEXTSTYLE0
 73
     1
 44
1.0
  0
MTEXT
  5
D9
330
1F
100
AcDbEntity
  8
0
  6
Continuous
 62
     7
370
     0
100
AcDbMText
 10
126.1537799992
 20
19.0541058939
 30
0.0
 40
1.25
 41
0.0
 71
     1
 72
     1
  1
07AST-1
  7
SLDTEXTSTYLE0
 73
     1
 44
1.0
  0
MTEXT
  5
DA
330
1F
100
AcDbEntity
  8
0
  6
Continuous
 62
     7
370
     0
100
AcDbMText
 10
118.1960933393
 20
8.2532397864
 30
0.0
 40
1.0583333333
 41
0.0
 71
     1
 72
     1
  1
SCALE:
  7
SLDTEXTSTYLE0
 73
     1
 44
1.0
  0
MTEXT
  5
DB
330
1F
100
AcDbEntity
  8
0
  6
Continuous
 62
     7
370
     0
100
AcDbMText
 10
93.1668043395
 20
10.7933574255
 30
0.0
 40
0.9260416667
 41
0.0
 71
     1
 72
     1
  1
DRAWN
  7
SLDTEXTSTYLE0
 73
     1
 44
1.0
  0
MTEXT
  5
DC
330
1F
100
AcDbEntity
  8
0
  6
Continuous
 62
     7
370
     0
100
AcDbMText
 10
101.6114183968
 20
13.341604154
 30
0.0
 40
0.9260416667
 41
0.0
 71
     1
 72
     1
  1
NAME
  7
SLDTEXTSTYLE0
 73
     1
 44
1.0
  0
MTEXT
  5
DD
330
1F
100
AcDbEntity
  8
0
  6
Continuous
 62
     7
370
     0
100
AcDbMText
 10
110.4355077879
 20
13.341604154
 30
0.0
 40
0.9260416667
 41
0.0
 71
     1
 72
     1
  1
DATE
  7
SLDTEXTSTYLE0
 73
     1
 44
1.0
  0
MTEXT
  5
DE
330
1F
100
AcDbEntity
  8
0
  6
Continuous
 62
     7
370
     0
100
AcDbMText
 10
118.1378158323
 20
15.8936106883
 30
0.0
 40
1.0583333333
 41
0.0
 71
     1
 72
     1
  1
DWG. NO.
  7
SLDTEXTSTYLE0
 73
     1
 44
1.0
  0
MTEXT
  5
DF
330
1F
100
AcDbEntity
  8
0
  6
Continuous
 62
     7
370
     0
100
AcDbMText
 10
118.1814953544
 20
20.9420329122
 30
0.0
 40
1.0583333333
 41
0.0
 71
     1
 72
     1
  1
TITLE:
  7
SLDTEXTSTYLE0
 73
     1
 44
1.0
  0
MTEXT
  5
E0
330
1F
100
AcDbEntity
  8
0
  6
Continuous
 62
     7
370
     0
100
AcDbMText
 10
101.5157104901
 20
8.1201894862
 30
0.0
 40
0.9260416667
 41
0.0
 71
     1
 72
     1
  1
Johnny
  7
SLDTEXTSTYLE0
 73
     1
 44
1.0
  0
MTEXT
  5
E1
330
1F
100
AcDbEntity
  8
0
  6
Continuous
 62
     7
370
     0
100
AcDbMText
 10
108.7795269075
 20
8.1201894862
 30
0.0
 40
0.9260416667
 41
0.0
 71
     1
 72
     1
  1
2018/9/12
  7
SLDTEXTSTYLE0
 73
     1
 44
1.0
  0
MTEXT
  5
E2
330
1F
100
AcDbEntity
  8
0
  6
Continuous
 62
     7
370
     0
100
AcDbMText
 10
93.1668043395
 20
8.1201894862
 30
0.0
 40
0.9260416667
 41
0.0
 71
     1
 72
     1
  1
ENG APPR.
  7
SLDTEXTSTYLE0
 73
     1
 44
1.0
  0
MTEXT
  5
E3
330
1F
100
AcDbEntity
  8
0
  6
Continuous
 62
     7
370
     0
100
AcDbMText
 10
118.1960933393
 20
5.8426694644
 30
0.0
 40
1.0583333333
 41
0.0
 71
     1
 72
     1
  1
REV
  7
SLDTEXTSTYLE0
 73
     1
 44
1.0
  0
MTEXT
  5
E4
330
1F
100
AcDbEntity
  8
0
  6
Continuous
 62
     7
370
     0
100
AcDbMText
 10
118.1814953544
 20
13.4746544542
 30
0.0
 40
1.0583333333
 41
0.0
 71
     1
 72
     1
  1
MATERIAL:
  7
SLDTEXTSTYLE0
 73
     1
 44
1.0
  0
MTEXT
  5
E5
330
1F
100
AcDbEntity
  8
0
  6
Continuous
 62
     7
370
     0
100
AcDbMText
 10
126.3044491253
 20
11.1087568093
 30
0.0
 40
1.25
 41
0.0
 71
     1
 72
     1
  1
N/A
  7
SLDTEXTSTYLE0
 73
     1
 44
1.0
  0
MTEXT
  5
E6
330
1F
100
AcDbEntity
  8
0
  6
Continuous
 62
     7
370
     0
100
AcDbMText
 10
13.3014965767
 20
102.2266758285
 30
0.0
 40
1.0583333333
 41
0.0
 71
     1
 72
     1
  1
1
  7
SLDTEXTSTYLE0
 73
     1
 44
1.0
  0
MTEXT
  5
E7
330
1F
100
AcDbEntity
  8
0
  6
Continuous
 62
     7
370
     0
100
AcDbMText
 10
30.3585497862
 20
102.2266758285
 30
0.0
 40
1.0583333333
 41
0.0
 71
     1
 72
     1
  1
2
  7
SLDTEXTSTYLE0
 73
     1
 44
1.0
  0
MTEXT
  5
E8
330
1F
100
AcDbEntity
  8
0
  6
Continuous
 62
     7
370
     0
100
AcDbMText
 10
47.4504971953
 20
102.2266758285
 30
0.0
 40
1.0583333333
 41
0.0
 71
     1
 72
     1
  1
3
  7
SLDTEXTSTYLE0
 73
     1
 44
1.0
  0
MTEXT
  5
E9
330
1F
100
AcDbEntity
  8
0
  6
Continuous
 62
     7
370
     0
100
AcDbMText
 10
64.6266681426
 20
102.1496292182
 30
0.0
 40
1.0583333333
 41
0.0
 71
     1
 72
     1
  1
4
  7
SLDTEXTSTYLE0
 73
     1
 44
1.0
  0
MTEXT
  5
EA
330
1F
100
AcDbEntity
  8
0
  6
Continuous
 62
     7
370
     0
100
AcDbMText
 10
81.851161732
 20
102.2266758285
 30
0.0
 40
1.0583333333
 41
0.0
 71
     1
 72
     1
  1
5
  7
SLDTEXTSTYLE0
 73
     1
 44
1.0
  0
MTEXT
  5
EB
330
1F
100
AcDbEntity
  8
0
  6
Continuous
 62
     7
370
     0
100
AcDbMText
 10
99.3191085208
 20
102.2266758285
 30
0.0
 40
1.0583333333
 41
0.0
 71
     1
 72
     1
  1
6
  7
SLDTEXTSTYLE0
 73
     1
 44
1.0
  0
MTEXT
  5
EC
330
1F
100
AcDbEntity
  8
0
  6
Continuous
 62
     7
370
     0
100
AcDbMText
 10
117.1815328703
 20
102.2266758285
 30
0.0
 40
1.0583333333
 41
0.0
 71
     1
 72
     1
  1
7
  7
SLDTEXTSTYLE0
 73
     1
 44
1.0
  0
MTEXT
  5
ED
330
1F
100
AcDbEntity
  8
0
  6
Continuous
 62
     7
370
     0
100
AcDbMText
 10
133.1393910247
 20
102.2266758285
 30
0.0
 40
1.0583333333
 41
0.0
 71
     1
 72
     1
  1
8
  7
SLDTEXTSTYLE0
 73
     1
 44
1.0
  0
MTEXT
  5
EE
330
1F
100
AcDbEntity
  8
0
  6
Continuous
 62
     7
370
     0
100
AcDbMText
 10
2.6784118277
 20
92.905651144
 30
0.0
 40
1.0583333333
 41
0.0
 71
     1
 72
     1
  1
A
  7
SLDTEXTSTYLE0
 73
     1
 44
1.0
  0
MTEXT
  5
EF
330
1F
100
AcDbEntity
  8
0
  6
Continuous
 62
     7
370
     0
100
AcDbMText
 10
2.7955215916
 20
77.1496524119
 30
0.0
 40
1.0583333333
 41
0.0
 71
     1
 72
     1
  1
B
  7
SLDTEXTSTYLE0
 73
     1
 44
1.0
  0
MTEXT
  5
F0
330
1F
100
AcDbEntity
  8
0
  6
Continuous
 62
     7
370
     0
100
AcDbMText
 10
2.7955215916
 20
60.6371757115
 30
0.0
 40
1.0583333333
 41
0.0
 71
     1
 72
     1
  1
C
  7
SLDTEXTSTYLE0
 73
     1
 44
1.0
  0
MTEXT
  5
F1
330
1F
100
AcDbEntity
  8
0
  6
Continuous
 62
     7
370
     0
100
AcDbMText
 10
2.7955215916
 20
44.372661011
 30
0.0
 40
1.0583333333
 41
0.0
 71
     1
 72
     1
  1
D
  7
SLDTEXTSTYLE0
 73
     1
 44
1.0
  0
MTEXT
  5
F2
330
1F
100
AcDbEntity
  8
0
  6
Continuous
 62
     7
370
     0
100
AcDbMText
 10
2.7955215916
 20
28.7779424599
 30
0.0
 40
1.0583333333
 41
0.0
 71
     1
 72
     1
  1
E
  7
SLDTEXTSTYLE0
 73
     1
 44
1.0
  0
MTEXT
  5
F3
330
1F
100
AcDbEntity
  8
0
  6
Continuous
 62
     7
370
     0
100
AcDbMText
 10
2.7955215916
 20
12.7847106126
 30
0.0
 40
1.0583333333
 41
0.0
 71
     1
 72
     1
  1
F
  7
SLDTEXTSTYLE0
 73
     1
 44
1.0
  0
MTEXT
  5
F4
330
1F
100
AcDbEntity
  8
0
  6
Continuous
 62
     7
370
     0
100
AcDbMText
 10
133.0929308482
 20
3.3118111982
 30
0.0
 40
1.0583333333
 41
0.0
 71
     1
 72
     1
  1
8
  7
SLDTEXTSTYLE0
 73
     1
 44
1.0
  0
MTEXT
  5
F5
330
1F
100
AcDbEntity
  8
0
  6
Continuous
 62
     7
370
     0
100
AcDbMText
 10
117.1350726938
 20
3.3118111982
 30
0.0
 40
1.0583333333
 41
0.0
 71
     1
 72
     1
  1
7
  7
SLDTEXTSTYLE0
 73
     1
 44
1.0
  0
MTEXT
  5
F6
330
1F
100
AcDbEntity
  8
0
  6
Continuous
 62
     7
370
     0
100
AcDbMText
 10
99.2726483442
 20
3.3118111982
 30
0.0
 40
1.0583333333
 41
0.0
 71
     1
 72
     1
  1
6
  7
SLDTEXTSTYLE0
 73
     1
 44
1.0
  0
MTEXT
  5
F7
330
1F
100
AcDbEntity
  8
0
  6
Continuous
 62
     7
370
     0
100
AcDbMText
 10
81.8047015555
 20
3.3118111982
 30
0.0
 40
1.0583333333
 41
0.0
 71
     1
 72
     1
  1
5
  7
SLDTEXTSTYLE0
 73
     1
 44
1.0
  0
MTEXT
  5
F8
330
1F
100
AcDbEntity
  8
0
  6
Continuous
 62
     7
370
     0
100
AcDbMText
 10
64.580207966
 20
3.2347645879
 30
0.0
 40
1.0583333333
 41
0.0
 71
     1
 72
     1
  1
4
  7
SLDTEXTSTYLE0
 73
     1
 44
1.0
  0
MTEXT
  5
F9
330
1F
100
AcDbEntity
  8
0
  6
Continuous
 62
     7
370
     0
100
AcDbMText
 10
47.4040370188
 20
3.3118111982
 30
0.0
 40
1.0583333333
 41
0.0
 71
     1
 72
     1
  1
3
  7
SLDTEXTSTYLE0
 73
     1
 44
1.0
  0
MTEXT
  5
FA
330
1F
100
AcDbEntity
  8
0
  6
Continuous
 62
     7
370
     0
100
AcDbMText
 10
30.3120896097
 20
3.3118111982
 30
0.0
 40
1.0583333333
 41
0.0
 71
     1
 72
     1
  1
2
  7
SLDTEXTSTYLE0
 73
     1
 44
1.0
  0
MTEXT
  5
FB
330
1F
100
AcDbEntity
  8
0
  6
Continuous
 62
     7
370
     0
100
AcDbMText
 10
13.2550364001
 20
3.3118111982
 30
0.0
 40
1.0583333333
 41
0.0
 71
     1
 72
     1
  1
1
  7
SLDTEXTSTYLE0
 73
     1
 44
1.0
  0
MTEXT
  5
FC
330
1F
100
AcDbEntity
  8
0
  6
Continuous
 62
     7
370
     0
100
AcDbMText
 10
143.5511923072
 20
93.3212454546
 30
0.0
 40
1.0583333333
 41
0.0
 71
     1
 72
     1
  1
A
  7
SLDTEXTSTYLE0
 73
     1
 44
1.0
  0
MTEXT
  5
FD
330
1F
100
AcDbEntity
  8
0
  6
Continuous
 62
     7
370
     0
100
AcDbMText
 10
143.6683020711
 20
77.5652467225
 30
0.0
 40
1.0583333333
 41
0.0
 71
     1
 72
     1
  1
B
  7
SLDTEXTSTYLE0
 73
     1
 44
1.0
  0
MTEXT
  5
FE
330
1F
100
AcDbEntity
  8
0
  6
Continuous
 62
     7
370
     0
100
AcDbMText
 10
143.6683020711
 20
61.0527700221
 30
0.0
 40
1.0583333333
 41
0.0
 71
     1
 72
     1
  1
C
  7
SLDTEXTSTYLE0
 73
     1
 44
1.0
  0
MTEXT
  5
FF
330
1F
100
AcDbEntity
  8
0
  6
Continuous
 62
     7
370
     0
100
AcDbMText
 10
143.6683020711
 20
44.7882553217
 30
0.0
 40
1.0583333333
 41
0.0
 71
     1
 72
     1
  1
D
  7
SLDTEXTSTYLE0
 73
     1
 44
1.0
  0
MTEXT
  5
100
330
1F
100
AcDbEntity
  8
0
  6
Continuous
 62
     7
370
     0
100
AcDbMText
 10
143.6683020711
 20
29.1935367705
 30
0.0
 40
1.0583333333
 41
0.0
 71
     1
 72
     1
  1
E
  7
SLDTEXTSTYLE0
 73
     1
 44
1.0
  0
MTEXT
  5
101
330
1F
100
AcDbEntity
  8
0
  6
Continuous
 62
     7
370
     0
100
AcDbMText
 10
143.6683020711
 20
13.2003049232
 30
0.0
 40
1.0583333333
 41
0.0
 71
     1
 72
     1
  1
F
  7
SLDTEXTSTYLE0
 73
     1
 44
1.0
  0
MTEXT
  5
102
330
1F
100
AcDbEntity
  8
0
  6
Continuous
 62
     7
370
     0
100
AcDbMText
 10
101.5776564401
 20
10.7933574255
 30
0.0
 40
0.9260416667
 41
0.0
 71
     1
 72
     1
  1
Sky
  7
SLDTEXTSTYLE0
 73
     1
 44
1.0
  0
MTEXT
  5
104
330
1F
100
AcDbEntity
  8
0
  6
Continuous
 62
     7
370
     0
100
AcDbMText
 10
126.4241119823
 20
6.1109801659
 30
0.0
 40
1.190625
 41
0.0
 71
     1
 72
     1
  1
0
  7
SLDTEXTSTYLE1
 73
     1
 44
1.0
  0
INSERT
  5
10A
330
1F
100
AcDbEntity
  8
SLD-0
 62
     7
100
AcDbBlockReference
  2
SW_NOTE_1
 10
99.3625946967
 20
16.7739872606
 30
0.0
  0
ARC
  5
10B
330
1F
100
AcDbEntity
  8
0
  6
Continuous
 62
     7
370
    30
100
AcDbCircle
 10
71.2990280126
 20
52.2743784298
 30
0.0
 40
1.0
100
AcDbArc
 50
0.0
 51
90.0
  0
ARC
  5
10C
330
1F
100
AcDbEntity
  8
0
  6
Continuous
 62
     7
370
    30
100
AcDbCircle
 10
71.2990280126
 20
39.2743784298
 30
0.0
 40
1.0
100
AcDbArc
 50
270.0
 51
360.0
  0
ARC
  5
10D
330
1F
100
AcDbEntity
  8
0
  6
Continuous
 62
     7
370
    30
100
AcDbCircle
 10
65.2990280126
 20
52.2743784298
 30
0.0
 40
1.0
100
AcDbArc
 50
90.0
 51
180.0
  0
ARC
  5
10E
330
1F
100
AcDbEntity
  8
0
  6
Continuous
 62
     7
370
    30
100
AcDbCircle
 10
65.2990280126
 20
39.2743784298
 30
0.0
 40
1.0
100
AcDbArc
 50
180.0
 51
270.0
  0
LINE
  5
10F
330
1F
100
AcDbEntity
  8
0
  6
Continuous
 62
     7
370
    30
100
AcDbLine
 10
64.2990280424
 20
50.2743782361
 30
0.0
 11
62.7990277966
 21
50.2743782361
 31
0.0
  0
LINE
  5
110
330
1F
100
AcDbEntity
  8
0
  6
Continuous
 62
     7
370
    30
100
AcDbLine
 10
62.7990277966
 20
41.2743786235
 30
0.0
 11
64.2990280424
 21
41.2743786235
 31
0.0
  0
LINE
  5
111
330
1F
100
AcDbEntity
  8
0
  6
Continuous
 62
     7
370
    30
100
AcDbLine
 10
65.0767666769
 20
38.9034059715
 30
0.0
 11
71.5213221514
 21
38.9034059715
 31
0.0
  0
LINE
  5
112
330
1F
100
AcDbEntity
  8
0
  6
Continuous
 62
     7
370
    30
100
AcDbLine
 10
71.5212894387
 20
52.6453508881
 30
0.0
 11
65.0767340806
 21
52.6453508881
 31
0.0
  0
LINE
  5
113
330
1F
100
AcDbEntity
  8
0
  6
Continuous
 62
     7
370
    30
100
AcDbLine
 10
65.2990282064
 20
38.2743785974
 30
0.0
 11
71.2990280257
 21
38.2743785974
 31
0.0
  0
LINE
  5
114
330
1F
100
AcDbEntity
  8
0
  6
Continuous
 62
     7
370
    30
100
AcDbLine
 10
71.2990280257
 20
53.2743782621
 30
0.0
 11
65.2990282064
 21
53.2743782621
 31
0.0
  0
LINE
  5
115
330
1F
100
AcDbEntity
  8
0
  6
Continuous
 62
     7
370
    30
100
AcDbLine
 10
50.2990276103
 20
41.0243785825
 30
0.0
 11
50.7990286236
 21
41.5243781988
 31
0.0
  0
LINE
  5
116
330
1F
100
AcDbEntity
  8
0
  6
Continuous
 62
     7
370
    30
100
AcDbLine
 10
50.7990286236
 20
50.0243786608
 30
0.0
 11
50.2990276103
 21
50.524378277
 31
0.0
  0
LINE
  5
117
330
1F
100
AcDbEntity
  8
0
  6
Continuous
 62
     7
370
    30
100
AcDbLine
 10
50.2990276103
 20
50.524378277
 30
0.0
 11
39.7990286832
 21
50.524378277
 31
0.0
  0
LINE
  5
118
330
1F
100
AcDbEntity
  8
0
  6
Continuous
 62
     7
370
    30
100
AcDbLine
 10
39.7990286832
 20
41.0243785825
 30
0.0
 11
50.2990276103
 21
41.0243785825
 31
0.0
  0
LINE
  5
119
330
1F
100
AcDbEntity
  8
0
  6
Continuous
 62
     7
370
    30
100
AcDbLine
 10
39.2740272467
 20
50.4993783195
 30
0.0
 11
38.7990285193
 21
50.0243786608
 31
0.0
  0
LINE
  5
11A
330
1F
100
AcDbEntity
  8
0
  6
Continuous
 62
     7
370
    30
100
AcDbLine
 10
38.7990285193
 20
41.5243781988
 30
0.0
 11
39.2740272467
 21
41.0493785401
 31
0.0
  0
LINE
  5
11B
330
1F
100
AcDbEntity
  8
0
  6
Continuous
 62
     7
370
    30
100
AcDbLine
 10
39.2740272467
 20
41.0493785401
 30
0.0
 11
39.7990286832
 21
41.0493785401
 31
0.0
  0
LINE
  5
11C
330
1F
100
AcDbEntity
  8
0
  6
Continuous
 62
     7
370
    30
100
AcDbLine
 10
39.7990286832
 20
50.4993783195
 30
0.0
 11
39.2740272467
 21
50.4993783195
 31
0.0
  0
ARC
  5
11D
330
1F
100
AcDbEntity
  8
0
  6
Continuous
 62
     7
370
    30
100
AcDbCircle
 10
25.7990280126
 20
45.7743784298
 30
0.0
 40
2.000000000000005
100
AcDbArc
 50
92.8659839826
 51
267.1340160174
  0
LINE
  5
11E
330
1F
100
AcDbEntity
  8
0
  6
Continuous
 62
     7
370
    30
100
AcDbLine
 10
27.1990295981
 20
42.7743784037
 30
0.0
 11
38.7990285193
 21
42.7743784037
 31
0.0
  0
LINE
  5
11F
330
1F
100
AcDbEntity
  8
0
  6
Continuous
 62
     7
370
    30
100
AcDbLine
 10
50.7990286236
 20
42.7743784037
 30
0.0
 11
62.7990277966
 21
42.7743784037
 31
0.0
  0
LINE
  5
120
330
1F
100
AcDbEntity
  8
0
  6
Continuous
 62
     7
370
    30
100
AcDbLine
 10
62.7990277966
 20
48.7743784559
 30
0.0
 11
50.7990286236
 21
48.7743784559
 31
0.0
  0
LINE
  5
121
330
1F
100
AcDbEntity
  8
0
  6
Continuous
 62
     7
370
    30
100
AcDbLine
 10
38.7990285193
 20
48.7743784559
 30
0.0
 11
27.1990295981
 21
48.7743784559
 31
0.0
  0
LINE
  5
122
330
1F
100
AcDbEntity
  8
0
  6
Continuous
 62
     7
370
    30
100
AcDbLine
 10
27.1990295981
 20
48.7743784559
 30
0.0
 11
25.6990265583
 21
47.8743783549
 31
0.0
  0
LINE
  5
123
330
1F
100
AcDbEntity
  8
0
  6
Continuous
 62
     7
370
    30
100
AcDbLine
 10
25.6990265583
 20
43.6743785047
 30
0.0
 11
27.1990295981
 21
42.7743784037
 31
0.0
  0
SPLINE
  5
124
330
1F
100
AcDbEntity
  8
0
  6
Continuous
 62
     7
370
    30
100
AcDbSpline
210
0.0
220
0.0
230
1.0
 70
     8
 71
     3
 72
    11
 73
     7
 74
     0
 42
0.000000001
 43
0.00000001
 40
0.0
 40
0.0
 40
0.0
 40
0.0
 40
0.0126403895492425
 40
0.3925855185270429
 40
0.6934707453453031
 40
1.0
 40
1.0
 40
1.0
 40
1.0
 10
71.29902802567474
 20
53.23502429543367
 30
0.0
 10
71.3008681808113
 20
53.2349156261853
 30
0.0
 10
71.3580197627025
 20
53.23154057409089
 30
0.0
 10
71.45908515412293
 20
53.21613399903323
 30
0.0
 10
71.60172427096262
 20
53.17390516389354
 30
0.0
 10
71.6872916433749
 20
53.13229073029751
 30
0.0
 10
71.73047287083708
 20
53.11129017515412
 30
0.0
  0
SPLINE
  5
125
330
1F
100
AcDbEntity
  8
0
  6
Continuous
 62
     7
370
    30
100
AcDbSpline
210
0.0
220
0.0
230
1.0
 70
     8
 71
     3
 72
    11
 73
     7
 74
     0
 42
0.000000001
 43
0.00000001
 40
0.0
 40
0.0
 40
0.0
 40
0.0
 40
0.3006411705908424
 40
0.6074153695933168
 40
0.9873596390462781
 40
1.0
 40
1.0
 40
1.0
 40
1.0
 10
71.73047287083708
 20
38.43746668441526
 30
0.0
 10
71.68812938018084
 20
38.41684063257874
 30
0.0
 10
71.60257859890798
 20
38.37516776097934
 30
0.0
 10
71.45994115005688
 20
38.33275025486496
 30
0.0
 10
71.35801977760153
 20
38.31721630732922
 30
0.0
 10
71.30086818127607
 20
38.31384123406568
 30
0.0
 10
71.29902802567474
 20
38.31373256413571
 30
0.0
  0
SPLINE
  5
126
330
1F
100
AcDbEntity
  8
0
  6
Continuous
 62
     7
370
    30
100
AcDbSpline
210
0.0
220
0.0
230
1.0
 70
     8
 71
     3
 72
    23
 73
    19
 74
     0
 42
0.000000001
 43
0.00000001
 40
0.0
 40
0.0
 40
0.0
 40
0.0
 40
0.0315418133804745
 40
0.0870776007979788
 40
0.1441407887321152
 40
0.201472522446745
 40
0.2601144384700282
 40
0.3251812620886683
 40
0.3915793965037234
 40
0.4693361281072628
 40
0.548897376338517
 40
0.6354686413131578
 40
0.7248236235499975
 40
0.7894080434145683
 40
0.8557222556071468
 40
0.9203891294588011
 40
0.9874606261526838
 40
1.0
 40
1.0
 40
1.0
 40
1.0
 10
71.73047287083708
 20
38.43746668441526
 30
0.0
 10
71.75058597452602
 20
38.44880478129799
 30
0.0
 10
71.80611229423089
 20
38.48010590727492
 30
0.0
 10
71.88760142556532
 20
38.5408009622114
 30
0.0
 10
71.96876729640202
 20
38.61814358094426
 30
0.0
 10
72.03477564245574
 20
38.69888655427429
 30
0.0
 10
72.08739502929542
 20
38.78056814943294
 30
0.0
 10
72.12635075712075
 20
38.85919188401915
 30
0.0
 10
72.15328858819711
 20
38.93369379347816
 30
0.0
 10
72.1665155141696
 20
38.99665690894032
 30
0.0
 10
72.16468212133799
 20
39.04328473494592
 30
0.0
 10
72.1444807735838
 20
39.06671882157958
 30
0.0
 10
72.1035599377153
 20
39.06344538325062
 30
0.0
 10
72.04356339244934
 20
39.04217201245354
 30
0.0
 10
71.97045851559409
 20
39.01208720886194
 30
0.0
 10
71.87472440763884
 20
38.97475533904205
 30
0.0
 10
71.78985579147913
 20
38.94656082819505
 30
0.0
 10
71.73855342067193
 20
38.9324030771063
 30
0.0
 10
71.73047287083708
 20
38.93017311362854
 30
0.0
  0
SPLINE
  5
127
330
1F
100
AcDbEntity
  8
0
  6
Continuous
 62
     7
370
    30
100
AcDbSpline
210
0.0
220
0.0
230
1.0
 70
     8
 71
     3
 72
    12
 73
     8
 74
     0
 42
0.000000001
 43
0.00000001
 40
0.0
 40
0.0
 40
0.0
 40
0.0
 40
0.0126368009503189
 40
0.2021427977646515
 40
0.3927541335201069
 40
0.6935558704987989
 40
1.0
 40
1.0
 40
1.0
 40
1.0
 10
71.29902802567474
 20
38.92961571706763
 30
0.0
 10
71.30086818476775
 20
38.92919839533736
 30
0.0
 10
71.3303040292394
 20
38.92252276734747
 30
0.0
 10
71.38752321419942
 20
38.91200052513894
 30
0.0
 10
71.48637809911513
 20
38.90221799547587
 30
0.0
 10
71.60173979321051
 20
38.9025018617733
 30
0.0
 10
71.68729685261995
 20
38.92089240274817
 30
0.0
 10
71.73047287083708
 20
38.93017311362854
 30
0.0
  0
LINE
  5
128
330
1F
100
AcDbEntity
  8
0
  6
Continuous
 62
     7
370
    30
100
AcDbLine
 10
71.2990280257
 20
38.9296157171
 30
0.0
 11
71.2990280257
 21
39.6969235387
 31
0.0
  0
SPLINE
  5
129
330
1F
100
AcDbEntity
  8
0
  6
Continuous
 62
     7
370
    30
100
AcDbSpline
210
0.0
220
0.0
230
1.0
 70
     8
 71
     3
 72
    11
 73
     7
 74
     0
 42
0.000000001
 43
0.00000001
 40
0.0
 40
0.0
 40
0.0
 40
0.0
 40
0.3006410161183429
 40
0.6074152980870307
 40
0.9873597539148651
 40
1.0
 40
1.0
 40
1.0
 40
1.0
 10
71.73047287083708
 20
39.91067976473204
 30
0.0
 10
71.68812938565173
 20
39.88408872573573
 30
0.0
 10
71.60257858154664
 20
39.83036417382019
 30
0.0
 10
71.45994095046028
 20
39.75752093287451
 30
0.0
 10
71.35802031800003
 20
39.71633733668403
 30
0.0
 10
71.30086818160738
 20
39.69752911640816
 30
0.0
 10
71.29902802567474
 20
39.69692353872887
 30
0.0
  0
SPLINE
  5
12A
330
1F
100
AcDbEntity
  8
0
  6
Continuous
 62
     7
370
    30
100
AcDbSpline
210
0.0
220
0.0
230
1.0
 70
     8
 71
     3
 72
    16
 73
    12
 74
     0
 42
0.000000001
 43
0.00000001
 40
0.0
 40
0.0
 40
0.0
 40
0.0
 40
0.0316438684956394
 40
0.1442296676122068
 40
0.2602597443776804
 40
0.3918268020132801
 40
0.5492075378286991
 40
0.7249904854135452
 40
0.8558656200540019
 40
0.9874200162773556
 40
1.0
 40
1.0
 40
1.0
 40
1.0
 10
71.73047287083708
 20
39.91067976473204
 30
0.0
 10
71.75056940734724
 20
39.92463891520891
 30
0.0
 10
71.84216746153008
 20
39.98826336219158
 30
0.0
 10
71.97834253261506
 20
40.14074073787386
 30
0.0
 10
72.09768769962943
 20
40.38333579122941
 30
0.0
 10
72.16190047499458
 20
40.65453967529861
 30
0.0
 10
72.17266720500693
 20
40.92438975772767
 30
0.0
 10
72.11954978185956
 20
41.12059312946284
 30
0.0
 10
71.9808110198225
 20
41.22473303828859
 30
0.0
 10
71.83112156000563
 20
41.24992791662479
 30
0.0
 10
71.73855227620749
 20
41.25622899947465
 30
0.0
 10
71.73047287083708
 20
41.25677895514599
 30
0.0
  0
SPLINE
  5
12B
330
1F
100
AcDbEntity
  8
0
  6
Continuous
 62
     7
370
    30
100
AcDbSpline
210
0.0
220
0.0
230
1.0
 70
     8
 71
     3
 72
    12
 73
     8
 74
     0
 42
0.000000001
 43
0.00000001
 40
0.0
 40
0.0
 40
0.0
 40
0.0
 40
0.0126367659214775
 40
0.2021429449866483
 40
0.3927542455896953
 40
0.6935557535826551
 40
1.0
 40
1.0
 40
1.0
 40
1.0
 10
71.29902802567474
 20
41.37954729391566
 30
0.0
 10
71.30086818502951
 20
41.37871581915452
 30
0.0
 10
71.33030413672222
 20
41.36541520427057
 30
0.0
 10
71.3875231144361
 20
41.34113206619744
 30
0.0
 10
71.48637808659376
 20
41.30508119458367
 30
0.0
 10
71.60173988019801
 20
41.27147423115731
 30
0.0
 10
71.68729686555115
 20
41.26170763202666
 30
0.0
 10
71.73047287083708
 20
41.25677895514599
 30
0.0
  0
LINE
  5
12C
330
1F
100
AcDbEntity
  8
0
  6
Continuous
 62
     7
370
    30
100
AcDbLine
 10
71.2990280257
 20
41.3795472939
 30
0.0
 11
71.2990280257
 21
42.7085634672
 31
0.0
  0
SPLINE
  5
12D
330
1F
100
AcDbEntity
  8
0
  6
Continuous
 62
     7
370
    30
100
AcDbSpline
210
0.0
220
0.0
230
1.0
 70
     8
 71
     3
 72
    11
 73
     7
 74
     0
 42
0.000000001
 43
0.00000001
 40
0.0
 40
0.0
 40
0.0
 40
0.0
 40
0.3006409947654731
 40
0.6074153397200557
 40
0.9873597171249172
 40
1.0
 40
1.0
 40
1.0
 40
1.0
 10
71.73047287083708
 20
42.95506615905396
 30
0.0
 10
71.68812937673023
 20
42.9296350980729
 30
0.0
 10
71.60257854266018
 20
42.87825415929807
 30
0.0
 10
71.4599410545514
 20
42.79450331246298
 30
0.0
 10
71.35802014198799
 20
42.73870503048576
 30
0.0
 10
71.30086818149485
 20
42.70950368048769
 30
0.0
 10
71.29902802567474
 20
42.70856346717409
 30
0.0
  0
SPLINE
  5
12E
330
1F
100
AcDbEntity
  8
0
  6
Continuous
 62
     7
370
    30
100
AcDbSpline
210
0.0
220
0.0
230
1.0
 70
     8
 71
     3
 72
    16
 73
    12
 74
     0
 42
0.000000001
 43
0.00000001
 40
0.0
 40
0.0
 40
0.0
 40
0.0
 40
0.0316439023683922
 40
0.1442296392122166
 40
0.2602597571169638
 40
0.3918267963987368
 40
0.5492075488168273
 40
0.7249905281661598
 40
0.8558655637042016
 40
0.9874200196384919
 40
1.0
 40
1.0
 40
1.0
 40
1.0
 10
71.73047287083708
 20
42.95506615905396
 30
0.0
 10
71.75056940383578
 20
42.96789661937949
 30
0.0
 10
71.84216732592758
 20
43.02637653257528
 30
0.0
 10
71.97834266082859
 20
43.17182303228884
 30
0.0
 10
72.0976876412739
 20
43.42305181207846
 30
0.0
 10
72.16190050307597
 20
43.7343473603089
 30
0.0
 10
72.17266717344023
 20
44.09069326756754
 30
0.0
 10
72.11954988436071
 20
44.41379905297836
 30
0.0
 10
71.98081086271556
 20
44.65309012618756
 30
0.0
 10
71.83112162469892
 20
44.75422601792798
 30
0.0
 10
71.73855227651013
 20
44.7906893904691
 30
0.0
 10
71.73047287083708
 20
44.79387189509652
 30
0.0
  0
SPLINE
  5
12F
330
1F
100
AcDbEntity
  8
0
  6
Continuous
 62
     7
370
    30
100
AcDbSpline
210
0.0
220
0.0
230
1.0
 70
     8
 71
     3
 72
    11
 73
     7
 74
     0
 42
0.000000001
 43
0.00000001
 40
0.0
 40
0.0
 40
0.0
 40
0.0
 40
0.0126403895492425
 40
0.3925855185270429
 40
0.6934707453453031
 40
1.0
 40
1.0
 40
1.0
 40
1.0
 10
71.29902802567474
 20
45.00707072453878
 30
0.0
 10
71.3008681808113
 20
45.00604775637266
 30
0.0
 10
71.3580197627025
 20
44.97427638679834
 30
0.0
 10
71.45908515412293
 20
44.91928326342186
 30
0.0
 10
71.60172427096262
 20
44.84701370517654
 30
0.0
 10
71.6872916433749
 20
44.81169522359139
 30
0.0
 10
71.73047287083708
 20
44.79387189509652
 30
0.0
  0
LINE
  5
130
330
1F
100
AcDbEntity
  8
0
  6
Continuous
 62
     7
370
    30
100
AcDbLine
 10
71.2990280257
 20
45.0070707245
 30
0.0
 11
71.2990280257
 21
46.541686135
 31
0.0
  0
SPLINE
  5
131
330
1F
100
AcDbEntity
  8
0
  6
Continuous
 62
     7
370
    30
100
AcDbSpline
210
0.0
220
0.0
230
1.0
 70
     8
 71
     3
 72
    11
 73
     7
 74
     0
 42
0.000000001
 43
0.00000001
 40
0.0
 40
0.0
 40
0.0
 40
0.0
 40
0.3006411705908424
 40
0.6074153695933168
 40
0.9873596390462781
 40
1.0
 40
1.0
 40
1.0
 40
1.0
 10
71.73047287083708
 20
46.75488496447286
 30
0.0
 10
71.68812938018084
 20
46.73742813795883
 30
0.0
 10
71.60257859890798
 20
46.70215836865839
 30
0.0
 10
71.45994115005688
 20
46.62994060060122
 30
0.0
 10
71.35801977760153
 20
46.5744804731105
 30
0.0
 10
71.30086818127607
 20
46.54270910320732
 30
0.0
 10
71.29902802567474
 20
46.5416861350306
 30
0.0
  0
SPLINE
  5
132
330
1F
100
AcDbEntity
  8
0
  6
Continuous
 62
     7
370
    30
100
AcDbSpline
210
0.0
220
0.0
230
1.0
 70
     8
 71
     3
 72
    16
 73
    12
 74
     0
 42
0.000000001
 43
0.00000001
 40
0.0
 40
0.0
 40
0.0
 40
0.0
 40
0.0316439063519371
 40
0.1442296805743742
 40
0.2602597424006518
 40
0.3918268013376485
 40
0.5492075570427526
 40
0.7249905339600109
 40
0.8558655874203588
 40
0.9874200393315994
 40
1.0
 40
1.0
 40
1.0
 40
1.0
 10
71.73047287083708
 20
46.75488496447286
 30
0.0
 10
71.75056940452629
 20
46.76314874958274
 30
0.0
 10
71.84216734450284
 20
46.80081423479424
 30
0.0
 10
71.97834257790096
 20
46.90025839567654
 30
0.0
 10
72.09768769338115
 20
47.09280368481976
 30
0.0
 10
72.16190048614594
 20
47.36077994211899
 30
0.0
 10
72.17266717725848
 20
47.70813908974455
 30
0.0
 10
72.11954988912741
 20
48.07157120579792
 30
0.0
 10
71.98081082768502
 20
48.38189543703362
 30
0.0
 10
71.83112176060055
 20
48.53187336980545
 30
0.0
 10
71.73855227700959
 20
48.58872842696744
 30
0.0
 10
71.73047287083708
 20
48.59369070051542
 30
0.0
  0
SPLINE
  5
133
330
1F
100
AcDbEntity
  8
0
  6
Continuous
 62
     7
370
    30
100
AcDbSpline
210
0.0
220
0.0
230
1.0
 70
     8
 71
     3
 72
    11
 73
     7
 74
     0
 42
0.000000001
 43
0.00000001
 40
0.0
 40
0.0
 40
0.0
 40
0.0
 40
0.0126403100978223
 40
0.3925855057697222
 40
0.6934707731979709
 40
1.0
 40
1.0
 40
1.0
 40
1.0
 10
71.29902802567474
 20
48.84019339239529
 30
0.0
 10
71.30086818103474
 20
48.8392531794367
 30
0.0
 10
71.35802012723809
 20
48.81005184046417
 30
0.0
 10
71.45908502875648
 20
48.75472167442624
 30
0.0
 10
71.6017242823391
 20
48.67102037776201
 30
0.0
 10
71.68729165040091
 20
48.61962643991573
 30
0.0
 10
71.73047287083708
 20
48.59369070051542
 30
0.0
  0
LINE
  5
134
330
1F
100
AcDbEntity
  8
0
  6
Continuous
 62
     7
370
    30
100
AcDbLine
 10
71.2990280257
 20
48.8401933924
 30
0.0
 11
71.2990280257
 21
50.1692095657
 31
0.0
  0
SPLINE
  5
135
330
1F
100
AcDbEntity
  8
0
  6
Continuous
 62
     7
370
    30
100
AcDbSpline
210
0.0
220
0.0
230
1.0
 70
     8
 71
     3
 72
    12
 73
     8
 74
     0
 42
0.000000001
 43
0.00000001
 40
0.0
 40
0.0
 40
0.0
 40
0.0
 40
0.3005575419664043
 40
0.6072466468579437
 40
0.7967447297340724
 40
0.9873632635285428
 40
1.0
 40
1.0
 40
1.0
 40
1.0
 10
71.73047287083708
 20
50.29197790442339
 30
0.0
 10
71.68813450620988
 20
50.28717935370392
 30
0.0
 10
71.60259404768368
 20
50.27748435881173
 30
0.0
 10
71.4873926979655
 20
50.24403473996255
 30
0.0
 10
71.38768600076205
 20
50.20768917751229
 30
0.0
 10
71.3304661737796
 20
50.18341487829856
 30
0.0
 10
71.30086818455212
 20
50.17004104058927
 30
0.0
 10
71.29902802567474
 20
50.16920956565372
 30
0.0
  0
SPLINE
  5
136
330
1F
100
AcDbEntity
  8
0
  6
Continuous
 62
     7
370
    30
100
AcDbSpline
210
0.0
220
0.0
230
1.0
 70
     8
 71
     3
 72
    16
 73
    12
 74
     0
 42
0.000000001
 43
0.00000001
 40
0.0
 40
0.0
 40
0.0
 40
0.0
 40
0.0316438684956394
 40
0.1442296676122068
 40
0.2602597443776804
 40
0.3918268020132801
 40
0.5492075378286991
 40
0.7249904854135452
 40
0.8558656200540019
 40
0.9874200162773556
 40
1.0
 40
1.0
 40
1.0
 40
1.0
 10
71.73047287083708
 20
50.29197790442339
 30
0.0
 10
71.75056940734724
 20
50.29346084200976
 30
0.0
 10
71.84216746153008
 20
50.30021992695548
 30
0.0
 10
71.97834253261506
 20
50.32701436753966
 30
0.0
 10
72.09768769962943
 20
50.40928514156923
 30
0.0
 10
72.16190047499458
 20
50.56213722067776
 30
0.0
 10
72.17266720500693
 20
50.80743516503801
 30
0.0
 10
72.11954978185956
 20
51.11381226075665
 30
0.0
 10
71.9808110198225
 20
51.41201880602286
 30
0.0
 10
71.83112156000563
 20
51.5706519833312
 30
0.0
 10
71.73855227620749
 20
51.63266465665754
 30
0.0
 10
71.73047287083708
 20
51.63807709483734
 30
0.0
  0
SPLINE
  5
137
330
1F
100
AcDbEntity
  8
0
  6
Continuous
 62
     7
370
    30
100
AcDbSpline
210
0.0
220
0.0
230
1.0
 70
     8
 71
     3
 72
    11
 73
     7
 74
     0
 42
0.000000001
 43
0.00000001
 40
0.0
 40
0.0
 40
0.0
 40
0.0
 40
0.0126402752623861
 40
0.3925856081091275
 40
0.6934706513233556
 40
1.0
 40
1.0
 40
1.0
 40
1.0
 10
71.29902802567474
 20
51.85183332084051
 30
0.0
 10
71.30086818115657
 20
51.85122774376794
 30
0.0
 10
71.35802030354776
 20
51.83241954233557
 30
0.0
 10
71.4590848500718
 20
51.79157972228836
 30
0.0
 10
71.60172439545077
 20
51.71887418866176
 30
0.0
 10
71.68729167209199
 20
51.66517578750915
 30
0.0
 10
71.73047287083708
 20
51.63807709483734
 30
0.0
  0
LINE
  5
138
330
1F
100
AcDbEntity
  8
0
  6
Continuous
 62
     7
370
    30
100
AcDbLine
 10
71.2990280257
 20
51.8518333208
 30
0.0
 11
71.2990280257
 21
52.6191411425
 31
0.0
  0
SPLINE
  5
139
330
1F
100
AcDbEntity
  8
0
  6
Continuous
 62
     7
370
    30
100
AcDbSpline
210
0.0
220
0.0
230
1.0
 70
     8
 71
     3
 72
    12
 73
     8
 74
     0
 42
0.000000001
 43
0.00000001
 40
0.0
 40
0.0
 40
0.0
 40
0.0
 40
0.3005575168781057
 40
0.6072466809203669
 40
0.7967443753812624
 40
0.9873632269061131
 40
1.0
 40
1.0
 40
1.0
 40
1.0
 10
71.73047287083708
 20
52.61858374594084
 30
0.0
 10
71.68813449092059
 20
52.62772303576177
 30
0.0
 10
71.60259398956535
 20
52.64618806524224
 30
0.0
 10
71.48739288618447
 20
52.6466238261772
 30
0.0
 10
71.38768580780987
 20
52.63677998723957
 30
0.0
 10
71.33046613946098
 20
52.62627085301854
 30
0.0
 10
71.30086818454382
 20
52.61955846397754
 30
0.0
 10
71.29902802567474
 20
52.61914114250175
 30
0.0
  0
SPLINE
  5
13A
330
1F
100
AcDbEntity
  8
0
  6
Continuous
 62
     7
370
    30
100
AcDbSpline
210
0.0
220
0.0
230
1.0
 70
     8
 71
     3
 72
    23
 73
    19
 74
     0
 42
0.000000001
 43
0.00000001
 40
0.0
 40
0.0
 40
0.0
 40
0.0
 40
0.0315418091835352
 40
0.0870776618365031
 40
0.1441407397012779
 40
0.2014724693620956
 40
0.2601144441785223
 40
0.3251813371270817
 40
0.3915793891885783
 40
0.4693361032150577
 40
0.5488973656780991
 40
0.6354686401819492
 40
0.7248236197499184
 40
0.7894080905800794
 40
0.8557222354347025
 40
0.9203891061813072
 40
0.9874606066130562
 40
1.0
 40
1.0
 40
1.0
 40
1.0
 10
71.73047287083708
 20
52.61858374594084
 30
0.0
 10
71.7505859817639
 20
52.61289181807673
 30
0.0
 10
71.80611236776085
 20
52.59717807867563
 30
0.0
 10
71.8876012326623
 20
52.56895194425483
 30
0.0
 10
71.96876740586956
 20
52.53729112165458
 30
0.0
 10
72.03477566039489
 20
52.51022082052266
 30
0.0
 10
72.0873950346746
 20
52.4906506533248
 30
0.0
 10
72.12635070898092
 20
52.48229019402347
 30
0.0
 10
72.15328861038938
 20
52.48900955848755
 30
0.0
 10
72.16651551103745
 20
52.51556903202322
 30
0.0
 10
72.16468211984662
 20
52.56737040004067
 30
0.0
 10
72.14448078668006
 20
52.64557237137441
 30
0.0
 10
72.103559892751
 20
52.74017505711898
 30
0.0
 10
72.04356347338127
 20
52.83835843746586
 30
0.0
 10
71.97045845166558
 20
52.92977255539844
 30
0.0
 10
71.87472443251045
 20
53.01989502030427
 30
0.0
 10
71.78985571920143
 20
53.07886247118719
 30
0.0
 10
71.73855341967374
 20
53.10687756018561
 30
0.0
 10
71.73047287083708
 20
53.11129017515412
 30
0.0
  0
LINE
  5
13B
330
1F
100
AcDbEntity
  8
0
  6
Continuous
 62
     7
370
    30
100
AcDbLine
 10
72.2990279568
 20
52.2743785639
 30
0.0
 11
72.2990279568
 21
39.2743782957
 31
0.0
  0
SPLINE
  5
13C
330
1F
100
AcDbEntity
  8
0
  6
Continuous
 62
     7
370
    30
100
AcDbSpline
210
0.0
220
0.0
230
1.0
 70
     8
 71
     3
 72
    11
 73
     7
 74
     0
 42
0.000000001
 43
0.00000001
 40
0.0
 40
0.0
 40
0.0
 40
0.0
 40
0.3006405581340028
 40
0.6074151773522077
 40
0.9873591472999717
 40
1.0
 40
1.0
 40
1.0
 40
1.0
 10
64.86758324477367
 20
51.63807709483734
 30
0.0
 10
64.90992661735304
 20
51.66466817523617
 30
0.0
 10
64.99547730726869
 20
51.71839288196464
 30
0.0
 10
65.13811539955513
 20
51.79123548174422
 30
0.0
 10
65.24003488987731
 20
51.83242044281487
 30
0.0
 10
65.29718793346339
 20
51.85122774388294
 30
0.0
 10
65.29902820635132
 20
51.85183332084051
 30
0.0
  0
SPLINE
  5
13D
330
1F
100
AcDbEntity
  8
0
  6
Continuous
 62
     7
370
    30
100
AcDbSpline
210
0.0
220
0.0
230
1.0
 70
     8
 71
     3
 72
    16
 73
    12
 74
     0
 42
0.000000001
 43
0.00000001
 40
0.0
 40
0.0
 40
0.0
 40
0.0
 40
0.03164382464131
 40
0.1442297468847669
 40
0.2602597244168854
 40
0.3918268120364838
 40
0.5492075281346008
 40
0.7249904741469698
 40
0.8558655108905923
 40
0.9874198934533667
 40
1.0
 40
1.0
 40
1.0
 40
1.0
 10
64.86758324477367
 20
51.63807709483734
 30
0.0
 10
64.8474867550992
 20
51.62411793702119
 30
0.0
 10
64.7558887371012
 20
51.56049333344148
 30
0.0
 10
64.61971302615736
 20
51.40801645025915
 30
0.0
 10
64.50036884583798
 20
51.16542084497775
 30
0.0
 10
64.43615498353758
 20
50.89421729267125
 30
0.0
 10
64.42538886811721
 20
50.62436705201561
 30
0.0
 10
64.47850659130258
 20
50.42816379877794
 30
0.0
 10
64.61724479283104
 20
50.32402380609202
 30
0.0
 10
64.76693391046791
 20
50.29882887915886
 30
0.0
 10
64.85950372069289
 20
50.29252785952974
 30
0.0
 10
64.86758324477367
 20
50.29197790442339
 30
0.0
  0
SPLINE
  5
13E
330
1F
100
AcDbEntity
  8
0
  6
Continuous
 62
     7
370
    30
100
AcDbSpline
210
0.0
220
0.0
230
1.0
 70
     8
 71
     3
 72
    12
 73
     8
 74
     0
 42
0.000000001
 43
0.00000001
 40
0.0
 40
0.0
 40
0.0
 40
0.0
 40
0.0126373725175027
 40
0.2021429049314342
 40
0.3927543700341003
 40
0.6935556172537382
 40
1.0
 40
1.0
 40
1.0
 40
1.0
 10
65.29902820635132
 20
50.16920956565372
 30
0.0
 10
65.29718792950287
 20
50.17004103896789
 30
0.0
 10
65.26775151718633
 20
50.18334098963934
 30
0.0
 10
65.21053322581105
 20
50.20762515797915
 30
0.0
 10
65.11167796738519
 20
50.24367548388335
 30
0.0
 10
64.99631634836008
 20
50.27728269932126
 30
0.0
 10
64.91075930658752
 20
50.28704924919656
 30
0.0
 10
64.86758324477367
 20
50.29197790442339
 30
0.0
  0
LINE
  5
13F
330
1F
100
AcDbEntity
  8
0
  6
Continuous
 62
     7
370
    30
100
AcDbLine
 10
65.2990282064
 20
50.1692095657
 30
0.0
 11
65.2990282064
 21
48.8401933924
 31
0.0
  0
SPLINE
  5
140
330
1F
100
AcDbEntity
  8
0
  6
Continuous
 62
     7
370
    30
100
AcDbSpline
210
0.0
220
0.0
230
1.0
 70
     8
 71
     3
 72
    11
 73
     7
 74
     0
 42
0.000000001
 43
0.00000001
 40
0.0
 40
0.0
 40
0.0
 40
0.0
 40
0.3006405367817835
 40
0.6074152189863303
 40
0.9873591105118893
 40
1.0
 40
1.0
 40
1.0
 40
1.0
 10
64.86758324477367
 20
48.59369070051542
 30
0.0
 10
64.90992662627416
 20
48.61912181946352
 30
0.0
 10
64.99547734615398
 20
48.670502943414
 30
0.0
 10
65.13811529546895
 20
48.75425290315713
 30
0.0
 10
65.24003506587562
 20
48.81005325215263
 30
0.0
 10
65.29718793357594
 20
48.83925318004031
 30
0.0
 10
65.29902820635132
 20
48.84019339239529
 30
0.0
  0
SPLINE
  5
141
330
1F
100
AcDbEntity
  8
0
  6
Continuous
 62
     7
370
    30
100
AcDbSpline
210
0.0
220
0.0
230
1.0
 70
     8
 71
     3
 72
    16
 73
    12
 74
     0
 42
0.000000001
 43
0.00000001
 40
0.0
 40
0.0
 40
0.0
 40
0.0
 40
0.0316438585140966
 40
0.1442297184848843
 40
0.2602597371562837
 40
0.391826806422049
 40
0.549207539122816
 40
0.7249905168996438
 40
0.8558654545407763
 40
0.9874198968144644
 40
0.9999999999999999
 40
0.9999999999999999
 40
0.9999999999999999
 40
0.9999999999999999
 10
64.86758324477367
 20
48.59369070051542
 30
0.0
 10
64.84748675861067
 20
48.58086023300933
 30
0.0
 10
64.75588887270388
 20
48.52238017389739
 30
0.0
 10
64.61971289794394
 20
48.37693415498197
 30
0.0
 10
64.50036890419355
 20
48.12570481039291
 30
0.0
 10
64.43615495545617
 20
47.81440962174988
 30
0.0
 10
64.42538889968391
 20
47.45806353176301
 30
0.0
 10
64.47850648880154
 20
47.13495790528705
 30
0.0
 10
64.61724494993754
 20
46.89566677589216
 30
0.0
 10
64.76693384577479
 20
46.79453048478899
 30
0.0
 10
64.85950372039022
 20
46.7580674668154
 30
0.0
 10
64.86758324477367
 20
46.75488496447286
 30
0.0
  0
SPLINE
  5
142
330
1F
100
AcDbEntity
  8
0
  6
Continuous
 62
     7
370
    30
100
AcDbSpline
210
0.0
220
0.0
230
1.0
 70
     8
 71
     3
 72
    11
 73
     7
 74
     0
 42
0.000000001
 43
0.00000001
 40
0.0
 40
0.0
 40
0.0
 40
0.0
 40
0.0126409962970563
 40
0.392585643523808
 40
0.6934706092399537
 40
1.0
 40
1.0
 40
1.0
 40
1.0
 10
65.29902820635132
 20
46.5416861350306
 30
0.0
 10
65.29718793426936
 20
46.54270910227085
 30
0.0
 10
65.24003544544844
 20
46.57447892823062
 30
0.0
 10
65.13897122392807
 20
46.62947413654403
 30
0.0
 10
64.9963318516276
 20
46.70174307801204
 30
0.0
 10
64.9107644932252
 20
46.7370616026632
 30
0.0
 10
64.86758324477367
 20
46.75488496447286
 30
0.0
  0
LINE
  5
143
330
1F
100
AcDbEntity
  8
0
  6
Continuous
 62
     7
370
    30
100
AcDbLine
 10
65.2990282064
 20
46.541686135
 30
0.0
 11
65.2990282064
 21
45.0070707245
 31
0.0
  0
SPLINE
  5
144
330
1F
100
AcDbEntity
  8
0
  6
Continuous
 62
     7
370
    30
100
AcDbSpline
210
0.0
220
0.0
230
1.0
 70
     8
 71
     3
 72
    11
 73
     7
 74
     0
 42
0.000000001
 43
0.00000001
 40
0.0
 40
0.0
 40
0.0
 40
0.0
 40
0.30064071260853
 40
0.6074152488621448
 40
0.9873590324371773
 40
1.0
 40
1.0
 40
1.0
 40
1.0
 10
64.86758324477367
 20
44.79387189509652
 30
0.0
 10
64.90992662282277
 20
44.81132878061129
 30
0.0
 10
64.99547728990373
 20
44.84659871583499
 30
0.0
 10
65.13811519997334
 20
44.91881558854897
 30
0.0
 10
65.24003543023296
 20
44.97427793140737
 30
0.0
 10
65.29718793379472
 20
45.00604775730067
 30
0.0
 10
65.29902820635132
 20
45.00707072453878
 30
0.0
  0
SPLINE
  5
145
330
1F
100
AcDbEntity
  8
0
  6
Continuous
 62
     7
370
    30
100
AcDbSpline
210
0.0
220
0.0
230
1.0
 70
     8
 71
     3
 72
    16
 73
    12
 74
     0
 42
0.000000001
 43
0.00000001
 40
0.0
 40
0.0
 40
0.0
 40
0.0
 40
0.0316438624976445
 40
0.1442297598469772
 40
0.2602597224398617
 40
0.3918268113608251
 40
0.5492075473485878
 40
0.7249905226933211
 40
0.855865478256759
 40
0.9874199165073829
 40
1.0
 40
1.0
 40
1.0
 40
1.0
 10
64.86758324477367
 20
44.79387189509652
 30
0.0
 10
64.84748675792015
 20
44.78560810488882
 30
0.0
 10
64.75588885412873
 20
44.74794252354044
 30
0.0
 10
64.61971298087151
 20
44.64849870292473
 30
0.0
 10
64.50036885208625
 20
44.45595298744597
 30
0.0
 10
64.43615497238619
 20
44.18797702120779
 30
0.0
 10
64.42538889586557
 20
43.84061771531421
 30
0.0
 10
64.47850648403515
 20
43.47718575604654
 30
0.0
 10
64.61724498496724
 20
43.16686151135434
 30
0.0
 10
64.7669337098752
 20
43.01688293546385
 30
0.0
 10
64.85950371989077
 20
42.96002842920938
 30
0.0
 10
64.86758324477367
 20
42.95506615905396
 30
0.0
  0
SPLINE
  5
146
330
1F
100
AcDbEntity
  8
0
  6
Continuous
 62
     7
370
    30
100
AcDbSpline
210
0.0
220
0.0
230
1.0
 70
     8
 71
     3
 72
    11
 73
     7
 74
     0
 42
0.000000001
 43
0.00000001
 40
0.0
 40
0.0
 40
0.0
 40
0.0
 40
0.0126409168494908
 40
0.3925856307688538
 40
0.6934706370937944
 40
1.0
 40
1.0
 40
1.0
 40
1.0
 10
65.29902820635132
 20
42.70856346717409
 30
0.0
 10
65.29718793404594
 20
42.70950367919058
 30
0.0
 10
65.24003508094192
 20
42.73870359656559
 30
0.0
 10
65.1389713492844
 20
42.79403568092886
 30
0.0
 10
64.99633184025342
 20
42.87773642913982
 30
0.0
 10
64.91076448619997
 20
42.9291303907886
 30
0.0
 10
64.86758324477367
 20
42.95506615905396
 30
0.0
  0
LINE
  5
147
330
1F
100
AcDbEntity
  8
0
  6
Continuous
 62
     7
370
    30
100
AcDbLine
 10
65.2990282064
 20
42.7085634672
 30
0.0
 11
65.2990282064
 21
41.3795472939
 31
0.0
  0
SPLINE
  5
148
330
1F
100
AcDbEntity
  8
0
  6
Continuous
 62
     7
370
    30
100
AcDbSpline
210
0.0
220
0.0
230
1.0
 70
     8
 71
     3
 72
    12
 73
     8
 74
     0
 42
0.000000001
 43
0.00000001
 40
0.0
 40
0.0
 40
0.0
 40
0.0
 40
0.300557084037253
 40
0.60724652601123
 40
0.7967443664830642
 40
0.9873626570851045
 40
1.0
 40
1.0
 40
1.0
 40
1.0
 10
64.86758324477367
 20
41.25677895514599
 30
0.0
 10
64.90992152601022
 20
41.26157750710277
 30
0.0
 10
64.99546192935998
 20
41.27127251733675
 30
0.0
 10
65.11066327782487
 20
41.30472218275662
 30
0.0
 10
65.21037017254615
 20
41.34106742567057
 30
0.0
 10
65.26758941981831
 20
41.36534262221802
 30
0.0
 10
65.29718793005881
 20
41.37871582032999
 30
0.0
 10
65.29902820635132
 20
41.37954729391566
 30
0.0
  0
SPLINE
  5
149
330
1F
100
AcDbEntity
  8
0
  6
Continuous
 62
     7
370
    30
100
AcDbSpline
210
0.0
220
0.0
230
1.0
 70
     8
 71
     3
 72
    16
 73
    12
 74
     0
 42
0.000000001
 43
0.00000001
 40
0.0
 40
0.0
 40
0.0
 40
0.0
 40
0.03164382464131
 40
0.1442297468847669
 40
0.2602597244168854
 40
0.3918268120364838
 40
0.5492075281346008
 40
0.7249904741469698
 40
0.8558655108905923
 40
0.9874198934533667
 40
1.0
 40
1.0
 40
1.0
 40
1.0
 10
64.86758324477367
 20
41.25677895514599
 30
0.0
 10
64.8474867550992
 20
41.25529601591055
 30
0.0
 10
64.7558887371012
 20
41.2485369103663
 30
0.0
 10
64.61971302615736
 20
41.2217425783437
 30
0.0
 10
64.50036884583798
 20
41.13947163067876
 30
0.0
 10
64.43615498353758
 20
40.98661969611529
 30
0.0
 10
64.42538886811721
 20
40.74132166035501
 30
0.0
 10
64.47850659130258
 20
40.43494467726247
 30
0.0
 10
64.61724479283104
 20
40.13673816487426
 30
0.0
 10
64.76693391046791
 20
39.97810427301635
 30
0.0
 10
64.85950372069289
 20
39.91609219932067
 30
0.0
 10
64.86758324477367
 20
39.91067976473204
 30
0.0
  0
SPLINE
  5
14A
330
1F
100
AcDbEntity
  8
0
  6
Continuous
 62
     7
370
    30
100
AcDbSpline
210
0.0
220
0.0
230
1.0
 70
     8
 71
     3
 72
    11
 73
     7
 74
     0
 42
0.000000001
 43
0.00000001
 40
0.0
 40
0.0
 40
0.0
 40
0.0
 40
0.0126408820160173
 40
0.3925857331094982
 40
0.6934705152197048
 40
1.0
 40
1.0
 40
1.0
 40
1.0
 10
65.29902820635132
 20
39.69692353872887
 30
0.0
 10
65.29718793392409
 20
39.69752911509557
 30
0.0
 10
65.24003490464595
 20
39.71633639781312
 30
0.0
 10
65.13897152796395
 20
39.75717745562817
 30
0.0
 10
64.99633172714275
 20
39.82988265606148
 30
0.0
 10
64.91076446450921
 20
39.88358105537794
 30
0.0
 10
64.86758324477367
 20
39.91067976473204
 30
0.0
  0
LINE
  5
14B
330
1F
100
AcDbEntity
  8
0
  6
Continuous
 62
     7
370
    30
100
AcDbLine
 10
65.2990282064
 20
39.6969235387
 30
0.0
 11
65.2990282064
 21
38.9296157171
 31
0.0
  0
SPLINE
  5
14C
330
1F
100
AcDbEntity
  8
0
  6
Continuous
 62
     7
370
    30
100
AcDbSpline
210
0.0
220
0.0
230
1.0
 70
     8
 71
     3
 72
    12
 73
     8
 74
     0
 42
0.000000001
 43
0.00000001
 40
0.0
 40
0.0
 40
0.0
 40
0.0
 40
0.3005570589496073
 40
0.6072465600747456
 40
0.7967440121314335
 40
0.9873626204645475
 40
1.0
 40
1.0
 40
1.0
 40
1.0
 10
64.86758324477367
 20
38.93017311362854
 30
0.0
 10
64.9099215412996
 20
38.92103381928801
 30
0.0
 10
64.99546198747862
 20
38.90256875621746
 30
0.0
 10
65.11066308960426
 20
38.90213308696961
 30
0.0
 10
65.21037036550092
 20
38.91197674040426
 30
0.0
 10
65.26758945412891
 20
38.92248632643138
 30
0.0
 10
65.29718793006708
 20
38.92919839616329
 30
0.0
 10
65.29902820635132
 20
38.92961571706763
 30
0.0
  0
SPLINE
  5
14D
330
1F
100
AcDbEntity
  8
0
  6
Continuous
 62
     7
370
    30
100
AcDbSpline
210
0.0
220
0.0
230
1.0
 70
     8
 71
     3
 72
    23
 73
    19
 74
     0
 42
0.000000001
 43
0.00000001
 40
0.0
 40
0.0
 40
0.0
 40
0.0
 40
0.031541766205096
 40
0.0870776872052259
 40
0.1441408217424687
 40
0.2014724483948749
 40
0.2601144184872515
 40
0.3251813061941857
 40
0.3915793865682576
 40
0.4693360943308517
 40
0.5488973513755319
 40
0.6354686293958751
 40
0.7248236017656319
 40
0.7894080320593708
 40
0.8557221233275057
 40
0.92038898886471
 40
0.9874604838933476
 40
1.0
 40
1.0
 40
1.0
 40
1.0
 10
64.86758324477367
 20
38.93017311362854
 30
0.0
 10
64.84747017828022
 20
38.93586504454852
 30
0.0
 10
64.79194382311462
 20
38.95157881837528
 30
0.0
 10
64.71045480807197
 20
38.97980490929225
 30
0.0
 10
64.62928825831885
 20
39.01146568721133
 30
0.0
 10
64.56328069201777
 20
39.03853606994408
 30
0.0
 10
64.51066111792282
 20
39.05810620052851
 30
0.0
 10
64.47170568463042
 20
39.06646666681802
 30
0.0
 10
64.4447669724914
 20
39.05974730486156
 30
0.0
 10
64.4315402490219
 20
39.03318782785411
 30
0.0
 10
64.43337388460657
 20
38.98138645528633
 30
0.0
 10
64.45357548772358
 20
38.90318449167852
 30
0.0
 10
64.49449639931048
 20
38.8085818292744
 30
0.0
 10
64.55449252074254
 20
38.71039844043664
 30
0.0
 10
64.62759727220596
 20
38.61898423962329
 30
0.0
 10
64.72333141849889
 20
38.52886192963464
 30
0.0
 10
64.8081999377764
 20
38.46989412163865
 30
0.0
 10
64.85950257549433
 20
38.44187929477713
 30
0.0
 10
64.86758324477367
 20
38.43746668441526
 30
0.0
  0
SPLINE
  5
14E
330
1F
100
AcDbEntity
  8
0
  6
Continuous
 62
     7
370
    30
100
AcDbSpline
210
0.0
220
0.0
230
1.0
 70
     8
 71
     3
 72
    11
 73
     7
 74
     0
 42
0.000000001
 43
0.00000001
 40
0.0
 40
0.0
 40
0.0
 40
0.0
 40
0.0126409962970563
 40
0.392585643523808
 40
0.6934706092399537
 40
1.0
 40
1.0
 40
1.0
 40
1.0
 10
65.29902820635132
 20
38.31373256413571
 30
0.0
 10
65.29718793426936
 20
38.31384123310358
 30
0.0
 10
65.24003544544844
 20
38.31721611556377
 30
0.0
 10
65.13897122392807
 20
38.33262291613453
 30
0.0
 10
64.9963318516276
 20
38.3748517226315
 30
0.0
 10
64.9107644932252
 20
38.41646612924315
 30
0.0
 10
64.86758324477367
 20
38.43746668441526
 30
0.0
  0
SPLINE
  5
14F
330
1F
100
AcDbEntity
  8
0
  6
Continuous
 62
     7
370
    30
100
AcDbSpline
210
0.0
220
0.0
230
1.0
 70
     8
 71
     3
 72
    11
 73
     7
 74
     0
 42
0.000000001
 43
0.00000001
 40
0.0
 40
0.0
 40
0.0
 40
0.0
 40
0.30064071260853
 40
0.6074152488621448
 40
0.9873590324371773
 40
1.0
 40
1.0
 40
1.0
 40
1.0
 10
64.86758324477367
 20
53.11129017515412
 30
0.0
 10
64.90992662282277
 20
53.13191624073414
 30
0.0
 10
64.99547728990373
 20
53.17358919530048
 30
0.0
 10
65.13811519997334
 20
53.21600647798651
 30
0.0
 10
65.24003543023296
 20
53.23154072250687
 30
0.0
 10
65.29718793379472
 20
53.23491562579516
 30
0.0
 10
65.29902820635132
 20
53.23502429543367
 30
0.0
  0
SPLINE
  5
150
330
1F
100
AcDbEntity
  8
0
  6
Continuous
 62
     7
370
    30
100
AcDbSpline
210
0.0
220
0.0
230
1.0
 70
     8
 71
     3
 72
    23
 73
    19
 74
     0
 42
0.000000001
 43
0.00000001
 40
0.0
 40
0.0
 40
0.0
 40
0.0
 40
0.031541770402037
 40
0.0870776261667833
 40
0.14414087077325
 40
0.2014725014794695
 40
0.2601144127786987
 40
0.3251812311557093
 40
0.3915793938832803
 40
0.4693361192229212
 40
0.5488973620358035
 40
0.6354686305269261
 40
0.7248236055655397
 40
0.7894079848936558
 40
0.8557221434997814
 40
0.9203890121420252
 40
0.9874605034327867
 40
1.0
 40
1.0
 40
1.0
 40
1.0
 10
64.86758324477367
 20
53.11129017515412
 30
0.0
 10
64.84747018551808
 20
53.09995207184588
 30
0.0
 10
64.79194389664445
 20
53.0686508763603
 30
0.0
 10
64.71045461516879
 20
53.00795590331467
 30
0.0
 10
64.62928836778583
 20
52.93061342085208
 30
0.0
 10
64.56328070995673
 20
52.84987020367396
 30
0.0
 10
64.51066112330217
 20
52.76818873011005
 30
0.0
 10
64.47170563649026
 20
52.68956494481314
 30
0.0
 10
64.44476699468382
 20
52.61506309353191
 30
0.0
 10
64.43154024588962
 20
52.55209994512616
 30
0.0
 10
64.43337388311524
 20
52.50547212374618
 30
0.0
 10
64.45357550081984
 20
52.48203803934663
 30
0.0
 10
64.49449635434625
 20
52.48531147377724
 30
0.0
 10
64.55449260167423
 20
52.50658483935429
 30
0.0
 10
64.62759720827756
 20
52.53666967784211
 30
0.0
 10
64.72333144337009
 20
52.57400147572932
 30
0.0
 10
64.80819986549976
 20
52.60219616512438
 30
0.0
 10
64.85950257449613
 20
52.61635378464791
 30
0.0
 10
64.86758324477367
 20
52.61858374594084
 30
0.0
  0
SPLINE
  5
151
330
1F
100
AcDbEntity
  8
0
  6
Continuous
 62
     7
370
    30
100
AcDbSpline
210
0.0
220
0.0
230
1.0
 70
     8
 71
     3
 72
    12
 73
     8
 74
     0
 42
0.000000001
 43
0.00000001
 40
0.0
 40
0.0
 40
0.0
 40
0.0
 40
0.0126374075443977
 40
0.2021427577076321
 40
0.3927542579629841
 40
0.6935557341692073
 40
1.0
 40
1.0
 40
1.0
 40
1.0
 10
65.29902820635132
 20
52.61914114250175
 30
0.0
 10
65.29718792976463
 20
52.61955846362645
 30
0.0
 10
65.2677516246624
 20
52.6262337601776
 30
0.0
 10
65.21053312605058
 20
52.63675650296779
 30
0.0
 10
65.11167795486227
 20
52.64653878905904
 30
0.0
 10
64.99631643534809
 20
52.64625500950214
 30
0.0
 10
64.91075931951886
 20
52.62786446475535
 30
0.0
 10
64.86758324477367
 20
52.61858374594084
 30
0.0
  0
LINE
  5
152
330
1F
100
AcDbEntity
  8
0
  6
Continuous
 62
     7
370
    30
100
AcDbLine
 10
65.2990282064
 20
52.6191411425
 30
0.0
 11
65.2990282064
 21
51.8518333208
 31
0.0
  0
LINE
  5
153
330
1F
100
AcDbEntity
  8
0
  6
Continuous
 62
     7
370
    30
100
AcDbLine
 10
64.2990280424
 20
39.2743782957
 30
0.0
 11
64.2990280424
 21
52.2743785639
 31
0.0
  0
LINE
  5
154
330
1F
100
AcDbEntity
  8
0
  6
Continuous
 62
     7
370
    30
100
AcDbLine
 10
65.2990282064
 20
45.0070707245
 30
0.0
 11
71.2990280257
 21
45.0070707245
 31
0.0
  0
LINE
  5
155
330
1F
100
AcDbEntity
  8
0
  6
Continuous
 62
     7
370
    30
100
AcDbLine
 10
71.2990280257
 20
46.541686135
 30
0.0
 11
65.2990282064
 21
46.541686135
 31
0.0
  0
LINE
  5
156
330
1F
100
AcDbEntity
  8
0
  6
Continuous
 62
     7
370
    30
100
AcDbLine
 10
71.7304728708
 20
44.7938718951
 30
0.0
 11
64.8675832448
 21
44.7938718951
 31
0.0
  0
LINE
  5
157
330
1F
100
AcDbEntity
  8
0
  6
Continuous
 62
     7
370
    30
100
AcDbLine
 10
64.8675832448
 20
46.7548849645
 30
0.0
 11
71.7304728708
 21
46.7548849645
 31
0.0
  0
LINE
  5
158
330
1F
100
AcDbEntity
  8
0
  6
Continuous
 62
     7
370
    30
100
AcDbLine
 10
64.8675832448
 20
42.9550661591
 30
0.0
 11
71.7304728708
 21
42.9550661591
 31
0.0
  0
LINE
  5
159
330
1F
100
AcDbEntity
  8
0
  6
Continuous
 62
     7
370
    30
100
AcDbLine
 10
71.7304728708
 20
48.5936907005
 30
0.0
 11
64.8675832448
 21
48.5936907005
 31
0.0
  0
LINE
  5
15A
330
1F
100
AcDbEntity
  8
0
  6
Continuous
 62
     7
370
    30
100
AcDbLine
 10
71.2990280257
 20
42.7085634672
 30
0.0
 11
65.2990282064
 21
42.7085634672
 31
0.0
  0
LINE
  5
15B
330
1F
100
AcDbEntity
  8
0
  6
Continuous
 62
     7
370
    30
100
AcDbLine
 10
65.2990282064
 20
48.8401933924
 30
0.0
 11
71.2990280257
 21
48.8401933924
 31
0.0
  0
LINE
  5
15C
330
1F
100
AcDbEntity
  8
0
  6
Continuous
 62
     7
370
    30
100
AcDbLine
 10
65.2990282064
 20
41.3795472939
 30
0.0
 11
71.2990280257
 21
41.3795472939
 31
0.0
  0
LINE
  5
15D
330
1F
100
AcDbEntity
  8
0
  6
Continuous
 62
     7
370
    30
100
AcDbLine
 10
71.2990280257
 20
50.1692095657
 30
0.0
 11
65.2990282064
 21
50.1692095657
 31
0.0
  0
LINE
  5
15E
330
1F
100
AcDbEntity
  8
0
  6
Continuous
 62
     7
370
    30
100
AcDbLine
 10
71.7304728708
 20
41.2567789551
 30
0.0
 11
64.8675832448
 21
41.2567789551
 31
0.0
  0
LINE
  5
15F
330
1F
100
AcDbEntity
  8
0
  6
Continuous
 62
     7
370
    30
100
AcDbLine
 10
64.8675832448
 20
50.2919779044
 30
0.0
 11
71.7304728708
 21
50.2919779044
 31
0.0
  0
LINE
  5
160
330
1F
100
AcDbEntity
  8
0
  6
Continuous
 62
     7
370
    30
100
AcDbLine
 10
64.8675832448
 20
39.9106797647
 30
0.0
 11
71.7304728708
 21
39.9106797647
 31
0.0
  0
LINE
  5
161
330
1F
100
AcDbEntity
  8
0
  6
Continuous
 62
     7
370
    30
100
AcDbLine
 10
71.7304728708
 20
51.6380770948
 30
0.0
 11
64.8675832448
 21
51.6380770948
 31
0.0
  0
LINE
  5
162
330
1F
100
AcDbEntity
  8
0
  6
Continuous
 62
     7
370
    30
100
AcDbLine
 10
71.2990280257
 20
39.6969235387
 30
0.0
 11
65.2990282064
 21
39.6969235387
 31
0.0
  0
LINE
  5
163
330
1F
100
AcDbEntity
  8
0
  6
Continuous
 62
     7
370
    30
100
AcDbLine
 10
65.2990282064
 20
51.8518333208
 30
0.0
 11
71.2990280257
 21
51.8518333208
 31
0.0
  0
LINE
  5
164
330
1F
100
AcDbEntity
  8
0
  6
Continuous
 62
     7
370
    30
100
AcDbLine
 10
62.7990277966
 20
45.7743784298
 30
0.0
 11
62.7990277966
 21
50.2743782361
 31
0.0
  0
LINE
  5
165
330
1F
100
AcDbEntity
  8
0
  6
Continuous
 62
     7
370
    30
100
AcDbLine
 10
62.7990277966
 20
41.2743786235
 30
0.0
 11
62.7990277966
 21
45.7743784298
 31
0.0
  0
LINE
  5
166
330
1F
100
AcDbEntity
  8
0
  6
Continuous
 62
     7
370
    30
100
AcDbLine
 10
65.2990282064
 20
38.9296157171
 30
0.0
 11
71.2990280257
 21
38.9296157171
 31
0.0
  0
LINE
  5
167
330
1F
100
AcDbEntity
  8
0
  6
Continuous
 62
     7
370
    30
100
AcDbLine
 10
71.2990280257
 20
52.6191411425
 30
0.0
 11
65.2990282064
 21
52.6191411425
 31
0.0
  0
LINE
  5
168
330
1F
100
AcDbEntity
  8
0
  6
Continuous
 62
     7
370
    30
100
AcDbLine
 10
64.8675832448
 20
38.4374666844
 30
0.0
 11
71.7304728708
 21
38.4374666844
 31
0.0
  0
LINE
  5
169
330
1F
100
AcDbEntity
  8
0
  6
Continuous
 62
     7
370
    30
100
AcDbLine
 10
71.7304728708
 20
53.1112901752
 30
0.0
 11
64.8675832448
 21
53.1112901752
 31
0.0
  0
LINE
  5
16A
330
1F
100
AcDbEntity
  8
0
  6
Continuous
 62
     7
370
    30
100
AcDbLine
 10
71.2990280257
 20
38.3137325641
 30
0.0
 11
65.2990282064
 21
38.3137325641
 31
0.0
  0
LINE
  5
16B
330
1F
100
AcDbEntity
  8
0
  6
Continuous
 62
     7
370
    30
100
AcDbLine
 10
65.2990282064
 20
53.2350242954
 30
0.0
 11
71.2990280257
 21
53.2350242954
 31
0.0
  0
LINE
  5
16C
330
1F
100
AcDbEntity
  8
0
  6
Continuous
 62
     7
370
    30
100
AcDbLine
 10
50.2990276103
 20
45.7743784298
 30
0.0
 11
50.2990276103
 21
50.524378277
 31
0.0
  0
LINE
  5
16D
330
1F
100
AcDbEntity
  8
0
  6
Continuous
 62
     7
370
    30
100
AcDbLine
 10
50.2990276103
 20
41.0243785825
 30
0.0
 11
50.2990276103
 21
45.7743784298
 31
0.0
  0
LINE
  5
16E
330
1F
100
AcDbEntity
  8
0
  6
Continuous
 62
     7
370
    30
100
AcDbLine
 10
50.7990286236
 20
45.7743784298
 30
0.0
 11
50.7990286236
 21
41.5243781988
 31
0.0
  0
LINE
  5
16F
330
1F
100
AcDbEntity
  8
0
  6
Continuous
 62
     7
370
    30
100
AcDbLine
 10
50.7990286236
 20
50.0243786608
 30
0.0
 11
50.7990286236
 21
45.7743784298
 31
0.0
  0
LINE
  5
170
330
1F
100
AcDbEntity
  8
0
  6
Continuous
 62
     7
370
    30
100
AcDbLine
 10
39.7990286832
 20
45.7743784298
 30
0.0
 11
39.7990286832
 21
50.524378277
 31
0.0
  0
LINE
  5
171
330
1F
100
AcDbEntity
  8
0
  6
Continuous
 62
     7
370
    30
100
AcDbLine
 10
39.7990286832
 20
41.0243785825
 30
0.0
 11
39.7990286832
 21
45.7743784298
 31
0.0
  0
LINE
  5
172
330
1F
100
AcDbEntity
  8
0
  6
Continuous
 62
     7
370
    30
100
AcDbLine
 10
39.2740272467
 20
41.0493785401
 30
0.0
 11
39.2740272467
 21
50.4993783195
 31
0.0
  0
LINE
  5
173
330
1F
100
AcDbEntity
  8
0
  6
Continuous
 62
     7
370
    30
100
AcDbLine
 10
38.7990285193
 20
45.7743784298
 30
0.0
 11
38.7990285193
 21
50.0243786608
 31
0.0
  0
LINE
  5
174
330
1F
100
AcDbEntity
  8
0
  6
Continuous
 62
     7
370
    30
100
AcDbLine
 10
38.7990285193
 20
41.5243781988
 30
0.0
 11
38.7990285193
 21
45.7743784298
 31
0.0
  0
LINE
  5
175
330
1F
100
AcDbEntity
  8
0
  6
Continuous
 62
     7
370
    30
100
AcDbLine
 10
27.1990295981
 20
45.7743784298
 30
0.0
 11
27.1990295981
 21
48.7743784559
 31
0.0
  0
LINE
  5
176
330
1F
100
AcDbEntity
  8
0
  6
Continuous
 62
     7
370
    30
100
AcDbLine
 10
27.1990295981
 20
42.7743784037
 30
0.0
 11
27.1990295981
 21
45.7743784298
 31
0.0
  0
LINE
  5
177
330
1F
100
AcDbEntity
  8
0
  6
Continuous
 62
     7
370
    30
100
AcDbLine
 10
25.6990265583
 20
45.7743784298
 30
0.0
 11
25.6990265583
 21
47.8743783549
 31
0.0
  0
LINE
  5
178
330
1F
100
AcDbEntity
  8
0
  6
Continuous
 62
     7
370
    30
100
AcDbLine
 10
25.6990265583
 20
43.6743785047
 30
0.0
 11
25.6990265583
 21
45.7743784298
 31
0.0
  0
LINE
  5
179
330
1F
100
AcDbEntity
  8
0
  6
Continuous
 62
     8
370
    30
100
AcDbLine
 10
71.2990280257
 20
53.2350242954
 30
0.0
 11
71.2990280257
 21
53.2743782621
 31
0.0
  0
LINE
  5
17A
330
1F
100
AcDbEntity
  8
0
  6
Continuous
 62
     8
370
    30
100
AcDbLine
 10
71.2990280257
 20
38.2743785974
 30
0.0
 11
71.2990280257
 21
38.3137325641
 31
0.0
  0
LINE
  5
17B
330
1F
100
AcDbEntity
  8
0
  6
Continuous
 62
     8
370
    30
100
AcDbLine
 10
65.2990282064
 20
38.3137325641
 30
0.0
 11
65.2990282064
 21
38.2743785974
 31
0.0
  0
LINE
  5
17C
330
1F
100
AcDbEntity
  8
0
  6
Continuous
 62
     8
370
    30
100
AcDbLine
 10
65.2990282064
 20
53.2743782621
 30
0.0
 11
65.2990282064
 21
53.2350242954
 31
0.0
  0
DIMENSION
  5
17D
330
1F
100
AcDbEntity
  8
DIM
100
AcDbDimension
  2
_D
 10
72.2990280126
 20
32.2743784298
 30
0.0
 11
48.0490280126
 21
32.2743784298
 31
0.0
 70
   160
  1
<>
 71
     2
 42
-1.0
  3
SLDDIMSTYLE0
100
AcDbAlignedDimension
 13
23.7990280126
 23
45.7743784298
 33
0.0
 14
72.2990280126
 24
39.2743784298
 34
0.0
100
AcDbRotatedDimension
  0
DIMENSION
  5
188
330
1F
100
AcDbEntity
  8
DIM
100
AcDbDimension
  2
_D_1
 10
72.2990280126
 20
34.7743784298
 30
0.0
 11
67.5490280126
 21
34.7743784298
 31
0.0
 70
   160
  1
<>
 71
     2
 42
-1.0
  3
SLDDIMSTYLE0
100
AcDbAlignedDimension
 13
62.7990280126
 23
41.2743784298
 33
0.0
 14
72.2990280126
 24
39.2743784298
 34
0.0
100
AcDbRotatedDimension
  0
DIMENSION
  5
192
330
1F
100
AcDbEntity
  8
DIM
100
AcDbDimension
  2
_D_2
 10
50.7990280126
 20
34.7743784298
 30
0.0
 11
44.7990280126
 21
34.7743784298
 31
0.0
 70
   160
  1
<>
 71
     2
 42
-1.0
  3
SLDDIMSTYLE0
100
AcDbAlignedDimension
 13
38.7990280126
 23
41.5243784298
 33
0.0
 14
50.7990280126
 24
41.5243784298
 34
0.0
100
AcDbRotatedDimension
  0
DIMENSION
  5
19C
330
1F
100
AcDbEntity
  8
DIM
100
AcDbDimension
  2
_D_3
 10
20.2990280126
 20
41.0243784298
 30
0.0
 11
20.2990280126
 21
45.7743784298
 31
0.0
 70
   160
  1
%%c<>
 71
     2
 42
-1.0
  3
SLDDIMSTYLE0
100
AcDbAlignedDimension
 13
39.7990280126
 23
50.5243784298
 33
0.0
 14
39.7990280126
 24
41.0243784298
 34
0.0
 50
90.0
100
AcDbRotatedDimension
  0
INSERT
  5
1AC
330
1F
100
AcDbEntity
  8
DIM
100
AcDbBlockReference
  2
SW_NOTE_2
 10
62.524566474
 20
57.0454480305
 30
0.0
  0
LEADER
  5
1AE
330
1F
100
AcDbEntity
  8
DIM
100
AcDbLeader
  3
SLDDIMSTYLE1
 76
     2
 10
53.818287781
 20
48.7743784298
 30
0.0
 10
62.524566474
 20
57.0454480305
 30
0.0
  0
SPLINE
  5
1AF
330
1F
100
AcDbEntity
  8
0
  6
Continuous
 62
     7
370
    30
100
AcDbSpline
210
0.0
220
0.0
230
1.0
 70
     8
 71
     3
 72
    10
 73
     6
 74
     0
 42
0.000000001
 43
0.00000001
 40
0.0
 40
0.0
 40
0.0
 40
0.0
 40
0.012658853600274
 40
0.3931589754620573
 40
1.0
 40
1.0
 40
1.0
 40
1.0
 10
100.0315796681758
 20
53.23502429543367
 30
0.0
 10
100.0305569602762
 20
53.2349152616743
 30
0.0
 10
99.99879367406693
 20
53.23152888858846
 30
0.0
 10
99.91771295108336
 20
53.21199882227397
 30
0.0
 10
99.85619257814875
 20
53.14962590598349
 30
0.0
 10
99.81838083873353
 20
53.11129017515412
 30
0.0
  0
ARC
  5
1B0
330
1F
100
AcDbEntity
  8
0
  6
Continuous
 62
     7
370
    30
100
AcDbCircle
 10
100.7988873734
 20
45.7743784298
 30
0.0
 40
7.500000000000008
100
AcDbArc
 50
84.1279266565
 51
95.8720733435
  0
SPLINE
  5
1B1
330
1F
100
AcDbEntity
  8
0
  6
Continuous
 62
     7
370
    30
100
AcDbSpline
210
0.0
220
0.0
230
1.0
 70
     8
 71
     3
 72
    10
 73
     6
 74
     0
 42
0.000000001
 43
0.00000001
 40
0.0
 40
0.0
 40
0.0
 40
0.0
 40
0.6068410245379426
 40
0.9873411463997259
 40
1.0
 40
1.0
 40
1.0
 40
1.0
 10
101.7793939081099
 20
53.11129017515412
 30
0.0
 10
101.7415821686946
 20
53.14962590598349
 30
0.0
 10
101.68006179576
 20
53.21199882227396
 30
0.0
 10
101.5989810727765
 20
53.23152888858846
 30
0.0
 10
101.5672177865672
 20
53.2349152616743
 30
0.0
 10
101.5661950786676
 20
53.23502429543367
 30
0.0
  0
SPLINE
  5
1B2
330
1F
100
AcDbEntity
  8
0
  6
Continuous
 62
     7
370
    30
100
AcDbSpline
210
0.0
220
0.0
230
1.0
 70
     8
 71
     3
 72
    16
 73
    12
 74
     0
 42
0.000000001
 43
0.00000001
 40
0.0
 40
0.0
 40
0.0
 40
0.0
 40
0.0316439063519371
 40
0.1442296805743742
 40
0.2602597424006518
 40
0.3918268013376485
 40
0.5492075570427526
 40
0.7249905339600109
 40
0.8558655874203588
 40
0.9874200393315994
 40
1.0
 40
1.0
 40
1.0
 40
1.0
 10
101.7793939081099
 20
53.11129017515412
 30
0.0
 10
101.7876576932197
 20
53.0999425591118
 30
0.0
 10
101.8253231784312
 20
53.04822128870783
 30
0.0
 10
101.9247673393135
 20
52.92957019874306
 30
0.0
 10
102.1173126284568
 20
52.76061117414118
 30
0.0
 10
102.385288885756
 20
52.60216852037941
 30
0.0
 10
102.7326480333815
 20
52.49112023114698
 30
0.0
 10
103.0960801494349
 20
52.47439173778019
 30
0.0
 10
103.4064043806706
 20
52.53330701901762
 30
0.0
 10
103.5563823134424
 20
52.59080494128805
 30
0.0
 10
103.6132373706045
 20
52.6163538530299
 30
0.0
 10
103.6181996441524
 20
52.61858374594084
 30
0.0
  0
SPLINE
  5
1B3
330
1F
100
AcDbEntity
  8
0
  6
Continuous
 62
     7
370
    30
100
AcDbSpline
210
0.0
220
0.0
230
1.0
 70
     8
 71
     3
 72
    10
 73
     6
 74
     0
 42
0.000000001
 43
0.00000001
 40
0.0
 40
0.0
 40
0.0
 40
0.0
 40
0.0126587748270854
 40
0.3931589873552658
 40
1.0
 40
1.0
 40
1.0
 40
1.0
 10
103.8647023360323
 20
52.61914114250175
 30
0.0
 10
103.8637621661813
 20
52.61955808796932
 30
0.0
 10
103.8345621660528
 20
52.63250767116768
 30
0.0
 10
103.7545773530561
 20
52.65613276699954
 30
0.0
 10
103.6701131487757
 20
52.63287714692257
 30
0.0
 10
103.6181996441524
 20
52.61858374594084
 30
0.0
  0
ARC
  5
1B4
330
1F
100
AcDbEntity
  8
0
  6
Continuous
 62
     7
370
    30
100
AcDbCircle
 10
100.7988873734
 20
45.7743784298
 30
0.0
 40
7.499999999999986
100
AcDbArc
 50
54.1279266565
 51
65.8720733435
  0
SPLINE
  5
1B5
330
1F
100
AcDbEntity
  8
0
  6
Continuous
 62
     7
370
    30
100
AcDbSpline
210
0.0
220
0.0
230
1.0
 70
     8
 71
     3
 72
    10
 73
     6
 74
     0
 42
0.000000001
 43
0.00000001
 40
0.0
 40
0.0
 40
0.0
 40
0.0
 40
0.606840947363824
 40
0.9873412612572421
 40
1.0
 40
1.0
 40
1.0
 40
1.0
 10
105.3164868480604
 20
51.63807709483734
 30
0.0
 10
105.3029089934609
 20
51.69018243532999
 30
0.0
 10
105.2808175770137
 20
51.774958772233
 30
0.0
 10
105.2203633311779
 20
51.83241359339944
 30
0.0
 10
105.1945496454466
 20
51.85122755820183
 30
0.0
 10
105.1937185092907
 20
51.85183332084051
 30
0.0
  0
SPLINE
  5
1B6
330
1F
100
AcDbEntity
  8
0
  6
Continuous
 62
     7
370
    30
100
AcDbSpline
210
0.0
220
0.0
230
1.0
 70
     8
 71
     3
 72
    16
 73
    12
 74
     0
 42
0.000000001
 43
0.00000001
 40
0.0
 40
0.0
 40
0.0
 40
0.0
 40
0.0316438684956394
 40
0.1442296676122068
 40
0.2602597443776804
 40
0.3918268020132801
 40
0.5492075378286991
 40
0.7249904854135452
 40
0.8558656200540019
 40
0.9874200162773556
 40
1.0
 40
1.0
 40
1.0
 40
1.0
 10
105.3164868480604
 20
51.63807709483734
 30
0.0
 10
105.3179697856468
 20
51.62411794436048
 30
0.0
 10
105.3247288705925
 20
51.56049349737781
 30
0.0
 10
105.3515233111767
 20
51.40801612169553
 30
0.0
 10
105.4337940852062
 20
51.16542106833997
 30
0.0
 10
105.5866461643148
 20
50.89421718427078
 30
0.0
 10
105.831944108675
 20
50.62436710184172
 30
0.0
 10
106.1383212043936
 20
50.42816373010654
 30
0.0
 10
106.4365277496599
 20
50.3240238212808
 30
0.0
 10
106.5951609269682
 20
50.2988289429446
 30
0.0
 10
106.6571736002945
 20
50.29252786009474
 30
0.0
 10
106.6625860384743
 20
50.29197790442339
 30
0.0
  0
SPLINE
  5
1B7
330
1F
100
AcDbEntity
  8
0
  6
Continuous
 62
     7
370
    30
100
AcDbSpline
210
0.0
220
0.0
230
1.0
 70
     8
 71
     3
 72
    10
 73
     6
 74
     0
 42
0.000000001
 43
0.00000001
 40
0.0
 40
0.0
 40
0.0
 40
0.0
 40
0.012658738742758
 40
0.3931590526361761
 40
1.0
 40
1.0
 40
1.0
 40
1.0
 10
106.8763422644775
 20
50.16920956565372
 30
0.0
 10
106.8757365018388
 20
50.1700407018096
 30
0.0
 10
106.8569225370364
 20
50.19585438754088
 30
0.0
 10
106.79946771587
 20
50.25630863337672
 30
0.0
 10
106.714691378967
 20
50.27840004982391
 30
0.0
 10
106.6625860384743
 20
50.29197790442339
 30
0.0
  0
ARC
  5
1B8
330
1F
100
AcDbEntity
  8
0
  6
Continuous
 62
     7
370
    30
100
AcDbCircle
 10
100.7988873734
 20
45.7743784298
 30
0.0
 40
7.500000000000005
100
AcDbArc
 50
24.1279266565
 51
35.8720733435
  0
SPLINE
  5
1B9
330
1F
100
AcDbEntity
  8
0
  6
Continuous
 62
     7
370
    30
100
AcDbSpline
210
0.0
220
0.0
230
1.0
 70
     8
 71
     3
 72
    10
 73
     6
 74
     0
 42
0.000000001
 43
0.00000001
 40
0.0
 40
0.0
 40
0.0
 40
0.0
 40
0.6068410126447342
 40
0.9873412251729146
 40
1.0
 40
1.0
 40
1.0
 40
1.0
 10
107.6430926895779
 20
48.59369070051542
 30
0.0
 10
107.6573860905596
 20
48.64560420513869
 30
0.0
 10
107.6806417106365
 20
48.73006840941909
 30
0.0
 10
107.6570166148047
 20
48.81005322241583
 30
0.0
 10
107.6440670316063
 20
48.83925322254425
 30
0.0
 10
107.6436500861387
 20
48.84019339239529
 30
0.0
  0
SPLINE
  5
1BA
330
1F
100
AcDbEntity
  8
0
  6
Continuous
 62
     7
370
    30
100
AcDbSpline
210
0.0
220
0.0
230
1.0
 70
     8
 71
     3
 72
    16
 73
    12
 74
     0
 42
0.000000001
 43
0.00000001
 40
0.0
 40
0.0
 40
0.0
 40
0.0
 40
0.0316439023683922
 40
0.1442296392122166
 40
0.2602597571169638
 40
0.3918267963987368
 40
0.5492075488168273
 40
0.7249905281661598
 40
0.8558655637042016
 40
0.9874200196384919
 40
1.0
 40
1.0
 40
1.0
 40
1.0
 10
107.6430926895778
 20
48.59369070051542
 30
0.0
 10
107.6373972842241
 20
48.58086024018989
 30
0.0
 10
107.6114382147715
 20
48.52238032699411
 30
0.0
 10
107.5584050205497
 20
48.37693382728054
 30
0.0
 10
107.5083552320692
 20
48.12570504749092
 30
0.0
 10
107.5051277420611
 20
47.81440949926049
 30
0.0
 10
107.5826370420598
 20
47.45806359200184
 30
0.0
 10
107.7498654461366
 20
47.13495780659103
 30
0.0
 10
107.9560497230838
 20
46.89566673338182
 30
0.0
 10
108.0808329179386
 20
46.7945308416414
 30
0.0
 10
108.1313868015199
 20
46.75806746910029
 30
0.0
 10
108.1357991187911
 20
46.75488496447286
 30
0.0
  0
SPLINE
  5
1BB
330
1F
100
AcDbEntity
  8
0
  6
Continuous
 62
     7
370
    30
100
AcDbSpline
210
0.0
220
0.0
230
1.0
 70
     8
 71
     3
 72
    10
 73
     6
 74
     0
 42
0.000000001
 43
0.00000001
 40
0.0
 40
0.0
 40
0.0
 40
0.0
 40
0.012658853600274
 40
0.3931589754620573
 40
1.0
 40
1.0
 40
1.0
 40
1.0
 10
108.2595332390707
 20
46.5416861350306
 30
0.0
 10
108.2594242053113
 20
46.54270884293016
 30
0.0
 10
108.2560378322255
 20
46.57447212913945
 30
0.0
 10
108.236507765911
 20
46.65555285212304
 30
0.0
 10
108.1741348496205
 20
46.71707322505765
 30
0.0
 10
108.1357991187911
 20
46.75488496447286
 30
0.0
  0
ARC
  5
1BC
330
1F
100
AcDbEntity
  8
0
  6
Continuous
 62
     7
370
    30
100
AcDbCircle
 10
100.7988873734
 20
45.7743784298
 30
0.0
 40
7.500000000000052
100
AcDbArc
 50
354.1279266565
 51
5.8720733435
  0
SPLINE
  5
1BD
330
1F
100
AcDbEntity
  8
0
  6
Continuous
 62
     7
370
    30
100
AcDbSpline
210
0.0
220
0.0
230
1.0
 70
     8
 71
     3
 72
    10
 73
     6
 74
     0
 42
0.000000001
 43
0.00000001
 40
0.0
 40
0.0
 40
0.0
 40
0.0
 40
0.6068410245379426
 40
0.9873411463997259
 40
1.0
 40
1.0
 40
1.0
 40
1.0
 10
108.1357991187911
 20
44.79387189509652
 30
0.0
 10
108.1741348496205
 20
44.83168363451174
 30
0.0
 10
108.236507765911
 20
44.89320400744635
 30
0.0
 10
108.2560378322255
 20
44.97428473042993
 30
0.0
 10
108.2594242053113
 20
45.00604801663923
 30
0.0
 10
108.2595332390707
 20
45.00707072453878
 30
0.0
  0
SPLINE
  5
1BE
330
1F
100
AcDbEntity
  8
0
  6
Continuous
 62
     7
370
    30
100
AcDbSpline
210
0.0
220
0.0
230
1.0
 70
     8
 71
     3
 72
    16
 73
    12
 74
     0
 42
0.000000001
 43
0.00000001
 40
0.0
 40
0.0
 40
0.0
 40
0.0
 40
0.0316439063519371
 40
0.1442296805743742
 40
0.2602597424006518
 40
0.3918268013376485
 40
0.5492075570427526
 40
0.7249905339600109
 40
0.8558655874203588
 40
0.9874200393315994
 40
1.0
 40
1.0
 40
1.0
 40
1.0
 10
108.1357991187911
 20
44.79387189509652
 30
0.0
 10
108.1244515027488
 20
44.78560810998664
 30
0.0
 10
108.0727302323448
 20
44.74794262477515
 30
0.0
 10
107.9540791423801
 20
44.64849846389284
 30
0.0
 10
107.7851201177782
 20
44.45595317474962
 30
0.0
 10
107.6266774640164
 20
44.1879769174504
 30
0.0
 10
107.515629174784
 20
43.84061776982483
 30
0.0
 10
107.4989006814172
 20
43.47718565377146
 30
0.0
 10
107.5578159626546
 20
43.16686142253577
 30
0.0
 10
107.615313884925
 20
43.01688348976393
 30
0.0
 10
107.6408627966669
 20
42.96002843260194
 30
0.0
 10
107.6430926895778
 20
42.95506615905396
 30
0.0
  0
SPLINE
  5
1BF
330
1F
100
AcDbEntity
  8
0
  6
Continuous
 62
     7
370
    30
100
AcDbSpline
210
0.0
220
0.0
230
1.0
 70
     8
 71
     3
 72
    10
 73
     6
 74
     0
 42
0.000000001
 43
0.00000001
 40
0.0
 40
0.0
 40
0.0
 40
0.0
 40
0.0126587748270854
 40
0.3931589873552658
 40
1.0
 40
1.0
 40
1.0
 40
1.0
 10
107.6436500861387
 20
42.70856346717409
 30
0.0
 10
107.6440670316063
 20
42.70950363702513
 30
0.0
 10
107.6570166148047
 20
42.73870363715356
 30
0.0
 10
107.6806417106366
 20
42.81868845015029
 30
0.0
 10
107.6573860905596
 20
42.9031526544307
 30
0.0
 10
107.6430926895779
 20
42.95506615905396
 30
0.0
  0
ARC
  5
1C0
330
1F
100
AcDbEntity
  8
0
  6
Continuous
 62
     7
370
    30
100
AcDbCircle
 10
100.7988873734
 20
45.7743784298
 30
0.0
 40
7.500000000000103
100
AcDbArc
 50
324.1279266565
 51
335.8720733435
  0
SPLINE
  5
1C1
330
1F
100
AcDbEntity
  8
0
  6
Continuous
 62
     7
370
    30
100
AcDbSpline
210
0.0
220
0.0
230
1.0
 70
     8
 71
     3
 72
    10
 73
     6
 74
     0
 42
0.000000001
 43
0.00000001
 40
0.0
 40
0.0
 40
0.0
 40
0.0
 40
0.606840947363824
 40
0.9873412612572421
 40
1.0
 40
1.0
 40
1.0
 40
1.0
 10
106.6625860384743
 20
41.25677895514599
 30
0.0
 10
106.714691378967
 20
41.27035680974548
 30
0.0
 10
106.79946771587
 20
41.29244822619267
 30
0.0
 10
106.8569225370364
 20
41.35290247202848
 30
0.0
 10
106.8757365018388
 20
41.37871615775978
 30
0.0
 10
106.8763422644775
 20
41.37954729391566
 30
0.0
  0
SPLINE
  5
1C2
330
1F
100
AcDbEntity
  8
0
  6
Continuous
 62
     7
370
    30
100
AcDbSpline
210
0.0
220
0.0
230
1.0
 70
     8
 71
     3
 72
    16
 73
    12
 74
     0
 42
0.000000001
 43
0.00000001
 40
0.0
 40
0.0
 40
0.0
 40
0.0
 40
0.0316438684956394
 40
0.1442296676122068
 40
0.2602597443776804
 40
0.3918268020132801
 40
0.5492075378286991
 40
0.7249904854135452
 40
0.8558656200540019
 40
0.9874200162773556
 40
1.0
 40
1.0
 40
1.0
 40
1.0
 10
106.6625860384743
 20
41.25677895514599
 30
0.0
 10
106.6486268879975
 20
41.25529601755962
 30
0.0
 10
106.5850024410148
 20
41.2485369326139
 30
0.0
 10
106.4325250653325
 20
41.22174249202972
 30
0.0
 10
106.189930011977
 20
41.13947171800016
 30
0.0
 10
105.9187261279078
 20
40.98661963889163
 30
0.0
 10
105.6488760454787
 20
40.74132169453137
 30
0.0
 10
105.4526726737435
 20
40.43494459881273
 30
0.0
 10
105.3485327649178
 20
40.13673805354652
 30
0.0
 10
105.3233378865816
 20
39.97810487623818
 30
0.0
 10
105.3170368037317
 20
39.91609220291185
 30
0.0
 10
105.3164868480604
 20
39.91067976473204
 30
0.0
  0
SPLINE
  5
1C3
330
1F
100
AcDbEntity
  8
0
  6
Continuous
 62
     7
370
    30
100
AcDbSpline
210
0.0
220
0.0
230
1.0
 70
     8
 71
     3
 72
    10
 73
     6
 74
     0
 42
0.000000001
 43
0.00000001
 40
0.0
 40
0.0
 40
0.0
 40
0.0
 40
0.012658738742758
 40
0.3931590526361761
 40
1.0
 40
1.0
 40
1.0
 40
1.0
 10
105.1937185092907
 20
39.69692353872887
 30
0.0
 10
105.1945496454466
 20
39.69752930136756
 30
0.0
 10
105.2203633311779
 20
39.71634326616996
 30
0.0
 10
105.2808175770137
 20
39.77379808733638
 30
0.0
 10
105.3029089934609
 20
39.85857442423939
 30
0.0
 10
105.3164868480604
 20
39.91067976473204
 30
0.0
  0
ARC
  5
1C4
330
1F
100
AcDbEntity
  8
0
  6
Continuous
 62
     7
370
    30
100
AcDbCircle
 10
100.7988873734
 20
45.7743784298
 30
0.0
 40
7.500000000000194
100
AcDbArc
 50
294.1279266565
 51
305.8720733435
  0
SPLINE
  5
1C5
330
1F
100
AcDbEntity
  8
0
  6
Continuous
 62
     7
370
    30
100
AcDbSpline
210
0.0
220
0.0
230
1.0
 70
     8
 71
     3
 72
    10
 73
     6
 74
     0
 42
0.000000001
 43
0.00000001
 40
0.0
 40
0.0
 40
0.0
 40
0.0
 40
0.6068410126447342
 40
0.9873412251729146
 40
1.0
 40
1.0
 40
1.0
 40
1.0
 10
103.6181996441524
 20
38.93017311362854
 30
0.0
 10
103.6701131487757
 20
38.91587971264682
 30
0.0
 10
103.7545773530561
 20
38.89262409256985
 30
0.0
 10
103.8345621660528
 20
38.91624918840169
 30
0.0
 10
103.8637621661813
 20
38.92919877160006
 30
0.0
 10
103.8647023360323
 20
38.92961571706763
 30
0.0
  0
SPLINE
  5
1C6
330
1F
100
AcDbEntity
  8
0
  6
Continuous
 62
     7
370
    30
100
AcDbSpline
210
0.0
220
0.0
230
1.0
 70
     8
 71
     3
 72
    16
 73
    12
 74
     0
 42
0.000000001
 43
0.00000001
 40
0.0
 40
0.0
 40
0.0
 40
0.0
 40
0.0316439023683922
 40
0.1442296392122166
 40
0.2602597571169638
 40
0.3918267963987368
 40
0.5492075488168273
 40
0.7249905281661598
 40
0.8558655637042016
 40
0.9874200196384919
 40
1.0
 40
1.0
 40
1.0
 40
1.0
 10
103.6181996441524
 20
38.93017311362854
 30
0.0
 10
103.6053691838269
 20
38.93586851898225
 30
0.0
 10
103.5468892706311
 20
38.96182758843484
 30
0.0
 10
103.4014427709175
 20
39.01486078265673
 30
0.0
 10
103.1502139911279
 20
39.0649105711372
 30
0.0
 10
102.8389184428975
 20
39.06813806114532
 30
0.0
 10
102.4825725356389
 20
38.9906287611466
 30
0.0
 10
102.159466750228
 20
38.82340035706974
 30
0.0
 10
101.9201756770188
 20
38.61721608012256
 30
0.0
 10
101.8190397852784
 20
38.49243288526781
 30
0.0
 10
101.7825764127373
 20
38.44187900168651
 30
0.0
 10
101.7793939081099
 20
38.43746668441526
 30
0.0
  0
SPLINE
  5
1C7
330
1F
100
AcDbEntity
  8
0
  6
Continuous
 62
     7
370
    30
100
AcDbSpline
210
0.0
220
0.0
230
1.0
 70
     8
 71
     3
 72
    10
 73
     6
 74
     0
 42
0.000000001
 43
0.00000001
 40
0.0
 40
0.0
 40
0.0
 40
0.0
 40
0.012658853600274
 40
0.3931589754620573
 40
1.0
 40
1.0
 40
1.0
 40
1.0
 10
101.5661950786676
 20
38.31373256413571
 30
0.0
 10
101.5672177865672
 20
38.31384159789509
 30
0.0
 10
101.5989810727765
 20
38.31722797098092
 30
0.0
 10
101.68006179576
 20
38.33675803729542
 30
0.0
 10
101.7415821686946
 20
38.3991309535859
 30
0.0
 10
101.7793939081099
 20
38.43746668441526
 30
0.0
  0
ARC
  5
1C8
330
1F
100
AcDbEntity
  8
0
  6
Continuous
 62
     7
370
    30
100
AcDbCircle
 10
100.7988873734
 20
45.7743784298
 30
0.0
 40
7.500000000000208
100
AcDbArc
 50
264.1279266565
 51
275.8720733435
  0
SPLINE
  5
1C9
330
1F
100
AcDbEntity
  8
0
  6
Continuous
 62
     7
370
    30
100
AcDbSpline
210
0.0
220
0.0
230
1.0
 70
     8
 71
     3
 72
    10
 73
     6
 74
     0
 42
0.000000001
 43
0.00000001
 40
0.0
 40
0.0
 40
0.0
 40
0.0
 40
0.6068410245379426
 40
0.9873411463997259
 40
1.0
 40
1.0
 40
1.0
 40
1.0
 10
99.81838083873353
 20
38.43746668441526
 30
0.0
 10
99.85619257814875
 20
38.3991309535859
 30
0.0
 10
99.91771295108336
 20
38.33675803729543
 30
0.0
 10
99.99879367406693
 20
38.31722797098092
 30
0.0
 10
100.0305569602762
 20
38.31384159789509
 30
0.0
 10
100.0315796681758
 20
38.31373256413571
 30
0.0
  0
SPLINE
  5
1CA
330
1F
100
AcDbEntity
  8
0
  6
Continuous
 62
     7
370
    30
100
AcDbSpline
210
0.0
220
0.0
230
1.0
 70
     8
 71
     3
 72
    16
 73
    12
 74
     0
 42
0.000000001
 43
0.00000001
 40
0.0
 40
0.0
 40
0.0
 40
0.0
 40
0.0316439063519371
 40
0.1442296805743742
 40
0.2602597424006518
 40
0.3918268013376485
 40
0.5492075570427526
 40
0.7249905339600109
 40
0.8558655874203588
 40
0.9874200393315994
 40
1.0
 40
1.0
 40
1.0
 40
1.0
 10
99.81838083873353
 20
38.43746668441526
 30
0.0
 10
99.81011705362364
 20
38.44881430045758
 30
0.0
 10
99.77245156841215
 20
38.50053557086156
 30
0.0
 10
99.67300740752984
 20
38.61918666082632
 30
0.0
 10
99.48046211838663
 20
38.78814568542821
 30
0.0
 10
99.2124858610874
 20
38.94658833918997
 30
0.0
 10
98.86512671346185
 20
39.0576366284224
 30
0.0
 10
98.50169459740847
 20
39.0743651217892
 30
0.0
 10
98.19137036617278
 20
39.01544984055176
 30
0.0
 10
98.04139243340094
 20
38.95795191828134
 30
0.0
 10
97.98453737623893
 20
38.93240300653948
 30
0.0
 10
97.97957510269097
 20
38.93017311362854
 30
0.0
  0
SPLINE
  5
1CB
330
1F
100
AcDbEntity
  8
0
  6
Continuous
 62
     7
370
    30
100
AcDbSpline
210
0.0
220
0.0
230
1.0
 70
     8
 71
     3
 72
    10
 73
     6
 74
     0
 42
0.000000001
 43
0.00000001
 40
0.0
 40
0.0
 40
0.0
 40
0.0
 40
0.0126587748270854
 40
0.3931589873552658
 40
1.0
 40
1.0
 40
1.0
 40
1.0
 10
97.7330724108111
 20
38.92961571706763
 30
0.0
 10
97.73401258066212
 20
38.92919877160006
 30
0.0
 10
97.76321258079055
 20
38.91624918840171
 30
0.0
 10
97.84319739378729
 20
38.89262409256984
 30
0.0
 10
97.92766159806769
 20
38.91587971264682
 30
0.0
 10
97.97957510269096
 20
38.93017311362854
 30
0.0
  0
ARC
  5
1CC
330
1F
100
AcDbEntity
  8
0
  6
Continuous
 62
     7
370
    30
100
AcDbCircle
 10
100.7988873734
 20
45.7743784298
 30
0.0
 40
7.500000000000196
100
AcDbArc
 50
234.1279266565
 51
245.8720733435
  0
SPLINE
  5
1CD
330
1F
100
AcDbEntity
  8
0
  6
Continuous
 62
     7
370
    30
100
AcDbSpline
210
0.0
220
0.0
230
1.0
 70
     8
 71
     3
 72
    10
 73
     6
 74
     0
 42
0.000000001
 43
0.00000001
 40
0.0
 40
0.0
 40
0.0
 40
0.0
 40
0.606840947363824
 40
0.9873412612572421
 40
1.0
 40
1.0
 40
1.0
 40
1.0
 10
96.28128789878299
 20
39.91067976473204
 30
0.0
 10
96.29486575338248
 20
39.85857442423939
 30
0.0
 10
96.31695716982968
 20
39.77379808733639
 30
0.0
 10
96.37741141566548
 20
39.71634326616995
 30
0.0
 10
96.40322510139677
 20
39.69752930136756
 30
0.0
 10
96.40405623755267
 20
39.69692353872887
 30
0.0
  0
SPLINE
  5
1CE
330
1F
100
AcDbEntity
  8
0
  6
Continuous
 62
     7
370
    30
100
AcDbSpline
210
0.0
220
0.0
230
1.0
 70
     8
 71
     3
 72
    16
 73
    12
 74
     0
 42
0.000000001
 43
0.00000001
 40
0.0
 40
0.0
 40
0.0
 40
0.0
 40
0.0316438684956394
 40
0.1442296676122068
 40
0.2602597443776804
 40
0.3918268020132801
 40
0.5492075378286991
 40
0.7249904854135452
 40
0.8558656200540019
 40
0.9874200162773556
 40
1.0
 40
1.0
 40
1.0
 40
1.0
 10
96.28128789878299
 20
39.91067976473204
 30
0.0
 10
96.27980496119662
 20
39.92463891520891
 30
0.0
 10
96.2730458762509
 20
39.98826336219158
 30
0.0
 10
96.24625143566674
 20
40.14074073787386
 30
0.0
 10
96.16398066163715
 20
40.38333579122941
 30
0.0
 10
96.01112858252863
 20
40.65453967529861
 30
0.0
 10
95.76583063816838
 20
40.92438975772767
 30
0.0
 10
95.45945354244974
 20
41.12059312946284
 30
0.0
 10
95.16124699718353
 20
41.22473303828859
 30
0.0
 10
95.00261381987518
 20
41.24992791662479
 30
0.0
 10
94.94060114654884
 20
41.25622899947465
 30
0.0
 10
94.93518870836904
 20
41.25677895514599
 30
0.0
  0
SPLINE
  5
1CF
330
1F
100
AcDbEntity
  8
0
  6
Continuous
 62
     7
370
    30
100
AcDbSpline
210
0.0
220
0.0
230
1.0
 70
     8
 71
     3
 72
    10
 73
     6
 74
     0
 42
0.000000001
 43
0.00000001
 40
0.0
 40
0.0
 40
0.0
 40
0.0
 40
0.012658738742758
 40
0.3931590526361761
 40
1.0
 40
1.0
 40
1.0
 40
1.0
 10
94.72143248236587
 20
41.37954729391566
 30
0.0
 10
94.72203824500455
 20
41.37871615775978
 30
0.0
 10
94.74085220980696
 20
41.3529024720285
 30
0.0
 10
94.79830703097338
 20
41.29244822619266
 30
0.0
 10
94.8830833678764
 20
41.27035680974547
 30
0.0
 10
94.93518870836904
 20
41.25677895514599
 30
0.0
  0
ARC
  5
1D0
330
1F
100
AcDbEntity
  8
0
  6
Continuous
 62
     7
370
    30
100
AcDbCircle
 10
100.7988873734
 20
45.7743784298
 30
0.0
 40
7.500000000000127
100
AcDbArc
 50
204.1279266565
 51
215.8720733435
  0
SPLINE
  5
1D1
330
1F
100
AcDbEntity
  8
0
  6
Continuous
 62
     7
370
    30
100
AcDbSpline
210
0.0
220
0.0
230
1.0
 70
     8
 71
     3
 72
    10
 73
     6
 74
     0
 42
0.000000001
 43
0.00000001
 40
0.0
 40
0.0
 40
0.0
 40
0.0
 40
0.6068410126447342
 40
0.9873412251729146
 40
1.0
 40
1.0
 40
1.0
 40
1.0
 10
93.95468205726554
 20
42.95506615905396
 30
0.0
 10
93.94038865628382
 20
42.9031526544307
 30
0.0
 10
93.91713303620686
 20
42.81868845015029
 30
0.0
 10
93.94075813203868
 20
42.73870363715355
 30
0.0
 10
93.95370771523706
 20
42.70950363702513
 30
0.0
 10
93.95412466070464
 20
42.70856346717409
 30
0.0
  0
SPLINE
  5
1D2
330
1F
100
AcDbEntity
  8
0
  6
Continuous
 62
     7
370
    30
100
AcDbSpline
210
0.0
220
0.0
230
1.0
 70
     8
 71
     3
 72
    16
 73
    12
 74
     0
 42
0.000000001
 43
0.00000001
 40
0.0
 40
0.0
 40
0.0
 40
0.0
 40
0.0316439023683922
 40
0.1442296392122166
 40
0.2602597571169638
 40
0.3918267963987368
 40
0.5492075488168273
 40
0.7249905281661598
 40
0.8558655637042016
 40
0.9874200196384919
 40
1.0
 40
1.0
 40
1.0
 40
1.0
 10
93.95468205726554
 20
42.95506615905396
 30
0.0
 10
93.96037746261925
 20
42.96789661937949
 30
0.0
 10
93.98633653207185
 20
43.02637653257528
 30
0.0
 10
94.03936972629373
 20
43.17182303228884
 30
0.0
 10
94.0894195147742
 20
43.42305181207846
 30
0.0
 10
94.09264700478232
 20
43.7343473603089
 30
0.0
 10
94.0151377047836
 20
44.09069326756754
 30
0.0
 10
93.84790930070675
 20
44.41379905297836
 30
0.0
 10
93.64172502375956
 20
44.65309012618756
 30
0.0
 10
93.5169418289048
 20
44.75422601792798
 30
0.0
 10
93.46638794532352
 20
44.7906893904691
 30
0.0
 10
93.46197562805226
 20
44.79387189509652
 30
0.0
  0
SPLINE
  5
1D3
330
1F
100
AcDbEntity
  8
0
  6
Continuous
 62
     7
370
    30
100
AcDbSpline
210
0.0
220
0.0
230
1.0
 70
     8
 71
     3
 72
    10
 73
     6
 74
     0
 42
0.000000001
 43
0.00000001
 40
0.0
 40
0.0
 40
0.0
 40
0.0
 40
0.012658853600274
 40
0.3931589754620573
 40
1.0
 40
1.0
 40
1.0
 40
1.0
 10
93.33824150777271
 20
45.00707072453878
 30
0.0
 10
93.33835054153208
 20
45.00604801663923
 30
0.0
 10
93.34173691461791
 20
44.97428473042993
 30
0.0
 10
93.36126698093241
 20
44.89320400744635
 30
0.0
 10
93.4236398972229
 20
44.83168363451174
 30
0.0
 10
93.46197562805226
 20
44.79387189509652
 30
0.0
  0
ARC
  5
1D4
330
1F
100
AcDbEntity
  8
0
  6
Continuous
 62
     7
370
    30
100
AcDbCircle
 10
100.7988873734
 20
45.7743784298
 30
0.0
 40
7.500000000000005
100
AcDbArc
 50
174.1279266565
 51
185.8720733435
  0
SPLINE
  5
1D5
330
1F
100
AcDbEntity
  8
0
  6
Continuous
 62
     7
370
    30
100
AcDbSpline
210
0.0
220
0.0
230
1.0
 70
     8
 71
     3
 72
    10
 73
     6
 74
     0
 42
0.000000001
 43
0.00000001
 40
0.0
 40
0.0
 40
0.0
 40
0.0
 40
0.6068410245379426
 40
0.9873411463997259
 40
1.0
 40
1.0
 40
1.0
 40
1.0
 10
93.46197562805226
 20
46.75488496447286
 30
0.0
 10
93.4236398972229
 20
46.71707322505765
 30
0.0
 10
93.36126698093243
 20
46.65555285212304
 30
0.0
 10
93.34173691461791
 20
46.57447212913945
 30
0.0
 10
93.33835054153208
 20
46.54270884293016
 30
0.0
 10
93.33824150777271
 20
46.5416861350306
 30
0.0
  0
SPLINE
  5
1D6
330
1F
100
AcDbEntity
  8
0
  6
Continuous
 62
     7
370
    30
100
AcDbSpline
210
0.0
220
0.0
230
1.0
 70
     8
 71
     3
 72
    16
 73
    12
 74
     0
 42
0.000000001
 43
0.00000001
 40
0.0
 40
0.0
 40
0.0
 40
0.0
 40
0.0316439063519371
 40
0.1442296805743742
 40
0.2602597424006518
 40
0.3918268013376485
 40
0.5492075570427526
 40
0.7249905339600109
 40
0.8558655874203588
 40
0.9874200393315994
 40
1.0
 40
1.0
 40
1.0
 40
1.0
 10
93.46197562805226
 20
46.75488496447286
 30
0.0
 10
93.47332324409459
 20
46.76314874958274
 30
0.0
 10
93.52504451449856
 20
46.80081423479424
 30
0.0
 10
93.64369560446333
 20
46.90025839567654
 30
0.0
 10
93.81265462906521
 20
47.09280368481976
 30
0.0
 10
93.97109728282697
 20
47.36077994211899
 30
0.0
 10
94.0821455720594
 20
47.70813908974455
 30
0.0
 10
94.09887406542619
 20
48.07157120579792
 30
0.0
 10
94.03995878418877
 20
48.38189543703362
 30
0.0
 10
93.98246086191833
 20
48.53187336980545
 30
0.0
 10
93.95691195017649
 20
48.58872842696744
 30
0.0
 10
93.95468205726554
 20
48.59369070051542
 30
0.0
  0
SPLINE
  5
1D7
330
1F
100
AcDbEntity
  8
0
  6
Continuous
 62
     7
370
    30
100
AcDbSpline
210
0.0
220
0.0
230
1.0
 70
     8
 71
     3
 72
    10
 73
     6
 74
     0
 42
0.000000001
 43
0.00000001
 40
0.0
 40
0.0
 40
0.0
 40
0.0
 40
0.0126587748270854
 40
0.3931589873552658
 40
1.0
 40
1.0
 40
1.0
 40
1.0
 10
93.95412466070464
 20
48.84019339239529
 30
0.0
 10
93.95370771523706
 20
48.83925322254425
 30
0.0
 10
93.9407581320387
 20
48.81005322241583
 30
0.0
 10
93.91713303620685
 20
48.73006840941909
 30
0.0
 10
93.94038865628382
 20
48.64560420513869
 30
0.0
 10
93.95468205726554
 20
48.59369070051542
 30
0.0
  0
ARC
  5
1D8
330
1F
100
AcDbEntity
  8
0
  6
Continuous
 62
     7
370
    30
100
AcDbCircle
 10
100.7988873734
 20
45.7743784298
 30
0.0
 40
7.49999999999999
100
AcDbArc
 50
144.1279266565
 51
155.8720733435
  0
SPLINE
  5
1D9
330
1F
100
AcDbEntity
  8
0
  6
Continuous
 62
     7
370
    30
100
AcDbSpline
210
0.0
220
0.0
230
1.0
 70
     8
 71
     3
 72
    10
 73
     6
 74
     0
 42
0.000000001
 43
0.00000001
 40
0.0
 40
0.0
 40
0.0
 40
0.0
 40
0.606840947363824
 40
0.9873412612572421
 40
1.0
 40
1.0
 40
1.0
 40
1.0
 10
94.93518870836904
 20
50.29197790442339
 30
0.0
 10
94.8830833678764
 20
50.2784000498239
 30
0.0
 10
94.79830703097339
 20
50.25630863337671
 30
0.0
 10
94.74085220980695
 20
50.1958543875409
 30
0.0
 10
94.72203824500455
 20
50.1700407018096
 30
0.0
 10
94.72143248236587
 20
50.16920956565372
 30
0.0
  0
SPLINE
  5
1DA
330
1F
100
AcDbEntity
  8
0
  6
Continuous
 62
     7
370
    30
100
AcDbSpline
210
0.0
220
0.0
230
1.0
 70
     8
 71
     3
 72
    16
 73
    12
 74
     0
 42
0.000000001
 43
0.00000001
 40
0.0
 40
0.0
 40
0.0
 40
0.0
 40
0.0316438684956394
 40
0.1442296676122068
 40
0.2602597443776804
 40
0.3918268020132801
 40
0.5492075378286991
 40
0.7249904854135452
 40
0.8558656200540019
 40
0.9874200162773556
 40
1.0
 40
1.0
 40
1.0
 40
1.0
 10
94.93518870836904
 20
50.29197790442339
 30
0.0
 10
94.9491478588459
 20
50.29346084200976
 30
0.0
 10
95.01277230582858
 20
50.30021992695548
 30
0.0
 10
95.16524968151086
 20
50.32701436753966
 30
0.0
 10
95.40784473486642
 20
50.40928514156923
 30
0.0
 10
95.6790486189356
 20
50.56213722067776
 30
0.0
 10
95.94889870136467
 20
50.80743516503801
 30
0.0
 10
96.14510207309984
 20
51.11381226075665
 30
0.0
 10
96.24924198192558
 20
51.41201880602286
 30
0.0
 10
96.2744368602618
 20
51.5706519833312
 30
0.0
 10
96.28073794311165
 20
51.63266465665754
 30
0.0
 10
96.28128789878299
 20
51.63807709483734
 30
0.0
  0
SPLINE
  5
1DB
330
1F
100
AcDbEntity
  8
0
  6
Continuous
 62
     7
370
    30
100
AcDbSpline
210
0.0
220
0.0
230
1.0
 70
     8
 71
     3
 72
    10
 73
     6
 74
     0
 42
0.000000001
 43
0.00000001
 40
0.0
 40
0.0
 40
0.0
 40
0.0
 40
0.012658738742758
 40
0.3931590526361761
 40
1.0
 40
1.0
 40
1.0
 40
1.0
 10
96.40405623755267
 20
51.85183332084051
 30
0.0
 10
96.40322510139677
 20
51.85122755820183
 30
0.0
 10
96.37741141566549
 20
51.83241359339943
 30
0.0
 10
96.31695716982966
 20
51.774958772233
 30
0.0
 10
96.29486575338248
 20
51.69018243532999
 30
0.0
 10
96.28128789878299
 20
51.63807709483734
 30
0.0
  0
ARC
  5
1DC
330
1F
100
AcDbEntity
  8
0
  6
Continuous
 62
     7
370
    30
100
AcDbCircle
 10
100.7988873734
 20
45.7743784298
 30
0.0
 40
7.499999999999991
100
AcDbArc
 50
114.1279266565
 51
125.8720733435
  0
SPLINE
  5
1DD
330
1F
100
AcDbEntity
  8
0
  6
Continuous
 62
     7
370
    30
100
AcDbSpline
210
0.0
220
0.0
230
1.0
 70
     8
 71
     3
 72
    10
 73
     6
 74
     0
 42
0.000000001
 43
0.00000001
 40
0.0
 40
0.0
 40
0.0
 40
0.0
 40
0.6068410126447342
 40
0.9873412251729146
 40
1.0
 40
1.0
 40
1.0
 40
1.0
 10
97.97957510269096
 20
52.61858374594084
 30
0.0
 10
97.92766159806769
 20
52.63287714692257
 30
0.0
 10
97.8431973937873
 20
52.65613276699953
 30
0.0
 10
97.76321258079055
 20
52.6325076711677
 30
0.0
 10
97.73401258066212
 20
52.61955808796932
 30
0.0
 10
97.7330724108111
 20
52.61914114250175
 30
0.0
  0
SPLINE
  5
1DE
330
1F
100
AcDbEntity
  8
0
  6
Continuous
 62
     7
370
    30
100
AcDbSpline
210
0.0
220
0.0
230
1.0
 70
     8
 71
     3
 72
    16
 73
    12
 74
     0
 42
0.000000001
 43
0.00000001
 40
0.0
 40
0.0
 40
0.0
 40
0.0
 40
0.0316439023683922
 40
0.1442296392122166
 40
0.2602597571169638
 40
0.3918267963987368
 40
0.5492075488168273
 40
0.7249905281661598
 40
0.8558655637042016
 40
0.9874200196384919
 40
1.0
 40
1.0
 40
1.0
 40
1.0
 10
97.97957510269097
 20
52.61858374594084
 30
0.0
 10
97.9924055630165
 20
52.61288834058713
 30
0.0
 10
98.05088547621229
 20
52.58692927113454
 30
0.0
 10
98.19633197592586
 20
52.53389607691265
 30
0.0
 10
98.44756075571547
 20
52.48384628843218
 30
0.0
 10
98.75885630394589
 20
52.48061879842406
 30
0.0
 10
99.11520221120453
 20
52.55812809842278
 30
0.0
 10
99.43830799661536
 20
52.72535650249964
 30
0.0
 10
99.67759906982455
 20
52.93154077944683
 30
0.0
 10
99.778734961565
 20
53.05632397430157
 30
0.0
 10
99.8151983341061
 20
53.10687785788287
 30
0.0
 10
99.81838083873353
 20
53.11129017515412
 30
0.0
  0
CIRCLE
  5
1DF
330
1F
100
AcDbEntity
  8
0
  6
Continuous
 62
     7
370
    30
100
AcDbCircle
 10
100.7988873734
 20
45.7743784298
 30
0.0
 40
6.500000000000043
  0
CIRCLE
  5
1E0
330
1F
100
AcDbEntity
  8
0
  6
Continuous
 62
     7
370
    30
100
AcDbCircle
 10
100.7988873734
 20
45.7743784298
 30
0.0
 40
2.350000000000009
  0
LINE
  5
1E1
330
1F
100
AcDbEntity
  8
0
  6
Continuous
 62
     7
370
    30
100
AcDbLine
 10
99.6441868465
 20
45.7743784298
 30
0.0
 11
100.2215371099
 21
44.7743783823
 31
0.0
  0
LINE
  5
1E2
330
1F
100
AcDbEntity
  8
0
  6
Continuous
 62
     7
370
    30
100
AcDbLine
 10
100.2215371099
 20
44.7743783823
 30
0.0
 11
101.3762376369
 21
44.7743783823
 31
0.0
  0
LINE
  5
1E3
330
1F
100
AcDbEntity
  8
0
  6
Continuous
 62
     7
370
    30
100
AcDbLine
 10
101.3762376369
 20
44.7743783823
 30
0.0
 11
101.9535879004
 21
45.7743784298
 31
0.0
  0
LINE
  5
1E4
330
1F
100
AcDbEntity
  8
0
  6
Continuous
 62
     7
370
    30
100
AcDbLine
 10
101.9535879004
 20
45.7743784298
 30
0.0
 11
101.3762376369
 21
46.7743784773
 31
0.0
  0
LINE
  5
1E5
330
1F
100
AcDbEntity
  8
0
  6
Continuous
 62
     7
370
    30
100
AcDbLine
 10
101.3762376369
 20
46.7743784773
 30
0.0
 11
100.2215371099
 21
46.7743784773
 31
0.0
  0
LINE
  5
1E6
330
1F
100
AcDbEntity
  8
0
  6
Continuous
 62
     7
370
    30
100
AcDbLine
 10
100.2215371099
 20
46.7743784773
 30
0.0
 11
99.6441868465
 21
45.7743784298
 31
0.0
  0
DIMENSION
  5
1E7
330
1F
100
AcDbEntity
  8
DIM
100
AcDbDimension
  2
_D_4
 10
106.0712028181
 20
40.4402721455
 30
0.0
 11
87.9578284188
 21
57.5681284202
 31
0.0
 70
   163
  1
<>
 71
     1
 42
-1.0
  3
SLDDIMSTYLE2
100
AcDbDiametricDimension
 15
95.5265719287
 25
51.108484714
 35
0.0
 40
0.0
  0
DIMENSION
  5
1F2
330
1F
100
AcDbEntity
  8
DIM
100
AcDbDimension
  2
_D_5
 10
106.2837149307
 20
34.2743784298
 30
0.0
 11
107.1497403345
 21
34.7743784298
 31
0.0
 70
   160
  1
<>
 71
     2
 42
-1.0
  3
SLDDIMSTYLE3
100
AcDbAlignedDimension
 13
101.9535879118
 23
45.7743784298
 33
0.0
 14
100.2215371042
 24
44.7743784298
 34
0.0
 50
30.0
100
AcDbRotatedDimension
  0
INSERT
  5
20A
330
1F
100
AcDbEntity
  8
DIM
100
AcDbBlockReference
  2
SW_CENTERMARKSYMBOL_0
 10
100.7988873734
 20
45.7743784298
 30
0.0
  0
SPLINE
  5
20B
330
1F
100
AcDbEntity
  8
0
  6
Continuous
 62
     7
370
    30
100
AcDbSpline
210
0.0
220
0.0
230
1.0
 70
     8
 71
     3
 72
    10
 73
     6
 74
     0
 42
0.000000001
 43
0.00000001
 40
0.0
 40
0.0
 40
0.0
 40
0.0
 40
0.0700837348537959
 40
0.575708236898
 40
1.0
 40
1.0
 40
1.0
 40
1.0
 10
134.3858839644703
 20
70.0616628671064
 30
0.0
 10
134.3905602221136
 20
70.08887746537243
 30
0.0
 10
134.428973700629
 20
70.31243387854451
 30
0.0
 10
134.4609088042297
 20
70.69243770677015
 30
0.0
 10
134.4687114535518
 20
71.03693490309934
 30
0.0
 10
134.4722715588664
 20
71.19411821980498
 30
0.0
  0
SPLINE
  5
20C
330
1F
100
AcDbEntity
  8
0
  6
Continuous
 62
     7
370
    30
100
AcDbSpline
210
0.0
220
0.0
230
1.0
 70
     8
 71
     3
 72
    14
 73
    10
 74
     0
 42
0.000000001
 43
0.00000001
 40
0.0
 40
0.0
 40
0.0
 40
0.0
 40
0.0732589581359762
 40
0.2530562279226506
 40
0.4329264412200828
 40
0.6129609542145528
 40
0.7932786457605678
 40
0.9739965256007576
 40
0.9999999999999999
 40
0.9999999999999999
 40
0.9999999999999999
 40
0.9999999999999999
 10
132.7926294077487
 20
65.83853155121253
 30
0.0
 10
132.8393751778982
 20
65.91206153342789
 30
0.0
 10
133.0008476935653
 20
66.16605395172174
 30
0.0
 10
133.2475467922033
 20
66.61997226618895
 30
0.0
 10
133.5300915877485
 20
67.19482249916979
 30
0.0
 10
133.7789717764724
 20
67.78084735622889
 30
0.0
 10
133.9896929025323
 20
68.3721152517234
 30
0.0
 10
134.1239321287679
 20
68.79697498602273
 30
0.0
 10
134.1757583820771
 20
69.02183144813519
 30
0.0
 10
134.1822776052899
 20
69.05011613733703
 30
0.0
  0
SPLINE
  5
20D
330
1F
100
AcDbEntity
  8
0
  6
Continuous
 62
     7
370
    30
100
AcDbSpline
210
0.0
220
0.0
230
1.0
 70
     8
 71
     3
 72
    12
 73
     8
 74
     0
 42
0.000000001
 43
0.00000001
 40
0.0
 40
0.0
 40
0.0
 40
0.0
 40
0.1772142914843298
 40
0.4067124597184037
 40
0.6357837927854042
 40
0.8645416606993306
 40
1.0
 40
1.0
 40
1.0
 40
1.0
 10
131.0857908634046
 20
63.68969826927493
 30
0.0
 10
131.1976755476117
 20
63.80041971083241
 30
0.0
 10
131.4544544718032
 20
64.05452895598545
 30
0.0
 10
131.8352451286648
 20
64.49130402384074
 30
0.0
 10
132.2266113364578
 20
64.98952209705064
 30
0.0
 10
132.5474933382076
 20
65.43986696709716
 30
0.0
 10
132.7261747021522
 20
65.73045631928632
 30
0.0
 10
132.7926294077487
 20
65.83853155121253
 30
0.0
  0
SPLINE
  5
20E
330
1F
100
AcDbEntity
  8
0
  6
Continuous
 62
     7
370
    30
100
AcDbSpline
210
0.0
220
0.0
230
1.0
 70
     8
 71
     3
 72
    12
 73
     8
 74
     0
 42
0.000000001
 43
0.00000001
 40
0.0
 40
0.0
 40
0.0
 40
0.0
 40
0.0547418604295307
 40
0.3210727553807483
 40
0.5891748023324492
 40
0.8579935062527156
 40
1.0
 40
1.0
 40
1.0
 40
1.0
 10
128.5410437849106
 20
61.96414040780614
 30
0.0
 10
128.5742660829119
 20
61.97610107956214
 30
0.0
 10
128.7691219879846
 20
62.04625298537552
 30
0.0
 10
129.124256623475
 20
62.2227716104541
 30
0.0
 10
129.6032533535438
 20
62.49646345486806
 30
0.0
 10
130.0033108421233
 20
62.7628444756935
 30
0.0
 10
130.2383034840082
 20
62.95108579501825
 30
0.0
 10
130.3195314157902
 20
63.01615359000122
 30
0.0
  0
SPLINE
  5
20F
330
1F
100
AcDbEntity
  8
0
  6
Continuous
 62
     7
370
    30
100
AcDbSpline
210
0.0
220
0.0
230
1.0
 70
     8
 71
     3
 72
    12
 73
     8
 74
     0
 42
0.000000001
 43
0.00000001
 40
0.0
 40
0.0
 40
0.0
 40
0.0
 40
0.0552032461323008
 40
0.3606222499566932
 40
0.6698865223402873
 40
0.9846834619284213
 40
0.9999999999999999
 40
0.9999999999999999
 40
0.9999999999999999
 40
0.9999999999999999
 10
125.8573460847233
 20
61.74148449276738
 30
0.0
 10
125.8813788508259
 20
61.73336720608867
 30
0.0
 10
126.0383759622606
 20
61.68033999499664
 30
0.0
 10
126.3468671884388
 20
61.63052825839888
 30
0.0
 10
126.7803905719338
 20
61.60133887627102
 30
0.0
 10
127.0839155411313
 20
61.6051104237839
 30
0.0
 10
127.2421170685972
 20
61.63022643184924
 30
0.0
 10
127.2494572709288
 20
61.63139175928897
 30
0.0
  0
SPLINE
  5
210
330
1F
100
AcDbEntity
  8
0
  6
Continuous
 62
     7
370
    30
100
AcDbSpline
210
0.0
220
0.0
230
1.0
 70
     8
 71
     3
 72
    11
 73
     7
 74
     0
 42
0.000000001
 43
0.00000001
 40
0.0
 40
0.0
 40
0.0
 40
0.0
 40
0.0463962388353994
 40
0.3851281605155945
 40
0.7166881954101856
 40
1.0
 40
1.0
 40
1.0
 40
1.0
 10
134.0324291992472
 20
73.42993602355523
 30
0.0
 10
134.0243467280493
 20
73.45039706672024
 30
0.0
 10
133.9572553572183
 20
73.62024109102418
 30
0.0
 10
133.7882040210675
 20
73.90564674329951
 30
0.0
 10
133.5405070386937
 20
74.26602682378333
 30
0.0
 10
133.3454965869629
 20
74.46397794661395
 30
0.0
 10
133.2556424751856
 20
74.55518701853494
 30
0.0
  0
SPLINE
  5
211
330
1F
100
AcDbEntity
  8
0
  6
Continuous
 62
     7
370
    30
100
AcDbSpline
210
0.0
220
0.0
230
1.0
 70
     8
 71
     3
 72
    10
 73
     6
 74
     0
 42
0.000000001
 43
0.00000001
 40
0.0
 40
0.0
 40
0.0
 40
0.0
 40
0.3132724477600464
 40
0.8992959334650731
 40
1.0
 40
1.0
 40
1.0
 40
1.0
 10
134.4722715588664
 20
71.19411821980498
 30
0.0
 10
134.4707024789344
 20
71.2932523041282
 30
0.0
 10
134.4661981977176
 20
71.57783168395268
 30
0.0
 10
134.4464756129806
 20
71.88883085478798
 30
0.0
 10
134.4094990794636
 20
72.09029334270006
 30
0.0
 10
134.4040767146853
 20
72.11983648789762
 30
0.0
  0
SPLINE
  5
212
330
1F
100
AcDbEntity
  8
0
  6
Continuous
 62
     7
370
    30
100
AcDbSpline
210
0.0
220
0.0
230
1.0
 70
     8
 71
     3
 72
    11
 73
     7
 74
     0
 42
0.000000001
 43
0.00000001
 40
0.0
 40
0.0
 40
0.0
 40
0.0
 40
0.323110288797334
 40
0.655991710946302
 40
0.9813931144683604
 40
1.0
 40
1.0
 40
1.0
 40
1.0
 10
119.4753814559959
 20
66.09992350862275
 30
0.0
 10
119.541148700371
 20
65.96370755383596
 30
0.0
 10
119.6746720472207
 20
65.6871563564991
 30
0.0
 10
119.9342314520689
 20
65.32096004594044
 30
0.0
 10
120.129065682262
 20
65.08064330840209
 30
0.0
 10
120.2464489899275
 20
64.97985392822389
 30
0.0
 10
120.2527980746402
 20
64.9744023838296
 30
0.0
  0
SPLINE
  5
213
330
1F
100
AcDbEntity
  8
0
  6
Continuous
 62
     7
370
    30
100
AcDbSpline
210
0.0
220
0.0
230
1.0
 70
     8
 71
     3
 72
    12
 73
     8
 74
     0
 42
0.000000001
 43
0.00000001
 40
0.0
 40
0.0
 40
0.0
 40
0.0
 40
0.0908459750793614
 40
0.3608641348336817
 40
0.6318048553293786
 40
0.9034168699345269
 40
1.0
 40
1.0
 40
1.0
 40
1.0
 10
119.1269335635422
 20
69.47766727060659
 30
0.0
 10
119.1161605438067
 20
69.41168757503995
 30
0.0
 10
119.0733672726355
 20
69.14959885028966
 30
0.0
 10
119.0405593239394
 20
68.70165110558257
 30
0.0
 10
119.0339641704326
 20
68.13994809549678
 30
0.0
 10
119.0568821815188
 20
67.70885540897035
 30
0.0
 10
119.096876028722
 20
67.47399998697048
 30
0.0
 10
119.1073670169986
 20
67.41239387375059
 30
0.0
  0
SPLINE
  5
214
330
1F
100
AcDbEntity
  8
0
  6
Continuous
 62
     7
370
    30
100
AcDbSpline
210
0.0
220
0.0
230
1.0
 70
     8
 71
     3
 72
    12
 73
     8
 74
     0
 42
0.000000001
 43
0.00000001
 40
0.0
 40
0.0
 40
0.0
 40
0.0
 40
0.0921981871683751
 40
0.3213684003441157
 40
0.5507758869508144
 40
0.7805719820528203
 40
1.0
 40
1.0
 40
1.0
 40
1.0
 10
120.3351926970843
 20
73.03119010426052
 30
0.0
 10
120.2935694967588
 20
72.95572753333586
 30
0.0
 10
120.1484865865997
 20
72.6926932324594
 30
0.0
 10
119.9321423110064
 20
72.22763398713764
 30
0.0
 10
119.6891656761626
 20
71.64133723898114
 30
0.0
 10
119.4834497123627
 20
71.05791066927662
 30
0.0
 10
119.3780994339711
 20
70.6724444879515
 30
0.0
 10
119.3266400351852
 20
70.48415967042529
 30
0.0
  0
SPLINE
  5
215
330
1F
100
AcDbEntity
  8
0
  6
Continuous
 62
     7
370
    30
100
AcDbSpline
210
0.0
220
0.0
230
1.0
 70
     8
 71
     3
 72
    12
 73
     8
 74
     0
 42
0.000000001
 43
0.00000001
 40
0.0
 40
0.0
 40
0.0
 40
0.0
 40
0.2321330357832391
 40
0.4761573843312315
 40
0.7197477966080288
 40
0.9630296268213173
 40
1.0
 40
1.0
 40
1.0
 40
1.0
 10
122.4199825067142
 20
75.84074636932311
 30
0.0
 10
122.283075218578
 20
75.70255403066587
 30
0.0
 10
122.0022473907125
 20
75.4190902733957
 30
0.0
 10
121.5998266869591
 20
74.94986267785443
 30
0.0
 10
121.2139790033471
 20
74.44572341071918
 30
0.0
 10
120.9480047467435
 20
74.07092025729297
 30
0.0
 10
120.819688945507
 20
73.86015954918376
 30
0.0
 10
120.8027617527891
 20
73.83235637070419
 30
0.0
  0
LINE
  5
216
330
1F
100
AcDbEntity
  8
0
  6
Continuous
 62
     7
370
    30
100
AcDbLine
 10
120.3956560582
 20
73.1425246355
 30
0.0
 11
120.3351926971
 21
73.0311901043
 31
0.0
  0
SPLINE
  5
217
330
1F
100
AcDbEntity
  8
0
  6
Continuous
 62
     7
370
    30
100
AcDbSpline
210
0.0
220
0.0
230
1.0
 70
     8
 71
     3
 72
    12
 73
     8
 74
     0
 42
0.000000001
 43
0.00000001
 40
0.0
 40
0.0
 40
0.0
 40
0.0
 40
0.1046083280022094
 40
0.3719746479142162
 40
0.64090017288054
 40
0.9103463441238053
 40
1.0
 40
1.0
 40
1.0
 40
1.0
 10
124.9696806195877
 20
77.56529621882731
 30
0.0
 10
124.9063723707373
 20
77.5415917474574
 30
0.0
 10
124.6812558429621
 20
77.4573014948532
 30
0.0
 10
124.2963545964414
 20
77.26157373567182
 30
0.0
 10
123.8184365903763
 20
76.97767417724401
 30
0.0
 10
123.449967219832
 20
76.72759026497874
 30
0.0
 10
123.2458351956743
 20
76.56082782613805
 30
0.0
 10
123.1948711437172
 20
76.51919354737821
 30
0.0
  0
SPLINE
  5
218
330
1F
100
AcDbEntity
  8
0
  6
Continuous
 62
     7
370
    30
100
AcDbSpline
210
0.0
220
0.0
230
1.0
 70
     8
 71
     3
 72
    11
 73
     7
 74
     0
 42
0.000000001
 43
0.00000001
 40
0.0
 40
0.0
 40
0.0
 40
0.0
 40
0.1117599183060414
 40
0.4185224310779933
 40
0.7295040233331597
 40
0.9999999999999999
 40
0.9999999999999999
 40
0.9999999999999999
 40
0.9999999999999999
 10
127.6515197868419
 20
77.78719198342573
 30
0.0
 10
127.6026662262625
 20
77.80276586548706
 30
0.0
 10
127.4197177126055
 20
77.86108748096812
 30
0.0
 10
127.0837111336475
 20
77.90861666436645
 30
0.0
 10
126.6691292576135
 20
77.93438789880818
 30
0.0
 10
126.3923285438429
 20
77.90943137157757
 30
0.0
 10
126.2635643688941
 20
77.89782191221359
 30
0.0
  0
LINE
  5
219
330
1F
100
AcDbEntity
  8
0
  6
Continuous
 62
     7
370
    30
100
AcDbLine
 10
119.1709348588
 20
67.3482794766
 30
0.0
 11
123.9096948965
 21
64.6126515363
 31
0.0
  0
LINE
  5
21A
330
1F
100
AcDbEntity
  8
0
  6
Continuous
 62
     7
370
    30
100
AcDbLine
 10
129.7949333997
 20
74.8063722633
 30
0.0
 11
125.0562879838
 21
77.5419340338
 31
0.0
  0
LINE
  5
21B
330
1F
100
AcDbEntity
  8
0
  6
Continuous
 62
     7
370
    30
100
AcDbLine
 10
120.2978985285
 20
64.9382355711
 30
0.0
 11
124.6606134511
 21
62.419693855
 31
0.0
  0
LINE
  5
21C
330
1F
100
AcDbEntity
  8
0
  6
Continuous
 62
     7
370
    30
100
AcDbLine
 10
132.0693511566
 20
75.2522021419
 30
0.0
 11
127.7067591213
 21
77.7706729167
 31
0.0
  0
LINE
  5
21D
330
1F
100
AcDbEntity
  8
0
  6
Continuous
 62
     7
370
    30
100
AcDbLine
 10
121.4401631185
 20
64.2786059063
 30
0.0
 11
125.8027551539
 21
61.7601351315
 31
0.0
  0
LINE
  5
21E
330
1F
100
AcDbEntity
  8
0
  6
Continuous
 62
     7
370
    30
100
AcDbLine
 10
133.2116157467
 20
74.5925724771
 30
0.0
 11
132.1119638858
 21
75.227387984
 31
0.0
  0
LINE
  5
21F
330
1F
100
AcDbEntity
  8
0
  6
Continuous
 62
     7
370
    30
100
AcDbLine
 10
114.0273809687
 20
73.2348233623
 30
0.0
 11
114.380876897
 21
73.4389585626
 31
0.0
  0
LINE
  5
220
330
1F
100
AcDbEntity
  8
0
  6
Continuous
 62
     7
370
    30
100
AcDbLine
 10
117.3855922869
 20
78.6438422402
 30
0.0
 11
117.3855922869
 21
79.0520462961
 31
0.0
  0
LINE
  5
221
330
1F
100
AcDbEntity
  8
0
  6
Continuous
 62
     7
370
    30
100
AcDbLine
 10
116.4016420662
 20
81.2268091268
 30
0.0
 11
108.9770208638
 21
85.5129517139
 31
0.0
  0
LINE
  5
222
330
1F
100
AcDbEntity
  8
0
  6
Continuous
 62
     7
370
    30
100
AcDbLine
 10
104.2274068838
 20
77.2854875213
 30
0.0
 11
111.6520280862
 21
72.9993449342
 31
0.0
  0
LINE
  5
223
330
1F
100
AcDbEntity
  8
0
  6
Continuous
 62
     7
370
    30
100
AcDbLine
 10
103.8686748078
 20
77.5214458722
 30
0.0
 11
103.996537064
 21
77.4476325628
 31
0.0
  0
LINE
  5
224
330
1F
100
AcDbEntity
  8
0
  6
Continuous
 62
     7
370
    30
100
AcDbLine
 10
108.7211530757
 20
85.6317943123
 30
0.0
 11
108.5932908195
 21
85.7056076217
 31
0.0
  0
LINE
  5
225
330
1F
100
AcDbEntity
  8
0
  6
Continuous
 62
     7
370
    30
100
AcDbLine
 10
106.2304397943
 20
85.4713685537
 30
0.0
 11
105.8946186625
 21
85.2774401135
 31
0.0
  0
LINE
  5
226
330
1F
100
AcDbEntity
  8
0
  6
Continuous
 62
     7
370
    30
100
AcDbLine
 10
102.8899032725
 20
80.0725564359
 30
0.0
 11
102.8899032725
 21
79.6847625828
 31
0.0
  0
ARC
  5
227
330
1F
100
AcDbEntity
  8
0
  6
Continuous
 62
     7
370
    30
100
AcDbCircle
 10
96.7027189372
 20
87.1140764003
 30
0.0
 40
2.000000000000004
100
AcDbArc
 50
76.8970239038
 51
223.1083526289
  0
LINE
  5
228
330
1F
100
AcDbEntity
  8
0
  6
Continuous
 62
     7
370
    30
100
AcDbLine
 10
96.1927903319
 20
83.9444441349
 30
0.0
 11
102.8899073576
 21
80.0782807696
 31
0.0
  0
LINE
  5
229
330
1F
100
AcDbEntity
  8
0
  6
Continuous
 62
     7
370
    30
100
AcDbLine
 10
112.8805103679
 20
74.3108284154
 30
0.0
 11
119.3525305036
 21
70.5746107187
 31
0.0
  0
LINE
  5
22A
330
1F
100
AcDbEntity
  8
0
  6
Continuous
 62
     7
370
    30
100
AcDbLine
 10
122.3523711799
 20
75.7708551247
 30
0.0
 11
115.8802665658
 21
79.5071215897
 31
0.0
  0
LINE
  5
22B
330
1F
100
AcDbEntity
  8
0
  6
Continuous
 62
     7
370
    30
100
AcDbLine
 10
105.8896635556
 20
85.2745739438
 30
0.0
 11
99.1925465298
 21
89.1407373092
 31
0.0
  0
LINE
  5
22C
330
1F
100
AcDbEntity
  8
0
  6
Continuous
 62
     7
370
    30
100
AcDbLine
 10
98.4143420518
 20
89.2627139125
 30
0.0
 11
97.1371797937
 21
89.0589830392
 31
0.0
  0
LINE
  5
22D
330
1F
100
AcDbEntity
  8
0
  6
Continuous
 62
     7
370
    30
100
AcDbLine
 10
95.2357373749
 20
85.7652312774
 30
0.0
 11
95.6979957392
 21
84.5573542527
 31
0.0
  0
SPLINE
  5
22E
330
1F
100
AcDbEntity
  8
0
  6
Continuous
 62
     7
370
    30
100
AcDbSpline
210
0.0
220
0.0
230
1.0
 70
     8
 71
     3
 72
    10
 73
     6
 74
     0
 42
0.000000001
 43
0.00000001
 40
0.0
 40
0.0
 40
0.0
 40
0.0
 40
0.0126588477772702
 40
0.3931591520965128
 40
1.0
 40
1.0
 40
1.0
 40
1.0
 10
128.3335089975607
 20
74.31949568774513
 30
0.0
 10
128.3340869894951
 20
74.31823805661368
 30
0.0
 10
128.3520382930299
 20
74.2791784835784
 30
0.0
 10
128.3978688213106
 20
74.17057787502326
 30
0.0
 10
128.4535868006434
 20
74.03725719343069
 30
0.0
 10
128.4878322544521
 20
73.9553154701686
 30
0.0
  0
ARC
  5
22F
330
1F
100
AcDbEntity
  8
0
  6
Continuous
 62
     7
370
    30
100
AcDbCircle
 10
132.3922964253
 20
68.5417839796
 30
0.0
 40
7.060857452569786
100
AcDbArc
 50
114.9069477852
 51
125.0876756821
  0
SPLINE
  5
230
330
1F
100
AcDbEntity
  8
0
  6
Continuous
 62
     7
370
    30
100
AcDbSpline
210
0.0
220
0.0
230
1.0
 70
     8
 71
     3
 72
    10
 73
     6
 74
     0
 42
0.000000001
 43
0.00000001
 40
0.0
 40
0.0
 40
0.0
 40
0.0
 40
0.6068408479055282
 40
0.9873411522226313
 40
1.0
 40
1.0
 40
1.0
 40
1.0
 10
129.8744778168945
 20
74.75580891438611
 30
0.0
 10
129.7867585494209
 20
74.80688086210111
 30
0.0
 10
129.6440376977865
 20
74.88997585459745
 30
0.0
 10
129.4835414594538
 20
74.93238135774094
 30
0.0
 10
129.4206702766041
 20
74.94550923641923
 30
0.0
 10
129.4186459647471
 20
74.94593192483165
 30
0.0
  0
SPLINE
  5
231
330
1F
100
AcDbEntity
  8
0
  6
Continuous
 62
     7
370
    30
100
AcDbSpline
210
0.0
220
0.0
230
1.0
 70
     8
 71
     3
 72
    16
 73
    12
 74
     0
 42
0.000000001
 43
0.00000001
 40
0.0
 40
0.0
 40
0.0
 40
0.0
 40
0.0316438967043361
 40
0.1442296906797808
 40
0.2602597186197879
 40
0.3918268288811946
 40
0.5492075381338319
 40
0.7249905054734598
 40
0.855865553415173
 40
0.9874199933190974
 40
1.0
 40
1.0
 40
1.0
 40
1.0
 10
129.8744778168939
 20
74.75580891438666
 30
0.0
 10
129.8945316182433
 20
74.74171299762357
 30
0.0
 10
129.9859348228677
 20
74.67746523023945
 30
0.0
 10
130.1525427202488
 20
74.56558766498014
 30
0.0
 10
130.3730827052686
 20
74.4575067607619
 30
0.0
 10
130.6079756826995
 20
74.41130828583879
 30
0.0
 10
130.8612090817801
 20
74.45803181532663
 30
0.0
 10
131.0806344751085
 20
74.6144090398997
 30
0.0
 10
131.2019638274193
 20
74.84582532673657
 30
0.0
 10
131.2021678579599
 20
75.01510003478514
 30
0.0
 10
131.1769140556242
 20
75.09695743583339
 30
0.0
 10
131.1747099121344
 20
75.10410192264045
 30
0.0
  0
SPLINE
  5
232
330
1F
100
AcDbEntity
  8
0
  6
Continuous
 62
     7
370
    30
100
AcDbSpline
210
0.0
220
0.0
230
1.0
 70
     8
 71
     3
 72
    10
 73
     6
 74
     0
 42
0.000000001
 43
0.00000001
 40
0.0
 40
0.0
 40
0.0
 40
0.0
 40
0.0126588477772952
 40
0.3931591520965081
 40
1.0
 40
1.0
 40
1.0
 40
1.0
 10
131.0439360837952
 20
75.38129818515051
 30
0.0
 10
131.044572415757
 20
75.38050369873766
 30
0.0
 10
131.0643356468911
 20
75.35582849844089
 30
0.0
 10
131.1109419644686
 20
75.28291531650935
 30
0.0
 10
131.1504360240667
 20
75.17216897617845
 30
0.0
 10
131.1747099121344
 20
75.10410192264045
 30
0.0
  0
ARC
  5
233
330
1F
100
AcDbEntity
  8
0
  6
Continuous
 62
     7
370
    30
100
AcDbCircle
 10
131.2472699279
 20
72.3583072071
 30
0.0
 40
3.029821629308071
100
AcDbArc
 50
75.932904405
 51
93.8480595329
  0
SPLINE
  5
234
330
1F
100
AcDbEntity
  8
0
  6
Continuous
 62
     7
370
    30
100
AcDbSpline
210
0.0
220
0.0
230
1.0
 70
     8
 71
     3
 72
    10
 73
     6
 74
     0
 42
0.000000001
 43
0.00000001
 40
0.0
 40
0.0
 40
0.0
 40
0.0
 40
0.6068408479054782
 40
0.9873411522226891
 40
1.0
 40
1.0
 40
1.0
 40
1.0
 10
132.3755801952543
 20
74.99672602340733
 30
0.0
 10
132.3049966261156
 20
75.06893386027406
 30
0.0
 10
132.1901558689022
 20
75.18641733077139
 30
0.0
 10
132.0442461334769
 20
75.26820973466246
 30
0.0
 10
131.9855811457211
 20
75.29636333821162
 30
0.0
 10
131.9836922639644
 20
75.29726982145083
 30
0.0
  0
SPLINE
  5
235
330
1F
100
AcDbEntity
  8
0
  6
Continuous
 62
     7
370
    30
100
AcDbSpline
210
0.0
220
0.0
230
1.0
 70
     8
 71
     3
 72
    16
 73
    12
 74
     0
 42
0.000000001
 43
0.00000001
 40
0.0
 40
0.0
 40
0.0
 40
0.0
 40
0.0316438967043296
 40
0.144229690679763
 40
0.2602597186197931
 40
0.3918268288811598
 40
0.5492075381338473
 40
0.7249905054734599
 40
0.8558655534151766
 40
0.9874199933191036
 40
1.0
 40
1.0
 40
1.0
 40
1.0
 10
132.3755801952543
 20
74.9967260234083
 30
0.0
 10
132.3908391586448
 20
74.97772960881181
 30
0.0
 10
132.4603879752927
 20
74.89114586639612
 30
0.0
 10
132.5756255446871
 20
74.72199280341873
 30
0.0
 10
132.718188905583
 20
74.50876962576889
 30
0.0
 10
132.8716772357911
 20
74.3235036328927
 30
0.0
 10
133.0527424767457
 20
74.19889694805018
 30
0.0
 10
133.231823770092
 20
74.18543561002726
 30
0.0
 10
133.3445845023243
 20
74.27876397000207
 30
0.0
 10
133.35090908081
 20
74.38405047860459
 30
0.0
 10
133.3293020086886
 20
74.44200586785296
 30
0.0
 10
133.327416150602
 20
74.44706419499968
 30
0.0
  0
SPLINE
  5
236
330
1F
100
AcDbEntity
  8
0
  6
Continuous
 62
     7
370
    30
100
AcDbSpline
210
0.0
220
0.0
230
1.0
 70
     8
 71
     3
 72
     9
 73
     5
 74
     0
 42
0.000000001
 43
0.00000001
 40
0.0
 40
0.0
 40
0.0
 40
0.0
 40
0.2462969659338914
 40
1.0
 40
1.0
 40
1.0
 40
1.0
 10
133.2098172107986
 20
74.58942953254873
 30
0.0
 10
133.2224699929
 20
74.5829817854541
 30
0.0
 10
133.273842051234
 20
74.55680303383936
 30
0.0
 10
133.3043911797508
 20
74.49422753690062
 30
0.0
 10
133.327416150602
 20
74.44706419499968
 30
0.0
  0
SPLINE
  5
237
330
1F
100
AcDbEntity
  8
0
  6
Continuous
 62
     7
370
    30
100
AcDbSpline
210
0.0
220
0.0
230
1.0
 70
     8
 71
     3
 72
    15
 73
    11
 74
     0
 42
0.000000001
 43
0.00000001
 40
0.0
 40
0.0
 40
0.0
 40
0.0
 40
0.0362548243098972
 40
0.1652458338086056
 40
0.2981829469883819
 40
0.4489210976040007
 40
0.6292342245563606
 40
0.8306310581103892
 40
0.9805763039189165
 40
1.0
 40
1.0
 40
1.0
 40
1.0
 10
134.0207389318229
 20
73.4605902378034
 30
0.0
 10
134.0309223064025
 20
73.43958506611882
 30
0.0
 10
134.0773371009969
 20
73.34384561142882
 30
0.0
 10
134.1361055034097
 20
73.14786930096106
 30
0.0
 10
134.1852074983801
 20
72.87347830302427
 30
0.0
 10
134.2278680361037
 20
72.59223440308412
 30
0.0
 10
134.292480193807
 20
72.32627499627233
 30
0.0
 10
134.3645942098373
 20
72.16112955845617
 30
0.0
 10
134.4182199789015
 20
72.10205743049748
 30
0.0
 10
134.4051989285638
 20
72.11792981229601
 30
0.0
 10
134.4037056386985
 20
72.11975010069538
 30
0.0
  0
SPLINE
  5
238
330
1F
100
AcDbEntity
  8
0
  6
Continuous
 62
     7
370
    30
100
AcDbSpline
210
0.0
220
0.0
230
1.0
 70
     8
 71
     3
 72
    12
 73
     8
 74
     0
 42
0.000000001
 43
0.00000001
 40
0.0
 40
0.0
 40
0.0
 40
0.0
 40
0.0529946499166883
 40
0.3164533216313613
 40
0.63160284897783
 40
0.9836022734034308
 40
1.0
 40
1.0
 40
1.0
 40
1.0
 10
134.385308959753
 20
70.06173672246558
 30
0.0
 10
134.3832649528509
 20
70.04179398817382
 30
0.0
 10
134.3710593287996
 20
69.92270754229749
 30
0.0
 10
134.3121234234441
 20
69.6782727032146
 30
0.0
 10
134.242455255427
 20
69.35410125490766
 30
0.0
 10
134.211083425817
 20
69.12243030668687
 30
0.0
 10
134.1845190886172
 20
69.05300080497015
 30
0.0
 10
134.1833366833314
 20
69.04991042822938
 30
0.0
  0
SPLINE
  5
239
330
1F
100
AcDbEntity
  8
0
  6
Continuous
 62
     7
370
    30
100
AcDbSpline
210
0.0
220
0.0
230
1.0
 70
     8
 71
     3
 72
    11
 73
     7
 74
     0
 42
0.000000001
 43
0.00000001
 40
0.0
 40
0.0
 40
0.0
 40
0.0
 40
0.2494415173192406
 40
0.5680037818577954
 40
0.9238149890186478
 40
1.0
 40
1.0
 40
1.0
 40
1.0
 10
131.087716008834
 20
63.68790466553595
 30
0.0
 10
131.039193446727
 20
63.64364734045716
 30
0.0
 10
130.9287026227518
 20
63.54286889631592
 30
0.0
 10
130.6821498406258
 20
63.33403262387703
 30
0.0
 10
130.4740268497138
 20
63.12844394935654
 30
0.0
 10
130.3430590635703
 20
63.03250416511466
 30
0.0
 10
130.3199621432583
 20
63.01558463385707
 30
0.0
  0
SPLINE
  5
23A
330
1F
100
AcDbEntity
  8
0
  6
Continuous
 62
     7
370
    30
100
AcDbSpline
210
0.0
220
0.0
230
1.0
 70
     8
 71
     3
 72
    14
 73
    10
 74
     0
 42
0.000000001
 43
0.00000001
 40
0.0
 40
0.0
 40
0.0
 40
0.0
 40
0.0200550809011827
 40
0.1573380411284867
 40
0.3130039724904186
 40
0.4992117157139895
 40
0.7071924129728083
 40
0.8620395186773402
 40
1.0
 40
1.0
 40
1.0
 40
1.0
 10
128.5412433066408
 20
61.96351843132749
 30
0.0
 10
128.5432197155463
 20
61.96326074903194
 30
0.0
 10
128.5587252279498
 20
61.96123915521162
 30
0.0
 10
128.5027565187548
 20
61.97344330074944
 30
0.0
 10
128.3664724438374
 20
61.96543101550132
 30
0.0
 10
128.1257001575066
 20
61.90999529912911
 30
0.0
 10
127.8324433251321
 20
61.79901810340402
 30
0.0
 10
127.5241674707765
 20
61.67868724338702
 30
0.0
 10
127.3371359051872
 20
61.64811204144327
 30
0.0
 10
127.2490133087982
 20
61.63370609786946
 30
0.0
  0
SPLINE
  5
23B
330
1F
100
AcDbEntity
  8
0
  6
Continuous
 62
     7
370
    30
100
AcDbSpline
210
0.0
220
0.0
230
1.0
 70
     8
 71
     3
 72
     9
 73
     5
 74
     0
 42
0.000000001
 43
0.00000001
 40
0.0
 40
0.0
 40
0.0
 40
0.0
 40
0.7535163917401246
 40
1.0
 40
1.0
 40
1.0
 40
1.0
 10
125.9867298760907
 20
61.73262264244131
 30
0.0
 10
125.9343679088594
 20
61.72897280072704
 30
0.0
 10
125.8648777586711
 20
61.72412905511741
 30
0.0
 10
125.8165015370434
 20
61.75552525156038
 30
0.0
 10
125.8045775913826
 20
61.76326389934528
 30
0.0
  0
SPLINE
  5
23C
330
1F
100
AcDbEntity
  8
0
  6
Continuous
 62
     7
370
    30
100
AcDbSpline
210
0.0
220
0.0
230
1.0
 70
     8
 71
     3
 72
    16
 73
    12
 74
     0
 42
0.000000001
 43
0.00000001
 40
0.0
 40
0.0
 40
0.0
 40
0.0
 40
0.0316438967043536
 40
0.1442296906798448
 40
0.2602597186197911
 40
0.3918268288812033
 40
0.5492075381338448
 40
0.7249905054734631
 40
0.855865553415176
 40
0.9874199933190962
 40
1.0
 40
1.0
 40
1.0
 40
1.0
 10
125.9867298760909
 20
61.73262264244024
 30
0.0
 10
125.9998917127901
 20
61.73521207837726
 30
0.0
 10
126.0598820374221
 20
61.74701446629812
 30
0.0
 10
126.1372254023289
 20
61.80499292232157
 30
0.0
 10
126.1634413400459
 20
61.92078188482741
 30
0.0
 10
126.1007638343329
 20
62.05362390459849
 30
0.0
 10
125.9349250025468
 20
62.1694405705287
 30
0.0
 10
125.6807241479664
 20
62.22626750818927
 30
0.0
 10
125.3717571448793
 20
62.24620661741346
 30
0.0
 10
125.1537400246711
 20
62.26312761188658
 30
0.0
 10
125.04443410514
 20
62.28074668407229
 30
0.0
 10
125.0348939207458
 20
62.28228447084748
 30
0.0
  0
SPLINE
  5
23D
330
1F
100
AcDbEntity
  8
0
  6
Continuous
 62
     7
370
    30
100
AcDbSpline
210
0.0
220
0.0
230
1.0
 70
     8
 71
     3
 72
    10
 73
     6
 74
     0
 42
0.000000001
 43
0.00000001
 40
0.0
 40
0.0
 40
0.0
 40
0.0
 40
0.0126588477772198
 40
0.3931591520964667
 40
1.0
 40
1.0
 40
1.0
 40
1.0
 10
124.5786677541604
 20
62.47139117681996
 30
0.0
 10
124.5803972479984
 20
62.47020862560833
 30
0.0
 10
124.6341119574939
 20
62.4334808886247
 30
0.0
 10
124.7779021971447
 20
62.34801741037552
 30
0.0
 10
124.9370675273717
 20
62.30730635213533
 30
0.0
 10
125.0348939207458
 20
62.28228447084748
 30
0.0
  0
ARC
  5
23E
330
1F
100
AcDbEntity
  8
0
  6
Continuous
 62
     7
370
    30
100
AcDbCircle
 10
126.7565079001
 20
64.5786963234
 30
0.0
 40
3.030465753276927
100
AcDbArc
 50
206.1443665222
 51
224.0569764706
  0
SPLINE
  5
23F
330
1F
100
AcDbEntity
  8
0
  6
Continuous
 62
     7
370
    30
100
AcDbSpline
210
0.0
220
0.0
230
1.0
 70
     8
 71
     3
 72
    10
 73
     6
 74
     0
 42
0.000000001
 43
0.00000001
 40
0.0
 40
0.0
 40
0.0
 40
0.0
 40
0.6068408479054638
 40
0.987341152222501
 40
1.0
 40
1.0
 40
1.0
 40
1.0
 10
124.3415711395226
 20
63.26875842804662
 30
0.0
 10
124.2704816529812
 20
63.25573848667841
 30
0.0
 10
124.1548177589059
 20
63.23455480407575
 30
0.0
 10
124.0683603742809
 20
63.23844391334957
 30
0.0
 10
124.0371056044438
 20
63.24321518481223
 30
0.0
 10
124.0360992705671
 20
63.24336880911127
 30
0.0
  0
SPLINE
  5
240
330
1F
100
AcDbEntity
  8
0
  6
Continuous
 62
     7
370
    30
100
AcDbSpline
210
0.0
220
0.0
230
1.0
 70
     8
 71
     3
 72
    16
 73
    12
 74
     0
 42
0.000000001
 43
0.00000001
 40
0.0
 40
0.0
 40
0.0
 40
0.0
 40
0.0316438967043325
 40
0.1442296906798036
 40
0.2602597186197959
 40
0.3918268288811549
 40
0.5492075381338425
 40
0.7249905054734768
 40
0.855865553415167
 40
0.9874199933191011
 40
1.0
 40
1.0
 40
1.0
 40
1.0
 10
124.3415711395222
 20
63.2687584280454
 30
0.0
 10
124.3598087758819
 20
63.2733564062066
 30
0.0
 10
124.4429340835986
 20
63.29431352707382
 30
0.0
 10
124.5767246372373
 20
63.37913762726947
 30
0.0
 10
124.6965047981193
 20
63.55598959457956
 30
0.0
 10
124.7441926702123
 20
63.78528073975642
 30
0.0
 10
124.696998329623
 20
64.0402169986762
 30
0.0
 10
124.5411903758408
 20
64.25746565558009
 30
0.0
 10
124.2972927958842
 20
64.42532498690093
 30
0.0
 10
124.1032112162282
 20
64.51807291489679
 30
0.0
 10
124.0020079841528
 20
64.56499804067256
 30
0.0
 10
123.9931749996317
 20
64.56909365008272
 30
0.0
  0
SPLINE
  5
241
330
1F
100
AcDbEntity
  8
0
  6
Continuous
 62
     7
370
    30
100
AcDbSpline
210
0.0
220
0.0
230
1.0
 70
     8
 71
     3
 72
    10
 73
     6
 74
     0
 42
0.000000001
 43
0.00000001
 40
0.0
 40
0.0
 40
0.0
 40
0.0
 40
0.0126588477772898
 40
0.3931591520965053
 40
1.0
 40
1.0
 40
1.0
 40
1.0
 10
123.6006040957019
 20
64.86878783665775
 30
0.0
 10
123.6019823376707
 20
64.86724612237694
 30
0.0
 10
123.6447878483581
 20
64.81936348012711
 30
0.0
 10
123.7617619452753
 20
64.70157541701681
 30
0.0
 10
123.9050853749148
 20
64.61952412023712
 30
0.0
 10
123.9931749996317
 20
64.56909365008272
 30
0.0
  0
ARC
  5
242
330
1F
100
AcDbEntity
  8
0
  6
Continuous
 62
     7
370
    30
100
AcDbCircle
 10
130.6353332252
 20
65.4953258955
 30
0.0
 40
7.06257487499595
100
AcDbArc
 50
174.9104625158
 51
185.0895374842
  0
SPLINE
  5
243
330
1F
100
AcDbEntity
  8
0
  6
Continuous
 62
     7
370
    30
100
AcDbSpline
210
0.0
220
0.0
230
1.0
 70
     8
 71
     3
 72
    10
 73
     6
 74
     0
 42
0.000000001
 43
0.00000001
 40
0.0
 40
0.0
 40
0.0
 40
0.0
 40
0.6068408479054404
 40
0.9873411522227513
 40
1.0
 40
1.0
 40
1.0
 40
1.0
 10
123.9931749996304
 20
66.17034076506056
 30
0.0
 10
123.9050853749135
 20
66.15902164889175
 30
0.0
 10
123.7617619452745
 20
66.14060523997856
 30
0.0
 10
123.6447878483577
 20
66.12598157338331
 30
0.0
 10
123.6019823376707
 20
66.12199239697598
 30
0.0
 10
123.6006040957019
 20
66.1218639543933
 30
0.0
  0
SPLINE
  5
244
330
1F
100
AcDbEntity
  8
0
  6
Continuous
 62
     7
370
    30
100
AcDbSpline
210
0.0
220
0.0
230
1.0
 70
     8
 71
     3
 72
    16
 73
    12
 74
     0
 42
0.000000001
 43
0.00000001
 40
0.0
 40
0.0
 40
0.0
 40
0.0
 40
0.0316438967043183
 40
0.144229690679811
 40
0.2602597186198241
 40
0.3918268288811699
 40
0.5492075381338611
 40
0.7249905054734812
 40
0.8558655534151824
 40
0.9874199933190999
 40
1.0
 40
1.0
 40
1.0
 40
1.0
 10
123.9931749996296
 20
66.17034076505963
 30
0.0
 10
124.0154093409316
 20
66.17351714256888
 30
0.0
 10
124.1167512268068
 20
66.1879947509975
 30
0.0
 10
124.2969408512868
 20
66.26204137314336
 30
0.0
 10
124.5008023763374
 20
66.43951529380548
 30
0.0
 10
124.6582440429641
 20
66.69679370657771
 30
0.0
 10
124.74437983104
 20
67.02136195455358
 30
0.0
 10
124.7186492805618
 20
67.34663061722733
 30
0.0
 10
124.5788866274088
 20
67.63260736182701
 30
0.0
 10
124.4323831680396
 20
67.79270319181616
 30
0.0
 10
124.3488609325305
 20
67.86648587958197
 30
0.0
 10
124.341571139524
 20
67.87292560809254
 30
0.0
  0
SPLINE
  5
245
330
1F
100
AcDbEntity
  8
0
  6
Continuous
 62
     7
370
    30
100
AcDbSpline
210
0.0
220
0.0
230
1.0
 70
     8
 71
     3
 72
    10
 73
     6
 74
     0
 42
0.000000001
 43
0.00000001
 40
0.0
 40
0.0
 40
0.0
 40
0.0
 40
0.0126588477772723
 40
0.3931591520964983
 40
1.0
 40
1.0
 40
1.0
 40
1.0
 10
124.0360992705672
 20
68.25009500818408
 30
0.0
 10
124.0371056044439
 20
68.24840596484191
 30
0.0
 10
124.0683603742818
 20
68.19594756894826
 30
0.0
 10
124.1548177589061
 20
68.06143843566403
 30
0.0
 10
124.2704816529823
 20
67.94468484519038
 30
0.0
 10
124.341571139524
 20
67.87292560809254
 30
0.0
  0
ARC
  5
246
330
1F
100
AcDbEntity
  8
0
  6
Continuous
 62
     7
370
    30
100
AcDbCircle
 10
135.5715301273
 20
64.5789427226
 30
0.0
 40
12.10551626966204
100
AcDbArc
 50
155.2423181872
 51
162.3463220725
  0
SPLINE
  5
247
330
1F
100
AcDbEntity
  8
0
  6
Continuous
 62
     7
370
    30
100
AcDbSpline
210
0.0
220
0.0
230
1.0
 70
     8
 71
     3
 72
    10
 73
     6
 74
     0
 42
0.000000001
 43
0.00000001
 40
0.0
 40
0.0
 40
0.0
 40
0.0
 40
0.6068408479055286
 40
0.9873411522226444
 40
1.0
 40
1.0
 40
1.0
 40
1.0
 10
125.0348939207445
 20
69.65989300950841
 30
0.0
 10
124.9370675273705
 20
69.66274064840333
 30
0.0
 10
124.7779021971441
 20
69.66737380893848
 30
0.0
 10
124.6341119574929
 20
69.6541134678348
 30
0.0
 10
124.5803972479984
 20
69.64868370385139
 30
0.0
 10
124.5786677541605
 20
69.64850887756192
 30
0.0
  0
SPLINE
  5
248
330
1F
100
AcDbEntity
  8
0
  6
Continuous
 62
     7
370
    30
100
AcDbSpline
210
0.0
220
0.0
230
1.0
 70
     8
 71
     3
 72
    16
 73
    12
 74
     0
 42
0.000000001
 43
0.00000001
 40
0.0
 40
0.0
 40
0.0
 40
0.0
 40
0.0316438967043516
 40
0.1442296906797933
 40
0.2602597186198065
 40
0.3918268288811859
 40
0.5492075381338533
 40
0.7249905054734246
 40
0.8558655534151614
 40
0.9874199933190997
 40
1.0
 40
1.0
 40
1.0
 40
1.0
 10
125.0348939207436
 20
69.65989300950775
 30
0.0
 10
125.0589749584079
 20
69.65859856023563
 30
0.0
 10
125.1687339001089
 20
69.65269859096624
 30
0.0
 10
125.3728418839782
 20
69.68123242937946
 30
0.0
 10
125.6287723805734
 20
69.79872060004332
 30
0.0
 10
125.86594781785
 20
70.00802525684973
 30
0.0
 10
126.0643736717568
 20
70.31408005471326
 30
0.0
 10
126.16555089192
 20
70.66602313637159
 30
0.0
 10
126.141085799702
 20
71.00866501993012
 30
0.0
 10
126.0530545214473
 20
71.20958390443568
 30
0.0
 10
125.9920539828628
 20
71.30057920054342
 30
0.0
 10
125.9867298760923
 20
71.30852123979975
 30
0.0
  0
SPLINE
  5
249
330
1F
100
AcDbEntity
  8
0
  6
Continuous
 62
     7
370
    30
100
AcDbSpline
210
0.0
220
0.0
230
1.0
 70
     8
 71
     3
 72
    10
 73
     6
 74
     0
 42
0.000000001
 43
0.00000001
 40
0.0
 40
0.0
 40
0.0
 40
0.0
 40
0.0126588477772779
 40
0.3931591520964891
 40
1.0
 40
1.0
 40
1.0
 40
1.0
 10
125.7684626983434
 20
71.70929416542711
 30
0.0
 10
125.7691761203781
 20
71.70770910373439
 30
0.0
 10
125.7913336190072
 20
71.65848017531282
 30
0.0
 10
125.8517506501948
 20
71.52733388379157
 30
0.0
 10
125.9353487239487
 20
71.39181439604006
 30
0.0
 10
125.9867298760923
 20
71.30852123979975
 30
0.0
  0
ARC
  5
24A
330
1F
100
AcDbEntity
  8
0
  6
Continuous
 62
     7
370
    30
100
AcDbCircle
 10
135.654420398
 20
64.7245643695
 30
0.0
 40
12.10448718292725
100
AcDbArc
 50
137.6532249362
 51
144.7576318673
  0
SPLINE
  5
24B
330
1F
100
AcDbEntity
  8
0
  6
Continuous
 62
     7
370
    30
100
AcDbSpline
210
0.0
220
0.0
230
1.0
 70
     8
 71
     3
 72
    10
 73
     6
 74
     0
 42
0.000000001
 43
0.00000001
 40
0.0
 40
0.0
 40
0.0
 40
0.0
 40
0.6068408479055281
 40
0.9873411522226887
 40
1.0
 40
1.0
 40
1.0
 40
1.0
 10
127.1876001592122
 20
72.8023924555437
 30
0.0
 10
127.0899093259976
 20
72.82807680878935
 30
0.0
 10
126.9309645546285
 20
72.86986572101432
 30
0.0
 10
126.7712441055926
 20
72.87747950479122
 30
0.0
 10
126.7101848503422
 20
72.87831501780744
 30
0.0
 10
126.7082188785125
 20
72.878341919463
 30
0.0
  0
SPLINE
  5
24C
330
1F
100
AcDbEntity
  8
0
  6
Continuous
 62
     7
370
    30
100
AcDbSpline
210
0.0
220
0.0
230
1.0
 70
     8
 71
     3
 72
    16
 73
    12
 74
     0
 42
0.000000001
 43
0.00000001
 40
0.0
 40
0.0
 40
0.0
 40
0.0
 40
0.0316438967043522
 40
0.1442296906797907
 40
0.2602597186198126
 40
0.3918268288811993
 40
0.5492075381338409
 40
0.7249905054734808
 40
0.8558655534151808
 40
0.9874199933191029
 40
1.0
 40
1.0
 40
1.0
 40
1.0
 10
127.1876001592114
 20
72.80239245554365
 30
0.0
 10
127.210883063859
 20
72.79477590778619
 30
0.0
 10
127.3170041957422
 20
72.76006045104673
 30
0.0
 10
127.5161409224659
 20
72.72054131369197
 30
0.0
 10
127.7781761591059
 20
72.73350916427596
 30
0.0
 10
128.0437007436932
 20
72.8317335707249
 30
0.0
 10
128.3032885681394
 20
73.03609014331421
 30
0.0
 10
128.4941990916247
 20
73.32621466814622
 30
0.0
 10
128.5653003061313
 20
73.64888603812135
 30
0.0
 10
128.5309676961092
 20
73.85316462517486
 30
0.0
 10
128.4912948843048
 20
73.94711547147223
 30
0.0
 10
128.4878322544521
 20
73.9553154701686
 30
0.0
  0
LWPOLYLINE
  5
24D
330
1F
100
AcDbEntity
  8
0
  6
Continuous
 62
     7
370
    30
100
AcDbPolyline
 90
       65
 70
   128
 43
0.0
 10
134.1793783401
 20
70.7859141639
 10
134.1572464093
 20
71.293365142
 10
134.0910637596
 20
71.7703761064
 10
133.9814677662
 20
72.2123531808
 10
133.8295138982
 20
72.6150398843
 10
133.6366655545
 20
72.974558124
 10
133.4047799702
 20
73.2874455425
 10
133.1360903301
 20
73.5506888631
 10
132.8331842623
 20
73.7617529085
 10
132.498978918
 20
73.9186050168
 10
132.1366928771
 20
74.0197346163
 10
131.7498151524
 20
74.0641677738
 10
131.3420715878
 20
74.0514765736
 10
130.9173889768
 20
73.9817832388
 10
130.479857245
 20
73.8557589546
 10
130.0336900622
 20
73.6746174035
 10
129.5831842623
 20
73.4401030777
 10
129.1326784624
 20
73.1544744785
 10
128.6865112797
 20
72.8204823653
 10
128.2489795479
 20
72.4413432647
 10
127.8242969369
 20
72.0207084937
 10
127.4165533723
 20
71.5626289949
 10
127.0296756476
 20
71.0715163243
 10
126.6673896067
 20
70.5521001655
 10
126.3331842623
 20
70.00938278
 10
126.0302781946
 20
69.4485908328
 10
125.7615885545
 20
68.8751250571
 10
125.5297029701
 20
68.2945082417
 10
125.3368546265
 20
67.7123320439
 10
125.1849007585
 20
67.1342031387
 10
125.075304765
 20
66.5656892237
 10
125.0091221154
 20
66.0122653984
 10
124.9869901846
 20
65.479261437
 10
125.0091221154
 20
64.971810459
 10
125.075304765
 20
64.4947994946
 10
125.1849007585
 20
64.0528224202
 10
125.3368546265
 20
63.6501357166
 10
125.5297029701
 20
63.290617477
 10
125.7615885545
 20
62.9777300584
 10
126.0302781946
 20
62.7144867379
 10
126.3331842623
 20
62.5034226924
 10
126.6673896067
 20
62.3465705841
 10
127.0296756476
 20
62.2454409846
 10
127.4165533723
 20
62.2010078272
 10
127.8242969369
 20
62.2136990274
 10
128.2489795479
 20
62.2833923621
 10
128.6865112797
 20
62.4094166464
 10
129.1326784624
 20
62.5905581975
 10
129.5831842623
 20
62.8250725232
 10
130.0336900622
 20
63.1107011225
 10
130.479857245
 20
63.4446932357
 10
130.9173889768
 20
63.8238323362
 10
131.3420715878
 20
64.2444671073
 10
131.7498151524
 20
64.7025466061
 10
132.1366928771
 20
65.1936592766
 10
132.498978918
 20
65.7130754354
 10
132.8331842623
 20
66.2557928209
 10
133.1360903301
 20
66.8165847681
 10
133.4047799702
 20
67.3900505438
 10
133.6366655545
 20
67.9706673593
 10
133.8295138982
 20
68.5528435571
 10
133.9814677662
 20
69.1309724622
 10
134.0910637596
 20
69.6994863773
 10
134.1572464093
 20
70.2529102025
 10
134.1793783401
 20
70.7859141639
  0
LWPOLYLINE
  5
24E
330
1F
100
AcDbEntity
  8
0
  6
Continuous
 62
     7
370
    30
100
AcDbPolyline
 90
       39
 70
   128
 43
0.0
 10
131.2448851981
 20
69.0918673319
 10
131.2222217632
 20
69.3946197803
 10
131.154849658
 20
69.6629472861
 10
131.0446066177
 20
69.8895305746
 10
130.8944997853
 20
70.0681890442
 10
130.7086236837
 20
70.1940493576
 10
130.4920485285
 20
70.2636783735
 10
130.2506819254
 20
70.275176794
 10
129.991107726
 20
70.228230972
 10
129.720406438
 20
70.1241214672
 10
129.4459620867
 20
69.9656881156
 10
129.1752607986
 20
69.7572525659
 10
128.9156865993
 20
69.5045003965
 10
128.6743199962
 20
69.2143260279
 10
128.457744841
 20
68.8946446603
 10
128.2718687394
 20
68.5541763681
 10
128.121761907
 20
68.2022082387
 10
128.0115188667
 20
67.8483410453
 10
127.9441467615
 20
67.5022273625
 10
127.9214833266
 20
67.1733082691
 10
127.9441467615
 20
66.8705558207
 10
128.0115188667
 20
66.6022283148
 10
128.121761907
 20
66.3756450263
 10
128.2718687394
 20
66.1969865568
 10
128.457744841
 20
66.0711262434
 10
128.6743199962
 20
66.0014972274
 10
128.9156865993
 20
65.989998807
 10
129.1752607986
 20
66.0369446289
 10
129.4459620867
 20
66.1410541337
 10
129.720406438
 20
66.2994874854
 10
129.991107726
 20
66.5079230351
 10
130.2506819254
 20
66.7606752044
 10
130.4920485285
 20
67.0508495731
 10
130.7086236837
 20
67.3705309407
 10
130.8944997853
 20
67.7109992329
 10
131.0446066177
 20
68.0629673622
 10
131.154849658
 20
68.4168345556
 10
131.2222217632
 20
68.7629482385
 10
131.2448851981
 20
69.0918673319
  0
LINE
  5
24F
330
1F
100
AcDbEntity
  8
0
  6
Continuous
 62
     7
370
    30
100
AcDbLine
 10
125.9867298761
 20
71.3085212398
 30
0.0
 11
121.1339340799
 21
74.1099806222
 31
0.0
  0
LINE
  5
250
330
1F
100
AcDbEntity
  8
0
  6
Continuous
 62
     7
370
    30
100
AcDbLine
 10
120.1820981246
 20
72.4613523919
 30
0.0
 11
125.0348939207
 21
69.6598930095
 31
0.0
  0
SPLINE
  5
251
330
1F
100
AcDbEntity
  8
0
  6
Continuous
 62
     7
370
    30
100
AcDbSpline
210
0.0
220
0.0
230
1.0
 70
     8
 71
     3
 72
    16
 73
    12
 74
     0
 42
0.000000001
 43
0.00000001
 40
0.0
 40
0.0
 40
0.0
 40
0.0
 40
0.0316438967043555
 40
0.1442296906798139
 40
0.2602597186198576
 40
0.3918268288811834
 40
0.5492075381338384
 40
0.7249905054734679
 40
0.8558655534151735
 40
0.9874199933190964
 40
1.0
 40
1.0
 40
1.0
 40
1.0
 10
121.1339340799342
 20
74.10998062218336
 30
0.0
 10
121.1186751165437
 20
74.10618054077675
 30
0.0
 10
121.0491262998958
 20
74.08886015286899
 30
0.0
 10
120.9338887305014
 20
74.00900583823584
 30
0.0
 10
120.7913253696054
 20
73.82605093799566
 30
0.0
 10
120.6378370393974
 20
73.56841903737485
 30
0.0
 10
120.4567717984427
 20
73.25233891297897
 30
0.0
 10
120.2776905050965
 20
72.94538351545427
 30
0.0
 10
120.1649297728641
 20
72.68198616678474
 30
0.0
 10
120.1586051943785
 20
72.53555546634661
 30
0.0
 10
120.1802122664999
 20
72.46730892718769
 30
0.0
 10
120.1820981245864
 20
72.46135239189088
 30
0.0
  0
LINE
  5
252
330
1F
100
AcDbEntity
  8
0
  6
Continuous
 62
     7
370
    30
100
AcDbLine
 10
124.3415711395
 20
67.8729256081
 30
0.0
 11
119.4887753434
 21
70.6743849905
 31
0.0
  0
LINE
  5
253
330
1F
100
AcDbEntity
  8
0
  6
Continuous
 62
     7
370
    30
100
AcDbLine
 10
119.1403792035
 20
68.9718001474
 30
0.0
 11
123.9931749996
 21
66.1703407651
 31
0.0
  0
SPLINE
  5
254
330
1F
100
AcDbEntity
  8
0
  6
Continuous
 62
     7
370
    30
100
AcDbSpline
210
0.0
220
0.0
230
1.0
 70
     8
 71
     3
 72
    16
 73
    12
 74
     0
 42
0.000000001
 43
0.00000001
 40
0.0
 40
0.0
 40
0.0
 40
0.0
 40
0.0316438967043621
 40
0.1442296906797887
 40
0.2602597186198057
 40
0.3918268288811641
 40
0.549207538133836
 40
0.724990505473442
 40
0.8558655534151436
 40
0.9874199933190752
 40
1.0
 40
1.0
 40
1.0
 40
1.0
 10
119.4887753433655
 20
70.67438499047576
 30
0.0
 10
119.4785921796354
 20
70.67443676039099
 30
0.0
 10
119.4321783460723
 20
70.67467272244491
 30
0.0
 10
119.3733879654098
 20
70.63314530051309
 30
0.0
 10
119.3243888276787
 20
70.49715434811667
 30
0.0
 10
119.2812658752767
 20
70.27049847498414
 30
0.0
 10
119.2188451255189
 20
69.95228277134781
 30
0.0
 10
119.1381567329707
 20
69.59850767975442
 30
0.0
 10
119.0904654238691
 20
69.26231766579906
 30
0.0
 10
119.1080763859353
 20
69.06769541872535
 30
0.0
 10
119.1377861455126
 20
68.9794979897815
 30
0.0
 10
119.1403792034722
 20
68.97180014744305
 30
0.0
  0
LINE
  5
255
330
1F
100
AcDbEntity
  8
0
  6
Continuous
 62
     7
370
    30
100
AcDbLine
 10
128.4878322545
 20
73.9553154702
 30
0.0
 11
123.6350364583
 21
76.7567748526
 31
0.0
  0
LINE
  5
256
330
1F
100
AcDbEntity
  8
0
  6
Continuous
 62
     7
370
    30
100
AcDbLine
 10
122.3348043631
 20
75.6038518379
 30
0.0
 11
127.1876001592
 21
72.8023924555
 31
0.0
  0
SPLINE
  5
257
330
1F
100
AcDbEntity
  8
0
  6
Continuous
 62
     7
370
    30
100
AcDbSpline
210
0.0
220
0.0
230
1.0
 70
     8
 71
     3
 72
    16
 73
    12
 74
     0
 42
0.000000001
 43
0.00000001
 40
0.0
 40
0.0
 40
0.0
 40
0.0
 40
0.0316438967043381
 40
0.1442296906797918
 40
0.260259718619805
 40
0.3918268288811849
 40
0.5492075381338324
 40
0.7249905054734821
 40
0.8558655534151755
 40
0.9874199933190838
 40
1.0
 40
1.0
 40
1.0
 40
1.0
 10
123.6350364582945
 20
76.75677485255223
 30
0.0
 10
123.6149826569451
 20
76.7523392669089
 30
0.0
 10
123.5235794523208
 20
76.7321223147649
 30
0.0
 10
123.3569715549397
 20
76.65023257962467
 30
0.0
 10
123.1364315699198
 20
76.48239005894293
 30
0.0
 10
122.9015385924889
 20
76.2698378711784
 30
0.0
 10
122.6483051934085
 20
76.04176437933283
 30
0.0
 10
122.42887980008
 20
75.85806723805476
 30
0.0
 10
122.3075504477691
 20
75.72286469808549
 30
0.0
 10
122.3073464172288
 20
75.64748883133296
 30
0.0
 10
122.3326002195643
 20
75.6073547290581
 30
0.0
 10
122.3348043630541
 20
75.60385183792617
 30
0.0
  0
LINE
  5
258
330
1F
100
AcDbEntity
  8
0
  6
Continuous
 62
     7
370
    30
100
AcDbLine
 10
119.7934585834
 20
70.6993193437
 30
0.0
 11
124.0360992706
 21
68.2500950082
 31
0.0
  0
ARC
  5
259
330
1F
100
AcDbEntity
  8
0
  6
Continuous
 62
     7
370
    30
100
AcDbCircle
 10
131.3288894402
 20
67.028167058
 30
0.0
 40
12.10551626967378
100
AcDbArc
 50
155.2423181872
 51
162.3463220725
  0
LINE
  5
25A
330
1F
100
AcDbEntity
  8
0
  6
Continuous
 62
     7
370
    30
100
AcDbLine
 10
124.5786677542
 20
69.6485088776
 30
0.0
 11
120.336027067
 21
72.097733213
 31
0.0
  0
LINE
  5
25B
330
1F
100
AcDbEntity
  8
0
  6
Continuous
 62
     7
370
    30
100
AcDbLine
 10
121.5258220112
 20
74.1585185009
 30
0.0
 11
125.7684626983
 21
71.7092941654
 31
0.0
  0
ARC
  5
25C
330
1F
100
AcDbEntity
  8
0
  6
Continuous
 62
     7
370
    30
100
AcDbCircle
 10
131.4117797109
 20
67.173788705
 30
0.0
 40
12.10448718291524
100
AcDbArc
 50
137.6532249362
 51
144.7576318673
  0
LINE
  5
25D
330
1F
100
AcDbEntity
  8
0
  6
Continuous
 62
     7
370
    30
100
AcDbLine
 10
126.7082188785
 20
72.8783419195
 30
0.0
 11
122.4655781914
 21
75.3275662549
 31
0.0
  0
SPLINE
  5
25E
330
1F
100
AcDbEntity
  8
0
  6
Continuous
 62
     7
370
    30
100
AcDbSpline
210
0.0
220
0.0
230
1.0
 70
     8
 71
     3
 72
    10
 73
     6
 74
     0
 42
0.000000001
 43
0.00000001
 40
0.0
 40
0.0
 40
0.0
 40
0.0
 40
0.0126588477773331
 40
0.3931591520965401
 40
1.0
 40
1.0
 40
1.0
 40
1.0
 10
120.3360270670412
 20
72.09773321303004
 30
0.0
 10
120.3351542570878
 20
72.09941031732144
 30
0.0
 10
120.3080464801984
 20
72.15149790955583
 30
0.0
 10
120.2455099532349
 20
72.28386815769922
 30
0.0
 10
120.2062364524945
 20
72.39379129588185
 30
0.0
 10
120.1820981245864
 20
72.46135239189088
 30
0.0
  0
SPLINE
  5
25F
330
1F
100
AcDbEntity
  8
0
  6
Continuous
 62
     7
370
    30
100
AcDbSpline
210
0.0
220
0.0
230
1.0
 70
     8
 71
     3
 72
    10
 73
     6
 74
     0
 42
0.000000001
 43
0.00000001
 40
0.0
 40
0.0
 40
0.0
 40
0.0
 40
0.6068408479055177
 40
0.987341152222678
 40
1.0
 40
1.0
 40
1.0
 40
1.0
 10
121.1339340799341
 20
74.10998062218223
 30
0.0
 10
121.2045176490729
 20
74.1228650435189
 30
0.0
 10
121.3193584062863
 20
74.14382823255302
 30
0.0
 10
121.4652681417115
 20
74.15586461703283
 30
0.0
 10
121.5239331294674
 20
74.15843571720441
 30
0.0
 10
121.5258220112241
 20
74.15851850089524
 30
0.0
  0
SPLINE
  5
260
330
1F
100
AcDbEntity
  8
0
  6
Continuous
 62
     7
370
    30
100
AcDbSpline
210
0.0
220
0.0
230
1.0
 70
     8
 71
     3
 72
    10
 73
     6
 74
     0
 42
0.000000001
 43
0.00000001
 40
0.0
 40
0.0
 40
0.0
 40
0.0
 40
0.6068408479055472
 40
0.9873411522226984
 40
1.0
 40
1.0
 40
1.0
 40
1.0
 10
119.4887753433659
 20
70.67438499047503
 30
0.0
 10
119.5396505781064
 20
70.67573549266905
 30
0.0
 10
119.6224255149976
 20
70.67793278442507
 30
0.0
 10
119.7422948969858
 20
70.69333201066891
 30
0.0
 10
119.7918626135332
 20
70.69913257831195
 30
0.0
 10
119.7934585834479
 20
70.6993193436522
 30
0.0
  0
SPLINE
  5
261
330
1F
100
AcDbEntity
  8
0
  6
Continuous
 62
     7
370
    30
100
AcDbSpline
210
0.0
220
0.0
230
1.0
 70
     8
 71
     3
 72
    10
 73
     6
 74
     0
 42
0.000000001
 43
0.00000001
 40
0.0
 40
0.0
 40
0.0
 40
0.0
 40
0.0126588477772351
 40
0.3931591520964881
 40
1.0
 40
1.0
 40
1.0
 40
1.0
 10
122.4655781913932
 20
75.32756625493111
 30
0.0
 10
122.4649418594315
 20
75.32904163127745
 30
0.0
 10
122.4451786282964
 20
75.37486394651114
 30
0.0
 10
122.3985723107206
 20
75.48636006977544
 30
0.0
 10
122.359078251122
 20
75.55912745626797
 30
0.0
 10
122.3348043630541
 20
75.60385183792616
 30
0.0
  0
SPLINE
  5
262
330
1F
100
AcDbEntity
  8
0
  6
Continuous
 62
     7
370
    30
100
AcDbSpline
210
0.0
220
0.0
230
1.0
 70
     8
 71
     3
 72
    10
 73
     6
 74
     0
 42
0.000000001
 43
0.00000001
 40
0.0
 40
0.0
 40
0.0
 40
0.0
 40
0.0126588477773008
 40
0.3931591520965784
 40
1.0
 40
1.0
 40
1.0
 40
1.0
 10
119.3579634085827
 20
68.57108828986144
 30
0.0
 10
119.35673934676
 20
68.57271901044604
 30
0.0
 10
119.318722371062
 20
68.62336601510464
 30
0.0
 10
119.2293697013659
 20
68.75709958873907
 30
0.0
 10
119.1742543000377
 20
68.89007229637023
 30
0.0
 10
119.1403792034722
 20
68.97180014744305
 30
0.0
  0
ARC
  5
263
330
1F
100
AcDbEntity
  8
0
  6
Continuous
 62
     7
370
    30
100
AcDbCircle
 10
126.3926925381
 20
67.944550231
 30
0.0
 40
7.06257487499709
100
AcDbArc
 50
174.9104625158
 51
185.0895374842
  0
SPLINE
  5
264
330
1F
100
AcDbEntity
  8
0
  6
Continuous
 62
     7
370
    30
100
AcDbSpline
210
0.0
220
0.0
230
1.0
 70
     8
 71
     3
 72
    10
 73
     6
 74
     0
 42
0.000000001
 43
0.00000001
 40
0.0
 40
0.0
 40
0.0
 40
0.0
 40
0.5157510309310075
 40
0.9844082632869849
 40
1.0
 40
1.0
 40
1.0
 40
1.0
 10
119.1757570714867
 20
67.35562813695395
 30
0.0
 10
119.1994954244661
 20
67.34218536982071
 30
0.0
 10
119.2448045550899
 20
67.31652730952851
 30
0.0
 10
119.3187298563823
 20
67.3167549761577
 30
0.0
 10
119.3567395802527
 20
67.31797295589497
 30
0.0
 10
119.3579634085826
 20
67.31801217212588
 30
0.0
  0
SPLINE
  5
265
330
1F
100
AcDbEntity
  8
0
  6
Continuous
 62
     7
370
    30
100
AcDbSpline
210
0.0
220
0.0
230
1.0
 70
     8
 71
     3
 72
     9
 73
     5
 74
     0
 42
0.000000001
 43
0.00000001
 40
0.0
 40
0.0
 40
0.0
 40
0.0
 40
0.2476460346037724
 40
1.0
 40
1.0
 40
1.0
 40
1.0
 10
119.1403792034729
 20
67.37055303246551
 30
0.0
 10
119.1340554089143
 20
67.37679909500984
 30
0.0
 10
119.1085197908345
 20
67.40202082954859
 30
0.0
 10
119.1064440989128
 20
67.40765167534812
 30
0.0
 10
119.1048824438646
 20
67.41188806451395
 30
0.0
  0
SPLINE
  5
266
330
1F
100
AcDbEntity
  8
0
  6
Continuous
 62
     7
370
    30
100
AcDbSpline
210
0.0
220
0.0
230
1.0
 70
     8
 71
     3
 72
    13
 73
     9
 74
     0
 42
0.000000001
 43
0.00000001
 40
0.0
 40
0.0
 40
0.0
 40
0.0
 40
0.1095276958172518
 40
0.339960686710772
 40
0.5973378144703976
 40
0.7889618634009005
 40
0.9815806614502053
 40
1.0
 40
1.0
 40
1.0
 40
1.0
 10
119.1565067490868
 20
67.32575584348096
 30
0.0
 10
119.1677301348445
 20
67.30474525281016
 30
0.0
 10
119.2025661633115
 20
67.23953092706951
 30
0.0
 10
119.2667801229272
 20
67.02257040404271
 30
0.0
 10
119.315503248857
 20
66.71489698514877
 30
0.0
 10
119.3720870713693
 20
66.37999212712161
 30
0.0
 10
119.437247854521
 20
66.17312184509863
 30
0.0
 10
119.4846390551001
 20
66.0784782702441
 30
0.0
 10
119.4887753433644
 20
66.0702178104291
 30
0.0
  0
SPLINE
  5
267
330
1F
100
AcDbEntity
  8
0
  6
Continuous
 62
     7
370
    30
100
AcDbSpline
210
0.0
220
0.0
230
1.0
 70
     8
 71
     3
 72
    10
 73
     6
 74
     0
 42
0.000000001
 43
0.00000001
 40
0.0
 40
0.0
 40
0.0
 40
0.0
 40
0.0126588477774188
 40
0.3931591520964416
 40
1.0
 40
1.0
 40
1.0
 40
1.0
 10
119.7934585834479
 20
65.69259314457939
 30
0.0
 10
119.7918626135331
 20
65.69394179828227
 30
0.0
 10
119.7422948969861
 20
65.73582835506959
 30
0.0
 10
119.6224255149962
 20
65.85104915283691
 30
0.0
 10
119.5396505781049
 20
65.98678913415712
 30
0.0
 10
119.4887753433644
 20
66.0702178104291
 30
0.0
  0
ARC
  5
268
330
1F
100
AcDbEntity
  8
0
  6
Continuous
 62
     7
370
    30
100
AcDbCircle
 10
122.513867213
 20
67.0279206588
 30
0.0
 40
3.030465753279999
100
AcDbArc
 50
206.1443665222
 51
224.0569764706
  0
LINE
  5
269
330
1F
100
AcDbEntity
  8
0
  6
Continuous
 62
     7
370
    30
100
AcDbLine
 10
120.2543314535
 20
64.9758772806
 30
0.0
 11
120.2630018827
 21
64.9629296634
 31
0.0
  0
SPLINE
  5
26A
330
1F
100
AcDbEntity
  8
0
  6
Continuous
 62
     7
370
    30
100
AcDbSpline
210
0.0
220
0.0
230
1.0
 70
     8
 71
     3
 72
     9
 73
     5
 74
     0
 42
0.000000001
 43
0.00000001
 40
0.0
 40
0.0
 40
0.0
 40
0.0
 40
0.935034250634682
 40
0.9999999999999999
 40
0.9999999999999999
 40
0.9999999999999999
 40
0.9999999999999999
 10
120.2996970643898
 20
64.94137851568154
 30
0.0
 10
120.3103219710695
 20
64.93385176694939
 30
0.0
 10
120.3216850913749
 20
64.9258020631797
 30
0.0
 10
120.3351521682971
 20
64.92093190571717
 30
0.0
 10
120.3360270670411
 20
64.9206155122881
 30
0.0
  0
SPLINE
  5
26B
330
1F
100
AcDbEntity
  8
0
  6
Continuous
 62
     7
370
    30
100
AcDbSpline
210
0.0
220
0.0
230
1.0
 70
     8
 71
     3
 72
     9
 73
     5
 74
     0
 42
0.000000001
 43
0.00000001
 40
0.0
 40
0.0
 40
0.0
 40
0.0
 40
0.0650323090777637
 40
1.0
 40
1.0
 40
1.0
 40
1.0
 10
127.7410515768451
 20
77.74649415691896
 30
0.0
 10
127.740339999642
 20
77.74709343222379
 30
0.0
 10
127.7293980968689
 20
77.75630847184526
 30
0.0
 10
127.7167563286482
 20
77.76211512024176
 30
0.0
 10
127.7049366838057
 20
77.76754414888502
 30
0.0
  0
LINE
  5
26C
330
1F
100
AcDbEntity
  8
0
  6
Continuous
 62
     7
370
    30
100
AcDbLine
 10
127.6678820876
 20
77.7885583647
 30
0.0
 11
127.6520489466
 21
77.7896088728
 31
0.0
  0
ARC
  5
26D
330
1F
100
AcDbEntity
  8
0
  6
Continuous
 62
     7
370
    30
100
AcDbCircle
 10
127.0046292408
 20
74.8075315426
 30
0.0
 40
3.029821629304996
100
AcDbArc
 50
75.9329044049
 51
93.8480595329
  0
SPLINE
  5
26E
330
1F
100
AcDbEntity
  8
0
  6
Continuous
 62
     7
370
    30
100
AcDbSpline
210
0.0
220
0.0
230
1.0
 70
     8
 71
     3
 72
    10
 73
     6
 74
     0
 42
0.000000001
 43
0.00000001
 40
0.0
 40
0.0
 40
0.0
 40
0.0
 40
0.606840847905544
 40
0.987341152222722
 40
1.0
 40
1.0
 40
1.0
 40
1.0
 10
126.3219141159763
 20
77.90556130502294
 30
0.0
 10
126.4196049491909
 20
77.9032196236571
 30
0.0
 10
126.57854972056
 20
77.89940966527038
 30
0.0
 10
126.7382701695959
 20
77.8532129401606
 30
0.0
 10
126.7993294248463
 20
77.83123031220767
 30
0.0
 10
126.801295396676
 20
77.83052252061864
 30
0.0
  0
SPLINE
  5
26F
330
1F
100
AcDbEntity
  8
0
  6
Continuous
 62
     7
370
    30
100
AcDbSpline
210
0.0
220
0.0
230
1.0
 70
     8
 71
     3
 72
    13
 73
     9
 74
     0
 42
0.000000001
 43
0.00000001
 40
0.0
 40
0.0
 40
0.0
 40
0.0
 40
0.0461090548790676
 40
0.2101604231893213
 40
0.379230464590722
 40
0.5709399485395933
 40
0.8002630255182759
 40
1.0
 40
1.0
 40
1.0
 40
1.0
 10
126.3219141159771
 20
77.90556130502382
 30
0.0
 10
126.2986302240982
 20
77.90387645598626
 30
0.0
 10
126.1925045925146
 20
77.8961970839481
 30
0.0
 10
125.9934707714437
 20
77.84914934716072
 30
0.0
 10
125.7309539408867
 20
77.75425637677012
 30
0.0
 10
125.4675944552035
 20
77.65161388272175
 30
0.0
 10
125.220221369215
 20
77.5766076211709
 30
0.0
 10
125.1158042316133
 20
77.56990902011657
 30
0.0
 10
125.0671957371202
 20
77.56679067268875
 30
0.0
  0
LINE
  5
270
330
1F
100
AcDbEntity
  8
0
  6
Continuous
 62
     7
370
    30
100
AcDbLine
 10
124.9904802583
 20
77.5648782219
 30
0.0
 11
124.9648989081
 21
77.5677169746
 31
0.0
  0
SPLINE
  5
271
330
1F
100
AcDbEntity
  8
0
  6
Continuous
 62
     7
370
    30
100
AcDbSpline
210
0.0
220
0.0
230
1.0
 70
     8
 71
     3
 72
     9
 73
     5
 74
     0
 42
0.000000001
 43
0.00000001
 40
0.0
 40
0.0
 40
0.0
 40
0.0
 40
0.9014149397289863
 40
1.0
 40
1.0
 40
1.0
 40
1.0
 10
124.9691430303213
 20
77.56694652310075
 30
0.0
 10
124.9755630288848
 20
77.56764927660485
 30
0.0
 10
124.9826851635207
 20
77.56842888816122
 30
0.0
 10
125.0181825124524
 20
77.55826982829758
 30
0.0
 10
125.0216820207363
 20
77.55726829676863
 30
0.0
  0
SPLINE
  5
272
330
1F
100
AcDbEntity
  8
0
  6
Continuous
 62
     7
370
    30
100
AcDbSpline
210
0.0
220
0.0
230
1.0
 70
     8
 71
     3
 72
    10
 73
     6
 74
     0
 42
0.000000001
 43
0.00000001
 40
0.0
 40
0.0
 40
0.0
 40
0.0
 40
0.0155953685219613
 40
0.484361765983826
 40
1.0
 40
1.0
 40
1.0
 40
1.0
 10
125.1760052776278
 20
77.39515626029977
 30
0.0
 10
125.175427211773
 20
77.39623553724749
 30
0.0
 10
125.1574736124127
 20
77.42975577677511
 30
0.0
 10
125.1207096124075
 20
77.4938649937317
 30
0.0
 10
125.075837235974
 20
77.52025559701191
 30
0.0
 10
125.0523327621018
 20
77.5340791850314
 30
0.0
  0
ARC
  5
273
330
1F
100
AcDbEntity
  8
0
  6
Continuous
 62
     7
370
    30
100
AcDbCircle
 10
128.1496557381
 20
70.9910083151
 30
0.0
 40
7.060857452572148
100
AcDbArc
 50
114.9069477852
 51
125.0876756821
  0
SPLINE
  5
274
330
1F
100
AcDbEntity
  8
0
  6
Continuous
 62
     7
370
    30
100
AcDbSpline
210
0.0
220
0.0
230
1.0
 70
     8
 71
     3
 72
    10
 73
     6
 74
     0
 42
0.000000001
 43
0.00000001
 40
0.0
 40
0.0
 40
0.0
 40
0.0
 40
0.6068408479054993
 40
0.9873411522226587
 40
1.0
 40
1.0
 40
1.0
 40
1.0
 10
123.635036458294
 20
76.7567748525511
 30
0.0
 10
123.7227557257677
 20
76.76830784090949
 30
0.0
 10
123.865476577402
 20
76.78707222378458
 30
0.0
 10
124.0259728157346
 20
76.7765629252983
 30
0.0
 10
124.0888439985844
 20
76.76896467008369
 30
0.0
 10
124.0908683104414
 20
76.76872002321328
 30
0.0
  0
LINE
  5
275
330
1F
100
AcDbEntity
  8
0
  6
Continuous
 62
     7
370
    30
100
AcDbLine
 10
123.6006040957
 20
66.1218639544
 30
0.0
 11
119.3579634086
 21
68.5710882899
 31
0.0
  0
LINE
  5
276
330
1F
100
AcDbEntity
  8
0
  6
Continuous
 62
     7
370
    30
100
AcDbLine
 10
124.0908683104
 20
76.7687200232
 30
0.0
 11
128.3335089976
 21
74.3194956877
 31
0.0
  0
LINE
  5
277
330
1F
100
AcDbEntity
  8
0
  6
Continuous
 62
     7
370
    30
100
AcDbLine
 10
119.3579634086
 20
67.3180121721
 30
0.0
 11
123.6006040957
 21
64.8687878367
 31
0.0
  0
LINE
  5
278
330
1F
100
AcDbEntity
  8
0
  6
Continuous
 62
     7
370
    30
100
AcDbLine
 10
129.4186459647
 20
74.9459319248
 30
0.0
 11
125.1760052776
 21
77.3951562603
 31
0.0
  0
LINE
  5
279
330
1F
100
AcDbEntity
  8
0
  6
Continuous
 62
     7
370
    30
100
AcDbLine
 10
119.4887753434
 20
66.0702178104
 30
0.0
 11
124.3415711395
 21
63.268758428
 31
0.0
  0
LINE
  5
27A
330
1F
100
AcDbEntity
  8
0
  6
Continuous
 62
     7
370
    30
100
AcDbLine
 10
131.1747099121
 20
75.1041019226
 30
0.0
 11
126.321914116
 21
77.905561305
 31
0.0
  0
ARC
  5
27B
330
1F
100
AcDbEntity
  8
0
  6
Continuous
 62
     7
370
    30
100
AcDbCircle
 10
125.8521041361
 20
70.2864945101
 30
0.0
 40
3.634023568048873
100
AcDbArc
 50
304.7807614493
 51
355.2246150834
  0
LINE
  5
27C
330
1F
100
AcDbEntity
  8
0
  6
Continuous
 62
     7
370
    30
100
AcDbLine
 10
124.0360992706
 20
63.2433688091
 30
0.0
 11
119.7934585834
 21
65.6925931446
 31
0.0
  0
LINE
  5
27D
330
1F
100
AcDbEntity
  8
0
  6
Continuous
 62
     7
370
    30
100
AcDbLine
 10
126.8012953967
 20
77.8305225206
 30
0.0
 11
131.0439360838
 21
75.3812981852
 31
0.0
  0
LINE
  5
27E
330
1F
100
AcDbEntity
  8
0
  6
Continuous
 62
     7
370
    30
100
AcDbLine
 10
120.336027067
 20
64.9206155123
 30
0.0
 11
124.5786677542
 21
62.4713911768
 31
0.0
  0
LINE
  5
27F
330
1F
100
AcDbEntity
  8
0
  6
Continuous
 62
     7
370
    30
100
AcDbLine
 10
131.983692264
 20
75.2972698215
 30
0.0
 11
127.7410515768
 21
77.7464941569
 31
0.0
  0
LWPOLYLINE
  5
280
330
1F
100
AcDbEntity
  8
0
  6
Continuous
 62
     7
370
    30
100
AcDbPolyline
 90
       29
 70
   128
 43
0.0
 10
110.6680778656
 20
75.1741077649
 10
110.689971134
 20
75.6288700121
 10
110.755365527
 20
76.1029811675
 10
110.8634085286
 20
76.5902604672
 10
111.0126916331
 20
77.0843554804
 10
111.2012687069
 20
77.5788249229
 10
111.4266813594
 20
78.0672226294
 10
111.6859909922
 20
78.5431815888
 10
111.9758171074
 20
79.0004969482
 10
112.2923813784
 20
79.4332069026
 10
112.6315569059
 20
79.8356704159
 10
112.9889220182
 20
80.2026407607
 10
113.3598179144
 20
80.5293339175
 10
113.7394093995
 20
80.8114909412
 10
114.1227479177
 20
81.0454334836
 10
114.5048360655
 20
81.2281117459
 10
114.8806927393
 20
81.3571442375
 10
115.2454180727
 20
81.4308488227
 10
115.5942573131
 20
81.4482646493
 10
115.9226628076
 20
81.4091646755
 10
116.2263532883
 20
81.3140586292
 10
116.5013696855
 20
81.1641863633
 10
116.7441267396
 20
80.9615016918
 10
116.9514597414
 20
80.7086469194
 10
117.120665788
 20
80.4089183948
 10
117.2495390199
 20
80.0662235377
 10
117.3363993774
 20
79.6850298996
 10
117.3801145029
 20
79.2703069226
 10
117.3855922869
 20
79.0520462961
  0
LWPOLYLINE
  5
281
330
1F
100
AcDbEntity
  8
0
  6
Continuous
 62
     7
370
    30
100
AcDbPolyline
 90
       15
 70
   128
 43
0.0
 10
114.0273809687
 20
73.2348233623
 10
113.7394093995
 20
73.0828084972
 10
113.3598179144
 20
72.926698521
 10
112.9889220182
 20
72.8251643911
 10
112.6315569059
 20
72.7795297598
 10
112.2923813784
 20
72.7903895446
 10
111.9758171074
 20
72.8576021714
 10
111.6859909922
 20
72.980291421
 10
111.4266813594
 20
73.1568578512
 10
111.2012687069
 20
73.3849996487
 10
111.0126916331
 20
73.6617426362
 10
110.8634085286
 20
73.9834790457
 10
110.755365527
 20
74.346014551
 10
110.689971134
 20
74.7446229475
 10
110.6680778656
 20
75.1741077649
  0
LWPOLYLINE
  5
282
330
1F
100
AcDbEntity
  8
0
  6
Continuous
 62
     7
370
    30
100
AcDbPolyline
 90
       15
 70
   128
 43
0.0
 10
111.3751846468
 20
75.1741077649
 10
111.3970959662
 20
74.7684586457
 10
111.4625104081
 20
74.3940230749
 10
111.5704740825
 20
74.0562611664
 10
111.7194126361
 20
73.7600982494
 10
111.9071542092
 20
73.5098530462
 10
112.1309611071
 20
73.3091746952
 10
112.3875697211
 20
73.1609895387
 10
112.6732381199
 20
73.06745845
 10
112.9838006149
 20
73.029945323
 10
113.3147285057
 20
73.0489971835
 10
113.6611961183
 20
73.1243362126
 10
114.0181511749
 20
73.2548637975
 10
114.3803884668
 20
73.438676552
 10
114.380876897
 20
73.4389585626
  0
LWPOLYLINE
  5
283
330
1F
100
AcDbEntity
  8
0
  6
Continuous
 62
     7
370
    30
100
AcDbPolyline
 90
       27
 70
   128
 43
0.0
 10
117.3855922869
 20
78.6438422402
 10
117.3636809675
 20
79.0494913595
 10
117.2982665256
 20
79.4239269302
 10
117.1903028511
 20
79.7616888387
 10
117.0413642976
 20
80.0578517557
 10
116.8536227244
 20
80.308096959
 10
116.6298158266
 20
80.50877531
 10
116.3732072125
 20
80.6569604664
 10
116.0875388137
 20
80.7504915551
 10
115.7769763187
 20
80.7880046821
 10
115.446048428
 20
80.7689528216
 10
115.0995808153
 20
80.6936137925
 10
114.7426257588
 20
80.5630862077
 10
114.3803884668
 20
80.3792734531
 10
114.0181511749
 20
80.1448559327
 10
113.6611961183
 20
79.8632519817
 10
113.3147285057
 20
79.5385680199
 10
112.9838006149
 20
79.1755386706
 10
112.6732381199
 20
78.7794577192
 10
112.3875697211
 20
78.3561009178
 10
112.1309611071
 20
77.9116417619
 10
111.9071542092
 20
77.4525614669
 10
111.7194126361
 20
76.9855544572
 10
111.5704740825
 20
76.5174307465
 10
111.4625104081
 20
76.0550166328
 10
111.3970959662
 20
75.6050551551
 10
111.3751846468
 20
75.1741077649
  0
LWPOLYLINE
  5
284
330
1F
100
AcDbEntity
  8
0
  6
Continuous
 62
     7
370
    30
100
AcDbPolyline
 90
       22
 70
   128
 43
0.0
 10
103.2434566631
 20
79.460250352
 10
103.2653499315
 20
79.9150125991
 10
103.3307443245
 20
80.3891237546
 10
103.4387873261
 20
80.8764030543
 10
103.5880704306
 20
81.3704980675
 10
103.7766475044
 20
81.86496751
 10
104.002060157
 20
82.3533652164
 10
104.2613697897
 20
82.8293241759
 10
104.5511959049
 20
83.2866395353
 10
104.8677601759
 20
83.7193494896
 10
105.2069357035
 20
84.1218130029
 10
105.5643008157
 20
84.4887833478
 10
105.935196712
 20
84.8154765045
 10
106.314788197
 20
85.0976335283
 10
106.6981267153
 20
85.3315760707
 10
107.080214863
 20
85.514254333
 10
107.4560715368
 20
85.6432868246
 10
107.8207968702
 20
85.7169914097
 10
108.1696361106
 20
85.7344072364
 10
108.4980416051
 20
85.6953072626
 10
108.8017320859
 20
85.6002012163
 10
108.9770208638
 20
85.5129517139
  0
ARC
  5
285
330
1F
100
AcDbEntity
  8
0
  6
Continuous
 62
     7
370
    30
100
AcDbCircle
 10
105.6851044866
 20
79.2549793301
 30
0.0
 40
2.45026126896223
100
AcDbArc
 50
175.1944047044
 51
233.4934149022
  0
LWPOLYLINE
  5
286
330
1F
100
AcDbEntity
  8
0
  6
Continuous
 62
     7
370
    30
100
AcDbPolyline
 90
       30
 70
   128
 43
0.0
 10
103.8686748078
 20
77.5214458722
 10
103.7694720708
 20
77.5837390423
 10
103.5279926853
 20
77.7853569523
 10
103.3217509099
 20
78.0368809101
 10
103.1534354214
 20
78.3350319161
 10
103.0252404697
 20
78.6759231161
 10
102.938837272
 20
79.0551104719
 10
102.8953522261
 20
79.4676506964
 10
102.8953522261
 20
79.9081656969
 10
102.938837272
 20
80.3709126868
 10
103.0252404697
 20
80.8498590512
 10
103.1534354214
 20
81.3387609919
 10
103.3217509099
 20
81.8312449245
 10
103.5279926853
 20
82.3208905676
 10
103.7694720708
 20
82.8013146416
 10
104.0430410132
 20
83.2662540839
 10
104.345133123
 20
83.7096476978
 10
104.6718101675
 20
84.1257151695
 10
105.018813412
 20
84.5090324233
 10
105.3816191383
 20
84.8546023324
 10
105.7554976191
 20
85.1579198647
 10
106.1355747766
 20
85.4150308122
 10
106.5168957237
 20
85.6225833407
 10
106.8944893588
 20
85.7778716853
 10
107.2634331714
 20
85.8788714251
 10
107.6189174147
 20
85.9242658741
 10
107.9563078078
 20
85.9134632461
 10
108.2712059511
 20
85.8466043699
 10
108.5595066657
 20
85.7245608533
 10
108.5932908195
 20
85.7056076217
  0
ARC
  5
287
330
1F
100
AcDbEntity
  8
0
  6
Continuous
 62
     7
370
    30
100
AcDbCircle
 10
109.3964422347
 20
79.7861459201
 30
0.0
 40
6.512839645570396
100
AcDbArc
 50
122.5258451079
 51
177.4795314248
  0
LWPOLYLINE
  5
288
330
1F
100
AcDbEntity
  8
0
  6
Continuous
 62
     7
370
    30
100
AcDbPolyline
 90
       18
 70
   128
 43
0.0
 10
95.5713480873
 20
85.3179785543
 10
95.5939542174
 20
85.6876966826
 10
95.6612907972
 20
86.0756353931
 10
95.7719226646
 20
86.4735264457
 10
95.9234918933
 20
86.8728894835
 10
96.1127680483
 20
87.2652127766
 10
96.335717037
 20
87.6421346352
 10
96.5875870888
 20
87.9956216243
 10
96.8630100308
 20
88.3181397823
 10
97.1561157012
 20
88.6028151948
 10
97.4606570615
 20
88.8435804995
 10
97.7701433413
 20
89.035304202
 10
98.0779783779
 20
89.1739000443
 10
98.377601202
 20
89.2564140968
 10
98.6626258732
 20
89.2810877157
 10
98.9269775855
 20
89.2473950256
 10
99.1650221411
 20
89.1560541277
 10
99.1925465298
 20
89.1407373092
  0
ARC
  5
289
330
1F
100
AcDbEntity
  8
0
  6
Continuous
 62
     7
370
    30
100
AcDbCircle
 10
97.0528376821
 20
85.1609141152
 30
0.0
 40
1.489792152494774
100
AcDbArc
 50
173.9482268812
 51
234.7395927254
  0
ARC
  5
28A
330
1F
100
AcDbEntity
  8
0
  6
Continuous
 62
     7
370
    30
100
AcDbCircle
 10
98.0646292602
 20
86.2927705181
 30
0.0
 40
2.917549352608757
100
AcDbArc
 50
108.5351556358
 51
179.9038159518
  0
LWPOLYLINE
  5
28B
330
1F
100
AcDbEntity
  8
0
  6
Continuous
 62
     7
370
    30
100
AcDbPolyline
 90
        3
 70
   128
 43
0.0
 10
95.2357373749
 20
85.7652312774
 10
95.1696433544
 20
86.0129307855
 10
95.1470840186
 20
86.2976682885
  0
LINE
  5
28C
330
1F
100
AcDbEntity
  8
0
  6
Continuous
 62
     8
370
    30
100
AcDbLine
 10
125.0474063509
 20
62.2748825712
 30
0.0
 11
125.9867298761
 21
61.7326226424
 31
0.0
  0
LINE
  5
28D
330
1F
100
AcDbEntity
  8
0
  6
Continuous
 62
     8
370
    30
100
AcDbLine
 10
133.3274161506
 20
74.447064195
 30
0.0
 11
132.3758418409
 21
74.9963963511
 31
0.0
  0
ENDSEC
  0
SECTION
  2
OBJECTS
  0
DICTIONARY
  5
C
330
0
100
AcDbDictionary
281
     1
  3
ACAD_GROUP
350
D
  3
ACAD_LAYOUT
350
1A
  3
ACAD_MLINESTYLE
350
17
  3
ACAD_PLOTSETTINGS
350
19
  3
ACAD_PLOTSTYLENAME
350
E
  3
ACAD_SCALELIST
350
47
  0
DICTIONARY
  5
D
102
{ACAD_REACTORS
330
C
102
}
330
C
100
AcDbDictionary
281
     1
  0
DICTIONARY
  5
1A
102
{ACAD_REACTORS
330
C
102
}
330
C
100
AcDbDictionary
281
     1
  3
Layout1
350
1E
  3
Layout2
350
26
  3
Model
350
22
  0
DICTIONARY
  5
17
102
{ACAD_REACTORS
330
C
102
}
330
C
100
AcDbDictionary
281
     1
  3
Standard
350
18
  0
DICTIONARY
  5
19
102
{ACAD_REACTORS
330
C
102
}
330
C
100
AcDbDictionary
281
     1
  0
ACDBDICTIONARYWDFLT
  5
E
102
{ACAD_REACTORS
330
C
102
}
330
C
100
AcDbDictionary
281
     1
  3
Normal
350
F
100
AcDbDictionaryWithDefault
340
F
  0
DICTIONARY
  5
47
102
{ACAD_REACTORS
330
C
102
}
330
C
100
AcDbDictionary
281
     1
  3
A0
350
48
  3
A1
350
49
  3
A2
350
4A
  3
A3
350
4B
  3
A4
350
4C
  3
A5
350
4D
  3
A6
350
4E
  3
A7
350
4F
  3
A8
350
50
  3
A9
350
51
  3
B0
350
52
  3
B1
350
53
  3
B2
350
54
  3
B3
350
55
  3
B4
350
56
  3
B5
350
57
  3
B6
350
58
  3
B7
350
59
  3
B8
350
5A
  3
B9
350
5B
  3
C0
350
5C
  3
C1
350
5D
  3
C2
350
5E
  3
C3
350
5F
  3
C4
350
60
  3
C5
350
61
  3
C6
350
62
  3
C7
350
63
  3
C8
350
64
  3
C9
350
65
  3
D0
350
66
  3
D1
350
67
  3
D2
350
68
  0
LAYOUT
  5
1E
102
{ACAD_REACTORS
330
1A
102
}
330
1A
100
AcDbPlotSettings
  1

  2
none_device
  4

  6

 40
0.0
 41
0.0
 42
0.0
 43
0.0
 44
0.0
 45
0.0
 46
0.0
 47
0.0
 48
0.0
 49
0.0
140
0.0
141
0.0
142
1.0
143
1.0
 70
   688
 72
     1
 73
     0
 74
     5
  7

 75
    16
147
1.0
148
0.0
149
0.0
100
AcDbLayout
  1
Layout1
 70
     1
 71
     1
 10
0.0
 20
0.0
 11
420.0
 21
297.0
 12
0.0
 22
0.0
 32
0.0
 14
1.0000000000E+20
 24
1.0000000000E+20
 34
1.0000000000E+20
 15
-1.0000000000E+20
 25
-1.0000000000E+20
 35
-1.0000000000E+20
146
0.0
 13
0.0
 23
0.0
 33
0.0
 16
1.0
 26
0.0
 36
0.0
 17
0.0
 27
1.0
 37
0.0
 76
     0
330
1B
  0
LAYOUT
  5
26
102
{ACAD_REACTORS
330
1A
102
}
330
1A
100
AcDbPlotSettings
  1

  2
none_device
  4

  6

 40
0.0
 41
0.0
 42
0.0
 43
0.0
 44
0.0
 45
0.0
 46
0.0
 47
0.0
 48
0.0
 49
0.0
140
0.0
141
0.0
142
1.0
143
1.0
 70
   688
 72
     1
 73
     0
 74
     5
  7

 75
    16
147
1.0
148
0.0
149
0.0
100
AcDbLayout
  1
Layout2
 70
     1
 71
     2
 10
0.0
 20
0.0
 11
0.0
 21
0.0
 12
0.0
 22
0.0
 32
0.0
 14
0.0
 24
0.0
 34
0.0
 15
0.0
 25
0.0
 35
0.0
146
0.0
 13
0.0
 23
0.0
 33
0.0
 16
1.0
 26
0.0
 36
0.0
 17
0.0
 27
1.0
 37
0.0
 76
     0
330
23
  0
LAYOUT
  5
22
102
{ACAD_REACTORS
330
1A
102
}
330
1A
100
AcDbPlotSettings
  1

  2
none_device
  4
Letter_(8.50_x_11.00_Inches)
  6

 40
6.35
 41
6.35
 42
6.35000508
 43
6.35000508
 44
215.9
 45
279.4
 46
0.0
 47
0.0
 48
0.0
 49
0.0
140
0.0
141
0.0
142
1.0
143
1.0
 70
  1712
 72
     1
 73
     0
 74
     0
  7

 75
     0
147
1.0
148
0.0
149
0.0
100
AcDbLayout
  1
Model
 70
     1
 71
     0
 10
0.0
 20
0.0
 11
148.5
 21
105.0
 12
0.0
 22
0.0
 32
0.0
 14
0.0
 24
0.0
 34
0.0
 15
148.5
 25
105.0
 35
0.0
146
0.0
 13
0.0
 23
0.0
 33
0.0
 16
1.0
 26
0.0
 36
0.0
 17
0.0
 27
1.0
 37
0.0
 76
     0
330
1F
331
29
  0
MLINESTYLE
  5
18
102
{ACAD_REACTORS
330
17
102
}
330
17
100
AcDbMlineStyle
  2
Standard
 70
     0
  3

 62
   256
 51
90.0
 52
90.0
 71
     2
 49
0.5
 62
   256
  6
BYLAYER
 49
-0.5
 62
   256
  6
BYLAYER
  0
ACDBPLACEHOLDER
  5
F
102
{ACAD_REACTORS
330
E
102
}
330
E
  0
SCALE
  5
48
102
{ACAD_REACTORS
330
47
102
}
330
47
100
AcDbScale
 70
     0
300
1:1
140
1.0
141
1.0
290
     1
  0
SCALE
  5
49
102
{ACAD_REACTORS
330
47
102
}
330
47
100
AcDbScale
 70
     0
300
1:2
140
1.0
141
2.0
290
     0
  0
SCALE
  5
4A
102
{ACAD_REACTORS
330
47
102
}
330
47
100
AcDbScale
 70
     0
300
1:4
140
1.0
141
4.0
290
     0
  0
SCALE
  5
4B
102
{ACAD_REACTORS
330
47
102
}
330
47
100
AcDbScale
 70
     0
300
1:5
140
1.0
141
5.0
290
     0
  0
SCALE
  5
4C
102
{ACAD_REACTORS
330
47
102
}
330
47
100
AcDbScale
 70
     0
300
1:8
140
1.0
141
8.0
290
     0
  0
SCALE
  5
4D
102
{ACAD_REACTORS
330
47
102
}
330
47
100
AcDbScale
 70
     0
300
1:10
140
1.0
141
10.0
290
     0
  0
SCALE
  5
4E
102
{ACAD_REACTORS
330
47
102
}
330
47
100
AcDbScale
 70
     0
300
1:16
140
1.0
141
16.0
290
     0
  0
SCALE
  5
4F
102
{ACAD_REACTORS
330
47
102
}
330
47
100
AcDbScale
 70
     0
300
1:20
140
1.0
141
20.0
290
     0
  0
SCALE
  5
50
102
{ACAD_REACTORS
330
47
102
}
330
47
100
AcDbScale
 70
     0
300
1:30
140
1.0
141
30.0
290
     0
  0
SCALE
  5
51
102
{ACAD_REACTORS
330
47
102
}
330
47
100
AcDbScale
 70
     0
300
1:40
140
1.0
141
40.0
290
     0
  0
SCALE
  5
52
102
{ACAD_REACTORS
330
47
102
}
330
47
100
AcDbScale
 70
     0
300
1:50
140
1.0
141
50.0
290
     0
  0
SCALE
  5
53
102
{ACAD_REACTORS
330
47
102
}
330
47
100
AcDbScale
 70
     0
300
1:100
140
1.0
141
100.0
290
     0
  0
SCALE
  5
54
102
{ACAD_REACTORS
330
47
102
}
330
47
100
AcDbScale
 70
     0
300
2:1
140
2.0
141
1.0
290
     0
  0
SCALE
  5
55
102
{ACAD_REACTORS
330
47
102
}
330
47
100
AcDbScale
 70
     0
300
4:1
140
4.0
141
1.0
290
     0
  0
SCALE
  5
56
102
{ACAD_REACTORS
330
47
102
}
330
47
100
AcDbScale
 70
     0
300
8:1
140
8.0
141
1.0
290
     0
  0
SCALE
  5
57
102
{ACAD_REACTORS
330
47
102
}
330
47
100
AcDbScale
 70
     0
300
10:1
140
10.0
141
1.0
290
     0
  0
SCALE
  5
58
102
{ACAD_REACTORS
330
47
102
}
330
47
100
AcDbScale
 70
     0
300
100:1
140
100.0
141
1.0
290
     0
  0
SCALE
  5
59
102
{ACAD_REACTORS
330
47
102
}
330
47
100
AcDbScale
 70
     0
300
1/128" = 1'-0"
140
0.0078125
141
12.0
290
     0
  0
SCALE
  5
5A
102
{ACAD_REACTORS
330
47
102
}
330
47
100
AcDbScale
 70
     0
300
1/64" = 1'-0"
140
0.015625
141
12.0
290
     0
  0
SCALE
  5
5B
102
{ACAD_REACTORS
330
47
102
}
330
47
100
AcDbScale
 70
     0
300
1/32" = 1'-0"
140
0.03125
141
12.0
290
     0
  0
SCALE
  5
5C
102
{ACAD_REACTORS
330
47
102
}
330
47
100
AcDbScale
 70
     0
300
1/16" = 1'-0"
140
0.0625
141
12.0
290
     0
  0
SCALE
  5
5D
102
{ACAD_REACTORS
330
47
102
}
330
47
100
AcDbScale
 70
     0
300
3/32" = 1'-0"
140
0.09375
141
12.0
290
     0
  0
SCALE
  5
5E
102
{ACAD_REACTORS
330
47
102
}
330
47
100
AcDbScale
 70
     0
300
1/8" = 1'-0"
140
0.125
141
12.0
290
     0
  0
SCALE
  5
5F
102
{ACAD_REACTORS
330
47
102
}
330
47
100
AcDbScale
 70
     0
300
3/16" = 1'-0"
140
0.1875
141
12.0
290
     0
  0
SCALE
  5
60
102
{ACAD_REACTORS
330
47
102
}
330
47
100
AcDbScale
 70
     0
300
1/4" = 1'-0"
140
0.25
141
12.0
290
     0
  0
SCALE
  5
61
102
{ACAD_REACTORS
330
47
102
}
330
47
100
AcDbScale
 70
     0
300
3/8" = 1'-0"
140
0.375
141
12.0
290
     0
  0
SCALE
  5
62
102
{ACAD_REACTORS
330
47
102
}
330
47
100
AcDbScale
 70
     0
300
1/2" = 1'-0"
140
0.5
141
12.0
290
     0
  0
SCALE
  5
63
102
{ACAD_REACTORS
330
47
102
}
330
47
100
AcDbScale
 70
     0
300
3/4" = 1'-0"
140
0.75
141
12.0
290
     0
  0
SCALE
  5
64
102
{ACAD_REACTORS
330
47
102
}
330
47
100
AcDbScale
 70
     0
300
1" = 1'-0"
140
1.0
141
12.0
290
     0
  0
SCALE
  5
65
102
{ACAD_REACTORS
330
47
102
}
330
47
100
AcDbScale
 70
     0
300
1-1/2" = 1'-0"
140
1.5
141
12.0
290
     0
  0
SCALE
  5
66
102
{ACAD_REACTORS
330
47
102
}
330
47
100
AcDbScale
 70
     0
300
3" = 1'-0"
140
3.0
141
12.0
290
     0
  0
SCALE
  5
67
102
{ACAD_REACTORS
330
47
102
}
330
47
100
AcDbScale
 70
     0
300
6" = 1'-0"
140
6.0
141
12.0
290
     0
  0
SCALE
  5
68
102
{ACAD_REACTORS
330
47
102
}
330
47
100
AcDbScale
 70
     0
300
1'-0" = 1'-0"
140
12.0
141
12.0
290
     0
  0
ENDSEC
  0
EOF
