  0
SECTION
  2
HEADER
  9
$ACADVER
  1
AC1015
  9
$ACADMAINTVER
 70
     6
  9
$DWGCODEPAGE
  3
ANSI_950
  9
$INSBASE
 10
0.0
 20
0.0
 30
0.0
  9
$EXTMIN
 10
0.0
 20
0.0
 30
0.0
  9
$EXTMAX
 10
99.0
 20
70.0
 30
0.0
  9
$LIMMIN
 10
0.0
 20
0.0
  9
$LIMMAX
 10
99.0
 20
70.0
  9
$ORTHOMODE
 70
     0
  9
$REGENMODE
 70
     1
  9
$FILLMODE
 70
     1
  9
$QTEXTMODE
 70
     0
  9
$MIRRTEXT
 70
     1
  9
$LTSCALE
 40
0.3333333333
  9
$ATTMODE
 70
     1
  9
$TEXTSIZE
 40
1.0583333333
  9
$TRACEWID
 40
1.0
  9
$TEXTSTYLE
  7
Standard
  9
$CLAYER
  8
0
  9
$CELTYPE
  6
ByLayer
  9
$CECOLOR
 62
   256
  9
$CELTSCALE
 40
1.0
  9
$DISPSILH
 70
     0
  9
$DIMSCALE
 40
1.0
  9
$DIMASZ
 40
0.6666666667
  9
$DIMEXO
 40
0.3333333333
  9
$DIMDLI
 40
3.75
  9
$DIMRND
 40
0.0
  9
$DIMDLE
 40
0.0
  9
$DIMEXE
 40
0.3333333333
  9
$DIMTP
 40
0.0
  9
$DIMTM
 40
0.0
  9
$DIMTXT
 40
1.0583333333
  9
$DIMCEN
 40
2.5
  9
$DIMTSZ
 40
0.0
  9
$DIMTOL
 70
     0
  9
$DIMLIM
 70
     0
  9
$DIMTIH
 70
     1
  9
$DIMTOH
 70
     1
  9
$DIMSE1
 70
     0
  9
$DIMSE2
 70
     0
  9
$DIMTAD
 70
     1
  9
$DIMZIN
 70
     0
  9
$DIMBLK
  1

  9
$DIMASO
 70
     1
  9
$DIMSHO
 70
     1
  9
$DIMPOST
  1

  9
$DIMAPOST
  1

  9
$DIMALT
 70
     0
  9
$DIMALTD
 70
     3
  9
$DIMALTF
 40
0.0393700787
  9
$DIMLFAC
 40
1.0
  9
$DIMTOFL
 70
     1
  9
$DIMTVP
 40
0.0
  9
$DIMTIX
 70
     0
  9
$DIMSOXD
 70
     0
  9
$DIMSAH
 70
     0
  9
$DIMBLK1
  1

  9
$DIMBLK2
  1

  9
$DIMSTYLE
  2
ISO-25
  9
$DIMCLRD
 70
     0
  9
$DIMCLRE
 70
     0
  9
$DIMCLRT
 70
     0
  9
$DIMTFAC
 40
1.0
  9
$DIMGAP
 40
0.3333333333
  9
$DIMJUST
 70
     0
  9
$DIMSD1
 70
     0
  9
$DIMSD2
 70
     0
  9
$DIMTOLJ
 70
     0
  9
$DIMTZIN
 70
     0
  9
$DIMALTZ
 70
     0
  9
$DIMALTTZ
 70
     0
  9
$DIMUPT
 70
     0
  9
$DIMDEC
 70
     2
  9
$DIMTDEC
 70
     2
  9
$DIMALTU
 70
     2
  9
$DIMALTTD
 70
     3
  9
$DIMTXSTY
  7
Standard
  9
$DIMAUNIT
 70
     0
  9
$DIMADEC
 70
     2
  9
$DIMALTRND
 40
0.0
  9
$DIMAZIN
 70
     0
  9
$DIMDSEP
 70
    44
  9
$DIMATFIT
 70
     3
  9
$DIMFRAC
 70
     0
  9
$DIMLDRBLK
  1

  9
$DIMLUNIT
 70
     2
  9
$DIMLWD
 70
    -2
  9
$DIMLWE
 70
    -2
  9
$DIMTMOVE
 70
     0
  9
$LUNITS
 70
     2
  9
$LUPREC
 70
     2
  9
$SKETCHINC
 40
1.0
  9
$FILLETRAD
 40
10.0
  9
$AUNITS
 70
     0
  9
$AUPREC
 70
     2
  9
$MENU
  1
.
  9
$ELEVATION
 40
0.0
  9
$PELEVATION
 40
0.0
  9
$THICKNESS
 40
0.0
  9
$LIMCHECK
 70
     0
  9
$CHAMFERA
 40
0.0
  9
$CHAMFERB
 40
0.0
  9
$CHAMFERC
 40
0.0
  9
$CHAMFERD
 40
0.0
  9
$SKPOLY
 70
     0
  9
$TDCREATE
 40
2458373.699865289
  9
$TDUCREATE
 40
2458373.366531956
  9
$TDUPDATE
 40
2458373.699869803
  9
$TDUUPDATE
 40
2458373.36653647
  9
$TDINDWG
 40
0.0000000116
  9
$TDUSRTIMER
 40
0.0000000116
  9
$USRTIMER
 70
     1
  9
$ANGBASE
 50
0.0
  9
$ANGDIR
 70
     0
  9
$PDMODE
 70
     0
  9
$PDSIZE
 40
-1.0
  9
$PLINEWID
 40
0.0
  9
$SPLFRAME
 70
     0
  9
$SPLINETYPE
 70
     6
  9
$SPLINESEGS
 70
     8
  9
$HANDSEED
  5
1E1
  9
$SURFTAB1
 70
     6
  9
$SURFTAB2
 70
     6
  9
$SURFTYPE
 70
     6
  9
$SURFU
 70
     6
  9
$SURFV
 70
     6
  9
$UCSBASE
  2

  9
$UCSNAME
  2

  9
$UCSORG
 10
0.0
 20
0.0
 30
0.0
  9
$UCSXDIR
 10
1.0
 20
0.0
 30
0.0
  9
$UCSYDIR
 10
0.0
 20
1.0
 30
0.0
  9
$UCSORTHOREF
  2

  9
$UCSORTHOVIEW
 70
     0
  9
$UCSORGTOP
 10
0.0
 20
0.0
 30
0.0
  9
$UCSORGBOTTOM
 10
0.0
 20
0.0
 30
0.0
  9
$UCSORGLEFT
 10
0.0
 20
0.0
 30
0.0
  9
$UCSORGRIGHT
 10
0.0
 20
0.0
 30
0.0
  9
$UCSORGFRONT
 10
0.0
 20
0.0
 30
0.0
  9
$UCSORGBACK
 10
0.0
 20
0.0
 30
0.0
  9
$PUCSBASE
  2

  9
$PUCSNAME
  2

  9
$PUCSORG
 10
0.0
 20
0.0
 30
0.0
  9
$PUCSXDIR
 10
1.0
 20
0.0
 30
0.0
  9
$PUCSYDIR
 10
0.0
 20
1.0
 30
0.0
  9
$PUCSORTHOREF
  2

  9
$PUCSORTHOVIEW
 70
     0
  9
$PUCSORGTOP
 10
0.0
 20
0.0
 30
0.0
  9
$PUCSORGBOTTOM
 10
0.0
 20
0.0
 30
0.0
  9
$PUCSORGLEFT
 10
0.0
 20
0.0
 30
0.0
  9
$PUCSORGRIGHT
 10
0.0
 20
0.0
 30
0.0
  9
$PUCSORGFRONT
 10
0.0
 20
0.0
 30
0.0
  9
$PUCSORGBACK
 10
0.0
 20
0.0
 30
0.0
  9
$USERI1
 70
     0
  9
$USERI2
 70
     0
  9
$USERI3
 70
     0
  9
$USERI4
 70
     0
  9
$USERI5
 70
     0
  9
$USERR1
 40
0.0
  9
$USERR2
 40
0.0
  9
$USERR3
 40
0.0
  9
$USERR4
 40
0.0
  9
$USERR5
 40
0.0
  9
$WORLDVIEW
 70
     1
  9
$SHADEDGE
 70
     3
  9
$SHADEDIF
 70
    70
  9
$TILEMODE
 70
     1
  9
$MAXACTVP
 70
    64
  9
$PINSBASE
 10
0.0
 20
0.0
 30
0.0
  9
$PLIMCHECK
 70
     0
  9
$PEXTMIN
 10
1.0000000000E+20
 20
1.0000000000E+20
 30
1.0000000000E+20
  9
$PEXTMAX
 10
-1.0000000000E+20
 20
-1.0000000000E+20
 30
-1.0000000000E+20
  9
$PLIMMIN
 10
0.0
 20
0.0
  9
$PLIMMAX
 10
420.0
 20
297.0
  9
$UNITMODE
 70
     0
  9
$VISRETAIN
 70
     1
  9
$PLINEGEN
 70
     0
  9
$PSLTSCALE
 70
     1
  9
$TREEDEPTH
 70
  3020
  9
$CMLSTYLE
  2
Standard
  9
$CMLJUST
 70
     0
  9
$CMLSCALE
 40
20.0
  9
$PROXYGRAPHICS
 70
     1
  9
$MEASUREMENT
 70
     1
  9
$CELWEIGHT
370
    -1
  9
$ENDCAPS
280
     0
  9
$JOINSTYLE
280
     0
  9
$LWDISPLAY
290
     1
  9
$INSUNITS
 70
     4
  9
$HYPERLINKBASE
  1

  9
$STYLESHEET
  1

  9
$XEDIT
290
     1
  9
$CEPSNTYPE
380
     0
  9
$PSTYLEMODE
290
     1
  9
$FINGERPRINTGUID
  2
{B51AA2A1-B47A-4E20-9EC9-97AF9C023640}
  9
$VERSIONGUID
  2
{FAEB1C32-E019-11D5-929B-00C0DF256EC4}
  9
$EXTNAMES
290
     1
  9
$PSVPSCALE
 40
0.0
  9
$OLESTARTUP
290
     0
  0
ENDSEC
  0
SECTION
  2
CLASSES
  0
CLASS
  1
ACDBDICTIONARYWDFLT
  2
AcDbDictionaryWithDefault
  3
ObjectDBX Classes
 90
        0
280
     0
281
     0
  0
CLASS
  1
VISUALSTYLE
  2
AcDbVisualStyle
  3
ObjectDBX Classes
 90
     4095
280
     0
281
     0
  0
CLASS
  1
MATERIAL
  2
AcDbMaterial
  3
ObjectDBX Classes
 90
     1153
280
     0
281
     0
  0
CLASS
  1
SCALE
  2
AcDbScale
  3
ObjectDBX Classes
 90
     1153
280
     0
281
     0
  0
CLASS
  1
TABLESTYLE
  2
AcDbTableStyle
  3
ObjectDBX Classes
 90
     4095
280
     0
281
     0
  0
CLASS
  1
MLEADERSTYLE
  2
AcDbMLeaderStyle
  3
ACDB_MLEADERSTYLE_CLASS
 90
     4095
280
     0
281
     0
  0
CLASS
  1
SUN
  2
AcDbSun
  3
SCENEOE
 90
     1153
280
     0
281
     0
  0
CLASS
  1
ACDBPLACEHOLDER
  2
AcDbPlaceHolder
  3
ObjectDBX Classes
 90
        0
280
     0
281
     0
  0
CLASS
  1
LAYOUT
  2
AcDbLayout
  3
ObjectDBX Classes
 90
        0
280
     0
281
     0
  0
ENDSEC
  0
SECTION
  2
TABLES
  0
TABLE
  2
VPORT
  5
8
330
0
100
AcDbSymbolTable
 70
     1
  0
VPORT
  5
29
330
8
100
AcDbSymbolTableRecord
100
AcDbViewportTableRecord
  2
*Active
 70
     0
 10
0.0
 20
0.0
 11
1.0
 21
1.0
 12
49.5
 22
35.0
 13
0.0
 23
0.0
 14
10.0
 24
10.0
 15
10.0
 25
10.0
 16
0.0
 26
0.0
 36
1.0
 17
0.0
 27
0.0
 37
0.0
 40
70.0
 41
1.4142857143
 42
50.0
 43
0.0
 44
0.0
 50
0.0
 51
0.0
 71
     0
 72
  2000
 73
     1
 74
     3
 75
     0
 76
     0
 77
     0
 78
     0
281
     0
 65
     1
110
0.0
120
0.0
130
0.0
111
1.0
121
0.0
131
0.0
112
0.0
122
1.0
132
0.0
 79
     0
146
0.0
  0
ENDTAB
  0
TABLE
  2
LTYPE
  5
5
330
0
100
AcDbSymbolTable
 70
     6
  0
LTYPE
  5
14
330
5
100
AcDbSymbolTableRecord
100
AcDbLinetypeTableRecord
  2
ByBlock
 70
     0
  3

 72
    65
 73
     0
 40
0.0
  0
LTYPE
  5
15
330
5
100
AcDbSymbolTableRecord
100
AcDbLinetypeTableRecord
  2
ByLayer
 70
     0
  3

 72
    65
 73
     0
 40
0.0
  0
LTYPE
  5
16
330
5
100
AcDbSymbolTableRecord
100
AcDbLinetypeTableRecord
  2
Continuous
 70
     0
  3
Solid line
 72
    65
 73
     0
 40
0.0
  0
LTYPE
  5
6E
330
5
100
AcDbSymbolTableRecord
100
AcDbLinetypeTableRecord
  2
HIDDEN
 70
     0
  3
Hidden __ __ __ __ __ __ __ __ __ __ __ __ __ __
 72
    65
 73
     2
 40
1.905
 49
1.27
 74
     0
 49
-0.635
 74
     0
  0
LTYPE
  5
6F
330
5
100
AcDbSymbolTableRecord
100
AcDbLinetypeTableRecord
  2
PHANTOM
 70
     0
  3
Phantom ______  __  __  ______  __  __  ______
 72
    65
 73
     6
 40
12.7
 49
6.35
 74
     0
 49
-1.27
 74
     0
 49
1.27
 74
     0
 49
-1.27
 74
     0
 49
1.27
 74
     0
 49
-1.27
 74
     0
  0
LTYPE
  5
70
330
5
100
AcDbSymbolTableRecord
100
AcDbLinetypeTableRecord
  2
CENTER
 70
     0
  3
Center ____ _ ____ _ ____ _ ____ _ ____ _ ____
 72
    65
 73
     4
 40
10.16
 49
6.35
 74
     0
 49
-1.27
 74
     0
 49
1.27
 74
     0
 49
-1.27
 74
     0
  0
LTYPE
  5
71
330
5
100
AcDbSymbolTableRecord
100
AcDbLinetypeTableRecord
  2
CENTERX2
 70
     0
  3
Center (2x) ________  __  ________  __  _____
 72
    65
 73
     4
 40
20.32
 49
12.7
 74
     0
 49
-2.54
 74
     0
 49
2.54
 74
     0
 49
-2.54
 74
     0
  0
LTYPE
  5
72
330
5
100
AcDbSymbolTableRecord
100
AcDbLinetypeTableRecord
  2
DOT2
 70
     0
  3
Dot (.5x) ........................................
 72
    65
 73
     2
 40
0.635
 49
0.0
 74
     0
 49
-0.635
 74
     0
  0
ENDTAB
  0
TABLE
  2
LAYER
  5
2
330
0
100
AcDbSymbolTable
 70
    10
  0
LAYER
  5
10
330
2
100
AcDbSymbolTableRecord
100
AcDbLayerTableRecord
  2
0
 70
     0
 62
     7
  6
Continuous
370
    -3
390
F
  0
LAYER
  5
73
330
2
100
AcDbSymbolTableRecord
100
AcDbLayerTableRecord
  2
SLD-0
 70
     0
 62
     7
  6
Continuous
370
    15
390
F
  0
LAYER
  5
74
330
2
100
AcDbSymbolTableRecord
100
AcDbLayerTableRecord
  2
輪廓線
 70
     0
 62
   219
  6
Continuous
370
    15
390
F
  0
LAYER
  5
75
330
2
100
AcDbSymbolTableRecord
100
AcDbLayerTableRecord
  2
DIM
 70
     0
 62
     7
  6
Continuous
370
    -3
390
F
  0
LAYER
  5
76
330
2
100
AcDbSymbolTableRecord
100
AcDbLayerTableRecord
  2
中心線
 70
     0
 62
     7
  6
CENTERX2
370
    -3
390
F
  0
LAYER
  5
77
330
2
100
AcDbSymbolTableRecord
100
AcDbLayerTableRecord
  2
虛線
 70
     0
 62
     7
  6
HIDDEN
370
    -3
390
F
  0
LAYER
  5
78
330
2
100
AcDbSymbolTableRecord
100
AcDbLayerTableRecord
  2
SECTION
 70
     0
 62
     7
  6
PHANTOM
370
    15
390
F
  0
LAYER
  5
79
330
2
100
AcDbSymbolTableRecord
100
AcDbLayerTableRecord
  2
假想線
 70
     0
 62
     7
  6
PHANTOM
370
    -3
390
F
  0
LAYER
  5
7A
330
2
100
AcDbSymbolTableRecord
100
AcDbLayerTableRecord
  2
圖層_1
 70
     0
 62
   179
  6
Continuous
370
    -3
390
F
  0
LAYER
  5
7B
330
2
100
AcDbSymbolTableRecord
100
AcDbLayerTableRecord
  2
工作區域參考線
 70
     0
 62
   179
  6
Continuous
370
    -3
390
F
  0
ENDTAB
  0
TABLE
  2
STYLE
  5
3
330
0
100
AcDbSymbolTable
 70
     3
  0
STYLE
  5
11
330
3
100
AcDbSymbolTableRecord
100
AcDbTextStyleTableRecord
  2
Standard
 70
     0
 40
0.0
 41
1.0
 50
0.0
 71
     0
 42
1.0583333333
  3
txt
  4

  0
STYLE
  5
CC
330
3
100
AcDbSymbolTableRecord
100
AcDbTextStyleTableRecord
  2
SLDTEXTSTYLE0
 70
     0
 40
0.0
 41
0.605
 50
0.0
 71
     0
 42
1.0583333333
  3
TXT
  4

  0
STYLE
  5
103
330
3
100
AcDbSymbolTableRecord
100
AcDbTextStyleTableRecord
  2
SLDTEXTSTYLE1
 70
     0
 40
0.0
 41
0.7
 50
0.0
 71
     0
 42
1.0583333333
  3
TXT
  4

  0
ENDTAB
  0
TABLE
  2
VIEW
  5
6
330
0
100
AcDbSymbolTable
 70
     0
  0
ENDTAB
  0
TABLE
  2
UCS
  5
7
330
0
100
AcDbSymbolTable
 70
     0
  0
ENDTAB
  0
TABLE
  2
APPID
  5
9
330
0
100
AcDbSymbolTable
 70
     1
  0
APPID
  5
12
330
9
100
AcDbSymbolTableRecord
100
AcDbRegAppTableRecord
  2
ACAD
 70
     0
  0
ENDTAB
  0
TABLE
  2
DIMSTYLE
  5
A
330
0
100
AcDbSymbolTable
 70
     5
100
AcDbDimStyleTable
  0
DIMSTYLE
105
27
330
A
100
AcDbSymbolTableRecord
100
AcDbDimStyleTableRecord
  2
ISO-25
 70
     0
 41
2.5
 42
0.625
 43
3.75
 44
1.25
 73
     0
 74
     0
 77
     1
 78
     8
140
2.5
141
2.5
143
0.0393700787
147
0.625
171
     3
172
     1
178
     0
271
     2
272
     2
274
     3
278
    44
283
     0
284
     8
340
11
  0
DIMSTYLE
105
14D
102
{ACAD_REACTORS
330
14C
102
}
330
A
100
AcDbSymbolTableRecord
100
AcDbDimStyleTableRecord
  2
SLDDIMSTYLE0
 70
     0
 41
0.6666666667
 44
0.0
 45
0.000000001
 73
     0
 74
     0
 77
     1
 78
    12
 79
     3
140
0.8474934896
147
0.2118733724
173
     1
178
     0
271
     1
272
     1
276
     2
284
    12
340
103
  0
DIMSTYLE
105
158
102
{ACAD_REACTORS
330
157
330
162
330
16C
102
}
330
A
100
AcDbSymbolTableRecord
100
AcDbDimStyleTableRecord
  2
SLDDIMSTYLE1
 70
     0
 41
0.6666666667
 44
0.0
 45
0.000000001
 73
     0
 74
     0
 77
     1
 78
    12
 79
     3
140
0.8474934896
147
0.2118733724
173
     1
178
     0
271
     2
272
     2
276
     2
284
    12
340
103
  0
DIMSTYLE
105
17C
330
A
100
AcDbSymbolTableRecord
100
AcDbDimStyleTableRecord
  2
SLDDIMSTYLE2
 70
     0
 41
0.6666666667
 44
0.0
 45
0.000000001
146
0.6666666667
147
0.0
173
     1
178
     0
271
     0
272
     0
276
     2
340
11
  0
DIMSTYLE
105
194
102
{ACAD_REACTORS
330
193
102
}
330
A
100
AcDbSymbolTableRecord
100
AcDbDimStyleTableRecord
  2
SLDDIMSTYLE3
 70
     0
 41
0.6666666667
 44
0.0
 45
0.000000001
 78
    12
 79
     3
140
0.8474934896
141
0.0
147
0.2118733724
173
     1
178
     0
271
     2
272
     2
276
     2
284
    12
340
103
  0
ENDTAB
  0
TABLE
  2
BLOCK_RECORD
  5
1
330
0
100
AcDbSymbolTable
 70
    12
  0
BLOCK_RECORD
  5
1F
330
1
100
AcDbSymbolTableRecord
100
AcDbBlockTableRecord
  2
*Model_Space
340
22
  0
BLOCK_RECORD
  5
1B
330
1
100
AcDbSymbolTableRecord
100
AcDbBlockTableRecord
  2
*Paper_Space
340
1E
  0
BLOCK_RECORD
  5
23
330
1
100
AcDbSymbolTableRecord
100
AcDbBlockTableRecord
  2
*Paper_Space0
340
26
  0
BLOCK_RECORD
  5
7C
330
1
100
AcDbSymbolTableRecord
100
AcDbBlockTableRecord
  2
圖塊6
340
0
102
{BLKREFS
331
CB
102
}
  0
BLOCK_RECORD
  5
CE
330
1
100
AcDbSymbolTableRecord
100
AcDbBlockTableRecord
  2
SW_NOTE_0
340
0
102
{BLKREFS
331
D4
102
}
  0
BLOCK_RECORD
  5
105
330
1
100
AcDbSymbolTableRecord
100
AcDbBlockTableRecord
  2
SW_NOTE_1
340
0
102
{BLKREFS
331
10A
102
}
  0
BLOCK_RECORD
  5
14E
330
1
100
AcDbSymbolTableRecord
100
AcDbBlockTableRecord
  2
_D
340
0
  0
BLOCK_RECORD
  5
159
330
1
100
AcDbSymbolTableRecord
100
AcDbBlockTableRecord
  2
_D_1
340
0
  0
BLOCK_RECORD
  5
163
330
1
100
AcDbSymbolTableRecord
100
AcDbBlockTableRecord
  2
_D_2
340
0
  0
BLOCK_RECORD
  5
16D
330
1
100
AcDbSymbolTableRecord
100
AcDbBlockTableRecord
  2
_D_3
340
0
  0
BLOCK_RECORD
  5
176
330
1
100
AcDbSymbolTableRecord
100
AcDbBlockTableRecord
  2
SW_NOTE_2
340
0
102
{BLKREFS
331
17B
102
}
  0
BLOCK_RECORD
  5
17E
330
1
100
AcDbSymbolTableRecord
100
AcDbBlockTableRecord
  2
SW_NOTE_3
340
0
102
{BLKREFS
331
183
102
}
  0
BLOCK_RECORD
  5
195
330
1
100
AcDbSymbolTableRecord
100
AcDbBlockTableRecord
  2
_D_4
340
0
  0
BLOCK_RECORD
  5
19D
330
1
100
AcDbSymbolTableRecord
100
AcDbBlockTableRecord
  2
SW_CENTERMARKSYMBOL_0
340
0
102
{BLKREFS
331
1A8
102
}
  0
ENDTAB
  0
ENDSEC
  0
SECTION
  2
BLOCKS
  0
BLOCK
  5
20
330
1F
100
AcDbEntity
  8
0
100
AcDbBlockBegin
  2
*Model_Space
 70
     0
 10
0.0
 20
0.0
 30
0.0
  3
*Model_Space
  1

  0
ENDBLK
  5
21
330
1F
100
AcDbEntity
  8
0
100
AcDbBlockEnd
  0
BLOCK
  5
1C
330
1B
100
AcDbEntity
 67
     1
  8
0
100
AcDbBlockBegin
  2
*Paper_Space
 70
     0
 10
0.0
 20
0.0
 30
0.0
  3
*Paper_Space
  1

  0
ENDBLK
  5
1D
330
1B
100
AcDbEntity
 67
     1
  8
0
100
AcDbBlockEnd
  0
BLOCK
  5
24
330
23
100
AcDbEntity
  8
0
100
AcDbBlockBegin
  2
*Paper_Space0
 70
     0
 10
0.0
 20
0.0
 30
0.0
  3
*Paper_Space0
  1

  0
ENDBLK
  5
25
330
23
100
AcDbEntity
  8
0
100
AcDbBlockEnd
  0
BLOCK
  5
7D
330
7C
100
AcDbEntity
  8
0
100
AcDbBlockBegin
  2
圖塊6
 70
     0
 10
0.0
 20
0.0
 30
0.0
  3
圖塊6
  1

  0
ARC
  5
7F
330
7C
100
AcDbEntity
  8
圖層_1
 62
     7
370
    30
100
AcDbCircle
 10
0.510051478
 20
2.034022763
 30
0.0
 40
0.5100514779812234
100
AcDbArc
 50
130.2115225915
 51
228.588904108
  0
ARC
  5
80
330
7C
100
AcDbEntity
  8
圖層_1
 62
     7
370
    30
100
AcDbCircle
 10
1.6169711994
 20
1.9983151472
 30
0.0
 40
0.8591118089392068
100
AcDbArc
 50
140.4331765613
 51
251.0865666567
  0
ARC
  5
81
330
7C
100
AcDbEntity
  8
圖層_1
 62
     7
370
    30
100
AcDbCircle
 10
1.7255013994
 20
2.1039186571
 30
0.0
 40
0.9965455525899539
100
AcDbArc
 50
247.1485306747
 51
309.6030773927
  0
LINE
  5
82
330
7C
100
AcDbEntity
  8
圖層_1
 62
     7
370
    30
100
AcDbLine
 10
0.6162992423
 20
2.8440608661
 30
0.0
 11
0.1807564907
 21
2.4235318406
 31
0.0
  0
LINE
  5
83
330
7C
100
AcDbEntity
  8
圖層_1
 62
     7
370
    30
100
AcDbLine
 10
0.1726742967
 20
1.6514928326
 30
0.0
 11
1.5090750667
 21
0.4899582191
 31
0.0
  0
LINE
  5
84
330
7C
100
AcDbEntity
  8
圖層_1
 62
     7
370
    30
100
AcDbLine
 10
1.5090750667
 20
0.4899582191
 30
0.0
 11
1.2987244266
 21
0.284658089
 31
0.0
  0
LINE
  5
85
330
7C
100
AcDbEntity
  8
圖層_1
 62
     7
370
    30
100
AcDbLine
 10
1.2987244266
 20
0.284658089
 30
0.0
 11
1.6293508815
 21
0.0
 31
0.0
  0
LINE
  5
86
330
7C
100
AcDbEntity
  8
圖層_1
 62
     7
370
    30
100
AcDbLine
 10
2.6992390263
 20
1.0388593218
 30
0.0
 11
2.3607646824
 21
1.3361012311
 31
0.0
  0
LINE
  5
87
330
7C
100
AcDbEntity
  8
圖層_1
 62
     7
370
    30
100
AcDbLine
 10
0.9546971914
 20
2.5455502325
 30
0.0
 11
0.6162992423
 21
2.8440608661
 31
0.0
  0
LINE
  5
88
330
7C
100
AcDbEntity
  8
圖層_1
 62
     7
370
    30
100
AcDbLine
 10
1.6293508815
 20
0.0
 30
0.0
 11
2.6992390263
 21
1.0388593218
 31
0.0
  0
ENDBLK
  5
7E
330
7C
100
AcDbEntity
  8
0
100
AcDbBlockEnd
  0
BLOCK
  5
CF
330
CE
100
AcDbEntity
  8
0
100
AcDbBlockBegin
  2
SW_NOTE_0
 70
     0
 10
0.0
 20
0.0
 30
0.0
  3
SW_NOTE_0
  1

  0
MTEXT
  5
D1
330
CE
100
AcDbEntity
  8
0
  6
Continuous
 62
     0
370
     0
100
AcDbMText
 10
0.0
 20
1.1368861316
 30
0.0
 40
0.8819444444
 41
0.0
 71
     1
 72
     1
  1
PROPRIETARY AND CONFIDENTIAL
  7
SLDTEXTSTYLE0
 73
     1
 44
1.0
  0
MTEXT
  5
D2
330
CE
100
AcDbEntity
  8
0
  6
Continuous
 62
     0
370
     0
100
AcDbMText
 10
0.0
 20
-0.0273278267
 30
0.0
 40
0.6173611111
 41
0.0
 71
     1
 72
     1
  1
THE INFORMATION CONTAINED IN THIS DRAWING IS THE SOLE PROPERTY OF UNICE E-O SERVICES INC. ANY REPRODUCTION IN PART OR AS A WHOLE WITHOUT THE WRITTEN PERMISSION OF UNICE E-O SERVICES INC IS
  7
SLDTEXTSTYLE0
 73
     1
 44
1.0
  0
MTEXT
  5
D3
330
CE
100
AcDbEntity
  8
0
  6
Continuous
 62
     0
370
     0
100
AcDbMText
 10
0.0
 20
-0.8504759649
 30
0.0
 40
0.6173611111
 41
0.0
 71
     1
 72
     1
  1
PROHIBITED.
  7
SLDTEXTSTYLE0
 73
     1
 44
1.0
  0
ENDBLK
  5
D0
330
CE
100
AcDbEntity
  8
0
100
AcDbBlockEnd
  0
BLOCK
  5
106
330
105
100
AcDbEntity
  8
0
100
AcDbBlockBegin
  2
SW_NOTE_1
 70
     0
 10
0.0
 20
0.0
 30
0.0
  3
SW_NOTE_1
  1

  0
MTEXT
  5
108
330
105
100
AcDbEntity
  8
SLD-0
 62
     0
100
AcDbMText
 10
0.0
 20
0.682131679
 30
0.0
 40
0.5291666667
 41
0.0
 71
     1
 72
     1
  1
No.5, Andong Rd., Chung Li District,
  7
SLDTEXTSTYLE0
 73
     1
 44
1.0
  0
MTEXT
  5
109
330
105
100
AcDbEntity
  8
SLD-0
 62
     0
100
AcDbMText
 10
0.0
 20
-0.0234238681
 30
0.0
 40
0.5291666667
 41
0.0
 71
     1
 72
     1
  1
Taoyuan City 32063, Taiwan, R.O.C.
  7
SLDTEXTSTYLE0
 73
     1
 44
1.0
  0
ENDBLK
  5
107
330
105
100
AcDbEntity
  8
0
100
AcDbBlockEnd
  0
BLOCK
  5
14F
330
14E
100
AcDbEntity
  8
0
100
AcDbBlockBegin
  2
_D
 70
     0
 10
0.0
 20
0.0
 30
0.0
  3
_D
  1

  0
SOLID
  5
151
330
14E
100
AcDbEntity
  8
DIM
100
AcDbTrace
 10
14.7067796707
 20
36.1235721248
 30
0.0
 11
14.6234463374
 21
35.4569054581
 31
0.0
 12
14.790113004
 22
35.4569054581
 32
0.0
 13
14.790113004
 23
35.4569054581
 33
0.0
  0
SOLID
  5
152
330
14E
100
AcDbEntity
  8
DIM
100
AcDbTrace
 10
14.7067796707
 20
28.0406683561
 30
0.0
 11
14.790113004
 21
28.7073350228
 31
0.0
 12
14.6234463374
 22
28.7073350228
 32
0.0
 13
14.6234463374
 23
28.7073350228
 33
0.0
  0
LINE
  5
153
330
14E
100
AcDbEntity
  8
DIM
100
AcDbLine
 10
30.1881420782
 20
36.1235721248
 30
0.0
 11
14.3734463374
 21
36.1235721248
 31
0.0
  0
LINE
  5
154
330
14E
100
AcDbEntity
  8
DIM
100
AcDbLine
 10
30.1881420782
 20
28.0406683561
 30
0.0
 11
14.3734463374
 21
28.0406683561
 31
0.0
  0
LINE
  5
155
330
14E
100
AcDbEntity
  8
DIM
100
AcDbLine
 10
14.7067796707
 20
36.1235721248
 30
0.0
 11
14.7067796707
 21
28.0406683561
 31
0.0
  0
MTEXT
  5
156
330
14E
100
AcDbEntity
  8
DIM
100
AcDbMText
 10
13.683582191
 20
31.4610843514
 30
0.0
 40
0.79375
 41
0.0
 71
     1
 72
     1
  1
8.1
  7
SLDTEXTSTYLE1
 11
-1.681415763434501E-14
 21
1.0
 31
0.0
 73
     1
 44
1.0
  0
ENDBLK
  5
150
330
14E
100
AcDbEntity
  8
0
100
AcDbBlockEnd
  0
BLOCK
  5
15A
330
159
100
AcDbEntity
  8
0
100
AcDbBlockBegin
  2
_D_1
 70
     0
 10
0.0
 20
0.0
 30
0.0
  3
_D_1
  1

  0
SOLID
  5
15C
330
159
100
AcDbEntity
  8
DIM
100
AcDbTrace
 10
24.5214754115
 20
25.7073350228
 30
0.0
 11
25.1881420782
 21
25.6240016895
 31
0.0
 12
25.1881420782
 22
25.7906683561
 32
0.0
 13
25.1881420782
 23
25.7906683561
 33
0.0
  0
SOLID
  5
15D
330
159
100
AcDbEntity
  8
DIM
100
AcDbTrace
 10
32.5214754115
 20
25.7073350228
 30
0.0
 11
31.8548087448
 21
25.7906683561
 31
0.0
 12
31.8548087448
 22
25.6240016895
 32
0.0
 13
31.8548087448
 23
25.6240016895
 33
0.0
  0
LINE
  5
15E
330
159
100
AcDbEntity
  8
DIM
100
AcDbLine
 10
24.5214754115
 20
29.2487869071
 30
0.0
 11
24.5214754115
 21
25.3740016895
 31
0.0
  0
LINE
  5
15F
330
159
100
AcDbEntity
  8
DIM
100
AcDbLine
 10
32.5214754115
 20
28.7176979939
 30
0.0
 11
32.5214754115
 21
25.3740016895
 31
0.0
  0
LINE
  5
160
330
159
100
AcDbEntity
  8
DIM
100
AcDbLine
 10
24.5214754115
 20
25.7073350228
 30
0.0
 11
32.5214754115
 21
25.7073350228
 31
0.0
  0
MTEXT
  5
161
330
159
100
AcDbEntity
  8
DIM
100
AcDbMText
 10
28.2730610636
 20
26.7305325024
 30
0.0
 40
0.79375
 41
0.0
 71
     1
 72
     1
  1
8
  7
SLDTEXTSTYLE1
 73
     1
 44
1.0
  0
ENDBLK
  5
15B
330
159
100
AcDbEntity
  8
0
100
AcDbBlockEnd
  0
BLOCK
  5
164
330
163
100
AcDbEntity
  8
0
100
AcDbBlockBegin
  2
_D_2
 70
     0
 10
0.0
 20
0.0
 30
0.0
  3
_D_2
  1

  0
SOLID
  5
166
330
163
100
AcDbEntity
  8
DIM
100
AcDbTrace
 10
17.7190095132
 20
24.0406683561
 30
0.0
 11
18.3856761799
 21
23.9573350228
 31
0.0
 12
18.3856761799
 22
24.1240016895
 32
0.0
 13
18.3856761799
 23
24.1240016895
 33
0.0
  0
SOLID
  5
167
330
163
100
AcDbEntity
  8
DIM
100
AcDbTrace
 10
49.7190095132
 20
24.0406683561
 30
0.0
 11
49.0523428466
 21
24.1240016895
 31
0.0
 12
49.0523428466
 22
23.9573350228
 32
0.0
 13
49.0523428466
 23
23.9573350228
 33
0.0
  0
LINE
  5
168
330
163
100
AcDbEntity
  8
DIM
100
AcDbLine
 10
17.7190095132
 20
31.7487869071
 30
0.0
 11
17.7190095132
 21
23.7073350228
 31
0.0
  0
LINE
  5
169
330
163
100
AcDbEntity
  8
DIM
100
AcDbLine
 10
49.7190095132
 20
28.2487869071
 30
0.0
 11
49.7190095132
 21
23.7073350228
 31
0.0
  0
LINE
  5
16A
330
163
100
AcDbEntity
  8
DIM
100
AcDbLine
 10
17.7190095132
 20
24.0406683561
 30
0.0
 11
49.7190095132
 21
24.0406683561
 31
0.0
  0
MTEXT
  5
16B
330
163
100
AcDbEntity
  8
DIM
100
AcDbMText
 10
33.2221808175
 20
25.0638658358
 30
0.0
 40
0.79375
 41
0.0
 71
     1
 72
     1
  1
32
  7
SLDTEXTSTYLE1
 73
     1
 44
1.0
  0
ENDBLK
  5
165
330
163
100
AcDbEntity
  8
0
100
AcDbBlockEnd
  0
BLOCK
  5
16E
330
16D
100
AcDbEntity
  8
0
100
AcDbBlockBegin
  2
_D_3
 70
     0
 10
0.0
 20
0.0
 30
0.0
  3
_D_3
  1

  0
SOLID
  5
170
330
16D
100
AcDbEntity
  8
DIM
100
AcDbTrace
 10
37.7190095132
 20
25.7073350228
 30
0.0
 11
38.3856761799
 21
25.6240016895
 31
0.0
 12
38.3856761799
 22
25.7906683561
 32
0.0
 13
38.3856761799
 23
25.7906683561
 33
0.0
  0
SOLID
  5
171
330
16D
100
AcDbEntity
  8
DIM
100
AcDbTrace
 10
49.7190095132
 20
25.7073350228
 30
0.0
 11
49.0523428466
 21
25.7906683561
 31
0.0
 12
49.0523428466
 22
25.6240016895
 32
0.0
 13
49.0523428466
 23
25.6240016895
 33
0.0
  0
LINE
  5
172
330
16D
100
AcDbEntity
  8
DIM
100
AcDbLine
 10
37.7190095132
 20
28.2487869071
 30
0.0
 11
37.7190095132
 21
25.3740016895
 31
0.0
  0
LINE
  5
173
330
16D
100
AcDbEntity
  8
DIM
100
AcDbLine
 10
49.7190095132
 20
28.2487869071
 30
0.0
 11
49.7190095132
 21
25.3740016895
 31
0.0
  0
LINE
  5
174
330
16D
100
AcDbEntity
  8
DIM
100
AcDbLine
 10
37.7190095132
 20
25.7073350228
 30
0.0
 11
49.7190095132
 21
25.7073350228
 31
0.0
  0
MTEXT
  5
175
330
16D
100
AcDbEntity
  8
DIM
100
AcDbMText
 10
43.2221808175
 20
26.7305325024
 30
0.0
 40
0.79375
 41
0.0
 71
     1
 72
     1
  1
12
  7
SLDTEXTSTYLE1
 73
     1
 44
1.0
  0
ENDBLK
  5
16F
330
16D
100
AcDbEntity
  8
0
100
AcDbBlockEnd
  0
BLOCK
  5
177
330
176
100
AcDbEntity
  8
0
100
AcDbBlockBegin
  2
SW_NOTE_2
 70
     0
 10
0.0
 20
0.0
 30
0.0
  3
SW_NOTE_2
  1

  0
LINE
  5
179
330
176
100
AcDbEntity
  8
DIM
 62
     0
100
AcDbLine
 10
5.8940102648
 20
0.0
 30
0.0
 11
0.0
 21
0.0
 31
0.0
  0
MTEXT
  5
17A
330
176
100
AcDbEntity
  8
DIM
 62
     0
100
AcDbMText
 10
0.1552232458
 20
1.0443596949
 30
0.0
 40
0.79375
 41
0.0
 71
     1
 72
     1
  1
M6x0.75 THD
  7
SLDTEXTSTYLE1
 73
     1
 44
1.0
  0
ENDBLK
  5
178
330
176
100
AcDbEntity
  8
0
100
AcDbBlockEnd
  0
BLOCK
  5
17F
330
17E
100
AcDbEntity
  8
0
100
AcDbBlockBegin
  2
SW_NOTE_3
 70
     0
 10
0.0
 20
0.0
 30
0.0
  3
SW_NOTE_3
  1

  0
LINE
  5
181
330
17E
100
AcDbEntity
  8
DIM
 62
     0
100
AcDbLine
 10
-5.9710815558
 20
0.0
 30
0.0
 11
0.0
 21
0.0
 31
0.0
  0
MTEXT
  5
182
330
17E
100
AcDbEntity
  8
DIM
 62
     0
100
AcDbMText
 10
-6.1371672922
 20
1.0443596949
 30
0.0
 40
0.79375
 41
0.0
 71
     1
 72
     1
  1
M4x0.25 THD
  7
SLDTEXTSTYLE1
 73
     1
 44
1.0
  0
ENDBLK
  5
180
330
17E
100
AcDbEntity
  8
0
100
AcDbBlockEnd
  0
BLOCK
  5
196
330
195
100
AcDbEntity
  8
0
100
AcDbBlockBegin
  2
_D_4
 70
     0
 10
0.0
 20
0.0
 30
0.0
  3
_D_4
  1

  0
SOLID
  5
198
330
195
100
AcDbEntity
  8
DIM
100
AcDbTrace
 10
65.9363519623
 20
34.9188918743
 30
0.0
 11
66.4654610254
 21
35.3329359398
 31
0.0
 12
66.3472622073
 22
35.4504383533
 32
0.0
 13
66.3472622073
 23
35.4504383533
 33
0.0
  0
LINE
  5
199
330
195
100
AcDbEntity
  8
DIM
100
AcDbLine
 10
65.9363519623
 20
34.9188918743
 30
0.0
 11
69.3078334222
 21
38.3103551794
 31
0.0
  0
LINE
  5
19A
330
195
100
AcDbEntity
  8
DIM
100
AcDbLine
 10
69.3078334222
 20
38.3103551794
 30
0.0
 11
71.226745443
 21
38.3103551794
 31
0.0
  0
MTEXT
  5
19B
330
195
100
AcDbEntity
  8
DIM
100
AcDbMText
 10
69.7245000888
 20
39.3335527367
 30
0.0
 40
0.79375
 41
0.0
 71
     1
 72
     1
  1
%%c
  7
SLDTEXTSTYLE1
 73
     1
 44
1.0
  0
MTEXT
  5
19C
330
195
100
AcDbEntity
  8
DIM
100
AcDbMText
 10
70.7299167472
 20
39.3335527367
 30
0.0
 40
0.79375
 41
0.0
 71
     1
 72
     1
  1
8
  7
SLDTEXTSTYLE1
 73
     1
 44
1.0
  0
ENDBLK
  5
197
330
195
100
AcDbEntity
  8
0
100
AcDbBlockEnd
  0
BLOCK
  5
19E
330
19D
100
AcDbEntity
  8
0
100
AcDbBlockBegin
  2
SW_CENTERMARKSYMBOL_0
 70
     0
 10
0.0
 20
0.0
 30
0.0
  3
SW_CENTERMARKSYMBOL_0
  1

  0
LINE
  5
1A0
330
19D
100
AcDbEntity
  8
DIM
 62
     0
100
AcDbLine
 10
0.0
 20
0.0
 30
0.0
 11
0.0
 21
1.0
 31
0.0
  0
LINE
  5
1A1
330
19D
100
AcDbEntity
  8
DIM
 62
     0
100
AcDbLine
 10
0.0
 20
0.0
 30
0.0
 11
-1.0
 21
0.0
 31
0.0
  0
LINE
  5
1A2
330
19D
100
AcDbEntity
  8
DIM
 62
     0
100
AcDbLine
 10
0.0
 20
0.0
 30
0.0
 11
0.0
 21
-1.0
 31
0.0
  0
LINE
  5
1A3
330
19D
100
AcDbEntity
  8
DIM
 62
     0
100
AcDbLine
 10
0.0
 20
0.0
 30
0.0
 11
1.0
 21
0.0
 31
0.0
  0
LINE
  5
1A4
330
19D
100
AcDbEntity
  8
DIM
 62
     0
100
AcDbLine
 10
0.0
 20
2.0
 30
0.0
 11
0.0
 21
5.0
 31
0.0
  0
LINE
  5
1A5
330
19D
100
AcDbEntity
  8
DIM
 62
     0
100
AcDbLine
 10
-2.0
 20
0.0
 30
0.0
 11
-5.0
 21
0.0
 31
0.0
  0
LINE
  5
1A6
330
19D
100
AcDbEntity
  8
DIM
 62
     0
100
AcDbLine
 10
0.0
 20
-2.0
 30
0.0
 11
0.0
 21
-5.0
 31
0.0
  0
LINE
  5
1A7
330
19D
100
AcDbEntity
  8
DIM
 62
     0
100
AcDbLine
 10
2.0
 20
0.0
 30
0.0
 11
5.0
 21
0.0
 31
0.0
  0
ENDBLK
  5
19F
330
19D
100
AcDbEntity
  8
0
100
AcDbBlockEnd
  0
ENDSEC
  0
SECTION
  2
ENTITIES
  0
HATCH
  5
89
330
1F
100
AcDbEntity
  8
0
  6
Continuous
 62
     7
100
AcDbHatch
 10
0.0
 20
0.0
 30
0.0
210
0.0
220
0.0
230
1.0
  2
SOLID
 70
     1
 71
     0
 91
        1
 92
        0
 93
       10
 72
     2
 10
64.04686552097888
 20
11.91860293662952
 40
0.9965455525899529
 50
50.39692260731403
 51
112.8514693252978
 73
     0
 72
     2
 10
63.93833532093733
 20
11.81299942668735
 40
0.8591118089392061
 50
108.9134333432863
 51
219.5668234386826
 73
     0
 72
     1
 10
63.27606131298678
 20
12.36023451205003
 11
62.93766336385263
 21
12.65874514565595
 72
     1
 10
62.93766336385263
 20
12.65874514565595
 11
62.50212061222541
 21
12.23821612015345
 72
     2
 10
62.8314155995463
 20
11.84870704257482
 40
0.5100514779812205
 50
130.2115225915086
 51
228.5889041080189
 73
     1
 72
     1
 10
62.494038418217
 20
11.46617711209992
 11
63.8304391882822
 21
10.30464249867503
 72
     1
 10
63.8304391882822
 20
10.30464249867503
 11
63.62008854814383
 21
10.09934236851802
 72
     1
 10
63.62008854814383
 20
10.09934236851802
 11
63.95071500305234
 21
9.814684279533413
 72
     1
 10
63.95071500305234
 20
9.814684279533413
 11
65.02060314784076
 21
10.85354360137191
 72
     1
 10
65.02060314784076
 20
10.85354360137191
 11
64.6821288039547
 21
11.15078551061628
 97
        0
 75
     0
 76
     1
 98
        1
 10
0.0
 20
0.0
  0
HATCH
  5
8A
330
1F
100
AcDbEntity
  8
0
  6
Continuous
 62
     1
100
AcDbHatch
 10
0.0
 20
0.0
 30
0.0
210
0.0
220
0.0
230
1.0
  2
SOLID
 70
     1
 71
     0
 91
        1
 92
        0
 93
       10
 72
     2
 10
64.19641518758961
 20
11.88768971877203
 40
0.8591891627820832
 50
317.8184992995789
 51
398.0564711573074
 73
     0
 72
     1
 10
64.87294380193877
 20
11.35805300232482
 11
65.20142676626637
 21
11.07182068902832
 72
     1
 10
65.20142676626637
 20
11.07182068902832
 11
65.61532053786429
 21
11.4732983364974
 72
     2
 10
65.31752309597692
 20
11.88261391377104
 40
0.5061843124727551
 50
306.0377529468134
 51
403.4396461533869
 73
     1
 72
     1
 10
65.6850630508677
 20
12.23066123778375
 11
64.30947776475325
 21
13.4270533273284
 72
     1
 10
64.30947776475325
 20
13.4270533273284
 11
64.51756153206235
 21
13.63007280427419
 72
     1
 10
64.51756153206235
 20
13.63007280427419
 11
64.20739269533433
 21
13.90680354422235
 72
     1
 10
64.20739269533433
 20
13.90680354422235
 11
63.12886421253104
 21
12.86449679535099
 72
     1
 10
63.12886421253104
 20
12.86449679535099
 11
63.46966683831389
 21
12.56723328631073
 72
     2
 10
64.09052975734812
 20
11.70741578361264
 40
1.060545568175959
 50
234.1674444878511
 51
314.4407074583995
 73
     0
 97
        0
 75
     0
 76
     1
 98
        1
 10
0.0
 20
0.0
  0
LINE
  5
8B
330
1F
100
AcDbEntity
  8
0
  6
Continuous
 62
     7
370
     0
100
AcDbLine
 10
55.9531258395
 20
5.9248397504
 30
0.0
 11
56.2864591728
 21
5.9248397504
 31
0.0
  0
LINE
  5
8C
330
1F
100
AcDbEntity
  8
0
  6
Continuous
 62
     7
370
     0
100
AcDbLine
 10
54.9531258395
 20
5.9248397504
 30
0.0
 11
55.7864591728
 21
5.9248397504
 31
0.0
  0
LINE
  5
8D
330
1F
100
AcDbEntity
  8
0
  6
Continuous
 62
     7
370
     0
100
AcDbLine
 10
60.4531258395
 20
5.0915064171
 30
0.0
 11
60.4531258395
 21
6.7581730838
 31
0.0
  0
LINE
  5
8E
330
1F
100
AcDbEntity
  8
0
  6
Continuous
 62
     7
370
     0
100
AcDbLine
 10
58.1197925062
 20
5.4248397504
 30
0.0
 11
60.4531258395
 21
5.0915064171
 31
0.0
  0
LINE
  5
8F
330
1F
100
AcDbEntity
  8
0
  6
Continuous
 62
     7
370
     0
100
AcDbLine
 10
56.1197925062
 20
5.5915064171
 30
0.0
 11
56.1197925062
 21
4.7581730838
 31
0.0
  0
LINE
  5
90
330
1F
100
AcDbEntity
  8
0
  6
Continuous
 62
     7
370
     0
100
AcDbLine
 10
60.4531258395
 20
6.7581730838
 30
0.0
 11
58.1197925062
 21
6.4248397504
 31
0.0
  0
LINE
  5
91
330
1F
100
AcDbEntity
  8
0
  6
Continuous
 62
     7
370
     0
100
AcDbLine
 10
57.7864591728
 20
5.9248397504
 30
0.0
 11
60.7864591728
 21
5.9248397504
 31
0.0
  0
LINE
  5
92
330
1F
100
AcDbEntity
  8
0
  6
Continuous
 62
     7
370
     0
100
AcDbLine
 10
56.1197925062
 20
6.0915064171
 30
0.0
 11
56.1197925062
 21
5.7581730838
 31
0.0
  0
LINE
  5
93
330
1F
100
AcDbEntity
  8
0
  6
Continuous
 62
     7
370
     0
100
AcDbLine
 10
56.4531258395
 20
5.9248397504
 30
0.0
 11
57.2864591728
 21
5.9248397504
 31
0.0
  0
LINE
  5
94
330
1F
100
AcDbEntity
  8
0
  6
Continuous
 62
     7
370
     0
100
AcDbLine
 10
56.1197925062
 20
7.0915064171
 30
0.0
 11
56.1197925062
 21
6.2581730838
 31
0.0
  0
LINE
  5
95
330
1F
100
AcDbEntity
  8
0
  6
Continuous
 62
     7
370
     0
100
AcDbLine
 10
58.1197925062
 20
6.4248397504
 30
0.0
 11
58.1197925062
 21
5.4248397504
 31
0.0
  0
LINE
  5
96
330
1F
100
AcDbEntity
  8
工作區域參考線
 62
     1
370
    30
100
AcDbLine
 10
63.4696668383
 20
12.5672332863
 30
0.0
 11
63.1288642125
 21
12.8644967954
 31
0.0
  0
LINE
  5
97
330
1F
100
AcDbEntity
  8
工作區域參考線
 62
     1
370
    30
100
AcDbLine
 10
63.1288642125
 20
12.8644967954
 30
0.0
 11
64.2073926953
 21
13.9068035442
 31
0.0
  0
LINE
  5
98
330
1F
100
AcDbEntity
  8
工作區域參考線
 62
     1
370
    30
100
AcDbLine
 10
64.2073926953
 20
13.9068035442
 30
0.0
 11
64.5175615321
 21
13.6300728043
 31
0.0
  0
LINE
  5
99
330
1F
100
AcDbEntity
  8
工作區域參考線
 62
     1
370
    30
100
AcDbLine
 10
64.5175615321
 20
13.6300728043
 30
0.0
 11
64.3094777648
 21
13.4270533273
 31
0.0
  0
LINE
  5
9A
330
1F
100
AcDbEntity
  8
工作區域參考線
 62
     1
370
    30
100
AcDbLine
 10
64.3094777648
 20
13.4270533273
 30
0.0
 11
65.6850630509
 21
12.2306612378
 31
0.0
  0
LINE
  5
9B
330
1F
100
AcDbEntity
  8
工作區域參考線
 62
     1
370
    30
100
AcDbLine
 10
64.8729438019
 20
11.3580530023
 30
0.0
 11
65.2014267663
 21
11.071820689
 31
0.0
  0
LINE
  5
9C
330
1F
100
AcDbEntity
  8
工作區域參考線
 62
     1
370
    30
100
AcDbLine
 10
65.2014267663
 20
11.071820689
 30
0.0
 11
65.6153205379
 21
11.4732983365
 31
0.0
  0
LINE
  5
9D
330
1F
100
AcDbEntity
  8
0
  6
Continuous
 62
     7
370
     0
100
AcDbLine
 10
61.8969321736
 20
4.3717488026
 30
0.0
 11
95.230265507
 21
4.3717488026
 31
0.0
  0
LINE
  5
9E
330
1F
100
AcDbEntity
  8
0
  6
Continuous
 62
     7
370
     0
100
AcDbLine
 10
61.8969321736
 20
6.0384154693
 30
0.0
 11
78.5635988403
 21
6.0384154693
 31
0.0
  0
LINE
  5
9F
330
1F
100
AcDbEntity
  8
0
  6
Continuous
 62
     7
370
     0
100
AcDbLine
 10
61.8969321736
 20
7.705082136
 30
0.0
 11
78.5635988403
 21
7.705082136
 31
0.0
  0
LINE
  5
A0
330
1F
100
AcDbEntity
  8
0
  6
Continuous
 62
     7
370
     0
100
AcDbLine
 10
61.8969321736
 20
9.3717488026
 30
0.0
 11
95.230265507
 21
9.3717488026
 31
0.0
  0
LINE
  5
A1
330
1F
100
AcDbEntity
  8
0
  6
Continuous
 62
     7
370
     0
100
AcDbLine
 10
78.5635988403
 20
11.0384154693
 30
0.0
 11
95.230265507
 21
11.0384154693
 31
0.0
  0
LINE
  5
A2
330
1F
100
AcDbEntity
  8
0
  6
Continuous
 62
     7
370
    15
100
AcDbLine
 10
78.5635988403
 20
6.0384154693
 30
0.0
 11
95.230265507
 21
6.0384154693
 31
0.0
  0
LINE
  5
A3
330
1F
100
AcDbEntity
  8
0
  6
Continuous
 62
     7
370
     0
100
AcDbLine
 10
61.8969321736
 20
14.3717488026
 30
0.0
 11
95.230265507
 21
14.3717488026
 31
0.0
  0
LINE
  5
A4
330
1F
100
AcDbEntity
  8
0
  6
Continuous
 62
     7
370
     0
100
AcDbLine
 10
83.745739225
 20
2.705082136
 30
0.0
 11
83.745739225
 21
6.0384154693
 31
0.0
  0
LINE
  5
A5
330
1F
100
AcDbEntity
  8
0
  6
Continuous
 62
     7
370
     0
100
AcDbLine
 10
78.5635988403
 20
2.705082136
 30
0.0
 11
78.5635988403
 21
14.3717488026
 31
0.0
  0
LINE
  5
A6
330
1F
100
AcDbEntity
  8
0
  6
Continuous
 62
     7
370
     0
100
AcDbLine
 10
83.745739225
 20
9.3717488026
 30
0.0
 11
83.745739225
 21
11.0384154693
 31
0.0
  0
LINE
  5
A7
330
1F
100
AcDbEntity
  8
0
  6
Continuous
 62
     7
370
     0
100
AcDbLine
 10
71.4721362118
 20
2.705082136
 30
0.0
 11
71.4721362118
 21
9.3717488026
 31
0.0
  0
LINE
  5
A8
330
1F
100
AcDbEntity
  8
0
  6
Continuous
 62
     7
370
     0
100
AcDbLine
 10
66.5928629169
 20
2.705082136
 30
0.0
 11
66.5928629169
 21
9.3717488026
 31
0.0
  0
LINE
  5
A9
330
1F
100
AcDbEntity
  8
0
  6
Continuous
 62
     7
370
     0
100
AcDbLine
 10
61.8969321736
 20
2.705082136
 30
0.0
 11
61.8969321736
 21
14.3717488026
 31
0.0
  0
LINE
  5
AA
330
1F
100
AcDbEntity
  8
0
  6
Continuous
 62
     7
370
    15
100
AcDbLine
 10
14.440265507
 20
67.1240091917
 30
0.0
 11
14.440265507
 21
67.6240091917
 31
0.0
  0
LINE
  5
AB
330
1F
100
AcDbEntity
  8
0
  6
Continuous
 62
     7
370
    15
100
AcDbLine
 10
25.9835988403
 20
67.1240091917
 30
0.0
 11
25.9835988403
 21
67.6240091917
 31
0.0
  0
LINE
  5
AC
330
1F
100
AcDbEntity
  8
0
  6
Continuous
 62
     7
370
    15
100
AcDbLine
 10
37.5269321736
 20
67.1240091917
 30
0.0
 11
37.5269321736
 21
67.6240091917
 31
0.0
  0
LINE
  5
AD
330
1F
100
AcDbEntity
  8
0
  6
Continuous
 62
     7
370
    15
100
AcDbLine
 10
49.070265507
 20
67.1240091917
 30
0.0
 11
49.070265507
 21
67.6240091917
 31
0.0
  0
LINE
  5
AE
330
1F
100
AcDbEntity
  8
0
  6
Continuous
 62
     7
370
    15
100
AcDbLine
 10
60.6135988403
 20
67.1240091917
 30
0.0
 11
60.6135988403
 21
67.6240091917
 31
0.0
  0
LINE
  5
AF
330
1F
100
AcDbEntity
  8
0
  6
Continuous
 62
     7
370
    15
100
AcDbLine
 10
72.1569321736
 20
67.1240091917
 30
0.0
 11
72.1569321736
 21
67.6240091917
 31
0.0
  0
LINE
  5
B0
330
1F
100
AcDbEntity
  8
0
  6
Continuous
 62
     7
370
    15
100
AcDbLine
 10
83.700265507
 20
67.1240091917
 30
0.0
 11
83.700265507
 21
67.6240091917
 31
0.0
  0
LINE
  5
B1
330
1F
100
AcDbEntity
  8
0
  6
Continuous
 62
     7
370
    15
100
AcDbLine
 10
14.4385988403
 20
2.705082136
 30
0.0
 11
14.4385988403
 21
2.205082136
 31
0.0
  0
LINE
  5
B2
330
1F
100
AcDbEntity
  8
0
  6
Continuous
 62
     7
370
    15
100
AcDbLine
 10
25.980265507
 20
2.705082136
 30
0.0
 11
25.980265507
 21
2.205082136
 31
0.0
  0
LINE
  5
B3
330
1F
100
AcDbEntity
  8
0
  6
Continuous
 62
     7
370
    15
100
AcDbLine
 10
37.5219321736
 20
2.705082136
 30
0.0
 11
37.5219321736
 21
2.205082136
 31
0.0
  0
LINE
  5
B4
330
1F
100
AcDbEntity
  8
0
  6
Continuous
 62
     7
370
    15
100
AcDbLine
 10
49.0635988403
 20
2.705082136
 30
0.0
 11
49.0635988403
 21
2.205082136
 31
0.0
  0
LINE
  5
B5
330
1F
100
AcDbEntity
  8
0
  6
Continuous
 62
     7
370
    15
100
AcDbLine
 10
60.605265507
 20
2.705082136
 30
0.0
 11
60.605265507
 21
2.205082136
 31
0.0
  0
LINE
  5
B6
330
1F
100
AcDbEntity
  8
0
  6
Continuous
 62
     7
370
    15
100
AcDbLine
 10
72.1469321736
 20
2.705082136
 30
0.0
 11
72.1469321736
 21
2.205082136
 31
0.0
  0
LINE
  5
B7
330
1F
100
AcDbEntity
  8
0
  6
Continuous
 62
     7
370
     0
100
AcDbLine
 10
95.230265507
 20
67.1240091917
 30
0.0
 11
2.8969321736
 21
67.1240091917
 31
0.0
  0
LINE
  5
B8
330
1F
100
AcDbEntity
  8
0
  6
Continuous
 62
     7
370
     0
100
AcDbLine
 10
95.230265507
 20
2.705082136
 30
0.0
 11
95.230265507
 21
67.1240091917
 31
0.0
  0
LINE
  5
B9
330
1F
100
AcDbEntity
  8
0
  6
Continuous
 62
     7
370
     0
100
AcDbLine
 10
2.8969321736
 20
67.1240091917
 30
0.0
 11
2.8969321736
 21
2.705082136
 31
0.0
  0
LINE
  5
BA
330
1F
100
AcDbEntity
  8
0
  6
Continuous
 62
     7
370
     0
100
AcDbLine
 10
2.8969321736
 20
2.705082136
 30
0.0
 11
95.230265507
 21
2.705082136
 31
0.0
  0
LINE
  5
BB
330
1F
100
AcDbEntity
  8
0
  6
Continuous
 62
     7
370
    15
100
AcDbLine
 10
83.6885988403
 20
2.705082136
 30
0.0
 11
83.6885988403
 21
2.205082136
 31
0.0
  0
LINE
  5
BC
330
1F
100
AcDbEntity
  8
0
  6
Continuous
 62
     7
370
    15
100
AcDbLine
 10
2.8969321736
 20
13.4417488026
 30
0.0
 11
2.3969321736
 21
13.4417488026
 31
0.0
  0
LINE
  5
BD
330
1F
100
AcDbEntity
  8
0
  6
Continuous
 62
     7
370
    15
100
AcDbLine
 10
2.8969321736
 20
24.1784154693
 30
0.0
 11
2.3969321736
 21
24.1784154693
 31
0.0
  0
LINE
  5
BE
330
1F
100
AcDbEntity
  8
0
  6
Continuous
 62
     7
370
    15
100
AcDbLine
 10
2.8969321736
 20
34.915082136
 30
0.0
 11
2.3969321736
 21
34.915082136
 31
0.0
  0
LINE
  5
BF
330
1F
100
AcDbEntity
  8
0
  6
Continuous
 62
     7
370
    15
100
AcDbLine
 10
2.8969321736
 20
45.6517488026
 30
0.0
 11
2.3969321736
 21
45.6517488026
 31
0.0
  0
LINE
  5
C0
330
1F
100
AcDbEntity
  8
0
  6
Continuous
 62
     7
370
    15
100
AcDbLine
 10
2.8969321736
 20
56.3884154693
 30
0.0
 11
2.3969321736
 21
56.3884154693
 31
0.0
  0
LINE
  5
C1
330
1F
100
AcDbEntity
  8
0
  6
Continuous
 62
     7
370
    15
100
AcDbLine
 10
95.230265507
 20
13.4417488026
 30
0.0
 11
95.730265507
 21
13.4417488026
 31
0.0
  0
LINE
  5
C2
330
1F
100
AcDbEntity
  8
0
  6
Continuous
 62
     7
370
    15
100
AcDbLine
 10
95.230265507
 20
24.1784154693
 30
0.0
 11
95.730265507
 21
24.1784154693
 31
0.0
  0
LINE
  5
C3
330
1F
100
AcDbEntity
  8
0
  6
Continuous
 62
     7
370
    15
100
AcDbLine
 10
95.230265507
 20
34.915082136
 30
0.0
 11
95.730265507
 21
34.915082136
 31
0.0
  0
LINE
  5
C4
330
1F
100
AcDbEntity
  8
0
  6
Continuous
 62
     7
370
    15
100
AcDbLine
 10
95.230265507
 20
45.6517488026
 30
0.0
 11
95.730265507
 21
45.6517488026
 31
0.0
  0
LINE
  5
C5
330
1F
100
AcDbEntity
  8
0
  6
Continuous
 62
     7
370
    15
100
AcDbLine
 10
95.230265507
 20
56.3884154693
 30
0.0
 11
95.730265507
 21
56.3884154693
 31
0.0
  0
CIRCLE
  5
C6
330
1F
100
AcDbEntity
  8
0
  6
Continuous
 62
     7
370
     0
100
AcDbCircle
 10
56.1197925062
 20
5.9248397504
 30
0.0
 40
0.5
  0
CIRCLE
  5
C7
330
1F
100
AcDbEntity
  8
0
  6
Continuous
 62
     7
370
     0
100
AcDbCircle
 10
56.1197925062
 20
5.9248397504
 30
0.0
 40
0.8333333333333215
  0
ARC
  5
C8
330
1F
100
AcDbEntity
  8
工作區域參考線
 62
     1
370
    30
100
AcDbCircle
 10
65.317523096
 20
11.8826139138
 30
0.0
 40
0.5061843124727613
100
AcDbArc
 50
306.0377529468
 51
43.4396461534
  0
ARC
  5
C9
330
1F
100
AcDbEntity
  8
工作區域參考線
 62
     1
370
    30
100
AcDbCircle
 10
64.0905297573
 20
11.7074157836
 30
0.0
 40
1.060545568175971
100
AcDbArc
 50
45.5592925416
 51
125.8325555121
  0
ARC
  5
CA
330
1F
100
AcDbEntity
  8
工作區域參考線
 62
     1
370
    30
100
AcDbCircle
 10
64.1964151876
 20
11.8876897188
 30
0.0
 40
0.8591891627820911
100
AcDbArc
 50
321.9435288427
 51
42.1815007004
  0
INSERT
  5
CB
330
1F
100
AcDbEntity
  8
0
  6
Continuous
 62
     7
100
AcDbBlockReference
  2
圖塊6
 10
62.3213641216
 20
9.8146842795
 30
0.0
  0
MTEXT
  5
CD
330
1F
100
AcDbEntity
  8
0
  6
Continuous
 62
     7
370
     0
100
AcDbMText
 10
55.1808950268
 20
4.4069480123
 30
0.0
 40
0.8819444444
 41
0.0
 71
     1
 72
     1
  1
UNIT:m/m
  7
SLDTEXTSTYLE0
 73
     1
 44
1.0
  0
INSERT
  5
D4
330
1F
100
AcDbEntity
  8
0
  6
Continuous
 62
     7
370
     0
100
AcDbBlockReference
  2
SW_NOTE_0
 10
4.0771692018
 20
64.630143475
 30
0.0
  0
MTEXT
  5
D5
330
1F
100
AcDbEntity
  8
0
  6
Continuous
 62
     7
370
     0
100
AcDbMText
 10
66.2417297978
 20
13.4802258046
 30
0.0
 40
0.79375
 41
0.0
 71
     1
 72
     1
  1
Unice E-O Services Inc.
  7
SLDTEXTSTYLE0
 73
     1
 44
1.0
  0
MTEXT
  5
D6
330
1F
100
AcDbEntity
  8
0
  6
Continuous
 62
     7
370
     0
100
AcDbMText
 10
72.519684605
 20
7.195571617
 30
0.0
 40
0.6173611111
 41
0.0
 71
     1
 72
     1
  1
2018/9/11
  7
SLDTEXTSTYLE0
 73
     1
 44
1.0
  0
MTEXT
  5
D7
330
1F
100
AcDbEntity
  8
0
  6
Continuous
 62
     7
370
     0
100
AcDbMText
 10
84.2029660836
 20
5.6237259133
 30
0.0
 40
0.8333333333
 41
0.0
 71
     1
 72
     1
  1
3:1
  7
SLDTEXTSTYLE0
 73
     1
 44
1.0
  0
MTEXT
  5
D8
330
1F
100
AcDbEntity
  8
0
  6
Continuous
 62
     7
370
     0
100
AcDbMText
 10
84.1025199995
 20
10.7173065146
 30
0.0
 40
0.8333333333
 41
0.0
 71
     1
 72
     1
  1
07ASL-M6E-10
  7
SLDTEXTSTYLE0
 73
     1
 44
1.0
  0
MTEXT
  5
D9
330
1F
100
AcDbEntity
  8
0
  6
Continuous
 62
     7
370
     0
100
AcDbMText
 10
84.1025199995
 20
12.7027372626
 30
0.0
 40
0.8333333333
 41
0.0
 71
     1
 72
     1
  1
07ASL-M6E-10
  7
SLDTEXTSTYLE0
 73
     1
 44
1.0
  0
MTEXT
  5
DA
330
1F
100
AcDbEntity
  8
0
  6
Continuous
 62
     7
370
     0
100
AcDbMText
 10
78.7973955595
 20
5.5021598576
 30
0.0
 40
0.7055555556
 41
0.0
 71
     1
 72
     1
  1
SCALE:
  7
SLDTEXTSTYLE0
 73
     1
 44
1.0
  0
MTEXT
  5
DB
330
1F
100
AcDbEntity
  8
0
  6
Continuous
 62
     7
370
     0
100
AcDbMText
 10
62.111202893
 20
7.195571617
 30
0.0
 40
0.6173611111
 41
0.0
 71
     1
 72
     1
  1
DRAWN
  7
SLDTEXTSTYLE0
 73
     1
 44
1.0
  0
MTEXT
  5
DC
330
1F
100
AcDbEntity
  8
0
  6
Continuous
 62
     7
370
     0
100
AcDbMText
 10
67.7409455979
 20
8.8944027693
 30
0.0
 40
0.6173611111
 41
0.0
 71
     1
 72
     1
  1
NAME
  7
SLDTEXTSTYLE0
 73
     1
 44
1.0
  0
MTEXT
  5
DD
330
1F
100
AcDbEntity
  8
0
  6
Continuous
 62
     7
370
     0
100
AcDbMText
 10
73.6236718586
 20
8.8944027693
 30
0.0
 40
0.6173611111
 41
0.0
 71
     1
 72
     1
  1
DATE
  7
SLDTEXTSTYLE0
 73
     1
 44
1.0
  0
MTEXT
  5
DE
330
1F
100
AcDbEntity
  8
0
  6
Continuous
 62
     7
370
     0
100
AcDbMText
 10
78.7585438882
 20
10.5957404589
 30
0.0
 40
0.7055555556
 41
0.0
 71
     1
 72
     1
  1
DWG. NO.
  7
SLDTEXTSTYLE0
 73
     1
 44
1.0
  0
MTEXT
  5
DF
330
1F
100
AcDbEntity
  8
0
  6
Continuous
 62
     7
370
     0
100
AcDbMText
 10
78.7876635696
 20
13.9613552748
 30
0.0
 40
0.7055555556
 41
0.0
 71
     1
 72
     1
  1
TITLE:
  7
SLDTEXTSTYLE0
 73
     1
 44
1.0
  0
MTEXT
  5
E0
330
1F
100
AcDbEntity
  8
0
  6
Continuous
 62
     7
370
     0
100
AcDbMText
 10
67.6771403267
 20
5.4134596575
 30
0.0
 40
0.6173611111
 41
0.0
 71
     1
 72
     1
  1
Johnny
  7
SLDTEXTSTYLE0
 73
     1
 44
1.0
  0
MTEXT
  5
E1
330
1F
100
AcDbEntity
  8
0
  6
Continuous
 62
     7
370
     0
100
AcDbMText
 10
72.519684605
 20
5.4134596575
 30
0.0
 40
0.6173611111
 41
0.0
 71
     1
 72
     1
  1
2018/9/11
  7
SLDTEXTSTYLE0
 73
     1
 44
1.0
  0
MTEXT
  5
E2
330
1F
100
AcDbEntity
  8
0
  6
Continuous
 62
     7
370
     0
100
AcDbMText
 10
62.111202893
 20
5.4134596575
 30
0.0
 40
0.6173611111
 41
0.0
 71
     1
 72
     1
  1
ENG APPR.
  7
SLDTEXTSTYLE0
 73
     1
 44
1.0
  0
MTEXT
  5
E3
330
1F
100
AcDbEntity
  8
0
  6
Continuous
 62
     7
370
     0
100
AcDbMText
 10
78.7973955595
 20
3.8951129763
 30
0.0
 40
0.7055555556
 41
0.0
 71
     1
 72
     1
  1
REV
  7
SLDTEXTSTYLE0
 73
     1
 44
1.0
  0
MTEXT
  5
E4
330
1F
100
AcDbEntity
  8
0
  6
Continuous
 62
     7
370
     0
100
AcDbMText
 10
78.7876635696
 20
8.9831029695
 30
0.0
 40
0.7055555556
 41
0.0
 71
     1
 72
     1
  1
MATERIAL:
  7
SLDTEXTSTYLE0
 73
     1
 44
1.0
  0
MTEXT
  5
E5
330
1F
100
AcDbEntity
  8
0
  6
Continuous
 62
     7
370
     0
100
AcDbMText
 10
84.2029660836
 20
7.4058378729
 30
0.0
 40
0.8333333333
 41
0.0
 71
     1
 72
     1
  1
N/A
  7
SLDTEXTSTYLE0
 73
     1
 44
1.0
  0
MTEXT
  5
E6
330
1F
100
AcDbEntity
  8
0
  6
Continuous
 62
     7
370
     0
100
AcDbMText
 10
8.8676643844
 20
68.151117219
 30
0.0
 40
0.7055555556
 41
0.0
 71
     1
 72
     1
  1
1
  7
SLDTEXTSTYLE0
 73
     1
 44
1.0
  0
MTEXT
  5
E7
330
1F
100
AcDbEntity
  8
0
  6
Continuous
 62
     7
370
     0
100
AcDbMText
 10
20.2390331908
 20
68.151117219
 30
0.0
 40
0.7055555556
 41
0.0
 71
     1
 72
     1
  1
2
  7
SLDTEXTSTYLE0
 73
     1
 44
1.0
  0
MTEXT
  5
E8
330
1F
100
AcDbEntity
  8
0
  6
Continuous
 62
     7
370
     0
100
AcDbMText
 10
31.6336647969
 20
68.151117219
 30
0.0
 40
0.7055555556
 41
0.0
 71
     1
 72
     1
  1
3
  7
SLDTEXTSTYLE0
 73
     1
 44
1.0
  0
MTEXT
  5
E9
330
1F
100
AcDbEntity
  8
0
  6
Continuous
 62
     7
370
     0
100
AcDbMText
 10
43.0844454284
 20
68.0997528121
 30
0.0
 40
0.7055555556
 41
0.0
 71
     1
 72
     1
  1
4
  7
SLDTEXTSTYLE0
 73
     1
 44
1.0
  0
MTEXT
  5
EA
330
1F
100
AcDbEntity
  8
0
  6
Continuous
 62
     7
370
     0
100
AcDbMText
 10
54.5674411547
 20
68.151117219
 30
0.0
 40
0.7055555556
 41
0.0
 71
     1
 72
     1
  1
5
  7
SLDTEXTSTYLE0
 73
     1
 44
1.0
  0
MTEXT
  5
EB
330
1F
100
AcDbEntity
  8
0
  6
Continuous
 62
     7
370
     0
100
AcDbMText
 10
66.2127390138
 20
68.151117219
 30
0.0
 40
0.7055555556
 41
0.0
 71
     1
 72
     1
  1
6
  7
SLDTEXTSTYLE0
 73
     1
 44
1.0
  0
MTEXT
  5
EC
330
1F
100
AcDbEntity
  8
0
  6
Continuous
 62
     7
370
     0
100
AcDbMText
 10
78.1210219136
 20
68.151117219
 30
0.0
 40
0.7055555556
 41
0.0
 71
     1
 72
     1
  1
7
  7
SLDTEXTSTYLE0
 73
     1
 44
1.0
  0
MTEXT
  5
ED
330
1F
100
AcDbEntity
  8
0
  6
Continuous
 62
     7
370
     0
100
AcDbMText
 10
88.7595940165
 20
68.151117219
 30
0.0
 40
0.7055555556
 41
0.0
 71
     1
 72
     1
  1
8
  7
SLDTEXTSTYLE0
 73
     1
 44
1.0
  0
MTEXT
  5
EE
330
1F
100
AcDbEntity
  8
0
  6
Continuous
 62
     7
370
     0
100
AcDbMText
 10
1.7856078852
 20
61.9371007626
 30
0.0
 40
0.7055555556
 41
0.0
 71
     1
 72
     1
  1
A
  7
SLDTEXTSTYLE0
 73
     1
 44
1.0
  0
MTEXT
  5
EF
330
1F
100
AcDbEntity
  8
0
  6
Continuous
 62
     7
370
     0
100
AcDbMText
 10
1.863681061
 20
51.4331016079
 30
0.0
 40
0.7055555556
 41
0.0
 71
     1
 72
     1
  1
B
  7
SLDTEXTSTYLE0
 73
     1
 44
1.0
  0
MTEXT
  5
F0
330
1F
100
AcDbEntity
  8
0
  6
Continuous
 62
     7
370
     0
100
AcDbMText
 10
1.863681061
 20
40.4247838077
 30
0.0
 40
0.7055555556
 41
0.0
 71
     1
 72
     1
  1
C
  7
SLDTEXTSTYLE0
 73
     1
 44
1.0
  0
MTEXT
  5
F1
330
1F
100
AcDbEntity
  8
0
  6
Continuous
 62
     7
370
     0
100
AcDbMText
 10
1.863681061
 20
29.5817740074
 30
0.0
 40
0.7055555556
 41
0.0
 71
     1
 72
     1
  1
D
  7
SLDTEXTSTYLE0
 73
     1
 44
1.0
  0
MTEXT
  5
F2
330
1F
100
AcDbEntity
  8
0
  6
Continuous
 62
     7
370
     0
100
AcDbMText
 10
1.863681061
 20
19.1852949732
 30
0.0
 40
0.7055555556
 41
0.0
 71
     1
 72
     1
  1
E
  7
SLDTEXTSTYLE0
 73
     1
 44
1.0
  0
MTEXT
  5
F3
330
1F
100
AcDbEntity
  8
0
  6
Continuous
 62
     7
370
     0
100
AcDbMText
 10
1.863681061
 20
8.5231404084
 30
0.0
 40
0.7055555556
 41
0.0
 71
     1
 72
     1
  1
F
  7
SLDTEXTSTYLE0
 73
     1
 44
1.0
  0
MTEXT
  5
F4
330
1F
100
AcDbEntity
  8
0
  6
Continuous
 62
     7
370
     0
100
AcDbMText
 10
88.7286205655
 20
2.2078741321
 30
0.0
 40
0.7055555556
 41
0.0
 71
     1
 72
     1
  1
8
  7
SLDTEXTSTYLE0
 73
     1
 44
1.0
  0
MTEXT
  5
F5
330
1F
100
AcDbEntity
  8
0
  6
Continuous
 62
     7
370
     0
100
AcDbMText
 10
78.0900484625
 20
2.2078741321
 30
0.0
 40
0.7055555556
 41
0.0
 71
     1
 72
     1
  1
7
  7
SLDTEXTSTYLE0
 73
     1
 44
1.0
  0
MTEXT
  5
F6
330
1F
100
AcDbEntity
  8
0
  6
Continuous
 62
     7
370
     0
100
AcDbMText
 10
66.1817655628
 20
2.2078741321
 30
0.0
 40
0.7055555556
 41
0.0
 71
     1
 72
     1
  1
6
  7
SLDTEXTSTYLE0
 73
     1
 44
1.0
  0
MTEXT
  5
F7
330
1F
100
AcDbEntity
  8
0
  6
Continuous
 62
     7
370
     0
100
AcDbMText
 10
54.5364677036
 20
2.2078741321
 30
0.0
 40
0.7055555556
 41
0.0
 71
     1
 72
     1
  1
5
  7
SLDTEXTSTYLE0
 73
     1
 44
1.0
  0
MTEXT
  5
F8
330
1F
100
AcDbEntity
  8
0
  6
Continuous
 62
     7
370
     0
100
AcDbMText
 10
43.0534719774
 20
2.1565097253
 30
0.0
 40
0.7055555556
 41
0.0
 71
     1
 72
     1
  1
4
  7
SLDTEXTSTYLE0
 73
     1
 44
1.0
  0
MTEXT
  5
F9
330
1F
100
AcDbEntity
  8
0
  6
Continuous
 62
     7
370
     0
100
AcDbMText
 10
31.6026913459
 20
2.2078741321
 30
0.0
 40
0.7055555556
 41
0.0
 71
     1
 72
     1
  1
3
  7
SLDTEXTSTYLE0
 73
     1
 44
1.0
  0
MTEXT
  5
FA
330
1F
100
AcDbEntity
  8
0
  6
Continuous
 62
     7
370
     0
100
AcDbMText
 10
20.2080597398
 20
2.2078741321
 30
0.0
 40
0.7055555556
 41
0.0
 71
     1
 72
     1
  1
2
  7
SLDTEXTSTYLE0
 73
     1
 44
1.0
  0
MTEXT
  5
FB
330
1F
100
AcDbEntity
  8
0
  6
Continuous
 62
     7
370
     0
100
AcDbMText
 10
8.8366909334
 20
2.2078741321
 30
0.0
 40
0.7055555556
 41
0.0
 71
     1
 72
     1
  1
1
  7
SLDTEXTSTYLE0
 73
     1
 44
1.0
  0
MTEXT
  5
FC
330
1F
100
AcDbEntity
  8
0
  6
Continuous
 62
     7
370
     0
100
AcDbMText
 10
95.7007948715
 20
62.2141636364
 30
0.0
 40
0.7055555556
 41
0.0
 71
     1
 72
     1
  1
A
  7
SLDTEXTSTYLE0
 73
     1
 44
1.0
  0
MTEXT
  5
FD
330
1F
100
AcDbEntity
  8
0
  6
Continuous
 62
     7
370
     0
100
AcDbMText
 10
95.7788680474
 20
51.7101644817
 30
0.0
 40
0.7055555556
 41
0.0
 71
     1
 72
     1
  1
B
  7
SLDTEXTSTYLE0
 73
     1
 44
1.0
  0
MTEXT
  5
FE
330
1F
100
AcDbEntity
  8
0
  6
Continuous
 62
     7
370
     0
100
AcDbMText
 10
95.7788680474
 20
40.7018466814
 30
0.0
 40
0.7055555556
 41
0.0
 71
     1
 72
     1
  1
C
  7
SLDTEXTSTYLE0
 73
     1
 44
1.0
  0
MTEXT
  5
FF
330
1F
100
AcDbEntity
  8
0
  6
Continuous
 62
     7
370
     0
100
AcDbMText
 10
95.7788680474
 20
29.8588368811
 30
0.0
 40
0.7055555556
 41
0.0
 71
     1
 72
     1
  1
D
  7
SLDTEXTSTYLE0
 73
     1
 44
1.0
  0
MTEXT
  5
100
330
1F
100
AcDbEntity
  8
0
  6
Continuous
 62
     7
370
     0
100
AcDbMText
 10
95.7788680474
 20
19.462357847
 30
0.0
 40
0.7055555556
 41
0.0
 71
     1
 72
     1
  1
E
  7
SLDTEXTSTYLE0
 73
     1
 44
1.0
  0
MTEXT
  5
101
330
1F
100
AcDbEntity
  8
0
  6
Continuous
 62
     7
370
     0
100
AcDbMText
 10
95.7788680474
 20
8.8002032821
 30
0.0
 40
0.7055555556
 41
0.0
 71
     1
 72
     1
  1
F
  7
SLDTEXTSTYLE0
 73
     1
 44
1.0
  0
MTEXT
  5
102
330
1F
100
AcDbEntity
  8
0
  6
Continuous
 62
     7
370
     0
100
AcDbMText
 10
67.7184376267
 20
7.195571617
 30
0.0
 40
0.6173611111
 41
0.0
 71
     1
 72
     1
  1
Sky
  7
SLDTEXTSTYLE0
 73
     1
 44
1.0
  0
MTEXT
  5
104
330
1F
100
AcDbEntity
  8
0
  6
Continuous
 62
     7
370
     0
100
AcDbMText
 10
84.2827413215
 20
4.0739867773
 30
0.0
 40
0.79375
 41
0.0
 71
     1
 72
     1
  1
0
  7
SLDTEXTSTYLE1
 73
     1
 44
1.0
  0
INSERT
  5
10A
330
1F
100
AcDbEntity
  8
SLD-0
 62
     7
100
AcDbBlockReference
  2
SW_NOTE_1
 10
66.2417297978
 20
11.1826581737
 30
0.0
  0
ARC
  5
10B
330
1F
100
AcDbEntity
  8
0
  6
Continuous
 62
     7
370
    30
100
AcDbCircle
 10
19.2190095132
 20
32.0821202405
 30
0.0
 40
1.500000000000004
100
AcDbArc
 50
192.4295673674
 51
266.1774462707
  0
ARC
  5
10C
330
1F
100
AcDbEntity
  8
0
  6
Continuous
 62
     7
370
    30
100
AcDbCircle
 10
19.2190095132
 20
32.0821202405
 30
0.0
 40
1.499999999999997
100
AcDbArc
 50
93.8225537293
 51
192.4295673674
  0
LINE
  5
10D
330
1F
100
AcDbEntity
  8
0
  6
Continuous
 62
     7
370
    30
100
AcDbLine
 10
25.0214754118
 20
35.0821202665
 30
0.0
 11
24.5214753298
 21
34.5821201846
 31
0.0
  0
LINE
  5
10E
330
1F
100
AcDbEntity
  8
0
  6
Continuous
 62
     7
370
    30
100
AcDbLine
 10
24.5214753298
 20
29.5821202963
 30
0.0
 11
25.0214754118
 21
29.0821202144
 31
0.0
  0
LINE
  5
10F
330
1F
100
AcDbEntity
  8
0
  6
Continuous
 62
     7
370
    30
100
AcDbLine
 10
29.1214754319
 20
29.0821202144
 30
0.0
 11
29.4628964251
 21
29.4235416732
 31
0.0
  0
LINE
  5
110
330
1F
100
AcDbEntity
  8
0
  6
Continuous
 62
     7
370
    30
100
AcDbLine
 10
29.4628964251
 20
34.7406988077
 30
0.0
 11
29.1214754319
 21
35.0821202665
 31
0.0
  0
LINE
  5
111
330
1F
100
AcDbEntity
  8
0
  6
Continuous
 62
     7
370
    30
100
AcDbLine
 10
25.0214754118
 20
29.0821202144
 30
0.0
 11
29.1214754319
 21
29.0821202144
 31
0.0
  0
LINE
  5
112
330
1F
100
AcDbEntity
  8
0
  6
Continuous
 62
     7
370
    30
100
AcDbLine
 10
29.1214754319
 20
35.0821202665
 30
0.0
 11
25.0214754118
 21
35.0821202665
 31
0.0
  0
ARC
  5
113
330
1F
100
AcDbEntity
  8
0
  6
Continuous
 62
     7
370
    30
100
AcDbCircle
 10
30.3214754115
 20
34.8821202405
 30
0.0
 40
0.2000000000000028
100
AcDbArc
 50
270.0
 51
0.0
  0
ARC
  5
114
330
1F
100
AcDbEntity
  8
0
  6
Continuous
 62
     7
370
    30
100
AcDbCircle
 10
30.3214754115
 20
29.2821202405
 30
0.0
 40
0.2000000000000028
100
AcDbArc
 50
0.0
 51
90.0
  0
ARC
  5
115
330
1F
100
AcDbEntity
  8
0
  6
Continuous
 62
     7
370
    30
100
AcDbCircle
 10
29.604318124
 20
29.2821202405
 30
0.0
 40
0.1999999999999996
100
AcDbArc
 50
90.0
 51
135.0
  0
ARC
  5
116
330
1F
100
AcDbEntity
  8
0
  6
Continuous
 62
     7
370
    30
100
AcDbCircle
 10
29.604318124
 20
34.8821202405
 30
0.0
 40
0.2000000000000028
100
AcDbArc
 50
225.0
 51
270.0
  0
LINE
  5
117
330
1F
100
AcDbEntity
  8
0
  6
Continuous
 62
     7
370
    30
100
AcDbLine
 10
29.6043177581
 20
29.4821202334
 30
0.0
 11
30.3214752561
 21
29.4821202334
 31
0.0
  0
LINE
  5
118
330
1F
100
AcDbEntity
  8
0
  6
Continuous
 62
     7
370
    30
100
AcDbLine
 10
30.3214752561
 20
34.6821202475
 30
0.0
 11
29.6043177581
 21
34.6821202475
 31
0.0
  0
LINE
  5
119
330
1F
100
AcDbEntity
  8
0
  6
Continuous
 62
     7
370
    30
100
AcDbLine
 10
32.5214752441
 20
35.5821203485
 30
0.0
 11
32.3763938135
 21
36.1235722013
 31
0.0
  0
LINE
  5
11A
330
1F
100
AcDbEntity
  8
0
  6
Continuous
 62
     7
370
    30
100
AcDbLine
 10
32.3763938135
 20
28.0406682797
 30
0.0
 11
32.5214752441
 21
28.5821201324
 31
0.0
  0
LINE
  5
11B
330
1F
100
AcDbEntity
  8
0
  6
Continuous
 62
     7
370
    30
100
AcDbLine
 10
49.2190086728
 20
28.0821200505
 30
0.0
 11
49.7190096861
 21
28.5821201324
 31
0.0
  0
LINE
  5
11C
330
1F
100
AcDbEntity
  8
0
  6
Continuous
 62
     7
370
    30
100
AcDbLine
 10
49.7190096861
 20
35.5821203485
 30
0.0
 11
49.2190086728
 21
36.0821204304
 31
0.0
  0
LINE
  5
11D
330
1F
100
AcDbEntity
  8
0
  6
Continuous
 62
     7
370
    30
100
AcDbLine
 10
38.2190087324
 20
28.0821200505
 30
0.0
 11
49.2190086728
 21
28.0821200505
 31
0.0
  0
LINE
  5
11E
330
1F
100
AcDbEntity
  8
0
  6
Continuous
 62
     7
370
    30
100
AcDbLine
 10
49.2190086728
 20
36.0821204304
 30
0.0
 11
38.2190087324
 21
36.0821204304
 31
0.0
  0
LINE
  5
11F
330
1F
100
AcDbEntity
  8
0
  6
Continuous
 62
     7
370
    30
100
AcDbLine
 10
38.2190087324
 20
36.0821204304
 30
0.0
 11
37.7190095818
 21
35.5821203485
 31
0.0
  0
LINE
  5
120
330
1F
100
AcDbEntity
  8
0
  6
Continuous
 62
     7
370
    30
100
AcDbLine
 10
37.7190095818
 20
28.5821201324
 30
0.0
 11
38.2190087324
 21
28.0821200505
 31
0.0
  0
LINE
  5
121
330
1F
100
AcDbEntity
  8
0
  6
Continuous
 62
     7
370
    30
100
AcDbLine
 10
20.1190095607
 20
30.0821201455
 30
0.0
 11
24.5214753298
 21
30.0821201455
 31
0.0
  0
LINE
  5
122
330
1F
100
AcDbEntity
  8
0
  6
Continuous
 62
     7
370
    30
100
AcDbLine
 10
32.5214752441
 20
30.0821201455
 30
0.0
 11
36.7190094179
 21
30.0821201455
 31
0.0
  0
LINE
  5
123
330
1F
100
AcDbEntity
  8
0
  6
Continuous
 62
     7
370
    30
100
AcDbLine
 10
36.7190094179
 20
34.0821203354
 30
0.0
 11
32.5214752441
 21
34.0821203354
 31
0.0
  0
LINE
  5
124
330
1F
100
AcDbEntity
  8
0
  6
Continuous
 62
     7
370
    30
100
AcDbLine
 10
24.5214753298
 20
34.0821203354
 30
0.0
 11
20.1190095607
 21
34.0821203354
 31
0.0
  0
LINE
  5
125
330
1F
100
AcDbEntity
  8
0
  6
Continuous
 62
     7
370
    30
100
AcDbLine
 10
20.1190095607
 20
34.0821203354
 30
0.0
 11
19.1190095132
 21
33.6821202
 31
0.0
  0
LINE
  5
126
330
1F
100
AcDbEntity
  8
0
  6
Continuous
 62
     7
370
    30
100
AcDbLine
 10
19.1190095132
 20
30.4821202809
 30
0.0
 11
20.1190095607
 21
30.0821201455
 31
0.0
  0
LINE
  5
127
330
1F
100
AcDbEntity
  8
0
  6
Continuous
 62
     7
370
    30
100
AcDbLine
 10
36.7190094179
 20
30.1821202084
 30
0.0
 11
37.7190095818
 21
30.1821202084
 31
0.0
  0
LINE
  5
128
330
1F
100
AcDbEntity
  8
0
  6
Continuous
 62
     7
370
    30
100
AcDbLine
 10
37.7190095818
 20
33.9821202725
 30
0.0
 11
36.7190094179
 21
33.9821202725
 31
0.0
  0
SPLINE
  5
129
330
1F
100
AcDbEntity
  8
0
  6
Continuous
 62
     7
370
    30
100
AcDbSpline
210
0.0
220
0.0
230
1.0
 70
     8
 71
     3
 72
    11
 73
     7
 74
     0
 42
0.000000001
 43
0.00000001
 40
0.0
 40
0.0
 40
0.0
 40
0.0
 40
0.2492273856387818
 40
0.4988069943521772
 40
0.7492883378007242
 40
1.0
 40
1.0
 40
1.0
 40
1.0
 10
32.52147524414414
 20
32.08212024045257
 30
0.0
 10
32.5195954294345
 20
31.91368348791638
 30
0.0
 10
32.51583314334842
 20
31.57657193793289
 30
0.0
 10
32.48563823787202
 20
31.07095094782345
 30
0.0
 10
32.44035505985195
 20
30.56552060139827
 30
0.0
 10
32.39772075966778
 20
30.22948784744655
 30
0.0
 10
32.37639381347056
 20
30.06139426005153
 30
0.0
  0
LINE
  5
12A
330
1F
100
AcDbEntity
  8
0
  6
Continuous
 62
     7
370
    30
100
AcDbLine
 10
32.3763938135
 20
30.0613942601
 30
0.0
 11
30.5214758476
 21
30.0613942601
 31
0.0
  0
LINE
  5
12B
330
1F
100
AcDbEntity
  8
0
  6
Continuous
 62
     7
370
    30
100
AcDbLine
 10
30.5214758476
 20
34.1028462209
 30
0.0
 11
30.5214758476
 21
30.0613942601
 31
0.0
  0
LINE
  5
12C
330
1F
100
AcDbEntity
  8
0
  6
Continuous
 62
     7
370
    30
100
AcDbLine
 10
32.3763938135
 20
34.1028462209
 30
0.0
 11
30.5214758476
 21
34.1028462209
 31
0.0
  0
SPLINE
  5
12D
330
1F
100
AcDbEntity
  8
0
  6
Continuous
 62
     7
370
    30
100
AcDbSpline
210
0.0
220
0.0
230
1.0
 70
     8
 71
     3
 72
    10
 73
     6
 74
     0
 42
0.000000001
 43
0.00000001
 40
0.0
 40
0.0
 40
0.0
 40
0.0
 40
0.2516058348520515
 40
0.6252967141066659
 40
1.0
 40
1.0
 40
1.0
 40
1.0
 10
32.37639381347052
 20
34.10284622085361
 30
0.0
 10
32.39764686129284
 20
33.93415883493744
 30
0.0
 10
32.45046543354839
 20
33.51493299231482
 30
0.0
 10
32.50833257709058
 20
32.84112057507679
 30
0.0
 10
32.51709040601116
 20
32.33534841679128
 30
0.0
 10
32.52147524414414
 20
32.08212024045257
 30
0.0
  0
SPLINE
  5
12E
330
1F
100
AcDbEntity
  8
0
  6
Continuous
 62
     7
370
    30
100
AcDbSpline
210
0.0
220
0.0
230
1.0
 70
     8
 71
     3
 72
     9
 73
     5
 74
     0
 42
0.000000001
 43
0.00000001
 40
0.0
 40
0.0
 40
0.0
 40
0.0
 40
0.4987907790890322
 40
1.0
 40
1.0
 40
1.0
 40
1.0
 10
32.52147524414411
 20
35.11320921105413
 30
0.0
 10
32.51436166319968
 20
34.94461273654736
 30
0.0
 10
32.50010001033307
 20
34.60660232902801
 30
0.0
 10
32.41769564248121
 20
34.27103543991131
 30
0.0
 10
32.37639381347052
 20
34.10284622085361
 30
0.0
  0
LINE
  5
12F
330
1F
100
AcDbEntity
  8
0
  6
Continuous
 62
     7
370
    30
100
AcDbLine
 10
30.5214758476
 20
36.1235722013
 30
0.0
 11
30.5214758476
 21
34.1028462209
 31
0.0
  0
LINE
  5
130
330
1F
100
AcDbEntity
  8
0
  6
Continuous
 62
     7
370
    30
100
AcDbLine
 10
32.3763938135
 20
36.1235722013
 30
0.0
 11
30.5214758476
 21
36.1235722013
 31
0.0
  0
SPLINE
  5
131
330
1F
100
AcDbEntity
  8
0
  6
Continuous
 62
     7
370
    30
100
AcDbSpline
210
0.0
220
0.0
230
1.0
 70
     8
 71
     3
 72
    11
 73
     7
 74
     0
 42
0.000000001
 43
0.00000001
 40
0.0
 40
0.0
 40
0.0
 40
0.0
 40
0.2493715431833897
 40
0.4989463869217985
 40
0.7493023235428563
 40
1.0
 40
1.0
 40
1.0
 40
1.0
 10
32.3763938134705
 20
36.12357220125464
 30
0.0
 10
32.39761246130269
 20
36.03997505843173
 30
0.0
 10
32.44006705550414
 20
35.87271262007964
 30
0.0
 10
32.48538038800982
 20
35.6204983830445
 30
0.0
 10
32.51577188712525
 20
35.36723934754539
 30
0.0
 10
32.51957326090506
 20
35.19792441654159
 30
0.0
 10
32.52147524414411
 20
35.11320921105413
 30
0.0
  0
LINE
  5
132
330
1F
100
AcDbEntity
  8
0
  6
Continuous
 62
     7
370
    30
100
AcDbLine
 10
32.5214752441
 20
32.0821202405
 30
0.0
 11
32.5214752441
 21
29.0510312699
 31
0.0
  0
SPLINE
  5
133
330
1F
100
AcDbEntity
  8
0
  6
Continuous
 62
     7
370
    30
100
AcDbSpline
210
0.0
220
0.0
230
1.0
 70
     8
 71
     3
 72
     9
 73
     5
 74
     0
 42
0.000000001
 43
0.00000001
 40
0.0
 40
0.0
 40
0.0
 40
0.0
 40
0.4989631447861753
 40
1.0
 40
1.0
 40
1.0
 40
1.0
 10
32.37639381347056
 20
30.06139426005153
 30
0.0
 10
32.41752989105063
 20
29.89396073195784
 30
0.0
 10
32.49997300936491
 20
29.55839781545136
 30
0.0
 10
32.51429793063821
 20
29.22038709716818
 30
0.0
 10
32.52147524414418
 20
29.05103126985101
 30
0.0
  0
LINE
  5
134
330
1F
100
AcDbEntity
  8
0
  6
Continuous
 62
     7
370
    30
100
AcDbLine
 10
32.5214752441
 20
35.1132092111
 30
0.0
 11
32.5214752441
 21
32.0821202405
 31
0.0
  0
SPLINE
  5
135
330
1F
100
AcDbEntity
  8
0
  6
Continuous
 62
     7
370
    30
100
AcDbSpline
210
0.0
220
0.0
230
1.0
 70
     8
 71
     3
 72
    11
 73
     7
 74
     0
 42
0.000000001
 43
0.00000001
 40
0.0
 40
0.0
 40
0.0
 40
0.0
 40
0.2492274105148727
 40
0.4988069944134722
 40
0.7492883233955832
 40
1.0
 40
1.0
 40
1.0
 40
1.0
 10
32.52147524414418
 20
29.05103126985101
 30
0.0
 10
32.51959543000432
 20
28.96681290020697
 30
0.0
 10
32.5158331454337
 20
28.79825715527603
 30
0.0
 10
32.4856382374258
 20
28.54544659061798
 30
0.0
 10
32.44035505613364
 20
28.29273152806032
 30
0.0
 10
32.39772075924652
 20
28.12471510249383
 30
0.0
 10
32.37639381347059
 20
28.04066827965049
 30
0.0
  0
LINE
  5
136
330
1F
100
AcDbEntity
  8
0
  6
Continuous
 62
     7
370
    30
100
AcDbLine
 10
32.3763938135
 20
28.0406682797
 30
0.0
 11
30.5214758476
 21
28.0406682797
 31
0.0
  0
LINE
  5
137
330
1F
100
AcDbEntity
  8
0
  6
Continuous
 62
     7
370
    30
100
AcDbLine
 10
30.5214758476
 20
30.0613942601
 30
0.0
 11
30.5214758476
 21
28.0406682797
 31
0.0
  0
LINE
  5
138
330
1F
100
AcDbEntity
  8
0
  6
Continuous
 62
     7
370
    30
100
AcDbLine
 10
24.5214753298
 20
32.0821202405
 30
0.0
 11
24.5214753298
 21
34.5821201846
 31
0.0
  0
LINE
  5
139
330
1F
100
AcDbEntity
  8
0
  6
Continuous
 62
     7
370
    30
100
AcDbLine
 10
24.5214753298
 20
29.5821202963
 30
0.0
 11
24.5214753298
 21
32.0821202405
 31
0.0
  0
LINE
  5
13A
330
1F
100
AcDbEntity
  8
0
  6
Continuous
 62
     7
370
    30
100
AcDbLine
 10
25.0214754118
 20
32.0821202405
 30
0.0
 11
25.0214754118
 21
29.0821202144
 31
0.0
  0
LINE
  5
13B
330
1F
100
AcDbEntity
  8
0
  6
Continuous
 62
     7
370
    30
100
AcDbLine
 10
25.0214754118
 20
35.0821202665
 30
0.0
 11
25.0214754118
 21
32.0821202405
 31
0.0
  0
LINE
  5
13C
330
1F
100
AcDbEntity
  8
0
  6
Continuous
 62
     7
370
    30
100
AcDbLine
 10
29.1214754319
 20
29.0821202144
 30
0.0
 11
29.1214754319
 21
35.0821202665
 31
0.0
  0
LINE
  5
13D
330
1F
100
AcDbEntity
  8
0
  6
Continuous
 62
     7
370
    30
100
AcDbLine
 10
32.5214752441
 20
35.5821203485
 30
0.0
 11
32.5214752441
 21
35.1132092111
 31
0.0
  0
LINE
  5
13E
330
1F
100
AcDbEntity
  8
0
  6
Continuous
 62
     7
370
    30
100
AcDbLine
 10
32.5214752441
 20
29.0510312699
 30
0.0
 11
32.5214752441
 21
28.5821201324
 31
0.0
  0
LINE
  5
13F
330
1F
100
AcDbEntity
  8
0
  6
Continuous
 62
     7
370
    30
100
AcDbLine
 10
49.2190086728
 20
28.0821200505
 30
0.0
 11
49.2190086728
 21
36.0821204304
 31
0.0
  0
LINE
  5
140
330
1F
100
AcDbEntity
  8
0
  6
Continuous
 62
     7
370
    30
100
AcDbLine
 10
49.7190096861
 20
35.5821203485
 30
0.0
 11
49.7190096861
 21
28.5821201324
 31
0.0
  0
LINE
  5
141
330
1F
100
AcDbEntity
  8
0
  6
Continuous
 62
     7
370
    30
100
AcDbLine
 10
38.2190087324
 20
32.0821202405
 30
0.0
 11
38.2190087324
 21
28.0821200505
 31
0.0
  0
LINE
  5
142
330
1F
100
AcDbEntity
  8
0
  6
Continuous
 62
     7
370
    30
100
AcDbLine
 10
38.2190087324
 20
36.0821204304
 30
0.0
 11
38.2190087324
 21
32.0821202405
 31
0.0
  0
LINE
  5
143
330
1F
100
AcDbEntity
  8
0
  6
Continuous
 62
     7
370
    30
100
AcDbLine
 10
37.7190095818
 20
32.0821202405
 30
0.0
 11
37.7190095818
 21
35.5821203485
 31
0.0
  0
LINE
  5
144
330
1F
100
AcDbEntity
  8
0
  6
Continuous
 62
     7
370
    30
100
AcDbLine
 10
37.7190095818
 20
28.5821201324
 30
0.0
 11
37.7190095818
 21
32.0821202405
 31
0.0
  0
LINE
  5
145
330
1F
100
AcDbEntity
  8
0
  6
Continuous
 62
     7
370
    30
100
AcDbLine
 10
20.1190095607
 20
30.0821201455
 30
0.0
 11
20.1190095607
 21
34.0821203354
 31
0.0
  0
LINE
  5
146
330
1F
100
AcDbEntity
  8
0
  6
Continuous
 62
     7
370
    30
100
AcDbLine
 10
36.7190094179
 20
30.0821201455
 30
0.0
 11
36.7190094179
 21
34.0821203354
 31
0.0
  0
LINE
  5
147
330
1F
100
AcDbEntity
  8
0
  6
Continuous
 62
     7
370
    30
100
AcDbLine
 10
19.1190095132
 20
30.4821202809
 30
0.0
 11
19.1190095132
 21
33.6821202
 31
0.0
  0
LINE
  5
148
330
1F
100
AcDbEntity
  8
0
  6
Continuous
 62
     8
370
    30
100
AcDbLine
 10
29.4628964251
 20
29.4235416732
 30
0.0
 11
29.4628964251
 21
34.7406988077
 31
0.0
  0
LINE
  5
149
330
1F
100
AcDbEntity
  8
0
  6
Continuous
 62
     8
370
    30
100
AcDbLine
 10
30.3214752561
 20
32.0821202405
 30
0.0
 11
30.3214752561
 21
34.6821202475
 31
0.0
  0
LINE
  5
14A
330
1F
100
AcDbEntity
  8
0
  6
Continuous
 62
     8
370
    30
100
AcDbLine
 10
30.3214752561
 20
29.4821202334
 30
0.0
 11
30.3214752561
 21
32.0821202405
 31
0.0
  0
LINE
  5
14B
330
1F
100
AcDbEntity
  8
0
  6
Continuous
 62
     8
370
    30
100
AcDbLine
 10
29.6043177581
 20
34.6821202475
 30
0.0
 11
29.6043177581
 21
29.4821202334
 31
0.0
  0
DIMENSION
  5
14C
330
1F
100
AcDbEntity
  8
DIM
100
AcDbDimension
  2
_D
 10
14.7067796707
 20
28.0406683561
 30
0.0
 11
14.7067796707
 21
32.0821202405
 31
0.0
 70
   160
  1
<>
 71
     2
 42
-1.0
  3
SLDDIMSTYLE0
100
AcDbAlignedDimension
 13
30.5214754115
 23
36.1235721248
 33
0.0
 14
30.5214754115
 24
28.0406683561
 34
0.0
 50
90.0
100
AcDbRotatedDimension
  0
DIMENSION
  5
157
330
1F
100
AcDbEntity
  8
DIM
100
AcDbDimension
  2
_D_1
 10
32.5214754115
 20
25.7073350228
 30
0.0
 11
28.5214754115
 21
25.7073350228
 31
0.0
 70
   160
  1
<>
 71
     2
 42
-1.0
  3
SLDDIMSTYLE1
100
AcDbAlignedDimension
 13
24.5214754115
 23
29.5821202405
 33
0.0
 14
32.5214754115
 24
29.0510313272
 34
0.0
 50
0.0
100
AcDbRotatedDimension
  0
DIMENSION
  5
162
330
1F
100
AcDbEntity
  8
DIM
100
AcDbDimension
  2
_D_2
 10
49.7190095132
 20
24.0406683561
 30
0.0
 11
33.7190095132
 21
24.0406683561
 31
0.0
 70
   160
  1
<>
 71
     2
 42
-1.0
  3
SLDDIMSTYLE1
100
AcDbAlignedDimension
 13
17.7190095132
 23
32.0821202405
 33
0.0
 14
49.7190095132
 24
28.5821202405
 34
0.0
 50
0.0
100
AcDbRotatedDimension
  0
DIMENSION
  5
16C
330
1F
100
AcDbEntity
  8
DIM
100
AcDbDimension
  2
_D_3
 10
49.7190095132
 20
25.7073350228
 30
0.0
 11
43.7190095132
 21
25.7073350228
 31
0.0
 70
   160
  1
<>
 71
     2
 42
-1.0
  3
SLDDIMSTYLE1
100
AcDbAlignedDimension
 13
37.7190095132
 23
28.5821202405
 33
0.0
 14
49.7190095132
 24
28.5821202405
 34
0.0
 50
0.0
100
AcDbRotatedDimension
  0
INSERT
  5
17B
330
1F
100
AcDbEntity
  8
DIM
100
AcDbBlockReference
  2
SW_NOTE_2
 10
33.9759152216
 20
39.7258670878
 30
0.0
  0
LEADER
  5
17D
330
1F
100
AcDbEntity
  8
DIM
100
AcDbLeader
  3
SLDDIMSTYLE2
 76
     2
 10
27.3076248874
 20
35.0821202405
 30
0.0
 10
33.9759152216
 20
39.7258670878
 30
0.0
  0
INSERT
  5
183
330
1F
100
AcDbEntity
  8
DIM
100
AcDbBlockReference
  2
SW_NOTE_3
 10
19.2398676829
 20
39.7258670878
 30
0.0
  0
LEADER
  5
184
330
1F
100
AcDbEntity
  8
DIM
100
AcDbLeader
  3
SLDDIMSTYLE2
 76
     2
 10
22.2865488569
 20
34.0821202405
 30
0.0
 10
19.2398676829
 20
39.7258670878
 30
0.0
  0
LINE
  5
185
330
1F
100
AcDbEntity
  8
0
  6
Continuous
 62
     7
370
    30
100
AcDbLine
 10
63.0114472193
 20
28.1012019187
 30
0.0
 11
63.1162940378
 21
28.0406682797
 31
0.0
  0
LINE
  5
186
330
1F
100
AcDbEntity
  8
0
  6
Continuous
 62
     7
370
    30
100
AcDbLine
 10
63.1162940378
 20
28.0406682797
 30
0.0
 11
63.2102387214
 21
28.0949075751
 31
0.0
  0
LINE
  5
187
330
1F
100
AcDbEntity
  8
0
  6
Continuous
 62
     7
370
    30
100
AcDbLine
 10
66.6162941458
 20
30.0613942601
 30
0.0
 11
66.6162941458
 21
30.1796302011
 31
0.0
  0
LINE
  5
188
330
1F
100
AcDbEntity
  8
0
  6
Continuous
 62
     7
370
    30
100
AcDbLine
 10
66.5309205039
 20
30.01210378
 30
0.0
 11
66.6162941458
 21
30.0613942601
 31
0.0
  0
LINE
  5
189
330
1F
100
AcDbEntity
  8
0
  6
Continuous
 62
     7
370
    30
100
AcDbLine
 10
59.6162939297
 20
30.147669073
 30
0.0
 11
59.6162939297
 21
30.0613942601
 31
0.0
  0
LINE
  5
18A
330
1F
100
AcDbEntity
  8
0
  6
Continuous
 62
     7
370
    30
100
AcDbLine
 10
59.6162939297
 20
30.0613942601
 30
0.0
 11
59.712658575
 21
30.0057582136
 31
0.0
  0
LINE
  5
18B
330
1F
100
AcDbEntity
  8
0
  6
Continuous
 62
     7
370
    30
100
AcDbLine
 10
66.6162941458
 20
34.1028462209
 30
0.0
 11
66.5123271143
 21
34.1628715906
 31
0.0
  0
LINE
  5
18C
330
1F
100
AcDbEntity
  8
0
  6
Continuous
 62
     7
370
    30
100
AcDbLine
 10
66.6162941458
 20
33.9867318326
 30
0.0
 11
66.6162941458
 21
34.1028462209
 31
0.0
  0
LINE
  5
18D
330
1F
100
AcDbEntity
  8
0
  6
Continuous
 62
     7
370
    30
100
AcDbLine
 10
59.7204155607
 20
34.1629607647
 30
0.0
 11
59.6162939297
 21
34.1028462209
 31
0.0
  0
LINE
  5
18E
330
1F
100
AcDbEntity
  8
0
  6
Continuous
 62
     7
370
    30
100
AcDbLine
 10
59.6162939297
 20
34.1028462209
 30
0.0
 11
59.6162939297
 21
33.9871187972
 31
0.0
  0
LINE
  5
18F
330
1F
100
AcDbEntity
  8
0
  6
Continuous
 62
     7
370
    30
100
AcDbLine
 10
63.1162940378
 20
36.1235722013
 30
0.0
 11
63.0300207746
 21
36.073762276
 31
0.0
  0
LINE
  5
190
330
1F
100
AcDbEntity
  8
0
  6
Continuous
 62
     7
370
    30
100
AcDbLine
 10
63.2017270151
 20
36.0742474951
 30
0.0
 11
63.1162940378
 21
36.1235722013
 31
0.0
  0
CIRCLE
  5
191
330
1F
100
AcDbEntity
  8
0
  6
Continuous
 62
     7
370
    30
100
AcDbCircle
 10
63.1162940378
 20
32.0821202405
 30
0.0
 40
4.0
  0
CIRCLE
  5
192
330
1F
100
AcDbEntity
  8
0
  6
Continuous
 62
     7
370
    30
100
AcDbCircle
 10
63.1162940378
 20
32.0821202405
 30
0.0
 40
3.5
  0
DIMENSION
  5
193
330
1F
100
AcDbEntity
  8
DIM
100
AcDbDimension
  2
_D_4
 10
60.2962361132
 20
29.2453486066
 30
0.0
 11
70.4756227659
 21
38.9446202341
 31
0.0
 70
   163
  1
<>
 71
     1
 42
-1.0
  3
SLDDIMSTYLE3
100
AcDbDiametricDimension
 15
65.9363519623
 25
34.9188918743
 35
0.0
 40
0.0
  0
INSERT
  5
1A8
330
1F
100
AcDbEntity
  8
DIM
100
AcDbBlockReference
  2
SW_CENTERMARKSYMBOL_0
 10
63.1162940378
 20
32.0821202405
 30
0.0
  0
ARC
  5
1A9
330
1F
100
AcDbEntity
  8
0
  6
Continuous
 62
     7
370
    30
100
AcDbCircle
 10
66.4400342052
 20
58.5316996507
 30
0.0
 40
1.499999999999992
100
AcDbArc
 50
178.5731293735
 51
219.6168600087
  0
ARC
  5
1AA
330
1F
100
AcDbEntity
  8
0
  6
Continuous
 62
     7
370
    30
100
AcDbCircle
 10
66.4400342052
 20
58.5316996507
 30
0.0
 40
1.499999999999997
100
AcDbArc
 50
80.388516524
 51
178.5731293735
  0
LINE
  5
1AB
330
1F
100
AcDbEntity
  8
0
  6
Continuous
 62
     7
370
    30
100
AcDbLine
 10
69.0431190905
 20
53.5649629496
 30
0.0
 11
71.9422568934
 21
51.8913263203
 31
0.0
  0
LINE
  5
1AC
330
1F
100
AcDbEntity
  8
0
  6
Continuous
 62
     7
370
    30
100
AcDbLine
 10
74.7682324189
 20
57.1879409414
 30
0.0
 11
72.0428752884
 21
58.7612561238
 31
0.0
  0
LINE
  5
1AD
330
1F
100
AcDbEntity
  8
0
  6
Continuous
 62
     7
370
    30
100
AcDbLine
 10
70.5426524153
 20
58.6125329061
 30
0.0
 11
70.189156487
 21
58.4083977058
 31
0.0
  0
LINE
  5
1AE
330
1F
100
AcDbEntity
  8
0
  6
Continuous
 62
     7
370
    30
100
AcDbLine
 10
68.4216768459
 20
55.3467014249
 30
0.0
 11
68.4216768459
 21
54.938497369
 31
0.0
  0
LINE
  5
1AF
330
1F
100
AcDbEntity
  8
0
  6
Continuous
 62
     7
370
    30
100
AcDbLine
 10
87.6536973398
 20
43.0196801475
 30
0.0
 11
88.007193268
 21
43.2238153477
 31
0.0
  0
LINE
  5
1B0
330
1F
100
AcDbEntity
  8
0
  6
Continuous
 62
     7
370
    30
100
AcDbLine
 10
90.4816647656
 20
47.510190141
 30
0.0
 11
90.4816647656
 21
47.918394197
 31
0.0
  0
LINE
  5
1B1
330
1F
100
AcDbEntity
  8
0
  6
Continuous
 62
     7
370
    30
100
AcDbLine
 10
77.8752255825
 20
47.3116271388
 30
0.0
 11
85.6534001755
 21
42.8213825238
 31
0.0
  0
LINE
  5
1B2
330
1F
100
AcDbEntity
  8
0
  6
Continuous
 62
     7
370
    30
100
AcDbLine
 10
89.6530751061
 20
49.7497734228
 30
0.0
 11
81.874900513
 21
54.2400180379
 31
0.0
  0
LINE
  5
1B3
330
1F
100
AcDbEntity
  8
0
  6
Continuous
 62
     7
370
    30
100
AcDbLine
 10
79.8746033488
 20
54.0417204142
 30
0.0
 11
79.5211074206
 21
53.8375852139
 31
0.0
  0
LINE
  5
1B4
330
1F
100
AcDbEntity
  8
0
  6
Continuous
 62
     7
370
    30
100
AcDbLine
 10
77.046635923
 20
49.5512104206
 30
0.0
 11
77.046635923
 21
49.1430063647
 31
0.0
  0
LINE
  5
1B5
330
1F
100
AcDbEntity
  8
0
  6
Continuous
 62
     7
370
    30
100
AcDbLine
 10
66.0765115757
 20
56.4322182756
 30
0.0
 11
68.4216768459
 21
55.0783831822
 31
0.0
  0
LINE
  5
1B6
330
1F
100
AcDbEntity
  8
0
  6
Continuous
 62
     7
370
    30
100
AcDbLine
 10
74.8463793157
 20
51.3694813926
 30
0.0
 11
77.085333561
 21
50.0769606189
 31
0.0
  0
LINE
  5
1B7
330
1F
100
AcDbEntity
  8
0
  6
Continuous
 62
     7
370
    30
100
AcDbLine
 10
79.0851710263
 20
53.5411560684
 30
0.0
 11
76.846216781
 21
54.8336768421
 31
0.0
  0
LINE
  5
1B8
330
1F
100
AcDbEntity
  8
0
  6
Continuous
 62
     7
370
    30
100
AcDbLine
 10
70.4215143112
 20
58.5425786318
 30
0.0
 11
68.0763490409
 21
59.8964137251
 31
0.0
  0
LINE
  5
1B9
330
1F
100
AcDbEntity
  8
0
  6
Continuous
 62
     7
370
    30
100
AcDbLine
 10
67.7526232043
 20
59.9889821945
 30
0.0
 11
66.9102778439
 21
60.0322530116
 31
0.0
  0
LINE
  5
1BA
330
1F
100
AcDbEntity
  8
0
  6
Continuous
 62
     7
370
    30
100
AcDbLine
 10
65.3757473185
 20
57.3740801572
 30
0.0
 11
65.8344600475
 21
56.6662661266
 31
0.0
  0
SPLINE
  5
1BB
330
1F
100
AcDbEntity
  8
0
  6
Continuous
 62
     7
370
    30
100
AcDbSpline
210
0.0
220
0.0
230
1.0
 70
     8
 71
     3
 72
     9
 73
     5
 74
     0
 42
0.000000001
 43
0.00000001
 40
0.0
 40
0.0
 40
0.0
 40
0.0
 40
0.4987908233251049
 40
1.0
 40
1.0
 40
1.0
 40
1.0
 10
74.60886118130449
 20
54.86222982163581
 30
0.0
 10
74.39734348677577
 20
54.60826492269834
 30
0.0
 10
73.97328256857628
 20
54.09910379330052
 30
0.0
 10
73.50402988544151
 20
53.62148162992715
 30
0.0
 10
73.26883613447505
 20
53.38209301866111
 30
0.0
  0
LINE
  5
1BC
330
1F
100
AcDbEntity
  8
0
  6
Continuous
 62
     7
370
    30
100
AcDbLine
 10
73.2688361345
 20
53.3820930187
 30
0.0
 11
71.9572107519
 21
54.1392782349
 31
0.0
  0
LINE
  5
1BD
330
1F
100
AcDbEntity
  8
0
  6
Continuous
 62
     7
370
    30
100
AcDbLine
 10
74.432084486
 20
57.217997632
 30
0.0
 11
71.9572107519
 21
54.1392782349
 31
0.0
  0
LINE
  5
1BE
330
1F
100
AcDbEntity
  8
0
  6
Continuous
 62
     7
370
    30
100
AcDbLine
 10
75.7437098686
 20
56.4608124158
 30
0.0
 11
74.432084486
 21
57.217997632
 31
0.0
  0
SPLINE
  5
1BF
330
1F
100
AcDbEntity
  8
0
  6
Continuous
 62
     7
370
    30
100
AcDbSpline
210
0.0
220
0.0
230
1.0
 70
     8
 71
     3
 72
     9
 73
     5
 74
     0
 42
0.000000001
 43
0.00000001
 40
0.0
 40
0.0
 40
0.0
 40
0.0
 40
0.4989631660071376
 40
1.0
 40
1.0
 40
1.0
 40
1.0
 10
75.74370986862797
 20
56.46081241576377
 30
0.0
 10
75.56773405765749
 20
56.18892361427611
 30
0.0
 10
75.21505108833392
 20
55.64401605393772
 30
0.0
 10
74.81120363216131
 20
55.12318524246303
 30
0.0
 10
74.60886118130449
 20
54.86222982163581
 30
0.0
  0
ARC
  5
1C0
330
1F
100
AcDbEntity
  8
0
  6
Continuous
 62
     7
370
    30
100
AcDbCircle
 10
77.2908288769
 20
53.0743150049
 30
0.0
 40
3.223288710659491
100
AcDbArc
 50
93.6837496428
 51
146.3108738245
  0
ARC
  5
1C1
330
1F
100
AcDbEntity
  8
0
  6
Continuous
 62
     7
370
    30
100
AcDbCircle
 10
76.8067035891
 20
54.7810595062
 30
0.0
 40
1.535088789806522
100
AcDbArc
 50
350.5982468767
 51
79.603096116
  0
LWPOLYLINE
  5
1C2
330
1F
100
AcDbEntity
  8
0
  6
Continuous
 62
     7
370
    30
100
AcDbPolyline
 90
        3
 70
   128
 43
0.0
 10
78.3211717825
 20
54.5302933131
 10
78.3044375717
 20
54.1888517505
 10
78.2824741445
 20
54.0045431148
  0
ARC
  5
1C3
330
1F
100
AcDbEntity
  8
0
  6
Continuous
 62
     7
370
    30
100
AcDbCircle
 10
74.5725767029
 20
52.5530067107
 30
0.0
 40
2.641041755866
100
AcDbArc
 50
270.7871942494
 51
310.3529622003
  0
ARC
  5
1C4
330
1F
100
AcDbEntity
  8
0
  6
Continuous
 62
     7
370
    30
100
AcDbCircle
 10
74.8858925077
 20
51.4220987285
 30
0.0
 40
1.535088789806536
100
AcDbArc
 50
170.5982468767
 51
259.603096116
  0
ARC
  5
1C5
330
1F
100
AcDbEntity
  8
0
  6
Continuous
 62
     7
370
    30
100
AcDbCircle
 10
78.7106821351
 20
51.4360324294
 30
0.0
 40
5.344507807797902
100
AcDbArc
 50
140.1284339438
 51
177.4602063159
  0
SPLINE
  5
1C6
330
1F
100
AcDbEntity
  8
0
  6
Continuous
 62
     7
370
    30
100
AcDbSpline
210
0.0
220
0.0
230
1.0
 70
     8
 71
     3
 72
    10
 73
     6
 74
     0
 42
0.000000001
 43
0.00000001
 40
0.0
 40
0.0
 40
0.0
 40
0.0
 40
0.2516058207312719
 40
0.6252967008830667
 40
1.0
 40
1.0
 40
1.0
 40
1.0
 10
73.26883613447505
 20
53.38209301866111
 30
0.0
 10
73.28386429148652
 20
53.2356773215433
 30
0.0
 10
73.32121262060039
 20
52.87180158886285
 30
0.0
 10
73.36213059858275
 20
52.29798480113269
 30
0.0
 10
73.36832361639871
 20
51.88142605343934
 30
0.0
 10
73.37142431422802
 20
51.67286492167153
 30
0.0
  0
SPLINE
  5
1C7
330
1F
100
AcDbEntity
  8
0
  6
Continuous
 62
     7
370
    30
100
AcDbSpline
210
0.0
220
0.0
230
1.0
 70
     8
 71
     3
 72
     9
 73
     5
 74
     0
 42
0.000000001
 43
0.00000001
 40
0.0
 40
0.0
 40
0.0
 40
0.0
 40
0.498790823325105
 40
1.0
 40
1.0
 40
1.0
 40
1.0
 10
77.08373491545741
 20
56.29094401732554
 30
0.0
 10
76.87221722092869
 20
56.31231090548005
 30
0.0
 10
76.4481563027292
 20
56.35514827769164
 30
0.0
 10
75.97890361959443
 20
56.42553429698454
 30
0.0
 10
75.74370986862797
 20
56.46081241576377
 30
0.0
  0
SPLINE
  5
1C8
330
1F
100
AcDbEntity
  8
0
  6
Continuous
 62
     7
370
    30
100
AcDbSpline
210
0.0
220
0.0
230
1.0
 70
     8
 71
     3
 72
     9
 73
     5
 74
     0
 42
0.000000001
 43
0.00000001
 40
0.0
 40
0.0
 40
0.0
 40
0.0
 40
0.4987908233251051
 40
1.0
 40
1.0
 40
1.0
 40
1.0
 10
73.37142431422802
 20
51.67286492167153
 30
0.0
 10
73.36639427424362
 20
51.40043691485387
 30
0.0
 10
73.35630980646835
 20
50.85426005257404
 30
0.0
 10
73.29804099666327
 20
50.33988973780607
 30
0.0
 10
73.26883613447505
 20
50.08208261583521
 30
0.0
  0
LINE
  5
1C9
330
1F
100
AcDbEntity
  8
0
  6
Continuous
 62
     7
370
    30
100
AcDbLine
 10
73.2688361345
 20
50.0820826158
 30
0.0
 11
71.9572107519
 21
50.8392678321
 31
0.0
  0
LINE
  5
1CA
330
1F
100
AcDbEntity
  8
0
  6
Continuous
 62
     7
370
    30
100
AcDbLine
 10
71.9572107519
 20
54.1392782349
 30
0.0
 11
71.9572107519
 21
50.8392678321
 31
0.0
  0
LINE
  5
1CB
330
1F
100
AcDbEntity
  8
0
  6
Continuous
 62
     7
370
    30
100
AcDbLine
 10
78.2185836028
 20
56.23952141
 30
0.0
 11
76.9069582202
 21
56.9967066263
 31
0.0
  0
SPLINE
  5
1CC
330
1F
100
AcDbEntity
  8
0
  6
Continuous
 62
     7
370
    30
100
AcDbSpline
210
0.0
220
0.0
230
1.0
 70
     8
 71
     3
 72
     9
 73
     5
 74
     0
 42
0.000000001
 43
0.00000001
 40
0.0
 40
0.0
 40
0.0
 40
0.0
 40
0.4989631660071376
 40
1.0
 40
1.0
 40
1.0
 40
1.0
 10
78.2185836027809
 20
56.23952141004055
 30
0.0
 10
78.04260779181041
 20
56.24106526743513
 30
0.0
 10
77.68992482248684
 20
56.24415939842464
 30
0.0
 10
77.28607736631422
 20
56.27532760019118
 30
0.0
 10
77.08373491545741
 20
56.29094401732554
 30
0.0
  0
LINE
  5
1CD
330
1F
100
AcDbEntity
  8
0
  6
Continuous
 62
     7
370
    30
100
AcDbLine
 10
76.9069582202
 20
56.9967066263
 30
0.0
 11
74.432084486
 21
57.217997632
 31
0.0
  0
SPLINE
  5
1CE
330
1F
100
AcDbEntity
  8
0
  6
Continuous
 62
     7
370
    30
100
AcDbSpline
210
0.0
220
0.0
230
1.0
 70
     8
 71
     3
 72
     9
 73
     5
 74
     0
 42
0.000000001
 43
0.00000001
 40
0.0
 40
0.0
 40
0.0
 40
0.0
 40
0.4989631660071376
 40
1.0
 40
1.0
 40
1.0
 40
1.0
 10
73.26883613447505
 20
50.08208261583521
 30
0.0
 10
73.50298709458853
 20
50.04695495969164
 30
0.0
 10
73.97226213544424
 20
49.97655365848001
 30
0.0
 10
74.39636834752622
 20
49.93369032586487
 30
0.0
 10
74.60886118130449
 20
49.91221421739699
 30
0.0
  0
LWPOLYLINE
  5
1CF
330
1F
100
AcDbEntity
  8
0
  6
Continuous
 62
     7
370
    30
100
AcDbPolyline
 90
       26
 70
   128
 43
0.0
 10
71.9572107519
 20
51.8828640599
 10
71.8957590132
 20
51.9198871075
 10
71.7259507839
 20
52.0588889109
 10
71.5832078048
 20
52.2362224759
 10
71.4697812179
 20
52.4490911462
 10
71.3874598282
 20
52.6941378558
 10
71.3375418933
 20
52.9674980716
 10
71.3208146488
 20
53.2648607397
 10
71.3375418933
 20
53.5815362733
 10
71.3874598282
 20
53.91253051
 10
71.4697812179
 20
54.2526234729
 10
71.5832078048
 20
54.596451693
 10
71.7259507839
 20
54.9385927936
 10
71.8957590132
 20
55.2736510054
 10
72.0899545154
 20
55.5963422601
 10
72.3054747115
 20
55.9015775239
 10
72.5389207193
 20
56.1845430544
 10
72.7866109557
 20
56.440776316
 10
73.0446391977
 20
56.6662363573
 10
73.3089361859
 20
56.8573675386
 10
73.5753337988
 20
57.011155607
 10
73.839630787
 20
57.125175233
 10
74.097659029
 20
57.1976282587
 10
74.3453492654
 20
57.2273720568
 10
74.5787952732
 20
57.2139375498
 10
74.6642406754
 20
57.1972393703
  0
ARC
  5
1D0
330
1F
100
AcDbEntity
  8
0
  6
Continuous
 62
     7
370
    30
100
AcDbCircle
 10
75.4745049644
 20
53.3636696351
 30
0.0
 40
3.62316787317785
100
AcDbArc
 50
114.1722005867
 51
193.8851518008
  0
ARC
  5
1D1
330
1F
100
AcDbEntity
  8
0
  6
Continuous
 62
     7
370
    30
100
AcDbCircle
 10
69.8551815346
 20
54.7597226273
 30
0.0
 40
1.444609324589153
100
AcDbArc
 50
172.8912510322
 51
235.7965685744
  0
LWPOLYLINE
  5
1D2
330
1F
100
AcDbEntity
  8
0
  6
Continuous
 62
     7
370
    30
100
AcDbPolyline
 90
       20
 70
   128
 43
0.0
 10
72.0428752884
 20
58.7612561238
 10
71.8951776664
 20
58.831173237
 10
71.6796574703
 20
58.887574179
 10
71.4462114625
 20
58.901008686
 10
71.1985212262
 20
58.8712648879
 10
70.9404929841
 20
58.7988118622
 10
70.6761959959
 20
58.6847922363
 10
70.409798383
 20
58.5310041678
 10
70.1455013948
 20
58.3398729865
 10
69.8874731528
 20
58.1144129452
 10
69.6397829164
 20
57.8581796836
 10
69.4063369087
 20
57.5752141531
 10
69.1908167126
 20
57.2699788893
 10
68.9966212103
 20
56.9472876346
 10
68.826812981
 20
56.6122294228
 10
68.6840700019
 20
56.2700883222
 10
68.570643415
 20
55.9262601022
 10
68.4883220254
 20
55.5861671392
 10
68.4384040904
 20
55.2551729026
 10
68.4216768459
 20
54.938497369
  0
SPLINE
  5
1D3
330
1F
100
AcDbEntity
  8
0
  6
Continuous
 62
     7
370
    30
100
AcDbSpline
210
0.0
220
0.0
230
1.0
 70
     8
 71
     3
 72
    10
 73
     6
 74
     0
 42
0.000000001
 43
0.00000001
 40
0.0
 40
0.0
 40
0.0
 40
0.0
 40
0.3736422104703845
 40
0.7483941971079628
 40
1.0
 40
1.0
 40
1.0
 40
1.0
 10
78.32117178253387
 20
54.53029331305099
 30
0.0
 10
78.31808761656491
 20
54.73825921864217
 30
0.0
 10
78.31191012416866
 20
55.15480872129287
 30
0.0
 10
78.27102337563024
 20
55.72861258888882
 30
0.0
 10
78.23361173295066
 20
56.09310574399233
 30
0.0
 10
78.2185836027809
 20
56.23952141004055
 30
0.0
  0
LINE
  5
1D4
330
1F
100
AcDbEntity
  8
0
  6
Continuous
 62
     7
370
    30
100
AcDbLine
 10
75.7437098686
 20
49.8607916101
 30
0.0
 11
76.3541260158
 21
50.4990777497
 31
0.0
  0
SPLINE
  5
1D5
330
1F
100
AcDbEntity
  8
0
  6
Continuous
 62
     7
370
    30
100
AcDbSpline
210
0.0
220
0.0
230
1.0
 70
     8
 71
     3
 72
     9
 73
     5
 74
     0
 42
0.000000001
 43
0.00000001
 40
0.0
 40
0.0
 40
0.0
 40
0.0
 40
0.498790823325105
 40
1.0
 40
1.0
 40
1.0
 40
1.0
 10
74.60886118130449
 20
49.91221421739699
 30
0.0
 10
74.81031879586438
 20
49.89665488979109
 30
0.0
 10
75.21421077851335
 20
49.86546079623866
 30
0.0
 10
75.56692584203796
 20
49.86235051274238
 30
0.0
 10
75.74370986862797
 20
49.860791610112
 30
0.0
  0
ARC
  5
1D6
330
1F
100
AcDbEntity
  8
0
  6
Continuous
 62
     7
370
    30
100
AcDbCircle
 10
72.253549005
 20
55.1756289927
 30
0.0
 40
3.835688988987102
100
AcDbArc
 50
122.5616267537
 51
177.443749779
  0
LINE
  5
1D7
330
1F
100
AcDbEntity
  8
0
  6
Continuous
 62
     7
370
    30
100
AcDbLine
 10
78.3031048338
 20
53.9926332713
 30
0.0
 11
78.3211717825
 21
54.5302933131
 31
0.0
  0
LWPOLYLINE
  5
1D8
330
1F
100
AcDbEntity
  8
0
  6
Continuous
 62
     7
370
    30
100
AcDbPolyline
 90
       46
 70
   128
 43
0.0
 10
87.6536973398
 20
43.0196801475
 10
87.5001096833
 20
42.9358059473
 10
87.1956490535
 20
42.798281185
 10
86.8965532315
 20
42.7016417891
 10
86.6063288424
 20
42.6470207682
 10
86.3283785017
 20
42.6350585037
 10
86.0659609231
 20
42.6658952423
 10
85.8221527128
 20
42.7391694514
 10
85.599812299
 20
42.8540220579
 10
85.40154642
 20
43.0091065201
 10
85.2296795617
 20
43.2026046143
 10
85.0862267061
 20
43.4322477523
 10
84.9728697066
 20
43.6953435784
 10
84.8909375705
 20
43.9888075345
 10
84.8413908771
 20
44.309199024
 10
84.8248105161
 20
44.6527617497
 10
84.8413908771
 20
45.0154677527
 10
84.8909375705
 20
45.3930646367
 10
84.9728697066
 20
45.7811254236
 10
85.0862267061
 20
46.1751004555
 10
85.2296795617
 20
46.5703707352
 10
85.40154642
 20
46.9623020801
 10
85.599812299
 20
47.3462994537
 10
85.8221527128
 20
47.7178608377
 10
86.0659609231
 20
48.0726300147
 10
86.3283785017
 20
48.4064476404
 10
86.6063288424
 20
48.7154000084
 10
86.8965532315
 20
48.9958649346
 10
87.1956490535
 20
49.2445542243
 10
87.5001096833
 20
49.4585522228
 10
87.8063655984
 20
49.6353499993
 10
88.1108262282
 20
49.7728747616
 10
88.4099220502
 20
49.8695141575
 10
88.7001464393
 20
49.9241351784
 10
88.97809678
 20
49.9360974429
 10
89.2405143585
 20
49.9052607043
 10
89.4843225689
 20
49.8319864952
 10
89.7066629826
 20
49.7171338887
 10
89.9049288617
 20
49.5620494266
 10
90.0767957199
 20
49.3685513323
 10
90.2202485756
 20
49.1389081943
 10
90.333605575
 20
48.8758123682
 10
90.4155377112
 20
48.5823484121
 10
90.4650844046
 20
48.2619569226
 10
90.4816647656
 20
47.918394197
 10
90.4816647656
 20
47.918394197
  0
LWPOLYLINE
  5
1D9
330
1F
100
AcDbEntity
  8
0
  6
Continuous
 62
     7
370
    30
100
AcDbPolyline
 90
       56
 70
   128
 43
0.0
 10
90.4816647656
 20
47.510190141
 10
90.4655328836
 20
47.8266526381
 10
90.4173475414
 20
48.1203640881
 10
90.3377369086
 20
48.3874955131
 10
90.2277388317
 20
48.6245644464
 10
90.0887873036
 20
48.828480332
 10
89.9226937701
 20
48.9965848143
 10
89.7316235144
 20
49.1266863945
 10
89.5180674295
 20
49.2170889994
 10
89.2848095456
 20
49.2666140929
 10
89.0348907359
 20
49.2746160395
 10
88.7715690742
 20
49.2409905218
 10
88.4982773612
 20
49.1661758997
 10
88.2185783722
 20
49.0511474963
 10
87.9361184114
 20
48.8974048826
 10
87.6545797762
 20
48.7069523289
 10
87.3776327534
 20
48.4822726753
 10
87.1088877709
 20
48.2262949648
 10
86.8518483306
 20
47.9423562584
 10
86.6098653346
 20
47.6341581312
 10
86.3860934014
 20
47.3057184172
 10
86.1834497404
 20
46.9613188303
 10
86.0045761215
 20
46.6054491459
 10
85.851804436
 20
46.2427486695
 10
85.7271262964
 20
45.8779457565
 10
85.6321670729
 20
45.5157961707
 10
85.5681647042
 20
45.161021086
 10
85.5359535591
 20
44.8182455379
 10
85.5359535591
 20
44.4919381301
 10
85.5681647042
 20
44.1863527786
 10
85.6321670729
 20
43.9054732558
 10
85.7271262964
 20
43.6529612559
 10
85.851804436
 20
43.4321086588
 10
86.0045761216
 20
43.245794616
 10
86.1834497404
 20
43.096448016
 10
86.3860934014
 20
42.98601582
 10
86.6098653346
 20
42.9159376806
 10
86.8518483306
 20
42.8871271736
 10
87.1088877709
 20
42.899959888
 10
87.3776327534
 20
42.9542685297
 10
87.6545797762
 20
43.0493451024
 10
87.9361184114
 20
43.1839501378
 10
88.2185783722
 20
43.3563288533
 10
88.4982773612
 20
43.5642340287
 10
88.7715690742
 20
43.8049553021
 10
89.0348907359
 20
44.0753545035
 10
89.2848095456
 20
44.3719065659
 10
89.5180674295
 20
44.6907454797
 10
89.7316235144
 20
45.0277146919
 10
89.9226937701
 20
45.3784212936
 10
90.0887873036
 20
45.7382932878
 10
90.2277388317
 20
46.1026391928
 10
90.3377369086
 20
46.4667092025
 10
90.4173475414
 20
46.8257571076
 10
90.4655328836
 20
47.1751021695
 10
90.4816647656
 20
47.510190141
  0
ARC
  5
1DA
330
1F
100
AcDbEntity
  8
0
  6
Continuous
 62
     7
370
    30
100
AcDbCircle
 10
79.0136519253
 20
48.9298302942
 30
0.0
 40
1.978533798057577
100
AcDbArc
 50
173.814689737
 51
234.8731298696
  0
LWPOLYLINE
  5
1DB
330
1F
100
AcDbEntity
  8
0
  6
Continuous
 62
     7
370
    30
100
AcDbPolyline
 90
       23
 70
   128
 43
0.0
 10
81.874900513
 20
54.2400180379
 10
81.7061479758
 20
54.3222311102
 10
81.4623397655
 20
54.3955053193
 10
81.1999221869
 20
54.4263420579
 10
80.9219718462
 20
54.4143797935
 10
80.6317474571
 20
54.3597587725
 10
80.3326516351
 20
54.2631193766
 10
80.0281910053
 20
54.1255946144
 10
79.7219350902
 20
53.9487968378
 10
79.4174744604
 20
53.7347988393
 10
79.1183786384
 20
53.4861095496
 10
78.8281542493
 20
53.2056446234
 10
78.5502039086
 20
52.8966922554
 10
78.28778633
 20
52.5628746297
 10
78.0439781197
 20
52.2081054527
 10
77.821637706
 20
51.8365440687
 10
77.6233718269
 20
51.4525466951
 10
77.4515049687
 20
51.0606153502
 10
77.308052113
 20
50.6653450705
 10
77.1946951135
 20
50.2713700387
 10
77.1127629774
 20
49.8833092518
 10
77.063216284
 20
49.5057123677
 10
77.046635923
 20
49.1430063647
  0
ARC
  5
1DC
330
1F
100
AcDbEntity
  8
0
  6
Continuous
 62
     7
370
    30
100
AcDbCircle
 10
82.3889441187
 20
49.3245899364
 30
0.0
 40
5.3471126509288
100
AcDbArc
 50
122.434404763
 51
177.5709717697
  0
LWPOLYLINE
  5
1DD
330
1F
100
AcDbEntity
  8
0
  6
Continuous
 62
     7
370
    30
100
AcDbPolyline
 90
       22
 70
   128
 43
0.0
 10
66.0765115757
 20
56.4322182756
 10
65.985379847
 20
56.4954301349
 10
65.8608153123
 20
56.6280211857
 10
65.7647437628
 20
56.7966216848
 10
65.6994170342
 20
56.9972797795
 10
65.6663663297
 20
57.2252922141
 10
65.6663663297
 20
57.4753145703
 10
65.6994170342
 20
57.7414865361
 10
65.7647437628
 20
58.0175692662
 10
65.8608153123
 20
58.2970916153
 10
65.985379847
 20
58.5735018166
 10
66.1355176797
 20
58.8403210491
 10
66.307709707
 20
59.0912952962
 10
66.4979198937
 20
59.3205419343
 10
66.7016898741
 20
59.5226876165
 10
66.9142434527
 20
59.6929942193
 10
67.1305985538
 20
59.8274699004
 10
67.345683997
 20
59.9229626636
 10
67.554458362
 20
59.9772342395
 10
67.7520281546
 20
59.9890125486
 10
67.9337625063
 20
59.958021517
 10
68.0763490409
 20
59.8964137251
  0
ARC
  5
1DE
330
1F
100
AcDbEntity
  8
0
  6
Continuous
 62
     7
370
    30
100
AcDbCircle
 10
67.2770090097
 20
58.0485243807
 30
0.0
 40
2.017342566127253
100
AcDbArc
 50
100.4739951735
 51
199.5313813592
  0
ARC
  5
1DF
330
1F
100
AcDbEntity
  8
0
  6
Continuous
 62
     8
370
    30
100
AcDbCircle
 10
75.9193311766
 20
53.0672794445
 30
0.0
 40
3.970990985288011
100
AcDbArc
 50
122.4309548461
 51
159.9799019574
  0
ARC
  5
1E0
330
1F
100
AcDbEntity
  8
0
  6
Continuous
 62
     8
370
    30
100
AcDbCircle
 10
74.3926029206
 20
53.2380476828
 30
0.0
 40
2.447534225953011
100
AcDbArc
 50
174.2904867415
 51
185.7095132585
  0
ENDSEC
  0
SECTION
  2
OBJECTS
  0
DICTIONARY
  5
C
330
0
100
AcDbDictionary
281
     1
  3
ACAD_GROUP
350
D
  3
ACAD_LAYOUT
350
1A
  3
ACAD_MLINESTYLE
350
17
  3
ACAD_PLOTSETTINGS
350
19
  3
ACAD_PLOTSTYLENAME
350
E
  3
ACAD_SCALELIST
350
47
  0
DICTIONARY
  5
D
102
{ACAD_REACTORS
330
C
102
}
330
C
100
AcDbDictionary
281
     1
  0
DICTIONARY
  5
1A
102
{ACAD_REACTORS
330
C
102
}
330
C
100
AcDbDictionary
281
     1
  3
Layout1
350
1E
  3
Layout2
350
26
  3
Model
350
22
  0
DICTIONARY
  5
17
102
{ACAD_REACTORS
330
C
102
}
330
C
100
AcDbDictionary
281
     1
  3
Standard
350
18
  0
DICTIONARY
  5
19
102
{ACAD_REACTORS
330
C
102
}
330
C
100
AcDbDictionary
281
     1
  0
ACDBDICTIONARYWDFLT
  5
E
102
{ACAD_REACTORS
330
C
102
}
330
C
100
AcDbDictionary
281
     1
  3
Normal
350
F
100
AcDbDictionaryWithDefault
340
F
  0
DICTIONARY
  5
47
102
{ACAD_REACTORS
330
C
102
}
330
C
100
AcDbDictionary
281
     1
  3
A0
350
48
  3
A1
350
49
  3
A2
350
4A
  3
A3
350
4B
  3
A4
350
4C
  3
A5
350
4D
  3
A6
350
4E
  3
A7
350
4F
  3
A8
350
50
  3
A9
350
51
  3
B0
350
52
  3
B1
350
53
  3
B2
350
54
  3
B3
350
55
  3
B4
350
56
  3
B5
350
57
  3
B6
350
58
  3
B7
350
59
  3
B8
350
5A
  3
B9
350
5B
  3
C0
350
5C
  3
C1
350
5D
  3
C2
350
5E
  3
C3
350
5F
  3
C4
350
60
  3
C5
350
61
  3
C6
350
62
  3
C7
350
63
  3
C8
350
64
  3
C9
350
65
  3
D0
350
66
  3
D1
350
67
  3
D2
350
68
  0
LAYOUT
  5
1E
102
{ACAD_REACTORS
330
1A
102
}
330
1A
100
AcDbPlotSettings
  1

  2
none_device
  4

  6

 40
0.0
 41
0.0
 42
0.0
 43
0.0
 44
0.0
 45
0.0
 46
0.0
 47
0.0
 48
0.0
 49
0.0
140
0.0
141
0.0
142
1.0
143
1.0
 70
   688
 72
     1
 73
     0
 74
     5
  7

 75
    16
147
1.0
148
0.0
149
0.0
100
AcDbLayout
  1
Layout1
 70
     1
 71
     1
 10
0.0
 20
0.0
 11
420.0
 21
297.0
 12
0.0
 22
0.0
 32
0.0
 14
1.0000000000E+20
 24
1.0000000000E+20
 34
1.0000000000E+20
 15
-1.0000000000E+20
 25
-1.0000000000E+20
 35
-1.0000000000E+20
146
0.0
 13
0.0
 23
0.0
 33
0.0
 16
1.0
 26
0.0
 36
0.0
 17
0.0
 27
1.0
 37
0.0
 76
     0
330
1B
  0
LAYOUT
  5
26
102
{ACAD_REACTORS
330
1A
102
}
330
1A
100
AcDbPlotSettings
  1

  2
none_device
  4

  6

 40
0.0
 41
0.0
 42
0.0
 43
0.0
 44
0.0
 45
0.0
 46
0.0
 47
0.0
 48
0.0
 49
0.0
140
0.0
141
0.0
142
1.0
143
1.0
 70
   688
 72
     1
 73
     0
 74
     5
  7

 75
    16
147
1.0
148
0.0
149
0.0
100
AcDbLayout
  1
Layout2
 70
     1
 71
     2
 10
0.0
 20
0.0
 11
0.0
 21
0.0
 12
0.0
 22
0.0
 32
0.0
 14
0.0
 24
0.0
 34
0.0
 15
0.0
 25
0.0
 35
0.0
146
0.0
 13
0.0
 23
0.0
 33
0.0
 16
1.0
 26
0.0
 36
0.0
 17
0.0
 27
1.0
 37
0.0
 76
     0
330
23
  0
LAYOUT
  5
22
102
{ACAD_REACTORS
330
1A
102
}
330
1A
100
AcDbPlotSettings
  1

  2
none_device
  4
Letter_(8.50_x_11.00_Inches)
  6

 40
6.35
 41
6.35
 42
6.35000508
 43
6.35000508
 44
215.9
 45
279.4
 46
0.0
 47
0.0
 48
0.0
 49
0.0
140
0.0
141
0.0
142
1.0
143
1.0
 70
  1712
 72
     1
 73
     0
 74
     0
  7

 75
     0
147
1.0
148
0.0
149
0.0
100
AcDbLayout
  1
Model
 70
     1
 71
     0
 10
0.0
 20
0.0
 11
99.0
 21
70.0
 12
0.0
 22
0.0
 32
0.0
 14
0.0
 24
0.0
 34
0.0
 15
99.0
 25
70.0
 35
0.0
146
0.0
 13
0.0
 23
0.0
 33
0.0
 16
1.0
 26
0.0
 36
0.0
 17
0.0
 27
1.0
 37
0.0
 76
     0
330
1F
331
29
  0
MLINESTYLE
  5
18
102
{ACAD_REACTORS
330
17
102
}
330
17
100
AcDbMlineStyle
  2
Standard
 70
     0
  3

 62
   256
 51
90.0
 52
90.0
 71
     2
 49
0.5
 62
   256
  6
BYLAYER
 49
-0.5
 62
   256
  6
BYLAYER
  0
ACDBPLACEHOLDER
  5
F
102
{ACAD_REACTORS
330
E
102
}
330
E
  0
SCALE
  5
48
102
{ACAD_REACTORS
330
47
102
}
330
47
100
AcDbScale
 70
     0
300
1:1
140
1.0
141
1.0
290
     1
  0
SCALE
  5
49
102
{ACAD_REACTORS
330
47
102
}
330
47
100
AcDbScale
 70
     0
300
1:2
140
1.0
141
2.0
290
     0
  0
SCALE
  5
4A
102
{ACAD_REACTORS
330
47
102
}
330
47
100
AcDbScale
 70
     0
300
1:4
140
1.0
141
4.0
290
     0
  0
SCALE
  5
4B
102
{ACAD_REACTORS
330
47
102
}
330
47
100
AcDbScale
 70
     0
300
1:5
140
1.0
141
5.0
290
     0
  0
SCALE
  5
4C
102
{ACAD_REACTORS
330
47
102
}
330
47
100
AcDbScale
 70
     0
300
1:8
140
1.0
141
8.0
290
     0
  0
SCALE
  5
4D
102
{ACAD_REACTORS
330
47
102
}
330
47
100
AcDbScale
 70
     0
300
1:10
140
1.0
141
10.0
290
     0
  0
SCALE
  5
4E
102
{ACAD_REACTORS
330
47
102
}
330
47
100
AcDbScale
 70
     0
300
1:16
140
1.0
141
16.0
290
     0
  0
SCALE
  5
4F
102
{ACAD_REACTORS
330
47
102
}
330
47
100
AcDbScale
 70
     0
300
1:20
140
1.0
141
20.0
290
     0
  0
SCALE
  5
50
102
{ACAD_REACTORS
330
47
102
}
330
47
100
AcDbScale
 70
     0
300
1:30
140
1.0
141
30.0
290
     0
  0
SCALE
  5
51
102
{ACAD_REACTORS
330
47
102
}
330
47
100
AcDbScale
 70
     0
300
1:40
140
1.0
141
40.0
290
     0
  0
SCALE
  5
52
102
{ACAD_REACTORS
330
47
102
}
330
47
100
AcDbScale
 70
     0
300
1:50
140
1.0
141
50.0
290
     0
  0
SCALE
  5
53
102
{ACAD_REACTORS
330
47
102
}
330
47
100
AcDbScale
 70
     0
300
1:100
140
1.0
141
100.0
290
     0
  0
SCALE
  5
54
102
{ACAD_REACTORS
330
47
102
}
330
47
100
AcDbScale
 70
     0
300
2:1
140
2.0
141
1.0
290
     0
  0
SCALE
  5
55
102
{ACAD_REACTORS
330
47
102
}
330
47
100
AcDbScale
 70
     0
300
4:1
140
4.0
141
1.0
290
     0
  0
SCALE
  5
56
102
{ACAD_REACTORS
330
47
102
}
330
47
100
AcDbScale
 70
     0
300
8:1
140
8.0
141
1.0
290
     0
  0
SCALE
  5
57
102
{ACAD_REACTORS
330
47
102
}
330
47
100
AcDbScale
 70
     0
300
10:1
140
10.0
141
1.0
290
     0
  0
SCALE
  5
58
102
{ACAD_REACTORS
330
47
102
}
330
47
100
AcDbScale
 70
     0
300
100:1
140
100.0
141
1.0
290
     0
  0
SCALE
  5
59
102
{ACAD_REACTORS
330
47
102
}
330
47
100
AcDbScale
 70
     0
300
1/128" = 1'-0"
140
0.0078125
141
12.0
290
     0
  0
SCALE
  5
5A
102
{ACAD_REACTORS
330
47
102
}
330
47
100
AcDbScale
 70
     0
300
1/64" = 1'-0"
140
0.015625
141
12.0
290
     0
  0
SCALE
  5
5B
102
{ACAD_REACTORS
330
47
102
}
330
47
100
AcDbScale
 70
     0
300
1/32" = 1'-0"
140
0.03125
141
12.0
290
     0
  0
SCALE
  5
5C
102
{ACAD_REACTORS
330
47
102
}
330
47
100
AcDbScale
 70
     0
300
1/16" = 1'-0"
140
0.0625
141
12.0
290
     0
  0
SCALE
  5
5D
102
{ACAD_REACTORS
330
47
102
}
330
47
100
AcDbScale
 70
     0
300
3/32" = 1'-0"
140
0.09375
141
12.0
290
     0
  0
SCALE
  5
5E
102
{ACAD_REACTORS
330
47
102
}
330
47
100
AcDbScale
 70
     0
300
1/8" = 1'-0"
140
0.125
141
12.0
290
     0
  0
SCALE
  5
5F
102
{ACAD_REACTORS
330
47
102
}
330
47
100
AcDbScale
 70
     0
300
3/16" = 1'-0"
140
0.1875
141
12.0
290
     0
  0
SCALE
  5
60
102
{ACAD_REACTORS
330
47
102
}
330
47
100
AcDbScale
 70
     0
300
1/4" = 1'-0"
140
0.25
141
12.0
290
     0
  0
SCALE
  5
61
102
{ACAD_REACTORS
330
47
102
}
330
47
100
AcDbScale
 70
     0
300
3/8" = 1'-0"
140
0.375
141
12.0
290
     0
  0
SCALE
  5
62
102
{ACAD_REACTORS
330
47
102
}
330
47
100
AcDbScale
 70
     0
300
1/2" = 1'-0"
140
0.5
141
12.0
290
     0
  0
SCALE
  5
63
102
{ACAD_REACTORS
330
47
102
}
330
47
100
AcDbScale
 70
     0
300
3/4" = 1'-0"
140
0.75
141
12.0
290
     0
  0
SCALE
  5
64
102
{ACAD_REACTORS
330
47
102
}
330
47
100
AcDbScale
 70
     0
300
1" = 1'-0"
140
1.0
141
12.0
290
     0
  0
SCALE
  5
65
102
{ACAD_REACTORS
330
47
102
}
330
47
100
AcDbScale
 70
     0
300
1-1/2" = 1'-0"
140
1.5
141
12.0
290
     0
  0
SCALE
  5
66
102
{ACAD_REACTORS
330
47
102
}
330
47
100
AcDbScale
 70
     0
300
3" = 1'-0"
140
3.0
141
12.0
290
     0
  0
SCALE
  5
67
102
{ACAD_REACTORS
330
47
102
}
330
47
100
AcDbScale
 70
     0
300
6" = 1'-0"
140
6.0
141
12.0
290
     0
  0
SCALE
  5
68
102
{ACAD_REACTORS
330
47
102
}
330
47
100
AcDbScale
 70
     0
300
1'-0" = 1'-0"
140
12.0
141
12.0
290
     0
  0
ENDSEC
  0
EOF
