  0
SECTION
  2
HEADER
  9
$ACADVER
  1
AC1015
  9
$ACADMAINTVER
 70
     6
  9
$DWGCODEPAGE
  3
ANSI_950
  9
$INSBASE
 10
0.0
 20
0.0
 30
0.0
  9
$EXTMIN
 10
0.0
 20
0.0
 30
0.0
  9
$EXTMAX
 10
297.0
 20
210.0
 30
0.0
  9
$LIMMIN
 10
0.0
 20
0.0
  9
$LIMMAX
 10
297.0
 20
210.0
  9
$ORTHOMODE
 70
     0
  9
$REGENMODE
 70
     1
  9
$FILLMODE
 70
     1
  9
$QTEXTMODE
 70
     0
  9
$MIRRTEXT
 70
     1
  9
$LTSCALE
 40
1.0
  9
$ATTMODE
 70
     1
  9
$TEXTSIZE
 40
2.5
  9
$TRACEWID
 40
1.0
  9
$TEXTSTYLE
  7
Standard
  9
$CLAYER
  8
0
  9
$CELTYPE
  6
ByLayer
  9
$CECOLOR
 62
   256
  9
$CELTSCALE
 40
1.0
  9
$DISPSILH
 70
     0
  9
$DIMSCALE
 40
1.0
  9
$DIMASZ
 40
2.0
  9
$DIMEXO
 40
1.0
  9
$DIMDLI
 40
3.75
  9
$DIMRND
 40
0.0
  9
$DIMDLE
 40
0.0
  9
$DIMEXE
 40
1.0
  9
$DIMTP
 40
0.0
  9
$DIMTM
 40
0.0
  9
$DIMTXT
 40
2.5
  9
$DIMCEN
 40
2.5
  9
$DIMTSZ
 40
0.0
  9
$DIMTOL
 70
     0
  9
$DIMLIM
 70
     0
  9
$DIMTIH
 70
     1
  9
$DIMTOH
 70
     1
  9
$DIMSE1
 70
     0
  9
$DIMSE2
 70
     0
  9
$DIMTAD
 70
     1
  9
$DIMZIN
 70
     0
  9
$DIMBLK
  1

  9
$DIMASO
 70
     1
  9
$DIMSHO
 70
     1
  9
$DIMPOST
  1

  9
$DIMAPOST
  1

  9
$DIMALT
 70
     0
  9
$DIMALTD
 70
     3
  9
$DIMALTF
 40
0.0393700787
  9
$DIMLFAC
 40
1.0
  9
$DIMTOFL
 70
     1
  9
$DIMTVP
 40
0.0
  9
$DIMTIX
 70
     0
  9
$DIMSOXD
 70
     0
  9
$DIMSAH
 70
     0
  9
$DIMBLK1
  1

  9
$DIMBLK2
  1

  9
$DIMSTYLE
  2
ISO-25
  9
$DIMCLRD
 70
     0
  9
$DIMCLRE
 70
     0
  9
$DIMCLRT
 70
     0
  9
$DIMTFAC
 40
1.0
  9
$DIMGAP
 40
1.0
  9
$DIMJUST
 70
     0
  9
$DIMSD1
 70
     0
  9
$DIMSD2
 70
     0
  9
$DIMTOLJ
 70
     0
  9
$DIMTZIN
 70
     0
  9
$DIMALTZ
 70
     0
  9
$DIMALTTZ
 70
     0
  9
$DIMUPT
 70
     0
  9
$DIMDEC
 70
     2
  9
$DIMTDEC
 70
     2
  9
$DIMALTU
 70
     2
  9
$DIMALTTD
 70
     3
  9
$DIMTXSTY
  7
Standard
  9
$DIMAUNIT
 70
     0
  9
$DIMADEC
 70
     1
  9
$DIMALTRND
 40
0.0
  9
$DIMAZIN
 70
     0
  9
$DIMDSEP
 70
    44
  9
$DIMATFIT
 70
     3
  9
$DIMFRAC
 70
     0
  9
$DIMLDRBLK
  1

  9
$DIMLUNIT
 70
     2
  9
$DIMLWD
 70
    -2
  9
$DIMLWE
 70
    -2
  9
$DIMTMOVE
 70
     0
  9
$LUNITS
 70
     2
  9
$LUPREC
 70
     2
  9
$SKETCHINC
 40
1.0
  9
$FILLETRAD
 40
10.0
  9
$AUNITS
 70
     0
  9
$AUPREC
 70
     1
  9
$MENU
  1
.
  9
$ELEVATION
 40
0.0
  9
$PELEVATION
 40
0.0
  9
$THICKNESS
 40
0.0
  9
$LIMCHECK
 70
     0
  9
$CHAMFERA
 40
0.0
  9
$CHAMFERB
 40
0.0
  9
$CHAMFERC
 40
0.0
  9
$CHAMFERD
 40
0.0
  9
$SKPOLY
 70
     0
  9
$TDCREATE
 40
2457527.618137824
  9
$TDUCREATE
 40
2457527.284804491
  9
$TDUPDATE
 40
2457527.618142523
  9
$TDUUPDATE
 40
2457527.28480919
  9
$TDINDWG
 40
0.0000000116
  9
$TDUSRTIMER
 40
0.0000000116
  9
$USRTIMER
 70
     1
  9
$ANGBASE
 50
0.0
  9
$ANGDIR
 70
     0
  9
$PDMODE
 70
     0
  9
$PDSIZE
 40
-1.0
  9
$PLINEWID
 40
0.0
  9
$SPLFRAME
 70
     0
  9
$SPLINETYPE
 70
     6
  9
$SPLINESEGS
 70
     8
  9
$HANDSEED
  5
321
  9
$SURFTAB1
 70
     6
  9
$SURFTAB2
 70
     6
  9
$SURFTYPE
 70
     6
  9
$SURFU
 70
     6
  9
$SURFV
 70
     6
  9
$UCSBASE
  2

  9
$UCSNAME
  2

  9
$UCSORG
 10
0.0
 20
0.0
 30
0.0
  9
$UCSXDIR
 10
1.0
 20
0.0
 30
0.0
  9
$UCSYDIR
 10
0.0
 20
1.0
 30
0.0
  9
$UCSORTHOREF
  2

  9
$UCSORTHOVIEW
 70
     0
  9
$UCSORGTOP
 10
0.0
 20
0.0
 30
0.0
  9
$UCSORGBOTTOM
 10
0.0
 20
0.0
 30
0.0
  9
$UCSORGLEFT
 10
0.0
 20
0.0
 30
0.0
  9
$UCSORGRIGHT
 10
0.0
 20
0.0
 30
0.0
  9
$UCSORGFRONT
 10
0.0
 20
0.0
 30
0.0
  9
$UCSORGBACK
 10
0.0
 20
0.0
 30
0.0
  9
$PUCSBASE
  2

  9
$PUCSNAME
  2

  9
$PUCSORG
 10
0.0
 20
0.0
 30
0.0
  9
$PUCSXDIR
 10
1.0
 20
0.0
 30
0.0
  9
$PUCSYDIR
 10
0.0
 20
1.0
 30
0.0
  9
$PUCSORTHOREF
  2

  9
$PUCSORTHOVIEW
 70
     0
  9
$PUCSORGTOP
 10
0.0
 20
0.0
 30
0.0
  9
$PUCSORGBOTTOM
 10
0.0
 20
0.0
 30
0.0
  9
$PUCSORGLEFT
 10
0.0
 20
0.0
 30
0.0
  9
$PUCSORGRIGHT
 10
0.0
 20
0.0
 30
0.0
  9
$PUCSORGFRONT
 10
0.0
 20
0.0
 30
0.0
  9
$PUCSORGBACK
 10
0.0
 20
0.0
 30
0.0
  9
$USERI1
 70
     0
  9
$USERI2
 70
     0
  9
$USERI3
 70
     0
  9
$USERI4
 70
     0
  9
$USERI5
 70
     0
  9
$USERR1
 40
0.0
  9
$USERR2
 40
0.0
  9
$USERR3
 40
0.0
  9
$USERR4
 40
0.0
  9
$USERR5
 40
0.0
  9
$WORLDVIEW
 70
     1
  9
$SHADEDGE
 70
     3
  9
$SHADEDIF
 70
    70
  9
$TILEMODE
 70
     1
  9
$MAXACTVP
 70
    64
  9
$PINSBASE
 10
0.0
 20
0.0
 30
0.0
  9
$PLIMCHECK
 70
     0
  9
$PEXTMIN
 10
1.0000000000E+20
 20
1.0000000000E+20
 30
1.0000000000E+20
  9
$PEXTMAX
 10
-1.0000000000E+20
 20
-1.0000000000E+20
 30
-1.0000000000E+20
  9
$PLIMMIN
 10
0.0
 20
0.0
  9
$PLIMMAX
 10
420.0
 20
297.0
  9
$UNITMODE
 70
     0
  9
$VISRETAIN
 70
     1
  9
$PLINEGEN
 70
     0
  9
$PSLTSCALE
 70
     1
  9
$TREEDEPTH
 70
  3020
  9
$CMLSTYLE
  2
Standard
  9
$CMLJUST
 70
     0
  9
$CMLSCALE
 40
20.0
  9
$PROXYGRAPHICS
 70
     1
  9
$MEASUREMENT
 70
     1
  9
$CELWEIGHT
370
    -1
  9
$ENDCAPS
280
     0
  9
$JOINSTYLE
280
     0
  9
$LWDISPLAY
290
     1
  9
$INSUNITS
 70
     4
  9
$HYPERLINKBASE
  1

  9
$STYLESHEET
  1

  9
$XEDIT
290
     1
  9
$CEPSNTYPE
380
     0
  9
$PSTYLEMODE
290
     1
  9
$FINGERPRINTGUID
  2
{20B5BE27-C932-4D51-9995-D18AF80F0518}
  9
$VERSIONGUID
  2
{FAEB1C32-E019-11D5-929B-00C0DF256EC4}
  9
$EXTNAMES
290
     1
  9
$PSVPSCALE
 40
0.0
  9
$OLESTARTUP
290
     0
  0
ENDSEC
  0
SECTION
  2
CLASSES
  0
CLASS
  1
ACDBDICTIONARYWDFLT
  2
AcDbDictionaryWithDefault
  3
ObjectDBX Classes
 90
        0
280
     0
281
     0
  0
CLASS
  1
VISUALSTYLE
  2
AcDbVisualStyle
  3
ObjectDBX Classes
 90
     4095
280
     0
281
     0
  0
CLASS
  1
MATERIAL
  2
AcDbMaterial
  3
ObjectDBX Classes
 90
     1153
280
     0
281
     0
  0
CLASS
  1
SCALE
  2
AcDbScale
  3
ObjectDBX Classes
 90
     1153
280
     0
281
     0
  0
CLASS
  1
TABLESTYLE
  2
AcDbTableStyle
  3
ObjectDBX Classes
 90
     4095
280
     0
281
     0
  0
CLASS
  1
MLEADERSTYLE
  2
AcDbMLeaderStyle
  3
ACDB_MLEADERSTYLE_CLASS
 90
     4095
280
     0
281
     0
  0
CLASS
  1
SUN
  2
AcDbSun
  3
SCENEOE
 90
     1153
280
     0
281
     0
  0
CLASS
  1
ACDBPLACEHOLDER
  2
AcDbPlaceHolder
  3
ObjectDBX Classes
 90
        0
280
     0
281
     0
  0
CLASS
  1
LAYOUT
  2
AcDbLayout
  3
ObjectDBX Classes
 90
        0
280
     0
281
     0
  0
ENDSEC
  0
SECTION
  2
TABLES
  0
TABLE
  2
VPORT
  5
8
330
0
100
AcDbSymbolTable
 70
     1
  0
VPORT
  5
29
330
8
100
AcDbSymbolTableRecord
100
AcDbViewportTableRecord
  2
*Active
 70
     0
 10
0.0
 20
0.0
 11
1.0
 21
1.0
 12
148.5
 22
105.0
 13
0.0
 23
0.0
 14
10.0
 24
10.0
 15
10.0
 25
10.0
 16
0.0
 26
0.0
 36
1.0
 17
0.0
 27
0.0
 37
0.0
 40
210.0
 41
1.4142857143
 42
50.0
 43
0.0
 44
0.0
 50
0.0
 51
0.0
 71
     0
 72
  2000
 73
     1
 74
     3
 75
     0
 76
     0
 77
     0
 78
     0
281
     0
 65
     1
110
0.0
120
0.0
130
0.0
111
1.0
121
0.0
131
0.0
112
0.0
122
1.0
132
0.0
 79
     0
146
0.0
  0
ENDTAB
  0
TABLE
  2
LTYPE
  5
5
330
0
100
AcDbSymbolTable
 70
     6
  0
LTYPE
  5
14
330
5
100
AcDbSymbolTableRecord
100
AcDbLinetypeTableRecord
  2
ByBlock
 70
     0
  3

 72
    65
 73
     0
 40
0.0
  0
LTYPE
  5
15
330
5
100
AcDbSymbolTableRecord
100
AcDbLinetypeTableRecord
  2
ByLayer
 70
     0
  3

 72
    65
 73
     0
 40
0.0
  0
LTYPE
  5
16
330
5
100
AcDbSymbolTableRecord
100
AcDbLinetypeTableRecord
  2
Continuous
 70
     0
  3
Solid line
 72
    65
 73
     0
 40
0.0
  0
LTYPE
  5
6E
330
5
100
AcDbSymbolTableRecord
100
AcDbLinetypeTableRecord
  2
HIDDEN
 70
     0
  3
Hidden __ __ __ __ __ __ __ __ __ __ __ __ __ __
 72
    65
 73
     2
 40
1.905
 49
1.27
 74
     0
 49
-0.635
 74
     0
  0
LTYPE
  5
6F
330
5
100
AcDbSymbolTableRecord
100
AcDbLinetypeTableRecord
  2
PHANTOM
 70
     0
  3
Phantom ______  __  __  ______  __  __  ______
 72
    65
 73
     6
 40
12.7
 49
6.35
 74
     0
 49
-1.27
 74
     0
 49
1.27
 74
     0
 49
-1.27
 74
     0
 49
1.27
 74
     0
 49
-1.27
 74
     0
  0
LTYPE
  5
70
330
5
100
AcDbSymbolTableRecord
100
AcDbLinetypeTableRecord
  2
CENTER
 70
     0
  3
Center ____ _ ____ _ ____ _ ____ _ ____ _ ____
 72
    65
 73
     4
 40
10.16
 49
6.35
 74
     0
 49
-1.27
 74
     0
 49
1.27
 74
     0
 49
-1.27
 74
     0
  0
LTYPE
  5
71
330
5
100
AcDbSymbolTableRecord
100
AcDbLinetypeTableRecord
  2
CENTERX2
 70
     0
  3
Center (2x) ________  __  ________  __  _____
 72
    65
 73
     4
 40
20.32
 49
12.7
 74
     0
 49
-2.54
 74
     0
 49
2.54
 74
     0
 49
-2.54
 74
     0
  0
LTYPE
  5
72
330
5
100
AcDbSymbolTableRecord
100
AcDbLinetypeTableRecord
  2
DOT2
 70
     0
  3
Dot (.5x) ........................................
 72
    65
 73
     2
 40
0.635
 49
0.0
 74
     0
 49
-0.635
 74
     0
  0
ENDTAB
  0
TABLE
  2
LAYER
  5
2
330
0
100
AcDbSymbolTable
 70
     3
  0
LAYER
  5
10
330
2
100
AcDbSymbolTableRecord
100
AcDbLayerTableRecord
  2
0
 70
     0
 62
     7
  6
Continuous
370
    -3
390
F
  0
LAYER
  5
73
330
2
100
AcDbSymbolTableRecord
100
AcDbLayerTableRecord
  2
SLD-0
 70
     0
 62
     7
  6
Continuous
370
    15
390
F
  0
LAYER
  5
74
330
2
100
AcDbSymbolTableRecord
100
AcDbLayerTableRecord
  2
DIM
 70
     0
 62
     7
  6
Continuous
370
    -3
390
F
  0
ENDTAB
  0
TABLE
  2
STYLE
  5
3
330
0
100
AcDbSymbolTable
 70
     3
  0
STYLE
  5
11
330
3
100
AcDbSymbolTableRecord
100
AcDbTextStyleTableRecord
  2
Standard
 70
     0
 40
0.0
 41
1.0
 50
0.0
 71
     0
 42
2.5
  3
txt
  4

  0
STYLE
  5
C5
330
3
100
AcDbSymbolTableRecord
100
AcDbTextStyleTableRecord
  2
SLDTEXTSTYLE0
 70
     0
 40
0.0
 41
0.605
 50
0.0
 71
     0
 42
2.5
  3
TXT
  4

  0
STYLE
  5
CE
330
3
100
AcDbSymbolTableRecord
100
AcDbTextStyleTableRecord
  2
SLDTEXTSTYLE1
 70
     0
 40
0.0
 41
0.7
 50
0.0
 71
     0
 42
2.5
  3
TXT
  4

  0
ENDTAB
  0
TABLE
  2
VIEW
  5
6
330
0
100
AcDbSymbolTable
 70
     0
  0
ENDTAB
  0
TABLE
  2
UCS
  5
7
330
0
100
AcDbSymbolTable
 70
     0
  0
ENDTAB
  0
TABLE
  2
APPID
  5
9
330
0
100
AcDbSymbolTable
 70
     1
  0
APPID
  5
12
330
9
100
AcDbSymbolTableRecord
100
AcDbRegAppTableRecord
  2
ACAD
 70
     0
  0
ENDTAB
  0
TABLE
  2
DIMSTYLE
  5
A
330
0
100
AcDbSymbolTable
 70
     3
100
AcDbDimStyleTable
  0
DIMSTYLE
105
27
330
A
100
AcDbSymbolTableRecord
100
AcDbDimStyleTableRecord
  2
ISO-25
 70
     0
 41
2.5
 42
0.625
 43
3.75
 44
1.25
 73
     0
 74
     0
 77
     1
 78
     8
140
2.5
141
2.5
143
0.0393700787
147
0.625
171
     3
172
     1
178
     0
271
     2
272
     2
274
     3
278
    44
283
     0
284
     8
340
11
  0
DIMSTYLE
105
12B
102
{ACAD_REACTORS
330
12A
330
135
330
13F
330
149
330
153
330
15D
330
167
330
171
330
17B
330
185
330
18F
330
199
330
317
102
}
330
A
100
AcDbSymbolTableRecord
100
AcDbDimStyleTableRecord
  2
SLDDIMSTYLE0
 70
     0
 41
2.0
 44
0.0
 45
0.000000001
 73
     0
 74
     0
 77
     1
 78
    12
 79
     3
140
2.5
147
0.625
173
     1
178
     0
271
     2
272
     2
276
     2
284
    12
340
C5
  0
DIMSTYLE
105
1A4
102
{ACAD_REACTORS
330
1A3
330
1AD
330
1B6
102
}
330
A
100
AcDbSymbolTableRecord
100
AcDbDimStyleTableRecord
  2
SLDDIMSTYLE1
 70
     0
  3
<>
 41
2.0
 44
0.0
 45
0.000000001
 78
    12
 79
     3
140
2.5
141
0.0
147
0.625
173
     1
178
     0
271
     2
272
     2
276
     2
284
    12
340
C5
  0
ENDTAB
  0
TABLE
  2
BLOCK_RECORD
  5
1
330
0
100
AcDbSymbolTable
 70
    40
  0
BLOCK_RECORD
  5
1F
330
1
100
AcDbSymbolTableRecord
100
AcDbBlockTableRecord
  2
*Model_Space
340
22
  0
BLOCK_RECORD
  5
1B
330
1
100
AcDbSymbolTableRecord
100
AcDbBlockTableRecord
  2
*Paper_Space
340
1E
  0
BLOCK_RECORD
  5
23
330
1
100
AcDbSymbolTableRecord
100
AcDbBlockTableRecord
  2
*Paper_Space0
340
26
  0
BLOCK_RECORD
  5
C7
330
1
100
AcDbSymbolTableRecord
100
AcDbBlockTableRecord
  2
SW_NOTE_0
340
0
102
{BLKREFS
331
CD
102
}
  0
BLOCK_RECORD
  5
FD
330
1
100
AcDbSymbolTableRecord
100
AcDbBlockTableRecord
  2
SW_NOTE_1
340
0
102
{BLKREFS
331
102
102
}
  0
BLOCK_RECORD
  5
12C
330
1
100
AcDbSymbolTableRecord
100
AcDbBlockTableRecord
  2
_D
340
0
  0
BLOCK_RECORD
  5
136
330
1
100
AcDbSymbolTableRecord
100
AcDbBlockTableRecord
  2
_D_1
340
0
  0
BLOCK_RECORD
  5
140
330
1
100
AcDbSymbolTableRecord
100
AcDbBlockTableRecord
  2
_D_2
340
0
  0
BLOCK_RECORD
  5
14A
330
1
100
AcDbSymbolTableRecord
100
AcDbBlockTableRecord
  2
_D_3
340
0
  0
BLOCK_RECORD
  5
154
330
1
100
AcDbSymbolTableRecord
100
AcDbBlockTableRecord
  2
_D_4
340
0
  0
BLOCK_RECORD
  5
15E
330
1
100
AcDbSymbolTableRecord
100
AcDbBlockTableRecord
  2
_D_5
340
0
  0
BLOCK_RECORD
  5
168
330
1
100
AcDbSymbolTableRecord
100
AcDbBlockTableRecord
  2
_D_6
340
0
  0
BLOCK_RECORD
  5
172
330
1
100
AcDbSymbolTableRecord
100
AcDbBlockTableRecord
  2
_D_7
340
0
  0
BLOCK_RECORD
  5
17C
330
1
100
AcDbSymbolTableRecord
100
AcDbBlockTableRecord
  2
_D_8
340
0
  0
BLOCK_RECORD
  5
186
330
1
100
AcDbSymbolTableRecord
100
AcDbBlockTableRecord
  2
_D_9
340
0
  0
BLOCK_RECORD
  5
190
330
1
100
AcDbSymbolTableRecord
100
AcDbBlockTableRecord
  2
_D_10
340
0
  0
BLOCK_RECORD
  5
19A
330
1
100
AcDbSymbolTableRecord
100
AcDbBlockTableRecord
  2
_D_11
340
0
  0
BLOCK_RECORD
  5
1A5
330
1
100
AcDbSymbolTableRecord
100
AcDbBlockTableRecord
  2
_D_12
340
0
  0
BLOCK_RECORD
  5
1AE
330
1
100
AcDbSymbolTableRecord
100
AcDbBlockTableRecord
  2
_D_13
340
0
  0
BLOCK_RECORD
  5
1B7
330
1
100
AcDbSymbolTableRecord
100
AcDbBlockTableRecord
  2
_D_14
340
0
  0
BLOCK_RECORD
  5
1BF
330
1
100
AcDbSymbolTableRecord
100
AcDbBlockTableRecord
  2
SW_CENTERMARKSYMBOL_0
340
0
102
{BLKREFS
331
1CA
102
}
  0
BLOCK_RECORD
  5
1CB
330
1
100
AcDbSymbolTableRecord
100
AcDbBlockTableRecord
  2
SW_CENTERMARKSYMBOL_1
340
0
102
{BLKREFS
331
1D6
102
}
  0
BLOCK_RECORD
  5
1D7
330
1
100
AcDbSymbolTableRecord
100
AcDbBlockTableRecord
  2
SW_CENTERMARKSYMBOL_2
340
0
102
{BLKREFS
331
1E2
102
}
  0
BLOCK_RECORD
  5
1E3
330
1
100
AcDbSymbolTableRecord
100
AcDbBlockTableRecord
  2
SW_CENTERMARKSYMBOL_3
340
0
102
{BLKREFS
331
1EE
102
}
  0
BLOCK_RECORD
  5
1EF
330
1
100
AcDbSymbolTableRecord
100
AcDbBlockTableRecord
  2
SW_CENTERMARKSYMBOL_4
340
0
102
{BLKREFS
331
1FA
102
}
  0
BLOCK_RECORD
  5
1FB
330
1
100
AcDbSymbolTableRecord
100
AcDbBlockTableRecord
  2
SW_CENTERMARKSYMBOL_5
340
0
102
{BLKREFS
331
206
102
}
  0
BLOCK_RECORD
  5
207
330
1
100
AcDbSymbolTableRecord
100
AcDbBlockTableRecord
  2
SW_CENTERMARKSYMBOL_6
340
0
102
{BLKREFS
331
212
102
}
  0
BLOCK_RECORD
  5
213
330
1
100
AcDbSymbolTableRecord
100
AcDbBlockTableRecord
  2
SW_CENTERMARKSYMBOL_7
340
0
102
{BLKREFS
331
21E
102
}
  0
BLOCK_RECORD
  5
21F
330
1
100
AcDbSymbolTableRecord
100
AcDbBlockTableRecord
  2
SW_CENTERMARKSYMBOL_8
340
0
102
{BLKREFS
331
22A
102
}
  0
BLOCK_RECORD
  5
22B
330
1
100
AcDbSymbolTableRecord
100
AcDbBlockTableRecord
  2
SW_CENTERMARKSYMBOL_9
340
0
102
{BLKREFS
331
236
102
}
  0
BLOCK_RECORD
  5
237
330
1
100
AcDbSymbolTableRecord
100
AcDbBlockTableRecord
  2
SW_CENTERMARKSYMBOL_10
340
0
102
{BLKREFS
331
242
102
}
  0
BLOCK_RECORD
  5
243
330
1
100
AcDbSymbolTableRecord
100
AcDbBlockTableRecord
  2
SW_CENTERMARKSYMBOL_11
340
0
102
{BLKREFS
331
24E
102
}
  0
BLOCK_RECORD
  5
24F
330
1
100
AcDbSymbolTableRecord
100
AcDbBlockTableRecord
  2
SW_CENTERMARKSYMBOL_12
340
0
102
{BLKREFS
331
25A
102
}
  0
BLOCK_RECORD
  5
25B
330
1
100
AcDbSymbolTableRecord
100
AcDbBlockTableRecord
  2
SW_CENTERMARKSYMBOL_13
340
0
102
{BLKREFS
331
266
102
}
  0
BLOCK_RECORD
  5
267
330
1
100
AcDbSymbolTableRecord
100
AcDbBlockTableRecord
  2
SW_CENTERMARKSYMBOL_14
340
0
102
{BLKREFS
331
272
102
}
  0
BLOCK_RECORD
  5
273
330
1
100
AcDbSymbolTableRecord
100
AcDbBlockTableRecord
  2
SW_CENTERMARKSYMBOL_15
340
0
102
{BLKREFS
331
27E
102
}
  0
BLOCK_RECORD
  5
27F
330
1
100
AcDbSymbolTableRecord
100
AcDbBlockTableRecord
  2
SW_CENTERMARKSYMBOL_16
340
0
102
{BLKREFS
331
28A
102
}
  0
BLOCK_RECORD
  5
28B
330
1
100
AcDbSymbolTableRecord
100
AcDbBlockTableRecord
  2
SW_CENTERMARKSYMBOL_17
340
0
102
{BLKREFS
331
296
102
}
  0
BLOCK_RECORD
  5
297
330
1
100
AcDbSymbolTableRecord
100
AcDbBlockTableRecord
  2
SW_CENTERMARKSYMBOL_18
340
0
102
{BLKREFS
331
2A2
102
}
  0
BLOCK_RECORD
  5
2A3
330
1
100
AcDbSymbolTableRecord
100
AcDbBlockTableRecord
  2
SW_CENTERMARKSYMBOL_19
340
0
102
{BLKREFS
331
2AE
102
}
  0
BLOCK_RECORD
  5
2AF
330
1
100
AcDbSymbolTableRecord
100
AcDbBlockTableRecord
  2
SW_CENTERMARKSYMBOL_20
340
0
102
{BLKREFS
331
2BA
102
}
  0
BLOCK_RECORD
  5
318
330
1
100
AcDbSymbolTableRecord
100
AcDbBlockTableRecord
  2
_D_15
340
0
  0
ENDTAB
  0
ENDSEC
  0
SECTION
  2
BLOCKS
  0
BLOCK
  5
20
330
1F
100
AcDbEntity
  8
0
100
AcDbBlockBegin
  2
*Model_Space
 70
     0
 10
0.0
 20
0.0
 30
0.0
  3
*Model_Space
  1

  0
ENDBLK
  5
21
330
1F
100
AcDbEntity
  8
0
100
AcDbBlockEnd
  0
BLOCK
  5
1C
330
1B
100
AcDbEntity
 67
     1
  8
0
100
AcDbBlockBegin
  2
*Paper_Space
 70
     0
 10
0.0
 20
0.0
 30
0.0
  3
*Paper_Space
  1

  0
ENDBLK
  5
1D
330
1B
100
AcDbEntity
 67
     1
  8
0
100
AcDbBlockEnd
  0
BLOCK
  5
24
330
23
100
AcDbEntity
  8
0
100
AcDbBlockBegin
  2
*Paper_Space0
 70
     0
 10
0.0
 20
0.0
 30
0.0
  3
*Paper_Space0
  1

  0
ENDBLK
  5
25
330
23
100
AcDbEntity
  8
0
100
AcDbBlockEnd
  0
BLOCK
  5
C8
330
C7
100
AcDbEntity
  8
0
100
AcDbBlockBegin
  2
SW_NOTE_0
 70
     0
 10
0.0
 20
0.0
 30
0.0
  3
SW_NOTE_0
  1

  0
MTEXT
  5
CA
330
C7
100
AcDbEntity
  8
0
  6
Continuous
 62
     0
370
     0
100
AcDbMText
 10
0.0
 20
3.4106583948
 30
0.0
 40
2.6458333333
 41
0.0
 71
     1
 72
     1
  1
PROPRIETARY AND CONFIDENTIAL
  7
SLDTEXTSTYLE0
 73
     1
 44
1.0
  0
MTEXT
  5
CB
330
C7
100
AcDbEntity
  8
0
  6
Continuous
 62
     0
370
     0
100
AcDbMText
 10
0.0
 20
-0.08198348
 30
0.0
 40
1.8520833333
 41
0.0
 71
     1
 72
     1
  1
THE INFORMATION CONTAINED IN THIS DRAWING IS THE SOLE PROPERTY OF UNICE E-O SERVICES INC. ANY REPRODUCTION IN PART OR AS A WHOLE WITHOUT THE WRITTEN PERMISSION OF UNICE E-O SERVICES INC IS
  7
SLDTEXTSTYLE0
 73
     1
 44
1.0
  0
MTEXT
  5
CC
330
C7
100
AcDbEntity
  8
0
  6
Continuous
 62
     0
370
     0
100
AcDbMText
 10
0.0
 20
-2.5514278946
 30
0.0
 40
1.8520833333
 41
0.0
 71
     1
 72
     1
  1
PROHIBITED.
  7
SLDTEXTSTYLE0
 73
     1
 44
1.0
  0
ENDBLK
  5
C9
330
C7
100
AcDbEntity
  8
0
100
AcDbBlockEnd
  0
BLOCK
  5
FE
330
FD
100
AcDbEntity
  8
0
100
AcDbBlockBegin
  2
SW_NOTE_1
 70
     0
 10
0.0
 20
0.0
 30
0.0
  3
SW_NOTE_1
  1

  0
MTEXT
  5
100
330
FD
100
AcDbEntity
  8
SLD-0
 62
     0
100
AcDbMText
 10
0.0
 20
2.3874608764
 30
0.0
 40
1.8520833333
 41
0.0
 71
     1
 72
     1
  1
No.5, Andong Rd., Chung Li District,
  7
SLDTEXTSTYLE1
 73
     1
 44
1.0
  0
MTEXT
  5
101
330
FD
100
AcDbEntity
  8
SLD-0
 62
     0
100
AcDbMText
 10
0.0
 20
-0.0819835382
 30
0.0
 40
1.8520833333
 41
0.0
 71
     1
 72
     1
  1
Taoyuan City 32063, Taiwan, R.O.C.
  7
SLDTEXTSTYLE1
 73
     1
 44
1.0
  0
ENDBLK
  5
FF
330
FD
100
AcDbEntity
  8
0
100
AcDbBlockEnd
  0
BLOCK
  5
12D
330
12C
100
AcDbEntity
  8
0
100
AcDbBlockBegin
  2
_D
 70
     0
 10
0.0
 20
0.0
 30
0.0
  3
_D
  1

  0
SOLID
  5
12F
330
12C
100
AcDbEntity
  8
SLD-0
100
AcDbTrace
 10
55.9143465546
 20
166.6834748601
 30
0.0
 11
57.9143465546
 21
166.4334748601
 31
0.0
 12
57.9143465546
 22
166.9334748601
 32
0.0
 13
57.9143465546
 23
166.9334748601
 33
0.0
  0
SOLID
  5
130
330
12C
100
AcDbEntity
  8
SLD-0
100
AcDbTrace
 10
143.9143465546
 20
166.6834748601
 30
0.0
 11
141.9143465546
 21
166.9334748601
 31
0.0
 12
141.9143465546
 22
166.4334748601
 32
0.0
 13
141.9143465546
 23
166.4334748601
 33
0.0
  0
LINE
  5
131
330
12C
100
AcDbEntity
  8
SLD-0
100
AcDbLine
 10
55.9143465546
 20
139.5479755578
 30
0.0
 11
55.9143465546
 21
167.6834748601
 31
0.0
  0
LINE
  5
132
330
12C
100
AcDbEntity
  8
SLD-0
100
AcDbLine
 10
143.9143465546
 20
139.5479755578
 30
0.0
 11
143.9143465546
 21
167.6834748601
 31
0.0
  0
LINE
  5
133
330
12C
100
AcDbEntity
  8
SLD-0
100
AcDbLine
 10
55.9143465546
 20
166.6834748601
 30
0.0
 11
143.9143465546
 21
166.6834748601
 31
0.0
  0
MTEXT
  5
134
330
12C
100
AcDbEntity
  8
SLD-0
100
AcDbMText
 10
98.0046243298
 20
169.9061440349
 30
0.0
 40
2.5
 41
0.0
 71
     1
 72
     1
  1
88
  7
SLDTEXTSTYLE0
 73
     1
 44
1.0
  0
ENDBLK
  5
12E
330
12C
100
AcDbEntity
  8
0
100
AcDbBlockEnd
  0
BLOCK
  5
137
330
136
100
AcDbEntity
  8
0
100
AcDbBlockBegin
  2
_D_1
 70
     0
 10
0.0
 20
0.0
 30
0.0
  3
_D_1
  1

  0
SOLID
  5
139
330
136
100
AcDbEntity
  8
SLD-0
100
AcDbTrace
 10
36.4758526874
 20
141.5479755578
 30
0.0
 11
36.2258526874
 21
139.5479755578
 31
0.0
 12
36.7258526874
 22
139.5479755578
 32
0.0
 13
36.7258526874
 23
139.5479755578
 33
0.0
  0
SOLID
  5
13A
330
136
100
AcDbEntity
  8
SLD-0
100
AcDbTrace
 10
36.4758526874
 20
72.5479755578
 30
0.0
 11
36.7258526874
 21
74.5479755578
 31
0.0
 12
36.2258526874
 22
74.5479755578
 32
0.0
 13
36.2258526874
 23
74.5479755578
 33
0.0
  0
LINE
  5
13B
330
136
100
AcDbEntity
  8
SLD-0
100
AcDbLine
 10
57.9143465546
 20
141.5479755578
 30
0.0
 11
35.4758526874
 21
141.5479755578
 31
0.0
  0
LINE
  5
13C
330
136
100
AcDbEntity
  8
SLD-0
100
AcDbLine
 10
57.9143465546
 20
72.5479755578
 30
0.0
 11
35.4758526874
 21
72.5479755578
 31
0.0
  0
LINE
  5
13D
330
136
100
AcDbEntity
  8
SLD-0
100
AcDbLine
 10
36.4758526874
 20
141.5479755578
 30
0.0
 11
36.4758526874
 21
72.5479755578
 31
0.0
  0
MTEXT
  5
13E
330
136
100
AcDbEntity
  8
SLD-0
100
AcDbMText
 10
33.2531835126
 20
105.138253333
 30
0.0
 40
2.5
 41
0.0
 71
     1
 72
     1
  1
69
  7
SLDTEXTSTYLE0
 11
-7.044195017643634E-15
 21
1.0
 31
0.0
 73
     1
 44
1.0
  0
ENDBLK
  5
138
330
136
100
AcDbEntity
  8
0
100
AcDbBlockEnd
  0
BLOCK
  5
141
330
140
100
AcDbEntity
  8
0
100
AcDbBlockBegin
  2
_D_2
 70
     0
 10
0.0
 20
0.0
 30
0.0
  3
_D_2
  1

  0
SOLID
  5
143
330
140
100
AcDbEntity
  8
SLD-0
100
AcDbTrace
 10
99.9143465546
 20
147.0640257539
 30
0.0
 11
97.9143465546
 21
147.3140257539
 31
0.0
 12
97.9143465546
 22
146.8140257539
 32
0.0
 13
97.9143465546
 23
146.8140257539
 33
0.0
  0
SOLID
  5
144
330
140
100
AcDbEntity
  8
SLD-0
100
AcDbTrace
 10
87.4143465546
 20
147.0640257539
 30
0.0
 11
89.4143465546
 21
146.8140257539
 31
0.0
 12
89.4143465546
 22
147.3140257539
 32
0.0
 13
89.4143465546
 23
147.3140257539
 33
0.0
  0
LINE
  5
145
330
140
100
AcDbEntity
  8
SLD-0
100
AcDbLine
 10
99.9143465546
 20
133.0479755578
 30
0.0
 11
99.9143465546
 21
148.0640257539
 31
0.0
  0
LINE
  5
146
330
140
100
AcDbEntity
  8
SLD-0
100
AcDbLine
 10
87.4143465546
 20
120.5479755578
 30
0.0
 11
87.4143465546
 21
148.0640257539
 31
0.0
  0
LINE
  5
147
330
140
100
AcDbEntity
  8
SLD-0
100
AcDbLine
 10
99.9143465546
 20
147.0640257539
 30
0.0
 11
87.4143465546
 21
147.0640257539
 31
0.0
  0
MTEXT
  5
148
330
140
100
AcDbEntity
  8
SLD-0
100
AcDbMText
 10
90.3223327485
 20
150.2866949287
 30
0.0
 40
2.5
 41
0.0
 71
     1
 72
     1
  1
12.5
  7
SLDTEXTSTYLE0
 73
     1
 44
1.0
  0
ENDBLK
  5
142
330
140
100
AcDbEntity
  8
0
100
AcDbBlockEnd
  0
BLOCK
  5
14B
330
14A
100
AcDbEntity
  8
0
100
AcDbBlockBegin
  2
_D_3
 70
     0
 10
0.0
 20
0.0
 30
0.0
  3
_D_3
  1

  0
SOLID
  5
14D
330
14A
100
AcDbEntity
  8
SLD-0
100
AcDbTrace
 10
99.9143465546
 20
147.0640257539
 30
0.0
 11
101.9143465546
 21
146.8140257539
 31
0.0
 12
101.9143465546
 22
147.3140257539
 32
0.0
 13
101.9143465546
 23
147.3140257539
 33
0.0
  0
SOLID
  5
14E
330
14A
100
AcDbEntity
  8
SLD-0
100
AcDbTrace
 10
112.4143465546
 20
147.0640257539
 30
0.0
 11
110.4143465546
 21
147.3140257539
 31
0.0
 12
110.4143465546
 22
146.8140257539
 32
0.0
 13
110.4143465546
 23
146.8140257539
 33
0.0
  0
LINE
  5
14F
330
14A
100
AcDbEntity
  8
SLD-0
100
AcDbLine
 10
99.9143465546
 20
133.0479755578
 30
0.0
 11
99.9143465546
 21
148.0640257539
 31
0.0
  0
LINE
  5
150
330
14A
100
AcDbEntity
  8
SLD-0
100
AcDbLine
 10
112.4143465546
 20
120.5479755578
 30
0.0
 11
112.4143465546
 21
148.0640257539
 31
0.0
  0
LINE
  5
151
330
14A
100
AcDbEntity
  8
SLD-0
100
AcDbLine
 10
99.9143465546
 20
147.0640257539
 30
0.0
 11
112.4143465546
 21
147.0640257539
 31
0.0
  0
MTEXT
  5
152
330
14A
100
AcDbEntity
  8
SLD-0
100
AcDbMText
 10
102.8223327485
 20
150.2866949287
 30
0.0
 40
2.5
 41
0.0
 71
     1
 72
     1
  1
12.5
  7
SLDTEXTSTYLE0
 73
     1
 44
1.0
  0
ENDBLK
  5
14C
330
14A
100
AcDbEntity
  8
0
100
AcDbBlockEnd
  0
BLOCK
  5
155
330
154
100
AcDbEntity
  8
0
100
AcDbBlockBegin
  2
_D_4
 70
     0
 10
0.0
 20
0.0
 30
0.0
  3
_D_4
  1

  0
SOLID
  5
157
330
154
100
AcDbEntity
  8
SLD-0
100
AcDbTrace
 10
99.9143465546
 20
153.3354821289
 30
0.0
 11
97.9143465546
 21
153.5854821289
 31
0.0
 12
97.9143465546
 22
153.0854821289
 32
0.0
 13
97.9143465546
 23
153.0854821289
 33
0.0
  0
SOLID
  5
158
330
154
100
AcDbEntity
  8
SLD-0
100
AcDbTrace
 10
74.9143465546
 20
153.3354821289
 30
0.0
 11
76.9143465546
 21
153.0854821289
 31
0.0
 12
76.9143465546
 22
153.5854821289
 32
0.0
 13
76.9143465546
 23
153.5854821289
 33
0.0
  0
LINE
  5
159
330
154
100
AcDbEntity
  8
SLD-0
100
AcDbLine
 10
99.9143465546
 20
133.0479755578
 30
0.0
 11
99.9143465546
 21
154.3354821289
 31
0.0
  0
LINE
  5
15A
330
154
100
AcDbEntity
  8
SLD-0
100
AcDbLine
 10
74.9143465546
 20
133.0479755578
 30
0.0
 11
74.9143465546
 21
154.3354821289
 31
0.0
  0
LINE
  5
15B
330
154
100
AcDbEntity
  8
SLD-0
100
AcDbLine
 10
99.9143465546
 20
153.3354821289
 30
0.0
 11
74.9143465546
 21
153.3354821289
 31
0.0
  0
MTEXT
  5
15C
330
154
100
AcDbEntity
  8
SLD-0
100
AcDbMText
 10
85.5046243298
 20
156.5581513037
 30
0.0
 40
2.5
 41
0.0
 71
     1
 72
     1
  1
25
  7
SLDTEXTSTYLE0
 73
     1
 44
1.0
  0
ENDBLK
  5
156
330
154
100
AcDbEntity
  8
0
100
AcDbBlockEnd
  0
BLOCK
  5
15F
330
15E
100
AcDbEntity
  8
0
100
AcDbBlockBegin
  2
_D_5
 70
     0
 10
0.0
 20
0.0
 30
0.0
  3
_D_5
  1

  0
SOLID
  5
161
330
15E
100
AcDbEntity
  8
SLD-0
100
AcDbTrace
 10
99.9143465546
 20
153.3354821289
 30
0.0
 11
101.9143465546
 21
153.0854821289
 31
0.0
 12
101.9143465546
 22
153.5854821289
 32
0.0
 13
101.9143465546
 23
153.5854821289
 33
0.0
  0
SOLID
  5
162
330
15E
100
AcDbEntity
  8
SLD-0
100
AcDbTrace
 10
124.9143465546
 20
153.3354821289
 30
0.0
 11
122.9143465546
 21
153.5854821289
 31
0.0
 12
122.9143465546
 22
153.0854821289
 32
0.0
 13
122.9143465546
 23
153.0854821289
 33
0.0
  0
LINE
  5
163
330
15E
100
AcDbEntity
  8
SLD-0
100
AcDbLine
 10
99.9143465546
 20
133.0479755578
 30
0.0
 11
99.9143465546
 21
154.3354821289
 31
0.0
  0
LINE
  5
164
330
15E
100
AcDbEntity
  8
SLD-0
100
AcDbLine
 10
124.9143465546
 20
136.5479755578
 30
0.0
 11
124.9143465546
 21
154.3354821289
 31
0.0
  0
LINE
  5
165
330
15E
100
AcDbEntity
  8
SLD-0
100
AcDbLine
 10
99.9143465546
 20
153.3354821289
 30
0.0
 11
124.9143465546
 21
153.3354821289
 31
0.0
  0
MTEXT
  5
166
330
15E
100
AcDbEntity
  8
SLD-0
100
AcDbMText
 10
110.5046243298
 20
156.5581513037
 30
0.0
 40
2.5
 41
0.0
 71
     1
 72
     1
  1
25
  7
SLDTEXTSTYLE0
 73
     1
 44
1.0
  0
ENDBLK
  5
160
330
15E
100
AcDbEntity
  8
0
100
AcDbBlockEnd
  0
BLOCK
  5
169
330
168
100
AcDbEntity
  8
0
100
AcDbBlockBegin
  2
_D_6
 70
     0
 10
0.0
 20
0.0
 30
0.0
  3
_D_6
  1

  0
SOLID
  5
16B
330
168
100
AcDbEntity
  8
SLD-0
100
AcDbTrace
 10
99.9143465546
 20
159.6069385039
 30
0.0
 11
97.9143465546
 21
159.8569385039
 31
0.0
 12
97.9143465546
 22
159.3569385039
 32
0.0
 13
97.9143465546
 23
159.3569385039
 33
0.0
  0
SOLID
  5
16C
330
168
100
AcDbEntity
  8
SLD-0
100
AcDbTrace
 10
62.4143465546
 20
159.6069385039
 30
0.0
 11
64.4143465546
 21
159.3569385039
 31
0.0
 12
64.4143465546
 22
159.8569385039
 32
0.0
 13
64.4143465546
 23
159.8569385039
 33
0.0
  0
LINE
  5
16D
330
168
100
AcDbEntity
  8
SLD-0
100
AcDbLine
 10
99.9143465546
 20
133.0479755578
 30
0.0
 11
99.9143465546
 21
160.6069385039
 31
0.0
  0
LINE
  5
16E
330
168
100
AcDbEntity
  8
SLD-0
100
AcDbLine
 10
62.4143465546
 20
120.5479755578
 30
0.0
 11
62.4143465546
 21
160.6069385039
 31
0.0
  0
LINE
  5
16F
330
168
100
AcDbEntity
  8
SLD-0
100
AcDbLine
 10
99.9143465546
 20
159.6069385039
 30
0.0
 11
62.4143465546
 21
159.6069385039
 31
0.0
  0
MTEXT
  5
170
330
168
100
AcDbEntity
  8
SLD-0
100
AcDbMText
 10
77.8223327485
 20
162.8296076787
 30
0.0
 40
2.5
 41
0.0
 71
     1
 72
     1
  1
37.5
  7
SLDTEXTSTYLE0
 73
     1
 44
1.0
  0
ENDBLK
  5
16A
330
168
100
AcDbEntity
  8
0
100
AcDbBlockEnd
  0
BLOCK
  5
173
330
172
100
AcDbEntity
  8
0
100
AcDbBlockBegin
  2
_D_7
 70
     0
 10
0.0
 20
0.0
 30
0.0
  3
_D_7
  1

  0
SOLID
  5
175
330
172
100
AcDbEntity
  8
SLD-0
100
AcDbTrace
 10
99.9143465546
 20
159.6069385039
 30
0.0
 11
101.9143465546
 21
159.3569385039
 31
0.0
 12
101.9143465546
 22
159.8569385039
 32
0.0
 13
101.9143465546
 23
159.8569385039
 33
0.0
  0
SOLID
  5
176
330
172
100
AcDbEntity
  8
SLD-0
100
AcDbTrace
 10
137.4143465546
 20
159.6069385039
 30
0.0
 11
135.4143465546
 21
159.8569385039
 31
0.0
 12
135.4143465546
 22
159.3569385039
 32
0.0
 13
135.4143465546
 23
159.3569385039
 33
0.0
  0
LINE
  5
177
330
172
100
AcDbEntity
  8
SLD-0
100
AcDbLine
 10
99.9143465546
 20
133.0479755578
 30
0.0
 11
99.9143465546
 21
160.6069385039
 31
0.0
  0
LINE
  5
178
330
172
100
AcDbEntity
  8
SLD-0
100
AcDbLine
 10
137.4143465546
 20
120.5479755578
 30
0.0
 11
137.4143465546
 21
160.6069385039
 31
0.0
  0
LINE
  5
179
330
172
100
AcDbEntity
  8
SLD-0
100
AcDbLine
 10
99.9143465546
 20
159.6069385039
 30
0.0
 11
137.4143465546
 21
159.6069385039
 31
0.0
  0
MTEXT
  5
17A
330
172
100
AcDbEntity
  8
SLD-0
100
AcDbMText
 10
115.3223327485
 20
162.8296076787
 30
0.0
 40
2.5
 41
0.0
 71
     1
 72
     1
  1
37.5
  7
SLDTEXTSTYLE0
 73
     1
 44
1.0
  0
ENDBLK
  5
174
330
172
100
AcDbEntity
  8
0
100
AcDbBlockEnd
  0
BLOCK
  5
17D
330
17C
100
AcDbEntity
  8
0
100
AcDbBlockBegin
  2
_D_8
 70
     0
 10
0.0
 20
0.0
 30
0.0
  3
_D_8
  1

  0
SOLID
  5
17F
330
17C
100
AcDbEntity
  8
SLD-0
100
AcDbTrace
 10
50.5846874669
 20
107.0479755578
 30
0.0
 11
50.8346874669
 21
109.0479755578
 31
0.0
 12
50.3346874669
 22
109.0479755578
 32
0.0
 13
50.3346874669
 23
109.0479755578
 33
0.0
  0
SOLID
  5
180
330
17C
100
AcDbEntity
  8
SLD-0
100
AcDbTrace
 10
50.5846874669
 20
119.5479755578
 30
0.0
 11
50.3346874669
 21
117.5479755578
 31
0.0
 12
50.8346874669
 22
117.5479755578
 32
0.0
 13
50.8346874669
 23
117.5479755578
 33
0.0
  0
LINE
  5
181
330
17C
100
AcDbEntity
  8
SLD-0
100
AcDbLine
 10
67.4143465546
 20
107.0479755578
 30
0.0
 11
49.5846874669
 21
107.0479755578
 31
0.0
  0
LINE
  5
182
330
17C
100
AcDbEntity
  8
SLD-0
100
AcDbLine
 10
61.4143465546
 20
119.5479755578
 30
0.0
 11
49.5846874669
 21
119.5479755578
 31
0.0
  0
LINE
  5
183
330
17C
100
AcDbEntity
  8
SLD-0
100
AcDbLine
 10
50.5846874669
 20
107.0479755578
 30
0.0
 11
50.5846874669
 21
119.5479755578
 31
0.0
  0
MTEXT
  5
184
330
17C
100
AcDbEntity
  8
SLD-0
100
AcDbMText
 10
47.3620182921
 20
109.9559617517
 30
0.0
 40
2.5
 41
0.0
 71
     1
 72
     1
  1
12.5
  7
SLDTEXTSTYLE0
 11
6.123233995736766E-17
 21
1.0
 31
0.0
 73
     1
 44
1.0
  0
ENDBLK
  5
17E
330
17C
100
AcDbEntity
  8
0
100
AcDbBlockEnd
  0
BLOCK
  5
187
330
186
100
AcDbEntity
  8
0
100
AcDbBlockBegin
  2
_D_9
 70
     0
 10
0.0
 20
0.0
 30
0.0
  3
_D_9
  1

  0
SOLID
  5
189
330
186
100
AcDbEntity
  8
SLD-0
100
AcDbTrace
 10
50.5846874669
 20
94.5479755578
 30
0.0
 11
50.8346874669
 21
96.5479755578
 31
0.0
 12
50.3346874669
 22
96.5479755578
 32
0.0
 13
50.3346874669
 23
96.5479755578
 33
0.0
  0
SOLID
  5
18A
330
186
100
AcDbEntity
  8
SLD-0
100
AcDbTrace
 10
50.5846874669
 20
107.0479755578
 30
0.0
 11
50.3346874669
 21
105.0479755578
 31
0.0
 12
50.8346874669
 22
105.0479755578
 32
0.0
 13
50.8346874669
 23
105.0479755578
 33
0.0
  0
LINE
  5
18B
330
186
100
AcDbEntity
  8
SLD-0
100
AcDbLine
 10
61.4143465546
 20
94.5479755578
 30
0.0
 11
49.5846874669
 21
94.5479755578
 31
0.0
  0
LINE
  5
18C
330
186
100
AcDbEntity
  8
SLD-0
100
AcDbLine
 10
67.4143465546
 20
107.0479755578
 30
0.0
 11
49.5846874669
 21
107.0479755578
 31
0.0
  0
LINE
  5
18D
330
186
100
AcDbEntity
  8
SLD-0
100
AcDbLine
 10
50.5846874669
 20
94.5479755578
 30
0.0
 11
50.5846874669
 21
107.0479755578
 31
0.0
  0
MTEXT
  5
18E
330
186
100
AcDbEntity
  8
SLD-0
100
AcDbMText
 10
47.3620182921
 20
97.4559617517
 30
0.0
 40
2.5
 41
0.0
 71
     1
 72
     1
  1
12.5
  7
SLDTEXTSTYLE0
 11
6.123233995736766E-17
 21
1.0
 31
0.0
 73
     1
 44
1.0
  0
ENDBLK
  5
188
330
186
100
AcDbEntity
  8
0
100
AcDbBlockEnd
  0
BLOCK
  5
191
330
190
100
AcDbEntity
  8
0
100
AcDbBlockBegin
  2
_D_10
 70
     0
 10
0.0
 20
0.0
 30
0.0
  3
_D_10
  1

  0
SOLID
  5
193
330
190
100
AcDbEntity
  8
SLD-0
100
AcDbTrace
 10
43.5994320682
 20
107.0479755578
 30
0.0
 11
43.3494320682
 21
105.0479755578
 31
0.0
 12
43.8494320682
 22
105.0479755578
 32
0.0
 13
43.8494320682
 23
105.0479755578
 33
0.0
  0
SOLID
  5
194
330
190
100
AcDbEntity
  8
SLD-0
100
AcDbTrace
 10
43.5994320682
 20
82.0479755578
 30
0.0
 11
43.8494320682
 21
84.0479755578
 31
0.0
 12
43.3494320682
 22
84.0479755578
 32
0.0
 13
43.3494320682
 23
84.0479755578
 33
0.0
  0
LINE
  5
195
330
190
100
AcDbEntity
  8
SLD-0
100
AcDbLine
 10
67.4143465546
 20
107.0479755578
 30
0.0
 11
42.5994320682
 21
107.0479755578
 31
0.0
  0
LINE
  5
196
330
190
100
AcDbEntity
  8
SLD-0
100
AcDbLine
 10
70.4143465546
 20
82.0479755578
 30
0.0
 11
42.5994320682
 21
82.0479755578
 31
0.0
  0
LINE
  5
197
330
190
100
AcDbEntity
  8
SLD-0
100
AcDbLine
 10
43.5994320682
 20
107.0479755578
 30
0.0
 11
43.5994320682
 21
82.0479755578
 31
0.0
  0
MTEXT
  5
198
330
190
100
AcDbEntity
  8
SLD-0
100
AcDbMText
 10
40.3767628934
 20
92.638253333
 30
0.0
 40
2.5
 41
0.0
 71
     1
 72
     1
  1
25
  7
SLDTEXTSTYLE0
 11
-7.044195017643634E-15
 21
1.0
 31
0.0
 73
     1
 44
1.0
  0
ENDBLK
  5
192
330
190
100
AcDbEntity
  8
0
100
AcDbBlockEnd
  0
BLOCK
  5
19B
330
19A
100
AcDbEntity
  8
0
100
AcDbBlockBegin
  2
_D_11
 70
     0
 10
0.0
 20
0.0
 30
0.0
  3
_D_11
  1

  0
SOLID
  5
19D
330
19A
100
AcDbEntity
  8
SLD-0
100
AcDbTrace
 10
43.5994320682
 20
132.0479755578
 30
0.0
 11
43.3494320682
 21
130.0479755578
 31
0.0
 12
43.8494320682
 22
130.0479755578
 32
0.0
 13
43.8494320682
 23
130.0479755578
 33
0.0
  0
SOLID
  5
19E
330
19A
100
AcDbEntity
  8
SLD-0
100
AcDbTrace
 10
43.5994320682
 20
107.0479755578
 30
0.0
 11
43.8494320682
 21
109.0479755578
 31
0.0
 12
43.3494320682
 22
109.0479755578
 32
0.0
 13
43.3494320682
 23
109.0479755578
 33
0.0
  0
LINE
  5
19F
330
19A
100
AcDbEntity
  8
SLD-0
100
AcDbLine
 10
73.9143465546
 20
132.0479755578
 30
0.0
 11
42.5994320682
 21
132.0479755578
 31
0.0
  0
LINE
  5
1A0
330
19A
100
AcDbEntity
  8
SLD-0
100
AcDbLine
 10
73.9143465546
 20
107.0479755578
 30
0.0
 11
42.5994320682
 21
107.0479755578
 31
0.0
  0
LINE
  5
1A1
330
19A
100
AcDbEntity
  8
SLD-0
100
AcDbLine
 10
43.5994320682
 20
132.0479755578
 30
0.0
 11
43.5994320682
 21
107.0479755578
 31
0.0
  0
MTEXT
  5
1A2
330
19A
100
AcDbEntity
  8
SLD-0
100
AcDbMText
 10
40.3767628934
 20
117.638253333
 30
0.0
 40
2.5
 41
0.0
 71
     1
 72
     1
  1
25
  7
SLDTEXTSTYLE0
 11
-7.044195017643634E-15
 21
1.0
 31
0.0
 73
     1
 44
1.0
  0
ENDBLK
  5
19C
330
19A
100
AcDbEntity
  8
0
100
AcDbBlockEnd
  0
BLOCK
  5
1A6
330
1A5
100
AcDbEntity
  8
0
100
AcDbBlockBegin
  2
_D_12
 70
     0
 10
0.0
 20
0.0
 30
0.0
  3
_D_12
  1

  0
SOLID
  5
1A8
330
1A5
100
AcDbEntity
  8
SLD-0
100
AcDbTrace
 10
85.9750170504
 20
90.8159076889
 30
0.0
 11
85.0220980564
 21
89.0398318484
 31
0.0
 12
85.4886065401
 22
88.8599156604
 32
0.0
 13
85.4886065401
 23
88.8599156604
 33
0.0
  0
LINE
  5
1A9
330
1A5
100
AcDbEntity
  8
SLD-0
100
AcDbLine
 10
85.9750170504
 20
90.8159076889
 30
0.0
 11
73.9852179965
 21
59.7273045073
 31
0.0
  0
LINE
  5
1AA
330
1A5
100
AcDbEntity
  8
SLD-0
100
AcDbLine
 10
73.9852179965
 20
59.7273045073
 30
0.0
 11
57.2734127199
 21
59.7273045073
 31
0.0
  0
MTEXT
  5
1AB
330
1A5
100
AcDbEntity
  8
SLD-0
100
AcDbMText
 10
57.2734127199
 20
66.7867791486
 30
0.0
 40
2.5
 41
0.0
 71
     1
 72
     1
  1
4 HOLES,
  7
SLDTEXTSTYLE0
 73
     1
 44
1.0
  0
MTEXT
  5
1AC
330
1A5
100
AcDbEntity
  8
SLD-0
100
AcDbMText
 10
58.2109127199
 20
62.9499736821
 30
0.0
 40
2.5
 41
0.0
 71
     1
 72
     1
  1
M4 CLR
  7
SLDTEXTSTYLE0
 73
     1
 44
1.0
  0
ENDBLK
  5
1A7
330
1A5
100
AcDbEntity
  8
0
100
AcDbBlockEnd
  0
BLOCK
  5
1AF
330
1AE
100
AcDbEntity
  8
0
100
AcDbBlockBegin
  2
_D_13
 70
     0
 10
0.0
 20
0.0
 30
0.0
  3
_D_13
  1

  0
SOLID
  5
1B1
330
1AE
100
AcDbEntity
  8
SLD-0
100
AcDbTrace
 10
101.2669479564
 20
76.7168903543
 30
0.0
 11
101.5164809569
 21
74.7168320347
 31
0.0
 12
102.0011250664
 22
74.8397957985
 32
0.0
 13
102.0011250664
 23
74.8397957985
 33
0.0
  0
LINE
  5
1B2
330
1AE
100
AcDbEntity
  8
SLD-0
100
AcDbLine
 10
101.2669479564
 20
76.7168903543
 30
0.0
 11
105.5775407825
 21
59.7273045073
 31
0.0
  0
LINE
  5
1B3
330
1AE
100
AcDbEntity
  8
SLD-0
100
AcDbLine
 10
105.5775407825
 20
59.7273045073
 30
0.0
 11
122.2893460591
 21
59.7273045073
 31
0.0
  0
MTEXT
  5
1B4
330
1AE
100
AcDbEntity
  8
SLD-0
100
AcDbMText
 10
106.8275407825
 20
66.7867791486
 30
0.0
 40
2.5
 41
0.0
 71
     1
 72
     1
  1
5 HOLES,
  7
SLDTEXTSTYLE0
 73
     1
 44
1.0
  0
MTEXT
  5
1B5
330
1AE
100
AcDbEntity
  8
SLD-0
100
AcDbMText
 10
107.7650407825
 20
62.9499736821
 30
0.0
 40
2.5
 41
0.0
 71
     1
 72
     1
  1
M6 CLR
  7
SLDTEXTSTYLE0
 73
     1
 44
1.0
  0
ENDBLK
  5
1B0
330
1AE
100
AcDbEntity
  8
0
100
AcDbBlockEnd
  0
BLOCK
  5
1B8
330
1B7
100
AcDbEntity
  8
0
100
AcDbBlockBegin
  2
_D_14
 70
     0
 10
0.0
 20
0.0
 30
0.0
  3
_D_14
  1

  0
SOLID
  5
1BA
330
1B7
100
AcDbEntity
  8
SLD-0
100
AcDbTrace
 10
126.5215051016
 20
79.5147875654
 30
0.0
 11
127.3818451336
 21
77.6920656916
 31
0.0
 12
127.8040431323
 22
77.9599254494
 32
0.0
 13
127.8040431323
 23
77.9599254494
 33
0.0
  0
LINE
  5
1BB
330
1B7
100
AcDbEntity
  8
SLD-0
100
AcDbLine
 10
126.5215051016
 20
79.5147875654
 30
0.0
 11
139.0754973899
 21
59.7273045073
 31
0.0
  0
LINE
  5
1BC
330
1B7
100
AcDbEntity
  8
SLD-0
100
AcDbLine
 10
139.0754973899
 20
59.7273045073
 30
0.0
 11
157.6970252405
 21
59.7273045073
 31
0.0
  0
MTEXT
  5
1BD
330
1B7
100
AcDbEntity
  8
SLD-0
100
AcDbMText
 10
140.3254973899
 20
66.7867791486
 30
0.0
 40
2.5
 41
0.0
 71
     1
 72
     1
  1
12 HOLES,
  7
SLDTEXTSTYLE0
 73
     1
 44
1.0
  0
MTEXT
  5
1BE
330
1B7
100
AcDbEntity
  8
SLD-0
100
AcDbMText
 10
141.2629973899
 20
62.9499736821
 30
0.0
 40
2.5
 41
0.0
 71
     1
 72
     1
  1
M6
  7
SLDTEXTSTYLE0
 73
     1
 44
1.0
  0
ENDBLK
  5
1B9
330
1B7
100
AcDbEntity
  8
0
100
AcDbBlockEnd
  0
BLOCK
  5
1C0
330
1BF
100
AcDbEntity
  8
0
100
AcDbBlockBegin
  2
SW_CENTERMARKSYMBOL_0
 70
     0
 10
0.0
 20
0.0
 30
0.0
  3
SW_CENTERMARKSYMBOL_0
  1

  0
LINE
  5
1C2
330
1BF
100
AcDbEntity
  8
SLD-0
 62
     0
100
AcDbLine
 10
0.0
 20
0.0
 30
0.0
 11
0.0
 21
1.0
 31
0.0
  0
LINE
  5
1C3
330
1BF
100
AcDbEntity
  8
SLD-0
 62
     0
100
AcDbLine
 10
0.0
 20
0.0
 30
0.0
 11
-1.0
 21
0.0
 31
0.0
  0
LINE
  5
1C4
330
1BF
100
AcDbEntity
  8
SLD-0
 62
     0
100
AcDbLine
 10
0.0
 20
0.0
 30
0.0
 11
0.0
 21
-1.0
 31
0.0
  0
LINE
  5
1C5
330
1BF
100
AcDbEntity
  8
SLD-0
 62
     0
100
AcDbLine
 10
0.0
 20
0.0
 30
0.0
 11
1.0
 21
0.0
 31
0.0
  0
LINE
  5
1C6
330
1BF
100
AcDbEntity
  8
SLD-0
 62
     0
100
AcDbLine
 10
0.0
 20
2.0
 30
0.0
 11
0.0
 21
3.5
 31
0.0
  0
LINE
  5
1C7
330
1BF
100
AcDbEntity
  8
SLD-0
 62
     0
100
AcDbLine
 10
-2.0
 20
0.0
 30
0.0
 11
-3.5
 21
0.0
 31
0.0
  0
LINE
  5
1C8
330
1BF
100
AcDbEntity
  8
SLD-0
 62
     0
100
AcDbLine
 10
0.0
 20
-2.0
 30
0.0
 11
0.0
 21
-3.5
 31
0.0
  0
LINE
  5
1C9
330
1BF
100
AcDbEntity
  8
SLD-0
 62
     0
100
AcDbLine
 10
2.0
 20
0.0
 30
0.0
 11
3.5
 21
0.0
 31
0.0
  0
ENDBLK
  5
1C1
330
1BF
100
AcDbEntity
  8
0
100
AcDbBlockEnd
  0
BLOCK
  5
1CC
330
1CB
100
AcDbEntity
  8
0
100
AcDbBlockBegin
  2
SW_CENTERMARKSYMBOL_1
 70
     0
 10
0.0
 20
0.0
 30
0.0
  3
SW_CENTERMARKSYMBOL_1
  1

  0
LINE
  5
1CE
330
1CB
100
AcDbEntity
  8
SLD-0
 62
     0
100
AcDbLine
 10
0.0
 20
0.0
 30
0.0
 11
0.0
 21
1.0
 31
0.0
  0
LINE
  5
1CF
330
1CB
100
AcDbEntity
  8
SLD-0
 62
     0
100
AcDbLine
 10
0.0
 20
0.0
 30
0.0
 11
-1.0
 21
0.0
 31
0.0
  0
LINE
  5
1D0
330
1CB
100
AcDbEntity
  8
SLD-0
 62
     0
100
AcDbLine
 10
0.0
 20
0.0
 30
0.0
 11
0.0
 21
-1.0
 31
0.0
  0
LINE
  5
1D1
330
1CB
100
AcDbEntity
  8
SLD-0
 62
     0
100
AcDbLine
 10
0.0
 20
0.0
 30
0.0
 11
1.0
 21
0.0
 31
0.0
  0
LINE
  5
1D2
330
1CB
100
AcDbEntity
  8
SLD-0
 62
     0
100
AcDbLine
 10
0.0
 20
2.0
 30
0.0
 11
0.0
 21
3.5
 31
0.0
  0
LINE
  5
1D3
330
1CB
100
AcDbEntity
  8
SLD-0
 62
     0
100
AcDbLine
 10
-2.0
 20
0.0
 30
0.0
 11
-3.5
 21
0.0
 31
0.0
  0
LINE
  5
1D4
330
1CB
100
AcDbEntity
  8
SLD-0
 62
     0
100
AcDbLine
 10
0.0
 20
-2.0
 30
0.0
 11
0.0
 21
-3.5
 31
0.0
  0
LINE
  5
1D5
330
1CB
100
AcDbEntity
  8
SLD-0
 62
     0
100
AcDbLine
 10
2.0
 20
0.0
 30
0.0
 11
3.5
 21
0.0
 31
0.0
  0
ENDBLK
  5
1CD
330
1CB
100
AcDbEntity
  8
0
100
AcDbBlockEnd
  0
BLOCK
  5
1D8
330
1D7
100
AcDbEntity
  8
0
100
AcDbBlockBegin
  2
SW_CENTERMARKSYMBOL_2
 70
     0
 10
0.0
 20
0.0
 30
0.0
  3
SW_CENTERMARKSYMBOL_2
  1

  0
LINE
  5
1DA
330
1D7
100
AcDbEntity
  8
SLD-0
 62
     0
100
AcDbLine
 10
0.0
 20
0.0
 30
0.0
 11
0.0
 21
1.0
 31
0.0
  0
LINE
  5
1DB
330
1D7
100
AcDbEntity
  8
SLD-0
 62
     0
100
AcDbLine
 10
0.0
 20
0.0
 30
0.0
 11
-1.0
 21
0.0
 31
0.0
  0
LINE
  5
1DC
330
1D7
100
AcDbEntity
  8
SLD-0
 62
     0
100
AcDbLine
 10
0.0
 20
0.0
 30
0.0
 11
0.0
 21
-1.0
 31
0.0
  0
LINE
  5
1DD
330
1D7
100
AcDbEntity
  8
SLD-0
 62
     0
100
AcDbLine
 10
0.0
 20
0.0
 30
0.0
 11
1.0
 21
0.0
 31
0.0
  0
LINE
  5
1DE
330
1D7
100
AcDbEntity
  8
SLD-0
 62
     0
100
AcDbLine
 10
0.0
 20
2.0
 30
0.0
 11
0.0
 21
3.5
 31
0.0
  0
LINE
  5
1DF
330
1D7
100
AcDbEntity
  8
SLD-0
 62
     0
100
AcDbLine
 10
-2.0
 20
0.0
 30
0.0
 11
-3.5
 21
0.0
 31
0.0
  0
LINE
  5
1E0
330
1D7
100
AcDbEntity
  8
SLD-0
 62
     0
100
AcDbLine
 10
0.0
 20
-2.0
 30
0.0
 11
0.0
 21
-3.5
 31
0.0
  0
LINE
  5
1E1
330
1D7
100
AcDbEntity
  8
SLD-0
 62
     0
100
AcDbLine
 10
2.0
 20
0.0
 30
0.0
 11
3.5
 21
0.0
 31
0.0
  0
ENDBLK
  5
1D9
330
1D7
100
AcDbEntity
  8
0
100
AcDbBlockEnd
  0
BLOCK
  5
1E4
330
1E3
100
AcDbEntity
  8
0
100
AcDbBlockBegin
  2
SW_CENTERMARKSYMBOL_3
 70
     0
 10
0.0
 20
0.0
 30
0.0
  3
SW_CENTERMARKSYMBOL_3
  1

  0
LINE
  5
1E6
330
1E3
100
AcDbEntity
  8
SLD-0
 62
     0
100
AcDbLine
 10
0.0
 20
0.0
 30
0.0
 11
0.0
 21
1.0
 31
0.0
  0
LINE
  5
1E7
330
1E3
100
AcDbEntity
  8
SLD-0
 62
     0
100
AcDbLine
 10
0.0
 20
0.0
 30
0.0
 11
-1.0
 21
0.0
 31
0.0
  0
LINE
  5
1E8
330
1E3
100
AcDbEntity
  8
SLD-0
 62
     0
100
AcDbLine
 10
0.0
 20
0.0
 30
0.0
 11
0.0
 21
-1.0
 31
0.0
  0
LINE
  5
1E9
330
1E3
100
AcDbEntity
  8
SLD-0
 62
     0
100
AcDbLine
 10
0.0
 20
0.0
 30
0.0
 11
1.0
 21
0.0
 31
0.0
  0
LINE
  5
1EA
330
1E3
100
AcDbEntity
  8
SLD-0
 62
     0
100
AcDbLine
 10
0.0
 20
2.0
 30
0.0
 11
0.0
 21
5.0
 31
0.0
  0
LINE
  5
1EB
330
1E3
100
AcDbEntity
  8
SLD-0
 62
     0
100
AcDbLine
 10
-2.0
 20
0.0
 30
0.0
 11
-5.0
 21
0.0
 31
0.0
  0
LINE
  5
1EC
330
1E3
100
AcDbEntity
  8
SLD-0
 62
     0
100
AcDbLine
 10
0.0
 20
-2.0
 30
0.0
 11
0.0
 21
-5.0
 31
0.0
  0
LINE
  5
1ED
330
1E3
100
AcDbEntity
  8
SLD-0
 62
     0
100
AcDbLine
 10
2.0
 20
0.0
 30
0.0
 11
5.0
 21
0.0
 31
0.0
  0
ENDBLK
  5
1E5
330
1E3
100
AcDbEntity
  8
0
100
AcDbBlockEnd
  0
BLOCK
  5
1F0
330
1EF
100
AcDbEntity
  8
0
100
AcDbBlockBegin
  2
SW_CENTERMARKSYMBOL_4
 70
     0
 10
0.0
 20
0.0
 30
0.0
  3
SW_CENTERMARKSYMBOL_4
  1

  0
LINE
  5
1F2
330
1EF
100
AcDbEntity
  8
SLD-0
 62
     0
100
AcDbLine
 10
0.0
 20
0.0
 30
0.0
 11
0.0
 21
1.0
 31
0.0
  0
LINE
  5
1F3
330
1EF
100
AcDbEntity
  8
SLD-0
 62
     0
100
AcDbLine
 10
0.0
 20
0.0
 30
0.0
 11
-1.0
 21
0.0
 31
0.0
  0
LINE
  5
1F4
330
1EF
100
AcDbEntity
  8
SLD-0
 62
     0
100
AcDbLine
 10
0.0
 20
0.0
 30
0.0
 11
0.0
 21
-1.0
 31
0.0
  0
LINE
  5
1F5
330
1EF
100
AcDbEntity
  8
SLD-0
 62
     0
100
AcDbLine
 10
0.0
 20
0.0
 30
0.0
 11
1.0
 21
0.0
 31
0.0
  0
LINE
  5
1F6
330
1EF
100
AcDbEntity
  8
SLD-0
 62
     0
100
AcDbLine
 10
0.0
 20
2.0
 30
0.0
 11
0.0
 21
6.5
 31
0.0
  0
LINE
  5
1F7
330
1EF
100
AcDbEntity
  8
SLD-0
 62
     0
100
AcDbLine
 10
-2.0
 20
0.0
 30
0.0
 11
-6.5
 21
0.0
 31
0.0
  0
LINE
  5
1F8
330
1EF
100
AcDbEntity
  8
SLD-0
 62
     0
100
AcDbLine
 10
0.0
 20
-2.0
 30
0.0
 11
0.0
 21
-6.5
 31
0.0
  0
LINE
  5
1F9
330
1EF
100
AcDbEntity
  8
SLD-0
 62
     0
100
AcDbLine
 10
2.0
 20
0.0
 30
0.0
 11
6.5
 21
0.0
 31
0.0
  0
ENDBLK
  5
1F1
330
1EF
100
AcDbEntity
  8
0
100
AcDbBlockEnd
  0
BLOCK
  5
1FC
330
1FB
100
AcDbEntity
  8
0
100
AcDbBlockBegin
  2
SW_CENTERMARKSYMBOL_5
 70
     0
 10
0.0
 20
0.0
 30
0.0
  3
SW_CENTERMARKSYMBOL_5
  1

  0
LINE
  5
1FE
330
1FB
100
AcDbEntity
  8
SLD-0
 62
     0
100
AcDbLine
 10
0.0
 20
0.0
 30
0.0
 11
0.0
 21
1.0
 31
0.0
  0
LINE
  5
1FF
330
1FB
100
AcDbEntity
  8
SLD-0
 62
     0
100
AcDbLine
 10
0.0
 20
0.0
 30
0.0
 11
-1.0
 21
0.0
 31
0.0
  0
LINE
  5
200
330
1FB
100
AcDbEntity
  8
SLD-0
 62
     0
100
AcDbLine
 10
0.0
 20
0.0
 30
0.0
 11
0.0
 21
-1.0
 31
0.0
  0
LINE
  5
201
330
1FB
100
AcDbEntity
  8
SLD-0
 62
     0
100
AcDbLine
 10
0.0
 20
0.0
 30
0.0
 11
1.0
 21
0.0
 31
0.0
  0
LINE
  5
202
330
1FB
100
AcDbEntity
  8
SLD-0
 62
     0
100
AcDbLine
 10
0.0
 20
2.0
 30
0.0
 11
0.0
 21
3.5
 31
0.0
  0
LINE
  5
203
330
1FB
100
AcDbEntity
  8
SLD-0
 62
     0
100
AcDbLine
 10
-2.0
 20
0.0
 30
0.0
 11
-3.5
 21
0.0
 31
0.0
  0
LINE
  5
204
330
1FB
100
AcDbEntity
  8
SLD-0
 62
     0
100
AcDbLine
 10
0.0
 20
-2.0
 30
0.0
 11
0.0
 21
-3.5
 31
0.0
  0
LINE
  5
205
330
1FB
100
AcDbEntity
  8
SLD-0
 62
     0
100
AcDbLine
 10
2.0
 20
0.0
 30
0.0
 11
3.5
 21
0.0
 31
0.0
  0
ENDBLK
  5
1FD
330
1FB
100
AcDbEntity
  8
0
100
AcDbBlockEnd
  0
BLOCK
  5
208
330
207
100
AcDbEntity
  8
0
100
AcDbBlockBegin
  2
SW_CENTERMARKSYMBOL_6
 70
     0
 10
0.0
 20
0.0
 30
0.0
  3
SW_CENTERMARKSYMBOL_6
  1

  0
LINE
  5
20A
330
207
100
AcDbEntity
  8
SLD-0
 62
     0
100
AcDbLine
 10
0.0
 20
0.0
 30
0.0
 11
0.0
 21
1.0
 31
0.0
  0
LINE
  5
20B
330
207
100
AcDbEntity
  8
SLD-0
 62
     0
100
AcDbLine
 10
0.0
 20
0.0
 30
0.0
 11
-1.0
 21
0.0
 31
0.0
  0
LINE
  5
20C
330
207
100
AcDbEntity
  8
SLD-0
 62
     0
100
AcDbLine
 10
0.0
 20
0.0
 30
0.0
 11
0.0
 21
-1.0
 31
0.0
  0
LINE
  5
20D
330
207
100
AcDbEntity
  8
SLD-0
 62
     0
100
AcDbLine
 10
0.0
 20
0.0
 30
0.0
 11
1.0
 21
0.0
 31
0.0
  0
LINE
  5
20E
330
207
100
AcDbEntity
  8
SLD-0
 62
     0
100
AcDbLine
 10
0.0
 20
2.0
 30
0.0
 11
0.0
 21
3.5
 31
0.0
  0
LINE
  5
20F
330
207
100
AcDbEntity
  8
SLD-0
 62
     0
100
AcDbLine
 10
-2.0
 20
0.0
 30
0.0
 11
-3.5
 21
0.0
 31
0.0
  0
LINE
  5
210
330
207
100
AcDbEntity
  8
SLD-0
 62
     0
100
AcDbLine
 10
0.0
 20
-2.0
 30
0.0
 11
0.0
 21
-3.5
 31
0.0
  0
LINE
  5
211
330
207
100
AcDbEntity
  8
SLD-0
 62
     0
100
AcDbLine
 10
2.0
 20
0.0
 30
0.0
 11
3.5
 21
0.0
 31
0.0
  0
ENDBLK
  5
209
330
207
100
AcDbEntity
  8
0
100
AcDbBlockEnd
  0
BLOCK
  5
214
330
213
100
AcDbEntity
  8
0
100
AcDbBlockBegin
  2
SW_CENTERMARKSYMBOL_7
 70
     0
 10
0.0
 20
0.0
 30
0.0
  3
SW_CENTERMARKSYMBOL_7
  1

  0
LINE
  5
216
330
213
100
AcDbEntity
  8
SLD-0
 62
     0
100
AcDbLine
 10
0.0
 20
0.0
 30
0.0
 11
0.0
 21
1.0
 31
0.0
  0
LINE
  5
217
330
213
100
AcDbEntity
  8
SLD-0
 62
     0
100
AcDbLine
 10
0.0
 20
0.0
 30
0.0
 11
-1.0
 21
0.0
 31
0.0
  0
LINE
  5
218
330
213
100
AcDbEntity
  8
SLD-0
 62
     0
100
AcDbLine
 10
0.0
 20
0.0
 30
0.0
 11
0.0
 21
-1.0
 31
0.0
  0
LINE
  5
219
330
213
100
AcDbEntity
  8
SLD-0
 62
     0
100
AcDbLine
 10
0.0
 20
0.0
 30
0.0
 11
1.0
 21
0.0
 31
0.0
  0
LINE
  5
21A
330
213
100
AcDbEntity
  8
SLD-0
 62
     0
100
AcDbLine
 10
0.0
 20
2.0
 30
0.0
 11
0.0
 21
3.5
 31
0.0
  0
LINE
  5
21B
330
213
100
AcDbEntity
  8
SLD-0
 62
     0
100
AcDbLine
 10
-2.0
 20
0.0
 30
0.0
 11
-3.5
 21
0.0
 31
0.0
  0
LINE
  5
21C
330
213
100
AcDbEntity
  8
SLD-0
 62
     0
100
AcDbLine
 10
0.0
 20
-2.0
 30
0.0
 11
0.0
 21
-3.5
 31
0.0
  0
LINE
  5
21D
330
213
100
AcDbEntity
  8
SLD-0
 62
     0
100
AcDbLine
 10
2.0
 20
0.0
 30
0.0
 11
3.5
 21
0.0
 31
0.0
  0
ENDBLK
  5
215
330
213
100
AcDbEntity
  8
0
100
AcDbBlockEnd
  0
BLOCK
  5
220
330
21F
100
AcDbEntity
  8
0
100
AcDbBlockBegin
  2
SW_CENTERMARKSYMBOL_8
 70
     0
 10
0.0
 20
0.0
 30
0.0
  3
SW_CENTERMARKSYMBOL_8
  1

  0
LINE
  5
222
330
21F
100
AcDbEntity
  8
SLD-0
 62
     0
100
AcDbLine
 10
0.0
 20
0.0
 30
0.0
 11
0.0
 21
1.0
 31
0.0
  0
LINE
  5
223
330
21F
100
AcDbEntity
  8
SLD-0
 62
     0
100
AcDbLine
 10
0.0
 20
0.0
 30
0.0
 11
-1.0
 21
0.0
 31
0.0
  0
LINE
  5
224
330
21F
100
AcDbEntity
  8
SLD-0
 62
     0
100
AcDbLine
 10
0.0
 20
0.0
 30
0.0
 11
0.0
 21
-1.0
 31
0.0
  0
LINE
  5
225
330
21F
100
AcDbEntity
  8
SLD-0
 62
     0
100
AcDbLine
 10
0.0
 20
0.0
 30
0.0
 11
1.0
 21
0.0
 31
0.0
  0
LINE
  5
226
330
21F
100
AcDbEntity
  8
SLD-0
 62
     0
100
AcDbLine
 10
0.0
 20
2.0
 30
0.0
 11
0.0
 21
5.0
 31
0.0
  0
LINE
  5
227
330
21F
100
AcDbEntity
  8
SLD-0
 62
     0
100
AcDbLine
 10
-2.0
 20
0.0
 30
0.0
 11
-5.0
 21
0.0
 31
0.0
  0
LINE
  5
228
330
21F
100
AcDbEntity
  8
SLD-0
 62
     0
100
AcDbLine
 10
0.0
 20
-2.0
 30
0.0
 11
0.0
 21
-5.0
 31
0.0
  0
LINE
  5
229
330
21F
100
AcDbEntity
  8
SLD-0
 62
     0
100
AcDbLine
 10
2.0
 20
0.0
 30
0.0
 11
5.0
 21
0.0
 31
0.0
  0
ENDBLK
  5
221
330
21F
100
AcDbEntity
  8
0
100
AcDbBlockEnd
  0
BLOCK
  5
22C
330
22B
100
AcDbEntity
  8
0
100
AcDbBlockBegin
  2
SW_CENTERMARKSYMBOL_9
 70
     0
 10
0.0
 20
0.0
 30
0.0
  3
SW_CENTERMARKSYMBOL_9
  1

  0
LINE
  5
22E
330
22B
100
AcDbEntity
  8
SLD-0
 62
     0
100
AcDbLine
 10
0.0
 20
0.0
 30
0.0
 11
0.0
 21
1.0
 31
0.0
  0
LINE
  5
22F
330
22B
100
AcDbEntity
  8
SLD-0
 62
     0
100
AcDbLine
 10
0.0
 20
0.0
 30
0.0
 11
-1.0
 21
0.0
 31
0.0
  0
LINE
  5
230
330
22B
100
AcDbEntity
  8
SLD-0
 62
     0
100
AcDbLine
 10
0.0
 20
0.0
 30
0.0
 11
0.0
 21
-1.0
 31
0.0
  0
LINE
  5
231
330
22B
100
AcDbEntity
  8
SLD-0
 62
     0
100
AcDbLine
 10
0.0
 20
0.0
 30
0.0
 11
1.0
 21
0.0
 31
0.0
  0
LINE
  5
232
330
22B
100
AcDbEntity
  8
SLD-0
 62
     0
100
AcDbLine
 10
0.0
 20
2.0
 30
0.0
 11
0.0
 21
6.5
 31
0.0
  0
LINE
  5
233
330
22B
100
AcDbEntity
  8
SLD-0
 62
     0
100
AcDbLine
 10
-2.0
 20
0.0
 30
0.0
 11
-6.5
 21
0.0
 31
0.0
  0
LINE
  5
234
330
22B
100
AcDbEntity
  8
SLD-0
 62
     0
100
AcDbLine
 10
0.0
 20
-2.0
 30
0.0
 11
0.0
 21
-6.5
 31
0.0
  0
LINE
  5
235
330
22B
100
AcDbEntity
  8
SLD-0
 62
     0
100
AcDbLine
 10
2.0
 20
0.0
 30
0.0
 11
6.5
 21
0.0
 31
0.0
  0
ENDBLK
  5
22D
330
22B
100
AcDbEntity
  8
0
100
AcDbBlockEnd
  0
BLOCK
  5
238
330
237
100
AcDbEntity
  8
0
100
AcDbBlockBegin
  2
SW_CENTERMARKSYMBOL_10
 70
     0
 10
0.0
 20
0.0
 30
0.0
  3
SW_CENTERMARKSYMBOL_10
  1

  0
LINE
  5
23A
330
237
100
AcDbEntity
  8
SLD-0
 62
     0
100
AcDbLine
 10
0.0
 20
0.0
 30
0.0
 11
0.0
 21
1.0
 31
0.0
  0
LINE
  5
23B
330
237
100
AcDbEntity
  8
SLD-0
 62
     0
100
AcDbLine
 10
0.0
 20
0.0
 30
0.0
 11
-1.0
 21
0.0
 31
0.0
  0
LINE
  5
23C
330
237
100
AcDbEntity
  8
SLD-0
 62
     0
100
AcDbLine
 10
0.0
 20
0.0
 30
0.0
 11
0.0
 21
-1.0
 31
0.0
  0
LINE
  5
23D
330
237
100
AcDbEntity
  8
SLD-0
 62
     0
100
AcDbLine
 10
0.0
 20
0.0
 30
0.0
 11
1.0
 21
0.0
 31
0.0
  0
LINE
  5
23E
330
237
100
AcDbEntity
  8
SLD-0
 62
     0
100
AcDbLine
 10
0.0
 20
2.0
 30
0.0
 11
0.0
 21
3.5
 31
0.0
  0
LINE
  5
23F
330
237
100
AcDbEntity
  8
SLD-0
 62
     0
100
AcDbLine
 10
-2.0
 20
0.0
 30
0.0
 11
-3.5
 21
0.0
 31
0.0
  0
LINE
  5
240
330
237
100
AcDbEntity
  8
SLD-0
 62
     0
100
AcDbLine
 10
0.0
 20
-2.0
 30
0.0
 11
0.0
 21
-3.5
 31
0.0
  0
LINE
  5
241
330
237
100
AcDbEntity
  8
SLD-0
 62
     0
100
AcDbLine
 10
2.0
 20
0.0
 30
0.0
 11
3.5
 21
0.0
 31
0.0
  0
ENDBLK
  5
239
330
237
100
AcDbEntity
  8
0
100
AcDbBlockEnd
  0
BLOCK
  5
244
330
243
100
AcDbEntity
  8
0
100
AcDbBlockBegin
  2
SW_CENTERMARKSYMBOL_11
 70
     0
 10
0.0
 20
0.0
 30
0.0
  3
SW_CENTERMARKSYMBOL_11
  1

  0
LINE
  5
246
330
243
100
AcDbEntity
  8
SLD-0
 62
     0
100
AcDbLine
 10
0.0
 20
0.0
 30
0.0
 11
0.0
 21
1.0
 31
0.0
  0
LINE
  5
247
330
243
100
AcDbEntity
  8
SLD-0
 62
     0
100
AcDbLine
 10
0.0
 20
0.0
 30
0.0
 11
-1.0
 21
0.0
 31
0.0
  0
LINE
  5
248
330
243
100
AcDbEntity
  8
SLD-0
 62
     0
100
AcDbLine
 10
0.0
 20
0.0
 30
0.0
 11
0.0
 21
-1.0
 31
0.0
  0
LINE
  5
249
330
243
100
AcDbEntity
  8
SLD-0
 62
     0
100
AcDbLine
 10
0.0
 20
0.0
 30
0.0
 11
1.0
 21
0.0
 31
0.0
  0
LINE
  5
24A
330
243
100
AcDbEntity
  8
SLD-0
 62
     0
100
AcDbLine
 10
0.0
 20
2.0
 30
0.0
 11
0.0
 21
3.5
 31
0.0
  0
LINE
  5
24B
330
243
100
AcDbEntity
  8
SLD-0
 62
     0
100
AcDbLine
 10
-2.0
 20
0.0
 30
0.0
 11
-3.5
 21
0.0
 31
0.0
  0
LINE
  5
24C
330
243
100
AcDbEntity
  8
SLD-0
 62
     0
100
AcDbLine
 10
0.0
 20
-2.0
 30
0.0
 11
0.0
 21
-3.5
 31
0.0
  0
LINE
  5
24D
330
243
100
AcDbEntity
  8
SLD-0
 62
     0
100
AcDbLine
 10
2.0
 20
0.0
 30
0.0
 11
3.5
 21
0.0
 31
0.0
  0
ENDBLK
  5
245
330
243
100
AcDbEntity
  8
0
100
AcDbBlockEnd
  0
BLOCK
  5
250
330
24F
100
AcDbEntity
  8
0
100
AcDbBlockBegin
  2
SW_CENTERMARKSYMBOL_12
 70
     0
 10
0.0
 20
0.0
 30
0.0
  3
SW_CENTERMARKSYMBOL_12
  1

  0
LINE
  5
252
330
24F
100
AcDbEntity
  8
SLD-0
 62
     0
100
AcDbLine
 10
0.0
 20
0.0
 30
0.0
 11
0.0
 21
1.0
 31
0.0
  0
LINE
  5
253
330
24F
100
AcDbEntity
  8
SLD-0
 62
     0
100
AcDbLine
 10
0.0
 20
0.0
 30
0.0
 11
-1.0
 21
0.0
 31
0.0
  0
LINE
  5
254
330
24F
100
AcDbEntity
  8
SLD-0
 62
     0
100
AcDbLine
 10
0.0
 20
0.0
 30
0.0
 11
0.0
 21
-1.0
 31
0.0
  0
LINE
  5
255
330
24F
100
AcDbEntity
  8
SLD-0
 62
     0
100
AcDbLine
 10
0.0
 20
0.0
 30
0.0
 11
1.0
 21
0.0
 31
0.0
  0
LINE
  5
256
330
24F
100
AcDbEntity
  8
SLD-0
 62
     0
100
AcDbLine
 10
0.0
 20
2.0
 30
0.0
 11
0.0
 21
3.5
 31
0.0
  0
LINE
  5
257
330
24F
100
AcDbEntity
  8
SLD-0
 62
     0
100
AcDbLine
 10
-2.0
 20
0.0
 30
0.0
 11
-3.5
 21
0.0
 31
0.0
  0
LINE
  5
258
330
24F
100
AcDbEntity
  8
SLD-0
 62
     0
100
AcDbLine
 10
0.0
 20
-2.0
 30
0.0
 11
0.0
 21
-3.5
 31
0.0
  0
LINE
  5
259
330
24F
100
AcDbEntity
  8
SLD-0
 62
     0
100
AcDbLine
 10
2.0
 20
0.0
 30
0.0
 11
3.5
 21
0.0
 31
0.0
  0
ENDBLK
  5
251
330
24F
100
AcDbEntity
  8
0
100
AcDbBlockEnd
  0
BLOCK
  5
25C
330
25B
100
AcDbEntity
  8
0
100
AcDbBlockBegin
  2
SW_CENTERMARKSYMBOL_13
 70
     0
 10
0.0
 20
0.0
 30
0.0
  3
SW_CENTERMARKSYMBOL_13
  1

  0
LINE
  5
25E
330
25B
100
AcDbEntity
  8
SLD-0
 62
     0
100
AcDbLine
 10
0.0
 20
0.0
 30
0.0
 11
0.0
 21
1.0
 31
0.0
  0
LINE
  5
25F
330
25B
100
AcDbEntity
  8
SLD-0
 62
     0
100
AcDbLine
 10
0.0
 20
0.0
 30
0.0
 11
-1.0
 21
0.0
 31
0.0
  0
LINE
  5
260
330
25B
100
AcDbEntity
  8
SLD-0
 62
     0
100
AcDbLine
 10
0.0
 20
0.0
 30
0.0
 11
0.0
 21
-1.0
 31
0.0
  0
LINE
  5
261
330
25B
100
AcDbEntity
  8
SLD-0
 62
     0
100
AcDbLine
 10
0.0
 20
0.0
 30
0.0
 11
1.0
 21
0.0
 31
0.0
  0
LINE
  5
262
330
25B
100
AcDbEntity
  8
SLD-0
 62
     0
100
AcDbLine
 10
0.0
 20
2.0
 30
0.0
 11
0.0
 21
3.5
 31
0.0
  0
LINE
  5
263
330
25B
100
AcDbEntity
  8
SLD-0
 62
     0
100
AcDbLine
 10
-2.0
 20
0.0
 30
0.0
 11
-3.5
 21
0.0
 31
0.0
  0
LINE
  5
264
330
25B
100
AcDbEntity
  8
SLD-0
 62
     0
100
AcDbLine
 10
0.0
 20
-2.0
 30
0.0
 11
0.0
 21
-3.5
 31
0.0
  0
LINE
  5
265
330
25B
100
AcDbEntity
  8
SLD-0
 62
     0
100
AcDbLine
 10
2.0
 20
0.0
 30
0.0
 11
3.5
 21
0.0
 31
0.0
  0
ENDBLK
  5
25D
330
25B
100
AcDbEntity
  8
0
100
AcDbBlockEnd
  0
BLOCK
  5
268
330
267
100
AcDbEntity
  8
0
100
AcDbBlockBegin
  2
SW_CENTERMARKSYMBOL_14
 70
     0
 10
0.0
 20
0.0
 30
0.0
  3
SW_CENTERMARKSYMBOL_14
  1

  0
LINE
  5
26A
330
267
100
AcDbEntity
  8
SLD-0
 62
     0
100
AcDbLine
 10
0.0
 20
0.0
 30
0.0
 11
0.0
 21
1.0
 31
0.0
  0
LINE
  5
26B
330
267
100
AcDbEntity
  8
SLD-0
 62
     0
100
AcDbLine
 10
0.0
 20
0.0
 30
0.0
 11
-1.0
 21
0.0
 31
0.0
  0
LINE
  5
26C
330
267
100
AcDbEntity
  8
SLD-0
 62
     0
100
AcDbLine
 10
0.0
 20
0.0
 30
0.0
 11
0.0
 21
-1.0
 31
0.0
  0
LINE
  5
26D
330
267
100
AcDbEntity
  8
SLD-0
 62
     0
100
AcDbLine
 10
0.0
 20
0.0
 30
0.0
 11
1.0
 21
0.0
 31
0.0
  0
LINE
  5
26E
330
267
100
AcDbEntity
  8
SLD-0
 62
     0
100
AcDbLine
 10
0.0
 20
2.0
 30
0.0
 11
0.0
 21
3.5
 31
0.0
  0
LINE
  5
26F
330
267
100
AcDbEntity
  8
SLD-0
 62
     0
100
AcDbLine
 10
-2.0
 20
0.0
 30
0.0
 11
-3.5
 21
0.0
 31
0.0
  0
LINE
  5
270
330
267
100
AcDbEntity
  8
SLD-0
 62
     0
100
AcDbLine
 10
0.0
 20
-2.0
 30
0.0
 11
0.0
 21
-3.5
 31
0.0
  0
LINE
  5
271
330
267
100
AcDbEntity
  8
SLD-0
 62
     0
100
AcDbLine
 10
2.0
 20
0.0
 30
0.0
 11
3.5
 21
0.0
 31
0.0
  0
ENDBLK
  5
269
330
267
100
AcDbEntity
  8
0
100
AcDbBlockEnd
  0
BLOCK
  5
274
330
273
100
AcDbEntity
  8
0
100
AcDbBlockBegin
  2
SW_CENTERMARKSYMBOL_15
 70
     0
 10
0.0
 20
0.0
 30
0.0
  3
SW_CENTERMARKSYMBOL_15
  1

  0
LINE
  5
276
330
273
100
AcDbEntity
  8
SLD-0
 62
     0
100
AcDbLine
 10
0.0
 20
0.0
 30
0.0
 11
0.0
 21
1.0
 31
0.0
  0
LINE
  5
277
330
273
100
AcDbEntity
  8
SLD-0
 62
     0
100
AcDbLine
 10
0.0
 20
0.0
 30
0.0
 11
-1.0
 21
0.0
 31
0.0
  0
LINE
  5
278
330
273
100
AcDbEntity
  8
SLD-0
 62
     0
100
AcDbLine
 10
0.0
 20
0.0
 30
0.0
 11
0.0
 21
-1.0
 31
0.0
  0
LINE
  5
279
330
273
100
AcDbEntity
  8
SLD-0
 62
     0
100
AcDbLine
 10
0.0
 20
0.0
 30
0.0
 11
1.0
 21
0.0
 31
0.0
  0
LINE
  5
27A
330
273
100
AcDbEntity
  8
SLD-0
 62
     0
100
AcDbLine
 10
0.0
 20
2.0
 30
0.0
 11
0.0
 21
3.5
 31
0.0
  0
LINE
  5
27B
330
273
100
AcDbEntity
  8
SLD-0
 62
     0
100
AcDbLine
 10
-2.0
 20
0.0
 30
0.0
 11
-3.5
 21
0.0
 31
0.0
  0
LINE
  5
27C
330
273
100
AcDbEntity
  8
SLD-0
 62
     0
100
AcDbLine
 10
0.0
 20
-2.0
 30
0.0
 11
0.0
 21
-3.5
 31
0.0
  0
LINE
  5
27D
330
273
100
AcDbEntity
  8
SLD-0
 62
     0
100
AcDbLine
 10
2.0
 20
0.0
 30
0.0
 11
3.5
 21
0.0
 31
0.0
  0
ENDBLK
  5
275
330
273
100
AcDbEntity
  8
0
100
AcDbBlockEnd
  0
BLOCK
  5
280
330
27F
100
AcDbEntity
  8
0
100
AcDbBlockBegin
  2
SW_CENTERMARKSYMBOL_16
 70
     0
 10
0.0
 20
0.0
 30
0.0
  3
SW_CENTERMARKSYMBOL_16
  1

  0
LINE
  5
282
330
27F
100
AcDbEntity
  8
SLD-0
 62
     0
100
AcDbLine
 10
0.0
 20
0.0
 30
0.0
 11
0.0
 21
1.0
 31
0.0
  0
LINE
  5
283
330
27F
100
AcDbEntity
  8
SLD-0
 62
     0
100
AcDbLine
 10
0.0
 20
0.0
 30
0.0
 11
-1.0
 21
0.0
 31
0.0
  0
LINE
  5
284
330
27F
100
AcDbEntity
  8
SLD-0
 62
     0
100
AcDbLine
 10
0.0
 20
0.0
 30
0.0
 11
0.0
 21
-1.0
 31
0.0
  0
LINE
  5
285
330
27F
100
AcDbEntity
  8
SLD-0
 62
     0
100
AcDbLine
 10
0.0
 20
0.0
 30
0.0
 11
1.0
 21
0.0
 31
0.0
  0
LINE
  5
286
330
27F
100
AcDbEntity
  8
SLD-0
 62
     0
100
AcDbLine
 10
0.0
 20
2.0
 30
0.0
 11
0.0
 21
5.0
 31
0.0
  0
LINE
  5
287
330
27F
100
AcDbEntity
  8
SLD-0
 62
     0
100
AcDbLine
 10
-2.0
 20
0.0
 30
0.0
 11
-5.0
 21
0.0
 31
0.0
  0
LINE
  5
288
330
27F
100
AcDbEntity
  8
SLD-0
 62
     0
100
AcDbLine
 10
0.0
 20
-2.0
 30
0.0
 11
0.0
 21
-5.0
 31
0.0
  0
LINE
  5
289
330
27F
100
AcDbEntity
  8
SLD-0
 62
     0
100
AcDbLine
 10
2.0
 20
0.0
 30
0.0
 11
5.0
 21
0.0
 31
0.0
  0
ENDBLK
  5
281
330
27F
100
AcDbEntity
  8
0
100
AcDbBlockEnd
  0
BLOCK
  5
28C
330
28B
100
AcDbEntity
  8
0
100
AcDbBlockBegin
  2
SW_CENTERMARKSYMBOL_17
 70
     0
 10
0.0
 20
0.0
 30
0.0
  3
SW_CENTERMARKSYMBOL_17
  1

  0
LINE
  5
28E
330
28B
100
AcDbEntity
  8
SLD-0
 62
     0
100
AcDbLine
 10
0.0
 20
0.0
 30
0.0
 11
0.0
 21
1.0
 31
0.0
  0
LINE
  5
28F
330
28B
100
AcDbEntity
  8
SLD-0
 62
     0
100
AcDbLine
 10
0.0
 20
0.0
 30
0.0
 11
-1.0
 21
0.0
 31
0.0
  0
LINE
  5
290
330
28B
100
AcDbEntity
  8
SLD-0
 62
     0
100
AcDbLine
 10
0.0
 20
0.0
 30
0.0
 11
0.0
 21
-1.0
 31
0.0
  0
LINE
  5
291
330
28B
100
AcDbEntity
  8
SLD-0
 62
     0
100
AcDbLine
 10
0.0
 20
0.0
 30
0.0
 11
1.0
 21
0.0
 31
0.0
  0
LINE
  5
292
330
28B
100
AcDbEntity
  8
SLD-0
 62
     0
100
AcDbLine
 10
0.0
 20
2.0
 30
0.0
 11
0.0
 21
6.5
 31
0.0
  0
LINE
  5
293
330
28B
100
AcDbEntity
  8
SLD-0
 62
     0
100
AcDbLine
 10
-2.0
 20
0.0
 30
0.0
 11
-6.5
 21
0.0
 31
0.0
  0
LINE
  5
294
330
28B
100
AcDbEntity
  8
SLD-0
 62
     0
100
AcDbLine
 10
0.0
 20
-2.0
 30
0.0
 11
0.0
 21
-6.5
 31
0.0
  0
LINE
  5
295
330
28B
100
AcDbEntity
  8
SLD-0
 62
     0
100
AcDbLine
 10
2.0
 20
0.0
 30
0.0
 11
6.5
 21
0.0
 31
0.0
  0
ENDBLK
  5
28D
330
28B
100
AcDbEntity
  8
0
100
AcDbBlockEnd
  0
BLOCK
  5
298
330
297
100
AcDbEntity
  8
0
100
AcDbBlockBegin
  2
SW_CENTERMARKSYMBOL_18
 70
     0
 10
0.0
 20
0.0
 30
0.0
  3
SW_CENTERMARKSYMBOL_18
  1

  0
LINE
  5
29A
330
297
100
AcDbEntity
  8
SLD-0
 62
     0
100
AcDbLine
 10
0.0
 20
0.0
 30
0.0
 11
0.0
 21
1.0
 31
0.0
  0
LINE
  5
29B
330
297
100
AcDbEntity
  8
SLD-0
 62
     0
100
AcDbLine
 10
0.0
 20
0.0
 30
0.0
 11
-1.0
 21
0.0
 31
0.0
  0
LINE
  5
29C
330
297
100
AcDbEntity
  8
SLD-0
 62
     0
100
AcDbLine
 10
0.0
 20
0.0
 30
0.0
 11
0.0
 21
-1.0
 31
0.0
  0
LINE
  5
29D
330
297
100
AcDbEntity
  8
SLD-0
 62
     0
100
AcDbLine
 10
0.0
 20
0.0
 30
0.0
 11
1.0
 21
0.0
 31
0.0
  0
LINE
  5
29E
330
297
100
AcDbEntity
  8
SLD-0
 62
     0
100
AcDbLine
 10
0.0
 20
2.0
 30
0.0
 11
0.0
 21
6.5
 31
0.0
  0
LINE
  5
29F
330
297
100
AcDbEntity
  8
SLD-0
 62
     0
100
AcDbLine
 10
-2.0
 20
0.0
 30
0.0
 11
-6.5
 21
0.0
 31
0.0
  0
LINE
  5
2A0
330
297
100
AcDbEntity
  8
SLD-0
 62
     0
100
AcDbLine
 10
0.0
 20
-2.0
 30
0.0
 11
0.0
 21
-6.5
 31
0.0
  0
LINE
  5
2A1
330
297
100
AcDbEntity
  8
SLD-0
 62
     0
100
AcDbLine
 10
2.0
 20
0.0
 30
0.0
 11
6.5
 21
0.0
 31
0.0
  0
ENDBLK
  5
299
330
297
100
AcDbEntity
  8
0
100
AcDbBlockEnd
  0
BLOCK
  5
2A4
330
2A3
100
AcDbEntity
  8
0
100
AcDbBlockBegin
  2
SW_CENTERMARKSYMBOL_19
 70
     0
 10
0.0
 20
0.0
 30
0.0
  3
SW_CENTERMARKSYMBOL_19
  1

  0
LINE
  5
2A6
330
2A3
100
AcDbEntity
  8
SLD-0
 62
     0
100
AcDbLine
 10
0.0
 20
0.0
 30
0.0
 11
0.0
 21
1.0
 31
0.0
  0
LINE
  5
2A7
330
2A3
100
AcDbEntity
  8
SLD-0
 62
     0
100
AcDbLine
 10
0.0
 20
0.0
 30
0.0
 11
-1.0
 21
0.0
 31
0.0
  0
LINE
  5
2A8
330
2A3
100
AcDbEntity
  8
SLD-0
 62
     0
100
AcDbLine
 10
0.0
 20
0.0
 30
0.0
 11
0.0
 21
-1.0
 31
0.0
  0
LINE
  5
2A9
330
2A3
100
AcDbEntity
  8
SLD-0
 62
     0
100
AcDbLine
 10
0.0
 20
0.0
 30
0.0
 11
1.0
 21
0.0
 31
0.0
  0
LINE
  5
2AA
330
2A3
100
AcDbEntity
  8
SLD-0
 62
     0
100
AcDbLine
 10
0.0
 20
2.0
 30
0.0
 11
0.0
 21
6.5
 31
0.0
  0
LINE
  5
2AB
330
2A3
100
AcDbEntity
  8
SLD-0
 62
     0
100
AcDbLine
 10
-2.0
 20
0.0
 30
0.0
 11
-6.5
 21
0.0
 31
0.0
  0
LINE
  5
2AC
330
2A3
100
AcDbEntity
  8
SLD-0
 62
     0
100
AcDbLine
 10
0.0
 20
-2.0
 30
0.0
 11
0.0
 21
-6.5
 31
0.0
  0
LINE
  5
2AD
330
2A3
100
AcDbEntity
  8
SLD-0
 62
     0
100
AcDbLine
 10
2.0
 20
0.0
 30
0.0
 11
6.5
 21
0.0
 31
0.0
  0
ENDBLK
  5
2A5
330
2A3
100
AcDbEntity
  8
0
100
AcDbBlockEnd
  0
BLOCK
  5
2B0
330
2AF
100
AcDbEntity
  8
0
100
AcDbBlockBegin
  2
SW_CENTERMARKSYMBOL_20
 70
     0
 10
0.0
 20
0.0
 30
0.0
  3
SW_CENTERMARKSYMBOL_20
  1

  0
LINE
  5
2B2
330
2AF
100
AcDbEntity
  8
SLD-0
 62
     0
100
AcDbLine
 10
0.0
 20
0.0
 30
0.0
 11
0.0
 21
1.0
 31
0.0
  0
LINE
  5
2B3
330
2AF
100
AcDbEntity
  8
SLD-0
 62
     0
100
AcDbLine
 10
0.0
 20
0.0
 30
0.0
 11
-1.0
 21
0.0
 31
0.0
  0
LINE
  5
2B4
330
2AF
100
AcDbEntity
  8
SLD-0
 62
     0
100
AcDbLine
 10
0.0
 20
0.0
 30
0.0
 11
0.0
 21
-1.0
 31
0.0
  0
LINE
  5
2B5
330
2AF
100
AcDbEntity
  8
SLD-0
 62
     0
100
AcDbLine
 10
0.0
 20
0.0
 30
0.0
 11
1.0
 21
0.0
 31
0.0
  0
LINE
  5
2B6
330
2AF
100
AcDbEntity
  8
SLD-0
 62
     0
100
AcDbLine
 10
0.0
 20
2.0
 30
0.0
 11
0.0
 21
5.0
 31
0.0
  0
LINE
  5
2B7
330
2AF
100
AcDbEntity
  8
SLD-0
 62
     0
100
AcDbLine
 10
-2.0
 20
0.0
 30
0.0
 11
-5.0
 21
0.0
 31
0.0
  0
LINE
  5
2B8
330
2AF
100
AcDbEntity
  8
SLD-0
 62
     0
100
AcDbLine
 10
0.0
 20
-2.0
 30
0.0
 11
0.0
 21
-5.0
 31
0.0
  0
LINE
  5
2B9
330
2AF
100
AcDbEntity
  8
SLD-0
 62
     0
100
AcDbLine
 10
2.0
 20
0.0
 30
0.0
 11
5.0
 21
0.0
 31
0.0
  0
ENDBLK
  5
2B1
330
2AF
100
AcDbEntity
  8
0
100
AcDbBlockEnd
  0
BLOCK
  5
319
330
318
100
AcDbEntity
  8
0
100
AcDbBlockBegin
  2
_D_15
 70
     0
 10
0.0
 20
0.0
 30
0.0
  3
_D_15
  1

  0
SOLID
  5
31B
330
318
100
AcDbEntity
  8
SLD-0
 62
     7
100
AcDbTrace
 10
155.6186461033
 20
46.9205809962
 30
0.0
 11
155.3686461033
 21
44.9205809962
 31
0.0
 12
155.8686461033
 22
44.9205809962
 32
0.0
 13
155.8686461033
 23
44.9205809962
 33
0.0
  0
SOLID
  5
31C
330
318
100
AcDbEntity
  8
SLD-0
 62
     7
100
AcDbTrace
 10
155.6186461033
 20
38.9205809962
 30
0.0
 11
155.8686461033
 21
40.9205809962
 31
0.0
 12
155.3686461033
 22
40.9205809962
 32
0.0
 13
155.3686461033
 23
40.9205809962
 33
0.0
  0
LINE
  5
31D
330
318
100
AcDbEntity
  8
SLD-0
 62
     7
100
AcDbLine
 10
144.9143465546
 20
46.9205809962
 30
0.0
 11
156.6186461033
 21
46.9205809962
 31
0.0
  0
LINE
  5
31E
330
318
100
AcDbEntity
  8
SLD-0
 62
     7
100
AcDbLine
 10
144.9143465546
 20
38.9205809962
 30
0.0
 11
156.6186461033
 21
38.9205809962
 31
0.0
  0
LINE
  5
31F
330
318
100
AcDbEntity
  8
SLD-0
 62
     7
100
AcDbLine
 10
155.6186461033
 20
46.9205809962
 30
0.0
 11
155.6186461033
 21
38.9205809962
 31
0.0
  0
MTEXT
  5
320
330
318
100
AcDbEntity
  8
SLD-0
 62
     7
100
AcDbMText
 10
152.3959769285
 20
41.9657198838
 30
0.0
 40
2.5
 41
0.0
 71
     1
 72
     1
  1
8
  7
SLDTEXTSTYLE0
 11
-7.044195017643634E-15
 21
1.0
 31
0.0
 73
     1
 44
1.0
  0
ENDBLK
  5
31A
330
318
100
AcDbEntity
  8
0
100
AcDbBlockEnd
  0
ENDSEC
  0
SECTION
  2
ENTITIES
  0
HATCH
  5
75
330
1F
100
AcDbEntity
  8
DIM
 62
     7
100
AcDbHatch
 10
0.0
 20
0.0
 30
0.0
210
0.0
220
0.0
230
1.0
  2
SOLID
 70
     1
 71
     0
 91
        1
 92
        0
 93
       10
 72
     2
 10
192.1959864308272
 20
35.94109362601509
 40
3.045751395731247
 50
249.211220914341
 51
308.9221353953366
 73
     1
 72
     1
 10
194.1095213920618
 20
33.57149755986121
 11
195.0743410532789
 21
32.72421077621886
 72
     1
 10
195.0743410532789
 20
32.72421077621886
 11
191.8642010801231
 21
29.60717106345646
 72
     1
 10
191.8642010801231
 20
29.60717106345646
 11
190.9234006246292
 21
30.41716813356646
 72
     1
 10
190.9234006246292
 20
30.41716813356646
 11
191.5544525450443
 21
31.03306852403749
 72
     1
 10
191.5544525450443
 20
31.03306852403749
 11
187.5452502348487
 21
34.51767236431217
 72
     2
 10
188.5601916643894
 20
35.66523274007268
 40
1.531992467805808
 50
131.4906380929588
 51
229.7089352075141
 73
     0
 72
     1
 10
187.5694968168739
 20
36.83378938847272
 11
188.8761250717556
 21
38.09537646498024
 72
     1
 10
188.8761250717556
 20
38.09537646498024
 11
189.891318919158
 21
37.19984456416245
 72
     2
 10
191.8645892225307
 20
35.55245187676766
 40
2.570544369711283
 50
140.1430462780655
 51
253.0452525074004
 73
     1
 97
        0
 75
     0
 76
     1
 98
        1
 10
0.0
 20
0.0
  0
HATCH
  5
76
330
1F
100
AcDbEntity
  8
DIM
 62
     1
100
AcDbHatch
 10
0.0
 20
0.0
 30
0.0
210
0.0
220
0.0
230
1.0
  2
SOLID
 70
     1
 71
     0
 91
        1
 92
        0
 93
       10
 72
     2
 10
192.3291518697911
 20
35.18689398731305
 40
3.18163670452787
 50
234.1674444878508
 51
314.440707458399
 73
     0
 72
     2
 10
192.6468081605156
 20
35.72771579279122
 40
2.57756748834625
 50
317.818499299578
 51
398.0564711573081
 73
     0
 72
     1
 10
194.6763940035631
 20
34.13880564344958
 11
195.6618428965459
 21
33.28010870356009
 72
     1
 10
195.6618428965459
 20
33.28010870356009
 11
196.9035242113396
 21
34.4845416459673
 72
     2
 10
196.0101318856775
 20
35.71248837778824
 40
1.518552937418266
 50
306.0377529468126
 51
403.4396461533867
 73
     1
 72
     1
 10
197.1127517503498
 20
36.75663034982637
 11
192.9859958920065
 21
40.34580661846033
 72
     1
 10
192.9859958920065
 20
40.34580661846033
 11
193.6102471939338
 21
40.95486504929765
 72
     1
 10
193.6102471939338
 20
40.95486504929765
 11
192.6797406837497
 21
41.78505726914219
 72
     1
 10
192.6797406837497
 20
41.78505726914219
 11
189.4441552353399
 21
38.65813702252808
 72
     1
 10
189.4441552353399
 20
38.65813702252808
 11
190.4665631126884
 21
37.76634649540728
 97
        0
 75
     0
 76
     1
 98
        1
 10
0.0
 20
0.0
  0
LINE
  5
77
330
1F
100
AcDbEntity
  8
0
  6
Continuous
 62
     7
370
     0
100
AcDbLine
 10
167.8593775185
 20
17.7745192513
 30
0.0
 11
168.8593775185
 21
17.7745192513
 31
0.0
  0
LINE
  5
78
330
1F
100
AcDbEntity
  8
0
  6
Continuous
 62
     7
370
     0
100
AcDbLine
 10
164.8593775185
 20
17.7745192513
 30
0.0
 11
167.3593775185
 21
17.7745192513
 31
0.0
  0
LINE
  5
79
330
1F
100
AcDbEntity
  8
0
  6
Continuous
 62
     7
370
     0
100
AcDbLine
 10
181.3593775185
 20
15.2745192513
 30
0.0
 11
181.3593775185
 21
20.2745192513
 31
0.0
  0
LINE
  5
7A
330
1F
100
AcDbEntity
  8
0
  6
Continuous
 62
     7
370
     0
100
AcDbLine
 10
174.3593775185
 20
16.2745192513
 30
0.0
 11
181.3593775185
 21
15.2745192513
 31
0.0
  0
LINE
  5
7B
330
1F
100
AcDbEntity
  8
0
  6
Continuous
 62
     7
370
     0
100
AcDbLine
 10
168.3593775185
 20
16.7745192513
 30
0.0
 11
168.3593775185
 21
14.2745192513
 31
0.0
  0
LINE
  5
7C
330
1F
100
AcDbEntity
  8
0
  6
Continuous
 62
     7
370
     0
100
AcDbLine
 10
181.3593775185
 20
20.2745192513
 30
0.0
 11
174.3593775185
 21
19.2745192513
 31
0.0
  0
LINE
  5
7D
330
1F
100
AcDbEntity
  8
0
  6
Continuous
 62
     7
370
     0
100
AcDbLine
 10
173.3593775185
 20
17.7745192513
 30
0.0
 11
182.3593775185
 21
17.7745192513
 31
0.0
  0
LINE
  5
7E
330
1F
100
AcDbEntity
  8
0
  6
Continuous
 62
     7
370
     0
100
AcDbLine
 10
168.3593775185
 20
18.2745192513
 30
0.0
 11
168.3593775185
 21
17.2745192513
 31
0.0
  0
LINE
  5
7F
330
1F
100
AcDbEntity
  8
0
  6
Continuous
 62
     7
370
     0
100
AcDbLine
 10
169.3593775185
 20
17.7745192513
 30
0.0
 11
171.8593775185
 21
17.7745192513
 31
0.0
  0
LINE
  5
80
330
1F
100
AcDbEntity
  8
0
  6
Continuous
 62
     7
370
     0
100
AcDbLine
 10
168.3593775185
 20
21.2745192513
 30
0.0
 11
168.3593775185
 21
18.7745192513
 31
0.0
  0
LINE
  5
81
330
1F
100
AcDbEntity
  8
0
  6
Continuous
 62
     7
370
     0
100
AcDbLine
 10
174.3593775185
 20
19.2745192513
 30
0.0
 11
174.3593775185
 21
16.2745192513
 31
0.0
  0
LINE
  5
82
330
1F
100
AcDbEntity
  8
0
370
     0
100
AcDbLine
 10
195.0743410533
 20
32.7242107762
 30
0.0
 11
191.8642010801
 21
29.6071710635
 31
0.0
  0
LINE
  5
83
330
1F
100
AcDbEntity
  8
0
370
     0
100
AcDbLine
 10
191.8642010801
 20
29.6071710635
 30
0.0
 11
190.9234006246
 21
30.4171681336
 31
0.0
  0
LINE
  5
84
330
1F
100
AcDbEntity
  8
0
370
     0
100
AcDbLine
 10
190.9234006246
 20
30.4171681336
 30
0.0
 11
191.554452545
 21
31.033068524
 31
0.0
  0
LINE
  5
85
330
1F
100
AcDbEntity
  8
0
370
     0
100
AcDbLine
 10
187.5452502348
 20
34.5176723643
 30
0.0
 11
191.554452545
 21
31.033068524
 31
0.0
  0
LINE
  5
86
330
1F
100
AcDbEntity
  8
0
370
     0
100
AcDbLine
 10
188.8761250718
 20
38.095376465
 30
0.0
 11
187.5694968169
 21
36.8337893885
 31
0.0
  0
LINE
  5
87
330
1F
100
AcDbEntity
  8
0
370
     0
100
AcDbLine
 10
188.8761250718
 20
38.095376465
 30
0.0
 11
189.8913189192
 21
37.1998445642
 31
0.0
  0
LINE
  5
88
330
1F
100
AcDbEntity
  8
0
370
     0
100
AcDbLine
 10
194.1095213921
 20
33.5714975599
 30
0.0
 11
195.0743410533
 21
32.7242107762
 31
0.0
  0
LINE
  5
89
330
1F
100
AcDbEntity
  8
0
 62
     1
370
     0
100
AcDbLine
 10
190.4665631127
 20
37.7663464954
 30
0.0
 11
189.4441552353
 21
38.6581370225
 31
0.0
  0
LINE
  5
8A
330
1F
100
AcDbEntity
  8
0
 62
     1
370
     0
100
AcDbLine
 10
189.4441552353
 20
38.6581370225
 30
0.0
 11
192.6797406837
 21
41.7850572691
 31
0.0
  0
LINE
  5
8B
330
1F
100
AcDbEntity
  8
0
 62
     1
370
     0
100
AcDbLine
 10
192.6797406837
 20
41.7850572691
 30
0.0
 11
193.6102471939
 21
40.9548650493
 31
0.0
  0
LINE
  5
8C
330
1F
100
AcDbEntity
  8
0
 62
     1
370
     0
100
AcDbLine
 10
193.6102471939
 20
40.9548650493
 30
0.0
 11
192.985995892
 21
40.3458066185
 31
0.0
  0
LINE
  5
8D
330
1F
100
AcDbEntity
  8
0
 62
     1
370
     0
100
AcDbLine
 10
192.985995892
 20
40.3458066185
 30
0.0
 11
197.1127517503
 21
36.7566303498
 31
0.0
  0
LINE
  5
8E
330
1F
100
AcDbEntity
  8
0
 62
     1
370
     0
100
AcDbLine
 10
194.6763940036
 20
34.1388056434
 30
0.0
 11
195.6618428965
 21
33.2801087036
 31
0.0
  0
LINE
  5
8F
330
1F
100
AcDbEntity
  8
0
 62
     1
370
     0
100
AcDbLine
 10
195.6618428965
 20
33.2801087036
 30
0.0
 11
196.9035242113
 21
34.484541646
 31
0.0
  0
LINE
  5
90
330
1F
100
AcDbEntity
  8
0
  6
Continuous
 62
     7
370
     0
100
AcDbLine
 10
185.6907965209
 20
13.1152464079
 30
0.0
 11
285.6907965209
 21
13.1152464079
 31
0.0
  0
LINE
  5
91
330
1F
100
AcDbEntity
  8
0
  6
Continuous
 62
     7
370
     0
100
AcDbLine
 10
185.6907965209
 20
18.1152464079
 30
0.0
 11
235.6907965209
 21
18.1152464079
 31
0.0
  0
LINE
  5
92
330
1F
100
AcDbEntity
  8
0
  6
Continuous
 62
     7
370
     0
100
AcDbLine
 10
185.6907965209
 20
23.1152464079
 30
0.0
 11
235.6907965209
 21
23.1152464079
 31
0.0
  0
LINE
  5
93
330
1F
100
AcDbEntity
  8
0
  6
Continuous
 62
     7
370
     0
100
AcDbLine
 10
185.6907965209
 20
28.1152464079
 30
0.0
 11
285.6907965209
 21
28.1152464079
 31
0.0
  0
LINE
  5
94
330
1F
100
AcDbEntity
  8
0
  6
Continuous
 62
     7
370
     0
100
AcDbLine
 10
235.6907965209
 20
33.1152464079
 30
0.0
 11
285.6907965209
 21
33.1152464079
 31
0.0
  0
LINE
  5
95
330
1F
100
AcDbEntity
  8
0
  6
Continuous
 62
     7
370
    15
100
AcDbLine
 10
235.6907965209
 20
18.1152464079
 30
0.0
 11
285.6907965209
 21
18.1152464079
 31
0.0
  0
LINE
  5
96
330
1F
100
AcDbEntity
  8
0
  6
Continuous
 62
     7
370
     0
100
AcDbLine
 10
185.6907965209
 20
43.1152464079
 30
0.0
 11
285.6907965209
 21
43.1152464079
 31
0.0
  0
LINE
  5
97
330
1F
100
AcDbEntity
  8
0
  6
Continuous
 62
     7
370
     0
100
AcDbLine
 10
251.237217675
 20
8.1152464079
 30
0.0
 11
251.237217675
 21
18.1152464079
 31
0.0
  0
LINE
  5
98
330
1F
100
AcDbEntity
  8
0
  6
Continuous
 62
     7
370
     0
100
AcDbLine
 10
235.6907965209
 20
8.1152464079
 30
0.0
 11
235.6907965209
 21
43.1152464079
 31
0.0
  0
LINE
  5
99
330
1F
100
AcDbEntity
  8
0
  6
Continuous
 62
     7
370
     0
100
AcDbLine
 10
251.237217675
 20
28.1152464079
 30
0.0
 11
251.237217675
 21
33.1152464079
 31
0.0
  0
LINE
  5
9A
330
1F
100
AcDbEntity
  8
0
  6
Continuous
 62
     7
370
     0
100
AcDbLine
 10
214.4164086353
 20
8.1152464079
 30
0.0
 11
214.4164086353
 21
28.1152464079
 31
0.0
  0
LINE
  5
9B
330
1F
100
AcDbEntity
  8
0
  6
Continuous
 62
     7
370
     0
100
AcDbLine
 10
199.7785887506
 20
8.1152464079
 30
0.0
 11
199.7785887506
 21
28.1152464079
 31
0.0
  0
LINE
  5
9C
330
1F
100
AcDbEntity
  8
0
  6
Continuous
 62
     7
370
     0
100
AcDbLine
 10
185.6907965209
 20
8.1152464079
 30
0.0
 11
185.6907965209
 21
43.1152464079
 31
0.0
  0
LINE
  5
9D
330
1F
100
AcDbEntity
  8
0
  6
Continuous
 62
     7
370
    15
100
AcDbLine
 10
8.6907965209
 20
104.7436369915
 30
0.0
 11
14.6907965209
 21
104.7436369915
 31
0.0
  0
LINE
  5
9E
330
1F
100
AcDbEntity
  8
0
  6
Continuous
 62
     7
370
    15
100
AcDbLine
 10
285.6907965209
 20
104.7436369915
 30
0.0
 11
279.6907965209
 21
104.7436369915
 31
0.0
  0
LINE
  5
9F
330
1F
100
AcDbEntity
  8
0
  6
Continuous
 62
     7
370
    15
100
AcDbLine
 10
147.1907965209
 20
8.1152464079
 30
0.0
 11
147.1907965209
 21
14.1152464079
 31
0.0
  0
LINE
  5
A0
330
1F
100
AcDbEntity
  8
0
  6
Continuous
 62
     7
370
    15
100
AcDbLine
 10
147.1907965209
 20
201.3720275751
 30
0.0
 11
147.1907965209
 21
195.3720275751
 31
0.0
  0
LINE
  5
A1
330
1F
100
AcDbEntity
  8
0
  6
Continuous
 62
     7
370
    15
100
AcDbLine
 10
43.3207965209
 20
201.3720275751
 30
0.0
 11
43.3207965209
 21
202.8720275751
 31
0.0
  0
LINE
  5
A2
330
1F
100
AcDbEntity
  8
0
  6
Continuous
 62
     7
370
    15
100
AcDbLine
 10
77.9507965209
 20
201.3720275751
 30
0.0
 11
77.9507965209
 21
202.8720275751
 31
0.0
  0
LINE
  5
A3
330
1F
100
AcDbEntity
  8
0
  6
Continuous
 62
     7
370
    15
100
AcDbLine
 10
112.5807965209
 20
201.3720275751
 30
0.0
 11
112.5807965209
 21
202.8720275751
 31
0.0
  0
LINE
  5
A4
330
1F
100
AcDbEntity
  8
0
  6
Continuous
 62
     7
370
    15
100
AcDbLine
 10
147.2107965209
 20
201.3720275751
 30
0.0
 11
147.2107965209
 21
202.8720275751
 31
0.0
  0
LINE
  5
A5
330
1F
100
AcDbEntity
  8
0
  6
Continuous
 62
     7
370
    15
100
AcDbLine
 10
181.8407965209
 20
201.3720275751
 30
0.0
 11
181.8407965209
 21
202.8720275751
 31
0.0
  0
LINE
  5
A6
330
1F
100
AcDbEntity
  8
0
  6
Continuous
 62
     7
370
    15
100
AcDbLine
 10
216.4707965209
 20
201.3720275751
 30
0.0
 11
216.4707965209
 21
202.8720275751
 31
0.0
  0
LINE
  5
A7
330
1F
100
AcDbEntity
  8
0
  6
Continuous
 62
     7
370
    15
100
AcDbLine
 10
251.1007965209
 20
201.3720275751
 30
0.0
 11
251.1007965209
 21
202.8720275751
 31
0.0
  0
LINE
  5
A8
330
1F
100
AcDbEntity
  8
0
  6
Continuous
 62
     7
370
    15
100
AcDbLine
 10
43.3157965209
 20
8.1152464079
 30
0.0
 11
43.3157965209
 21
6.6152464079
 31
0.0
  0
LINE
  5
A9
330
1F
100
AcDbEntity
  8
0
  6
Continuous
 62
     7
370
    15
100
AcDbLine
 10
77.9407965209
 20
8.1152464079
 30
0.0
 11
77.9407965209
 21
6.6152464079
 31
0.0
  0
LINE
  5
AA
330
1F
100
AcDbEntity
  8
0
  6
Continuous
 62
     7
370
    15
100
AcDbLine
 10
112.5657965209
 20
8.1152464079
 30
0.0
 11
112.5657965209
 21
6.6152464079
 31
0.0
  0
LINE
  5
AB
330
1F
100
AcDbEntity
  8
0
  6
Continuous
 62
     7
370
    15
100
AcDbLine
 10
147.1907965209
 20
8.1152464079
 30
0.0
 11
147.1907965209
 21
6.6152464079
 31
0.0
  0
LINE
  5
AC
330
1F
100
AcDbEntity
  8
0
  6
Continuous
 62
     7
370
    15
100
AcDbLine
 10
181.8157965209
 20
8.1152464079
 30
0.0
 11
181.8157965209
 21
6.6152464079
 31
0.0
  0
LINE
  5
AD
330
1F
100
AcDbEntity
  8
0
  6
Continuous
 62
     7
370
    15
100
AcDbLine
 10
216.4407965209
 20
8.1152464079
 30
0.0
 11
216.4407965209
 21
6.6152464079
 31
0.0
  0
LINE
  5
AE
330
1F
100
AcDbEntity
  8
0
  6
Continuous
 62
     7
370
     0
100
AcDbLine
 10
285.6907965209
 20
201.3720275751
 30
0.0
 11
8.6907965209
 21
201.3720275751
 31
0.0
  0
LINE
  5
AF
330
1F
100
AcDbEntity
  8
0
  6
Continuous
 62
     7
370
     0
100
AcDbLine
 10
285.6907965209
 20
8.1152464079
 30
0.0
 11
285.6907965209
 21
201.3720275751
 31
0.0
  0
LINE
  5
B0
330
1F
100
AcDbEntity
  8
0
  6
Continuous
 62
     7
370
     0
100
AcDbLine
 10
8.6907965209
 20
201.3720275751
 30
0.0
 11
8.6907965209
 21
8.1152464079
 31
0.0
  0
LINE
  5
B1
330
1F
100
AcDbEntity
  8
0
  6
Continuous
 62
     7
370
     0
100
AcDbLine
 10
8.6907965209
 20
8.1152464079
 30
0.0
 11
285.6907965209
 21
8.1152464079
 31
0.0
  0
LINE
  5
B2
330
1F
100
AcDbEntity
  8
0
  6
Continuous
 62
     7
370
    15
100
AcDbLine
 10
251.0657965209
 20
8.1152464079
 30
0.0
 11
251.0657965209
 21
6.6152464079
 31
0.0
  0
LINE
  5
B3
330
1F
100
AcDbEntity
  8
0
  6
Continuous
 62
     7
370
    15
100
AcDbLine
 10
8.6907965209
 20
40.3252464079
 30
0.0
 11
7.1907965209
 21
40.3252464079
 31
0.0
  0
LINE
  5
B4
330
1F
100
AcDbEntity
  8
0
  6
Continuous
 62
     7
370
    15
100
AcDbLine
 10
8.6907965209
 20
72.5352464079
 30
0.0
 11
7.1907965209
 21
72.5352464079
 31
0.0
  0
LINE
  5
B5
330
1F
100
AcDbEntity
  8
0
  6
Continuous
 62
     7
370
    15
100
AcDbLine
 10
8.6907965209
 20
104.7452464079
 30
0.0
 11
7.1907965209
 21
104.7452464079
 31
0.0
  0
LINE
  5
B6
330
1F
100
AcDbEntity
  8
0
  6
Continuous
 62
     7
370
    15
100
AcDbLine
 10
8.6907965209
 20
136.9552464079
 30
0.0
 11
7.1907965209
 21
136.9552464079
 31
0.0
  0
LINE
  5
B7
330
1F
100
AcDbEntity
  8
0
  6
Continuous
 62
     7
370
    15
100
AcDbLine
 10
8.6907965209
 20
169.1652464079
 30
0.0
 11
7.1907965209
 21
169.1652464079
 31
0.0
  0
LINE
  5
B8
330
1F
100
AcDbEntity
  8
0
  6
Continuous
 62
     7
370
    15
100
AcDbLine
 10
285.6907965209
 20
40.3252464079
 30
0.0
 11
287.1907965209
 21
40.3252464079
 31
0.0
  0
LINE
  5
B9
330
1F
100
AcDbEntity
  8
0
  6
Continuous
 62
     7
370
    15
100
AcDbLine
 10
285.6907965209
 20
72.5352464079
 30
0.0
 11
287.1907965209
 21
72.5352464079
 31
0.0
  0
LINE
  5
BA
330
1F
100
AcDbEntity
  8
0
  6
Continuous
 62
     7
370
    15
100
AcDbLine
 10
285.6907965209
 20
104.7452464079
 30
0.0
 11
287.1907965209
 21
104.7452464079
 31
0.0
  0
LINE
  5
BB
330
1F
100
AcDbEntity
  8
0
  6
Continuous
 62
     7
370
    15
100
AcDbLine
 10
285.6907965209
 20
136.9552464079
 30
0.0
 11
287.1907965209
 21
136.9552464079
 31
0.0
  0
LINE
  5
BC
330
1F
100
AcDbEntity
  8
0
  6
Continuous
 62
     7
370
    15
100
AcDbLine
 10
285.6907965209
 20
169.1652464079
 30
0.0
 11
287.1907965209
 21
169.1652464079
 31
0.0
  0
CIRCLE
  5
BD
330
1F
100
AcDbEntity
  8
0
  6
Continuous
 62
     7
370
     0
100
AcDbCircle
 10
168.3593775185
 20
17.7745192513
 30
0.0
 40
1.5
  0
CIRCLE
  5
BE
330
1F
100
AcDbEntity
  8
0
  6
Continuous
 62
     7
370
     0
100
AcDbCircle
 10
168.3593775185
 20
17.7745192513
 30
0.0
 40
2.5
  0
ARC
  5
BF
330
1F
100
AcDbEntity
  8
0
370
     0
100
AcDbCircle
 10
188.5601916644
 20
35.6652327401
 30
0.0
 40
1.531992467805807
100
AcDbArc
 50
130.2910647925
 51
228.509361907
  0
ARC
  5
C0
330
1F
100
AcDbEntity
  8
0
370
     0
100
AcDbCircle
 10
191.8645892225
 20
35.5524518768
 30
0.0
 40
2.570544369711287
100
AcDbArc
 50
140.1430462781
 51
253.0452525074
  0
ARC
  5
C1
330
1F
100
AcDbEntity
  8
0
370
     0
100
AcDbCircle
 10
192.1959864308
 20
35.941093626
 30
0.0
 40
3.045751395731247
100
AcDbArc
 50
249.2112209143
 51
308.9221353953
  0
ARC
  5
C2
330
1F
100
AcDbEntity
  8
0
 62
     1
370
     0
100
AcDbCircle
 10
196.0101318857
 20
35.7124883778
 30
0.0
 40
1.51855293741827
100
AcDbArc
 50
306.0377529468
 51
43.4396461534
  0
ARC
  5
C3
330
1F
100
AcDbEntity
  8
0
 62
     1
370
     0
100
AcDbCircle
 10
192.3291518698
 20
35.1868939873
 30
0.0
 40
3.18163670452787
100
AcDbArc
 50
45.5592925416
 51
125.8325555121
  0
ARC
  5
C4
330
1F
100
AcDbEntity
  8
0
 62
     1
370
     0
100
AcDbCircle
 10
192.6468081605
 20
35.7277157928
 30
0.0
 40
2.57756748834625
100
AcDbArc
 50
321.9435288427
 51
42.1815007004
  0
MTEXT
  5
C6
330
1F
100
AcDbEntity
  8
0
  6
Continuous
 62
     7
370
     0
100
AcDbMText
 10
165.5426850804
 20
13.2208440369
 30
0.0
 40
2.6458333333
 41
0.0
 71
     1
 72
     1
  1
UNIT:m/m
  7
SLDTEXTSTYLE0
 73
     1
 44
1.0
  0
INSERT
  5
CD
330
1F
100
AcDbEntity
  8
0
  6
Continuous
 62
     7
370
     0
100
AcDbBlockReference
  2
SW_NOTE_0
 10
12.2315076053
 20
193.8904304251
 30
0.0
  0
MTEXT
  5
CF
330
1F
100
AcDbEntity
  8
0
  6
Continuous
 62
     7
370
     0
100
AcDbMText
 10
198.7251893935
 20
40.4406774139
 30
0.0
 40
2.38125
 41
0.0
 71
     1
 72
     1
  1
Unice E-O Services Inc.
  7
SLDTEXTSTYLE1
 73
     1
 44
1.0
  0
MTEXT
  5
D0
330
1F
100
AcDbEntity
  8
0
  6
Continuous
 62
     7
370
     0
100
AcDbMText
 10
219.1181900715
 20
21.5867148511
 30
0.0
 40
1.8520833333
 41
0.0
 71
     1
 72
     1
  1
2016/03/08
  7
SLDTEXTSTYLE0
 73
     1
 44
1.0
  0
MTEXT
  5
D1
330
1F
100
AcDbEntity
  8
0
  6
Continuous
 62
     7
370
     0
100
AcDbMText
 10
252.6088982507
 20
16.87117774
 30
0.0
 40
2.5
 41
0.0
 71
     1
 72
     1
  1
1:1
  7
SLDTEXTSTYLE0
 73
     1
 44
1.0
  0
MTEXT
  5
D2
330
1F
100
AcDbEntity
  8
0
  6
Continuous
 62
     7
370
     0
100
AcDbMText
 10
252.3075599985
 20
32.1519195438
 30
0.0
 40
2.5
 41
0.0
 71
     1
 72
     1
  1
06UAP-3M
  7
SLDTEXTSTYLE0
 73
     1
 44
1.0
  0
MTEXT
  5
D3
330
1F
100
AcDbEntity
  8
0
  6
Continuous
 62
     7
370
     0
100
AcDbMText
 10
252.3075599985
 20
38.1082117879
 30
0.0
 40
2.5
 41
0.0
 71
     1
 72
     1
  1
06UAP-3M
  7
SLDTEXTSTYLE0
 73
     1
 44
1.0
  0
MTEXT
  5
D4
330
1F
100
AcDbEntity
  8
0
  6
Continuous
 62
     7
370
     0
100
AcDbMText
 10
236.3921866786
 20
16.5064795728
 30
0.0
 40
2.1166666667
 41
0.0
 71
     1
 72
     1
  1
SCALE:
  7
SLDTEXTSTYLE0
 73
     1
 44
1.0
  0
MTEXT
  5
D5
330
1F
100
AcDbEntity
  8
0
  6
Continuous
 62
     7
370
     0
100
AcDbMText
 10
186.3336086789
 20
21.5867148511
 30
0.0
 40
1.8520833333
 41
0.0
 71
     1
 72
     1
  1
DRAWN
  7
SLDTEXTSTYLE0
 73
     1
 44
1.0
  0
MTEXT
  5
D6
330
1F
100
AcDbEntity
  8
0
  6
Continuous
 62
     7
370
     0
100
AcDbMText
 10
203.2228367937
 20
26.683208308
 30
0.0
 40
1.8520833333
 41
0.0
 71
     1
 72
     1
  1
NAME
  7
SLDTEXTSTYLE0
 73
     1
 44
1.0
  0
MTEXT
  5
D7
330
1F
100
AcDbEntity
  8
0
  6
Continuous
 62
     7
370
     0
100
AcDbMText
 10
220.8710155758
 20
26.683208308
 30
0.0
 40
1.8520833333
 41
0.0
 71
     1
 72
     1
  1
DATE
  7
SLDTEXTSTYLE0
 73
     1
 44
1.0
  0
MTEXT
  5
D8
330
1F
100
AcDbEntity
  8
0
  6
Continuous
 62
     7
370
     0
100
AcDbMText
 10
236.2756316645
 20
31.7872213766
 30
0.0
 40
2.1166666667
 41
0.0
 71
     1
 72
     1
  1
DWG. NO.
  7
SLDTEXTSTYLE0
 73
     1
 44
1.0
  0
MTEXT
  5
D9
330
1F
100
AcDbEntity
  8
0
  6
Continuous
 62
     7
370
     0
100
AcDbMText
 10
236.3629907088
 20
41.8840658243
 30
0.0
 40
2.1166666667
 41
0.0
 71
     1
 72
     1
  1
TITLE:
  7
SLDTEXTSTYLE0
 73
     1
 44
1.0
  0
MTEXT
  5
DA
330
1F
100
AcDbEntity
  8
0
  6
Continuous
 62
     7
370
     0
100
AcDbMText
 10
203.0314209802
 20
16.2403789724
 30
0.0
 40
1.8520833333
 41
0.0
 71
     1
 72
     1
  1
Johnny
  7
SLDTEXTSTYLE0
 73
     1
 44
1.0
  0
MTEXT
  5
DB
330
1F
100
AcDbEntity
  8
0
  6
Continuous
 62
     7
370
     0
100
AcDbMText
 10
186.3336086789
 20
16.2403789724
 30
0.0
 40
1.8520833333
 41
0.0
 71
     1
 72
     1
  1
ENG APPR.
  7
SLDTEXTSTYLE0
 73
     1
 44
1.0
  0
MTEXT
  5
DC
330
1F
100
AcDbEntity
  8
0
  6
Continuous
 62
     7
370
     0
100
AcDbMText
 10
236.3921866786
 20
11.6853389288
 30
0.0
 40
2.1166666667
 41
0.0
 71
     1
 72
     1
  1
REV
  7
SLDTEXTSTYLE0
 73
     1
 44
1.0
  0
MTEXT
  5
DD
330
1F
100
AcDbEntity
  8
0
  6
Continuous
 62
     7
370
     0
100
AcDbMText
 10
236.3629907088
 20
26.9493089085
 30
0.0
 40
2.1166666667
 41
0.0
 71
     1
 72
     1
  1
MATERIAL:
  7
SLDTEXTSTYLE0
 73
     1
 44
1.0
  0
MTEXT
  5
DE
330
1F
100
AcDbEntity
  8
0
  6
Continuous
 62
     7
370
     0
100
AcDbMText
 10
252.6088982507
 20
22.2175136187
 30
0.0
 40
2.5
 41
0.0
 71
     1
 72
     1
  1
N/A
  7
SLDTEXTSTYLE0
 73
     1
 44
1.0
  0
MTEXT
  5
DF
330
1F
100
AcDbEntity
  8
0
  6
Continuous
 62
     7
370
     0
100
AcDbMText
 10
26.6029931533
 20
204.453351657
 30
0.0
 40
2.1166666667
 41
0.0
 71
     1
 72
     1
  1
1
  7
SLDTEXTSTYLE0
 73
     1
 44
1.0
  0
MTEXT
  5
E0
330
1F
100
AcDbEntity
  8
0
  6
Continuous
 62
     7
370
     0
100
AcDbMText
 10
60.7170995724
 20
204.453351657
 30
0.0
 40
2.1166666667
 41
0.0
 71
     1
 72
     1
  1
2
  7
SLDTEXTSTYLE0
 73
     1
 44
1.0
  0
MTEXT
  5
E1
330
1F
100
AcDbEntity
  8
0
  6
Continuous
 62
     7
370
     0
100
AcDbMText
 10
94.9009943906
 20
204.453351657
 30
0.0
 40
2.1166666667
 41
0.0
 71
     1
 72
     1
  1
3
  7
SLDTEXTSTYLE0
 73
     1
 44
1.0
  0
MTEXT
  5
E2
330
1F
100
AcDbEntity
  8
0
  6
Continuous
 62
     7
370
     0
100
AcDbMText
 10
129.2533362851
 20
204.2992584364
 30
0.0
 40
2.1166666667
 41
0.0
 71
     1
 72
     1
  1
4
  7
SLDTEXTSTYLE0
 73
     1
 44
1.0
  0
MTEXT
  5
E3
330
1F
100
AcDbEntity
  8
0
  6
Continuous
 62
     7
370
     0
100
AcDbMText
 10
163.702323464
 20
204.453351657
 30
0.0
 40
2.1166666667
 41
0.0
 71
     1
 72
     1
  1
5
  7
SLDTEXTSTYLE0
 73
     1
 44
1.0
  0
MTEXT
  5
E4
330
1F
100
AcDbEntity
  8
0
  6
Continuous
 62
     7
370
     0
100
AcDbMText
 10
198.6382170415
 20
204.453351657
 30
0.0
 40
2.1166666667
 41
0.0
 71
     1
 72
     1
  1
6
  7
SLDTEXTSTYLE0
 73
     1
 44
1.0
  0
MTEXT
  5
E5
330
1F
100
AcDbEntity
  8
0
  6
Continuous
 62
     7
370
     0
100
AcDbMText
 10
234.3630657407
 20
204.453351657
 30
0.0
 40
2.1166666667
 41
0.0
 71
     1
 72
     1
  1
7
  7
SLDTEXTSTYLE0
 73
     1
 44
1.0
  0
MTEXT
  5
E6
330
1F
100
AcDbEntity
  8
0
  6
Continuous
 62
     7
370
     0
100
AcDbMText
 10
266.2787820494
 20
204.453351657
 30
0.0
 40
2.1166666667
 41
0.0
 71
     1
 72
     1
  1
8
  7
SLDTEXTSTYLE0
 73
     1
 44
1.0
  0
MTEXT
  5
E7
330
1F
100
AcDbEntity
  8
0
  6
Continuous
 62
     7
370
     0
100
AcDbMText
 10
5.3568236555
 20
185.8113022879
 30
0.0
 40
2.1166666667
 41
0.0
 71
     1
 72
     1
  1
A
  7
SLDTEXTSTYLE0
 73
     1
 44
1.0
  0
MTEXT
  5
E8
330
1F
100
AcDbEntity
  8
0
  6
Continuous
 62
     7
370
     0
100
AcDbMText
 10
5.5910431831
 20
154.2993048238
 30
0.0
 40
2.1166666667
 41
0.0
 71
     1
 72
     1
  1
B
  7
SLDTEXTSTYLE0
 73
     1
 44
1.0
  0
MTEXT
  5
E9
330
1F
100
AcDbEntity
  8
0
  6
Continuous
 62
     7
370
     0
100
AcDbMText
 10
5.5910431831
 20
121.274351423
 30
0.0
 40
2.1166666667
 41
0.0
 71
     1
 72
     1
  1
C
  7
SLDTEXTSTYLE0
 73
     1
 44
1.0
  0
MTEXT
  5
EA
330
1F
100
AcDbEntity
  8
0
  6
Continuous
 62
     7
370
     0
100
AcDbMText
 10
5.5910431831
 20
88.7453220221
 30
0.0
 40
2.1166666667
 41
0.0
 71
     1
 72
     1
  1
D
  7
SLDTEXTSTYLE0
 73
     1
 44
1.0
  0
MTEXT
  5
EB
330
1F
100
AcDbEntity
  8
0
  6
Continuous
 62
     7
370
     0
100
AcDbMText
 10
5.5910431831
 20
57.5558849197
 30
0.0
 40
2.1166666667
 41
0.0
 71
     1
 72
     1
  1
E
  7
SLDTEXTSTYLE0
 73
     1
 44
1.0
  0
MTEXT
  5
EC
330
1F
100
AcDbEntity
  8
0
  6
Continuous
 62
     7
370
     0
100
AcDbMText
 10
5.5910431831
 20
25.5694212252
 30
0.0
 40
2.1166666667
 41
0.0
 71
     1
 72
     1
  1
F
  7
SLDTEXTSTYLE0
 73
     1
 44
1.0
  0
MTEXT
  5
ED
330
1F
100
AcDbEntity
  8
0
  6
Continuous
 62
     7
370
     0
100
AcDbMText
 10
266.1858616964
 20
6.6236223963
 30
0.0
 40
2.1166666667
 41
0.0
 71
     1
 72
     1
  1
8
  7
SLDTEXTSTYLE0
 73
     1
 44
1.0
  0
MTEXT
  5
EE
330
1F
100
AcDbEntity
  8
0
  6
Continuous
 62
     7
370
     0
100
AcDbMText
 10
234.2701453876
 20
6.6236223963
 30
0.0
 40
2.1166666667
 41
0.0
 71
     1
 72
     1
  1
7
  7
SLDTEXTSTYLE0
 73
     1
 44
1.0
  0
MTEXT
  5
EF
330
1F
100
AcDbEntity
  8
0
  6
Continuous
 62
     7
370
     0
100
AcDbMText
 10
198.5452966885
 20
6.6236223963
 30
0.0
 40
2.1166666667
 41
0.0
 71
     1
 72
     1
  1
6
  7
SLDTEXTSTYLE0
 73
     1
 44
1.0
  0
MTEXT
  5
F0
330
1F
100
AcDbEntity
  8
0
  6
Continuous
 62
     7
370
     0
100
AcDbMText
 10
163.6094031109
 20
6.6236223963
 30
0.0
 40
2.1166666667
 41
0.0
 71
     1
 72
     1
  1
5
  7
SLDTEXTSTYLE0
 73
     1
 44
1.0
  0
MTEXT
  5
F1
330
1F
100
AcDbEntity
  8
0
  6
Continuous
 62
     7
370
     0
100
AcDbMText
 10
129.1604159321
 20
6.4695291758
 30
0.0
 40
2.1166666667
 41
0.0
 71
     1
 72
     1
  1
4
  7
SLDTEXTSTYLE0
 73
     1
 44
1.0
  0
MTEXT
  5
F2
330
1F
100
AcDbEntity
  8
0
  6
Continuous
 62
     7
370
     0
100
AcDbMText
 10
94.8080740376
 20
6.6236223963
 30
0.0
 40
2.1166666667
 41
0.0
 71
     1
 72
     1
  1
3
  7
SLDTEXTSTYLE0
 73
     1
 44
1.0
  0
MTEXT
  5
F3
330
1F
100
AcDbEntity
  8
0
  6
Continuous
 62
     7
370
     0
100
AcDbMText
 10
60.6241792194
 20
6.6236223963
 30
0.0
 40
2.1166666667
 41
0.0
 71
     1
 72
     1
  1
2
  7
SLDTEXTSTYLE0
 73
     1
 44
1.0
  0
MTEXT
  5
F4
330
1F
100
AcDbEntity
  8
0
  6
Continuous
 62
     7
370
     0
100
AcDbMText
 10
26.5100728003
 20
6.6236223963
 30
0.0
 40
2.1166666667
 41
0.0
 71
     1
 72
     1
  1
1
  7
SLDTEXTSTYLE0
 73
     1
 44
1.0
  0
MTEXT
  5
F5
330
1F
100
AcDbEntity
  8
0
  6
Continuous
 62
     7
370
     0
100
AcDbMText
 10
287.1023846145
 20
186.6424909092
 30
0.0
 40
2.1166666667
 41
0.0
 71
     1
 72
     1
  1
A
  7
SLDTEXTSTYLE0
 73
     1
 44
1.0
  0
MTEXT
  5
F6
330
1F
100
AcDbEntity
  8
0
  6
Continuous
 62
     7
370
     0
100
AcDbMText
 10
287.3366041421
 20
155.1304934451
 30
0.0
 40
2.1166666667
 41
0.0
 71
     1
 72
     1
  1
B
  7
SLDTEXTSTYLE0
 73
     1
 44
1.0
  0
MTEXT
  5
F7
330
1F
100
AcDbEntity
  8
0
  6
Continuous
 62
     7
370
     0
100
AcDbMText
 10
287.3366041421
 20
122.1055400442
 30
0.0
 40
2.1166666667
 41
0.0
 71
     1
 72
     1
  1
C
  7
SLDTEXTSTYLE0
 73
     1
 44
1.0
  0
MTEXT
  5
F8
330
1F
100
AcDbEntity
  8
0
  6
Continuous
 62
     7
370
     0
100
AcDbMText
 10
287.3366041421
 20
89.5765106433
 30
0.0
 40
2.1166666667
 41
0.0
 71
     1
 72
     1
  1
D
  7
SLDTEXTSTYLE0
 73
     1
 44
1.0
  0
MTEXT
  5
F9
330
1F
100
AcDbEntity
  8
0
  6
Continuous
 62
     7
370
     0
100
AcDbMText
 10
287.3366041421
 20
58.3870735409
 30
0.0
 40
2.1166666667
 41
0.0
 71
     1
 72
     1
  1
E
  7
SLDTEXTSTYLE0
 73
     1
 44
1.0
  0
MTEXT
  5
FA
330
1F
100
AcDbEntity
  8
0
  6
Continuous
 62
     7
370
     0
100
AcDbMText
 10
287.3366041421
 20
26.4006098464
 30
0.0
 40
2.1166666667
 41
0.0
 71
     1
 72
     1
  1
F
  7
SLDTEXTSTYLE0
 73
     1
 44
1.0
  0
MTEXT
  5
FB
330
1F
100
AcDbEntity
  8
0
  6
Continuous
 62
     7
370
     0
100
AcDbMText
 10
203.1553128802
 20
21.5867148511
 30
0.0
 40
1.8520833333
 41
0.0
 71
     1
 72
     1
  1
Sammy
  7
SLDTEXTSTYLE0
 73
     1
 44
1.0
  0
MTEXT
  5
FC
330
1F
100
AcDbEntity
  8
0
  6
Continuous
 62
     7
370
     0
100
AcDbMText
 10
252.8482239645
 20
12.0500370959
 30
0.0
 40
2.5
 41
0.0
 71
     1
 72
     1
  1
0
  7
SLDTEXTSTYLE0
 73
     1
 44
1.0
  0
INSERT
  5
102
330
1F
100
AcDbEntity
  8
SLD-0
 62
     7
100
AcDbBlockReference
  2
SW_NOTE_1
 10
198.7251893935
 20
32.965327525
 30
0.0
  0
MTEXT
  5
103
330
1F
100
AcDbEntity
  8
SLD-0
 62
     7
100
AcDbMText
 10
219.1181900715
 20
16.2403789724
 30
0.0
 40
1.8520833333
 41
0.0
 71
     1
 72
     1
  1
2016/03/08
  7
SLDTEXTSTYLE0
 73
     1
 44
1.0
  0
ARC
  5
104
330
1F
100
AcDbEntity
  8
0
  6
Continuous
 62
     7
370
    30
100
AcDbCircle
 10
140.9143465546
 20
75.5479755578
 30
0.0
 40
3.0
100
AcDbArc
 50
270.0
 51
0.0
  0
LINE
  5
105
330
1F
100
AcDbEntity
  8
0
  6
Continuous
 62
     7
370
    30
100
AcDbLine
 10
58.9143454221
 20
72.5479764221
 30
0.0
 11
140.9143476871
 21
72.5479764221
 31
0.0
  0
ARC
  5
106
330
1F
100
AcDbEntity
  8
0
  6
Continuous
 62
     7
370
    30
100
AcDbCircle
 10
58.9143465546
 20
75.5479755578
 30
0.0
 40
3.000000000000007
100
AcDbArc
 50
180.0
 51
270.0
  0
LINE
  5
107
330
1F
100
AcDbEntity
  8
0
  6
Continuous
 62
     7
370
    30
100
AcDbLine
 10
55.914346793
 20
138.5479760645
 30
0.0
 11
55.914346793
 21
75.5479750512
 31
0.0
  0
ARC
  5
108
330
1F
100
AcDbEntity
  8
0
  6
Continuous
 62
     7
370
    30
100
AcDbCircle
 10
58.9143465546
 20
138.5479755578
 30
0.0
 40
3.000000000000028
100
AcDbArc
 50
90.0
 51
180.0
  0
LINE
  5
109
330
1F
100
AcDbEntity
  8
0
  6
Continuous
 62
     7
370
    30
100
AcDbLine
 10
140.9143476871
 20
141.5479746936
 30
0.0
 11
58.9143454221
 21
141.5479746936
 31
0.0
  0
ARC
  5
10A
330
1F
100
AcDbEntity
  8
0
  6
Continuous
 62
     7
370
    30
100
AcDbCircle
 10
140.9143465546
 20
138.5479755578
 30
0.0
 40
3.000000000000028
100
AcDbArc
 50
0.0
 51
90.0
  0
LINE
  5
10B
330
1F
100
AcDbEntity
  8
0
  6
Continuous
 62
     7
370
    30
100
AcDbLine
 10
143.9143463161
 20
75.5479750512
 30
0.0
 11
143.9143463161
 21
138.5479760645
 31
0.0
  0
CIRCLE
  5
10C
330
1F
100
AcDbEntity
  8
0
  6
Continuous
 62
     7
370
    30
100
AcDbCircle
 10
124.9143465546
 20
132.0479755578
 30
0.0
 40
2.5
  0
CIRCLE
  5
10D
330
1F
100
AcDbEntity
  8
0
  6
Continuous
 62
     7
370
    30
100
AcDbCircle
 10
124.9143465546
 20
82.0479755578
 30
0.0
 40
2.499999999999986
  0
CIRCLE
  5
10E
330
1F
100
AcDbEntity
  8
0
  6
Continuous
 62
     7
370
    30
100
AcDbCircle
 10
74.9143465546
 20
94.5479755578
 30
0.0
 40
2.499999999999986
  0
CIRCLE
  5
10F
330
1F
100
AcDbEntity
  8
0
  6
Continuous
 62
     7
370
    30
100
AcDbCircle
 10
124.9143465546
 20
94.5479755578
 30
0.0
 40
2.499999999999986
  0
CIRCLE
  5
110
330
1F
100
AcDbEntity
  8
0
  6
Continuous
 62
     7
370
    30
100
AcDbCircle
 10
137.4143465546
 20
119.5479755578
 30
0.0
 40
2.5
  0
CIRCLE
  5
111
330
1F
100
AcDbEntity
  8
0
  6
Continuous
 62
     7
370
    30
100
AcDbCircle
 10
137.4143465546
 20
94.5479755578
 30
0.0
 40
2.499999999999986
  0
CIRCLE
  5
112
330
1F
100
AcDbEntity
  8
0
  6
Continuous
 62
     7
370
    30
100
AcDbCircle
 10
62.4143465546
 20
94.5479755578
 30
0.0
 40
2.499999999999986
  0
CIRCLE
  5
113
330
1F
100
AcDbEntity
  8
0
  6
Continuous
 62
     7
370
    30
100
AcDbCircle
 10
62.4143465546
 20
119.5479755578
 30
0.0
 40
2.5
  0
CIRCLE
  5
114
330
1F
100
AcDbEntity
  8
0
  6
Continuous
 62
     7
370
    30
100
AcDbCircle
 10
74.9143465546
 20
107.0479755578
 30
0.0
 40
5.5
  0
CIRCLE
  5
115
330
1F
100
AcDbEntity
  8
0
  6
Continuous
 62
     7
370
    30
100
AcDbCircle
 10
124.9143465546
 20
107.0479755578
 30
0.0
 40
5.5
  0
CIRCLE
  5
116
330
1F
100
AcDbEntity
  8
0
  6
Continuous
 62
     7
370
    30
100
AcDbCircle
 10
99.9143465546
 20
132.0479755578
 30
0.0
 40
5.499999999999972
  0
CIRCLE
  5
117
330
1F
100
AcDbEntity
  8
0
  6
Continuous
 62
     7
370
    30
100
AcDbCircle
 10
99.9143465546
 20
107.0479755578
 30
0.0
 40
5.5
  0
CIRCLE
  5
118
330
1F
100
AcDbEntity
  8
0
  6
Continuous
 62
     7
370
    30
100
AcDbCircle
 10
99.9143465546
 20
82.0479755578
 30
0.0
 40
5.5
  0
CIRCLE
  5
119
330
1F
100
AcDbEntity
  8
0
  6
Continuous
 62
     7
370
    30
100
AcDbCircle
 10
112.4143465546
 20
119.5479755578
 30
0.0
 40
4.000000000000014
  0
CIRCLE
  5
11A
330
1F
100
AcDbEntity
  8
0
  6
Continuous
 62
     7
370
    30
100
AcDbCircle
 10
87.4143465546
 20
119.5479755578
 30
0.0
 40
4.0
  0
CIRCLE
  5
11B
330
1F
100
AcDbEntity
  8
0
  6
Continuous
 62
     7
370
    30
100
AcDbCircle
 10
87.4143465546
 20
94.5479755578
 30
0.0
 40
3.999999999999986
  0
CIRCLE
  5
11C
330
1F
100
AcDbEntity
  8
0
  6
Continuous
 62
     7
370
    30
100
AcDbCircle
 10
112.4143465546
 20
94.5479755578
 30
0.0
 40
4.0
  0
CIRCLE
  5
11D
330
1F
100
AcDbEntity
  8
0
  6
Continuous
 62
     7
370
    30
100
AcDbCircle
 10
74.9143465546
 20
119.5479755578
 30
0.0
 40
2.5
  0
CIRCLE
  5
11E
330
1F
100
AcDbEntity
  8
0
  6
Continuous
 62
     7
370
    30
100
AcDbCircle
 10
124.9143465546
 20
119.5479755578
 30
0.0
 40
2.5
  0
CIRCLE
  5
11F
330
1F
100
AcDbEntity
  8
0
  6
Continuous
 62
     7
370
    30
100
AcDbCircle
 10
74.9143465546
 20
132.0479755578
 30
0.0
 40
2.5
  0
CIRCLE
  5
120
330
1F
100
AcDbEntity
  8
0
  6
Continuous
 62
     7
370
    30
100
AcDbCircle
 10
74.9143465546
 20
82.0479755578
 30
0.0
 40
2.499999999999986
  0
CIRCLE
  5
121
330
1F
100
AcDbEntity
  8
0
  6
Continuous
 62
     7
370
    30
100
AcDbCircle
 10
87.4143465546
 20
119.5479755578
 30
0.0
 40
2.25
  0
CIRCLE
  5
122
330
1F
100
AcDbEntity
  8
0
  6
Continuous
 62
     7
370
    30
100
AcDbCircle
 10
112.4143465546
 20
94.5479755578
 30
0.0
 40
2.25
  0
CIRCLE
  5
123
330
1F
100
AcDbEntity
  8
0
  6
Continuous
 62
     7
370
    30
100
AcDbCircle
 10
112.4143465546
 20
119.5479755578
 30
0.0
 40
2.250000000000014
  0
CIRCLE
  5
124
330
1F
100
AcDbEntity
  8
0
  6
Continuous
 62
     7
370
    30
100
AcDbCircle
 10
87.4143465546
 20
94.5479755578
 30
0.0
 40
2.25
  0
CIRCLE
  5
125
330
1F
100
AcDbEntity
  8
0
  6
Continuous
 62
     7
370
    30
100
AcDbCircle
 10
99.9143465546
 20
132.0479755578
 30
0.0
 40
3.299999999999983
  0
CIRCLE
  5
126
330
1F
100
AcDbEntity
  8
0
  6
Continuous
 62
     7
370
    30
100
AcDbCircle
 10
99.9143465546
 20
82.0479755578
 30
0.0
 40
3.300000000000011
  0
CIRCLE
  5
127
330
1F
100
AcDbEntity
  8
0
  6
Continuous
 62
     7
370
    30
100
AcDbCircle
 10
124.9143465546
 20
107.0479755578
 30
0.0
 40
3.300000000000011
  0
CIRCLE
  5
128
330
1F
100
AcDbEntity
  8
0
  6
Continuous
 62
     7
370
    30
100
AcDbCircle
 10
74.9143465546
 20
107.0479755578
 30
0.0
 40
3.300000000000011
  0
CIRCLE
  5
129
330
1F
100
AcDbEntity
  8
0
  6
Continuous
 62
     7
370
    30
100
AcDbCircle
 10
99.9143465546
 20
107.0479755578
 30
0.0
 40
3.300000000000011
  0
DIMENSION
  5
12A
330
1F
100
AcDbEntity
  8
SLD-0
100
AcDbDimension
  2
_D
 10
143.9143465546
 20
166.6834748601
 30
0.0
 11
99.9143465546
 21
166.6834748601
 31
0.0
 70
   160
  1
<>
 71
     2
 42
-1.0
  3
SLDDIMSTYLE0
100
AcDbAlignedDimension
 13
55.9143465546
 23
138.5479755578
 33
0.0
 14
143.9143465546
 24
138.5479755578
 34
0.0
100
AcDbRotatedDimension
  0
DIMENSION
  5
135
330
1F
100
AcDbEntity
  8
SLD-0
100
AcDbDimension
  2
_D_1
 10
36.4758526874
 20
72.5479755578
 30
0.0
 11
36.4758526874
 21
107.0479755578
 31
0.0
 70
   160
  1
<>
 71
     2
 42
-1.0
  3
SLDDIMSTYLE0
100
AcDbAlignedDimension
 13
58.9143465546
 23
141.5479755578
 33
0.0
 14
58.9143465546
 24
72.5479755578
 34
0.0
 50
90.0
100
AcDbRotatedDimension
  0
DIMENSION
  5
13F
330
1F
100
AcDbEntity
  8
SLD-0
100
AcDbDimension
  2
_D_2
 10
87.4143465546
 20
147.0640257539
 30
0.0
 11
93.6643465546
 21
147.0640257539
 31
0.0
 70
   160
  1
<>
 71
     2
 42
-1.0
  3
SLDDIMSTYLE0
100
AcDbAlignedDimension
 13
99.9143465546
 23
132.0479755578
 33
0.0
 14
87.4143465546
 24
119.5479755578
 34
0.0
100
AcDbRotatedDimension
  0
DIMENSION
  5
149
330
1F
100
AcDbEntity
  8
SLD-0
100
AcDbDimension
  2
_D_3
 10
112.4143465546
 20
147.0640257539
 30
0.0
 11
106.1643465546
 21
147.0640257539
 31
0.0
 70
   160
  1
<>
 71
     2
 42
-1.0
  3
SLDDIMSTYLE0
100
AcDbAlignedDimension
 13
99.9143465546
 23
132.0479755578
 33
0.0
 14
112.4143465546
 24
119.5479755578
 34
0.0
100
AcDbRotatedDimension
  0
DIMENSION
  5
153
330
1F
100
AcDbEntity
  8
SLD-0
100
AcDbDimension
  2
_D_4
 10
74.9143465546
 20
153.3354821289
 30
0.0
 11
87.4143465546
 21
153.3354821289
 31
0.0
 70
   160
  1
<>
 71
     2
 42
-1.0
  3
SLDDIMSTYLE0
100
AcDbAlignedDimension
 13
99.9143465546
 23
132.0479755578
 33
0.0
 14
74.9143465546
 24
132.0479755578
 34
0.0
100
AcDbRotatedDimension
  0
DIMENSION
  5
15D
330
1F
100
AcDbEntity
  8
SLD-0
100
AcDbDimension
  2
_D_5
 10
124.9143465546
 20
153.3354821289
 30
0.0
 11
112.4143465546
 21
153.3354821289
 31
0.0
 70
   160
  1
<>
 71
     2
 42
-1.0
  3
SLDDIMSTYLE0
100
AcDbAlignedDimension
 13
99.9143465546
 23
132.0479755578
 33
0.0
 14
124.9143465546
 24
135.5479755578
 34
0.0
100
AcDbRotatedDimension
  0
DIMENSION
  5
167
330
1F
100
AcDbEntity
  8
SLD-0
100
AcDbDimension
  2
_D_6
 10
62.4143465546
 20
159.6069385039
 30
0.0
 11
81.1643465546
 21
159.6069385039
 31
0.0
 70
   160
  1
<>
 71
     2
 42
-1.0
  3
SLDDIMSTYLE0
100
AcDbAlignedDimension
 13
99.9143465546
 23
132.0479755578
 33
0.0
 14
62.4143465546
 24
119.5479755578
 34
0.0
100
AcDbRotatedDimension
  0
DIMENSION
  5
171
330
1F
100
AcDbEntity
  8
SLD-0
100
AcDbDimension
  2
_D_7
 10
137.4143465546
 20
159.6069385039
 30
0.0
 11
118.6643465546
 21
159.6069385039
 31
0.0
 70
   160
  1
<>
 71
     2
 42
-1.0
  3
SLDDIMSTYLE0
100
AcDbAlignedDimension
 13
99.9143465546
 23
132.0479755578
 33
0.0
 14
137.4143465546
 24
119.5479755578
 34
0.0
100
AcDbRotatedDimension
  0
DIMENSION
  5
17B
330
1F
100
AcDbEntity
  8
SLD-0
100
AcDbDimension
  2
_D_8
 10
50.5846874669
 20
119.5479755578
 30
0.0
 11
50.5846874669
 21
113.2979755578
 31
0.0
 70
   160
  1
<>
 71
     2
 42
-1.0
  3
SLDDIMSTYLE0
100
AcDbAlignedDimension
 13
68.4143465546
 23
107.0479755578
 33
0.0
 14
62.4143465546
 24
119.5479755578
 34
0.0
 50
90.0
100
AcDbRotatedDimension
  0
DIMENSION
  5
185
330
1F
100
AcDbEntity
  8
SLD-0
100
AcDbDimension
  2
_D_9
 10
50.5846874669
 20
107.0479755578
 30
0.0
 11
50.5846874669
 21
100.7979755578
 31
0.0
 70
   160
  1
<>
 71
     2
 42
-1.0
  3
SLDDIMSTYLE0
100
AcDbAlignedDimension
 13
62.4143465546
 23
94.5479755578
 33
0.0
 14
68.4143465546
 24
107.0479755578
 34
0.0
 50
90.0
100
AcDbRotatedDimension
  0
DIMENSION
  5
18F
330
1F
100
AcDbEntity
  8
SLD-0
100
AcDbDimension
  2
_D_10
 10
43.5994320682
 20
82.0479755578
 30
0.0
 11
43.5994320682
 21
94.5479755578
 31
0.0
 70
   160
  1
<>
 71
     2
 42
-1.0
  3
SLDDIMSTYLE0
100
AcDbAlignedDimension
 13
68.4143465546
 23
107.0479755578
 33
0.0
 14
71.4143465546
 24
82.0479755578
 34
0.0
 50
90.0
100
AcDbRotatedDimension
  0
DIMENSION
  5
199
330
1F
100
AcDbEntity
  8
SLD-0
100
AcDbDimension
  2
_D_11
 10
43.5994320682
 20
107.0479755578
 30
0.0
 11
43.5994320682
 21
119.5479755578
 31
0.0
 70
   160
  1
<>
 71
     2
 42
-1.0
  3
SLDDIMSTYLE0
100
AcDbAlignedDimension
 13
74.9143465546
 23
132.0479755578
 33
0.0
 14
74.9143465546
 24
107.0479755578
 34
0.0
 50
90.0
100
AcDbRotatedDimension
  0
DIMENSION
  5
1A3
330
1F
100
AcDbEntity
  8
SLD-0
100
AcDbDimension
  2
_D_12
 10
88.8536760588
 20
98.2800434268
 30
0.0
 11
65.0043153582
 21
63.5641099738
 31
0.0
 70
   163
  1
4 HOLES,\P M4 CLR
 71
     1
 42
-1.0
  3
SLDDIMSTYLE1
100
AcDbDiametricDimension
 15
85.9750170504
 25
90.8159076889
 35
0.0
 40
0.0
  0
DIMENSION
  5
1AD
330
1F
100
AcDbEntity
  8
SLD-0
100
AcDbDimension
  2
_D_13
 10
98.5617451527
 20
87.3790607614
 30
0.0
 11
114.5584434208
 21
63.5641099738
 31
0.0
 70
   163
  1
5 HOLES,\P M6 CLR
 71
     1
 42
-1.0
  3
SLDDIMSTYLE1
100
AcDbDiametricDimension
 15
101.2669479564
 25
76.7168903543
 35
0.0
 40
0.0
  0
DIMENSION
  5
1B6
330
1F
100
AcDbEntity
  8
SLD-0
100
AcDbDimension
  2
_D_14
 10
123.3071880075
 20
84.5811635502
 30
0.0
 11
149.0112613152
 21
63.5641099738
 31
0.0
 70
   163
  1
12 HOLES,\P M6 
 71
     1
 42
-1.0
  3
SLDDIMSTYLE1
100
AcDbDiametricDimension
 15
126.5215051016
 25
79.5147875654
 35
0.0
 40
0.0
  0
INSERT
  5
1CA
330
1F
100
AcDbEntity
  8
SLD-0
100
AcDbBlockReference
  2
SW_CENTERMARKSYMBOL_0
 10
74.9143465546
 20
132.0479755578
 30
0.0
  0
INSERT
  5
1D6
330
1F
100
AcDbEntity
  8
SLD-0
100
AcDbBlockReference
  2
SW_CENTERMARKSYMBOL_1
 10
62.4143465546
 20
119.5479755578
 30
0.0
  0
INSERT
  5
1E2
330
1F
100
AcDbEntity
  8
SLD-0
100
AcDbBlockReference
  2
SW_CENTERMARKSYMBOL_2
 10
74.9143465546
 20
119.5479755578
 30
0.0
  0
INSERT
  5
1EE
330
1F
100
AcDbEntity
  8
SLD-0
100
AcDbBlockReference
  2
SW_CENTERMARKSYMBOL_3
 10
87.4143465546
 20
119.5479755578
 30
0.0
  0
INSERT
  5
1FA
330
1F
100
AcDbEntity
  8
SLD-0
100
AcDbBlockReference
  2
SW_CENTERMARKSYMBOL_4
 10
74.9143465546
 20
107.0479755578
 30
0.0
  0
INSERT
  5
206
330
1F
100
AcDbEntity
  8
SLD-0
100
AcDbBlockReference
  2
SW_CENTERMARKSYMBOL_5
 10
62.4143465546
 20
94.5479755578
 30
0.0
  0
INSERT
  5
212
330
1F
100
AcDbEntity
  8
SLD-0
100
AcDbBlockReference
  2
SW_CENTERMARKSYMBOL_6
 10
74.9143465546
 20
94.5479755578
 30
0.0
  0
INSERT
  5
21E
330
1F
100
AcDbEntity
  8
SLD-0
100
AcDbBlockReference
  2
SW_CENTERMARKSYMBOL_7
 10
74.9143465546
 20
82.0479755578
 30
0.0
  0
INSERT
  5
22A
330
1F
100
AcDbEntity
  8
SLD-0
100
AcDbBlockReference
  2
SW_CENTERMARKSYMBOL_8
 10
87.4143465546
 20
94.5479755578
 30
0.0
  0
INSERT
  5
236
330
1F
100
AcDbEntity
  8
SLD-0
100
AcDbBlockReference
  2
SW_CENTERMARKSYMBOL_9
 10
99.9143465546
 20
82.0479755578
 30
0.0
  0
INSERT
  5
242
330
1F
100
AcDbEntity
  8
SLD-0
100
AcDbBlockReference
  2
SW_CENTERMARKSYMBOL_10
 10
124.9143465546
 20
94.5479755578
 30
0.0
  0
INSERT
  5
24E
330
1F
100
AcDbEntity
  8
SLD-0
100
AcDbBlockReference
  2
SW_CENTERMARKSYMBOL_11
 10
124.9143465546
 20
82.0479755578
 30
0.0
  0
INSERT
  5
25A
330
1F
100
AcDbEntity
  8
SLD-0
100
AcDbBlockReference
  2
SW_CENTERMARKSYMBOL_12
 10
137.4143465546
 20
94.5479755578
 30
0.0
  0
INSERT
  5
266
330
1F
100
AcDbEntity
  8
SLD-0
100
AcDbBlockReference
  2
SW_CENTERMARKSYMBOL_13
 10
137.4143465546
 20
119.5479755578
 30
0.0
  0
INSERT
  5
272
330
1F
100
AcDbEntity
  8
SLD-0
100
AcDbBlockReference
  2
SW_CENTERMARKSYMBOL_14
 10
124.9143465546
 20
119.5479755578
 30
0.0
  0
INSERT
  5
27E
330
1F
100
AcDbEntity
  8
SLD-0
100
AcDbBlockReference
  2
SW_CENTERMARKSYMBOL_15
 10
124.9143465546
 20
132.0479755578
 30
0.0
  0
INSERT
  5
28A
330
1F
100
AcDbEntity
  8
SLD-0
100
AcDbBlockReference
  2
SW_CENTERMARKSYMBOL_16
 10
112.4143465546
 20
119.5479755578
 30
0.0
  0
INSERT
  5
296
330
1F
100
AcDbEntity
  8
SLD-0
100
AcDbBlockReference
  2
SW_CENTERMARKSYMBOL_17
 10
99.9143465546
 20
132.0479755578
 30
0.0
  0
INSERT
  5
2A2
330
1F
100
AcDbEntity
  8
SLD-0
100
AcDbBlockReference
  2
SW_CENTERMARKSYMBOL_18
 10
99.9143465546
 20
107.0479755578
 30
0.0
  0
INSERT
  5
2AE
330
1F
100
AcDbEntity
  8
SLD-0
100
AcDbBlockReference
  2
SW_CENTERMARKSYMBOL_19
 10
124.9143465546
 20
107.0479755578
 30
0.0
  0
INSERT
  5
2BA
330
1F
100
AcDbEntity
  8
SLD-0
100
AcDbBlockReference
  2
SW_CENTERMARKSYMBOL_20
 10
112.4143465546
 20
94.5479755578
 30
0.0
  0
ARC
  5
2BB
330
1F
100
AcDbEntity
  8
0
  6
Continuous
 62
     7
370
     0
100
AcDbCircle
 10
137.4143465546
 20
119.5479755578
 30
0.0
 40
3.000000119209303
100
AcDbArc
 50
255.0
 51
195.0
  0
ARC
  5
2BC
330
1F
100
AcDbEntity
  8
0
  6
Continuous
 62
     7
370
     0
100
AcDbCircle
 10
137.4143465546
 20
94.5479755578
 30
0.0
 40
3.000000119209302
100
AcDbArc
 50
255.0
 51
195.0
  0
ARC
  5
2BD
330
1F
100
AcDbEntity
  8
0
  6
Continuous
 62
     7
370
     0
100
AcDbCircle
 10
62.4143465546
 20
94.5479755578
 30
0.0
 40
3.000000864267338
100
AcDbArc
 50
255.0
 51
195.0
  0
ARC
  5
2BE
330
1F
100
AcDbEntity
  8
0
  6
Continuous
 62
     7
370
     0
100
AcDbCircle
 10
62.4143465546
 20
119.5479755578
 30
0.0
 40
3.000000864267382
100
AcDbArc
 50
255.0
 51
195.0
  0
ARC
  5
2BF
330
1F
100
AcDbEntity
  8
0
  6
Continuous
 62
     7
370
     0
100
AcDbCircle
 10
124.9143465546
 20
119.5479755578
 30
0.0
 40
3.000000864267351
100
AcDbArc
 50
255.0
 51
195.0
  0
ARC
  5
2C0
330
1F
100
AcDbEntity
  8
0
  6
Continuous
 62
     7
370
     0
100
AcDbCircle
 10
74.9143465546
 20
119.5479755578
 30
0.0
 40
3.000000119209311
100
AcDbArc
 50
255.0
 51
195.0
  0
ARC
  5
2C1
330
1F
100
AcDbEntity
  8
0
  6
Continuous
 62
     7
370
     0
100
AcDbCircle
 10
74.9143465546
 20
94.5479755578
 30
0.0
 40
3.000000119209311
100
AcDbArc
 50
255.0
 51
195.0
  0
ARC
  5
2C2
330
1F
100
AcDbEntity
  8
0
  6
Continuous
 62
     7
370
     0
100
AcDbCircle
 10
124.9143465546
 20
94.5479755578
 30
0.0
 40
3.000000864267372
100
AcDbArc
 50
255.0
 51
195.0
  0
ARC
  5
2C3
330
1F
100
AcDbEntity
  8
0
  6
Continuous
 62
     7
370
     0
100
AcDbCircle
 10
124.9143465546
 20
132.0479755578
 30
0.0
 40
3.000000864267399
100
AcDbArc
 50
255.0
 51
195.0
  0
ARC
  5
2C4
330
1F
100
AcDbEntity
  8
0
  6
Continuous
 62
     7
370
     0
100
AcDbCircle
 10
124.9143465546
 20
82.0479755578
 30
0.0
 40
3.000000864267389
100
AcDbArc
 50
255.0
 51
195.0
  0
ARC
  5
2C5
330
1F
100
AcDbEntity
  8
0
  6
Continuous
 62
     7
370
     0
100
AcDbCircle
 10
74.9143465546
 20
82.0479755578
 30
0.0
 40
3.000000119209311
100
AcDbArc
 50
255.0
 51
195.0
  0
ARC
  5
2C6
330
1F
100
AcDbEntity
  8
0
  6
Continuous
 62
     7
370
     0
100
AcDbCircle
 10
74.9143465546
 20
132.0479755578
 30
0.0
 40
3.000000119209319
100
AcDbArc
 50
255.0
 51
195.0
  0
LINE
  5
2C7
330
1F
100
AcDbEntity
  8
0
  6
Continuous
 62
     7
370
    30
100
AcDbLine
 10
280.4731209693
 20
140.7785454825
 30
0.0
 11
280.4731209693
 21
147.3108719776
 31
0.0
  0
LINE
  5
2C8
330
1F
100
AcDbEntity
  8
0
  6
Continuous
 62
     7
370
    30
100
AcDbLine
 10
171.9426376973
 20
155.0667490399
 30
0.0
 11
171.9426376973
 21
148.5344225448
 31
0.0
  0
ARC
  5
2C9
330
1F
100
AcDbEntity
  8
0
  6
Continuous
 62
     7
370
    30
100
AcDbCircle
 10
232.9253937546
 20
117.9312110472
 30
0.0
 40
4.611065723735264
100
AcDbArc
 50
242.6096722366
 51
297.3903277634
  0
ARC
  5
2CA
330
1F
100
AcDbEntity
  8
0
  6
Continuous
 62
     7
370
    30
100
AcDbCircle
 10
232.9253937546
 20
124.4635375423
 30
0.0
 40
4.611065723735125
100
AcDbArc
 50
242.6096722366
 51
297.3903277634
  0
LINE
  5
2CB
330
1F
100
AcDbEntity
  8
0
  6
Continuous
 62
     7
370
    30
100
AcDbLine
 10
172.8213173537
 20
153.8421368722
 30
0.0
 11
230.804073411
 21
120.3694042875
 31
0.0
  0
ARC
  5
2CC
330
1F
100
AcDbEntity
  8
0
  6
Continuous
 62
     7
370
    30
100
AcDbCircle
 10
173.2860984341
 20
155.0667490399
 30
0.0
 40
1.30984595050284
100
AcDbArc
 50
110.7834207995
 51
249.2165792005
  0
LINE
  5
2CD
330
1F
100
AcDbEntity
  8
0
  6
Continuous
 62
     7
370
    30
100
AcDbLine
 10
217.3690445685
 20
182.0082167301
 30
0.0
 11
172.8213173537
 21
156.2913612077
 31
0.0
  0
ARC
  5
2CE
330
1F
100
AcDbEntity
  8
0
  6
Continuous
 62
     7
370
    30
100
AcDbCircle
 10
219.490364912
 20
177.9140834752
 30
0.0
 40
4.611065723735049
100
AcDbArc
 50
62.6096722366
 51
117.3903277634
  0
LINE
  5
2CF
330
1F
100
AcDbEntity
  8
0
  6
Continuous
 62
     7
370
    30
100
AcDbLine
 10
279.5944413129
 20
148.5354841453
 30
0.0
 11
221.6116852556
 21
182.0082167301
 31
0.0
  0
ARC
  5
2D0
330
1F
100
AcDbEntity
  8
0
  6
Continuous
 62
     7
370
    30
100
AcDbCircle
 10
279.1296602325
 20
147.3108719776
 30
0.0
 40
1.30984595050285
100
AcDbArc
 50
290.7834207995
 51
69.2165792005
  0
LINE
  5
2D1
330
1F
100
AcDbEntity
  8
0
  6
Continuous
 62
     7
370
    30
100
AcDbLine
 10
235.0467140981
 20
120.3694042875
 30
0.0
 11
279.5944413129
 21
146.0862598099
 31
0.0
  0
LWPOLYLINE
  5
2D2
330
1F
100
AcDbEntity
  8
0
  6
Continuous
 62
     7
370
    30
100
AcDbPolyline
 90
       33
 70
   128
 43
0.0
 10
259.7954514397
 20
150.168300369
 10
260.1742928101
 20
149.9888175334
 10
260.6065098117
 20
149.8554497549
 10
261.0754925876
 20
149.7733222823
 10
261.5632183926
 20
149.7455912286
 10
262.0509441977
 20
149.7733222823
 10
262.5199269735
 20
149.8554497549
 10
262.9521439752
 20
149.9888175334
 10
263.3309853456
 20
150.168300369
 10
263.6418924234
 20
150.387000837
 10
263.8729172239
 20
150.636514401
 10
264.0151815936
 20
150.9072523947
 10
264.0632183926
 20
151.1888105088
 10
264.0151815936
 20
151.4703686229
 10
263.8729172239
 20
151.7411066166
 10
263.6418924234
 20
151.9906201806
 10
263.3309853456
 20
152.2093206485
 10
262.9521439752
 20
152.3888034842
 10
262.5199269735
 20
152.5221712627
 10
262.0509441977
 20
152.6042987352
 10
261.5632183926
 20
152.632029789
 10
261.0754925876
 20
152.6042987352
 10
260.6065098117
 20
152.5221712627
 10
260.1742928101
 20
152.3888034842
 10
259.7954514397
 20
152.2093206485
 10
259.4845443619
 20
151.9906201806
 10
259.2535195613
 20
151.7411066166
 10
259.1112551916
 20
151.4703686229
 10
259.0632183926
 20
151.1888105088
 10
259.1112551916
 20
150.9072523947
 10
259.2535195613
 20
150.636514401
 10
259.4845443619
 20
150.387000837
 10
259.7954514397
 20
150.168300369
  0
LWPOLYLINE
  5
2D3
330
1F
100
AcDbEntity
  8
0
  6
Continuous
 62
     7
370
    30
100
AcDbPolyline
 90
       33
 70
   128
 43
0.0
 10
224.4401123803
 20
129.7580975734
 10
224.8189537507
 20
129.5786147378
 10
225.2511707524
 20
129.4452469593
 10
225.7201535283
 20
129.3631194868
 10
226.2078793333
 20
129.335388433
 10
226.6956051383
 20
129.3631194868
 10
227.1645879142
 20
129.4452469593
 10
227.5968049158
 20
129.5786147378
 10
227.9756462863
 20
129.7580975734
 10
228.2865533641
 20
129.9767980414
 10
228.5175781646
 20
130.2263116054
 10
228.6598425343
 20
130.4970495991
 10
228.7078793333
 20
130.7786077132
 10
228.6598425343
 20
131.0601658273
 10
228.5175781646
 20
131.330903821
 10
228.2865533641
 20
131.580417385
 10
227.9756462863
 20
131.799117853
 10
227.5968049158
 20
131.9786006886
 10
227.1645879142
 20
132.1119684671
 10
226.6956051383
 20
132.1940959396
 10
226.2078793333
 20
132.2218269934
 10
225.7201535283
 20
132.1940959396
 10
225.2511707524
 20
132.1119684671
 10
224.8189537507
 20
131.9786006886
 10
224.4401123803
 20
131.799117853
 10
224.1292053025
 20
131.580417385
 10
223.898180502
 20
131.330903821
 10
223.7559161323
 20
131.0601658273
 10
223.7078793333
 20
130.7786077132
 10
223.7559161323
 20
130.4970495991
 10
223.898180502
 20
130.2263116054
 10
224.1292053025
 20
129.9767980414
 10
224.4401123803
 20
129.7580975734
  0
LWPOLYLINE
  5
2D4
330
1F
100
AcDbEntity
  8
0
  6
Continuous
 62
     7
370
    30
100
AcDbPolyline
 90
       33
 70
   128
 43
0.0
 10
189.084773321
 20
150.168300369
 10
189.4636146914
 20
149.9888175334
 10
189.8958316931
 20
149.8554497549
 10
190.3648144689
 20
149.7733222823
 10
190.852540274
 20
149.7455912286
 10
191.340266079
 20
149.7733222823
 10
191.8092488549
 20
149.8554497549
 10
192.2414658565
 20
149.9888175334
 10
192.6203072269
 20
150.168300369
 10
192.9312143047
 20
150.387000837
 10
193.1622391052
 20
150.636514401
 10
193.304503475
 20
150.9072523947
 10
193.352540274
 20
151.1888105088
 10
193.304503475
 20
151.4703686229
 10
193.1622391052
 20
151.7411066166
 10
192.9312143047
 20
151.9906201806
 10
192.6203072269
 20
152.2093206485
 10
192.2414658565
 20
152.3888034842
 10
191.8092488549
 20
152.5221712627
 10
191.340266079
 20
152.6042987352
 10
190.852540274
 20
152.632029789
 10
190.3648144689
 20
152.6042987352
 10
189.8958316931
 20
152.5221712627
 10
189.4636146914
 20
152.3888034842
 10
189.084773321
 20
152.2093206485
 10
188.7738662432
 20
151.9906201806
 10
188.5428414427
 20
151.7411066166
 10
188.400577073
 20
151.4703686229
 10
188.352540274
 20
151.1888105088
 10
188.400577073
 20
150.9072523947
 10
188.5428414427
 20
150.636514401
 10
188.7738662432
 20
150.387000837
 10
189.084773321
 20
150.168300369
  0
LWPOLYLINE
  5
2D5
330
1F
100
AcDbEntity
  8
0
  6
Continuous
 62
     7
370
    30
100
AcDbPolyline
 90
       33
 70
   128
 43
0.0
 10
224.4401123803
 20
170.5785031646
 10
224.8189537507
 20
170.399020329
 10
225.2511707524
 20
170.2656525504
 10
225.7201535283
 20
170.1835250779
 10
226.2078793333
 20
170.1557940241
 10
226.6956051383
 20
170.1835250779
 10
227.1645879142
 20
170.2656525504
 10
227.5968049158
 20
170.399020329
 10
227.9756462863
 20
170.5785031646
 10
228.2865533641
 20
170.7972036325
 10
228.5175781646
 20
171.0467171965
 10
228.6598425343
 20
171.3174551902
 10
228.7078793333
 20
171.5990133043
 10
228.6598425343
 20
171.8805714185
 10
228.5175781646
 20
172.1513094121
 10
228.2865533641
 20
172.4008229761
 10
227.9756462863
 20
172.6195234441
 10
227.5968049158
 20
172.7990062797
 10
227.1645879142
 20
172.9323740583
 10
226.6956051383
 20
173.0145015308
 10
226.2078793333
 20
173.0422325846
 10
225.7201535283
 20
173.0145015308
 10
225.2511707524
 20
172.9323740583
 10
224.8189537507
 20
172.7990062797
 10
224.4401123803
 20
172.6195234441
 10
224.1292053025
 20
172.4008229761
 10
223.898180502
 20
172.1513094121
 10
223.7559161323
 20
171.8805714185
 10
223.7078793333
 20
171.5990133043
 10
223.7559161323
 20
171.3174551902
 10
223.898180502
 20
171.0467171965
 10
224.1292053025
 20
170.7972036325
 10
224.4401123803
 20
170.5785031646
  0
LWPOLYLINE
  5
2D6
330
1F
100
AcDbEntity
  8
0
  6
Continuous
 62
     7
370
    30
100
AcDbPolyline
 90
       33
 70
   128
 43
0.0
 10
250.9566166748
 20
145.0657496701
 10
251.3354580452
 20
144.8862668345
 10
251.7676750469
 20
144.752899056
 10
252.2366578228
 20
144.6707715835
 10
252.7243836278
 20
144.6430405297
 10
253.2121094328
 20
144.6707715835
 10
253.6810922087
 20
144.752899056
 10
254.1133092103
 20
144.8862668345
 10
254.4921505808
 20
145.0657496701
 10
254.8030576586
 20
145.2844501381
 10
255.0340824591
 20
145.5339637021
 10
255.1763468288
 20
145.8047016958
 10
255.2243836278
 20
146.0862598099
 10
255.1763468288
 20
146.367817924
 10
255.0340824591
 20
146.6385559177
 10
254.8030576586
 20
146.8880694817
 10
254.4921505808
 20
147.1067699497
 10
254.1133092103
 20
147.2862527853
 10
253.6810922087
 20
147.4196205638
 10
253.2121094328
 20
147.5017480363
 10
252.7243836278
 20
147.5294790901
 10
252.2366578228
 20
147.5017480363
 10
251.7676750469
 20
147.4196205638
 10
251.3354580452
 20
147.2862527853
 10
250.9566166748
 20
147.1067699497
 10
250.645709597
 20
146.8880694817
 10
250.4146847965
 20
146.6385559177
 10
250.2724204268
 20
146.367817924
 10
250.2243836278
 20
146.0862598099
 10
250.2724204268
 20
145.8047016958
 10
250.4146847965
 20
145.5339637021
 10
250.645709597
 20
145.2844501381
 10
250.9566166748
 20
145.0657496701
  0
LWPOLYLINE
  5
2D7
330
1F
100
AcDbEntity
  8
0
  6
Continuous
 62
     7
370
    30
100
AcDbPolyline
 90
       33
 70
   128
 43
0.0
 10
215.6012776155
 20
165.4759524657
 10
215.9801189859
 20
165.2964696301
 10
216.4123359876
 20
165.1631018515
 10
216.8813187634
 20
165.080974379
 10
217.3690445685
 20
165.0532433252
 10
217.8567703735
 20
165.080974379
 10
218.3257531494
 20
165.1631018515
 10
218.757970151
 20
165.2964696301
 10
219.1368115214
 20
165.4759524657
 10
219.4477185992
 20
165.6946529336
 10
219.6787433997
 20
165.9441664976
 10
219.8210077695
 20
166.2149044913
 10
219.8690445685
 20
166.4964626054
 10
219.8210077695
 20
166.7780207196
 10
219.6787433997
 20
167.0487587133
 10
219.4477185992
 20
167.2982722773
 10
219.1368115214
 20
167.5169727452
 10
218.757970151
 20
167.6964555808
 10
218.3257531494
 20
167.8298233594
 10
217.8567703735
 20
167.9119508319
 10
217.3690445685
 20
167.9396818857
 10
216.8813187634
 20
167.9119508319
 10
216.4123359876
 20
167.8298233594
 10
215.9801189859
 20
167.6964555808
 10
215.6012776155
 20
167.5169727452
 10
215.2903705377
 20
167.2982722773
 10
215.0593457372
 20
167.0487587133
 10
214.9170813675
 20
166.7780207196
 10
214.8690445685
 20
166.4964626054
 10
214.9170813675
 20
166.2149044913
 10
215.0593457372
 20
165.9441664976
 10
215.2903705377
 20
165.6946529336
 10
215.6012776155
 20
165.4759524657
  0
LWPOLYLINE
  5
2D8
330
1F
100
AcDbEntity
  8
0
  6
Continuous
 62
     7
370
    30
100
AcDbPolyline
 90
       33
 70
   128
 43
0.0
 10
197.9236080858
 20
155.2708510679
 10
198.3024494563
 20
155.0913682323
 10
198.7346664579
 20
154.9580004537
 10
199.2036492338
 20
154.8758729812
 10
199.6913750388
 20
154.8481419274
 10
200.1791008438
 20
154.8758729812
 10
200.6480836197
 20
154.9580004537
 10
201.0803006214
 20
155.0913682323
 10
201.4591419918
 20
155.2708510679
 10
201.7700490696
 20
155.4895515359
 10
202.0010738701
 20
155.7390650999
 10
202.1433382398
 20
156.0098030935
 10
202.1913750388
 20
156.2913612077
 10
202.1433382398
 20
156.5729193218
 10
202.0010738701
 20
156.8436573155
 10
201.7700490696
 20
157.0931708795
 10
201.4591419918
 20
157.3118713474
 10
201.0803006214
 20
157.491354183
 10
200.6480836197
 20
157.6247219616
 10
200.1791008438
 20
157.7068494341
 10
199.6913750388
 20
157.7345804879
 10
199.2036492338
 20
157.7068494341
 10
198.7346664579
 20
157.6247219616
 10
198.3024494563
 20
157.491354183
 10
197.9236080858
 20
157.3118713474
 10
197.612701008
 20
157.0931708795
 10
197.3816762075
 20
156.8436573155
 10
197.2394118378
 20
156.5729193218
 10
197.1913750388
 20
156.2913612077
 10
197.2394118378
 20
156.0098030935
 10
197.3816762075
 20
155.7390650999
 10
197.612701008
 20
155.4895515359
 10
197.9236080858
 20
155.2708510679
  0
LWPOLYLINE
  5
2D9
330
1F
100
AcDbEntity
  8
0
  6
Continuous
 62
     7
370
    30
100
AcDbPolyline
 90
       33
 70
   128
 43
0.0
 10
233.2789471452
 20
134.8606482723
 10
233.6577885156
 20
134.6811654367
 10
234.0900055172
 20
134.5477976582
 10
234.5589882931
 20
134.4656701857
 10
235.0467140981
 20
134.4379391319
 10
235.5344399032
 20
134.4656701857
 10
236.003422679
 20
134.5477976582
 10
236.4356396807
 20
134.6811654367
 10
236.8144810511
 20
134.8606482723
 10
237.1253881289
 20
135.0793487403
 10
237.3564129294
 20
135.3288623043
 10
237.4986772991
 20
135.599600298
 10
237.5467140981
 20
135.8811584121
 10
237.4986772991
 20
136.1627165262
 10
237.3564129294
 20
136.4334545199
 10
237.1253881289
 20
136.6829680839
 10
236.8144810511
 20
136.9016685519
 10
236.4356396807
 20
137.0811513875
 10
236.003422679
 20
137.214519166
 10
235.5344399032
 20
137.2966466385
 10
235.0467140981
 20
137.3243776923
 10
234.5589882931
 20
137.2966466385
 10
234.0900055172
 20
137.214519166
 10
233.6577885156
 20
137.0811513875
 10
233.2789471452
 20
136.9016685519
 10
232.9680400674
 20
136.6829680839
 10
232.7370152669
 20
136.4334545199
 10
232.5947508971
 20
136.1627165262
 10
232.5467140981
 20
135.8811584121
 10
232.5947508971
 20
135.599600298
 10
232.7370152669
 20
135.3288623043
 10
232.9680400674
 20
135.0793487403
 10
233.2789471452
 20
134.8606482723
  0
LWPOLYLINE
  5
2DA
330
1F
100
AcDbEntity
  8
0
  6
Continuous
 62
     7
370
    30
100
AcDbPolyline
 90
       33
 70
   128
 43
0.0
 10
259.7954514397
 20
139.9631989712
 10
260.1742928101
 20
139.7837161356
 10
260.6065098117
 20
139.6503483571
 10
261.0754925876
 20
139.5682208846
 10
261.5632183926
 20
139.5404898308
 10
262.0509441977
 20
139.5682208846
 10
262.5199269735
 20
139.6503483571
 10
262.9521439752
 20
139.7837161356
 10
263.3309853456
 20
139.9631989712
 10
263.6418924234
 20
140.1818994392
 10
263.8729172239
 20
140.4314130032
 10
264.0151815936
 20
140.7021509969
 10
264.0632183926
 20
140.983709111
 10
264.0151815936
 20
141.2652672251
 10
263.8729172239
 20
141.5360052188
 10
263.6418924234
 20
141.7855187828
 10
263.3309853456
 20
142.0042192508
 10
262.9521439752
 20
142.1837020864
 10
262.5199269735
 20
142.3170698649
 10
262.0509441977
 20
142.3991973374
 10
261.5632183926
 20
142.4269283912
 10
261.0754925876
 20
142.3991973374
 10
260.6065098117
 20
142.3170698649
 10
260.1742928101
 20
142.1837020864
 10
259.7954514397
 20
142.0042192508
 10
259.4845443619
 20
141.7855187828
 10
259.2535195613
 20
141.5360052188
 10
259.1112551916
 20
141.2652672251
 10
259.0632183926
 20
140.983709111
 10
259.1112551916
 20
140.7021509969
 10
259.2535195613
 20
140.4314130032
 10
259.4845443619
 20
140.1818994392
 10
259.7954514397
 20
139.9631989712
  0
LWPOLYLINE
  5
2DB
330
1F
100
AcDbEntity
  8
0
  6
Continuous
 62
     7
370
    30
100
AcDbPolyline
 90
       33
 70
   128
 43
0.0
 10
242.11778191
 20
129.7580975734
 10
242.4966232804
 20
129.5786147378
 10
242.928840282
 20
129.4452469593
 10
243.3978230579
 20
129.3631194868
 10
243.885548863
 20
129.335388433
 10
244.373274668
 20
129.3631194868
 10
244.8422574439
 20
129.4452469593
 10
245.2744744455
 20
129.5786147378
 10
245.6533158159
 20
129.7580975734
 10
245.9642228937
 20
129.9767980414
 10
246.1952476942
 20
130.2263116054
 10
246.337512064
 20
130.4970495991
 10
246.385548863
 20
130.7786077132
 10
246.337512064
 20
131.0601658273
 10
246.1952476942
 20
131.330903821
 10
245.9642228937
 20
131.580417385
 10
245.6533158159
 20
131.799117853
 10
245.2744744455
 20
131.9786006886
 10
244.8422574439
 20
132.1119684671
 10
244.373274668
 20
132.1940959396
 10
243.885548863
 20
132.2218269934
 10
243.3978230579
 20
132.1940959396
 10
242.928840282
 20
132.1119684671
 10
242.4966232804
 20
131.9786006886
 10
242.11778191
 20
131.799117853
 10
241.8068748322
 20
131.580417385
 10
241.5758500317
 20
131.330903821
 10
241.433585662
 20
131.0601658273
 10
241.385548863
 20
130.7786077132
 10
241.433585662
 20
130.4970495991
 10
241.5758500317
 20
130.2263116054
 10
241.8068748322
 20
129.9767980414
 10
242.11778191
 20
129.7580975734
  0
LWPOLYLINE
  5
2DC
330
1F
100
AcDbEntity
  8
0
  6
Continuous
 62
     7
370
    30
100
AcDbPolyline
 90
       33
 70
   128
 43
0.0
 10
189.084773321
 20
160.3734017668
 10
189.4636146914
 20
160.1939189312
 10
189.8958316931
 20
160.0605511526
 10
190.3648144689
 20
159.9784236801
 10
190.852540274
 20
159.9506926263
 10
191.340266079
 20
159.9784236801
 10
191.8092488549
 20
160.0605511526
 10
192.2414658565
 20
160.1939189312
 10
192.6203072269
 20
160.3734017668
 10
192.9312143047
 20
160.5921022347
 10
193.1622391052
 20
160.8416157987
 10
193.304503475
 20
161.1123537924
 10
193.352540274
 20
161.3939119066
 10
193.304503475
 20
161.6754700207
 10
193.1622391052
 20
161.9462080144
 10
192.9312143047
 20
162.1957215784
 10
192.6203072269
 20
162.4144220463
 10
192.2414658565
 20
162.5939048819
 10
191.8092488549
 20
162.7272726605
 10
191.340266079
 20
162.809400133
 10
190.852540274
 20
162.8371311868
 10
190.3648144689
 20
162.809400133
 10
189.8958316931
 20
162.7272726605
 10
189.4636146914
 20
162.5939048819
 10
189.084773321
 20
162.4144220463
 10
188.7738662432
 20
162.1957215784
 10
188.5428414427
 20
161.9462080144
 10
188.400577073
 20
161.6754700207
 10
188.352540274
 20
161.3939119066
 10
188.400577073
 20
161.1123537924
 10
188.5428414427
 20
160.8416157987
 10
188.7738662432
 20
160.5921022347
 10
189.084773321
 20
160.3734017668
  0
LWPOLYLINE
  5
2DD
330
1F
100
AcDbEntity
  8
0
  6
Continuous
 62
     7
370
    30
100
AcDbPolyline
 90
       33
 70
   128
 43
0.0
 10
206.7624428507
 20
170.5785031646
 10
207.1412842211
 20
170.399020329
 10
207.5735012227
 20
170.2656525504
 10
208.0424839986
 20
170.1835250779
 10
208.5302098036
 20
170.1557940241
 10
209.0179356087
 20
170.1835250779
 10
209.4869183845
 20
170.2656525504
 10
209.9191353862
 20
170.399020329
 10
210.2979767566
 20
170.5785031646
 10
210.6088838344
 20
170.7972036325
 10
210.8399086349
 20
171.0467171965
 10
210.9821730046
 20
171.3174551902
 10
211.0302098036
 20
171.5990133043
 10
210.9821730046
 20
171.8805714185
 10
210.8399086349
 20
172.1513094121
 10
210.6088838344
 20
172.4008229761
 10
210.2979767566
 20
172.6195234441
 10
209.9191353862
 20
172.7990062797
 10
209.4869183845
 20
172.9323740583
 10
209.0179356087
 20
173.0145015308
 10
208.5302098036
 20
173.0422325846
 10
208.0424839986
 20
173.0145015308
 10
207.5735012227
 20
172.9323740583
 10
207.1412842211
 20
172.7990062797
 10
206.7624428507
 20
172.6195234441
 10
206.4515357729
 20
172.4008229761
 10
206.2205109724
 20
172.1513094121
 10
206.0782466026
 20
171.8805714185
 10
206.0302098036
 20
171.5990133043
 10
206.0782466026
 20
171.3174551902
 10
206.2205109724
 20
171.0467171965
 10
206.4515357729
 20
170.7972036325
 10
206.7624428507
 20
170.5785031646
  0
LWPOLYLINE
  5
2DE
330
1F
100
AcDbEntity
  8
0
  6
Continuous
 62
     7
370
    30
100
AcDbPolyline
 90
       49
 70
   128
 43
0.0
 10
204.6411225071
 20
159.148789599
 10
205.1820219441
 20
158.8749496657
 10
205.7802098036
 20
158.6442098748
 10
206.4254509256
 20
158.4605182479
 10
207.1067050556
 20
158.3270177999
 10
207.8123157464
 20
158.2459927603
 10
208.5302098036
 20
158.2188294901
 10
209.2481038608
 20
158.2459927603
 10
209.9537145517
 20
158.3270177999
 10
210.6349686816
 20
158.4605182479
 10
211.2802098036
 20
158.6442098748
 10
211.8783976632
 20
158.8749496657
 10
212.4192971002
 20
159.148789599
 10
212.8936531752
 20
159.4610441975
 10
213.2933495244
 20
159.8063706983
 10
213.6115472324
 20
160.1788604694
 10
213.8428018482
 20
160.5721401074
 10
213.9831565412
 20
160.9794804887
 10
214.0302098036
 20
161.3939119066
 10
213.9831565412
 20
161.8083433244
 10
213.8428018482
 20
162.2156837057
 10
213.6115472324
 20
162.6089633437
 10
213.2933495244
 20
162.9814531148
 10
212.8936531752
 20
163.3267796156
 10
212.4192971002
 20
163.6390342141
 10
211.8783976632
 20
163.9128741474
 10
211.2802098036
 20
164.1436139383
 10
210.6349686816
 20
164.3273055652
 10
209.9537145517
 20
164.4608060132
 10
209.2481038608
 20
164.5418310528
 10
208.5302098036
 20
164.568994323
 10
207.8123157464
 20
164.5418310528
 10
207.1067050556
 20
164.4608060132
 10
206.4254509256
 20
164.3273055652
 10
205.7802098036
 20
164.1436139383
 10
205.1820219441
 20
163.9128741474
 10
204.6411225071
 20
163.6390342141
 10
204.166766432
 20
163.3267796156
 10
203.7670700828
 20
162.9814531148
 10
203.4488723748
 20
162.6089633437
 10
203.217617759
 20
162.2156837057
 10
203.0772630661
 20
161.8083433244
 10
203.0302098036
 20
161.3939119066
 10
203.0772630661
 20
160.9794804887
 10
203.217617759
 20
160.5721401074
 10
203.4488723748
 20
160.1788604694
 10
203.7670700828
 20
159.8063706983
 10
204.166766432
 20
159.4610441975
 10
204.6411225071
 20
159.148789599
  0
LWPOLYLINE
  5
2DF
330
1F
100
AcDbEntity
  8
0
  6
Continuous
 62
     7
370
    30
100
AcDbPolyline
 90
       49
 70
   128
 43
0.0
 10
239.9964615664
 20
138.7385868035
 10
240.5373610034
 20
138.4647468702
 10
241.135548863
 20
138.2340070792
 10
241.780789985
 20
138.0503154524
 10
242.4620441149
 20
137.9168150043
 10
243.1676548058
 20
137.8357899647
 10
243.885548863
 20
137.8086266945
 10
244.6034429202
 20
137.8357899647
 10
245.309053611
 20
137.9168150043
 10
245.990307741
 20
138.0503154524
 10
246.635548863
 20
138.2340070792
 10
247.2337367225
 20
138.4647468702
 10
247.7746361595
 20
138.7385868035
 10
248.2489922346
 20
139.0508414019
 10
248.6486885838
 20
139.3961679028
 10
248.9668862918
 20
139.7686576738
 10
249.1981409076
 20
140.1619373118
 10
249.3384956005
 20
140.5692776932
 10
249.385548863
 20
140.983709111
 10
249.3384956005
 20
141.3981405288
 10
249.1981409076
 20
141.8054809101
 10
248.9668862918
 20
142.1987605482
 10
248.6486885838
 20
142.5712503192
 10
248.2489922346
 20
142.9165768201
 10
247.7746361595
 20
143.2288314185
 10
247.2337367225
 20
143.5026713518
 10
246.635548863
 20
143.7334111428
 10
245.990307741
 20
143.9171027696
 10
245.309053611
 20
144.0506032177
 10
244.6034429202
 20
144.1316282572
 10
243.885548863
 20
144.1587915275
 10
243.1676548058
 20
144.1316282572
 10
242.4620441149
 20
144.0506032177
 10
241.780789985
 20
143.9171027696
 10
241.135548863
 20
143.7334111428
 10
240.5373610034
 20
143.5026713518
 10
239.9964615664
 20
143.2288314185
 10
239.5221054914
 20
142.9165768201
 10
239.1224091421
 20
142.5712503192
 10
238.8042114341
 20
142.1987605482
 10
238.5729568184
 20
141.8054809101
 10
238.4326021254
 20
141.3981405288
 10
238.385548863
 20
140.983709111
 10
238.4326021254
 20
140.5692776932
 10
238.5729568184
 20
140.1619373118
 10
238.8042114342
 20
139.7686576738
 10
239.1224091421
 20
139.3961679028
 10
239.5221054914
 20
139.0508414019
 10
239.9964615664
 20
138.7385868035
  0
LWPOLYLINE
  5
2E0
330
1F
100
AcDbEntity
  8
0
  6
Continuous
 62
     7
370
    30
100
AcDbPolyline
 90
       49
 70
   128
 43
0.0
 10
239.9964615664
 20
159.148789599
 10
240.5373610034
 20
158.8749496657
 10
241.135548863
 20
158.6442098748
 10
241.780789985
 20
158.4605182479
 10
242.4620441149
 20
158.3270177999
 10
243.1676548058
 20
158.2459927603
 10
243.885548863
 20
158.2188294901
 10
244.6034429202
 20
158.2459927603
 10
245.309053611
 20
158.3270177999
 10
245.990307741
 20
158.4605182479
 10
246.635548863
 20
158.6442098748
 10
247.2337367225
 20
158.8749496657
 10
247.7746361595
 20
159.148789599
 10
248.2489922346
 20
159.4610441975
 10
248.6486885838
 20
159.8063706983
 10
248.9668862918
 20
160.1788604694
 10
249.1981409076
 20
160.5721401074
 10
249.3384956005
 20
160.9794804887
 10
249.385548863
 20
161.3939119066
 10
249.3384956005
 20
161.8083433244
 10
249.1981409076
 20
162.2156837057
 10
248.9668862918
 20
162.6089633437
 10
248.6486885838
 20
162.9814531148
 10
248.2489922346
 20
163.3267796156
 10
247.7746361595
 20
163.6390342141
 10
247.2337367225
 20
163.9128741474
 10
246.635548863
 20
164.1436139383
 10
245.990307741
 20
164.3273055652
 10
245.309053611
 20
164.4608060132
 10
244.6034429202
 20
164.5418310528
 10
243.885548863
 20
164.568994323
 10
243.1676548058
 20
164.5418310528
 10
242.4620441149
 20
164.4608060132
 10
241.780789985
 20
164.3273055652
 10
241.135548863
 20
164.1436139383
 10
240.5373610034
 20
163.9128741474
 10
239.9964615664
 20
163.6390342141
 10
239.5221054914
 20
163.3267796156
 10
239.1224091421
 20
162.9814531148
 10
238.8042114342
 20
162.6089633437
 10
238.5729568184
 20
162.2156837057
 10
238.4326021254
 20
161.8083433244
 10
238.385548863
 20
161.3939119066
 10
238.4326021254
 20
160.9794804887
 10
238.5729568184
 20
160.5721401074
 10
238.8042114342
 20
160.1788604694
 10
239.1224091421
 20
159.8063706983
 10
239.5221054914
 20
159.4610441975
 10
239.9964615664
 20
159.148789599
  0
LWPOLYLINE
  5
2E1
330
1F
100
AcDbEntity
  8
0
  6
Continuous
 62
     7
370
    30
100
AcDbPolyline
 90
       49
 70
   128
 43
0.0
 10
222.3187920368
 20
148.9436882013
 10
222.8596914738
 20
148.669848268
 10
223.4578793333
 20
148.439108477
 10
224.1031204553
 20
148.2554168502
 10
224.7843745852
 20
148.1219164021
 10
225.4899852761
 20
148.0408913625
 10
226.2078793333
 20
148.0137280923
 10
226.9257733905
 20
148.0408913625
 10
227.6313840814
 20
148.1219164021
 10
228.3126382113
 20
148.2554168502
 10
228.9578793333
 20
148.439108477
 10
229.5560671928
 20
148.669848268
 10
230.0969666298
 20
148.9436882013
 10
230.5713227049
 20
149.2559427997
 10
230.9710190541
 20
149.6012693005
 10
231.2892167621
 20
149.9737590716
 10
231.5204713779
 20
150.3670387096
 10
231.6608260709
 20
150.774379091
 10
231.7078793333
 20
151.1888105088
 10
231.6608260709
 20
151.6032419266
 10
231.5204713779
 20
152.0105823079
 10
231.2892167621
 20
152.4038619459
 10
230.9710190541
 20
152.776351717
 10
230.5713227049
 20
153.1216782178
 10
230.0969666298
 20
153.4339328163
 10
229.5560671928
 20
153.7077727496
 10
228.9578793333
 20
153.9385125405
 10
228.3126382113
 20
154.1222041674
 10
227.6313840814
 20
154.2557046154
 10
226.9257733905
 20
154.336729655
 10
226.2078793333
 20
154.3638929252
 10
225.4899852761
 20
154.336729655
 10
224.7843745852
 20
154.2557046154
 10
224.1031204553
 20
154.1222041674
 10
223.4578793333
 20
153.9385125405
 10
222.8596914738
 20
153.7077727496
 10
222.3187920368
 20
153.4339328163
 10
221.8444359617
 20
153.1216782178
 10
221.4447396125
 20
152.776351717
 10
221.1265419045
 20
152.4038619459
 10
220.8952872887
 20
152.0105823079
 10
220.7549325957
 20
151.6032419266
 10
220.7078793333
 20
151.1888105088
 10
220.7549325957
 20
150.774379091
 10
220.8952872887
 20
150.3670387096
 10
221.1265419045
 20
149.9737590716
 10
221.4447396125
 20
149.6012693005
 10
221.8444359617
 20
149.2559427997
 10
222.3187920368
 20
148.9436882013
  0
LWPOLYLINE
  5
2E2
330
1F
100
AcDbEntity
  8
0
  6
Continuous
 62
     7
370
    30
100
AcDbPolyline
 90
       49
 70
   128
 43
0.0
 10
204.6411225071
 20
138.7385868035
 10
205.1820219441
 20
138.4647468702
 10
205.7802098036
 20
138.2340070792
 10
206.4254509256
 20
138.0503154524
 10
207.1067050556
 20
137.9168150043
 10
207.8123157464
 20
137.8357899647
 10
208.5302098036
 20
137.8086266945
 10
209.2481038608
 20
137.8357899647
 10
209.9537145517
 20
137.9168150043
 10
210.6349686816
 20
138.0503154524
 10
211.2802098036
 20
138.2340070792
 10
211.8783976632
 20
138.4647468702
 10
212.4192971002
 20
138.7385868035
 10
212.8936531752
 20
139.0508414019
 10
213.2933495244
 20
139.3961679028
 10
213.6115472324
 20
139.7686576738
 10
213.8428018482
 20
140.1619373118
 10
213.9831565412
 20
140.5692776932
 10
214.0302098036
 20
140.983709111
 10
213.9831565412
 20
141.3981405288
 10
213.8428018482
 20
141.8054809101
 10
213.6115472324
 20
142.1987605482
 10
213.2933495244
 20
142.5712503192
 10
212.8936531752
 20
142.9165768201
 10
212.4192971002
 20
143.2288314185
 10
211.8783976632
 20
143.5026713518
 10
211.2802098036
 20
143.7334111428
 10
210.6349686816
 20
143.9171027696
 10
209.9537145517
 20
144.0506032177
 10
209.2481038608
 20
144.1316282572
 10
208.5302098036
 20
144.1587915275
 10
207.8123157464
 20
144.1316282572
 10
207.1067050556
 20
144.0506032177
 10
206.4254509256
 20
143.9171027696
 10
205.7802098036
 20
143.7334111428
 10
205.1820219441
 20
143.5026713518
 10
204.6411225071
 20
143.2288314185
 10
204.166766432
 20
142.9165768201
 10
203.7670700828
 20
142.5712503192
 10
203.4488723748
 20
142.1987605482
 10
203.217617759
 20
141.8054809101
 10
203.0772630661
 20
141.3981405288
 10
203.0302098036
 20
140.983709111
 10
203.0772630661
 20
140.5692776932
 10
203.217617759
 20
140.1619373118
 10
203.4488723748
 20
139.7686576738
 10
203.7670700828
 20
139.3961679028
 10
204.166766432
 20
139.0508414019
 10
204.6411225071
 20
138.7385868035
  0
LWPOLYLINE
  5
2E3
330
1F
100
AcDbEntity
  8
0
  6
Continuous
 62
     7
370
    30
100
AcDbPolyline
 90
       42
 70
   128
 43
0.0
 10
241.0571217382
 20
149.5559942851
 10
241.5220270815
 20
149.3258819715
 10
242.0423313722
 20
149.1394351239
 10
242.6058391186
 20
149.0010238983
 10
243.1993421768
 20
148.9138925365
 10
243.8089293381
 20
148.880083324
 10
244.4203123961
 20
148.9003887198
 10
245.0191610502
 20
148.9743327828
 10
245.5914387953
 20
149.1001823268
 10
246.1237319264
 20
149.2749875451
 10
246.6035639434
 20
149.4946511516
 10
247.0196879906
 20
149.7540244176
 10
247.362350473
 20
150.0470278534
 10
247.6235196725
 20
150.366793707
 10
247.7970740044
 20
150.7058269377
 10
247.8789455022
 20
151.0561808939
 10
247.8672151674
 20
151.4096435759
 10
247.7621579492
 20
151.757930118
 10
247.5662362996
 20
152.0928769788
 10
247.2840424561
 20
152.4066332878
 10
246.9221908033
 20
152.691844863
 10
246.4891628371
 20
152.9418265869
 10
245.995108366
 20
153.1507190997
 10
245.4516076082
 20
153.313626138
 10
244.8713997608
 20
153.4267292988
 10
244.2680844038
 20
153.48737754
 10
243.655802738
 20
153.4941493181
 10
243.0489061267
 20
153.4468859084
 10
242.4616197119
 20
153.3466951252
 10
241.9077089897
 20
153.1959253556
 10
241.4001571577
 20
152.9981105151
 10
240.9508608007
 20
152.757887216
 10
240.5703510446
 20
152.4808860887
 10
240.2675467156
 20
152.1735998049
 10
240.0495452904
 20
151.8432308947
 10
239.9214565376
 20
151.4975229253
 10
239.8862827492
 20
151.1445789985
 10
239.9448483689
 20
150.7926718209
 10
240.0957806682
 20
150.4500497983
 10
240.3355419219
 20
150.1247437007
 10
240.6585123294
 20
149.8243784271
 10
241.0571217382
 20
149.5559942851
  0
LWPOLYLINE
  5
2E4
330
1F
100
AcDbEntity
  8
0
  6
Continuous
 62
     7
370
    30
100
AcDbPolyline
 90
       42
 70
   128
 43
0.0
 10
223.3794522086
 20
159.7610956829
 10
223.8443575519
 20
159.5309833693
 10
224.3646618425
 20
159.3445365216
 10
224.9281695889
 20
159.2061252961
 10
225.5216726471
 20
159.1189939343
 10
226.1312598084
 20
159.0851847217
 10
226.7426428664
 20
159.1054901176
 10
227.3414915205
 20
159.1794341806
 10
227.9137692657
 20
159.3052837246
 10
228.4460623967
 20
159.4800889429
 10
228.9258944137
 20
159.6997525494
 10
229.3420184609
 20
159.9591258154
 10
229.6846809433
 20
160.2521292512
 10
229.9458501428
 20
160.5718951048
 10
230.1194044747
 20
160.9109283355
 10
230.2012759725
 20
161.2612822917
 10
230.1895456377
 20
161.6147449737
 10
230.0844884195
 20
161.9630315158
 10
229.88856677
 20
162.2979783766
 10
229.6063729265
 20
162.6117346856
 10
229.2445212736
 20
162.8969462608
 10
228.8114933074
 20
163.1469279847
 10
228.3174388364
 20
163.3558204975
 10
227.7739380786
 20
163.5187275358
 10
227.1937302311
 20
163.6318306966
 10
226.5904148742
 20
163.6924789377
 10
225.9781332084
 20
163.6992507159
 10
225.371236597
 20
163.6519873062
 10
224.7839501823
 20
163.551796523
 10
224.23003946
 20
163.4010267534
 10
223.722487628
 20
163.2032119129
 10
223.2731912711
 20
162.9629886137
 10
222.892681515
 20
162.6859874865
 10
222.5898771859
 20
162.3787012027
 10
222.3718757607
 20
162.0483322925
 10
222.243787008
 20
161.7026243231
 10
222.2086132196
 20
161.3496803963
 10
222.2671788392
 20
160.9977732187
 10
222.4181111385
 20
160.6551511961
 10
222.6578723922
 20
160.3298450984
 10
222.9808427998
 20
160.0294798249
 10
223.3794522086
 20
159.7610956829
  0
LWPOLYLINE
  5
2E5
330
1F
100
AcDbEntity
  8
0
  6
Continuous
 62
     7
370
    30
100
AcDbPolyline
 90
       42
 70
   128
 43
0.0
 10
205.7017826789
 20
149.5559942851
 10
206.1666880222
 20
149.3258819715
 10
206.6869923129
 20
149.1394351239
 10
207.2505000593
 20
149.0010238983
 10
207.8440031175
 20
148.9138925365
 10
208.4535902787
 20
148.880083324
 10
209.0649733368
 20
148.9003887198
 10
209.6638219908
 20
148.9743327828
 10
210.236099736
 20
149.1001823268
 10
210.768392867
 20
149.2749875451
 10
211.248224884
 20
149.4946511516
 10
211.6643489312
 20
149.7540244176
 10
212.0070114137
 20
150.0470278534
 10
212.2681806132
 20
150.366793707
 10
212.441734945
 20
150.7058269377
 10
212.5236064428
 20
151.0561808939
 10
212.5118761081
 20
151.4096435759
 10
212.4068188898
 20
151.757930118
 10
212.2108972403
 20
152.0928769788
 10
211.9287033968
 20
152.4066332878
 10
211.566851744
 20
152.691844863
 10
211.1338237778
 20
152.9418265869
 10
210.6397693067
 20
153.1507190997
 10
210.0962685489
 20
153.313626138
 10
209.5160607014
 20
153.4267292988
 10
208.9127453445
 20
153.48737754
 10
208.3004636787
 20
153.4941493181
 10
207.6935670673
 20
153.4468859084
 10
207.1062806526
 20
153.3466951252
 10
206.5523699303
 20
153.1959253556
 10
206.0448180983
 20
152.9981105151
 10
205.5955217414
 20
152.757887216
 10
205.2150119853
 20
152.4808860887
 10
204.9122076562
 20
152.1735998049
 10
204.694206231
 20
151.8432308947
 10
204.5661174783
 20
151.4975229253
 10
204.5309436899
 20
151.1445789985
 10
204.5895093096
 20
150.7926718209
 10
204.7404416089
 20
150.4500497983
 10
204.9802028625
 20
150.1247437007
 10
205.3031732701
 20
149.8243784271
 10
205.7017826789
 20
149.5559942851
  0
LWPOLYLINE
  5
2E6
330
1F
100
AcDbEntity
  8
0
  6
Continuous
 62
     7
370
    30
100
AcDbPolyline
 90
       42
 70
   128
 43
0.0
 10
223.3794522086
 20
139.3508928873
 10
223.8443575519
 20
139.1207805737
 10
224.3646618425
 20
138.9343337261
 10
224.9281695889
 20
138.7959225005
 10
225.5216726471
 20
138.7087911388
 10
226.1312598084
 20
138.6749819262
 10
226.7426428664
 20
138.695287322
 10
227.3414915205
 20
138.769231385
 10
227.9137692657
 20
138.895080929
 10
228.4460623967
 20
139.0698861473
 10
228.9258944137
 20
139.2895497538
 10
229.3420184609
 20
139.5489230198
 10
229.6846809433
 20
139.8419264557
 10
229.9458501428
 20
140.1616923092
 10
230.1194044747
 20
140.5007255399
 10
230.2012759725
 20
140.8510794962
 10
230.1895456377
 20
141.2045421782
 10
230.0844884195
 20
141.5528287202
 10
229.88856677
 20
141.887775581
 10
229.6063729265
 20
142.20153189
 10
229.2445212736
 20
142.4867434653
 10
228.8114933074
 20
142.7367251891
 10
228.3174388364
 20
142.9456177019
 10
227.7739380786
 20
143.1085247402
 10
227.1937302311
 20
143.221627901
 10
226.5904148742
 20
143.2822761422
 10
225.9781332084
 20
143.2890479203
 10
225.371236597
 20
143.2417845106
 10
224.7839501823
 20
143.1415937275
 10
224.23003946
 20
142.9908239578
 10
223.722487628
 20
142.7930091173
 10
223.2731912711
 20
142.5527858182
 10
222.892681515
 20
142.2757846909
 10
222.5898771859
 20
141.9684984071
 10
222.3718757607
 20
141.6381294969
 10
222.243787008
 20
141.2924215275
 10
222.2086132196
 20
140.9394776008
 10
222.2671788392
 20
140.5875704231
 10
222.4181111385
 20
140.2449484005
 10
222.6578723922
 20
139.9196423029
 10
222.9808427998
 20
139.6192770293
 10
223.3794522086
 20
139.3508928873
  0
LINE
  5
2E7
330
1F
100
AcDbEntity
  8
0
  6
Continuous
 62
     7
370
    30
100
AcDbLine
 10
235.0467140981
 20
113.8370777924
 30
0.0
 11
279.5944413129
 21
139.5539333148
 31
0.0
  0
LINE
  5
2E8
330
1F
100
AcDbEntity
  8
0
  6
Continuous
 62
     7
370
    30
100
AcDbLine
 10
172.8213173537
 20
147.3098103771
 30
0.0
 11
230.804073411
 21
113.8370777924
 31
0.0
  0
ARC
  5
2E9
330
1F
100
AcDbEntity
  8
0
  6
Continuous
 62
     7
370
    30
100
AcDbCircle
 10
243.885548863
 20
130.6191089669
 30
0.0
 40
8.65395979658056
100
AcDbArc
 50
66.1500674259
 51
113.8499325741
  0
ARC
  5
2EA
330
1F
100
AcDbEntity
  8
0
  6
Continuous
 62
     7
370
    30
100
AcDbCircle
 10
208.5302098036
 20
130.6191089669
 30
0.0
 40
8.653959796580741
100
AcDbArc
 50
66.1500674259
 51
113.8499325741
  0
ARC
  5
2EB
330
1F
100
AcDbEntity
  8
0
  6
Continuous
 62
     7
370
    30
100
AcDbCircle
 10
226.2078793333
 20
133.4475016965
 30
0.0
 40
6.265968348960908
100
AcDbArc
 50
66.3524869727
 51
113.6475130273
  0
ARC
  5
2EC
330
1F
100
AcDbEntity
  8
0
  6
Continuous
 62
     7
370
    30
100
AcDbCircle
 10
243.885548863
 20
132.4375379805
 30
0.0
 40
5.553011227482028
100
AcDbArc
 50
78.3229822067
 51
101.6770177933
  0
ARC
  5
2ED
330
1F
100
AcDbEntity
  8
0
  6
Continuous
 62
     7
370
    30
100
AcDbCircle
 10
208.5302098036
 20
132.4375379805
 30
0.0
 40
5.553011227481615
100
AcDbArc
 50
78.3229822067
 51
101.6770177933
  0
LWPOLYLINE
  5
2EE
330
1F
100
AcDbEntity
  8
0
  6
Continuous
 62
     7
370
    30
100
AcDbPolyline
 90
        3
 70
   128
 43
0.0
 10
226.483481575
 20
138.6800458844
 10
226.0901234318
 20
138.6880467972
 10
225.9322770916
 20
138.6800458844
  0
ARC
  5
2EF
330
1F
100
AcDbEntity
  8
0
  6
Continuous
 62
     7
370
    30
100
AcDbCircle
 10
278.9717497819
 20
140.9282646132
 30
0.0
 40
1.508817835481161
100
AcDbArc
 50
294.3746582936
 51
354.3052007488
  0
ARC
  5
2F0
330
1F
100
AcDbEntity
  8
0
  6
Continuous
 62
     7
370
    30
100
AcDbCircle
 10
226.2078793333
 20
140.8242103647
 30
0.0
 40
8.65395979658086
100
AcDbArc
 50
66.1500674259
 51
113.8499325741
  0
ARC
  5
2F1
330
1F
100
AcDbEntity
  8
0
  6
Continuous
 62
     7
370
    30
100
AcDbCircle
 10
208.5302098036
 20
143.6526030943
 30
0.0
 40
6.265968348961117
100
AcDbArc
 50
66.3524869727
 51
113.6475130273
  0
ARC
  5
2F2
330
1F
100
AcDbEntity
  8
0
  6
Continuous
 62
     7
370
    30
100
AcDbCircle
 10
243.885548863
 20
143.6526030943
 30
0.0
 40
6.265968348960919
100
AcDbArc
 50
66.3524869727
 51
113.6475130273
  0
ARC
  5
2F3
330
1F
100
AcDbEntity
  8
0
  6
Continuous
 62
     7
370
    30
100
AcDbCircle
 10
226.2078793333
 20
142.6426393783
 30
0.0
 40
5.553011227488079
100
AcDbArc
 50
78.3229822068
 51
101.6770177932
  0
LWPOLYLINE
  5
2F4
330
1F
100
AcDbEntity
  8
0
  6
Continuous
 62
     7
370
    30
100
AcDbPolyline
 90
        3
 70
   128
 43
0.0
 10
208.8058120453
 20
148.8851472822
 10
208.4124539021
 20
148.893148195
 10
208.254607562
 20
148.8851472822
  0
LWPOLYLINE
  5
2F5
330
1F
100
AcDbEntity
  8
0
  6
Continuous
 62
     7
370
    30
100
AcDbPolyline
 90
        3
 70
   128
 43
0.0
 10
244.1611511046
 20
148.8851472822
 10
243.7677929614
 20
148.893148195
 10
243.6099466213
 20
148.8851472822
  0
ARC
  5
2F6
330
1F
100
AcDbEntity
  8
0
  6
Continuous
 62
     7
370
    30
100
AcDbCircle
 10
173.4440088847
 20
148.6841416755
 30
0.0
 40
1.508817835481304
100
AcDbArc
 50
185.6947992512
 51
245.6253417064
  0
ARC
  5
2F7
330
1F
100
AcDbEntity
  8
0
  6
Continuous
 62
     7
370
    30
100
AcDbCircle
 10
243.885548863
 20
151.0293117625
 30
0.0
 40
8.653959796580704
100
AcDbArc
 50
66.1500674259
 51
113.8499325741
  0
ARC
  5
2F8
330
1F
100
AcDbEntity
  8
0
  6
Continuous
 62
     7
370
    30
100
AcDbCircle
 10
208.5302098036
 20
151.0293117625
 30
0.0
 40
8.653959796580965
100
AcDbArc
 50
66.1500674259
 51
113.8499325741
  0
ARC
  5
2F9
330
1F
100
AcDbEntity
  8
0
  6
Continuous
 62
     7
370
    30
100
AcDbCircle
 10
226.2078793333
 20
153.8577044921
 30
0.0
 40
6.265968348960815
100
AcDbArc
 50
66.3524869727
 51
113.6475130273
  0
ARC
  5
2FA
330
1F
100
AcDbEntity
  8
0
  6
Continuous
 62
     7
370
    30
100
AcDbCircle
 10
243.885548863
 20
152.847740776
 30
0.0
 40
5.553011227485523
100
AcDbArc
 50
78.3229822067
 51
101.6770177933
  0
ARC
  5
2FB
330
1F
100
AcDbEntity
  8
0
  6
Continuous
 62
     7
370
    30
100
AcDbCircle
 10
208.5302098036
 20
152.847740776
 30
0.0
 40
5.553011227483019
100
AcDbArc
 50
78.3229822067
 51
101.6770177933
  0
LWPOLYLINE
  5
2FC
330
1F
100
AcDbEntity
  8
0
  6
Continuous
 62
     7
370
    30
100
AcDbPolyline
 90
        3
 70
   128
 43
0.0
 10
226.483481575
 20
159.09024868
 10
226.0901234318
 20
159.0982495928
 10
225.9322770916
 20
159.09024868
  0
LINE
  5
2FD
330
1F
100
AcDbEntity
  8
0
  6
PHANTOM
 62
     8
370
     0
100
AcDbLine
 10
235.0467140981
 20
120.3694042875
 30
0.0
 11
235.0467140981
 21
113.8370777924
 31
0.0
  0
LINE
  5
2FE
330
1F
100
AcDbEntity
  8
0
  6
PHANTOM
 62
     8
370
     0
100
AcDbLine
 10
230.804073411
 20
113.8370777924
 30
0.0
 11
230.804073411
 21
120.3694042875
 31
0.0
  0
LINE
  5
2FF
330
1F
100
AcDbEntity
  8
0
  6
PHANTOM
 62
     8
370
     0
100
AcDbLine
 10
279.5944413129
 20
139.5539333148
 30
0.0
 11
279.5944413129
 21
146.0862598099
 31
0.0
  0
LINE
  5
300
330
1F
100
AcDbEntity
  8
0
  6
PHANTOM
 62
     8
370
     0
100
AcDbLine
 10
172.8213173537
 20
153.8421368722
 30
0.0
 11
172.8213173537
 21
147.3098103771
 31
0.0
  0
LWPOLYLINE
  5
301
330
1F
100
AcDbEntity
  8
0
  6
Continuous
 62
     7
370
     0
100
AcDbPolyline
 90
       33
 70
   128
 43
0.0
 10
263.6845111847
 20
139.7590972809
 10
263.2299285562
 20
139.5437182471
 10
262.7112694384
 20
139.3836759475
 10
262.1484884971
 20
139.2851241884
 10
261.5632176024
 20
139.251846418
 10
260.9779480247
 20
139.2851234281
 10
260.4151684005
 20
139.3836767079
 10
259.8965073071
 20
139.5437178669
 10
259.4418988867
 20
139.7590965206
 10
259.0688090568
 20
140.0215378961
 10
258.7915795997
 20
140.3209545721
 10
258.6208618141
 20
140.6458403337
 10
258.5632180963
 20
140.9837092692
 10
258.6208631312
 20
141.321578965
 10
258.7915809167
 20
141.6464639663
 10
259.0688097154
 20
141.9458810224
 10
259.4418975696
 20
142.2083220178
 10
259.8965079657
 20
142.4237010516
 10
260.4151690591
 20
142.5837414503
 10
260.9779480247
 20
142.6822951103
 10
261.5632182609
 20
142.7155725005
 10
262.1484884971
 20
142.6822958707
 10
262.7112681213
 20
142.5837425908
 10
263.2299285562
 20
142.4237010516
 10
263.6845396107
 20
142.2083208773
 10
264.0576268065
 20
141.9458810224
 10
264.3348569222
 20
141.6464647266
 10
264.5055747077
 20
141.321578965
 10
264.563217767
 20
140.9837096494
 10
264.5055733906
 20
140.6458403337
 10
264.3348575807
 20
140.3209534316
 10
264.0576268065
 20
140.0215382763
 10
263.6845389522
 20
139.7590972809
  0
LWPOLYLINE
  5
302
330
1F
100
AcDbEntity
  8
0
  6
Continuous
 62
     7
370
     0
100
AcDbPolyline
 90
       33
 70
   128
 43
0.0
 10
246.0068464279
 20
129.553995731
 10
245.5522587631
 20
129.3386166972
 10
245.0336003039
 20
129.1785747778
 10
244.470818704
 20
129.0800226385
 10
243.8855484678
 20
129.0467452484
 10
243.3002782316
 20
129.0800218782
 10
242.7374986074
 20
129.178575158
 10
242.2188381726
 20
129.3386166972
 10
241.7642297522
 20
129.5539953509
 10
241.3911399223
 20
129.8164367264
 10
241.1139098066
 20
130.1158530222
 10
240.943192021
 20
130.4407387839
 10
240.8855489617
 20
130.7786080995
 10
240.9431933381
 20
131.1164774151
 10
241.1139117822
 20
131.4413627966
 10
241.3911399223
 20
131.7407794726
 10
241.7642277766
 20
132.003220468
 10
242.2188381726
 20
132.2185995018
 10
242.7374999245
 20
132.3786402807
 10
243.3002782316
 20
132.4771935605
 10
243.8855491264
 20
132.5104713308
 10
244.470818704
 20
132.4771943208
 10
245.0335983282
 20
132.378641041
 10
245.5522594216
 20
132.2185998819
 10
246.0068704762
 20
132.0032197076
 10
246.3799576719
 20
131.7407798527
 10
246.6571871291
 20
131.4413631768
 10
246.8279049146
 20
131.1164774151
 10
246.8855486325
 20
130.7786084797
 10
246.8279035975
 20
130.4407387839
 10
246.6571884462
 20
130.1158522619
 10
246.3799570134
 20
129.8164367264
 10
246.0068691591
 20
129.553995731
  0
LWPOLYLINE
  5
303
330
1F
100
AcDbEntity
  8
0
  6
Continuous
 62
     7
370
     0
100
AcDbPolyline
 90
       33
 70
   128
 43
0.0
 10
192.9738521576
 20
160.1692996203
 10
192.5192507009
 20
159.9539205865
 10
192.0005896075
 20
159.7938801877
 10
191.4378106419
 20
159.6953265278
 10
190.8525404057
 20
159.6620491376
 10
190.2672701695
 20
159.6953257674
 10
189.7044905453
 20
159.7938790472
 10
189.1858301104
 20
159.9539205865
 10
188.7312190559
 20
160.1693007608
 10
188.3581318601
 20
160.4317406157
 10
188.0809017444
 20
160.7311569115
 10
187.9101839589
 20
161.0560426731
 10
187.8525408996
 20
161.3939119887
 10
187.910185276
 20
161.7317813043
 10
188.0809010859
 20
162.0566682065
 10
188.3581318601
 20
162.3560833618
 10
188.7312197144
 20
162.6185243572
 10
189.1858301104
 20
162.833903391
 10
189.7044892282
 20
162.9939456905
 10
190.2672701695
 20
163.0924974497
 10
190.8525410642
 20
163.12577522
 10
191.4378106419
 20
163.09249821
 10
192.0005902661
 20
162.9939449302
 10
192.5192513595
 20
162.8339037712
 10
192.9738597799
 20
162.6185251175
 10
193.3469496098
 20
162.3560837419
 10
193.6241790669
 20
162.056667066
 10
193.7948968525
 20
161.7317813043
 10
193.8525405703
 20
161.3939123689
 10
193.7948955354
 20
161.0560426731
 10
193.6241777499
 20
160.7311576718
 10
193.3469489512
 20
160.4317406157
 10
192.973861097
 20
160.1692996203
  0
LWPOLYLINE
  5
304
330
1F
100
AcDbEntity
  8
0
  6
Continuous
 62
     7
370
     0
100
AcDbPolyline
 90
       33
 70
   128
 43
0.0
 10
210.6515169144
 20
170.3744011701
 10
210.196920494
 20
170.1590221363
 10
209.6782587421
 20
169.9989813574
 10
209.115480435
 20
169.9004280776
 10
208.5302095402
 20
169.8671503073
 10
207.9449399625
 20
169.9004273173
 10
207.3821603384
 20
169.9989805971
 10
206.863499245
 20
170.1590217561
 10
206.4088881904
 20
170.3744019304
 10
206.0358009947
 20
170.6368417853
 10
205.7585715375
 20
170.9362584613
 10
205.587853752
 20
171.261144223
 10
205.5302100341
 20
171.5990131584
 10
205.5878550691
 20
171.9368828542
 10
205.7585702204
 20
172.2617693762
 10
206.0358016532
 20
172.5611849116
 10
206.4088895075
 20
172.823625907
 10
206.8634999035
 20
173.0390049408
 10
207.3821583627
 20
173.1990468602
 10
207.9449399625
 20
173.2975989995
 10
208.5302101988
 20
173.3308763897
 10
209.115480435
 20
173.2975997599
 10
209.6782600592
 20
173.1990464801
 10
210.196920494
 20
173.0390049408
 10
210.6515289144
 20
172.8236262872
 10
211.0246187443
 20
172.5611849116
 10
211.30184886
 20
172.2617686158
 10
211.4725666455
 20
171.9368828542
 10
211.5302097049
 20
171.5990135386
 10
211.4725653285
 20
171.261144223
 10
211.3018468844
 20
170.9362588415
 10
211.0246187443
 20
170.6368421655
 10
210.65153089
 20
170.3744011701
  0
LWPOLYLINE
  5
305
330
1F
100
AcDbEntity
  8
0
  6
Continuous
 62
     7
370
     0
100
AcDbPolyline
 90
       33
 70
   128
 43
0.0
 10
254.8456192017
 20
144.8616476756
 10
254.3910943182
 20
144.6462686418
 10
253.8724338833
 20
144.4862271026
 10
253.3096542591
 20
144.3876745831
 10
252.7243833644
 20
144.3543968128
 10
252.1391124696
 20
144.3876745831
 10
251.5763341625
 20
144.4862271026
 10
251.0576730691
 20
144.6462682617
 10
250.6030633316
 20
144.8616476756
 10
250.2299748188
 20
145.1240882909
 10
249.9527453617
 20
145.4235049668
 10
249.7820275761
 20
145.7483907285
 10
249.7243838583
 20
146.0862596639
 10
249.7820275761
 20
146.4241301201
 10
249.9527453617
 20
146.7490151214
 10
250.2299754774
 20
147.0484314172
 10
250.6030633316
 20
147.3108724126
 10
251.0576737277
 20
147.5262514464
 10
251.576333504
 20
147.6862926054
 10
252.1391124696
 20
147.7848462654
 10
252.7243840229
 20
147.8181228953
 10
253.3096542591
 20
147.7848462654
 10
253.8724338833
 20
147.6862929856
 10
254.3910943182
 20
147.5262514464
 10
254.8457040556
 20
147.3108720324
 10
255.2187925685
 20
147.0484314172
 10
255.4960226842
 20
146.7490151214
 10
255.6667391526
 20
146.4241301201
 10
255.724383529
 20
146.0862600441
 10
255.6667391526
 20
145.7483907285
 10
255.4960220256
 20
145.4235045867
 10
255.2187925685
 20
145.1240886711
 10
254.8457047142
 20
144.8616476756
  0
LWPOLYLINE
  5
306
330
1F
100
AcDbEntity
  8
0
  6
Continuous
 62
     7
370
     0
100
AcDbPolyline
 90
       33
 70
   128
 43
0.0
 10
219.4902896881
 20
165.2718507754
 10
219.035754732
 20
165.0564717415
 10
218.5170942971
 20
164.8964302023
 10
217.9543159901
 20
164.7978769225
 10
217.3690437782
 20
164.7645999125
 10
216.7837742005
 20
164.7978769225
 10
216.2209945764
 20
164.8964302023
 10
215.702333483
 20
165.0564713614
 10
215.2477237455
 20
165.2718507754
 10
214.8746352327
 20
165.5342913906
 10
214.5974057755
 20
165.8337080666
 10
214.4266893071
 20
166.1585930679
 10
214.3690442721
 20
166.4964627636
 10
214.4266893071
 20
166.8343324594
 10
214.5974057755
 20
167.1592182211
 10
214.8746358912
 20
167.4586345169
 10
215.2477237455
 20
167.7210755123
 10
215.7023341415
 20
167.9364545461
 10
216.2209939178
 20
168.0964957051
 10
216.7837742005
 20
168.1950486048
 10
217.3690444368
 20
168.228325995
 10
217.9543159901
 20
168.1950486048
 10
218.5170942971
 20
168.0964960853
 10
219.035754732
 20
167.9364545461
 10
219.4903644695
 20
167.7210751321
 10
219.8634529823
 20
167.4586345169
 10
220.140683098
 20
167.1592182211
 10
220.3114008835
 20
166.8343324594
 10
220.3690439429
 20
166.4964631438
 10
220.3114008835
 20
166.1585930679
 10
220.1406824395
 20
165.8337076864
 10
219.8634529823
 20
165.5342917708
 10
219.490365128
 20
165.2718507754
  0
LWPOLYLINE
  5
307
330
1F
100
AcDbEntity
  8
0
  6
Continuous
 62
     7
370
     0
100
AcDbPolyline
 90
       33
 70
   128
 43
0.0
 10
201.8126249313
 20
155.0667492255
 10
201.3580849389
 20
154.8513701917
 10
200.8394251626
 20
154.6913290326
 10
200.276646197
 20
154.5927753727
 10
199.6913746437
 20
154.5594987428
 10
199.1061044075
 20
154.5927753727
 10
198.5433247833
 20
154.6913286525
 10
198.0246643484
 20
154.8513701917
 10
197.5700546109
 20
155.0667496057
 10
197.1969660981
 20
155.3291902209
 10
196.9197359824
 20
155.6286065167
 10
196.749019514
 20
155.953491518
 10
196.6913751376
 20
156.291361594
 10
196.749019514
 20
156.6292309096
 10
196.919736641
 20
156.9541170514
 10
197.1969660981
 20
157.253532967
 10
197.5700539524
 20
157.5159739624
 10
198.0246643484
 20
157.7313529962
 10
198.5433247833
 20
157.8913945355
 10
199.1061044075
 20
157.9899470549
 10
199.6913753022
 20
158.0232248253
 10
200.276646197
 20
157.9899470549
 10
200.8394245041
 20
157.8913945355
 10
201.3580855975
 20
157.7313533764
 10
201.8126953349
 20
157.5159739624
 10
202.1857838478
 20
157.2535333472
 10
202.4630133049
 20
156.9541166712
 10
202.6337310905
 20
156.6292309096
 10
202.6913748083
 20
156.2913619741
 10
202.6337310905
 20
155.953491518
 10
202.4630133049
 20
155.6286065167
 10
202.1857831892
 20
155.3291902209
 10
201.8126953349
 20
155.0667492255
  0
LWPOLYLINE
  5
308
330
1F
100
AcDbEntity
  8
0
  6
Continuous
 62
     7
370
     0
100
AcDbPolyline
 90
       33
 70
   128
 43
0.0
 10
237.1679544449
 20
134.6565461258
 10
236.7134245251
 20
134.441167092
 10
236.1947647488
 20
134.2811259329
 10
235.6319844661
 20
134.1825730333
 10
235.0467142298
 20
134.1492956431
 10
234.4614426765
 20
134.1825730333
 10
233.8986643694
 20
134.2811255528
 10
233.3800039346
 20
134.441167092
 10
232.9253941971
 20
134.656546506
 10
232.5523056843
 20
134.9189871212
 10
232.2750755686
 20
135.218403417
 10
232.1043577831
 20
135.5432891786
 10
232.0467147237
 20
135.8811584943
 10
232.1043577831
 20
136.2190285702
 10
232.2750762271
 20
136.5439139517
 10
232.5523056843
 20
136.8433298673
 10
232.9253935386
 20
137.1057708627
 10
233.3800039346
 20
137.3211498965
 10
233.8986643694
 20
137.4811914357
 10
234.4614426765
 20
137.5797447156
 10
235.0467148884
 20
137.6130217256
 10
235.6319844661
 20
137.5797447156
 10
236.1947640902
 20
137.4811914357
 10
236.7134251836
 20
137.3211502767
 10
237.1680349211
 20
137.1057708627
 10
237.5411234339
 20
136.8433302475
 10
237.8183528911
 20
136.5439135715
 10
237.9890693595
 20
136.2190285702
 10
238.0467143945
 20
135.8811588744
 10
237.9890693595
 20
135.5432891786
 10
237.8183528911
 20
135.218403417
 10
237.5411227754
 20
134.9189871212
 10
237.1680349211
 20
134.6565461258
  0
LWPOLYLINE
  5
309
330
1F
100
AcDbEntity
  8
0
  6
Continuous
 62
     7
370
     0
100
AcDbPolyline
 90
       33
 70
   128
 43
0.0
 10
263.6845111847
 20
149.9641984506
 10
263.2299292147
 20
149.7488194168
 10
262.7112687799
 20
149.5887778776
 10
262.1484884971
 20
149.4902249779
 10
261.5632189195
 20
149.4569479679
 10
260.9779467076
 20
149.4902249779
 10
260.4151690591
 20
149.5887778776
 10
259.8965086242
 20
149.7488194168
 10
259.4418982282
 20
149.9641984506
 10
259.0688103739
 20
150.226639446
 10
258.7915802582
 20
150.5260557418
 10
258.6208618141
 20
150.8509411233
 10
258.5632194133
 20
151.188810819
 10
258.6208618141
 20
151.5266805148
 10
258.7915802582
 20
151.8515658963
 10
259.0688103739
 20
152.1509821921
 10
259.4418982282
 20
152.4134231875
 10
259.8965086242
 20
152.6288022213
 10
260.4151690591
 20
152.7888437605
 10
260.9779467076
 20
152.8873966602
 10
261.5632189195
 20
152.9206736702
 10
262.1484884971
 20
152.8873966602
 10
262.7112687799
 20
152.7888437605
 10
263.2299292147
 20
152.6288022213
 10
263.6845396107
 20
152.4134231875
 10
264.057627465
 20
152.1509821921
 10
264.3348575807
 20
151.8515658963
 10
264.5055733906
 20
151.5266805148
 10
264.5632184256
 20
151.188810819
 10
264.5055733906
 20
150.8509411233
 10
264.3348575807
 20
150.5260557418
 10
264.057627465
 20
150.226639446
 10
263.6845396107
 20
149.9641984506
  0
LWPOLYLINE
  5
30A
330
1F
100
AcDbEntity
  8
0
  6
Continuous
 62
     7
370
     0
100
AcDbPolyline
 90
       33
 70
   128
 43
0.0
 10
228.3291816711
 20
129.5539953509
 10
227.8745896286
 20
129.3386163171
 10
227.3559291937
 20
129.1785747778
 10
226.7931502281
 20
129.0800226385
 10
226.2078793333
 20
129.0467448682
 10
225.6226084385
 20
129.0800226385
 10
225.0598294729
 20
129.1785747778
 10
224.541169038
 20
129.3386163171
 10
224.086558642
 20
129.5539953509
 10
223.7134707877
 20
129.8164363463
 10
223.436240672
 20
130.1158526421
 10
223.2655235451
 20
130.4407387839
 10
223.2078798272
 20
130.7786077193
 10
223.2655235451
 20
131.1164781755
 10
223.436240672
 20
131.4413627966
 10
223.7134707877
 20
131.7407790924
 10
224.086558642
 20
132.0032200878
 10
224.541169038
 20
132.2185991216
 10
225.0598294729
 20
132.3786406608
 10
225.6226084385
 20
132.4771943208
 10
226.2078793333
 20
132.5104705705
 10
226.7931502281
 20
132.4771943208
 10
227.3559291937
 20
132.3786406608
 10
227.8745896286
 20
132.2185991216
 10
228.3292000246
 20
132.0032200878
 10
228.7022878789
 20
131.7407790924
 10
228.9795179946
 20
131.4413627966
 10
229.1502351215
 20
131.1164781755
 10
229.2078788394
 20
130.7786077193
 10
229.1502351215
 20
130.4407387839
 10
228.9795179946
 20
130.1158526421
 10
228.7022878789
 20
129.8164363463
 10
228.3292000246
 20
129.5539953509
  0
LWPOLYLINE
  5
30B
330
1F
100
AcDbEntity
  8
0
  6
Continuous
 62
     7
370
     0
100
AcDbPolyline
 90
       33
 70
   128
 43
0.0
 10
192.9738521576
 20
149.9641984506
 10
192.5192500424
 20
149.7488194168
 10
192.0005896075
 20
149.5887778776
 10
191.437811959
 20
149.4902249779
 10
190.8525397471
 20
149.4569479679
 10
190.2672701695
 20
149.4902249779
 10
189.7044898867
 20
149.5887778776
 10
189.1858294519
 20
149.7488194168
 10
188.7312190559
 20
149.9641984506
 10
188.3581312016
 20
150.226639446
 10
188.0809010859
 20
150.5260557418
 10
187.910185276
 20
150.8509411233
 10
187.852540241
 20
151.188810819
 10
187.910185276
 20
151.5266805148
 10
188.0809010859
 20
151.8515658963
 10
188.3581312016
 20
152.1509821921
 10
188.7312190559
 20
152.4134231875
 10
189.1858294519
 20
152.6288022213
 10
189.7044898867
 20
152.7888437605
 10
190.2672701695
 20
152.8873966602
 10
190.8525397471
 20
152.9206736702
 10
191.437811959
 20
152.8873966602
 10
192.0005896075
 20
152.7888437605
 10
192.5192500424
 20
152.6288022213
 10
192.9738604384
 20
152.4134231875
 10
193.3469482927
 20
152.1509821921
 10
193.6241784084
 20
151.8515658963
 10
193.7948968525
 20
151.5266805148
 10
193.8525392533
 20
151.188810819
 10
193.7948968525
 20
150.8509411233
 10
193.6241784084
 20
150.5260557418
 10
193.3469482927
 20
150.226639446
 10
192.9738604384
 20
149.9641984506
  0
LWPOLYLINE
  5
30C
330
1F
100
AcDbEntity
  8
0
  6
Continuous
 62
     7
370
     0
100
AcDbPolyline
 90
       33
 70
   128
 43
0.0
 10
228.3291816711
 20
170.3744015503
 10
227.8745896286
 20
170.1590225165
 10
227.3559291937
 20
169.9989809773
 10
226.7931502281
 20
169.9004273173
 10
226.2078793333
 20
169.8671510676
 10
225.6226084385
 20
169.9004273173
 10
225.0598294729
 20
169.9989809773
 10
224.541169038
 20
170.1590225165
 10
224.086558642
 20
170.3744015503
 10
223.7134707877
 20
170.6368425457
 10
223.436240672
 20
170.9362588415
 10
223.2655235451
 20
171.2611434626
 10
223.2078798272
 20
171.5990139187
 10
223.2655235451
 20
171.9368828542
 10
223.436240672
 20
172.261768996
 10
223.7134707877
 20
172.5611852918
 10
224.086558642
 20
172.8236262872
 10
224.541169038
 20
173.039005321
 10
225.0598294729
 20
173.1990468602
 10
225.6226084385
 20
173.2975989995
 10
226.2078793333
 20
173.3308767699
 10
226.7931502281
 20
173.2975989995
 10
227.3559291937
 20
173.1990468602
 10
227.8745896286
 20
173.039005321
 10
228.3292000246
 20
172.8236262872
 10
228.7022878789
 20
172.5611852918
 10
228.9795179946
 20
172.261768996
 10
229.1502351215
 20
171.9368828542
 10
229.2078788394
 20
171.5990139187
 10
229.1502351215
 20
171.2611434626
 10
228.9795179946
 20
170.9362588415
 10
228.7022878789
 20
170.6368425457
 10
228.3292000246
 20
170.3744015503
  0
LINE
  5
30D
330
1F
100
AcDbEntity
  8
0
  6
Continuous
 62
     7
370
    30
100
AcDbLine
 10
143.9143465546
 20
46.9205809962
 30
0.0
 11
143.9143465546
 21
38.9205809962
 31
0.0
  0
LINE
  5
30E
330
1F
100
AcDbEntity
  8
0
  6
Continuous
 62
     7
370
    30
100
AcDbLine
 10
143.9143465546
 20
38.9205809962
 30
0.0
 11
140.9143465546
 21
38.9205809962
 31
0.0
  0
LINE
  5
30F
330
1F
100
AcDbEntity
  8
0
  6
Continuous
 62
     7
370
    30
100
AcDbLine
 10
140.9143465546
 20
46.9205809962
 30
0.0
 11
143.9143465546
 21
46.9205809962
 31
0.0
  0
LINE
  5
310
330
1F
100
AcDbEntity
  8
0
  6
Continuous
 62
     7
370
    30
100
AcDbLine
 10
58.9143465546
 20
38.9205809962
 30
0.0
 11
140.9143465546
 21
38.9205809962
 31
0.0
  0
LINE
  5
311
330
1F
100
AcDbEntity
  8
0
  6
Continuous
 62
     7
370
    30
100
AcDbLine
 10
58.9143465546
 20
46.9205809962
 30
0.0
 11
140.9143465546
 21
46.9205809962
 31
0.0
  0
LINE
  5
312
330
1F
100
AcDbEntity
  8
0
  6
Continuous
 62
     7
370
    30
100
AcDbLine
 10
58.9143465546
 20
38.9205809962
 30
0.0
 11
55.9143465546
 21
38.9205809962
 31
0.0
  0
LINE
  5
313
330
1F
100
AcDbEntity
  8
0
  6
Continuous
 62
     7
370
    30
100
AcDbLine
 10
55.9143465546
 20
38.9205809962
 30
0.0
 11
55.9143465546
 21
46.9205809962
 31
0.0
  0
LINE
  5
314
330
1F
100
AcDbEntity
  8
0
  6
Continuous
 62
     7
370
    30
100
AcDbLine
 10
55.9143465546
 20
46.9205809962
 30
0.0
 11
58.9143465546
 21
46.9205809962
 31
0.0
  0
LINE
  5
315
330
1F
100
AcDbEntity
  8
0
  6
PHANTOM
 62
     8
370
     0
100
AcDbLine
 10
140.9143465546
 20
38.9205809962
 30
0.0
 11
140.9143465546
 21
46.9205809962
 31
0.0
  0
LINE
  5
316
330
1F
100
AcDbEntity
  8
0
  6
PHANTOM
 62
     8
370
     0
100
AcDbLine
 10
58.9143465546
 20
46.9205809962
 30
0.0
 11
58.9143465546
 21
38.9205809962
 31
0.0
  0
DIMENSION
  5
317
330
1F
100
AcDbEntity
  8
SLD-0
 62
     7
100
AcDbDimension
  2
_D_15
 10
155.6186461033
 20
38.9205809962
 30
0.0
 11
155.6186461033
 21
42.9205809962
 31
0.0
 70
   160
  1
<>
 71
     2
 42
-1.0
  3
SLDDIMSTYLE0
100
AcDbAlignedDimension
 13
143.9143465546
 23
46.9205809962
 33
0.0
 14
143.9143465546
 24
38.9205809962
 34
0.0
 50
90.0
100
AcDbRotatedDimension
  0
ENDSEC
  0
SECTION
  2
OBJECTS
  0
DICTIONARY
  5
C
330
0
100
AcDbDictionary
281
     1
  3
ACAD_GROUP
350
D
  3
ACAD_LAYOUT
350
1A
  3
ACAD_MLINESTYLE
350
17
  3
ACAD_PLOTSETTINGS
350
19
  3
ACAD_PLOTSTYLENAME
350
E
  3
ACAD_SCALELIST
350
47
  0
DICTIONARY
  5
D
102
{ACAD_REACTORS
330
C
102
}
330
C
100
AcDbDictionary
281
     1
  0
DICTIONARY
  5
1A
102
{ACAD_REACTORS
330
C
102
}
330
C
100
AcDbDictionary
281
     1
  3
Layout1
350
1E
  3
Layout2
350
26
  3
Model
350
22
  0
DICTIONARY
  5
17
102
{ACAD_REACTORS
330
C
102
}
330
C
100
AcDbDictionary
281
     1
  3
Standard
350
18
  0
DICTIONARY
  5
19
102
{ACAD_REACTORS
330
C
102
}
330
C
100
AcDbDictionary
281
     1
  0
ACDBDICTIONARYWDFLT
  5
E
102
{ACAD_REACTORS
330
C
102
}
330
C
100
AcDbDictionary
281
     1
  3
Normal
350
F
100
AcDbDictionaryWithDefault
340
F
  0
DICTIONARY
  5
47
102
{ACAD_REACTORS
330
C
102
}
330
C
100
AcDbDictionary
281
     1
  3
A0
350
48
  3
A1
350
49
  3
A2
350
4A
  3
A3
350
4B
  3
A4
350
4C
  3
A5
350
4D
  3
A6
350
4E
  3
A7
350
4F
  3
A8
350
50
  3
A9
350
51
  3
B0
350
52
  3
B1
350
53
  3
B2
350
54
  3
B3
350
55
  3
B4
350
56
  3
B5
350
57
  3
B6
350
58
  3
B7
350
59
  3
B8
350
5A
  3
B9
350
5B
  3
C0
350
5C
  3
C1
350
5D
  3
C2
350
5E
  3
C3
350
5F
  3
C4
350
60
  3
C5
350
61
  3
C6
350
62
  3
C7
350
63
  3
C8
350
64
  3
C9
350
65
  3
D0
350
66
  3
D1
350
67
  3
D2
350
68
  0
LAYOUT
  5
1E
102
{ACAD_REACTORS
330
1A
102
}
330
1A
100
AcDbPlotSettings
  1

  2
none_device
  4

  6

 40
0.0
 41
0.0
 42
0.0
 43
0.0
 44
0.0
 45
0.0
 46
0.0
 47
0.0
 48
0.0
 49
0.0
140
0.0
141
0.0
142
1.0
143
1.0
 70
   688
 72
     1
 73
     0
 74
     5
  7

 75
    16
147
1.0
148
0.0
149
0.0
100
AcDbLayout
  1
Layout1
 70
     1
 71
     1
 10
0.0
 20
0.0
 11
420.0
 21
297.0
 12
0.0
 22
0.0
 32
0.0
 14
1.0000000000E+20
 24
1.0000000000E+20
 34
1.0000000000E+20
 15
-1.0000000000E+20
 25
-1.0000000000E+20
 35
-1.0000000000E+20
146
0.0
 13
0.0
 23
0.0
 33
0.0
 16
1.0
 26
0.0
 36
0.0
 17
0.0
 27
1.0
 37
0.0
 76
     0
330
1B
  0
LAYOUT
  5
26
102
{ACAD_REACTORS
330
1A
102
}
330
1A
100
AcDbPlotSettings
  1

  2
none_device
  4

  6

 40
0.0
 41
0.0
 42
0.0
 43
0.0
 44
0.0
 45
0.0
 46
0.0
 47
0.0
 48
0.0
 49
0.0
140
0.0
141
0.0
142
1.0
143
1.0
 70
   688
 72
     1
 73
     0
 74
     5
  7

 75
    16
147
1.0
148
0.0
149
0.0
100
AcDbLayout
  1
Layout2
 70
     1
 71
     2
 10
0.0
 20
0.0
 11
0.0
 21
0.0
 12
0.0
 22
0.0
 32
0.0
 14
0.0
 24
0.0
 34
0.0
 15
0.0
 25
0.0
 35
0.0
146
0.0
 13
0.0
 23
0.0
 33
0.0
 16
1.0
 26
0.0
 36
0.0
 17
0.0
 27
1.0
 37
0.0
 76
     0
330
23
  0
LAYOUT
  5
22
102
{ACAD_REACTORS
330
1A
102
}
330
1A
100
AcDbPlotSettings
  1

  2
none_device
  4
Letter_(8.50_x_11.00_Inches)
  6

 40
6.35
 41
6.35
 42
6.35000508
 43
6.35000508
 44
215.9
 45
279.4
 46
0.0
 47
0.0
 48
0.0
 49
0.0
140
0.0
141
0.0
142
1.0
143
1.0
 70
  1712
 72
     1
 73
     0
 74
     0
  7

 75
     0
147
1.0
148
0.0
149
0.0
100
AcDbLayout
  1
Model
 70
     1
 71
     0
 10
0.0
 20
0.0
 11
297.0
 21
210.0
 12
0.0
 22
0.0
 32
0.0
 14
0.0
 24
0.0
 34
0.0
 15
297.0
 25
210.0
 35
0.0
146
0.0
 13
0.0
 23
0.0
 33
0.0
 16
1.0
 26
0.0
 36
0.0
 17
0.0
 27
1.0
 37
0.0
 76
     0
330
1F
331
29
  0
MLINESTYLE
  5
18
102
{ACAD_REACTORS
330
17
102
}
330
17
100
AcDbMlineStyle
  2
Standard
 70
     0
  3

 62
   256
 51
90.0
 52
90.0
 71
     2
 49
0.5
 62
   256
  6
BYLAYER
 49
-0.5
 62
   256
  6
BYLAYER
  0
ACDBPLACEHOLDER
  5
F
102
{ACAD_REACTORS
330
E
102
}
330
E
  0
SCALE
  5
48
102
{ACAD_REACTORS
330
47
102
}
330
47
100
AcDbScale
 70
     0
300
1:1
140
1.0
141
1.0
290
     1
  0
SCALE
  5
49
102
{ACAD_REACTORS
330
47
102
}
330
47
100
AcDbScale
 70
     0
300
1:2
140
1.0
141
2.0
290
     0
  0
SCALE
  5
4A
102
{ACAD_REACTORS
330
47
102
}
330
47
100
AcDbScale
 70
     0
300
1:4
140
1.0
141
4.0
290
     0
  0
SCALE
  5
4B
102
{ACAD_REACTORS
330
47
102
}
330
47
100
AcDbScale
 70
     0
300
1:5
140
1.0
141
5.0
290
     0
  0
SCALE
  5
4C
102
{ACAD_REACTORS
330
47
102
}
330
47
100
AcDbScale
 70
     0
300
1:8
140
1.0
141
8.0
290
     0
  0
SCALE
  5
4D
102
{ACAD_REACTORS
330
47
102
}
330
47
100
AcDbScale
 70
     0
300
1:10
140
1.0
141
10.0
290
     0
  0
SCALE
  5
4E
102
{ACAD_REACTORS
330
47
102
}
330
47
100
AcDbScale
 70
     0
300
1:16
140
1.0
141
16.0
290
     0
  0
SCALE
  5
4F
102
{ACAD_REACTORS
330
47
102
}
330
47
100
AcDbScale
 70
     0
300
1:20
140
1.0
141
20.0
290
     0
  0
SCALE
  5
50
102
{ACAD_REACTORS
330
47
102
}
330
47
100
AcDbScale
 70
     0
300
1:30
140
1.0
141
30.0
290
     0
  0
SCALE
  5
51
102
{ACAD_REACTORS
330
47
102
}
330
47
100
AcDbScale
 70
     0
300
1:40
140
1.0
141
40.0
290
     0
  0
SCALE
  5
52
102
{ACAD_REACTORS
330
47
102
}
330
47
100
AcDbScale
 70
     0
300
1:50
140
1.0
141
50.0
290
     0
  0
SCALE
  5
53
102
{ACAD_REACTORS
330
47
102
}
330
47
100
AcDbScale
 70
     0
300
1:100
140
1.0
141
100.0
290
     0
  0
SCALE
  5
54
102
{ACAD_REACTORS
330
47
102
}
330
47
100
AcDbScale
 70
     0
300
2:1
140
2.0
141
1.0
290
     0
  0
SCALE
  5
55
102
{ACAD_REACTORS
330
47
102
}
330
47
100
AcDbScale
 70
     0
300
4:1
140
4.0
141
1.0
290
     0
  0
SCALE
  5
56
102
{ACAD_REACTORS
330
47
102
}
330
47
100
AcDbScale
 70
     0
300
8:1
140
8.0
141
1.0
290
     0
  0
SCALE
  5
57
102
{ACAD_REACTORS
330
47
102
}
330
47
100
AcDbScale
 70
     0
300
10:1
140
10.0
141
1.0
290
     0
  0
SCALE
  5
58
102
{ACAD_REACTORS
330
47
102
}
330
47
100
AcDbScale
 70
     0
300
100:1
140
100.0
141
1.0
290
     0
  0
SCALE
  5
59
102
{ACAD_REACTORS
330
47
102
}
330
47
100
AcDbScale
 70
     0
300
1/128" = 1'-0"
140
0.0078125
141
12.0
290
     0
  0
SCALE
  5
5A
102
{ACAD_REACTORS
330
47
102
}
330
47
100
AcDbScale
 70
     0
300
1/64" = 1'-0"
140
0.015625
141
12.0
290
     0
  0
SCALE
  5
5B
102
{ACAD_REACTORS
330
47
102
}
330
47
100
AcDbScale
 70
     0
300
1/32" = 1'-0"
140
0.03125
141
12.0
290
     0
  0
SCALE
  5
5C
102
{ACAD_REACTORS
330
47
102
}
330
47
100
AcDbScale
 70
     0
300
1/16" = 1'-0"
140
0.0625
141
12.0
290
     0
  0
SCALE
  5
5D
102
{ACAD_REACTORS
330
47
102
}
330
47
100
AcDbScale
 70
     0
300
3/32" = 1'-0"
140
0.09375
141
12.0
290
     0
  0
SCALE
  5
5E
102
{ACAD_REACTORS
330
47
102
}
330
47
100
AcDbScale
 70
     0
300
1/8" = 1'-0"
140
0.125
141
12.0
290
     0
  0
SCALE
  5
5F
102
{ACAD_REACTORS
330
47
102
}
330
47
100
AcDbScale
 70
     0
300
3/16" = 1'-0"
140
0.1875
141
12.0
290
     0
  0
SCALE
  5
60
102
{ACAD_REACTORS
330
47
102
}
330
47
100
AcDbScale
 70
     0
300
1/4" = 1'-0"
140
0.25
141
12.0
290
     0
  0
SCALE
  5
61
102
{ACAD_REACTORS
330
47
102
}
330
47
100
AcDbScale
 70
     0
300
3/8" = 1'-0"
140
0.375
141
12.0
290
     0
  0
SCALE
  5
62
102
{ACAD_REACTORS
330
47
102
}
330
47
100
AcDbScale
 70
     0
300
1/2" = 1'-0"
140
0.5
141
12.0
290
     0
  0
SCALE
  5
63
102
{ACAD_REACTORS
330
47
102
}
330
47
100
AcDbScale
 70
     0
300
3/4" = 1'-0"
140
0.75
141
12.0
290
     0
  0
SCALE
  5
64
102
{ACAD_REACTORS
330
47
102
}
330
47
100
AcDbScale
 70
     0
300
1" = 1'-0"
140
1.0
141
12.0
290
     0
  0
SCALE
  5
65
102
{ACAD_REACTORS
330
47
102
}
330
47
100
AcDbScale
 70
     0
300
1-1/2" = 1'-0"
140
1.5
141
12.0
290
     0
  0
SCALE
  5
66
102
{ACAD_REACTORS
330
47
102
}
330
47
100
AcDbScale
 70
     0
300
3" = 1'-0"
140
3.0
141
12.0
290
     0
  0
SCALE
  5
67
102
{ACAD_REACTORS
330
47
102
}
330
47
100
AcDbScale
 70
     0
300
6" = 1'-0"
140
6.0
141
12.0
290
     0
  0
SCALE
  5
68
102
{ACAD_REACTORS
330
47
102
}
330
47
100
AcDbScale
 70
     0
300
1'-0" = 1'-0"
140
12.0
141
12.0
290
     0
  0
ENDSEC
  0
EOF
