  0
SECTION
  2
HEADER
  9
$ACADVER
  1
AC1015
  9
$ACADMAINTVER
 70
     6
  9
$DWGCODEPAGE
  3
ANSI_950
  9
$INSBASE
 10
0.0
 20
0.0
 30
0.0
  9
$EXTMIN
 10
0.0
 20
0.0
 30
0.0
  9
$EXTMAX
 10
297.0
 20
210.0
 30
0.0
  9
$LIMMIN
 10
0.0
 20
0.0
  9
$LIMMAX
 10
297.0
 20
210.0
  9
$ORTHOMODE
 70
     0
  9
$REGENMODE
 70
     1
  9
$FILLMODE
 70
     1
  9
$QTEXTMODE
 70
     0
  9
$MIRRTEXT
 70
     1
  9
$LTSCALE
 40
1.0
  9
$ATTMODE
 70
     1
  9
$TEXTSIZE
 40
2.5
  9
$TRACEWID
 40
1.0
  9
$TEXTSTYLE
  7
Standard
  9
$CLAYER
  8
0
  9
$CELTYPE
  6
ByLayer
  9
$CECOLOR
 62
   256
  9
$CELTSCALE
 40
1.0
  9
$DISPSILH
 70
     0
  9
$DIMSCALE
 40
1.0
  9
$DIMASZ
 40
2.0
  9
$DIMEXO
 40
1.0
  9
$DIMDLI
 40
3.75
  9
$DIMRND
 40
0.0
  9
$DIMDLE
 40
0.0
  9
$DIMEXE
 40
1.0
  9
$DIMTP
 40
0.0
  9
$DIMTM
 40
0.0
  9
$DIMTXT
 40
2.5
  9
$DIMCEN
 40
2.5
  9
$DIMTSZ
 40
0.0
  9
$DIMTOL
 70
     0
  9
$DIMLIM
 70
     0
  9
$DIMTIH
 70
     1
  9
$DIMTOH
 70
     1
  9
$DIMSE1
 70
     0
  9
$DIMSE2
 70
     0
  9
$DIMTAD
 70
     1
  9
$DIMZIN
 70
     0
  9
$DIMBLK
  1

  9
$DIMASO
 70
     1
  9
$DIMSHO
 70
     1
  9
$DIMPOST
  1

  9
$DIMAPOST
  1

  9
$DIMALT
 70
     0
  9
$DIMALTD
 70
     3
  9
$DIMALTF
 40
0.0393700787
  9
$DIMLFAC
 40
1.0
  9
$DIMTOFL
 70
     1
  9
$DIMTVP
 40
0.0
  9
$DIMTIX
 70
     0
  9
$DIMSOXD
 70
     0
  9
$DIMSAH
 70
     0
  9
$DIMBLK1
  1

  9
$DIMBLK2
  1

  9
$DIMSTYLE
  2
ISO-25
  9
$DIMCLRD
 70
     0
  9
$DIMCLRE
 70
     0
  9
$DIMCLRT
 70
     0
  9
$DIMTFAC
 40
1.0
  9
$DIMGAP
 40
1.0
  9
$DIMJUST
 70
     0
  9
$DIMSD1
 70
     0
  9
$DIMSD2
 70
     0
  9
$DIMTOLJ
 70
     0
  9
$DIMTZIN
 70
     0
  9
$DIMALTZ
 70
     0
  9
$DIMALTTZ
 70
     0
  9
$DIMUPT
 70
     0
  9
$DIMDEC
 70
     2
  9
$DIMTDEC
 70
     2
  9
$DIMALTU
 70
     2
  9
$DIMALTTD
 70
     3
  9
$DIMTXSTY
  7
Standard
  9
$DIMAUNIT
 70
     0
  9
$DIMADEC
 70
     1
  9
$DIMALTRND
 40
0.0
  9
$DIMAZIN
 70
     0
  9
$DIMDSEP
 70
    44
  9
$DIMATFIT
 70
     3
  9
$DIMFRAC
 70
     0
  9
$DIMLDRBLK
  1

  9
$DIMLUNIT
 70
     2
  9
$DIMLWD
 70
    -2
  9
$DIMLWE
 70
    -2
  9
$DIMTMOVE
 70
     0
  9
$LUNITS
 70
     2
  9
$LUPREC
 70
     2
  9
$SKETCHINC
 40
1.0
  9
$FILLETRAD
 40
10.0
  9
$AUNITS
 70
     0
  9
$AUPREC
 70
     1
  9
$MENU
  1
.
  9
$ELEVATION
 40
0.0
  9
$PELEVATION
 40
0.0
  9
$THICKNESS
 40
0.0
  9
$LIMCHECK
 70
     0
  9
$CHAMFERA
 40
0.0
  9
$CHAMFERB
 40
0.0
  9
$CHAMFERC
 40
0.0
  9
$CHAMFERD
 40
0.0
  9
$SKPOLY
 70
     0
  9
$TDCREATE
 40
2457527.619217894
  9
$TDUCREATE
 40
2457527.28588456
  9
$TDUPDATE
 40
2457527.619222778
  9
$TDUUPDATE
 40
2457527.285889444
  9
$TDINDWG
 40
0.0000000116
  9
$TDUSRTIMER
 40
0.0000000116
  9
$USRTIMER
 70
     1
  9
$ANGBASE
 50
0.0
  9
$ANGDIR
 70
     0
  9
$PDMODE
 70
     0
  9
$PDSIZE
 40
-1.0
  9
$PLINEWID
 40
0.0
  9
$SPLFRAME
 70
     0
  9
$SPLINETYPE
 70
     6
  9
$SPLINESEGS
 70
     8
  9
$HANDSEED
  5
31C
  9
$SURFTAB1
 70
     6
  9
$SURFTAB2
 70
     6
  9
$SURFTYPE
 70
     6
  9
$SURFU
 70
     6
  9
$SURFV
 70
     6
  9
$UCSBASE
  2

  9
$UCSNAME
  2

  9
$UCSORG
 10
0.0
 20
0.0
 30
0.0
  9
$UCSXDIR
 10
1.0
 20
0.0
 30
0.0
  9
$UCSYDIR
 10
0.0
 20
1.0
 30
0.0
  9
$UCSORTHOREF
  2

  9
$UCSORTHOVIEW
 70
     0
  9
$UCSORGTOP
 10
0.0
 20
0.0
 30
0.0
  9
$UCSORGBOTTOM
 10
0.0
 20
0.0
 30
0.0
  9
$UCSORGLEFT
 10
0.0
 20
0.0
 30
0.0
  9
$UCSORGRIGHT
 10
0.0
 20
0.0
 30
0.0
  9
$UCSORGFRONT
 10
0.0
 20
0.0
 30
0.0
  9
$UCSORGBACK
 10
0.0
 20
0.0
 30
0.0
  9
$PUCSBASE
  2

  9
$PUCSNAME
  2

  9
$PUCSORG
 10
0.0
 20
0.0
 30
0.0
  9
$PUCSXDIR
 10
1.0
 20
0.0
 30
0.0
  9
$PUCSYDIR
 10
0.0
 20
1.0
 30
0.0
  9
$PUCSORTHOREF
  2

  9
$PUCSORTHOVIEW
 70
     0
  9
$PUCSORGTOP
 10
0.0
 20
0.0
 30
0.0
  9
$PUCSORGBOTTOM
 10
0.0
 20
0.0
 30
0.0
  9
$PUCSORGLEFT
 10
0.0
 20
0.0
 30
0.0
  9
$PUCSORGRIGHT
 10
0.0
 20
0.0
 30
0.0
  9
$PUCSORGFRONT
 10
0.0
 20
0.0
 30
0.0
  9
$PUCSORGBACK
 10
0.0
 20
0.0
 30
0.0
  9
$USERI1
 70
     0
  9
$USERI2
 70
     0
  9
$USERI3
 70
     0
  9
$USERI4
 70
     0
  9
$USERI5
 70
     0
  9
$USERR1
 40
0.0
  9
$USERR2
 40
0.0
  9
$USERR3
 40
0.0
  9
$USERR4
 40
0.0
  9
$USERR5
 40
0.0
  9
$WORLDVIEW
 70
     1
  9
$SHADEDGE
 70
     3
  9
$SHADEDIF
 70
    70
  9
$TILEMODE
 70
     1
  9
$MAXACTVP
 70
    64
  9
$PINSBASE
 10
0.0
 20
0.0
 30
0.0
  9
$PLIMCHECK
 70
     0
  9
$PEXTMIN
 10
1.0000000000E+20
 20
1.0000000000E+20
 30
1.0000000000E+20
  9
$PEXTMAX
 10
-1.0000000000E+20
 20
-1.0000000000E+20
 30
-1.0000000000E+20
  9
$PLIMMIN
 10
0.0
 20
0.0
  9
$PLIMMAX
 10
420.0
 20
297.0
  9
$UNITMODE
 70
     0
  9
$VISRETAIN
 70
     1
  9
$PLINEGEN
 70
     0
  9
$PSLTSCALE
 70
     1
  9
$TREEDEPTH
 70
  3020
  9
$CMLSTYLE
  2
Standard
  9
$CMLJUST
 70
     0
  9
$CMLSCALE
 40
20.0
  9
$PROXYGRAPHICS
 70
     1
  9
$MEASUREMENT
 70
     1
  9
$CELWEIGHT
370
    -1
  9
$ENDCAPS
280
     0
  9
$JOINSTYLE
280
     0
  9
$LWDISPLAY
290
     1
  9
$INSUNITS
 70
     4
  9
$HYPERLINKBASE
  1

  9
$STYLESHEET
  1

  9
$XEDIT
290
     1
  9
$CEPSNTYPE
380
     0
  9
$PSTYLEMODE
290
     1
  9
$FINGERPRINTGUID
  2
{F5045255-1BA9-48F6-944E-C5CC613E4161}
  9
$VERSIONGUID
  2
{FAEB1C32-E019-11D5-929B-00C0DF256EC4}
  9
$EXTNAMES
290
     1
  9
$PSVPSCALE
 40
0.0
  9
$OLESTARTUP
290
     0
  0
ENDSEC
  0
SECTION
  2
CLASSES
  0
CLASS
  1
ACDBDICTIONARYWDFLT
  2
AcDbDictionaryWithDefault
  3
ObjectDBX Classes
 90
        0
280
     0
281
     0
  0
CLASS
  1
VISUALSTYLE
  2
AcDbVisualStyle
  3
ObjectDBX Classes
 90
     4095
280
     0
281
     0
  0
CLASS
  1
MATERIAL
  2
AcDbMaterial
  3
ObjectDBX Classes
 90
     1153
280
     0
281
     0
  0
CLASS
  1
SCALE
  2
AcDbScale
  3
ObjectDBX Classes
 90
     1153
280
     0
281
     0
  0
CLASS
  1
TABLESTYLE
  2
AcDbTableStyle
  3
ObjectDBX Classes
 90
     4095
280
     0
281
     0
  0
CLASS
  1
MLEADERSTYLE
  2
AcDbMLeaderStyle
  3
ACDB_MLEADERSTYLE_CLASS
 90
     4095
280
     0
281
     0
  0
CLASS
  1
SUN
  2
AcDbSun
  3
SCENEOE
 90
     1153
280
     0
281
     0
  0
CLASS
  1
ACDBPLACEHOLDER
  2
AcDbPlaceHolder
  3
ObjectDBX Classes
 90
        0
280
     0
281
     0
  0
CLASS
  1
LAYOUT
  2
AcDbLayout
  3
ObjectDBX Classes
 90
        0
280
     0
281
     0
  0
ENDSEC
  0
SECTION
  2
TABLES
  0
TABLE
  2
VPORT
  5
8
330
0
100
AcDbSymbolTable
 70
     1
  0
VPORT
  5
29
330
8
100
AcDbSymbolTableRecord
100
AcDbViewportTableRecord
  2
*Active
 70
     0
 10
0.0
 20
0.0
 11
1.0
 21
1.0
 12
148.5
 22
105.0
 13
0.0
 23
0.0
 14
10.0
 24
10.0
 15
10.0
 25
10.0
 16
0.0
 26
0.0
 36
1.0
 17
0.0
 27
0.0
 37
0.0
 40
210.0
 41
1.4142857143
 42
50.0
 43
0.0
 44
0.0
 50
0.0
 51
0.0
 71
     0
 72
  2000
 73
     1
 74
     3
 75
     0
 76
     0
 77
     0
 78
     0
281
     0
 65
     1
110
0.0
120
0.0
130
0.0
111
1.0
121
0.0
131
0.0
112
0.0
122
1.0
132
0.0
 79
     0
146
0.0
  0
ENDTAB
  0
TABLE
  2
LTYPE
  5
5
330
0
100
AcDbSymbolTable
 70
     6
  0
LTYPE
  5
14
330
5
100
AcDbSymbolTableRecord
100
AcDbLinetypeTableRecord
  2
ByBlock
 70
     0
  3

 72
    65
 73
     0
 40
0.0
  0
LTYPE
  5
15
330
5
100
AcDbSymbolTableRecord
100
AcDbLinetypeTableRecord
  2
ByLayer
 70
     0
  3

 72
    65
 73
     0
 40
0.0
  0
LTYPE
  5
16
330
5
100
AcDbSymbolTableRecord
100
AcDbLinetypeTableRecord
  2
Continuous
 70
     0
  3
Solid line
 72
    65
 73
     0
 40
0.0
  0
LTYPE
  5
6E
330
5
100
AcDbSymbolTableRecord
100
AcDbLinetypeTableRecord
  2
HIDDEN
 70
     0
  3
Hidden __ __ __ __ __ __ __ __ __ __ __ __ __ __
 72
    65
 73
     2
 40
1.905
 49
1.27
 74
     0
 49
-0.635
 74
     0
  0
LTYPE
  5
6F
330
5
100
AcDbSymbolTableRecord
100
AcDbLinetypeTableRecord
  2
PHANTOM
 70
     0
  3
Phantom ______  __  __  ______  __  __  ______
 72
    65
 73
     6
 40
12.7
 49
6.35
 74
     0
 49
-1.27
 74
     0
 49
1.27
 74
     0
 49
-1.27
 74
     0
 49
1.27
 74
     0
 49
-1.27
 74
     0
  0
LTYPE
  5
70
330
5
100
AcDbSymbolTableRecord
100
AcDbLinetypeTableRecord
  2
CENTER
 70
     0
  3
Center ____ _ ____ _ ____ _ ____ _ ____ _ ____
 72
    65
 73
     4
 40
10.16
 49
6.35
 74
     0
 49
-1.27
 74
     0
 49
1.27
 74
     0
 49
-1.27
 74
     0
  0
LTYPE
  5
71
330
5
100
AcDbSymbolTableRecord
100
AcDbLinetypeTableRecord
  2
CENTERX2
 70
     0
  3
Center (2x) ________  __  ________  __  _____
 72
    65
 73
     4
 40
20.32
 49
12.7
 74
     0
 49
-2.54
 74
     0
 49
2.54
 74
     0
 49
-2.54
 74
     0
  0
LTYPE
  5
72
330
5
100
AcDbSymbolTableRecord
100
AcDbLinetypeTableRecord
  2
DOT2
 70
     0
  3
Dot (.5x) ........................................
 72
    65
 73
     2
 40
0.635
 49
0.0
 74
     0
 49
-0.635
 74
     0
  0
ENDTAB
  0
TABLE
  2
LAYER
  5
2
330
0
100
AcDbSymbolTable
 70
     3
  0
LAYER
  5
10
330
2
100
AcDbSymbolTableRecord
100
AcDbLayerTableRecord
  2
0
 70
     0
 62
     7
  6
Continuous
370
    -3
390
F
  0
LAYER
  5
73
330
2
100
AcDbSymbolTableRecord
100
AcDbLayerTableRecord
  2
SLD-0
 70
     0
 62
     7
  6
Continuous
370
    15
390
F
  0
LAYER
  5
74
330
2
100
AcDbSymbolTableRecord
100
AcDbLayerTableRecord
  2
DIM
 70
     0
 62
     7
  6
Continuous
370
    -3
390
F
  0
ENDTAB
  0
TABLE
  2
STYLE
  5
3
330
0
100
AcDbSymbolTable
 70
     3
  0
STYLE
  5
11
330
3
100
AcDbSymbolTableRecord
100
AcDbTextStyleTableRecord
  2
Standard
 70
     0
 40
0.0
 41
1.0
 50
0.0
 71
     0
 42
2.5
  3
txt
  4

  0
STYLE
  5
C5
330
3
100
AcDbSymbolTableRecord
100
AcDbTextStyleTableRecord
  2
SLDTEXTSTYLE0
 70
     0
 40
0.0
 41
0.605
 50
0.0
 71
     0
 42
2.5
  3
TXT
  4

  0
STYLE
  5
CE
330
3
100
AcDbSymbolTableRecord
100
AcDbTextStyleTableRecord
  2
SLDTEXTSTYLE1
 70
     0
 40
0.0
 41
0.7
 50
0.0
 71
     0
 42
2.5
  3
TXT
  4

  0
ENDTAB
  0
TABLE
  2
VIEW
  5
6
330
0
100
AcDbSymbolTable
 70
     0
  0
ENDTAB
  0
TABLE
  2
UCS
  5
7
330
0
100
AcDbSymbolTable
 70
     0
  0
ENDTAB
  0
TABLE
  2
APPID
  5
9
330
0
100
AcDbSymbolTable
 70
     1
  0
APPID
  5
12
330
9
100
AcDbSymbolTableRecord
100
AcDbRegAppTableRecord
  2
ACAD
 70
     0
  0
ENDTAB
  0
TABLE
  2
DIMSTYLE
  5
A
330
0
100
AcDbSymbolTable
 70
     3
100
AcDbDimStyleTable
  0
DIMSTYLE
105
27
330
A
100
AcDbSymbolTableRecord
100
AcDbDimStyleTableRecord
  2
ISO-25
 70
     0
 41
2.5
 42
0.625
 43
3.75
 44
1.25
 73
     0
 74
     0
 77
     1
 78
     8
140
2.5
141
2.5
143
0.0393700787
147
0.625
171
     3
172
     1
178
     0
271
     2
272
     2
274
     3
278
    44
283
     0
284
     8
340
11
  0
DIMSTYLE
105
12B
102
{ACAD_REACTORS
330
12A
330
135
330
13F
330
149
330
153
330
15D
330
167
330
171
330
17B
330
185
330
18F
330
199
330
312
102
}
330
A
100
AcDbSymbolTableRecord
100
AcDbDimStyleTableRecord
  2
SLDDIMSTYLE0
 70
     0
 41
2.0
 44
0.0
 45
0.000000001
 73
     0
 74
     0
 77
     1
 78
    12
 79
     3
140
2.5
147
0.625
173
     1
178
     0
271
     2
272
     2
276
     2
284
    12
340
C5
  0
DIMSTYLE
105
1A4
102
{ACAD_REACTORS
330
1A3
330
1AD
330
1B6
102
}
330
A
100
AcDbSymbolTableRecord
100
AcDbDimStyleTableRecord
  2
SLDDIMSTYLE1
 70
     0
  3
<>
 41
2.0
 44
0.0
 45
0.000000001
 78
    12
 79
     3
140
2.5
141
0.0
147
0.625
173
     1
178
     0
271
     2
272
     2
276
     2
284
    12
340
C5
  0
ENDTAB
  0
TABLE
  2
BLOCK_RECORD
  5
1
330
0
100
AcDbSymbolTable
 70
    40
  0
BLOCK_RECORD
  5
1F
330
1
100
AcDbSymbolTableRecord
100
AcDbBlockTableRecord
  2
*Model_Space
340
22
  0
BLOCK_RECORD
  5
1B
330
1
100
AcDbSymbolTableRecord
100
AcDbBlockTableRecord
  2
*Paper_Space
340
1E
  0
BLOCK_RECORD
  5
23
330
1
100
AcDbSymbolTableRecord
100
AcDbBlockTableRecord
  2
*Paper_Space0
340
26
  0
BLOCK_RECORD
  5
C7
330
1
100
AcDbSymbolTableRecord
100
AcDbBlockTableRecord
  2
SW_NOTE_0
340
0
102
{BLKREFS
331
CD
102
}
  0
BLOCK_RECORD
  5
FD
330
1
100
AcDbSymbolTableRecord
100
AcDbBlockTableRecord
  2
SW_NOTE_1
340
0
102
{BLKREFS
331
102
102
}
  0
BLOCK_RECORD
  5
12C
330
1
100
AcDbSymbolTableRecord
100
AcDbBlockTableRecord
  2
_D
340
0
  0
BLOCK_RECORD
  5
136
330
1
100
AcDbSymbolTableRecord
100
AcDbBlockTableRecord
  2
_D_1
340
0
  0
BLOCK_RECORD
  5
140
330
1
100
AcDbSymbolTableRecord
100
AcDbBlockTableRecord
  2
_D_2
340
0
  0
BLOCK_RECORD
  5
14A
330
1
100
AcDbSymbolTableRecord
100
AcDbBlockTableRecord
  2
_D_3
340
0
  0
BLOCK_RECORD
  5
154
330
1
100
AcDbSymbolTableRecord
100
AcDbBlockTableRecord
  2
_D_4
340
0
  0
BLOCK_RECORD
  5
15E
330
1
100
AcDbSymbolTableRecord
100
AcDbBlockTableRecord
  2
_D_5
340
0
  0
BLOCK_RECORD
  5
168
330
1
100
AcDbSymbolTableRecord
100
AcDbBlockTableRecord
  2
_D_6
340
0
  0
BLOCK_RECORD
  5
172
330
1
100
AcDbSymbolTableRecord
100
AcDbBlockTableRecord
  2
_D_7
340
0
  0
BLOCK_RECORD
  5
17C
330
1
100
AcDbSymbolTableRecord
100
AcDbBlockTableRecord
  2
_D_8
340
0
  0
BLOCK_RECORD
  5
186
330
1
100
AcDbSymbolTableRecord
100
AcDbBlockTableRecord
  2
_D_9
340
0
  0
BLOCK_RECORD
  5
190
330
1
100
AcDbSymbolTableRecord
100
AcDbBlockTableRecord
  2
_D_10
340
0
  0
BLOCK_RECORD
  5
19A
330
1
100
AcDbSymbolTableRecord
100
AcDbBlockTableRecord
  2
_D_11
340
0
  0
BLOCK_RECORD
  5
1A5
330
1
100
AcDbSymbolTableRecord
100
AcDbBlockTableRecord
  2
_D_12
340
0
  0
BLOCK_RECORD
  5
1AE
330
1
100
AcDbSymbolTableRecord
100
AcDbBlockTableRecord
  2
_D_13
340
0
  0
BLOCK_RECORD
  5
1B7
330
1
100
AcDbSymbolTableRecord
100
AcDbBlockTableRecord
  2
_D_14
340
0
  0
BLOCK_RECORD
  5
1BF
330
1
100
AcDbSymbolTableRecord
100
AcDbBlockTableRecord
  2
SW_CENTERMARKSYMBOL_0
340
0
102
{BLKREFS
331
1CA
102
}
  0
BLOCK_RECORD
  5
1CB
330
1
100
AcDbSymbolTableRecord
100
AcDbBlockTableRecord
  2
SW_CENTERMARKSYMBOL_1
340
0
102
{BLKREFS
331
1D6
102
}
  0
BLOCK_RECORD
  5
1D7
330
1
100
AcDbSymbolTableRecord
100
AcDbBlockTableRecord
  2
SW_CENTERMARKSYMBOL_2
340
0
102
{BLKREFS
331
1E2
102
}
  0
BLOCK_RECORD
  5
1E3
330
1
100
AcDbSymbolTableRecord
100
AcDbBlockTableRecord
  2
SW_CENTERMARKSYMBOL_3
340
0
102
{BLKREFS
331
1EE
102
}
  0
BLOCK_RECORD
  5
1EF
330
1
100
AcDbSymbolTableRecord
100
AcDbBlockTableRecord
  2
SW_CENTERMARKSYMBOL_4
340
0
102
{BLKREFS
331
1FA
102
}
  0
BLOCK_RECORD
  5
1FB
330
1
100
AcDbSymbolTableRecord
100
AcDbBlockTableRecord
  2
SW_CENTERMARKSYMBOL_5
340
0
102
{BLKREFS
331
206
102
}
  0
BLOCK_RECORD
  5
207
330
1
100
AcDbSymbolTableRecord
100
AcDbBlockTableRecord
  2
SW_CENTERMARKSYMBOL_6
340
0
102
{BLKREFS
331
212
102
}
  0
BLOCK_RECORD
  5
213
330
1
100
AcDbSymbolTableRecord
100
AcDbBlockTableRecord
  2
SW_CENTERMARKSYMBOL_7
340
0
102
{BLKREFS
331
21E
102
}
  0
BLOCK_RECORD
  5
21F
330
1
100
AcDbSymbolTableRecord
100
AcDbBlockTableRecord
  2
SW_CENTERMARKSYMBOL_8
340
0
102
{BLKREFS
331
22A
102
}
  0
BLOCK_RECORD
  5
22B
330
1
100
AcDbSymbolTableRecord
100
AcDbBlockTableRecord
  2
SW_CENTERMARKSYMBOL_9
340
0
102
{BLKREFS
331
236
102
}
  0
BLOCK_RECORD
  5
237
330
1
100
AcDbSymbolTableRecord
100
AcDbBlockTableRecord
  2
SW_CENTERMARKSYMBOL_10
340
0
102
{BLKREFS
331
242
102
}
  0
BLOCK_RECORD
  5
243
330
1
100
AcDbSymbolTableRecord
100
AcDbBlockTableRecord
  2
SW_CENTERMARKSYMBOL_11
340
0
102
{BLKREFS
331
24E
102
}
  0
BLOCK_RECORD
  5
24F
330
1
100
AcDbSymbolTableRecord
100
AcDbBlockTableRecord
  2
SW_CENTERMARKSYMBOL_12
340
0
102
{BLKREFS
331
25A
102
}
  0
BLOCK_RECORD
  5
25B
330
1
100
AcDbSymbolTableRecord
100
AcDbBlockTableRecord
  2
SW_CENTERMARKSYMBOL_13
340
0
102
{BLKREFS
331
266
102
}
  0
BLOCK_RECORD
  5
267
330
1
100
AcDbSymbolTableRecord
100
AcDbBlockTableRecord
  2
SW_CENTERMARKSYMBOL_14
340
0
102
{BLKREFS
331
272
102
}
  0
BLOCK_RECORD
  5
273
330
1
100
AcDbSymbolTableRecord
100
AcDbBlockTableRecord
  2
SW_CENTERMARKSYMBOL_15
340
0
102
{BLKREFS
331
27E
102
}
  0
BLOCK_RECORD
  5
27F
330
1
100
AcDbSymbolTableRecord
100
AcDbBlockTableRecord
  2
SW_CENTERMARKSYMBOL_16
340
0
102
{BLKREFS
331
28A
102
}
  0
BLOCK_RECORD
  5
28B
330
1
100
AcDbSymbolTableRecord
100
AcDbBlockTableRecord
  2
SW_CENTERMARKSYMBOL_17
340
0
102
{BLKREFS
331
296
102
}
  0
BLOCK_RECORD
  5
297
330
1
100
AcDbSymbolTableRecord
100
AcDbBlockTableRecord
  2
SW_CENTERMARKSYMBOL_18
340
0
102
{BLKREFS
331
2A2
102
}
  0
BLOCK_RECORD
  5
2A3
330
1
100
AcDbSymbolTableRecord
100
AcDbBlockTableRecord
  2
SW_CENTERMARKSYMBOL_19
340
0
102
{BLKREFS
331
2AE
102
}
  0
BLOCK_RECORD
  5
2AF
330
1
100
AcDbSymbolTableRecord
100
AcDbBlockTableRecord
  2
SW_CENTERMARKSYMBOL_20
340
0
102
{BLKREFS
331
2BA
102
}
  0
BLOCK_RECORD
  5
313
330
1
100
AcDbSymbolTableRecord
100
AcDbBlockTableRecord
  2
_D_15
340
0
  0
ENDTAB
  0
ENDSEC
  0
SECTION
  2
BLOCKS
  0
BLOCK
  5
20
330
1F
100
AcDbEntity
  8
0
100
AcDbBlockBegin
  2
*Model_Space
 70
     0
 10
0.0
 20
0.0
 30
0.0
  3
*Model_Space
  1

  0
ENDBLK
  5
21
330
1F
100
AcDbEntity
  8
0
100
AcDbBlockEnd
  0
BLOCK
  5
1C
330
1B
100
AcDbEntity
 67
     1
  8
0
100
AcDbBlockBegin
  2
*Paper_Space
 70
     0
 10
0.0
 20
0.0
 30
0.0
  3
*Paper_Space
  1

  0
ENDBLK
  5
1D
330
1B
100
AcDbEntity
 67
     1
  8
0
100
AcDbBlockEnd
  0
BLOCK
  5
24
330
23
100
AcDbEntity
  8
0
100
AcDbBlockBegin
  2
*Paper_Space0
 70
     0
 10
0.0
 20
0.0
 30
0.0
  3
*Paper_Space0
  1

  0
ENDBLK
  5
25
330
23
100
AcDbEntity
  8
0
100
AcDbBlockEnd
  0
BLOCK
  5
C8
330
C7
100
AcDbEntity
  8
0
100
AcDbBlockBegin
  2
SW_NOTE_0
 70
     0
 10
0.0
 20
0.0
 30
0.0
  3
SW_NOTE_0
  1

  0
MTEXT
  5
CA
330
C7
100
AcDbEntity
  8
0
  6
Continuous
 62
     0
370
     0
100
AcDbMText
 10
0.0
 20
3.4106583948
 30
0.0
 40
2.6458333333
 41
0.0
 71
     1
 72
     1
  1
PROPRIETARY AND CONFIDENTIAL
  7
SLDTEXTSTYLE0
 73
     1
 44
1.0
  0
MTEXT
  5
CB
330
C7
100
AcDbEntity
  8
0
  6
Continuous
 62
     0
370
     0
100
AcDbMText
 10
0.0
 20
-0.08198348
 30
0.0
 40
1.8520833333
 41
0.0
 71
     1
 72
     1
  1
THE INFORMATION CONTAINED IN THIS DRAWING IS THE SOLE PROPERTY OF UNICE E-O SERVICES INC. ANY REPRODUCTION IN PART OR AS A WHOLE WITHOUT THE WRITTEN PERMISSION OF UNICE E-O SERVICES INC IS
  7
SLDTEXTSTYLE0
 73
     1
 44
1.0
  0
MTEXT
  5
CC
330
C7
100
AcDbEntity
  8
0
  6
Continuous
 62
     0
370
     0
100
AcDbMText
 10
0.0
 20
-2.5514278946
 30
0.0
 40
1.8520833333
 41
0.0
 71
     1
 72
     1
  1
PROHIBITED.
  7
SLDTEXTSTYLE0
 73
     1
 44
1.0
  0
ENDBLK
  5
C9
330
C7
100
AcDbEntity
  8
0
100
AcDbBlockEnd
  0
BLOCK
  5
FE
330
FD
100
AcDbEntity
  8
0
100
AcDbBlockBegin
  2
SW_NOTE_1
 70
     0
 10
0.0
 20
0.0
 30
0.0
  3
SW_NOTE_1
  1

  0
MTEXT
  5
100
330
FD
100
AcDbEntity
  8
SLD-0
 62
     0
100
AcDbMText
 10
0.0
 20
2.3874608764
 30
0.0
 40
1.8520833333
 41
0.0
 71
     1
 72
     1
  1
No.5, Andong Rd., Chung Li District,
  7
SLDTEXTSTYLE1
 73
     1
 44
1.0
  0
MTEXT
  5
101
330
FD
100
AcDbEntity
  8
SLD-0
 62
     0
100
AcDbMText
 10
0.0
 20
-0.0819835382
 30
0.0
 40
1.8520833333
 41
0.0
 71
     1
 72
     1
  1
Taoyuan City 32063, Taiwan, R.O.C.
  7
SLDTEXTSTYLE1
 73
     1
 44
1.0
  0
ENDBLK
  5
FF
330
FD
100
AcDbEntity
  8
0
100
AcDbBlockEnd
  0
BLOCK
  5
12D
330
12C
100
AcDbEntity
  8
0
100
AcDbBlockBegin
  2
_D
 70
     0
 10
0.0
 20
0.0
 30
0.0
  3
_D
  1

  0
SOLID
  5
12F
330
12C
100
AcDbEntity
  8
SLD-0
100
AcDbTrace
 10
55.9143465546
 20
166.6834748601
 30
0.0
 11
57.9143465546
 21
166.4334748601
 31
0.0
 12
57.9143465546
 22
166.9334748601
 32
0.0
 13
57.9143465546
 23
166.9334748601
 33
0.0
  0
SOLID
  5
130
330
12C
100
AcDbEntity
  8
SLD-0
100
AcDbTrace
 10
143.9143465546
 20
166.6834748601
 30
0.0
 11
141.9143465546
 21
166.9334748601
 31
0.0
 12
141.9143465546
 22
166.4334748601
 32
0.0
 13
141.9143465546
 23
166.4334748601
 33
0.0
  0
LINE
  5
131
330
12C
100
AcDbEntity
  8
SLD-0
100
AcDbLine
 10
55.9143465546
 20
139.5479755578
 30
0.0
 11
55.9143465546
 21
167.6834748601
 31
0.0
  0
LINE
  5
132
330
12C
100
AcDbEntity
  8
SLD-0
100
AcDbLine
 10
143.9143465546
 20
139.5479755578
 30
0.0
 11
143.9143465546
 21
167.6834748601
 31
0.0
  0
LINE
  5
133
330
12C
100
AcDbEntity
  8
SLD-0
100
AcDbLine
 10
55.9143465546
 20
166.6834748601
 30
0.0
 11
143.9143465546
 21
166.6834748601
 31
0.0
  0
MTEXT
  5
134
330
12C
100
AcDbEntity
  8
SLD-0
100
AcDbMText
 10
98.0046243298
 20
169.9061440349
 30
0.0
 40
2.5
 41
0.0
 71
     1
 72
     1
  1
88
  7
SLDTEXTSTYLE0
 73
     1
 44
1.0
  0
ENDBLK
  5
12E
330
12C
100
AcDbEntity
  8
0
100
AcDbBlockEnd
  0
BLOCK
  5
137
330
136
100
AcDbEntity
  8
0
100
AcDbBlockBegin
  2
_D_1
 70
     0
 10
0.0
 20
0.0
 30
0.0
  3
_D_1
  1

  0
SOLID
  5
139
330
136
100
AcDbEntity
  8
SLD-0
100
AcDbTrace
 10
36.4758526874
 20
141.5479755578
 30
0.0
 11
36.2258526874
 21
139.5479755578
 31
0.0
 12
36.7258526874
 22
139.5479755578
 32
0.0
 13
36.7258526874
 23
139.5479755578
 33
0.0
  0
SOLID
  5
13A
330
136
100
AcDbEntity
  8
SLD-0
100
AcDbTrace
 10
36.4758526874
 20
72.5479755578
 30
0.0
 11
36.7258526874
 21
74.5479755578
 31
0.0
 12
36.2258526874
 22
74.5479755578
 32
0.0
 13
36.2258526874
 23
74.5479755578
 33
0.0
  0
LINE
  5
13B
330
136
100
AcDbEntity
  8
SLD-0
100
AcDbLine
 10
57.9143465546
 20
141.5479755578
 30
0.0
 11
35.4758526874
 21
141.5479755578
 31
0.0
  0
LINE
  5
13C
330
136
100
AcDbEntity
  8
SLD-0
100
AcDbLine
 10
57.9143465546
 20
72.5479755578
 30
0.0
 11
35.4758526874
 21
72.5479755578
 31
0.0
  0
LINE
  5
13D
330
136
100
AcDbEntity
  8
SLD-0
100
AcDbLine
 10
36.4758526874
 20
141.5479755578
 30
0.0
 11
36.4758526874
 21
72.5479755578
 31
0.0
  0
MTEXT
  5
13E
330
136
100
AcDbEntity
  8
SLD-0
100
AcDbMText
 10
33.2531835126
 20
105.138253333
 30
0.0
 40
2.5
 41
0.0
 71
     1
 72
     1
  1
69
  7
SLDTEXTSTYLE0
 11
-7.044195017643634E-15
 21
1.0
 31
0.0
 73
     1
 44
1.0
  0
ENDBLK
  5
138
330
136
100
AcDbEntity
  8
0
100
AcDbBlockEnd
  0
BLOCK
  5
141
330
140
100
AcDbEntity
  8
0
100
AcDbBlockBegin
  2
_D_2
 70
     0
 10
0.0
 20
0.0
 30
0.0
  3
_D_2
  1

  0
SOLID
  5
143
330
140
100
AcDbEntity
  8
SLD-0
100
AcDbTrace
 10
99.9143465546
 20
147.4640257539
 30
0.0
 11
97.9143465546
 21
147.7140257539
 31
0.0
 12
97.9143465546
 22
147.2140257539
 32
0.0
 13
97.9143465546
 23
147.2140257539
 33
0.0
  0
SOLID
  5
144
330
140
100
AcDbEntity
  8
SLD-0
100
AcDbTrace
 10
87.2143465546
 20
147.4640257539
 30
0.0
 11
89.2143465546
 21
147.2140257539
 31
0.0
 12
89.2143465546
 22
147.7140257539
 32
0.0
 13
89.2143465546
 23
147.7140257539
 33
0.0
  0
LINE
  5
145
330
140
100
AcDbEntity
  8
SLD-0
100
AcDbLine
 10
99.9143465546
 20
133.4479755578
 30
0.0
 11
99.9143465546
 21
148.4640257539
 31
0.0
  0
LINE
  5
146
330
140
100
AcDbEntity
  8
SLD-0
100
AcDbLine
 10
87.2143465546
 20
120.7479755578
 30
0.0
 11
87.2143465546
 21
148.4640257539
 31
0.0
  0
LINE
  5
147
330
140
100
AcDbEntity
  8
SLD-0
100
AcDbLine
 10
99.9143465546
 20
147.4640257539
 30
0.0
 11
87.2143465546
 21
147.4640257539
 31
0.0
  0
MTEXT
  5
148
330
140
100
AcDbEntity
  8
SLD-0
100
AcDbMText
 10
90.2223327485
 20
150.6866949287
 30
0.0
 40
2.5
 41
0.0
 71
     1
 72
     1
  1
12.7
  7
SLDTEXTSTYLE0
 73
     1
 44
1.0
  0
ENDBLK
  5
142
330
140
100
AcDbEntity
  8
0
100
AcDbBlockEnd
  0
BLOCK
  5
14B
330
14A
100
AcDbEntity
  8
0
100
AcDbBlockBegin
  2
_D_3
 70
     0
 10
0.0
 20
0.0
 30
0.0
  3
_D_3
  1

  0
SOLID
  5
14D
330
14A
100
AcDbEntity
  8
SLD-0
100
AcDbTrace
 10
99.9143465546
 20
147.4640257539
 30
0.0
 11
101.9143465546
 21
147.2140257539
 31
0.0
 12
101.9143465546
 22
147.7140257539
 32
0.0
 13
101.9143465546
 23
147.7140257539
 33
0.0
  0
SOLID
  5
14E
330
14A
100
AcDbEntity
  8
SLD-0
100
AcDbTrace
 10
112.6143465546
 20
147.4640257539
 30
0.0
 11
110.6143465546
 21
147.7140257539
 31
0.0
 12
110.6143465546
 22
147.2140257539
 32
0.0
 13
110.6143465546
 23
147.2140257539
 33
0.0
  0
LINE
  5
14F
330
14A
100
AcDbEntity
  8
SLD-0
100
AcDbLine
 10
99.9143465546
 20
133.4479755578
 30
0.0
 11
99.9143465546
 21
148.4640257539
 31
0.0
  0
LINE
  5
150
330
14A
100
AcDbEntity
  8
SLD-0
100
AcDbLine
 10
112.6143465546
 20
120.7479755578
 30
0.0
 11
112.6143465546
 21
148.4640257539
 31
0.0
  0
LINE
  5
151
330
14A
100
AcDbEntity
  8
SLD-0
100
AcDbLine
 10
99.9143465546
 20
147.4640257539
 30
0.0
 11
112.6143465546
 21
147.4640257539
 31
0.0
  0
MTEXT
  5
152
330
14A
100
AcDbEntity
  8
SLD-0
100
AcDbMText
 10
102.9223327485
 20
150.6866949287
 30
0.0
 40
2.5
 41
0.0
 71
     1
 72
     1
  1
12.7
  7
SLDTEXTSTYLE0
 73
     1
 44
1.0
  0
ENDBLK
  5
14C
330
14A
100
AcDbEntity
  8
0
100
AcDbBlockEnd
  0
BLOCK
  5
155
330
154
100
AcDbEntity
  8
0
100
AcDbBlockBegin
  2
_D_4
 70
     0
 10
0.0
 20
0.0
 30
0.0
  3
_D_4
  1

  0
SOLID
  5
157
330
154
100
AcDbEntity
  8
SLD-0
100
AcDbTrace
 10
99.9143465546
 20
153.7354821289
 30
0.0
 11
97.9143465546
 21
153.9854821289
 31
0.0
 12
97.9143465546
 22
153.4854821289
 32
0.0
 13
97.9143465546
 23
153.4854821289
 33
0.0
  0
SOLID
  5
158
330
154
100
AcDbEntity
  8
SLD-0
100
AcDbTrace
 10
74.5143465546
 20
153.7354821289
 30
0.0
 11
76.5143465546
 21
153.4854821289
 31
0.0
 12
76.5143465546
 22
153.9854821289
 32
0.0
 13
76.5143465546
 23
153.9854821289
 33
0.0
  0
LINE
  5
159
330
154
100
AcDbEntity
  8
SLD-0
100
AcDbLine
 10
99.9143465546
 20
133.4479755578
 30
0.0
 11
99.9143465546
 21
154.7354821289
 31
0.0
  0
LINE
  5
15A
330
154
100
AcDbEntity
  8
SLD-0
100
AcDbLine
 10
74.5143465546
 20
133.4479755578
 30
0.0
 11
74.5143465546
 21
154.7354821289
 31
0.0
  0
LINE
  5
15B
330
154
100
AcDbEntity
  8
SLD-0
100
AcDbLine
 10
99.9143465546
 20
153.7354821289
 30
0.0
 11
74.5143465546
 21
153.7354821289
 31
0.0
  0
MTEXT
  5
15C
330
154
100
AcDbEntity
  8
SLD-0
100
AcDbMText
 10
83.8723327485
 20
156.9581513037
 30
0.0
 40
2.5
 41
0.0
 71
     1
 72
     1
  1
25.4
  7
SLDTEXTSTYLE0
 73
     1
 44
1.0
  0
ENDBLK
  5
156
330
154
100
AcDbEntity
  8
0
100
AcDbBlockEnd
  0
BLOCK
  5
15F
330
15E
100
AcDbEntity
  8
0
100
AcDbBlockBegin
  2
_D_5
 70
     0
 10
0.0
 20
0.0
 30
0.0
  3
_D_5
  1

  0
SOLID
  5
161
330
15E
100
AcDbEntity
  8
SLD-0
100
AcDbTrace
 10
99.9143465546
 20
153.7354821289
 30
0.0
 11
101.9143465546
 21
153.4854821289
 31
0.0
 12
101.9143465546
 22
153.9854821289
 32
0.0
 13
101.9143465546
 23
153.9854821289
 33
0.0
  0
SOLID
  5
162
330
15E
100
AcDbEntity
  8
SLD-0
100
AcDbTrace
 10
125.3143465546
 20
153.7354821289
 30
0.0
 11
123.3143465546
 21
153.9854821289
 31
0.0
 12
123.3143465546
 22
153.4854821289
 32
0.0
 13
123.3143465546
 23
153.4854821289
 33
0.0
  0
LINE
  5
163
330
15E
100
AcDbEntity
  8
SLD-0
100
AcDbLine
 10
99.9143465546
 20
133.4479755578
 30
0.0
 11
99.9143465546
 21
154.7354821289
 31
0.0
  0
LINE
  5
164
330
15E
100
AcDbEntity
  8
SLD-0
100
AcDbLine
 10
125.3143465546
 20
137.0006755578
 30
0.0
 11
125.3143465546
 21
154.7354821289
 31
0.0
  0
LINE
  5
165
330
15E
100
AcDbEntity
  8
SLD-0
100
AcDbLine
 10
99.9143465546
 20
153.7354821289
 30
0.0
 11
125.3143465546
 21
153.7354821289
 31
0.0
  0
MTEXT
  5
166
330
15E
100
AcDbEntity
  8
SLD-0
100
AcDbMText
 10
109.2723327485
 20
156.9581513037
 30
0.0
 40
2.5
 41
0.0
 71
     1
 72
     1
  1
25.4
  7
SLDTEXTSTYLE0
 73
     1
 44
1.0
  0
ENDBLK
  5
160
330
15E
100
AcDbEntity
  8
0
100
AcDbBlockEnd
  0
BLOCK
  5
169
330
168
100
AcDbEntity
  8
0
100
AcDbBlockBegin
  2
_D_6
 70
     0
 10
0.0
 20
0.0
 30
0.0
  3
_D_6
  1

  0
SOLID
  5
16B
330
168
100
AcDbEntity
  8
SLD-0
100
AcDbTrace
 10
99.9143465546
 20
160.0069385039
 30
0.0
 11
97.9143465546
 21
160.2569385039
 31
0.0
 12
97.9143465546
 22
159.7569385039
 32
0.0
 13
97.9143465546
 23
159.7569385039
 33
0.0
  0
SOLID
  5
16C
330
168
100
AcDbEntity
  8
SLD-0
100
AcDbTrace
 10
61.8143465546
 20
160.0069385039
 30
0.0
 11
63.8143465546
 21
159.7569385039
 31
0.0
 12
63.8143465546
 22
160.2569385039
 32
0.0
 13
63.8143465546
 23
160.2569385039
 33
0.0
  0
LINE
  5
16D
330
168
100
AcDbEntity
  8
SLD-0
100
AcDbLine
 10
99.9143465546
 20
133.4479755578
 30
0.0
 11
99.9143465546
 21
161.0069385039
 31
0.0
  0
LINE
  5
16E
330
168
100
AcDbEntity
  8
SLD-0
100
AcDbLine
 10
61.8143465546
 20
120.7479755578
 30
0.0
 11
61.8143465546
 21
161.0069385039
 31
0.0
  0
LINE
  5
16F
330
168
100
AcDbEntity
  8
SLD-0
100
AcDbLine
 10
99.9143465546
 20
160.0069385039
 30
0.0
 11
61.8143465546
 21
160.0069385039
 31
0.0
  0
MTEXT
  5
170
330
168
100
AcDbEntity
  8
SLD-0
100
AcDbMText
 10
77.5223327485
 20
163.2296076787
 30
0.0
 40
2.5
 41
0.0
 71
     1
 72
     1
  1
38.1
  7
SLDTEXTSTYLE0
 73
     1
 44
1.0
  0
ENDBLK
  5
16A
330
168
100
AcDbEntity
  8
0
100
AcDbBlockEnd
  0
BLOCK
  5
173
330
172
100
AcDbEntity
  8
0
100
AcDbBlockBegin
  2
_D_7
 70
     0
 10
0.0
 20
0.0
 30
0.0
  3
_D_7
  1

  0
SOLID
  5
175
330
172
100
AcDbEntity
  8
SLD-0
100
AcDbTrace
 10
99.9143465546
 20
160.0069385039
 30
0.0
 11
101.9143465546
 21
159.7569385039
 31
0.0
 12
101.9143465546
 22
160.2569385039
 32
0.0
 13
101.9143465546
 23
160.2569385039
 33
0.0
  0
SOLID
  5
176
330
172
100
AcDbEntity
  8
SLD-0
100
AcDbTrace
 10
138.0143465546
 20
160.0069385039
 30
0.0
 11
136.0143465546
 21
160.2569385039
 31
0.0
 12
136.0143465546
 22
159.7569385039
 32
0.0
 13
136.0143465546
 23
159.7569385039
 33
0.0
  0
LINE
  5
177
330
172
100
AcDbEntity
  8
SLD-0
100
AcDbLine
 10
99.9143465546
 20
133.4479755578
 30
0.0
 11
99.9143465546
 21
161.0069385039
 31
0.0
  0
LINE
  5
178
330
172
100
AcDbEntity
  8
SLD-0
100
AcDbLine
 10
138.0143465546
 20
120.7479755578
 30
0.0
 11
138.0143465546
 21
161.0069385039
 31
0.0
  0
LINE
  5
179
330
172
100
AcDbEntity
  8
SLD-0
100
AcDbLine
 10
99.9143465546
 20
160.0069385039
 30
0.0
 11
138.0143465546
 21
160.0069385039
 31
0.0
  0
MTEXT
  5
17A
330
172
100
AcDbEntity
  8
SLD-0
100
AcDbMText
 10
115.6223327485
 20
163.2296076787
 30
0.0
 40
2.5
 41
0.0
 71
     1
 72
     1
  1
38.1
  7
SLDTEXTSTYLE0
 73
     1
 44
1.0
  0
ENDBLK
  5
174
330
172
100
AcDbEntity
  8
0
100
AcDbBlockEnd
  0
BLOCK
  5
17D
330
17C
100
AcDbEntity
  8
0
100
AcDbBlockBegin
  2
_D_8
 70
     0
 10
0.0
 20
0.0
 30
0.0
  3
_D_8
  1

  0
SOLID
  5
17F
330
17C
100
AcDbEntity
  8
SLD-0
100
AcDbTrace
 10
50.5846874669
 20
107.0479755578
 30
0.0
 11
50.8346874669
 21
109.0479755578
 31
0.0
 12
50.3346874669
 22
109.0479755578
 32
0.0
 13
50.3346874669
 23
109.0479755578
 33
0.0
  0
SOLID
  5
180
330
17C
100
AcDbEntity
  8
SLD-0
100
AcDbTrace
 10
50.5846874669
 20
119.7479755578
 30
0.0
 11
50.3346874669
 21
117.7479755578
 31
0.0
 12
50.8346874669
 22
117.7479755578
 32
0.0
 13
50.8346874669
 23
117.7479755578
 33
0.0
  0
LINE
  5
181
330
17C
100
AcDbEntity
  8
SLD-0
100
AcDbLine
 10
66.9580965546
 20
107.0479755578
 30
0.0
 11
49.5846874669
 21
107.0479755578
 31
0.0
  0
LINE
  5
182
330
17C
100
AcDbEntity
  8
SLD-0
100
AcDbLine
 10
60.8143465546
 20
119.7479755578
 30
0.0
 11
49.5846874669
 21
119.7479755578
 31
0.0
  0
LINE
  5
183
330
17C
100
AcDbEntity
  8
SLD-0
100
AcDbLine
 10
50.5846874669
 20
107.0479755578
 30
0.0
 11
50.5846874669
 21
119.7479755578
 31
0.0
  0
MTEXT
  5
184
330
17C
100
AcDbEntity
  8
SLD-0
100
AcDbMText
 10
47.3620182921
 20
110.0559617517
 30
0.0
 40
2.5
 41
0.0
 71
     1
 72
     1
  1
12.7
  7
SLDTEXTSTYLE0
 11
6.123233995736766E-17
 21
1.0
 31
0.0
 73
     1
 44
1.0
  0
ENDBLK
  5
17E
330
17C
100
AcDbEntity
  8
0
100
AcDbBlockEnd
  0
BLOCK
  5
187
330
186
100
AcDbEntity
  8
0
100
AcDbBlockBegin
  2
_D_9
 70
     0
 10
0.0
 20
0.0
 30
0.0
  3
_D_9
  1

  0
SOLID
  5
189
330
186
100
AcDbEntity
  8
SLD-0
100
AcDbTrace
 10
49.9846874669
 20
94.3479755578
 30
0.0
 11
50.2346874669
 21
96.3479755578
 31
0.0
 12
49.7346874669
 22
96.3479755578
 32
0.0
 13
49.7346874669
 23
96.3479755578
 33
0.0
  0
SOLID
  5
18A
330
186
100
AcDbEntity
  8
SLD-0
100
AcDbTrace
 10
49.9846874669
 20
107.0479755578
 30
0.0
 11
49.7346874669
 21
105.0479755578
 31
0.0
 12
50.2346874669
 22
105.0479755578
 32
0.0
 13
50.2346874669
 23
105.0479755578
 33
0.0
  0
LINE
  5
18B
330
186
100
AcDbEntity
  8
SLD-0
100
AcDbLine
 10
60.8143465546
 20
94.3479755578
 30
0.0
 11
48.9846874669
 21
94.3479755578
 31
0.0
  0
LINE
  5
18C
330
186
100
AcDbEntity
  8
SLD-0
100
AcDbLine
 10
66.9580965546
 20
107.0479755578
 30
0.0
 11
48.9846874669
 21
107.0479755578
 31
0.0
  0
LINE
  5
18D
330
186
100
AcDbEntity
  8
SLD-0
100
AcDbLine
 10
49.9846874669
 20
94.3479755578
 30
0.0
 11
49.9846874669
 21
107.0479755578
 31
0.0
  0
MTEXT
  5
18E
330
186
100
AcDbEntity
  8
SLD-0
100
AcDbMText
 10
46.7620182921
 20
97.3559617517
 30
0.0
 40
2.5
 41
0.0
 71
     1
 72
     1
  1
12.7
  7
SLDTEXTSTYLE0
 11
6.123233995736766E-17
 21
1.0
 31
0.0
 73
     1
 44
1.0
  0
ENDBLK
  5
188
330
186
100
AcDbEntity
  8
0
100
AcDbBlockEnd
  0
BLOCK
  5
191
330
190
100
AcDbEntity
  8
0
100
AcDbBlockBegin
  2
_D_10
 70
     0
 10
0.0
 20
0.0
 30
0.0
  3
_D_10
  1

  0
SOLID
  5
193
330
190
100
AcDbEntity
  8
SLD-0
100
AcDbTrace
 10
43.5994320682
 20
107.0479755578
 30
0.0
 11
43.3494320682
 21
105.0479755578
 31
0.0
 12
43.8494320682
 22
105.0479755578
 32
0.0
 13
43.8494320682
 23
105.0479755578
 33
0.0
  0
SOLID
  5
194
330
190
100
AcDbEntity
  8
SLD-0
100
AcDbTrace
 10
43.5994320682
 20
81.6479755578
 30
0.0
 11
43.8494320682
 21
83.6479755578
 31
0.0
 12
43.3494320682
 22
83.6479755578
 32
0.0
 13
43.3494320682
 23
83.6479755578
 33
0.0
  0
LINE
  5
195
330
190
100
AcDbEntity
  8
SLD-0
100
AcDbLine
 10
66.9580965546
 20
107.0479755578
 30
0.0
 11
42.5994320682
 21
107.0479755578
 31
0.0
  0
LINE
  5
196
330
190
100
AcDbEntity
  8
SLD-0
100
AcDbLine
 10
69.9616465546
 20
81.6479755578
 30
0.0
 11
42.5994320682
 21
81.6479755578
 31
0.0
  0
LINE
  5
197
330
190
100
AcDbEntity
  8
SLD-0
100
AcDbLine
 10
43.5994320682
 20
107.0479755578
 30
0.0
 11
43.5994320682
 21
81.6479755578
 31
0.0
  0
MTEXT
  5
198
330
190
100
AcDbEntity
  8
SLD-0
100
AcDbMText
 10
40.3767628934
 20
91.0059617517
 30
0.0
 40
2.5
 41
0.0
 71
     1
 72
     1
  1
25.4
  7
SLDTEXTSTYLE0
 11
-7.044195017643634E-15
 21
1.0
 31
0.0
 73
     1
 44
1.0
  0
ENDBLK
  5
192
330
190
100
AcDbEntity
  8
0
100
AcDbBlockEnd
  0
BLOCK
  5
19B
330
19A
100
AcDbEntity
  8
0
100
AcDbBlockBegin
  2
_D_11
 70
     0
 10
0.0
 20
0.0
 30
0.0
  3
_D_11
  1

  0
SOLID
  5
19D
330
19A
100
AcDbEntity
  8
SLD-0
100
AcDbTrace
 10
43.1994320682
 20
132.4479755578
 30
0.0
 11
42.9494320682
 21
130.4479755578
 31
0.0
 12
43.4494320682
 22
130.4479755578
 32
0.0
 13
43.4494320682
 23
130.4479755578
 33
0.0
  0
SOLID
  5
19E
330
19A
100
AcDbEntity
  8
SLD-0
100
AcDbTrace
 10
43.1994320682
 20
107.0479755578
 30
0.0
 11
43.4494320682
 21
109.0479755578
 31
0.0
 12
42.9494320682
 22
109.0479755578
 32
0.0
 13
42.9494320682
 23
109.0479755578
 33
0.0
  0
LINE
  5
19F
330
19A
100
AcDbEntity
  8
SLD-0
100
AcDbLine
 10
73.5143465546
 20
132.4479755578
 30
0.0
 11
42.1994320682
 21
132.4479755578
 31
0.0
  0
LINE
  5
1A0
330
19A
100
AcDbEntity
  8
SLD-0
100
AcDbLine
 10
73.5143465546
 20
107.0479755578
 30
0.0
 11
42.1994320682
 21
107.0479755578
 31
0.0
  0
LINE
  5
1A1
330
19A
100
AcDbEntity
  8
SLD-0
100
AcDbLine
 10
43.1994320682
 20
132.4479755578
 30
0.0
 11
43.1994320682
 21
107.0479755578
 31
0.0
  0
MTEXT
  5
1A2
330
19A
100
AcDbEntity
  8
SLD-0
100
AcDbMText
 10
39.9767628934
 20
116.4059617517
 30
0.0
 40
2.5
 41
0.0
 71
     1
 72
     1
  1
25.4
  7
SLDTEXTSTYLE0
 11
-7.044195017643634E-15
 21
1.0
 31
0.0
 73
     1
 44
1.0
  0
ENDBLK
  5
19C
330
19A
100
AcDbEntity
  8
0
100
AcDbBlockEnd
  0
BLOCK
  5
1A6
330
1A5
100
AcDbEntity
  8
0
100
AcDbBlockBegin
  2
_D_12
 70
     0
 10
0.0
 20
0.0
 30
0.0
  3
_D_12
  1

  0
SOLID
  5
1A8
330
1A5
100
AcDbEntity
  8
SLD-0
100
AcDbTrace
 10
85.7957528622
 20
90.6414180581
 30
0.0
 11
84.8473870645
 21
88.8629067948
 31
0.0
 12
85.3143549385
 22
88.6841863296
 32
0.0
 13
85.3143549385
 23
88.6841863296
 33
0.0
  0
LINE
  5
1A9
330
1A5
100
AcDbEntity
  8
SLD-0
100
AcDbLine
 10
85.7957528622
 20
90.6414180581
 30
0.0
 11
73.8972823756
 21
59.552625506
 31
0.0
  0
LINE
  5
1AA
330
1A5
100
AcDbEntity
  8
SLD-0
100
AcDbLine
 10
73.8972823756
 20
59.552625506
 30
0.0
 11
56.997976719
 21
59.552625506
 31
0.0
  0
MTEXT
  5
1AB
330
1A5
100
AcDbEntity
  8
SLD-0
100
AcDbMText
 10
56.997976719
 20
66.6121001474
 30
0.0
 40
2.5
 41
0.0
 71
     1
 72
     1
  1
4 HOLES,
  7
SLDTEXTSTYLE0
 73
     1
 44
1.0
  0
MTEXT
  5
1AC
330
1A5
100
AcDbEntity
  8
SLD-0
100
AcDbMText
 10
57.935476719
 20
62.7752946808
 30
0.0
 40
2.5
 41
0.0
 71
     1
 72
     1
  1
8-32 CLR
  7
SLDTEXTSTYLE0
 73
     1
 44
1.0
  0
ENDBLK
  5
1A7
330
1A5
100
AcDbEntity
  8
0
100
AcDbBlockEnd
  0
BLOCK
  5
1AF
330
1AE
100
AcDbEntity
  8
0
100
AcDbBlockBegin
  2
_D_13
 70
     0
 10
0.0
 20
0.0
 30
0.0
  3
_D_13
  1

  0
SOLID
  5
1B1
330
1AE
100
AcDbEntity
  8
SLD-0
100
AcDbTrace
 10
100.7530274269
 20
76.1553870554
 30
0.0
 11
100.8077792143
 21
74.1405664079
 31
0.0
 12
101.3020503956
 22
74.2160382524
 32
0.0
 13
101.3020503956
 23
74.2160382524
 33
0.0
  0
LINE
  5
1B2
330
1AE
100
AcDbEntity
  8
SLD-0
100
AcDbLine
 10
100.7530274269
 20
76.1553870554
 30
0.0
 11
103.442123824
 21
58.5442784193
 31
0.0
  0
LINE
  5
1B3
330
1AE
100
AcDbEntity
  8
SLD-0
100
AcDbLine
 10
103.442123824
 20
58.5442784193
 30
0.0
 11
124.4247630176
 21
58.5442784193
 31
0.0
  0
MTEXT
  5
1B4
330
1AE
100
AcDbEntity
  8
SLD-0
100
AcDbMText
 10
104.692123824
 20
65.6037530607
 30
0.0
 40
2.5
 41
0.0
 71
     1
 72
     1
  1
5 HOLES,
  7
SLDTEXTSTYLE0
 73
     1
 44
1.0
  0
MTEXT
  5
1B5
330
1AE
100
AcDbEntity
  8
SLD-0
100
AcDbMText
 10
105.629623824
 20
61.7669475941
 30
0.0
 40
2.5
 41
0.0
 71
     1
 72
     1
  1
1/4"-20 CLR
  7
SLDTEXTSTYLE0
 73
     1
 44
1.0
  0
ENDBLK
  5
1B0
330
1AE
100
AcDbEntity
  8
0
100
AcDbBlockEnd
  0
BLOCK
  5
1B8
330
1B7
100
AcDbEntity
  8
0
100
AcDbBlockBegin
  2
_D_14
 70
     0
 10
0.0
 20
0.0
 30
0.0
  3
_D_14
  1

  0
SOLID
  5
1BA
330
1B7
100
AcDbEntity
  8
SLD-0
100
AcDbTrace
 10
127.0178070991
 20
78.9686384806
 30
0.0
 11
127.879881688
 21
77.1467363419
 31
0.0
 12
128.3018245348
 22
77.414997845
 32
0.0
 13
128.3018245348
 23
77.414997845
 33
0.0
  0
LINE
  5
1BB
330
1B7
100
AcDbEntity
  8
SLD-0
100
AcDbLine
 10
127.0178070991
 20
78.9686384806
 30
0.0
 11
140.0031428406
 21
58.5442784193
 31
0.0
  0
LINE
  5
1BC
330
1B7
100
AcDbEntity
  8
SLD-0
100
AcDbLine
 10
140.0031428406
 20
58.5442784193
 30
0.0
 11
158.6246706912
 21
58.5442784193
 31
0.0
  0
MTEXT
  5
1BD
330
1B7
100
AcDbEntity
  8
SLD-0
100
AcDbMText
 10
141.2531428406
 20
65.6037530607
 30
0.0
 40
2.5
 41
0.0
 71
     1
 72
     1
  1
12 HOLES,
  7
SLDTEXTSTYLE0
 73
     1
 44
1.0
  0
MTEXT
  5
1BE
330
1B7
100
AcDbEntity
  8
SLD-0
100
AcDbMText
 10
142.1906428406
 20
61.7669475941
 30
0.0
 40
2.5
 41
0.0
 71
     1
 72
     1
  1
1/4"-20
  7
SLDTEXTSTYLE0
 73
     1
 44
1.0
  0
ENDBLK
  5
1B9
330
1B7
100
AcDbEntity
  8
0
100
AcDbBlockEnd
  0
BLOCK
  5
1C0
330
1BF
100
AcDbEntity
  8
0
100
AcDbBlockBegin
  2
SW_CENTERMARKSYMBOL_0
 70
     0
 10
0.0
 20
0.0
 30
0.0
  3
SW_CENTERMARKSYMBOL_0
  1

  0
LINE
  5
1C2
330
1BF
100
AcDbEntity
  8
SLD-0
 62
     0
100
AcDbLine
 10
0.0
 20
0.0
 30
0.0
 11
0.0
 21
1.0
 31
0.0
  0
LINE
  5
1C3
330
1BF
100
AcDbEntity
  8
SLD-0
 62
     0
100
AcDbLine
 10
0.0
 20
0.0
 30
0.0
 11
-1.0
 21
0.0
 31
0.0
  0
LINE
  5
1C4
330
1BF
100
AcDbEntity
  8
SLD-0
 62
     0
100
AcDbLine
 10
0.0
 20
0.0
 30
0.0
 11
0.0
 21
-1.0
 31
0.0
  0
LINE
  5
1C5
330
1BF
100
AcDbEntity
  8
SLD-0
 62
     0
100
AcDbLine
 10
0.0
 20
0.0
 30
0.0
 11
1.0
 21
0.0
 31
0.0
  0
LINE
  5
1C6
330
1BF
100
AcDbEntity
  8
SLD-0
 62
     0
100
AcDbLine
 10
0.0
 20
2.0
 30
0.0
 11
0.0
 21
3.5527
 31
0.0
  0
LINE
  5
1C7
330
1BF
100
AcDbEntity
  8
SLD-0
 62
     0
100
AcDbLine
 10
-2.0
 20
0.0
 30
0.0
 11
-3.5527
 21
0.0
 31
0.0
  0
LINE
  5
1C8
330
1BF
100
AcDbEntity
  8
SLD-0
 62
     0
100
AcDbLine
 10
0.0
 20
-2.0
 30
0.0
 11
0.0
 21
-3.5527
 31
0.0
  0
LINE
  5
1C9
330
1BF
100
AcDbEntity
  8
SLD-0
 62
     0
100
AcDbLine
 10
2.0
 20
0.0
 30
0.0
 11
3.5527
 21
0.0
 31
0.0
  0
ENDBLK
  5
1C1
330
1BF
100
AcDbEntity
  8
0
100
AcDbBlockEnd
  0
BLOCK
  5
1CC
330
1CB
100
AcDbEntity
  8
0
100
AcDbBlockBegin
  2
SW_CENTERMARKSYMBOL_1
 70
     0
 10
0.0
 20
0.0
 30
0.0
  3
SW_CENTERMARKSYMBOL_1
  1

  0
LINE
  5
1CE
330
1CB
100
AcDbEntity
  8
SLD-0
 62
     0
100
AcDbLine
 10
0.0
 20
0.0
 30
0.0
 11
0.0
 21
1.0
 31
0.0
  0
LINE
  5
1CF
330
1CB
100
AcDbEntity
  8
SLD-0
 62
     0
100
AcDbLine
 10
0.0
 20
0.0
 30
0.0
 11
-1.0
 21
0.0
 31
0.0
  0
LINE
  5
1D0
330
1CB
100
AcDbEntity
  8
SLD-0
 62
     0
100
AcDbLine
 10
0.0
 20
0.0
 30
0.0
 11
0.0
 21
-1.0
 31
0.0
  0
LINE
  5
1D1
330
1CB
100
AcDbEntity
  8
SLD-0
 62
     0
100
AcDbLine
 10
0.0
 20
0.0
 30
0.0
 11
1.0
 21
0.0
 31
0.0
  0
LINE
  5
1D2
330
1CB
100
AcDbEntity
  8
SLD-0
 62
     0
100
AcDbLine
 10
0.0
 20
2.0
 30
0.0
 11
0.0
 21
3.5527
 31
0.0
  0
LINE
  5
1D3
330
1CB
100
AcDbEntity
  8
SLD-0
 62
     0
100
AcDbLine
 10
-2.0
 20
0.0
 30
0.0
 11
-3.5527
 21
0.0
 31
0.0
  0
LINE
  5
1D4
330
1CB
100
AcDbEntity
  8
SLD-0
 62
     0
100
AcDbLine
 10
0.0
 20
-2.0
 30
0.0
 11
0.0
 21
-3.5527
 31
0.0
  0
LINE
  5
1D5
330
1CB
100
AcDbEntity
  8
SLD-0
 62
     0
100
AcDbLine
 10
2.0
 20
0.0
 30
0.0
 11
3.5527
 21
0.0
 31
0.0
  0
ENDBLK
  5
1CD
330
1CB
100
AcDbEntity
  8
0
100
AcDbBlockEnd
  0
BLOCK
  5
1D8
330
1D7
100
AcDbEntity
  8
0
100
AcDbBlockBegin
  2
SW_CENTERMARKSYMBOL_2
 70
     0
 10
0.0
 20
0.0
 30
0.0
  3
SW_CENTERMARKSYMBOL_2
  1

  0
LINE
  5
1DA
330
1D7
100
AcDbEntity
  8
SLD-0
 62
     0
100
AcDbLine
 10
0.0
 20
0.0
 30
0.0
 11
0.0
 21
1.0
 31
0.0
  0
LINE
  5
1DB
330
1D7
100
AcDbEntity
  8
SLD-0
 62
     0
100
AcDbLine
 10
0.0
 20
0.0
 30
0.0
 11
-1.0
 21
0.0
 31
0.0
  0
LINE
  5
1DC
330
1D7
100
AcDbEntity
  8
SLD-0
 62
     0
100
AcDbLine
 10
0.0
 20
0.0
 30
0.0
 11
0.0
 21
-1.0
 31
0.0
  0
LINE
  5
1DD
330
1D7
100
AcDbEntity
  8
SLD-0
 62
     0
100
AcDbLine
 10
0.0
 20
0.0
 30
0.0
 11
1.0
 21
0.0
 31
0.0
  0
LINE
  5
1DE
330
1D7
100
AcDbEntity
  8
SLD-0
 62
     0
100
AcDbLine
 10
0.0
 20
2.0
 30
0.0
 11
0.0
 21
3.5527
 31
0.0
  0
LINE
  5
1DF
330
1D7
100
AcDbEntity
  8
SLD-0
 62
     0
100
AcDbLine
 10
-2.0
 20
0.0
 30
0.0
 11
-3.5527
 21
0.0
 31
0.0
  0
LINE
  5
1E0
330
1D7
100
AcDbEntity
  8
SLD-0
 62
     0
100
AcDbLine
 10
0.0
 20
-2.0
 30
0.0
 11
0.0
 21
-3.5527
 31
0.0
  0
LINE
  5
1E1
330
1D7
100
AcDbEntity
  8
SLD-0
 62
     0
100
AcDbLine
 10
2.0
 20
0.0
 30
0.0
 11
3.5527
 21
0.0
 31
0.0
  0
ENDBLK
  5
1D9
330
1D7
100
AcDbEntity
  8
0
100
AcDbBlockEnd
  0
BLOCK
  5
1E4
330
1E3
100
AcDbEntity
  8
0
100
AcDbBlockBegin
  2
SW_CENTERMARKSYMBOL_3
 70
     0
 10
0.0
 20
0.0
 30
0.0
  3
SW_CENTERMARKSYMBOL_3
  1

  0
LINE
  5
1E6
330
1E3
100
AcDbEntity
  8
SLD-0
 62
     0
100
AcDbLine
 10
0.0
 20
0.0
 30
0.0
 11
0.0
 21
1.0
 31
0.0
  0
LINE
  5
1E7
330
1E3
100
AcDbEntity
  8
SLD-0
 62
     0
100
AcDbLine
 10
0.0
 20
0.0
 30
0.0
 11
-1.0
 21
0.0
 31
0.0
  0
LINE
  5
1E8
330
1E3
100
AcDbEntity
  8
SLD-0
 62
     0
100
AcDbLine
 10
0.0
 20
0.0
 30
0.0
 11
0.0
 21
-1.0
 31
0.0
  0
LINE
  5
1E9
330
1E3
100
AcDbEntity
  8
SLD-0
 62
     0
100
AcDbLine
 10
0.0
 20
0.0
 30
0.0
 11
1.0
 21
0.0
 31
0.0
  0
LINE
  5
1EA
330
1E3
100
AcDbEntity
  8
SLD-0
 62
     0
100
AcDbLine
 10
0.0
 20
2.0
 30
0.0
 11
0.0
 21
4.96875
 31
0.0
  0
LINE
  5
1EB
330
1E3
100
AcDbEntity
  8
SLD-0
 62
     0
100
AcDbLine
 10
-2.0
 20
0.0
 30
0.0
 11
-4.96875
 21
0.0
 31
0.0
  0
LINE
  5
1EC
330
1E3
100
AcDbEntity
  8
SLD-0
 62
     0
100
AcDbLine
 10
0.0
 20
-2.0
 30
0.0
 11
0.0
 21
-4.96875
 31
0.0
  0
LINE
  5
1ED
330
1E3
100
AcDbEntity
  8
SLD-0
 62
     0
100
AcDbLine
 10
2.0
 20
0.0
 30
0.0
 11
4.96875
 21
0.0
 31
0.0
  0
ENDBLK
  5
1E5
330
1E3
100
AcDbEntity
  8
0
100
AcDbBlockEnd
  0
BLOCK
  5
1F0
330
1EF
100
AcDbEntity
  8
0
100
AcDbBlockBegin
  2
SW_CENTERMARKSYMBOL_4
 70
     0
 10
0.0
 20
0.0
 30
0.0
  3
SW_CENTERMARKSYMBOL_4
  1

  0
LINE
  5
1F2
330
1EF
100
AcDbEntity
  8
SLD-0
 62
     0
100
AcDbLine
 10
0.0
 20
0.0
 30
0.0
 11
0.0
 21
1.0
 31
0.0
  0
LINE
  5
1F3
330
1EF
100
AcDbEntity
  8
SLD-0
 62
     0
100
AcDbLine
 10
0.0
 20
0.0
 30
0.0
 11
-1.0
 21
0.0
 31
0.0
  0
LINE
  5
1F4
330
1EF
100
AcDbEntity
  8
SLD-0
 62
     0
100
AcDbLine
 10
0.0
 20
0.0
 30
0.0
 11
0.0
 21
-1.0
 31
0.0
  0
LINE
  5
1F5
330
1EF
100
AcDbEntity
  8
SLD-0
 62
     0
100
AcDbLine
 10
0.0
 20
0.0
 30
0.0
 11
1.0
 21
0.0
 31
0.0
  0
LINE
  5
1F6
330
1EF
100
AcDbEntity
  8
SLD-0
 62
     0
100
AcDbLine
 10
0.0
 20
2.0
 30
0.0
 11
0.0
 21
6.55625
 31
0.0
  0
LINE
  5
1F7
330
1EF
100
AcDbEntity
  8
SLD-0
 62
     0
100
AcDbLine
 10
-2.0
 20
0.0
 30
0.0
 11
-6.55625
 21
0.0
 31
0.0
  0
LINE
  5
1F8
330
1EF
100
AcDbEntity
  8
SLD-0
 62
     0
100
AcDbLine
 10
0.0
 20
-2.0
 30
0.0
 11
0.0
 21
-6.55625
 31
0.0
  0
LINE
  5
1F9
330
1EF
100
AcDbEntity
  8
SLD-0
 62
     0
100
AcDbLine
 10
2.0
 20
0.0
 30
0.0
 11
6.55625
 21
0.0
 31
0.0
  0
ENDBLK
  5
1F1
330
1EF
100
AcDbEntity
  8
0
100
AcDbBlockEnd
  0
BLOCK
  5
1FC
330
1FB
100
AcDbEntity
  8
0
100
AcDbBlockBegin
  2
SW_CENTERMARKSYMBOL_5
 70
     0
 10
0.0
 20
0.0
 30
0.0
  3
SW_CENTERMARKSYMBOL_5
  1

  0
LINE
  5
1FE
330
1FB
100
AcDbEntity
  8
SLD-0
 62
     0
100
AcDbLine
 10
0.0
 20
0.0
 30
0.0
 11
0.0
 21
1.0
 31
0.0
  0
LINE
  5
1FF
330
1FB
100
AcDbEntity
  8
SLD-0
 62
     0
100
AcDbLine
 10
0.0
 20
0.0
 30
0.0
 11
-1.0
 21
0.0
 31
0.0
  0
LINE
  5
200
330
1FB
100
AcDbEntity
  8
SLD-0
 62
     0
100
AcDbLine
 10
0.0
 20
0.0
 30
0.0
 11
0.0
 21
-1.0
 31
0.0
  0
LINE
  5
201
330
1FB
100
AcDbEntity
  8
SLD-0
 62
     0
100
AcDbLine
 10
0.0
 20
0.0
 30
0.0
 11
1.0
 21
0.0
 31
0.0
  0
LINE
  5
202
330
1FB
100
AcDbEntity
  8
SLD-0
 62
     0
100
AcDbLine
 10
0.0
 20
2.0
 30
0.0
 11
0.0
 21
3.5527
 31
0.0
  0
LINE
  5
203
330
1FB
100
AcDbEntity
  8
SLD-0
 62
     0
100
AcDbLine
 10
-2.0
 20
0.0
 30
0.0
 11
-3.5527
 21
0.0
 31
0.0
  0
LINE
  5
204
330
1FB
100
AcDbEntity
  8
SLD-0
 62
     0
100
AcDbLine
 10
0.0
 20
-2.0
 30
0.0
 11
0.0
 21
-3.5527
 31
0.0
  0
LINE
  5
205
330
1FB
100
AcDbEntity
  8
SLD-0
 62
     0
100
AcDbLine
 10
2.0
 20
0.0
 30
0.0
 11
3.5527
 21
0.0
 31
0.0
  0
ENDBLK
  5
1FD
330
1FB
100
AcDbEntity
  8
0
100
AcDbBlockEnd
  0
BLOCK
  5
208
330
207
100
AcDbEntity
  8
0
100
AcDbBlockBegin
  2
SW_CENTERMARKSYMBOL_6
 70
     0
 10
0.0
 20
0.0
 30
0.0
  3
SW_CENTERMARKSYMBOL_6
  1

  0
LINE
  5
20A
330
207
100
AcDbEntity
  8
SLD-0
 62
     0
100
AcDbLine
 10
0.0
 20
0.0
 30
0.0
 11
0.0
 21
1.0
 31
0.0
  0
LINE
  5
20B
330
207
100
AcDbEntity
  8
SLD-0
 62
     0
100
AcDbLine
 10
0.0
 20
0.0
 30
0.0
 11
-1.0
 21
0.0
 31
0.0
  0
LINE
  5
20C
330
207
100
AcDbEntity
  8
SLD-0
 62
     0
100
AcDbLine
 10
0.0
 20
0.0
 30
0.0
 11
0.0
 21
-1.0
 31
0.0
  0
LINE
  5
20D
330
207
100
AcDbEntity
  8
SLD-0
 62
     0
100
AcDbLine
 10
0.0
 20
0.0
 30
0.0
 11
1.0
 21
0.0
 31
0.0
  0
LINE
  5
20E
330
207
100
AcDbEntity
  8
SLD-0
 62
     0
100
AcDbLine
 10
0.0
 20
2.0
 30
0.0
 11
0.0
 21
3.5527
 31
0.0
  0
LINE
  5
20F
330
207
100
AcDbEntity
  8
SLD-0
 62
     0
100
AcDbLine
 10
-2.0
 20
0.0
 30
0.0
 11
-3.5527
 21
0.0
 31
0.0
  0
LINE
  5
210
330
207
100
AcDbEntity
  8
SLD-0
 62
     0
100
AcDbLine
 10
0.0
 20
-2.0
 30
0.0
 11
0.0
 21
-3.5527
 31
0.0
  0
LINE
  5
211
330
207
100
AcDbEntity
  8
SLD-0
 62
     0
100
AcDbLine
 10
2.0
 20
0.0
 30
0.0
 11
3.5527
 21
0.0
 31
0.0
  0
ENDBLK
  5
209
330
207
100
AcDbEntity
  8
0
100
AcDbBlockEnd
  0
BLOCK
  5
214
330
213
100
AcDbEntity
  8
0
100
AcDbBlockBegin
  2
SW_CENTERMARKSYMBOL_7
 70
     0
 10
0.0
 20
0.0
 30
0.0
  3
SW_CENTERMARKSYMBOL_7
  1

  0
LINE
  5
216
330
213
100
AcDbEntity
  8
SLD-0
 62
     0
100
AcDbLine
 10
0.0
 20
0.0
 30
0.0
 11
0.0
 21
1.0
 31
0.0
  0
LINE
  5
217
330
213
100
AcDbEntity
  8
SLD-0
 62
     0
100
AcDbLine
 10
0.0
 20
0.0
 30
0.0
 11
-1.0
 21
0.0
 31
0.0
  0
LINE
  5
218
330
213
100
AcDbEntity
  8
SLD-0
 62
     0
100
AcDbLine
 10
0.0
 20
0.0
 30
0.0
 11
0.0
 21
-1.0
 31
0.0
  0
LINE
  5
219
330
213
100
AcDbEntity
  8
SLD-0
 62
     0
100
AcDbLine
 10
0.0
 20
0.0
 30
0.0
 11
1.0
 21
0.0
 31
0.0
  0
LINE
  5
21A
330
213
100
AcDbEntity
  8
SLD-0
 62
     0
100
AcDbLine
 10
0.0
 20
2.0
 30
0.0
 11
0.0
 21
3.5527
 31
0.0
  0
LINE
  5
21B
330
213
100
AcDbEntity
  8
SLD-0
 62
     0
100
AcDbLine
 10
-2.0
 20
0.0
 30
0.0
 11
-3.5527
 21
0.0
 31
0.0
  0
LINE
  5
21C
330
213
100
AcDbEntity
  8
SLD-0
 62
     0
100
AcDbLine
 10
0.0
 20
-2.0
 30
0.0
 11
0.0
 21
-3.5527
 31
0.0
  0
LINE
  5
21D
330
213
100
AcDbEntity
  8
SLD-0
 62
     0
100
AcDbLine
 10
2.0
 20
0.0
 30
0.0
 11
3.5527
 21
0.0
 31
0.0
  0
ENDBLK
  5
215
330
213
100
AcDbEntity
  8
0
100
AcDbBlockEnd
  0
BLOCK
  5
220
330
21F
100
AcDbEntity
  8
0
100
AcDbBlockBegin
  2
SW_CENTERMARKSYMBOL_8
 70
     0
 10
0.0
 20
0.0
 30
0.0
  3
SW_CENTERMARKSYMBOL_8
  1

  0
LINE
  5
222
330
21F
100
AcDbEntity
  8
SLD-0
 62
     0
100
AcDbLine
 10
0.0
 20
0.0
 30
0.0
 11
0.0
 21
1.0
 31
0.0
  0
LINE
  5
223
330
21F
100
AcDbEntity
  8
SLD-0
 62
     0
100
AcDbLine
 10
0.0
 20
0.0
 30
0.0
 11
-1.0
 21
0.0
 31
0.0
  0
LINE
  5
224
330
21F
100
AcDbEntity
  8
SLD-0
 62
     0
100
AcDbLine
 10
0.0
 20
0.0
 30
0.0
 11
0.0
 21
-1.0
 31
0.0
  0
LINE
  5
225
330
21F
100
AcDbEntity
  8
SLD-0
 62
     0
100
AcDbLine
 10
0.0
 20
0.0
 30
0.0
 11
1.0
 21
0.0
 31
0.0
  0
LINE
  5
226
330
21F
100
AcDbEntity
  8
SLD-0
 62
     0
100
AcDbLine
 10
0.0
 20
2.0
 30
0.0
 11
0.0
 21
4.96875
 31
0.0
  0
LINE
  5
227
330
21F
100
AcDbEntity
  8
SLD-0
 62
     0
100
AcDbLine
 10
-2.0
 20
0.0
 30
0.0
 11
-4.96875
 21
0.0
 31
0.0
  0
LINE
  5
228
330
21F
100
AcDbEntity
  8
SLD-0
 62
     0
100
AcDbLine
 10
0.0
 20
-2.0
 30
0.0
 11
0.0
 21
-4.96875
 31
0.0
  0
LINE
  5
229
330
21F
100
AcDbEntity
  8
SLD-0
 62
     0
100
AcDbLine
 10
2.0
 20
0.0
 30
0.0
 11
4.96875
 21
0.0
 31
0.0
  0
ENDBLK
  5
221
330
21F
100
AcDbEntity
  8
0
100
AcDbBlockEnd
  0
BLOCK
  5
22C
330
22B
100
AcDbEntity
  8
0
100
AcDbBlockBegin
  2
SW_CENTERMARKSYMBOL_9
 70
     0
 10
0.0
 20
0.0
 30
0.0
  3
SW_CENTERMARKSYMBOL_9
  1

  0
LINE
  5
22E
330
22B
100
AcDbEntity
  8
SLD-0
 62
     0
100
AcDbLine
 10
0.0
 20
0.0
 30
0.0
 11
0.0
 21
1.0
 31
0.0
  0
LINE
  5
22F
330
22B
100
AcDbEntity
  8
SLD-0
 62
     0
100
AcDbLine
 10
0.0
 20
0.0
 30
0.0
 11
-1.0
 21
0.0
 31
0.0
  0
LINE
  5
230
330
22B
100
AcDbEntity
  8
SLD-0
 62
     0
100
AcDbLine
 10
0.0
 20
0.0
 30
0.0
 11
0.0
 21
-1.0
 31
0.0
  0
LINE
  5
231
330
22B
100
AcDbEntity
  8
SLD-0
 62
     0
100
AcDbLine
 10
0.0
 20
0.0
 30
0.0
 11
1.0
 21
0.0
 31
0.0
  0
LINE
  5
232
330
22B
100
AcDbEntity
  8
SLD-0
 62
     0
100
AcDbLine
 10
0.0
 20
2.0
 30
0.0
 11
0.0
 21
6.55625
 31
0.0
  0
LINE
  5
233
330
22B
100
AcDbEntity
  8
SLD-0
 62
     0
100
AcDbLine
 10
-2.0
 20
0.0
 30
0.0
 11
-6.55625
 21
0.0
 31
0.0
  0
LINE
  5
234
330
22B
100
AcDbEntity
  8
SLD-0
 62
     0
100
AcDbLine
 10
0.0
 20
-2.0
 30
0.0
 11
0.0
 21
-6.55625
 31
0.0
  0
LINE
  5
235
330
22B
100
AcDbEntity
  8
SLD-0
 62
     0
100
AcDbLine
 10
2.0
 20
0.0
 30
0.0
 11
6.55625
 21
0.0
 31
0.0
  0
ENDBLK
  5
22D
330
22B
100
AcDbEntity
  8
0
100
AcDbBlockEnd
  0
BLOCK
  5
238
330
237
100
AcDbEntity
  8
0
100
AcDbBlockBegin
  2
SW_CENTERMARKSYMBOL_10
 70
     0
 10
0.0
 20
0.0
 30
0.0
  3
SW_CENTERMARKSYMBOL_10
  1

  0
LINE
  5
23A
330
237
100
AcDbEntity
  8
SLD-0
 62
     0
100
AcDbLine
 10
0.0
 20
0.0
 30
0.0
 11
0.0
 21
1.0
 31
0.0
  0
LINE
  5
23B
330
237
100
AcDbEntity
  8
SLD-0
 62
     0
100
AcDbLine
 10
0.0
 20
0.0
 30
0.0
 11
-1.0
 21
0.0
 31
0.0
  0
LINE
  5
23C
330
237
100
AcDbEntity
  8
SLD-0
 62
     0
100
AcDbLine
 10
0.0
 20
0.0
 30
0.0
 11
0.0
 21
-1.0
 31
0.0
  0
LINE
  5
23D
330
237
100
AcDbEntity
  8
SLD-0
 62
     0
100
AcDbLine
 10
0.0
 20
0.0
 30
0.0
 11
1.0
 21
0.0
 31
0.0
  0
LINE
  5
23E
330
237
100
AcDbEntity
  8
SLD-0
 62
     0
100
AcDbLine
 10
0.0
 20
2.0
 30
0.0
 11
0.0
 21
3.5527
 31
0.0
  0
LINE
  5
23F
330
237
100
AcDbEntity
  8
SLD-0
 62
     0
100
AcDbLine
 10
-2.0
 20
0.0
 30
0.0
 11
-3.5527
 21
0.0
 31
0.0
  0
LINE
  5
240
330
237
100
AcDbEntity
  8
SLD-0
 62
     0
100
AcDbLine
 10
0.0
 20
-2.0
 30
0.0
 11
0.0
 21
-3.5527
 31
0.0
  0
LINE
  5
241
330
237
100
AcDbEntity
  8
SLD-0
 62
     0
100
AcDbLine
 10
2.0
 20
0.0
 30
0.0
 11
3.5527
 21
0.0
 31
0.0
  0
ENDBLK
  5
239
330
237
100
AcDbEntity
  8
0
100
AcDbBlockEnd
  0
BLOCK
  5
244
330
243
100
AcDbEntity
  8
0
100
AcDbBlockBegin
  2
SW_CENTERMARKSYMBOL_11
 70
     0
 10
0.0
 20
0.0
 30
0.0
  3
SW_CENTERMARKSYMBOL_11
  1

  0
LINE
  5
246
330
243
100
AcDbEntity
  8
SLD-0
 62
     0
100
AcDbLine
 10
0.0
 20
0.0
 30
0.0
 11
0.0
 21
1.0
 31
0.0
  0
LINE
  5
247
330
243
100
AcDbEntity
  8
SLD-0
 62
     0
100
AcDbLine
 10
0.0
 20
0.0
 30
0.0
 11
-1.0
 21
0.0
 31
0.0
  0
LINE
  5
248
330
243
100
AcDbEntity
  8
SLD-0
 62
     0
100
AcDbLine
 10
0.0
 20
0.0
 30
0.0
 11
0.0
 21
-1.0
 31
0.0
  0
LINE
  5
249
330
243
100
AcDbEntity
  8
SLD-0
 62
     0
100
AcDbLine
 10
0.0
 20
0.0
 30
0.0
 11
1.0
 21
0.0
 31
0.0
  0
LINE
  5
24A
330
243
100
AcDbEntity
  8
SLD-0
 62
     0
100
AcDbLine
 10
0.0
 20
2.0
 30
0.0
 11
0.0
 21
3.5527
 31
0.0
  0
LINE
  5
24B
330
243
100
AcDbEntity
  8
SLD-0
 62
     0
100
AcDbLine
 10
-2.0
 20
0.0
 30
0.0
 11
-3.5527
 21
0.0
 31
0.0
  0
LINE
  5
24C
330
243
100
AcDbEntity
  8
SLD-0
 62
     0
100
AcDbLine
 10
0.0
 20
-2.0
 30
0.0
 11
0.0
 21
-3.5527
 31
0.0
  0
LINE
  5
24D
330
243
100
AcDbEntity
  8
SLD-0
 62
     0
100
AcDbLine
 10
2.0
 20
0.0
 30
0.0
 11
3.5527
 21
0.0
 31
0.0
  0
ENDBLK
  5
245
330
243
100
AcDbEntity
  8
0
100
AcDbBlockEnd
  0
BLOCK
  5
250
330
24F
100
AcDbEntity
  8
0
100
AcDbBlockBegin
  2
SW_CENTERMARKSYMBOL_12
 70
     0
 10
0.0
 20
0.0
 30
0.0
  3
SW_CENTERMARKSYMBOL_12
  1

  0
LINE
  5
252
330
24F
100
AcDbEntity
  8
SLD-0
 62
     0
100
AcDbLine
 10
0.0
 20
0.0
 30
0.0
 11
0.0
 21
1.0
 31
0.0
  0
LINE
  5
253
330
24F
100
AcDbEntity
  8
SLD-0
 62
     0
100
AcDbLine
 10
0.0
 20
0.0
 30
0.0
 11
-1.0
 21
0.0
 31
0.0
  0
LINE
  5
254
330
24F
100
AcDbEntity
  8
SLD-0
 62
     0
100
AcDbLine
 10
0.0
 20
0.0
 30
0.0
 11
0.0
 21
-1.0
 31
0.0
  0
LINE
  5
255
330
24F
100
AcDbEntity
  8
SLD-0
 62
     0
100
AcDbLine
 10
0.0
 20
0.0
 30
0.0
 11
1.0
 21
0.0
 31
0.0
  0
LINE
  5
256
330
24F
100
AcDbEntity
  8
SLD-0
 62
     0
100
AcDbLine
 10
0.0
 20
2.0
 30
0.0
 11
0.0
 21
3.5527
 31
0.0
  0
LINE
  5
257
330
24F
100
AcDbEntity
  8
SLD-0
 62
     0
100
AcDbLine
 10
-2.0
 20
0.0
 30
0.0
 11
-3.5527
 21
0.0
 31
0.0
  0
LINE
  5
258
330
24F
100
AcDbEntity
  8
SLD-0
 62
     0
100
AcDbLine
 10
0.0
 20
-2.0
 30
0.0
 11
0.0
 21
-3.5527
 31
0.0
  0
LINE
  5
259
330
24F
100
AcDbEntity
  8
SLD-0
 62
     0
100
AcDbLine
 10
2.0
 20
0.0
 30
0.0
 11
3.5527
 21
0.0
 31
0.0
  0
ENDBLK
  5
251
330
24F
100
AcDbEntity
  8
0
100
AcDbBlockEnd
  0
BLOCK
  5
25C
330
25B
100
AcDbEntity
  8
0
100
AcDbBlockBegin
  2
SW_CENTERMARKSYMBOL_13
 70
     0
 10
0.0
 20
0.0
 30
0.0
  3
SW_CENTERMARKSYMBOL_13
  1

  0
LINE
  5
25E
330
25B
100
AcDbEntity
  8
SLD-0
 62
     0
100
AcDbLine
 10
0.0
 20
0.0
 30
0.0
 11
0.0
 21
1.0
 31
0.0
  0
LINE
  5
25F
330
25B
100
AcDbEntity
  8
SLD-0
 62
     0
100
AcDbLine
 10
0.0
 20
0.0
 30
0.0
 11
-1.0
 21
0.0
 31
0.0
  0
LINE
  5
260
330
25B
100
AcDbEntity
  8
SLD-0
 62
     0
100
AcDbLine
 10
0.0
 20
0.0
 30
0.0
 11
0.0
 21
-1.0
 31
0.0
  0
LINE
  5
261
330
25B
100
AcDbEntity
  8
SLD-0
 62
     0
100
AcDbLine
 10
0.0
 20
0.0
 30
0.0
 11
1.0
 21
0.0
 31
0.0
  0
LINE
  5
262
330
25B
100
AcDbEntity
  8
SLD-0
 62
     0
100
AcDbLine
 10
0.0
 20
2.0
 30
0.0
 11
0.0
 21
3.5527
 31
0.0
  0
LINE
  5
263
330
25B
100
AcDbEntity
  8
SLD-0
 62
     0
100
AcDbLine
 10
-2.0
 20
0.0
 30
0.0
 11
-3.5527
 21
0.0
 31
0.0
  0
LINE
  5
264
330
25B
100
AcDbEntity
  8
SLD-0
 62
     0
100
AcDbLine
 10
0.0
 20
-2.0
 30
0.0
 11
0.0
 21
-3.5527
 31
0.0
  0
LINE
  5
265
330
25B
100
AcDbEntity
  8
SLD-0
 62
     0
100
AcDbLine
 10
2.0
 20
0.0
 30
0.0
 11
3.5527
 21
0.0
 31
0.0
  0
ENDBLK
  5
25D
330
25B
100
AcDbEntity
  8
0
100
AcDbBlockEnd
  0
BLOCK
  5
268
330
267
100
AcDbEntity
  8
0
100
AcDbBlockBegin
  2
SW_CENTERMARKSYMBOL_14
 70
     0
 10
0.0
 20
0.0
 30
0.0
  3
SW_CENTERMARKSYMBOL_14
  1

  0
LINE
  5
26A
330
267
100
AcDbEntity
  8
SLD-0
 62
     0
100
AcDbLine
 10
0.0
 20
0.0
 30
0.0
 11
0.0
 21
1.0
 31
0.0
  0
LINE
  5
26B
330
267
100
AcDbEntity
  8
SLD-0
 62
     0
100
AcDbLine
 10
0.0
 20
0.0
 30
0.0
 11
-1.0
 21
0.0
 31
0.0
  0
LINE
  5
26C
330
267
100
AcDbEntity
  8
SLD-0
 62
     0
100
AcDbLine
 10
0.0
 20
0.0
 30
0.0
 11
0.0
 21
-1.0
 31
0.0
  0
LINE
  5
26D
330
267
100
AcDbEntity
  8
SLD-0
 62
     0
100
AcDbLine
 10
0.0
 20
0.0
 30
0.0
 11
1.0
 21
0.0
 31
0.0
  0
LINE
  5
26E
330
267
100
AcDbEntity
  8
SLD-0
 62
     0
100
AcDbLine
 10
0.0
 20
2.0
 30
0.0
 11
0.0
 21
3.5527
 31
0.0
  0
LINE
  5
26F
330
267
100
AcDbEntity
  8
SLD-0
 62
     0
100
AcDbLine
 10
-2.0
 20
0.0
 30
0.0
 11
-3.5527
 21
0.0
 31
0.0
  0
LINE
  5
270
330
267
100
AcDbEntity
  8
SLD-0
 62
     0
100
AcDbLine
 10
0.0
 20
-2.0
 30
0.0
 11
0.0
 21
-3.5527
 31
0.0
  0
LINE
  5
271
330
267
100
AcDbEntity
  8
SLD-0
 62
     0
100
AcDbLine
 10
2.0
 20
0.0
 30
0.0
 11
3.5527
 21
0.0
 31
0.0
  0
ENDBLK
  5
269
330
267
100
AcDbEntity
  8
0
100
AcDbBlockEnd
  0
BLOCK
  5
274
330
273
100
AcDbEntity
  8
0
100
AcDbBlockBegin
  2
SW_CENTERMARKSYMBOL_15
 70
     0
 10
0.0
 20
0.0
 30
0.0
  3
SW_CENTERMARKSYMBOL_15
  1

  0
LINE
  5
276
330
273
100
AcDbEntity
  8
SLD-0
 62
     0
100
AcDbLine
 10
0.0
 20
0.0
 30
0.0
 11
0.0
 21
1.0
 31
0.0
  0
LINE
  5
277
330
273
100
AcDbEntity
  8
SLD-0
 62
     0
100
AcDbLine
 10
0.0
 20
0.0
 30
0.0
 11
-1.0
 21
0.0
 31
0.0
  0
LINE
  5
278
330
273
100
AcDbEntity
  8
SLD-0
 62
     0
100
AcDbLine
 10
0.0
 20
0.0
 30
0.0
 11
0.0
 21
-1.0
 31
0.0
  0
LINE
  5
279
330
273
100
AcDbEntity
  8
SLD-0
 62
     0
100
AcDbLine
 10
0.0
 20
0.0
 30
0.0
 11
1.0
 21
0.0
 31
0.0
  0
LINE
  5
27A
330
273
100
AcDbEntity
  8
SLD-0
 62
     0
100
AcDbLine
 10
0.0
 20
2.0
 30
0.0
 11
0.0
 21
3.5527
 31
0.0
  0
LINE
  5
27B
330
273
100
AcDbEntity
  8
SLD-0
 62
     0
100
AcDbLine
 10
-2.0
 20
0.0
 30
0.0
 11
-3.5527
 21
0.0
 31
0.0
  0
LINE
  5
27C
330
273
100
AcDbEntity
  8
SLD-0
 62
     0
100
AcDbLine
 10
0.0
 20
-2.0
 30
0.0
 11
0.0
 21
-3.5527
 31
0.0
  0
LINE
  5
27D
330
273
100
AcDbEntity
  8
SLD-0
 62
     0
100
AcDbLine
 10
2.0
 20
0.0
 30
0.0
 11
3.5527
 21
0.0
 31
0.0
  0
ENDBLK
  5
275
330
273
100
AcDbEntity
  8
0
100
AcDbBlockEnd
  0
BLOCK
  5
280
330
27F
100
AcDbEntity
  8
0
100
AcDbBlockBegin
  2
SW_CENTERMARKSYMBOL_16
 70
     0
 10
0.0
 20
0.0
 30
0.0
  3
SW_CENTERMARKSYMBOL_16
  1

  0
LINE
  5
282
330
27F
100
AcDbEntity
  8
SLD-0
 62
     0
100
AcDbLine
 10
0.0
 20
0.0
 30
0.0
 11
0.0
 21
1.0
 31
0.0
  0
LINE
  5
283
330
27F
100
AcDbEntity
  8
SLD-0
 62
     0
100
AcDbLine
 10
0.0
 20
0.0
 30
0.0
 11
-1.0
 21
0.0
 31
0.0
  0
LINE
  5
284
330
27F
100
AcDbEntity
  8
SLD-0
 62
     0
100
AcDbLine
 10
0.0
 20
0.0
 30
0.0
 11
0.0
 21
-1.0
 31
0.0
  0
LINE
  5
285
330
27F
100
AcDbEntity
  8
SLD-0
 62
     0
100
AcDbLine
 10
0.0
 20
0.0
 30
0.0
 11
1.0
 21
0.0
 31
0.0
  0
LINE
  5
286
330
27F
100
AcDbEntity
  8
SLD-0
 62
     0
100
AcDbLine
 10
0.0
 20
2.0
 30
0.0
 11
0.0
 21
4.96875
 31
0.0
  0
LINE
  5
287
330
27F
100
AcDbEntity
  8
SLD-0
 62
     0
100
AcDbLine
 10
-2.0
 20
0.0
 30
0.0
 11
-4.96875
 21
0.0
 31
0.0
  0
LINE
  5
288
330
27F
100
AcDbEntity
  8
SLD-0
 62
     0
100
AcDbLine
 10
0.0
 20
-2.0
 30
0.0
 11
0.0
 21
-4.96875
 31
0.0
  0
LINE
  5
289
330
27F
100
AcDbEntity
  8
SLD-0
 62
     0
100
AcDbLine
 10
2.0
 20
0.0
 30
0.0
 11
4.96875
 21
0.0
 31
0.0
  0
ENDBLK
  5
281
330
27F
100
AcDbEntity
  8
0
100
AcDbBlockEnd
  0
BLOCK
  5
28C
330
28B
100
AcDbEntity
  8
0
100
AcDbBlockBegin
  2
SW_CENTERMARKSYMBOL_17
 70
     0
 10
0.0
 20
0.0
 30
0.0
  3
SW_CENTERMARKSYMBOL_17
  1

  0
LINE
  5
28E
330
28B
100
AcDbEntity
  8
SLD-0
 62
     0
100
AcDbLine
 10
0.0
 20
0.0
 30
0.0
 11
0.0
 21
1.0
 31
0.0
  0
LINE
  5
28F
330
28B
100
AcDbEntity
  8
SLD-0
 62
     0
100
AcDbLine
 10
0.0
 20
0.0
 30
0.0
 11
-1.0
 21
0.0
 31
0.0
  0
LINE
  5
290
330
28B
100
AcDbEntity
  8
SLD-0
 62
     0
100
AcDbLine
 10
0.0
 20
0.0
 30
0.0
 11
0.0
 21
-1.0
 31
0.0
  0
LINE
  5
291
330
28B
100
AcDbEntity
  8
SLD-0
 62
     0
100
AcDbLine
 10
0.0
 20
0.0
 30
0.0
 11
1.0
 21
0.0
 31
0.0
  0
LINE
  5
292
330
28B
100
AcDbEntity
  8
SLD-0
 62
     0
100
AcDbLine
 10
0.0
 20
2.0
 30
0.0
 11
0.0
 21
6.55625
 31
0.0
  0
LINE
  5
293
330
28B
100
AcDbEntity
  8
SLD-0
 62
     0
100
AcDbLine
 10
-2.0
 20
0.0
 30
0.0
 11
-6.55625
 21
0.0
 31
0.0
  0
LINE
  5
294
330
28B
100
AcDbEntity
  8
SLD-0
 62
     0
100
AcDbLine
 10
0.0
 20
-2.0
 30
0.0
 11
0.0
 21
-6.55625
 31
0.0
  0
LINE
  5
295
330
28B
100
AcDbEntity
  8
SLD-0
 62
     0
100
AcDbLine
 10
2.0
 20
0.0
 30
0.0
 11
6.55625
 21
0.0
 31
0.0
  0
ENDBLK
  5
28D
330
28B
100
AcDbEntity
  8
0
100
AcDbBlockEnd
  0
BLOCK
  5
298
330
297
100
AcDbEntity
  8
0
100
AcDbBlockBegin
  2
SW_CENTERMARKSYMBOL_18
 70
     0
 10
0.0
 20
0.0
 30
0.0
  3
SW_CENTERMARKSYMBOL_18
  1

  0
LINE
  5
29A
330
297
100
AcDbEntity
  8
SLD-0
 62
     0
100
AcDbLine
 10
0.0
 20
0.0
 30
0.0
 11
0.0
 21
1.0
 31
0.0
  0
LINE
  5
29B
330
297
100
AcDbEntity
  8
SLD-0
 62
     0
100
AcDbLine
 10
0.0
 20
0.0
 30
0.0
 11
-1.0
 21
0.0
 31
0.0
  0
LINE
  5
29C
330
297
100
AcDbEntity
  8
SLD-0
 62
     0
100
AcDbLine
 10
0.0
 20
0.0
 30
0.0
 11
0.0
 21
-1.0
 31
0.0
  0
LINE
  5
29D
330
297
100
AcDbEntity
  8
SLD-0
 62
     0
100
AcDbLine
 10
0.0
 20
0.0
 30
0.0
 11
1.0
 21
0.0
 31
0.0
  0
LINE
  5
29E
330
297
100
AcDbEntity
  8
SLD-0
 62
     0
100
AcDbLine
 10
0.0
 20
2.0
 30
0.0
 11
0.0
 21
6.55625
 31
0.0
  0
LINE
  5
29F
330
297
100
AcDbEntity
  8
SLD-0
 62
     0
100
AcDbLine
 10
-2.0
 20
0.0
 30
0.0
 11
-6.55625
 21
0.0
 31
0.0
  0
LINE
  5
2A0
330
297
100
AcDbEntity
  8
SLD-0
 62
     0
100
AcDbLine
 10
0.0
 20
-2.0
 30
0.0
 11
0.0
 21
-6.55625
 31
0.0
  0
LINE
  5
2A1
330
297
100
AcDbEntity
  8
SLD-0
 62
     0
100
AcDbLine
 10
2.0
 20
0.0
 30
0.0
 11
6.55625
 21
0.0
 31
0.0
  0
ENDBLK
  5
299
330
297
100
AcDbEntity
  8
0
100
AcDbBlockEnd
  0
BLOCK
  5
2A4
330
2A3
100
AcDbEntity
  8
0
100
AcDbBlockBegin
  2
SW_CENTERMARKSYMBOL_19
 70
     0
 10
0.0
 20
0.0
 30
0.0
  3
SW_CENTERMARKSYMBOL_19
  1

  0
LINE
  5
2A6
330
2A3
100
AcDbEntity
  8
SLD-0
 62
     0
100
AcDbLine
 10
0.0
 20
0.0
 30
0.0
 11
0.0
 21
1.0
 31
0.0
  0
LINE
  5
2A7
330
2A3
100
AcDbEntity
  8
SLD-0
 62
     0
100
AcDbLine
 10
0.0
 20
0.0
 30
0.0
 11
-1.0
 21
0.0
 31
0.0
  0
LINE
  5
2A8
330
2A3
100
AcDbEntity
  8
SLD-0
 62
     0
100
AcDbLine
 10
0.0
 20
0.0
 30
0.0
 11
0.0
 21
-1.0
 31
0.0
  0
LINE
  5
2A9
330
2A3
100
AcDbEntity
  8
SLD-0
 62
     0
100
AcDbLine
 10
0.0
 20
0.0
 30
0.0
 11
1.0
 21
0.0
 31
0.0
  0
LINE
  5
2AA
330
2A3
100
AcDbEntity
  8
SLD-0
 62
     0
100
AcDbLine
 10
0.0
 20
2.0
 30
0.0
 11
0.0
 21
6.55625
 31
0.0
  0
LINE
  5
2AB
330
2A3
100
AcDbEntity
  8
SLD-0
 62
     0
100
AcDbLine
 10
-2.0
 20
0.0
 30
0.0
 11
-6.55625
 21
0.0
 31
0.0
  0
LINE
  5
2AC
330
2A3
100
AcDbEntity
  8
SLD-0
 62
     0
100
AcDbLine
 10
0.0
 20
-2.0
 30
0.0
 11
0.0
 21
-6.55625
 31
0.0
  0
LINE
  5
2AD
330
2A3
100
AcDbEntity
  8
SLD-0
 62
     0
100
AcDbLine
 10
2.0
 20
0.0
 30
0.0
 11
6.55625
 21
0.0
 31
0.0
  0
ENDBLK
  5
2A5
330
2A3
100
AcDbEntity
  8
0
100
AcDbBlockEnd
  0
BLOCK
  5
2B0
330
2AF
100
AcDbEntity
  8
0
100
AcDbBlockBegin
  2
SW_CENTERMARKSYMBOL_20
 70
     0
 10
0.0
 20
0.0
 30
0.0
  3
SW_CENTERMARKSYMBOL_20
  1

  0
LINE
  5
2B2
330
2AF
100
AcDbEntity
  8
SLD-0
 62
     0
100
AcDbLine
 10
0.0
 20
0.0
 30
0.0
 11
0.0
 21
1.0
 31
0.0
  0
LINE
  5
2B3
330
2AF
100
AcDbEntity
  8
SLD-0
 62
     0
100
AcDbLine
 10
0.0
 20
0.0
 30
0.0
 11
-1.0
 21
0.0
 31
0.0
  0
LINE
  5
2B4
330
2AF
100
AcDbEntity
  8
SLD-0
 62
     0
100
AcDbLine
 10
0.0
 20
0.0
 30
0.0
 11
0.0
 21
-1.0
 31
0.0
  0
LINE
  5
2B5
330
2AF
100
AcDbEntity
  8
SLD-0
 62
     0
100
AcDbLine
 10
0.0
 20
0.0
 30
0.0
 11
1.0
 21
0.0
 31
0.0
  0
LINE
  5
2B6
330
2AF
100
AcDbEntity
  8
SLD-0
 62
     0
100
AcDbLine
 10
0.0
 20
2.0
 30
0.0
 11
0.0
 21
4.96875
 31
0.0
  0
LINE
  5
2B7
330
2AF
100
AcDbEntity
  8
SLD-0
 62
     0
100
AcDbLine
 10
-2.0
 20
0.0
 30
0.0
 11
-4.96875
 21
0.0
 31
0.0
  0
LINE
  5
2B8
330
2AF
100
AcDbEntity
  8
SLD-0
 62
     0
100
AcDbLine
 10
0.0
 20
-2.0
 30
0.0
 11
0.0
 21
-4.96875
 31
0.0
  0
LINE
  5
2B9
330
2AF
100
AcDbEntity
  8
SLD-0
 62
     0
100
AcDbLine
 10
2.0
 20
0.0
 30
0.0
 11
4.96875
 21
0.0
 31
0.0
  0
ENDBLK
  5
2B1
330
2AF
100
AcDbEntity
  8
0
100
AcDbBlockEnd
  0
BLOCK
  5
314
330
313
100
AcDbEntity
  8
0
100
AcDbBlockBegin
  2
_D_15
 70
     0
 10
0.0
 20
0.0
 30
0.0
  3
_D_15
  1

  0
SOLID
  5
316
330
313
100
AcDbEntity
  8
SLD-0
 62
     7
100
AcDbTrace
 10
155.6186461033
 20
46.9205809962
 30
0.0
 11
155.3686461033
 21
44.9205809962
 31
0.0
 12
155.8686461033
 22
44.9205809962
 32
0.0
 13
155.8686461033
 23
44.9205809962
 33
0.0
  0
SOLID
  5
317
330
313
100
AcDbEntity
  8
SLD-0
 62
     7
100
AcDbTrace
 10
155.6186461033
 20
38.9205809962
 30
0.0
 11
155.8686461033
 21
40.9205809962
 31
0.0
 12
155.3686461033
 22
40.9205809962
 32
0.0
 13
155.3686461033
 23
40.9205809962
 33
0.0
  0
LINE
  5
318
330
313
100
AcDbEntity
  8
SLD-0
 62
     7
100
AcDbLine
 10
144.9143465546
 20
46.9205809962
 30
0.0
 11
156.6186461033
 21
46.9205809962
 31
0.0
  0
LINE
  5
319
330
313
100
AcDbEntity
  8
SLD-0
 62
     7
100
AcDbLine
 10
144.9143465546
 20
38.9205809962
 30
0.0
 11
156.6186461033
 21
38.9205809962
 31
0.0
  0
LINE
  5
31A
330
313
100
AcDbEntity
  8
SLD-0
 62
     7
100
AcDbLine
 10
155.6186461033
 20
46.9205809962
 30
0.0
 11
155.6186461033
 21
38.9205809962
 31
0.0
  0
MTEXT
  5
31B
330
313
100
AcDbEntity
  8
SLD-0
 62
     7
100
AcDbMText
 10
152.3959769285
 20
41.9657198838
 30
0.0
 40
2.5
 41
0.0
 71
     1
 72
     1
  1
8
  7
SLDTEXTSTYLE0
 11
-7.044195017643634E-15
 21
1.0
 31
0.0
 73
     1
 44
1.0
  0
ENDBLK
  5
315
330
313
100
AcDbEntity
  8
0
100
AcDbBlockEnd
  0
ENDSEC
  0
SECTION
  2
ENTITIES
  0
HATCH
  5
75
330
1F
100
AcDbEntity
  8
DIM
 62
     7
100
AcDbHatch
 10
0.0
 20
0.0
 30
0.0
210
0.0
220
0.0
230
1.0
  2
SOLID
 70
     1
 71
     0
 91
        1
 92
        0
 93
       10
 72
     2
 10
192.1959864308272
 20
35.94109362601509
 40
3.045751395731247
 50
249.211220914341
 51
308.9221353953366
 73
     1
 72
     1
 10
194.1095213920618
 20
33.57149755986121
 11
195.0743410532789
 21
32.72421077621886
 72
     1
 10
195.0743410532789
 20
32.72421077621886
 11
191.8642010801231
 21
29.60717106345646
 72
     1
 10
191.8642010801231
 20
29.60717106345646
 11
190.9234006246292
 21
30.41716813356646
 72
     1
 10
190.9234006246292
 20
30.41716813356646
 11
191.5544525450443
 21
31.03306852403749
 72
     1
 10
191.5544525450443
 20
31.03306852403749
 11
187.5452502348487
 21
34.51767236431217
 72
     2
 10
188.5601916643894
 20
35.66523274007268
 40
1.531992467805808
 50
131.4906380929588
 51
229.7089352075141
 73
     0
 72
     1
 10
187.5694968168739
 20
36.83378938847272
 11
188.8761250717556
 21
38.09537646498024
 72
     1
 10
188.8761250717556
 20
38.09537646498024
 11
189.891318919158
 21
37.19984456416245
 72
     2
 10
191.8645892225307
 20
35.55245187676766
 40
2.570544369711283
 50
140.1430462780655
 51
253.0452525074004
 73
     1
 97
        0
 75
     0
 76
     1
 98
        1
 10
0.0
 20
0.0
  0
HATCH
  5
76
330
1F
100
AcDbEntity
  8
DIM
 62
     1
100
AcDbHatch
 10
0.0
 20
0.0
 30
0.0
210
0.0
220
0.0
230
1.0
  2
SOLID
 70
     1
 71
     0
 91
        1
 92
        0
 93
       10
 72
     2
 10
192.3291518697911
 20
35.18689398731305
 40
3.18163670452787
 50
234.1674444878508
 51
314.440707458399
 73
     0
 72
     2
 10
192.6468081605156
 20
35.72771579279122
 40
2.57756748834625
 50
317.818499299578
 51
398.0564711573081
 73
     0
 72
     1
 10
194.6763940035631
 20
34.13880564344958
 11
195.6618428965459
 21
33.28010870356009
 72
     1
 10
195.6618428965459
 20
33.28010870356009
 11
196.9035242113396
 21
34.4845416459673
 72
     2
 10
196.0101318856775
 20
35.71248837778824
 40
1.518552937418266
 50
306.0377529468126
 51
403.4396461533867
 73
     1
 72
     1
 10
197.1127517503498
 20
36.75663034982637
 11
192.9859958920065
 21
40.34580661846033
 72
     1
 10
192.9859958920065
 20
40.34580661846033
 11
193.6102471939338
 21
40.95486504929765
 72
     1
 10
193.6102471939338
 20
40.95486504929765
 11
192.6797406837497
 21
41.78505726914219
 72
     1
 10
192.6797406837497
 20
41.78505726914219
 11
189.4441552353399
 21
38.65813702252808
 72
     1
 10
189.4441552353399
 20
38.65813702252808
 11
190.4665631126884
 21
37.76634649540728
 97
        0
 75
     0
 76
     1
 98
        1
 10
0.0
 20
0.0
  0
LINE
  5
77
330
1F
100
AcDbEntity
  8
0
  6
Continuous
 62
     7
370
     0
100
AcDbLine
 10
167.8593775185
 20
17.7745192513
 30
0.0
 11
168.8593775185
 21
17.7745192513
 31
0.0
  0
LINE
  5
78
330
1F
100
AcDbEntity
  8
0
  6
Continuous
 62
     7
370
     0
100
AcDbLine
 10
164.8593775185
 20
17.7745192513
 30
0.0
 11
167.3593775185
 21
17.7745192513
 31
0.0
  0
LINE
  5
79
330
1F
100
AcDbEntity
  8
0
  6
Continuous
 62
     7
370
     0
100
AcDbLine
 10
181.3593775185
 20
15.2745192513
 30
0.0
 11
181.3593775185
 21
20.2745192513
 31
0.0
  0
LINE
  5
7A
330
1F
100
AcDbEntity
  8
0
  6
Continuous
 62
     7
370
     0
100
AcDbLine
 10
174.3593775185
 20
16.2745192513
 30
0.0
 11
181.3593775185
 21
15.2745192513
 31
0.0
  0
LINE
  5
7B
330
1F
100
AcDbEntity
  8
0
  6
Continuous
 62
     7
370
     0
100
AcDbLine
 10
168.3593775185
 20
16.7745192513
 30
0.0
 11
168.3593775185
 21
14.2745192513
 31
0.0
  0
LINE
  5
7C
330
1F
100
AcDbEntity
  8
0
  6
Continuous
 62
     7
370
     0
100
AcDbLine
 10
181.3593775185
 20
20.2745192513
 30
0.0
 11
174.3593775185
 21
19.2745192513
 31
0.0
  0
LINE
  5
7D
330
1F
100
AcDbEntity
  8
0
  6
Continuous
 62
     7
370
     0
100
AcDbLine
 10
173.3593775185
 20
17.7745192513
 30
0.0
 11
182.3593775185
 21
17.7745192513
 31
0.0
  0
LINE
  5
7E
330
1F
100
AcDbEntity
  8
0
  6
Continuous
 62
     7
370
     0
100
AcDbLine
 10
168.3593775185
 20
18.2745192513
 30
0.0
 11
168.3593775185
 21
17.2745192513
 31
0.0
  0
LINE
  5
7F
330
1F
100
AcDbEntity
  8
0
  6
Continuous
 62
     7
370
     0
100
AcDbLine
 10
169.3593775185
 20
17.7745192513
 30
0.0
 11
171.8593775185
 21
17.7745192513
 31
0.0
  0
LINE
  5
80
330
1F
100
AcDbEntity
  8
0
  6
Continuous
 62
     7
370
     0
100
AcDbLine
 10
168.3593775185
 20
21.2745192513
 30
0.0
 11
168.3593775185
 21
18.7745192513
 31
0.0
  0
LINE
  5
81
330
1F
100
AcDbEntity
  8
0
  6
Continuous
 62
     7
370
     0
100
AcDbLine
 10
174.3593775185
 20
19.2745192513
 30
0.0
 11
174.3593775185
 21
16.2745192513
 31
0.0
  0
LINE
  5
82
330
1F
100
AcDbEntity
  8
0
370
     0
100
AcDbLine
 10
195.0743410533
 20
32.7242107762
 30
0.0
 11
191.8642010801
 21
29.6071710635
 31
0.0
  0
LINE
  5
83
330
1F
100
AcDbEntity
  8
0
370
     0
100
AcDbLine
 10
191.8642010801
 20
29.6071710635
 30
0.0
 11
190.9234006246
 21
30.4171681336
 31
0.0
  0
LINE
  5
84
330
1F
100
AcDbEntity
  8
0
370
     0
100
AcDbLine
 10
190.9234006246
 20
30.4171681336
 30
0.0
 11
191.554452545
 21
31.033068524
 31
0.0
  0
LINE
  5
85
330
1F
100
AcDbEntity
  8
0
370
     0
100
AcDbLine
 10
187.5452502348
 20
34.5176723643
 30
0.0
 11
191.554452545
 21
31.033068524
 31
0.0
  0
LINE
  5
86
330
1F
100
AcDbEntity
  8
0
370
     0
100
AcDbLine
 10
188.8761250718
 20
38.095376465
 30
0.0
 11
187.5694968169
 21
36.8337893885
 31
0.0
  0
LINE
  5
87
330
1F
100
AcDbEntity
  8
0
370
     0
100
AcDbLine
 10
188.8761250718
 20
38.095376465
 30
0.0
 11
189.8913189192
 21
37.1998445642
 31
0.0
  0
LINE
  5
88
330
1F
100
AcDbEntity
  8
0
370
     0
100
AcDbLine
 10
194.1095213921
 20
33.5714975599
 30
0.0
 11
195.0743410533
 21
32.7242107762
 31
0.0
  0
LINE
  5
89
330
1F
100
AcDbEntity
  8
0
 62
     1
370
     0
100
AcDbLine
 10
190.4665631127
 20
37.7663464954
 30
0.0
 11
189.4441552353
 21
38.6581370225
 31
0.0
  0
LINE
  5
8A
330
1F
100
AcDbEntity
  8
0
 62
     1
370
     0
100
AcDbLine
 10
189.4441552353
 20
38.6581370225
 30
0.0
 11
192.6797406837
 21
41.7850572691
 31
0.0
  0
LINE
  5
8B
330
1F
100
AcDbEntity
  8
0
 62
     1
370
     0
100
AcDbLine
 10
192.6797406837
 20
41.7850572691
 30
0.0
 11
193.6102471939
 21
40.9548650493
 31
0.0
  0
LINE
  5
8C
330
1F
100
AcDbEntity
  8
0
 62
     1
370
     0
100
AcDbLine
 10
193.6102471939
 20
40.9548650493
 30
0.0
 11
192.985995892
 21
40.3458066185
 31
0.0
  0
LINE
  5
8D
330
1F
100
AcDbEntity
  8
0
 62
     1
370
     0
100
AcDbLine
 10
192.985995892
 20
40.3458066185
 30
0.0
 11
197.1127517503
 21
36.7566303498
 31
0.0
  0
LINE
  5
8E
330
1F
100
AcDbEntity
  8
0
 62
     1
370
     0
100
AcDbLine
 10
194.6763940036
 20
34.1388056434
 30
0.0
 11
195.6618428965
 21
33.2801087036
 31
0.0
  0
LINE
  5
8F
330
1F
100
AcDbEntity
  8
0
 62
     1
370
     0
100
AcDbLine
 10
195.6618428965
 20
33.2801087036
 30
0.0
 11
196.9035242113
 21
34.484541646
 31
0.0
  0
LINE
  5
90
330
1F
100
AcDbEntity
  8
0
  6
Continuous
 62
     7
370
     0
100
AcDbLine
 10
185.6907965209
 20
13.1152464079
 30
0.0
 11
285.6907965209
 21
13.1152464079
 31
0.0
  0
LINE
  5
91
330
1F
100
AcDbEntity
  8
0
  6
Continuous
 62
     7
370
     0
100
AcDbLine
 10
185.6907965209
 20
18.1152464079
 30
0.0
 11
235.6907965209
 21
18.1152464079
 31
0.0
  0
LINE
  5
92
330
1F
100
AcDbEntity
  8
0
  6
Continuous
 62
     7
370
     0
100
AcDbLine
 10
185.6907965209
 20
23.1152464079
 30
0.0
 11
235.6907965209
 21
23.1152464079
 31
0.0
  0
LINE
  5
93
330
1F
100
AcDbEntity
  8
0
  6
Continuous
 62
     7
370
     0
100
AcDbLine
 10
185.6907965209
 20
28.1152464079
 30
0.0
 11
285.6907965209
 21
28.1152464079
 31
0.0
  0
LINE
  5
94
330
1F
100
AcDbEntity
  8
0
  6
Continuous
 62
     7
370
     0
100
AcDbLine
 10
235.6907965209
 20
33.1152464079
 30
0.0
 11
285.6907965209
 21
33.1152464079
 31
0.0
  0
LINE
  5
95
330
1F
100
AcDbEntity
  8
0
  6
Continuous
 62
     7
370
    15
100
AcDbLine
 10
235.6907965209
 20
18.1152464079
 30
0.0
 11
285.6907965209
 21
18.1152464079
 31
0.0
  0
LINE
  5
96
330
1F
100
AcDbEntity
  8
0
  6
Continuous
 62
     7
370
     0
100
AcDbLine
 10
185.6907965209
 20
43.1152464079
 30
0.0
 11
285.6907965209
 21
43.1152464079
 31
0.0
  0
LINE
  5
97
330
1F
100
AcDbEntity
  8
0
  6
Continuous
 62
     7
370
     0
100
AcDbLine
 10
251.237217675
 20
8.1152464079
 30
0.0
 11
251.237217675
 21
18.1152464079
 31
0.0
  0
LINE
  5
98
330
1F
100
AcDbEntity
  8
0
  6
Continuous
 62
     7
370
     0
100
AcDbLine
 10
235.6907965209
 20
8.1152464079
 30
0.0
 11
235.6907965209
 21
43.1152464079
 31
0.0
  0
LINE
  5
99
330
1F
100
AcDbEntity
  8
0
  6
Continuous
 62
     7
370
     0
100
AcDbLine
 10
251.237217675
 20
28.1152464079
 30
0.0
 11
251.237217675
 21
33.1152464079
 31
0.0
  0
LINE
  5
9A
330
1F
100
AcDbEntity
  8
0
  6
Continuous
 62
     7
370
     0
100
AcDbLine
 10
214.4164086353
 20
8.1152464079
 30
0.0
 11
214.4164086353
 21
28.1152464079
 31
0.0
  0
LINE
  5
9B
330
1F
100
AcDbEntity
  8
0
  6
Continuous
 62
     7
370
     0
100
AcDbLine
 10
199.7785887506
 20
8.1152464079
 30
0.0
 11
199.7785887506
 21
28.1152464079
 31
0.0
  0
LINE
  5
9C
330
1F
100
AcDbEntity
  8
0
  6
Continuous
 62
     7
370
     0
100
AcDbLine
 10
185.6907965209
 20
8.1152464079
 30
0.0
 11
185.6907965209
 21
43.1152464079
 31
0.0
  0
LINE
  5
9D
330
1F
100
AcDbEntity
  8
0
  6
Continuous
 62
     7
370
    15
100
AcDbLine
 10
8.6907965209
 20
104.7436369915
 30
0.0
 11
14.6907965209
 21
104.7436369915
 31
0.0
  0
LINE
  5
9E
330
1F
100
AcDbEntity
  8
0
  6
Continuous
 62
     7
370
    15
100
AcDbLine
 10
285.6907965209
 20
104.7436369915
 30
0.0
 11
279.6907965209
 21
104.7436369915
 31
0.0
  0
LINE
  5
9F
330
1F
100
AcDbEntity
  8
0
  6
Continuous
 62
     7
370
    15
100
AcDbLine
 10
147.1907965209
 20
8.1152464079
 30
0.0
 11
147.1907965209
 21
14.1152464079
 31
0.0
  0
LINE
  5
A0
330
1F
100
AcDbEntity
  8
0
  6
Continuous
 62
     7
370
    15
100
AcDbLine
 10
147.1907965209
 20
201.3720275751
 30
0.0
 11
147.1907965209
 21
195.3720275751
 31
0.0
  0
LINE
  5
A1
330
1F
100
AcDbEntity
  8
0
  6
Continuous
 62
     7
370
    15
100
AcDbLine
 10
43.3207965209
 20
201.3720275751
 30
0.0
 11
43.3207965209
 21
202.8720275751
 31
0.0
  0
LINE
  5
A2
330
1F
100
AcDbEntity
  8
0
  6
Continuous
 62
     7
370
    15
100
AcDbLine
 10
77.9507965209
 20
201.3720275751
 30
0.0
 11
77.9507965209
 21
202.8720275751
 31
0.0
  0
LINE
  5
A3
330
1F
100
AcDbEntity
  8
0
  6
Continuous
 62
     7
370
    15
100
AcDbLine
 10
112.5807965209
 20
201.3720275751
 30
0.0
 11
112.5807965209
 21
202.8720275751
 31
0.0
  0
LINE
  5
A4
330
1F
100
AcDbEntity
  8
0
  6
Continuous
 62
     7
370
    15
100
AcDbLine
 10
147.2107965209
 20
201.3720275751
 30
0.0
 11
147.2107965209
 21
202.8720275751
 31
0.0
  0
LINE
  5
A5
330
1F
100
AcDbEntity
  8
0
  6
Continuous
 62
     7
370
    15
100
AcDbLine
 10
181.8407965209
 20
201.3720275751
 30
0.0
 11
181.8407965209
 21
202.8720275751
 31
0.0
  0
LINE
  5
A6
330
1F
100
AcDbEntity
  8
0
  6
Continuous
 62
     7
370
    15
100
AcDbLine
 10
216.4707965209
 20
201.3720275751
 30
0.0
 11
216.4707965209
 21
202.8720275751
 31
0.0
  0
LINE
  5
A7
330
1F
100
AcDbEntity
  8
0
  6
Continuous
 62
     7
370
    15
100
AcDbLine
 10
251.1007965209
 20
201.3720275751
 30
0.0
 11
251.1007965209
 21
202.8720275751
 31
0.0
  0
LINE
  5
A8
330
1F
100
AcDbEntity
  8
0
  6
Continuous
 62
     7
370
    15
100
AcDbLine
 10
43.3157965209
 20
8.1152464079
 30
0.0
 11
43.3157965209
 21
6.6152464079
 31
0.0
  0
LINE
  5
A9
330
1F
100
AcDbEntity
  8
0
  6
Continuous
 62
     7
370
    15
100
AcDbLine
 10
77.9407965209
 20
8.1152464079
 30
0.0
 11
77.9407965209
 21
6.6152464079
 31
0.0
  0
LINE
  5
AA
330
1F
100
AcDbEntity
  8
0
  6
Continuous
 62
     7
370
    15
100
AcDbLine
 10
112.5657965209
 20
8.1152464079
 30
0.0
 11
112.5657965209
 21
6.6152464079
 31
0.0
  0
LINE
  5
AB
330
1F
100
AcDbEntity
  8
0
  6
Continuous
 62
     7
370
    15
100
AcDbLine
 10
147.1907965209
 20
8.1152464079
 30
0.0
 11
147.1907965209
 21
6.6152464079
 31
0.0
  0
LINE
  5
AC
330
1F
100
AcDbEntity
  8
0
  6
Continuous
 62
     7
370
    15
100
AcDbLine
 10
181.8157965209
 20
8.1152464079
 30
0.0
 11
181.8157965209
 21
6.6152464079
 31
0.0
  0
LINE
  5
AD
330
1F
100
AcDbEntity
  8
0
  6
Continuous
 62
     7
370
    15
100
AcDbLine
 10
216.4407965209
 20
8.1152464079
 30
0.0
 11
216.4407965209
 21
6.6152464079
 31
0.0
  0
LINE
  5
AE
330
1F
100
AcDbEntity
  8
0
  6
Continuous
 62
     7
370
     0
100
AcDbLine
 10
285.6907965209
 20
201.3720275751
 30
0.0
 11
8.6907965209
 21
201.3720275751
 31
0.0
  0
LINE
  5
AF
330
1F
100
AcDbEntity
  8
0
  6
Continuous
 62
     7
370
     0
100
AcDbLine
 10
285.6907965209
 20
8.1152464079
 30
0.0
 11
285.6907965209
 21
201.3720275751
 31
0.0
  0
LINE
  5
B0
330
1F
100
AcDbEntity
  8
0
  6
Continuous
 62
     7
370
     0
100
AcDbLine
 10
8.6907965209
 20
201.3720275751
 30
0.0
 11
8.6907965209
 21
8.1152464079
 31
0.0
  0
LINE
  5
B1
330
1F
100
AcDbEntity
  8
0
  6
Continuous
 62
     7
370
     0
100
AcDbLine
 10
8.6907965209
 20
8.1152464079
 30
0.0
 11
285.6907965209
 21
8.1152464079
 31
0.0
  0
LINE
  5
B2
330
1F
100
AcDbEntity
  8
0
  6
Continuous
 62
     7
370
    15
100
AcDbLine
 10
251.0657965209
 20
8.1152464079
 30
0.0
 11
251.0657965209
 21
6.6152464079
 31
0.0
  0
LINE
  5
B3
330
1F
100
AcDbEntity
  8
0
  6
Continuous
 62
     7
370
    15
100
AcDbLine
 10
8.6907965209
 20
40.3252464079
 30
0.0
 11
7.1907965209
 21
40.3252464079
 31
0.0
  0
LINE
  5
B4
330
1F
100
AcDbEntity
  8
0
  6
Continuous
 62
     7
370
    15
100
AcDbLine
 10
8.6907965209
 20
72.5352464079
 30
0.0
 11
7.1907965209
 21
72.5352464079
 31
0.0
  0
LINE
  5
B5
330
1F
100
AcDbEntity
  8
0
  6
Continuous
 62
     7
370
    15
100
AcDbLine
 10
8.6907965209
 20
104.7452464079
 30
0.0
 11
7.1907965209
 21
104.7452464079
 31
0.0
  0
LINE
  5
B6
330
1F
100
AcDbEntity
  8
0
  6
Continuous
 62
     7
370
    15
100
AcDbLine
 10
8.6907965209
 20
136.9552464079
 30
0.0
 11
7.1907965209
 21
136.9552464079
 31
0.0
  0
LINE
  5
B7
330
1F
100
AcDbEntity
  8
0
  6
Continuous
 62
     7
370
    15
100
AcDbLine
 10
8.6907965209
 20
169.1652464079
 30
0.0
 11
7.1907965209
 21
169.1652464079
 31
0.0
  0
LINE
  5
B8
330
1F
100
AcDbEntity
  8
0
  6
Continuous
 62
     7
370
    15
100
AcDbLine
 10
285.6907965209
 20
40.3252464079
 30
0.0
 11
287.1907965209
 21
40.3252464079
 31
0.0
  0
LINE
  5
B9
330
1F
100
AcDbEntity
  8
0
  6
Continuous
 62
     7
370
    15
100
AcDbLine
 10
285.6907965209
 20
72.5352464079
 30
0.0
 11
287.1907965209
 21
72.5352464079
 31
0.0
  0
LINE
  5
BA
330
1F
100
AcDbEntity
  8
0
  6
Continuous
 62
     7
370
    15
100
AcDbLine
 10
285.6907965209
 20
104.7452464079
 30
0.0
 11
287.1907965209
 21
104.7452464079
 31
0.0
  0
LINE
  5
BB
330
1F
100
AcDbEntity
  8
0
  6
Continuous
 62
     7
370
    15
100
AcDbLine
 10
285.6907965209
 20
136.9552464079
 30
0.0
 11
287.1907965209
 21
136.9552464079
 31
0.0
  0
LINE
  5
BC
330
1F
100
AcDbEntity
  8
0
  6
Continuous
 62
     7
370
    15
100
AcDbLine
 10
285.6907965209
 20
169.1652464079
 30
0.0
 11
287.1907965209
 21
169.1652464079
 31
0.0
  0
CIRCLE
  5
BD
330
1F
100
AcDbEntity
  8
0
  6
Continuous
 62
     7
370
     0
100
AcDbCircle
 10
168.3593775185
 20
17.7745192513
 30
0.0
 40
1.5
  0
CIRCLE
  5
BE
330
1F
100
AcDbEntity
  8
0
  6
Continuous
 62
     7
370
     0
100
AcDbCircle
 10
168.3593775185
 20
17.7745192513
 30
0.0
 40
2.5
  0
ARC
  5
BF
330
1F
100
AcDbEntity
  8
0
370
     0
100
AcDbCircle
 10
188.5601916644
 20
35.6652327401
 30
0.0
 40
1.531992467805807
100
AcDbArc
 50
130.2910647925
 51
228.509361907
  0
ARC
  5
C0
330
1F
100
AcDbEntity
  8
0
370
     0
100
AcDbCircle
 10
191.8645892225
 20
35.5524518768
 30
0.0
 40
2.570544369711287
100
AcDbArc
 50
140.1430462781
 51
253.0452525074
  0
ARC
  5
C1
330
1F
100
AcDbEntity
  8
0
370
     0
100
AcDbCircle
 10
192.1959864308
 20
35.941093626
 30
0.0
 40
3.045751395731247
100
AcDbArc
 50
249.2112209143
 51
308.9221353953
  0
ARC
  5
C2
330
1F
100
AcDbEntity
  8
0
 62
     1
370
     0
100
AcDbCircle
 10
196.0101318857
 20
35.7124883778
 30
0.0
 40
1.51855293741827
100
AcDbArc
 50
306.0377529468
 51
43.4396461534
  0
ARC
  5
C3
330
1F
100
AcDbEntity
  8
0
 62
     1
370
     0
100
AcDbCircle
 10
192.3291518698
 20
35.1868939873
 30
0.0
 40
3.18163670452787
100
AcDbArc
 50
45.5592925416
 51
125.8325555121
  0
ARC
  5
C4
330
1F
100
AcDbEntity
  8
0
 62
     1
370
     0
100
AcDbCircle
 10
192.6468081605
 20
35.7277157928
 30
0.0
 40
2.57756748834625
100
AcDbArc
 50
321.9435288427
 51
42.1815007004
  0
MTEXT
  5
C6
330
1F
100
AcDbEntity
  8
0
  6
Continuous
 62
     7
370
     0
100
AcDbMText
 10
165.5426850804
 20
13.2208440369
 30
0.0
 40
2.6458333333
 41
0.0
 71
     1
 72
     1
  1
UNIT:m/m
  7
SLDTEXTSTYLE0
 73
     1
 44
1.0
  0
INSERT
  5
CD
330
1F
100
AcDbEntity
  8
0
  6
Continuous
 62
     7
370
     0
100
AcDbBlockReference
  2
SW_NOTE_0
 10
12.2315076053
 20
193.8904304251
 30
0.0
  0
MTEXT
  5
CF
330
1F
100
AcDbEntity
  8
0
  6
Continuous
 62
     7
370
     0
100
AcDbMText
 10
198.7251893935
 20
40.4406774139
 30
0.0
 40
2.38125
 41
0.0
 71
     1
 72
     1
  1
Unice E-O Services Inc.
  7
SLDTEXTSTYLE1
 73
     1
 44
1.0
  0
MTEXT
  5
D0
330
1F
100
AcDbEntity
  8
0
  6
Continuous
 62
     7
370
     0
100
AcDbMText
 10
219.1181900715
 20
21.5867148511
 30
0.0
 40
1.8520833333
 41
0.0
 71
     1
 72
     1
  1
2016/03/08
  7
SLDTEXTSTYLE0
 73
     1
 44
1.0
  0
MTEXT
  5
D1
330
1F
100
AcDbEntity
  8
0
  6
Continuous
 62
     7
370
     0
100
AcDbMText
 10
252.6088982507
 20
16.87117774
 30
0.0
 40
2.5
 41
0.0
 71
     1
 72
     1
  1
1:1
  7
SLDTEXTSTYLE0
 73
     1
 44
1.0
  0
MTEXT
  5
D2
330
1F
100
AcDbEntity
  8
0
  6
Continuous
 62
     7
370
     0
100
AcDbMText
 10
252.3075599985
 20
32.1519195438
 30
0.0
 40
2.5
 41
0.0
 71
     1
 72
     1
  1
06UAP-3
  7
SLDTEXTSTYLE0
 73
     1
 44
1.0
  0
MTEXT
  5
D3
330
1F
100
AcDbEntity
  8
0
  6
Continuous
 62
     7
370
     0
100
AcDbMText
 10
252.3075599985
 20
38.1082117879
 30
0.0
 40
2.5
 41
0.0
 71
     1
 72
     1
  1
06UAP-3
  7
SLDTEXTSTYLE0
 73
     1
 44
1.0
  0
MTEXT
  5
D4
330
1F
100
AcDbEntity
  8
0
  6
Continuous
 62
     7
370
     0
100
AcDbMText
 10
236.3921866786
 20
16.5064795728
 30
0.0
 40
2.1166666667
 41
0.0
 71
     1
 72
     1
  1
SCALE:
  7
SLDTEXTSTYLE0
 73
     1
 44
1.0
  0
MTEXT
  5
D5
330
1F
100
AcDbEntity
  8
0
  6
Continuous
 62
     7
370
     0
100
AcDbMText
 10
186.3336086789
 20
21.5867148511
 30
0.0
 40
1.8520833333
 41
0.0
 71
     1
 72
     1
  1
DRAWN
  7
SLDTEXTSTYLE0
 73
     1
 44
1.0
  0
MTEXT
  5
D6
330
1F
100
AcDbEntity
  8
0
  6
Continuous
 62
     7
370
     0
100
AcDbMText
 10
203.2228367937
 20
26.683208308
 30
0.0
 40
1.8520833333
 41
0.0
 71
     1
 72
     1
  1
NAME
  7
SLDTEXTSTYLE0
 73
     1
 44
1.0
  0
MTEXT
  5
D7
330
1F
100
AcDbEntity
  8
0
  6
Continuous
 62
     7
370
     0
100
AcDbMText
 10
220.8710155758
 20
26.683208308
 30
0.0
 40
1.8520833333
 41
0.0
 71
     1
 72
     1
  1
DATE
  7
SLDTEXTSTYLE0
 73
     1
 44
1.0
  0
MTEXT
  5
D8
330
1F
100
AcDbEntity
  8
0
  6
Continuous
 62
     7
370
     0
100
AcDbMText
 10
236.2756316645
 20
31.7872213766
 30
0.0
 40
2.1166666667
 41
0.0
 71
     1
 72
     1
  1
DWG. NO.
  7
SLDTEXTSTYLE0
 73
     1
 44
1.0
  0
MTEXT
  5
D9
330
1F
100
AcDbEntity
  8
0
  6
Continuous
 62
     7
370
     0
100
AcDbMText
 10
236.3629907088
 20
41.8840658243
 30
0.0
 40
2.1166666667
 41
0.0
 71
     1
 72
     1
  1
TITLE:
  7
SLDTEXTSTYLE0
 73
     1
 44
1.0
  0
MTEXT
  5
DA
330
1F
100
AcDbEntity
  8
0
  6
Continuous
 62
     7
370
     0
100
AcDbMText
 10
203.0314209802
 20
16.2403789724
 30
0.0
 40
1.8520833333
 41
0.0
 71
     1
 72
     1
  1
Johnny
  7
SLDTEXTSTYLE0
 73
     1
 44
1.0
  0
MTEXT
  5
DB
330
1F
100
AcDbEntity
  8
0
  6
Continuous
 62
     7
370
     0
100
AcDbMText
 10
186.3336086789
 20
16.2403789724
 30
0.0
 40
1.8520833333
 41
0.0
 71
     1
 72
     1
  1
ENG APPR.
  7
SLDTEXTSTYLE0
 73
     1
 44
1.0
  0
MTEXT
  5
DC
330
1F
100
AcDbEntity
  8
0
  6
Continuous
 62
     7
370
     0
100
AcDbMText
 10
236.3921866786
 20
11.6853389288
 30
0.0
 40
2.1166666667
 41
0.0
 71
     1
 72
     1
  1
REV
  7
SLDTEXTSTYLE0
 73
     1
 44
1.0
  0
MTEXT
  5
DD
330
1F
100
AcDbEntity
  8
0
  6
Continuous
 62
     7
370
     0
100
AcDbMText
 10
236.3629907088
 20
26.9493089085
 30
0.0
 40
2.1166666667
 41
0.0
 71
     1
 72
     1
  1
MATERIAL:
  7
SLDTEXTSTYLE0
 73
     1
 44
1.0
  0
MTEXT
  5
DE
330
1F
100
AcDbEntity
  8
0
  6
Continuous
 62
     7
370
     0
100
AcDbMText
 10
252.6088982507
 20
22.2175136187
 30
0.0
 40
2.5
 41
0.0
 71
     1
 72
     1
  1
N/A
  7
SLDTEXTSTYLE0
 73
     1
 44
1.0
  0
MTEXT
  5
DF
330
1F
100
AcDbEntity
  8
0
  6
Continuous
 62
     7
370
     0
100
AcDbMText
 10
26.6029931533
 20
204.453351657
 30
0.0
 40
2.1166666667
 41
0.0
 71
     1
 72
     1
  1
1
  7
SLDTEXTSTYLE0
 73
     1
 44
1.0
  0
MTEXT
  5
E0
330
1F
100
AcDbEntity
  8
0
  6
Continuous
 62
     7
370
     0
100
AcDbMText
 10
60.7170995724
 20
204.453351657
 30
0.0
 40
2.1166666667
 41
0.0
 71
     1
 72
     1
  1
2
  7
SLDTEXTSTYLE0
 73
     1
 44
1.0
  0
MTEXT
  5
E1
330
1F
100
AcDbEntity
  8
0
  6
Continuous
 62
     7
370
     0
100
AcDbMText
 10
94.9009943906
 20
204.453351657
 30
0.0
 40
2.1166666667
 41
0.0
 71
     1
 72
     1
  1
3
  7
SLDTEXTSTYLE0
 73
     1
 44
1.0
  0
MTEXT
  5
E2
330
1F
100
AcDbEntity
  8
0
  6
Continuous
 62
     7
370
     0
100
AcDbMText
 10
129.2533362851
 20
204.2992584364
 30
0.0
 40
2.1166666667
 41
0.0
 71
     1
 72
     1
  1
4
  7
SLDTEXTSTYLE0
 73
     1
 44
1.0
  0
MTEXT
  5
E3
330
1F
100
AcDbEntity
  8
0
  6
Continuous
 62
     7
370
     0
100
AcDbMText
 10
163.702323464
 20
204.453351657
 30
0.0
 40
2.1166666667
 41
0.0
 71
     1
 72
     1
  1
5
  7
SLDTEXTSTYLE0
 73
     1
 44
1.0
  0
MTEXT
  5
E4
330
1F
100
AcDbEntity
  8
0
  6
Continuous
 62
     7
370
     0
100
AcDbMText
 10
198.6382170415
 20
204.453351657
 30
0.0
 40
2.1166666667
 41
0.0
 71
     1
 72
     1
  1
6
  7
SLDTEXTSTYLE0
 73
     1
 44
1.0
  0
MTEXT
  5
E5
330
1F
100
AcDbEntity
  8
0
  6
Continuous
 62
     7
370
     0
100
AcDbMText
 10
234.3630657407
 20
204.453351657
 30
0.0
 40
2.1166666667
 41
0.0
 71
     1
 72
     1
  1
7
  7
SLDTEXTSTYLE0
 73
     1
 44
1.0
  0
MTEXT
  5
E6
330
1F
100
AcDbEntity
  8
0
  6
Continuous
 62
     7
370
     0
100
AcDbMText
 10
266.2787820494
 20
204.453351657
 30
0.0
 40
2.1166666667
 41
0.0
 71
     1
 72
     1
  1
8
  7
SLDTEXTSTYLE0
 73
     1
 44
1.0
  0
MTEXT
  5
E7
330
1F
100
AcDbEntity
  8
0
  6
Continuous
 62
     7
370
     0
100
AcDbMText
 10
5.3568236555
 20
185.8113022879
 30
0.0
 40
2.1166666667
 41
0.0
 71
     1
 72
     1
  1
A
  7
SLDTEXTSTYLE0
 73
     1
 44
1.0
  0
MTEXT
  5
E8
330
1F
100
AcDbEntity
  8
0
  6
Continuous
 62
     7
370
     0
100
AcDbMText
 10
5.5910431831
 20
154.2993048238
 30
0.0
 40
2.1166666667
 41
0.0
 71
     1
 72
     1
  1
B
  7
SLDTEXTSTYLE0
 73
     1
 44
1.0
  0
MTEXT
  5
E9
330
1F
100
AcDbEntity
  8
0
  6
Continuous
 62
     7
370
     0
100
AcDbMText
 10
5.5910431831
 20
121.274351423
 30
0.0
 40
2.1166666667
 41
0.0
 71
     1
 72
     1
  1
C
  7
SLDTEXTSTYLE0
 73
     1
 44
1.0
  0
MTEXT
  5
EA
330
1F
100
AcDbEntity
  8
0
  6
Continuous
 62
     7
370
     0
100
AcDbMText
 10
5.5910431831
 20
88.7453220221
 30
0.0
 40
2.1166666667
 41
0.0
 71
     1
 72
     1
  1
D
  7
SLDTEXTSTYLE0
 73
     1
 44
1.0
  0
MTEXT
  5
EB
330
1F
100
AcDbEntity
  8
0
  6
Continuous
 62
     7
370
     0
100
AcDbMText
 10
5.5910431831
 20
57.5558849197
 30
0.0
 40
2.1166666667
 41
0.0
 71
     1
 72
     1
  1
E
  7
SLDTEXTSTYLE0
 73
     1
 44
1.0
  0
MTEXT
  5
EC
330
1F
100
AcDbEntity
  8
0
  6
Continuous
 62
     7
370
     0
100
AcDbMText
 10
5.5910431831
 20
25.5694212252
 30
0.0
 40
2.1166666667
 41
0.0
 71
     1
 72
     1
  1
F
  7
SLDTEXTSTYLE0
 73
     1
 44
1.0
  0
MTEXT
  5
ED
330
1F
100
AcDbEntity
  8
0
  6
Continuous
 62
     7
370
     0
100
AcDbMText
 10
266.1858616964
 20
6.6236223963
 30
0.0
 40
2.1166666667
 41
0.0
 71
     1
 72
     1
  1
8
  7
SLDTEXTSTYLE0
 73
     1
 44
1.0
  0
MTEXT
  5
EE
330
1F
100
AcDbEntity
  8
0
  6
Continuous
 62
     7
370
     0
100
AcDbMText
 10
234.2701453876
 20
6.6236223963
 30
0.0
 40
2.1166666667
 41
0.0
 71
     1
 72
     1
  1
7
  7
SLDTEXTSTYLE0
 73
     1
 44
1.0
  0
MTEXT
  5
EF
330
1F
100
AcDbEntity
  8
0
  6
Continuous
 62
     7
370
     0
100
AcDbMText
 10
198.5452966885
 20
6.6236223963
 30
0.0
 40
2.1166666667
 41
0.0
 71
     1
 72
     1
  1
6
  7
SLDTEXTSTYLE0
 73
     1
 44
1.0
  0
MTEXT
  5
F0
330
1F
100
AcDbEntity
  8
0
  6
Continuous
 62
     7
370
     0
100
AcDbMText
 10
163.6094031109
 20
6.6236223963
 30
0.0
 40
2.1166666667
 41
0.0
 71
     1
 72
     1
  1
5
  7
SLDTEXTSTYLE0
 73
     1
 44
1.0
  0
MTEXT
  5
F1
330
1F
100
AcDbEntity
  8
0
  6
Continuous
 62
     7
370
     0
100
AcDbMText
 10
129.1604159321
 20
6.4695291758
 30
0.0
 40
2.1166666667
 41
0.0
 71
     1
 72
     1
  1
4
  7
SLDTEXTSTYLE0
 73
     1
 44
1.0
  0
MTEXT
  5
F2
330
1F
100
AcDbEntity
  8
0
  6
Continuous
 62
     7
370
     0
100
AcDbMText
 10
94.8080740376
 20
6.6236223963
 30
0.0
 40
2.1166666667
 41
0.0
 71
     1
 72
     1
  1
3
  7
SLDTEXTSTYLE0
 73
     1
 44
1.0
  0
MTEXT
  5
F3
330
1F
100
AcDbEntity
  8
0
  6
Continuous
 62
     7
370
     0
100
AcDbMText
 10
60.6241792194
 20
6.6236223963
 30
0.0
 40
2.1166666667
 41
0.0
 71
     1
 72
     1
  1
2
  7
SLDTEXTSTYLE0
 73
     1
 44
1.0
  0
MTEXT
  5
F4
330
1F
100
AcDbEntity
  8
0
  6
Continuous
 62
     7
370
     0
100
AcDbMText
 10
26.5100728003
 20
6.6236223963
 30
0.0
 40
2.1166666667
 41
0.0
 71
     1
 72
     1
  1
1
  7
SLDTEXTSTYLE0
 73
     1
 44
1.0
  0
MTEXT
  5
F5
330
1F
100
AcDbEntity
  8
0
  6
Continuous
 62
     7
370
     0
100
AcDbMText
 10
287.1023846145
 20
186.6424909092
 30
0.0
 40
2.1166666667
 41
0.0
 71
     1
 72
     1
  1
A
  7
SLDTEXTSTYLE0
 73
     1
 44
1.0
  0
MTEXT
  5
F6
330
1F
100
AcDbEntity
  8
0
  6
Continuous
 62
     7
370
     0
100
AcDbMText
 10
287.3366041421
 20
155.1304934451
 30
0.0
 40
2.1166666667
 41
0.0
 71
     1
 72
     1
  1
B
  7
SLDTEXTSTYLE0
 73
     1
 44
1.0
  0
MTEXT
  5
F7
330
1F
100
AcDbEntity
  8
0
  6
Continuous
 62
     7
370
     0
100
AcDbMText
 10
287.3366041421
 20
122.1055400442
 30
0.0
 40
2.1166666667
 41
0.0
 71
     1
 72
     1
  1
C
  7
SLDTEXTSTYLE0
 73
     1
 44
1.0
  0
MTEXT
  5
F8
330
1F
100
AcDbEntity
  8
0
  6
Continuous
 62
     7
370
     0
100
AcDbMText
 10
287.3366041421
 20
89.5765106433
 30
0.0
 40
2.1166666667
 41
0.0
 71
     1
 72
     1
  1
D
  7
SLDTEXTSTYLE0
 73
     1
 44
1.0
  0
MTEXT
  5
F9
330
1F
100
AcDbEntity
  8
0
  6
Continuous
 62
     7
370
     0
100
AcDbMText
 10
287.3366041421
 20
58.3870735409
 30
0.0
 40
2.1166666667
 41
0.0
 71
     1
 72
     1
  1
E
  7
SLDTEXTSTYLE0
 73
     1
 44
1.0
  0
MTEXT
  5
FA
330
1F
100
AcDbEntity
  8
0
  6
Continuous
 62
     7
370
     0
100
AcDbMText
 10
287.3366041421
 20
26.4006098464
 30
0.0
 40
2.1166666667
 41
0.0
 71
     1
 72
     1
  1
F
  7
SLDTEXTSTYLE0
 73
     1
 44
1.0
  0
MTEXT
  5
FB
330
1F
100
AcDbEntity
  8
0
  6
Continuous
 62
     7
370
     0
100
AcDbMText
 10
203.1553128802
 20
21.5867148511
 30
0.0
 40
1.8520833333
 41
0.0
 71
     1
 72
     1
  1
Sammy
  7
SLDTEXTSTYLE0
 73
     1
 44
1.0
  0
MTEXT
  5
FC
330
1F
100
AcDbEntity
  8
0
  6
Continuous
 62
     7
370
     0
100
AcDbMText
 10
252.8482239645
 20
12.0500370959
 30
0.0
 40
2.5
 41
0.0
 71
     1
 72
     1
  1
0
  7
SLDTEXTSTYLE0
 73
     1
 44
1.0
  0
INSERT
  5
102
330
1F
100
AcDbEntity
  8
SLD-0
 62
     7
100
AcDbBlockReference
  2
SW_NOTE_1
 10
198.7251893935
 20
32.965327525
 30
0.0
  0
MTEXT
  5
103
330
1F
100
AcDbEntity
  8
SLD-0
 62
     7
100
AcDbMText
 10
219.1181900715
 20
16.2403789724
 30
0.0
 40
1.8520833333
 41
0.0
 71
     1
 72
     1
  1
2016/03/08
  7
SLDTEXTSTYLE0
 73
     1
 44
1.0
  0
ARC
  5
104
330
1F
100
AcDbEntity
  8
0
  6
Continuous
 62
     7
370
    30
100
AcDbCircle
 10
140.9143465546
 20
75.5479755578
 30
0.0
 40
3.0
100
AcDbArc
 50
270.0
 51
0.0
  0
ARC
  5
105
330
1F
100
AcDbEntity
  8
0
  6
Continuous
 62
     7
370
    30
100
AcDbCircle
 10
58.9143465546
 20
75.5479755578
 30
0.0
 40
3.000000000000007
100
AcDbArc
 50
180.0
 51
270.0
  0
ARC
  5
106
330
1F
100
AcDbEntity
  8
0
  6
Continuous
 62
     7
370
    30
100
AcDbCircle
 10
58.9143465546
 20
138.5479755578
 30
0.0
 40
3.000000000000028
100
AcDbArc
 50
90.0
 51
180.0
  0
ARC
  5
107
330
1F
100
AcDbEntity
  8
0
  6
Continuous
 62
     7
370
    30
100
AcDbCircle
 10
140.9143465546
 20
138.5479755578
 30
0.0
 40
3.000000000000028
100
AcDbArc
 50
0.0
 51
90.0
  0
CIRCLE
  5
108
330
1F
100
AcDbEntity
  8
0
  6
Continuous
 62
     7
370
    30
100
AcDbCircle
 10
125.3143465546
 20
132.4479755578
 30
0.0
 40
2.552699999999987
  0
CIRCLE
  5
109
330
1F
100
AcDbEntity
  8
0
  6
Continuous
 62
     7
370
    30
100
AcDbCircle
 10
125.3143465546
 20
81.6479755578
 30
0.0
 40
2.552700000000002
  0
CIRCLE
  5
10A
330
1F
100
AcDbEntity
  8
0
  6
Continuous
 62
     7
370
    30
100
AcDbCircle
 10
74.5143465546
 20
81.6479755578
 30
0.0
 40
2.552700000000002
  0
CIRCLE
  5
10B
330
1F
100
AcDbEntity
  8
0
  6
Continuous
 62
     7
370
    30
100
AcDbCircle
 10
74.5143465546
 20
132.4479755578
 30
0.0
 40
2.552699999999987
  0
CIRCLE
  5
10C
330
1F
100
AcDbEntity
  8
0
  6
Continuous
 62
     7
370
    30
100
AcDbCircle
 10
125.3143465546
 20
119.7479755578
 30
0.0
 40
2.552699999999987
  0
CIRCLE
  5
10D
330
1F
100
AcDbEntity
  8
0
  6
Continuous
 62
     7
370
    30
100
AcDbCircle
 10
74.5143465546
 20
119.7479755578
 30
0.0
 40
2.552700000000002
  0
CIRCLE
  5
10E
330
1F
100
AcDbEntity
  8
0
  6
Continuous
 62
     7
370
    30
100
AcDbCircle
 10
74.5143465546
 20
94.3479755578
 30
0.0
 40
2.552700000000002
  0
CIRCLE
  5
10F
330
1F
100
AcDbEntity
  8
0
  6
Continuous
 62
     7
370
    30
100
AcDbCircle
 10
125.3143465546
 20
94.3479755578
 30
0.0
 40
2.552699999999987
  0
CIRCLE
  5
110
330
1F
100
AcDbEntity
  8
0
  6
Continuous
 62
     7
370
    30
100
AcDbCircle
 10
138.0143465546
 20
119.7479755578
 30
0.0
 40
2.552699999999987
  0
CIRCLE
  5
111
330
1F
100
AcDbEntity
  8
0
  6
Continuous
 62
     7
370
    30
100
AcDbCircle
 10
138.0143465546
 20
94.3479755578
 30
0.0
 40
2.552700000000002
  0
CIRCLE
  5
112
330
1F
100
AcDbEntity
  8
0
  6
Continuous
 62
     7
370
    30
100
AcDbCircle
 10
61.8143465546
 20
94.3479755578
 30
0.0
 40
2.552699999999987
  0
CIRCLE
  5
113
330
1F
100
AcDbEntity
  8
0
  6
Continuous
 62
     7
370
    30
100
AcDbCircle
 10
61.8143465546
 20
119.7479755578
 30
0.0
 40
2.552700000000002
  0
CIRCLE
  5
114
330
1F
100
AcDbEntity
  8
0
  6
Continuous
 62
     7
370
    30
100
AcDbCircle
 10
74.5143465546
 20
107.0479755578
 30
0.0
 40
5.556250000000006
  0
CIRCLE
  5
115
330
1F
100
AcDbEntity
  8
0
  6
Continuous
 62
     7
370
    30
100
AcDbCircle
 10
125.3143465546
 20
107.0479755578
 30
0.0
 40
5.556250000000006
  0
CIRCLE
  5
116
330
1F
100
AcDbEntity
  8
0
  6
Continuous
 62
     7
370
    30
100
AcDbCircle
 10
99.9143465546
 20
132.4479755578
 30
0.0
 40
5.556250000000006
  0
CIRCLE
  5
117
330
1F
100
AcDbEntity
  8
0
  6
Continuous
 62
     7
370
    30
100
AcDbCircle
 10
99.9143465546
 20
107.0479755578
 30
0.0
 40
5.556250000000006
  0
CIRCLE
  5
118
330
1F
100
AcDbEntity
  8
0
  6
Continuous
 62
     7
370
    30
100
AcDbCircle
 10
99.9143465546
 20
81.6479755578
 30
0.0
 40
5.556250000000006
  0
CIRCLE
  5
119
330
1F
100
AcDbEntity
  8
0
  6
Continuous
 62
     7
370
    30
100
AcDbCircle
 10
112.6143465546
 20
119.7479755578
 30
0.0
 40
3.96875
  0
CIRCLE
  5
11A
330
1F
100
AcDbEntity
  8
0
  6
Continuous
 62
     7
370
    30
100
AcDbCircle
 10
87.2143465546
 20
119.7479755578
 30
0.0
 40
3.96875
  0
CIRCLE
  5
11B
330
1F
100
AcDbEntity
  8
0
  6
Continuous
 62
     7
370
    30
100
AcDbCircle
 10
87.2143465546
 20
94.3479755578
 30
0.0
 40
3.968750000000014
  0
CIRCLE
  5
11C
330
1F
100
AcDbEntity
  8
0
  6
Continuous
 62
     7
370
    30
100
AcDbCircle
 10
112.6143465546
 20
94.3479755578
 30
0.0
 40
3.968750000000014
  0
LINE
  5
11D
330
1F
100
AcDbEntity
  8
0
  6
Continuous
 62
     7
370
    30
100
AcDbLine
 10
140.9143465546
 20
141.5479755578
 30
0.0
 11
58.9143465546
 21
141.5479755578
 31
0.0
  0
LINE
  5
11E
330
1F
100
AcDbEntity
  8
0
  6
Continuous
 62
     7
370
    30
100
AcDbLine
 10
143.9143465546
 20
75.5479755578
 30
0.0
 11
143.9143465546
 21
138.5479755578
 31
0.0
  0
LINE
  5
11F
330
1F
100
AcDbEntity
  8
0
  6
Continuous
 62
     7
370
    30
100
AcDbLine
 10
58.9143465546
 20
72.5479755578
 30
0.0
 11
140.9143465546
 21
72.5479755578
 31
0.0
  0
LINE
  5
120
330
1F
100
AcDbEntity
  8
0
  6
Continuous
 62
     7
370
    30
100
AcDbLine
 10
55.9143465546
 20
138.5479755578
 30
0.0
 11
55.9143465546
 21
75.5479755578
 31
0.0
  0
CIRCLE
  5
121
330
1F
100
AcDbEntity
  8
0
  6
Continuous
 62
     7
370
    30
100
AcDbCircle
 10
87.2143465546
 20
119.7479755578
 30
0.0
 40
2.247900000000001
  0
CIRCLE
  5
122
330
1F
100
AcDbEntity
  8
0
  6
Continuous
 62
     7
370
    30
100
AcDbCircle
 10
112.6143465546
 20
94.3479755578
 30
0.0
 40
2.247900000000016
  0
CIRCLE
  5
123
330
1F
100
AcDbEntity
  8
0
  6
Continuous
 62
     7
370
    30
100
AcDbCircle
 10
112.6143465546
 20
119.7479755578
 30
0.0
 40
2.247900000000001
  0
CIRCLE
  5
124
330
1F
100
AcDbEntity
  8
0
  6
Continuous
 62
     7
370
    30
100
AcDbCircle
 10
87.2143465546
 20
94.3479755578
 30
0.0
 40
2.247900000000001
  0
CIRCLE
  5
125
330
1F
100
AcDbEntity
  8
0
  6
Continuous
 62
     7
370
    30
100
AcDbCircle
 10
99.9143465546
 20
132.4479755578
 30
0.0
 40
3.378199999999993
  0
CIRCLE
  5
126
330
1F
100
AcDbEntity
  8
0
  6
Continuous
 62
     7
370
    30
100
AcDbCircle
 10
99.9143465546
 20
81.6479755578
 30
0.0
 40
3.378200000000007
  0
CIRCLE
  5
127
330
1F
100
AcDbEntity
  8
0
  6
Continuous
 62
     7
370
    30
100
AcDbCircle
 10
125.3143465546
 20
107.0479755578
 30
0.0
 40
3.378200000000007
  0
CIRCLE
  5
128
330
1F
100
AcDbEntity
  8
0
  6
Continuous
 62
     7
370
    30
100
AcDbCircle
 10
74.5143465546
 20
107.0479755578
 30
0.0
 40
3.378200000000007
  0
CIRCLE
  5
129
330
1F
100
AcDbEntity
  8
0
  6
Continuous
 62
     7
370
    30
100
AcDbCircle
 10
99.9143465546
 20
107.0479755578
 30
0.0
 40
3.378200000000007
  0
DIMENSION
  5
12A
330
1F
100
AcDbEntity
  8
SLD-0
100
AcDbDimension
  2
_D
 10
143.9143465546
 20
166.6834748601
 30
0.0
 11
99.9143465546
 21
166.6834748601
 31
0.0
 70
   160
  1
<>
 71
     2
 42
-1.0
  3
SLDDIMSTYLE0
100
AcDbAlignedDimension
 13
55.9143465546
 23
138.5479755578
 33
0.0
 14
143.9143465546
 24
138.5479755578
 34
0.0
100
AcDbRotatedDimension
  0
DIMENSION
  5
135
330
1F
100
AcDbEntity
  8
SLD-0
100
AcDbDimension
  2
_D_1
 10
36.4758526874
 20
72.5479755578
 30
0.0
 11
36.4758526874
 21
107.0479755578
 31
0.0
 70
   160
  1
<>
 71
     2
 42
-1.0
  3
SLDDIMSTYLE0
100
AcDbAlignedDimension
 13
58.9143465546
 23
141.5479755578
 33
0.0
 14
58.9143465546
 24
72.5479755578
 34
0.0
 50
90.0
100
AcDbRotatedDimension
  0
DIMENSION
  5
13F
330
1F
100
AcDbEntity
  8
SLD-0
100
AcDbDimension
  2
_D_2
 10
87.2143465546
 20
147.4640257539
 30
0.0
 11
93.5643465546
 21
147.4640257539
 31
0.0
 70
   160
  1
<>
 71
     2
 42
-1.0
  3
SLDDIMSTYLE0
100
AcDbAlignedDimension
 13
99.9143465546
 23
132.4479755578
 33
0.0
 14
87.2143465546
 24
119.7479755578
 34
0.0
100
AcDbRotatedDimension
  0
DIMENSION
  5
149
330
1F
100
AcDbEntity
  8
SLD-0
100
AcDbDimension
  2
_D_3
 10
112.6143465546
 20
147.4640257539
 30
0.0
 11
106.2643465546
 21
147.4640257539
 31
0.0
 70
   160
  1
<>
 71
     2
 42
-1.0
  3
SLDDIMSTYLE0
100
AcDbAlignedDimension
 13
99.9143465546
 23
132.4479755578
 33
0.0
 14
112.6143465546
 24
119.7479755578
 34
0.0
100
AcDbRotatedDimension
  0
DIMENSION
  5
153
330
1F
100
AcDbEntity
  8
SLD-0
100
AcDbDimension
  2
_D_4
 10
74.5143465546
 20
153.7354821289
 30
0.0
 11
87.2143465546
 21
153.7354821289
 31
0.0
 70
   160
  1
<>
 71
     2
 42
-1.0
  3
SLDDIMSTYLE0
100
AcDbAlignedDimension
 13
99.9143465546
 23
132.4479755578
 33
0.0
 14
74.5143465546
 24
132.4479755578
 34
0.0
100
AcDbRotatedDimension
  0
DIMENSION
  5
15D
330
1F
100
AcDbEntity
  8
SLD-0
100
AcDbDimension
  2
_D_5
 10
125.3143465546
 20
153.7354821289
 30
0.0
 11
112.6143465546
 21
153.7354821289
 31
0.0
 70
   160
  1
<>
 71
     2
 42
-1.0
  3
SLDDIMSTYLE0
100
AcDbAlignedDimension
 13
99.9143465546
 23
132.4479755578
 33
0.0
 14
125.3143465546
 24
136.0006755578
 34
0.0
100
AcDbRotatedDimension
  0
DIMENSION
  5
167
330
1F
100
AcDbEntity
  8
SLD-0
100
AcDbDimension
  2
_D_6
 10
61.8143465546
 20
160.0069385039
 30
0.0
 11
80.8643465546
 21
160.0069385039
 31
0.0
 70
   160
  1
<>
 71
     2
 42
-1.0
  3
SLDDIMSTYLE0
100
AcDbAlignedDimension
 13
99.9143465546
 23
132.4479755578
 33
0.0
 14
61.8143465546
 24
119.7479755578
 34
0.0
100
AcDbRotatedDimension
  0
DIMENSION
  5
171
330
1F
100
AcDbEntity
  8
SLD-0
100
AcDbDimension
  2
_D_7
 10
138.0143465546
 20
160.0069385039
 30
0.0
 11
118.9643465546
 21
160.0069385039
 31
0.0
 70
   160
  1
<>
 71
     2
 42
-1.0
  3
SLDDIMSTYLE0
100
AcDbAlignedDimension
 13
99.9143465546
 23
132.4479755578
 33
0.0
 14
138.0143465546
 24
119.7479755578
 34
0.0
100
AcDbRotatedDimension
  0
DIMENSION
  5
17B
330
1F
100
AcDbEntity
  8
SLD-0
100
AcDbDimension
  2
_D_8
 10
50.5846874669
 20
119.7479755578
 30
0.0
 11
50.5846874669
 21
113.3979755578
 31
0.0
 70
   160
  1
<>
 71
     2
 42
-1.0
  3
SLDDIMSTYLE0
100
AcDbAlignedDimension
 13
67.9580965546
 23
107.0479755578
 33
0.0
 14
61.8143465546
 24
119.7479755578
 34
0.0
 50
90.0
100
AcDbRotatedDimension
  0
DIMENSION
  5
185
330
1F
100
AcDbEntity
  8
SLD-0
100
AcDbDimension
  2
_D_9
 10
49.9846874669
 20
107.0479755578
 30
0.0
 11
49.9846874669
 21
100.6979755578
 31
0.0
 70
   160
  1
<>
 71
     2
 42
-1.0
  3
SLDDIMSTYLE0
100
AcDbAlignedDimension
 13
61.8143465546
 23
94.3479755578
 33
0.0
 14
67.9580965546
 24
107.0479755578
 34
0.0
 50
90.0
100
AcDbRotatedDimension
  0
DIMENSION
  5
18F
330
1F
100
AcDbEntity
  8
SLD-0
100
AcDbDimension
  2
_D_10
 10
43.5994320682
 20
81.6479755578
 30
0.0
 11
43.5994320682
 21
94.3479755578
 31
0.0
 70
   160
  1
<>
 71
     2
 42
-1.0
  3
SLDDIMSTYLE0
100
AcDbAlignedDimension
 13
67.9580965546
 23
107.0479755578
 33
0.0
 14
70.9616465546
 24
81.6479755578
 34
0.0
 50
90.0
100
AcDbRotatedDimension
  0
DIMENSION
  5
199
330
1F
100
AcDbEntity
  8
SLD-0
100
AcDbDimension
  2
_D_11
 10
43.1994320682
 20
107.0479755578
 30
0.0
 11
43.1994320682
 21
119.7479755578
 31
0.0
 70
   160
  1
<>
 71
     2
 42
-1.0
  3
SLDDIMSTYLE0
100
AcDbAlignedDimension
 13
74.5143465546
 23
132.4479755578
 33
0.0
 14
74.5143465546
 24
107.0479755578
 34
0.0
 50
90.0
100
AcDbRotatedDimension
  0
DIMENSION
  5
1A3
330
1F
100
AcDbEntity
  8
SLD-0
100
AcDbDimension
  2
_D_12
 10
88.6329402469
 20
98.0545330575
 30
0.0
 11
64.8226295473
 21
63.3894309726
 31
0.0
 70
   163
  1
4 HOLES,\P 8-32 CLR
 71
     1
 42
-1.0
  3
SLDDIMSTYLE1
100
AcDbDiametricDimension
 15
85.7957528622
 25
90.6414180581
 35
0.0
 40
0.0
  0
DIMENSION
  5
1AD
330
1F
100
AcDbEntity
  8
SLD-0
100
AcDbDimension
  2
_D_13
 10
99.0756656823
 20
87.1405640602
 30
0.0
 11
114.5584434208
 21
62.3810838859
 31
0.0
 70
   163
  1
5 HOLES,\P 1/4"-20 CLR
 71
     1
 42
-1.0
  3
SLDDIMSTYLE1
100
AcDbDiametricDimension
 15
100.7530274269
 25
76.1553870554
 35
0.0
 40
0.0
  0
DIMENSION
  5
1B6
330
1F
100
AcDbEntity
  8
SLD-0
100
AcDbDimension
  2
_D_14
 10
123.61088601
 20
84.327312635
 30
0.0
 11
149.9389067659
 21
62.3810838859
 31
0.0
 70
   163
  1
12 HOLES,\P 1/4"-20
 71
     1
 42
-1.0
  3
SLDDIMSTYLE1
100
AcDbDiametricDimension
 15
127.0178070991
 25
78.9686384806
 35
0.0
 40
0.0
  0
INSERT
  5
1CA
330
1F
100
AcDbEntity
  8
SLD-0
100
AcDbBlockReference
  2
SW_CENTERMARKSYMBOL_0
 10
74.5143465546
 20
132.4479755578
 30
0.0
  0
INSERT
  5
1D6
330
1F
100
AcDbEntity
  8
SLD-0
100
AcDbBlockReference
  2
SW_CENTERMARKSYMBOL_1
 10
61.8143465546
 20
119.7479755578
 30
0.0
  0
INSERT
  5
1E2
330
1F
100
AcDbEntity
  8
SLD-0
100
AcDbBlockReference
  2
SW_CENTERMARKSYMBOL_2
 10
74.5143465546
 20
119.7479755578
 30
0.0
  0
INSERT
  5
1EE
330
1F
100
AcDbEntity
  8
SLD-0
100
AcDbBlockReference
  2
SW_CENTERMARKSYMBOL_3
 10
87.2143465546
 20
119.7479755578
 30
0.0
  0
INSERT
  5
1FA
330
1F
100
AcDbEntity
  8
SLD-0
100
AcDbBlockReference
  2
SW_CENTERMARKSYMBOL_4
 10
74.5143465546
 20
107.0479755578
 30
0.0
  0
INSERT
  5
206
330
1F
100
AcDbEntity
  8
SLD-0
100
AcDbBlockReference
  2
SW_CENTERMARKSYMBOL_5
 10
61.8143465546
 20
94.3479755578
 30
0.0
  0
INSERT
  5
212
330
1F
100
AcDbEntity
  8
SLD-0
100
AcDbBlockReference
  2
SW_CENTERMARKSYMBOL_6
 10
74.5143465546
 20
94.3479755578
 30
0.0
  0
INSERT
  5
21E
330
1F
100
AcDbEntity
  8
SLD-0
100
AcDbBlockReference
  2
SW_CENTERMARKSYMBOL_7
 10
74.5143465546
 20
81.6479755578
 30
0.0
  0
INSERT
  5
22A
330
1F
100
AcDbEntity
  8
SLD-0
100
AcDbBlockReference
  2
SW_CENTERMARKSYMBOL_8
 10
87.2143465546
 20
94.3479755578
 30
0.0
  0
INSERT
  5
236
330
1F
100
AcDbEntity
  8
SLD-0
100
AcDbBlockReference
  2
SW_CENTERMARKSYMBOL_9
 10
99.9143465546
 20
81.6479755578
 30
0.0
  0
INSERT
  5
242
330
1F
100
AcDbEntity
  8
SLD-0
100
AcDbBlockReference
  2
SW_CENTERMARKSYMBOL_10
 10
125.3143465546
 20
94.3479755578
 30
0.0
  0
INSERT
  5
24E
330
1F
100
AcDbEntity
  8
SLD-0
100
AcDbBlockReference
  2
SW_CENTERMARKSYMBOL_11
 10
125.3143465546
 20
81.6479755578
 30
0.0
  0
INSERT
  5
25A
330
1F
100
AcDbEntity
  8
SLD-0
100
AcDbBlockReference
  2
SW_CENTERMARKSYMBOL_12
 10
138.0143465546
 20
94.3479755578
 30
0.0
  0
INSERT
  5
266
330
1F
100
AcDbEntity
  8
SLD-0
100
AcDbBlockReference
  2
SW_CENTERMARKSYMBOL_13
 10
138.0143465546
 20
119.7479755578
 30
0.0
  0
INSERT
  5
272
330
1F
100
AcDbEntity
  8
SLD-0
100
AcDbBlockReference
  2
SW_CENTERMARKSYMBOL_14
 10
125.3143465546
 20
119.7479755578
 30
0.0
  0
INSERT
  5
27E
330
1F
100
AcDbEntity
  8
SLD-0
100
AcDbBlockReference
  2
SW_CENTERMARKSYMBOL_15
 10
125.3143465546
 20
132.4479755578
 30
0.0
  0
INSERT
  5
28A
330
1F
100
AcDbEntity
  8
SLD-0
100
AcDbBlockReference
  2
SW_CENTERMARKSYMBOL_16
 10
112.6143465546
 20
119.7479755578
 30
0.0
  0
INSERT
  5
296
330
1F
100
AcDbEntity
  8
SLD-0
100
AcDbBlockReference
  2
SW_CENTERMARKSYMBOL_17
 10
99.9143465546
 20
132.4479755578
 30
0.0
  0
INSERT
  5
2A2
330
1F
100
AcDbEntity
  8
SLD-0
100
AcDbBlockReference
  2
SW_CENTERMARKSYMBOL_18
 10
99.9143465546
 20
107.0479755578
 30
0.0
  0
INSERT
  5
2AE
330
1F
100
AcDbEntity
  8
SLD-0
100
AcDbBlockReference
  2
SW_CENTERMARKSYMBOL_19
 10
125.3143465546
 20
107.0479755578
 30
0.0
  0
INSERT
  5
2BA
330
1F
100
AcDbEntity
  8
SLD-0
100
AcDbBlockReference
  2
SW_CENTERMARKSYMBOL_20
 10
112.6143465546
 20
94.3479755578
 30
0.0
  0
ARC
  5
2BB
330
1F
100
AcDbEntity
  8
0
  6
Continuous
 62
     7
370
     0
100
AcDbCircle
 10
138.0143465546
 20
119.7479755578
 30
0.0
 40
3.175000000000005
100
AcDbArc
 50
255.0
 51
195.0
  0
ARC
  5
2BC
330
1F
100
AcDbEntity
  8
0
  6
Continuous
 62
     7
370
     0
100
AcDbCircle
 10
138.0143465546
 20
94.3479755578
 30
0.0
 40
3.174999999999976
100
AcDbArc
 50
255.0
 51
195.0
  0
ARC
  5
2BD
330
1F
100
AcDbEntity
  8
0
  6
Continuous
 62
     7
370
     0
100
AcDbCircle
 10
61.8143465546
 20
94.3479755578
 30
0.0
 40
3.175000000000015
100
AcDbArc
 50
255.0
 51
195.0
  0
ARC
  5
2BE
330
1F
100
AcDbEntity
  8
0
  6
Continuous
 62
     7
370
     0
100
AcDbCircle
 10
61.8143465546
 20
119.7479755578
 30
0.0
 40
3.174999999999982
100
AcDbArc
 50
255.0
 51
195.0
  0
ARC
  5
2BF
330
1F
100
AcDbEntity
  8
0
  6
Continuous
 62
     7
370
     0
100
AcDbCircle
 10
125.3143465546
 20
119.7479755578
 30
0.0
 40
3.175000000000032
100
AcDbArc
 50
255.0
 51
195.0
  0
ARC
  5
2C0
330
1F
100
AcDbEntity
  8
0
  6
Continuous
 62
     7
370
     0
100
AcDbCircle
 10
74.5143465546
 20
119.7479755578
 30
0.0
 40
3.174999999999981
100
AcDbArc
 50
255.0
 51
195.0
  0
ARC
  5
2C1
330
1F
100
AcDbEntity
  8
0
  6
Continuous
 62
     7
370
     0
100
AcDbCircle
 10
74.5143465546
 20
94.3479755578
 30
0.0
 40
3.175000000000001
100
AcDbArc
 50
255.0
 51
195.0
  0
ARC
  5
2C2
330
1F
100
AcDbEntity
  8
0
  6
Continuous
 62
     7
370
     0
100
AcDbCircle
 10
125.3143465546
 20
94.3479755578
 30
0.0
 40
3.175000000000005
100
AcDbArc
 50
255.0
 51
195.0
  0
ARC
  5
2C3
330
1F
100
AcDbEntity
  8
0
  6
Continuous
 62
     7
370
     0
100
AcDbCircle
 10
125.3143465546
 20
132.4479755578
 30
0.0
 40
3.175000000000025
100
AcDbArc
 50
255.0
 51
195.0
  0
ARC
  5
2C4
330
1F
100
AcDbEntity
  8
0
  6
Continuous
 62
     7
370
     0
100
AcDbCircle
 10
125.3143465546
 20
81.6479755578
 30
0.0
 40
3.175000000000005
100
AcDbArc
 50
255.0
 51
195.0
  0
ARC
  5
2C5
330
1F
100
AcDbEntity
  8
0
  6
Continuous
 62
     7
370
     0
100
AcDbCircle
 10
74.5143465546
 20
81.6479755578
 30
0.0
 40
3.174999999999994
100
AcDbArc
 50
255.0
 51
195.0
  0
ARC
  5
2C6
330
1F
100
AcDbEntity
  8
0
  6
Continuous
 62
     7
370
     0
100
AcDbCircle
 10
74.5143465546
 20
132.4479755578
 30
0.0
 40
3.17499999999999
100
AcDbArc
 50
255.0
 51
195.0
  0
LINE
  5
2C7
330
1F
100
AcDbEntity
  8
0
  6
Continuous
 62
     7
370
    30
100
AcDbLine
 10
280.4731209693
 20
140.7785454825
 30
0.0
 11
280.4731209693
 21
147.3108719776
 31
0.0
  0
LINE
  5
2C8
330
1F
100
AcDbEntity
  8
0
  6
Continuous
 62
     7
370
    30
100
AcDbLine
 10
171.9426376973
 20
155.0667490399
 30
0.0
 11
171.9426376973
 21
148.5344225448
 31
0.0
  0
ARC
  5
2C9
330
1F
100
AcDbEntity
  8
0
  6
Continuous
 62
     7
370
    30
100
AcDbCircle
 10
232.9253937546
 20
117.9312110472
 30
0.0
 40
4.611065723735264
100
AcDbArc
 50
242.6096722366
 51
297.3903277634
  0
ARC
  5
2CA
330
1F
100
AcDbEntity
  8
0
  6
Continuous
 62
     7
370
    30
100
AcDbCircle
 10
232.9253937546
 20
124.4635375423
 30
0.0
 40
4.611065723735125
100
AcDbArc
 50
242.6096722366
 51
297.3903277634
  0
LINE
  5
2CB
330
1F
100
AcDbEntity
  8
0
  6
Continuous
 62
     7
370
    30
100
AcDbLine
 10
172.8213173537
 20
153.8421368722
 30
0.0
 11
230.804073411
 21
120.3694042875
 31
0.0
  0
ARC
  5
2CC
330
1F
100
AcDbEntity
  8
0
  6
Continuous
 62
     7
370
    30
100
AcDbCircle
 10
173.2860984341
 20
155.0667490399
 30
0.0
 40
1.30984595050284
100
AcDbArc
 50
110.7834207995
 51
249.2165792005
  0
LINE
  5
2CD
330
1F
100
AcDbEntity
  8
0
  6
Continuous
 62
     7
370
    30
100
AcDbLine
 10
217.3690445685
 20
182.0082167301
 30
0.0
 11
172.8213173537
 21
156.2913612077
 31
0.0
  0
ARC
  5
2CE
330
1F
100
AcDbEntity
  8
0
  6
Continuous
 62
     7
370
    30
100
AcDbCircle
 10
219.490364912
 20
177.9140834752
 30
0.0
 40
4.611065723735049
100
AcDbArc
 50
62.6096722366
 51
117.3903277634
  0
LINE
  5
2CF
330
1F
100
AcDbEntity
  8
0
  6
Continuous
 62
     7
370
    30
100
AcDbLine
 10
279.5944413129
 20
148.5354841453
 30
0.0
 11
221.6116852556
 21
182.0082167301
 31
0.0
  0
ARC
  5
2D0
330
1F
100
AcDbEntity
  8
0
  6
Continuous
 62
     7
370
    30
100
AcDbCircle
 10
279.1296602325
 20
147.3108719776
 30
0.0
 40
1.30984595050285
100
AcDbArc
 50
290.7834207995
 51
69.2165792005
  0
LINE
  5
2D1
330
1F
100
AcDbEntity
  8
0
  6
Continuous
 62
     7
370
    30
100
AcDbLine
 10
235.0467140981
 20
120.3694042875
 30
0.0
 11
279.5944413129
 21
146.0862598099
 31
0.0
  0
LWPOLYLINE
  5
2D2
330
1F
100
AcDbEntity
  8
0
  6
Continuous
 62
     7
370
    30
100
AcDbPolyline
 90
       34
 70
   128
 43
0.0
 10
260.3238723372
 20
150.1467880152
 10
260.6980960613
 20
149.9684146656
 10
261.1240329057
 20
149.8341496015
 10
261.5862884029
 20
149.7488455121
 10
262.068155435
 20
149.7155855095
 10
262.552218072
 20
149.7355716968
 10
263.0209810288
 20
149.8080817211
 10
263.457501991
 20
149.9304948813
 10
263.8460039535
 20
150.0983868467
 10
264.1724454433
 20
150.3056895644
 10
264.4250280143
 20
150.544910574
 10
264.5946226743
 20
150.8074038048
 10
264.6750998305
 20
151.0836820677
 10
264.6635508288
 20
151.3637599464
 10
264.5603930801
 20
151.6375146965
 10
264.3693549742
 20
151.8950521083
 10
264.0973411262
 20
152.1270641085
 10
263.754182825
 20
152.325165179
 10
263.352282706
 20
152.482195431
 10
262.9061664864
 20
152.5924793821
 10
262.4319579688
 20
152.6520310828
 10
261.9467962846
 20
152.6586981796
 10
261.4682164411
 20
152.6122397062
 10
261.0135155608
 20
152.514334793
 10
260.5991277183
 20
152.3685219784
 10
260.2400299697
 20
152.1800713177
 10
259.9492010434
 20
151.9557939086
 10
259.7371522546
 20
151.7037957211
 10
259.6115475988
 20
151.4331846262
 10
259.5769267558
 20
151.153741214
 10
259.6345410128
 20
150.8755652975
 10
259.7823080406
 20
150.6087108791
 10
260.0148871538
 20
150.3628227727
 10
260.3238723372
 20
150.1467880152
  0
LWPOLYLINE
  5
2D3
330
1F
100
AcDbEntity
  8
0
  6
Continuous
 62
     7
370
    30
100
AcDbPolyline
 90
       34
 70
   128
 43
0.0
 10
224.402847853
 20
129.4100219749
 10
224.7770715771
 20
129.2316486253
 10
225.2030084214
 20
129.0973835612
 10
225.6652639187
 20
129.0120794718
 10
226.1471309508
 20
128.9788194692
 10
226.6311935877
 20
128.9988056565
 10
227.0999565446
 20
129.0713156808
 10
227.5364775067
 20
129.193728841
 10
227.9249794692
 20
129.3616208064
 10
228.251420959
 20
129.5689235241
 10
228.50400353
 20
129.8081445337
 10
228.6735981901
 20
130.0706377645
 10
228.7540753463
 20
130.3469160274
 10
228.7425263445
 20
130.6269939061
 10
228.6393685958
 20
130.9007486562
 10
228.44833049
 20
131.158286068
 10
228.1763166419
 20
131.3902980682
 10
227.8331583408
 20
131.5883991387
 10
227.4312582217
 20
131.7454293907
 10
226.9851420021
 20
131.8557133418
 10
226.5109334845
 20
131.9152650425
 10
226.0257718003
 20
131.9219321393
 10
225.5471919569
 20
131.8754736659
 10
225.0924910766
 20
131.7775687527
 10
224.678103234
 20
131.6317559381
 10
224.3190054854
 20
131.4433052774
 10
224.0281765592
 20
131.2190278683
 10
223.8161277703
 20
130.9670296808
 10
223.6905231146
 20
130.6964185859
 10
223.6559022715
 20
130.4169751737
 10
223.7135165285
 20
130.1387992572
 10
223.8612835563
 20
129.8719448388
 10
224.0938626695
 20
129.6260567324
 10
224.402847853
 20
129.4100219749
  0
LWPOLYLINE
  5
2D4
330
1F
100
AcDbEntity
  8
0
  6
Continuous
 62
     7
370
    30
100
AcDbPolyline
 90
       34
 70
   128
 43
0.0
 10
188.4818233687
 20
150.1467880152
 10
188.8560470928
 20
149.9684146656
 10
189.2819839371
 20
149.8341496015
 10
189.7442394344
 20
149.7488455121
 10
190.2261064665
 20
149.7155855095
 10
190.7101691034
 20
149.7355716968
 10
191.1789320603
 20
149.8080817211
 10
191.6154530224
 20
149.9304948813
 10
192.003954985
 20
150.0983868467
 10
192.3303964747
 20
150.3056895644
 10
192.5829790457
 20
150.544910574
 10
192.7525737058
 20
150.8074038048
 10
192.833050862
 20
151.0836820677
 10
192.8215018602
 20
151.3637599464
 10
192.7183441115
 20
151.6375146965
 10
192.5273060057
 20
151.8950521083
 10
192.2552921576
 20
152.1270641085
 10
191.9121338565
 20
152.325165179
 10
191.5102337374
 20
152.482195431
 10
191.0641175178
 20
152.5924793821
 10
190.5899090003
 20
152.6520310828
 10
190.1047473161
 20
152.6586981796
 10
189.6261674726
 20
152.6122397062
 10
189.1714665923
 20
152.514334793
 10
188.7570787497
 20
152.3685219784
 10
188.3979810012
 20
152.1800713177
 10
188.1071520749
 20
151.9557939086
 10
187.895103286
 20
151.7037957211
 10
187.7694986303
 20
151.4331846262
 10
187.7348777872
 20
151.153741214
 10
187.7924920443
 20
150.8755652975
 10
187.9402590721
 20
150.6087108791
 10
188.1728381853
 20
150.3628227727
 10
188.4818233687
 20
150.1467880152
  0
LWPOLYLINE
  5
2D5
330
1F
100
AcDbEntity
  8
0
  6
Continuous
 62
     7
370
    30
100
AcDbPolyline
 90
       34
 70
   128
 43
0.0
 10
224.402847853
 20
170.8835540555
 10
224.7770715771
 20
170.7051807059
 10
225.2030084214
 20
170.5709156418
 10
225.6652639187
 20
170.4856115524
 10
226.1471309508
 20
170.4523515498
 10
226.6311935877
 20
170.472337737
 10
227.0999565446
 20
170.5448477614
 10
227.5364775067
 20
170.6672609216
 10
227.9249794692
 20
170.835152887
 10
228.251420959
 20
171.0424556047
 10
228.50400353
 20
171.2816766143
 10
228.6735981901
 20
171.5441698451
 10
228.7540753463
 20
171.820448108
 10
228.7425263445
 20
172.1005259867
 10
228.6393685958
 20
172.3742807368
 10
228.44833049
 20
172.6318181486
 10
228.1763166419
 20
172.8638301488
 10
227.8331583408
 20
173.0619312193
 10
227.4312582217
 20
173.2189614713
 10
226.9851420021
 20
173.3292454224
 10
226.5109334845
 20
173.3887971231
 10
226.0257718003
 20
173.3954642199
 10
225.5471919569
 20
173.3490057465
 10
225.0924910766
 20
173.2511008333
 10
224.678103234
 20
173.1052880187
 10
224.3190054854
 20
172.916837358
 10
224.0281765592
 20
172.6925599489
 10
223.8161277703
 20
172.4405617614
 10
223.6905231146
 20
172.1699506665
 10
223.6559022715
 20
171.8905072543
 10
223.7135165285
 20
171.6123313378
 10
223.8612835563
 20
171.3454769194
 10
224.0938626695
 20
171.099588813
 10
224.402847853
 20
170.8835540555
  0
LWPOLYLINE
  5
2D6
330
1F
100
AcDbEntity
  8
0
  6
Continuous
 62
     7
370
    30
100
AcDbPolyline
 90
       34
 70
   128
 43
0.0
 10
251.3436162162
 20
144.9625965052
 10
251.7178399403
 20
144.7842231556
 10
252.1437767846
 20
144.6499580914
 10
252.6060322819
 20
144.564654002
 10
253.087899314
 20
144.5313939994
 10
253.5719619509
 20
144.5513801867
 10
254.0407249078
 20
144.623890211
 10
254.4772458699
 20
144.7463033712
 10
254.8657478325
 20
144.9141953366
 10
255.1921893222
 20
145.1214980543
 10
255.4447718932
 20
145.3607190639
 10
255.6143665533
 20
145.6232122948
 10
255.6948437095
 20
145.8994905576
 10
255.6832947077
 20
146.1795684363
 10
255.580136959
 20
146.4533231865
 10
255.3890988532
 20
146.7108605982
 10
255.1170850051
 20
146.9428725984
 10
254.773926704
 20
147.140973669
 10
254.3720265849
 20
147.298003921
 10
253.9259103653
 20
147.408287872
 10
253.4517018478
 20
147.4678395727
 10
252.9665401636
 20
147.4745066695
 10
252.4879603201
 20
147.4280481962
 10
252.0332594398
 20
147.3301432829
 10
251.6188715972
 20
147.1843304684
 10
251.2597738486
 20
146.9958798076
 10
250.9689449224
 20
146.7716023985
 10
250.7568961335
 20
146.519604211
 10
250.6312914778
 20
146.2489931161
 10
250.5966706347
 20
145.9695497039
 10
250.6542848917
 20
145.6913737874
 10
250.8020519196
 20
145.424519369
 10
251.0346310327
 20
145.1786312627
 10
251.3436162162
 20
144.9625965052
  0
LWPOLYLINE
  5
2D7
330
1F
100
AcDbEntity
  8
0
  6
Continuous
 62
     7
370
    30
100
AcDbPolyline
 90
       34
 70
   128
 43
0.0
 10
215.4225917319
 20
165.6993625455
 10
215.796815456
 20
165.5209891959
 10
216.2227523003
 20
165.3867241317
 10
216.6850077976
 20
165.3014200423
 10
217.1668748297
 20
165.2681600397
 10
217.6509374666
 20
165.288146227
 10
218.1197004235
 20
165.3606562513
 10
218.5562213856
 20
165.4830694115
 10
218.9447233482
 20
165.6509613769
 10
219.2711648379
 20
165.8582640946
 10
219.5237474089
 20
166.0974851042
 10
219.693342069
 20
166.359978335
 10
219.7738192252
 20
166.6362565979
 10
219.7622702234
 20
166.9163344766
 10
219.6591124747
 20
167.1900892268
 10
219.4680743689
 20
167.4476266385
 10
219.1960605208
 20
167.6796386387
 10
218.8529022197
 20
167.8777397093
 10
218.4510021006
 20
168.0347699613
 10
218.004885881
 20
168.1450539123
 10
217.5306773635
 20
168.204605613
 10
217.0455156793
 20
168.2112727098
 10
216.5669358358
 20
168.1648142365
 10
216.1122349555
 20
168.0669093232
 10
215.6978471129
 20
167.9210965086
 10
215.3387493644
 20
167.7326458479
 10
215.0479204381
 20
167.5083684388
 10
214.8358716492
 20
167.2563702513
 10
214.7102669935
 20
166.9857591564
 10
214.6756461504
 20
166.7063157442
 10
214.7332604075
 20
166.4281398277
 10
214.8810274353
 20
166.1612854093
 10
215.1136065485
 20
165.915397303
 10
215.4225917319
 20
165.6993625455
  0
LWPOLYLINE
  5
2D8
330
1F
100
AcDbEntity
  8
0
  6
Continuous
 62
     7
370
    30
100
AcDbPolyline
 90
       34
 70
   128
 43
0.0
 10
197.4620794898
 20
155.3309795253
 10
197.8363032139
 20
155.1526061757
 10
198.2622400582
 20
155.0183411116
 10
198.7244955554
 20
154.9330370222
 10
199.2063625876
 20
154.8997770195
 10
199.6904252245
 20
154.9197632068
 10
200.1591881814
 20
154.9922732312
 10
200.5957091435
 20
155.1146863913
 10
200.984211106
 20
155.2825783568
 10
201.3106525958
 20
155.4898810745
 10
201.5632351668
 20
155.729102084
 10
201.7328298269
 20
155.9915953149
 10
201.8133069831
 20
156.2678735778
 10
201.8017579813
 20
156.5479514565
 10
201.6986002326
 20
156.8217062066
 10
201.5075621268
 20
157.0792436183
 10
201.2355482787
 20
157.3112556186
 10
200.8923899776
 20
157.5093566891
 10
200.4904898585
 20
157.6663869411
 10
200.0443736389
 20
157.7766708922
 10
199.5701651213
 20
157.8362225929
 10
199.0850034371
 20
157.8428896897
 10
198.6064235937
 20
157.7964312163
 10
198.1517227134
 20
157.698526303
 10
197.7373348708
 20
157.5527134885
 10
197.3782371222
 20
157.3642628277
 10
197.0874081959
 20
157.1399854187
 10
196.8753594071
 20
156.8879872311
 10
196.7497547514
 20
156.6173761363
 10
196.7151339083
 20
156.3379327241
 10
196.7727481653
 20
156.0597568076
 10
196.9205151931
 20
155.7929023892
 10
197.1530943063
 20
155.5470142828
 10
197.4620794898
 20
155.3309795253
  0
LWPOLYLINE
  5
2D9
330
1F
100
AcDbEntity
  8
0
  6
Continuous
 62
     7
370
    30
100
AcDbPolyline
 90
       34
 70
   128
 43
0.0
 10
233.383103974
 20
134.594213485
 10
233.7573276981
 20
134.4158401354
 10
234.1832645425
 20
134.2815750713
 10
234.6455200397
 20
134.1962709819
 10
235.1273870718
 20
134.1630109792
 10
235.6114497088
 20
134.1829971665
 10
236.0802126656
 20
134.2555071909
 10
236.5167336278
 20
134.377920351
 10
236.9052355903
 20
134.5458123165
 10
237.2316770801
 20
134.7531150342
 10
237.4842596511
 20
134.9923360437
 10
237.6538543111
 20
135.2548292746
 10
237.7343314673
 20
135.5311075375
 10
237.7227824656
 20
135.8111854162
 10
237.6196247169
 20
136.0849401663
 10
237.428586611
 20
136.342477578
 10
237.156572763
 20
136.5744895783
 10
236.8134144618
 20
136.7725906488
 10
236.4115143428
 20
136.9296209008
 10
235.9653981232
 20
137.0399048519
 10
235.4911896056
 20
137.0994565526
 10
235.0060279214
 20
137.1061236494
 10
234.5274480779
 20
137.059665176
 10
234.0727471976
 20
136.9617602627
 10
233.6583593551
 20
136.8159474482
 10
233.2992616065
 20
136.6274967875
 10
233.0084326802
 20
136.4032193784
 10
232.7963838914
 20
136.1512211908
 10
232.6707792356
 20
135.880610096
 10
232.6361583926
 20
135.6011666838
 10
232.6937726496
 20
135.3229907673
 10
232.8415396774
 20
135.0561363489
 10
233.0741187906
 20
134.8102482425
 10
233.383103974
 20
134.594213485
  0
LWPOLYLINE
  5
2DA
330
1F
100
AcDbEntity
  8
0
  6
Continuous
 62
     7
370
    30
100
AcDbPolyline
 90
       34
 70
   128
 43
0.0
 10
260.3238723372
 20
139.7784049951
 10
260.6980960613
 20
139.6000316455
 10
261.1240329057
 20
139.4657665814
 10
261.5862884029
 20
139.3804624919
 10
262.068155435
 20
139.3472024893
 10
262.552218072
 20
139.3671886766
 10
263.0209810288
 20
139.4396987009
 10
263.457501991
 20
139.5621118611
 10
263.8460039535
 20
139.7300038266
 10
264.1724454433
 20
139.9373065443
 10
264.4250280143
 20
140.1765275538
 10
264.5946226743
 20
140.4390207847
 10
264.6750998305
 20
140.7152990476
 10
264.6635508288
 20
140.9953769262
 10
264.5603930801
 20
141.2691316764
 10
264.3693549742
 20
141.5266690881
 10
264.0973411262
 20
141.7586810883
 10
263.754182825
 20
141.9567821589
 10
263.352282706
 20
142.1138124109
 10
262.9061664864
 20
142.2240963619
 10
262.4319579688
 20
142.2836480627
 10
261.9467962846
 20
142.2903151595
 10
261.4682164411
 20
142.2438566861
 10
261.0135155608
 20
142.1459517728
 10
260.5991277183
 20
142.0001389583
 10
260.2400299697
 20
141.8116882975
 10
259.9492010434
 20
141.5874108884
 10
259.7371522546
 20
141.3354127009
 10
259.6115475988
 20
141.064801606
 10
259.5769267558
 20
140.7853581939
 10
259.6345410128
 20
140.5071822774
 10
259.7823080406
 20
140.2403278589
 10
260.0148871538
 20
139.9944397526
 10
260.3238723372
 20
139.7784049951
  0
LWPOLYLINE
  5
2DB
330
1F
100
AcDbEntity
  8
0
  6
Continuous
 62
     7
370
    30
100
AcDbPolyline
 90
       34
 70
   128
 43
0.0
 10
242.3633600951
 20
129.4100219749
 10
242.7375838192
 20
129.2316486253
 10
243.1635206635
 20
129.0973835612
 10
243.6257761608
 20
129.0120794718
 10
244.1076431929
 20
128.9788194692
 10
244.5917058298
 20
128.9988056565
 10
245.0604687867
 20
129.0713156808
 10
245.4969897488
 20
129.193728841
 10
245.8854917114
 20
129.3616208064
 10
246.2119332011
 20
129.5689235241
 10
246.4645157722
 20
129.8081445337
 10
246.6341104322
 20
130.0706377645
 10
246.7145875884
 20
130.3469160274
 10
246.7030385866
 20
130.6269939061
 10
246.5998808379
 20
130.9007486562
 10
246.4088427321
 20
131.158286068
 10
246.136828884
 20
131.3902980682
 10
245.7936705829
 20
131.5883991387
 10
245.3917704638
 20
131.7454293907
 10
244.9456542443
 20
131.8557133418
 10
244.4714457267
 20
131.9152650425
 10
243.9862840425
 20
131.9219321393
 10
243.507704199
 20
131.8754736659
 10
243.0530033187
 20
131.7775687527
 10
242.6386154761
 20
131.6317559381
 10
242.2795177276
 20
131.4433052774
 10
241.9886888013
 20
131.2190278683
 10
241.7766400124
 20
130.9670296808
 10
241.6510353567
 20
130.6964185859
 10
241.6164145136
 20
130.4169751737
 10
241.6740287707
 20
130.1387992572
 10
241.8217957985
 20
129.8719448388
 10
242.0543749117
 20
129.6260567324
 10
242.3633600951
 20
129.4100219749
  0
LWPOLYLINE
  5
2DC
330
1F
100
AcDbEntity
  8
0
  6
Continuous
 62
     7
370
    30
100
AcDbPolyline
 90
       34
 70
   128
 43
0.0
 10
188.4818233687
 20
160.5151710354
 10
188.8560470928
 20
160.3367976858
 10
189.2819839371
 20
160.2025326217
 10
189.7442394344
 20
160.1172285322
 10
190.2261064665
 20
160.0839685296
 10
190.7101691034
 20
160.1039547169
 10
191.1789320603
 20
160.1764647412
 10
191.6154530224
 20
160.2988779014
 10
192.003954985
 20
160.4667698669
 10
192.3303964747
 20
160.6740725845
 10
192.5829790457
 20
160.9132935941
 10
192.7525737058
 20
161.175786825
 10
192.833050862
 20
161.4520650879
 10
192.8215018602
 20
161.7321429665
 10
192.7183441115
 20
162.0058977167
 10
192.5273060057
 20
162.2634351284
 10
192.2552921576
 20
162.4954471286
 10
191.9121338565
 20
162.6935481992
 10
191.5102337374
 20
162.8505784512
 10
191.0641175178
 20
162.9608624022
 10
190.5899090003
 20
163.020414103
 10
190.1047473161
 20
163.0270811998
 10
189.6261674726
 20
162.9806227264
 10
189.1714665923
 20
162.8827178131
 10
188.7570787497
 20
162.7369049986
 10
188.3979810012
 20
162.5484543378
 10
188.1071520749
 20
162.3241769287
 10
187.895103286
 20
162.0721787412
 10
187.7694986303
 20
161.8015676463
 10
187.7348777872
 20
161.5221242342
 10
187.7924920443
 20
161.2439483177
 10
187.9402590721
 20
160.9770938992
 10
188.1728381853
 20
160.7312057929
 10
188.4818233687
 20
160.5151710354
  0
LWPOLYLINE
  5
2DD
330
1F
100
AcDbEntity
  8
0
  6
Continuous
 62
     7
370
    30
100
AcDbPolyline
 90
       34
 70
   128
 43
0.0
 10
206.4423356108
 20
170.8835540555
 10
206.8165593349
 20
170.7051807059
 10
207.2424961793
 20
170.5709156418
 10
207.7047516765
 20
170.4856115524
 10
208.1866187086
 20
170.4523515498
 10
208.6706813456
 20
170.472337737
 10
209.1394443024
 20
170.5448477614
 10
209.5759652646
 20
170.6672609216
 10
209.9644672271
 20
170.835152887
 10
210.2909087169
 20
171.0424556047
 10
210.5434912879
 20
171.2816766143
 10
210.7130859479
 20
171.5441698451
 10
210.7935631041
 20
171.820448108
 10
210.7820141024
 20
172.1005259867
 10
210.6788563537
 20
172.3742807368
 10
210.4878182478
 20
172.6318181486
 10
210.2158043998
 20
172.8638301488
 10
209.8726460986
 20
173.0619312193
 10
209.4707459796
 20
173.2189614713
 10
209.02462976
 20
173.3292454224
 10
208.5504212424
 20
173.3887971231
 10
208.0652595582
 20
173.3954642199
 10
207.5866797147
 20
173.3490057465
 10
207.1319788344
 20
173.2511008333
 10
206.7175909919
 20
173.1052880187
 10
206.3584932433
 20
172.916837358
 10
206.067664317
 20
172.6925599489
 10
205.8556155282
 20
172.4405617614
 10
205.7300108724
 20
172.1699506665
 10
205.6953900293
 20
171.8905072543
 10
205.7530042864
 20
171.6123313378
 10
205.9007713142
 20
171.3454769194
 10
206.1333504274
 20
171.099588813
 10
206.4423356108
 20
170.8835540555
  0
LWPOLYLINE
  5
2DE
330
1F
100
AcDbEntity
  8
0
  6
Continuous
 62
     7
370
    30
100
AcDbPolyline
 90
       49
 70
   128
 43
0.0
 10
204.3185050382
 20
159.2891097433
 10
204.8649364012
 20
159.0124691743
 10
205.4692420912
 20
158.7793695445
 10
206.1210822701
 20
158.5937992533
 10
206.8093037718
 20
158.4589334598
 10
207.5221309356
 20
158.377079755
 10
208.2473670912
 20
158.3496386786
 10
208.9726032467
 20
158.377079755
 10
209.6854304105
 20
158.4589334598
 10
210.3736519122
 20
158.5937992533
 10
211.0254920912
 20
158.7793695445
 10
211.6297977811
 20
159.0124691743
 10
212.1762291441
 20
159.2891097433
 10
212.6554365882
 20
159.6045578546
 10
213.0592207409
 20
159.9534161038
 10
213.3806727437
 20
160.3297154293
 10
213.6142924635
 20
160.7270172455
 10
213.7560826022
 20
161.138523608
 10
213.8036170912
 20
161.5571935289
 10
213.7560826022
 20
161.9758634499
 10
213.6142924635
 20
162.3873698124
 10
213.3806727437
 20
162.7846716285
 10
213.0592207409
 20
163.1609709541
 10
212.6554365882
 20
163.5098292032
 10
212.1762291441
 20
163.8252773146
 10
211.6297977811
 20
164.1019178836
 10
211.0254920912
 20
164.3350175133
 10
210.3736519122
 20
164.5205878045
 10
209.6854304105
 20
164.655453598
 10
208.9726032467
 20
164.7373073028
 10
208.2473670912
 20
164.7647483792
 10
207.5221309356
 20
164.7373073028
 10
206.8093037718
 20
164.655453598
 10
206.1210822701
 20
164.5205878045
 10
205.4692420912
 20
164.3350175133
 10
204.8649364012
 20
164.1019178836
 10
204.3185050382
 20
163.8252773146
 10
203.8392975942
 20
163.5098292032
 10
203.4355134414
 20
163.1609709541
 10
203.1140614386
 20
162.7846716285
 10
202.8804417188
 20
162.3873698124
 10
202.7386515802
 20
161.9758634499
 10
202.6911170912
 20
161.5571935289
 10
202.7386515802
 20
161.138523608
 10
202.8804417188
 20
160.7270172455
 10
203.1140614386
 20
160.3297154293
 10
203.4355134414
 20
159.9534161038
 10
203.8392975942
 20
159.6045578546
 10
204.3185050382
 20
159.2891097433
  0
LWPOLYLINE
  5
2DF
330
1F
100
AcDbEntity
  8
0
  6
Continuous
 62
     7
370
    30
100
AcDbPolyline
 90
       49
 70
   128
 43
0.0
 10
240.2395295225
 20
138.552343703
 10
240.7859608855
 20
138.275703134
 10
241.3902665754
 20
138.0426035043
 10
242.0421067544
 20
137.857033213
 10
242.7303282561
 20
137.7221674195
 10
243.4431554199
 20
137.6403137147
 10
244.1683915754
 20
137.6128726383
 10
244.893627731
 20
137.6403137147
 10
245.6064548948
 20
137.7221674195
 10
246.2946763965
 20
137.857033213
 10
246.9465165754
 20
138.0426035043
 10
247.5508222654
 20
138.275703134
 10
248.0972536284
 20
138.552343703
 10
248.5764610724
 20
138.8677918143
 10
248.9802452252
 20
139.2166500635
 10
249.301697228
 20
139.592949389
 10
249.5353169478
 20
139.9902512052
 10
249.6771070864
 20
140.4017575677
 10
249.7246415754
 20
140.8204274886
 10
249.6771070864
 20
141.2390974096
 10
249.5353169478
 20
141.6506037721
 10
249.301697228
 20
142.0479055882
 10
248.9802452252
 20
142.4242049138
 10
248.5764610724
 20
142.7730631629
 10
248.0972536284
 20
143.0885112743
 10
247.5508222654
 20
143.3651518433
 10
246.9465165754
 20
143.598251473
 10
246.2946763965
 20
143.7838217642
 10
245.6064548948
 20
143.9186875577
 10
244.893627731
 20
144.0005412625
 10
244.1683915754
 20
144.0279823389
 10
243.4431554199
 20
144.0005412625
 10
242.7303282561
 20
143.9186875577
 10
242.0421067544
 20
143.7838217642
 10
241.3902665754
 20
143.598251473
 10
240.7859608855
 20
143.3651518433
 10
240.2395295225
 20
143.0885112743
 10
239.7603220784
 20
142.7730631629
 10
239.3565379257
 20
142.4242049138
 10
239.0350859229
 20
142.0479055882
 10
238.8014662031
 20
141.6506037721
 10
238.6596760644
 20
141.2390974096
 10
238.6121415754
 20
140.8204274886
 10
238.6596760644
 20
140.4017575677
 10
238.8014662031
 20
139.9902512052
 10
239.0350859229
 20
139.592949389
 10
239.3565379257
 20
139.2166500635
 10
239.7603220784
 20
138.8677918143
 10
240.2395295225
 20
138.552343703
  0
LWPOLYLINE
  5
2E0
330
1F
100
AcDbEntity
  8
0
  6
Continuous
 62
     7
370
    30
100
AcDbPolyline
 90
       49
 70
   128
 43
0.0
 10
240.2395295225
 20
159.2891097433
 10
240.7859608855
 20
159.0124691743
 10
241.3902665754
 20
158.7793695445
 10
242.0421067544
 20
158.5937992533
 10
242.7303282561
 20
158.4589334598
 10
243.4431554199
 20
158.377079755
 10
244.1683915754
 20
158.3496386786
 10
244.893627731
 20
158.377079755
 10
245.6064548948
 20
158.4589334598
 10
246.2946763965
 20
158.5937992533
 10
246.9465165754
 20
158.7793695445
 10
247.5508222654
 20
159.0124691743
 10
248.0972536284
 20
159.2891097433
 10
248.5764610724
 20
159.6045578546
 10
248.9802452252
 20
159.9534161038
 10
249.301697228
 20
160.3297154293
 10
249.5353169478
 20
160.7270172455
 10
249.6771070864
 20
161.138523608
 10
249.7246415754
 20
161.5571935289
 10
249.6771070864
 20
161.9758634499
 10
249.5353169478
 20
162.3873698124
 10
249.301697228
 20
162.7846716285
 10
248.9802452252
 20
163.1609709541
 10
248.5764610724
 20
163.5098292032
 10
248.0972536284
 20
163.8252773146
 10
247.5508222654
 20
164.1019178836
 10
246.9465165754
 20
164.3350175133
 10
246.2946763965
 20
164.5205878045
 10
245.6064548948
 20
164.655453598
 10
244.893627731
 20
164.7373073028
 10
244.1683915754
 20
164.7647483792
 10
243.4431554199
 20
164.7373073028
 10
242.7303282561
 20
164.655453598
 10
242.0421067544
 20
164.5205878045
 10
241.3902665754
 20
164.3350175133
 10
240.7859608855
 20
164.1019178836
 10
240.2395295225
 20
163.8252773146
 10
239.7603220784
 20
163.5098292032
 10
239.3565379257
 20
163.1609709541
 10
239.0350859229
 20
162.7846716285
 10
238.8014662031
 20
162.3873698124
 10
238.6596760644
 20
161.9758634499
 10
238.6121415754
 20
161.5571935289
 10
238.6596760644
 20
161.138523608
 10
238.8014662031
 20
160.7270172455
 10
239.0350859229
 20
160.3297154293
 10
239.3565379257
 20
159.9534161038
 10
239.7603220784
 20
159.6045578546
 10
240.2395295225
 20
159.2891097433
  0
LWPOLYLINE
  5
2E1
330
1F
100
AcDbEntity
  8
0
  6
Continuous
 62
     7
370
    30
100
AcDbPolyline
 90
       49
 70
   128
 43
0.0
 10
222.2790172803
 20
148.9207267231
 10
222.8254486434
 20
148.6440861541
 10
223.4297543333
 20
148.4109865244
 10
224.0815945122
 20
148.2254162332
 10
224.7698160139
 20
148.0905504397
 10
225.4826431778
 20
148.0086967349
 10
226.2078793333
 20
147.9812556585
 10
226.9331154888
 20
148.0086967349
 10
227.6459426526
 20
148.0905504397
 10
228.3341641544
 20
148.2254162332
 10
228.9860043333
 20
148.4109865244
 10
229.5903100232
 20
148.6440861541
 10
230.1367413863
 20
148.9207267231
 10
230.6159488303
 20
149.2361748345
 10
231.0197329831
 20
149.5850330836
 10
231.3411849858
 20
149.9613324092
 10
231.5748047056
 20
150.3586342253
 10
231.7165948443
 20
150.7701405878
 10
231.7641293333
 20
151.1888105088
 10
231.7165948443
 20
151.6074804297
 10
231.5748047056
 20
152.0189867922
 10
231.3411849858
 20
152.4162886084
 10
231.0197329831
 20
152.7925879339
 10
230.6159488303
 20
153.141446183
 10
230.1367413863
 20
153.4568942944
 10
229.5903100232
 20
153.7335348634
 10
228.9860043333
 20
153.9666344931
 10
228.3341641544
 20
154.1522047843
 10
227.6459426526
 20
154.2870705779
 10
226.9331154888
 20
154.3689242827
 10
226.2078793333
 20
154.396365359
 10
225.4826431778
 20
154.3689242827
 10
224.7698160139
 20
154.2870705779
 10
224.0815945122
 20
154.1522047843
 10
223.4297543333
 20
153.9666344931
 10
222.8254486434
 20
153.7335348634
 10
222.2790172803
 20
153.4568942944
 10
221.7998098363
 20
153.141446183
 10
221.3960256835
 20
152.7925879339
 10
221.0745736808
 20
152.4162886084
 10
220.840953961
 20
152.0189867922
 10
220.6991638223
 20
151.6074804297
 10
220.6516293333
 20
151.1888105088
 10
220.6991638223
 20
150.7701405878
 10
220.840953961
 20
150.3586342253
 10
221.0745736808
 20
149.9613324092
 10
221.3960256835
 20
149.5850330836
 10
221.7998098363
 20
149.2361748345
 10
222.2790172803
 20
148.9207267231
  0
LWPOLYLINE
  5
2E2
330
1F
100
AcDbEntity
  8
0
  6
Continuous
 62
     7
370
    30
100
AcDbPolyline
 90
       49
 70
   128
 43
0.0
 10
204.3185050382
 20
138.552343703
 10
204.8649364012
 20
138.275703134
 10
205.4692420912
 20
138.0426035043
 10
206.1210822701
 20
137.857033213
 10
206.8093037718
 20
137.7221674195
 10
207.5221309356
 20
137.6403137147
 10
208.2473670912
 20
137.6128726383
 10
208.9726032467
 20
137.6403137147
 10
209.6854304105
 20
137.7221674195
 10
210.3736519122
 20
137.857033213
 10
211.0254920912
 20
138.0426035043
 10
211.6297977811
 20
138.275703134
 10
212.1762291441
 20
138.552343703
 10
212.6554365882
 20
138.8677918143
 10
213.0592207409
 20
139.2166500635
 10
213.3806727437
 20
139.592949389
 10
213.6142924635
 20
139.9902512052
 10
213.7560826022
 20
140.4017575677
 10
213.8036170912
 20
140.8204274886
 10
213.7560826022
 20
141.2390974096
 10
213.6142924635
 20
141.6506037721
 10
213.3806727437
 20
142.0479055882
 10
213.0592207409
 20
142.4242049138
 10
212.6554365882
 20
142.7730631629
 10
212.1762291441
 20
143.0885112743
 10
211.6297977811
 20
143.3651518433
 10
211.0254920912
 20
143.598251473
 10
210.3736519122
 20
143.7838217642
 10
209.6854304105
 20
143.9186875577
 10
208.9726032467
 20
144.0005412625
 10
208.2473670912
 20
144.0279823389
 10
207.5221309356
 20
144.0005412625
 10
206.8093037718
 20
143.9186875577
 10
206.1210822701
 20
143.7838217642
 10
205.4692420912
 20
143.598251473
 10
204.8649364012
 20
143.3651518433
 10
204.3185050382
 20
143.0885112743
 10
203.8392975942
 20
142.7730631629
 10
203.4355134414
 20
142.4242049138
 10
203.1140614386
 20
142.0479055882
 10
202.8804417188
 20
141.6506037721
 10
202.7386515802
 20
141.2390974096
 10
202.6911170912
 20
140.8204274886
 10
202.7386515802
 20
140.4017575677
 10
202.8804417188
 20
139.9902512052
 10
203.1140614386
 20
139.592949389
 10
203.4355134414
 20
139.2166500635
 10
203.8392975942
 20
138.8677918143
 10
204.3185050382
 20
138.552343703
  0
LWPOLYLINE
  5
2E3
330
1F
100
AcDbEntity
  8
0
  6
Continuous
 62
     7
370
    30
100
AcDbPolyline
 90
       42
 70
   128
 43
0.0
 10
241.3620615376
 20
149.5687506619
 10
241.8233348079
 20
149.3404361007
 10
242.3395742213
 20
149.1554458691
 10
242.8986795635
 20
149.0181159812
 10
243.487545879
 20
148.9316653332
 10
244.0923706406
 20
148.8981202551
 10
244.6989772685
 20
148.918267015
 10
245.2931474174
 20
148.99163339
 10
245.8609542427
 20
149.1164997344
 10
246.3890888336
 20
149.289939287
 10
246.865172163
 20
149.5078867716
 10
247.2780452411
 20
149.7652336839
 10
247.6180306729
 20
150.0559480304
 10
247.877159488
 20
150.3732157133
 10
248.0493579267
 20
150.7096002469
 10
248.1305898034
 20
151.0572170628
 10
248.1189511119
 20
151.4079183176
 10
248.0147146532
 20
151.7534838711
 10
247.8203236415
 20
152.0858139595
 10
247.5403344374
 20
152.3971190474
 10
247.1813097506
 20
152.6801024072
 10
246.7516648154
 20
152.9281311488
 10
246.2614701449
 20
153.1353916889
 10
245.7222154868
 20
153.2970260159
 10
245.1465405131
 20
153.4092455583
 10
244.5479385574
 20
153.469419985
 10
243.9404403421
 20
153.4761388586
 10
243.3382851105
 20
153.4292446944
 10
242.7555868709
 20
153.3298366517
 10
242.2060035761
 20
153.1802447709
 10
241.7024169928
 20
152.9839753588
 10
241.2566307637
 20
152.7456288042
 10
240.8790937401
 20
152.4707917482
 10
240.5786550698
 20
152.1659061385
 10
240.3623567807
 20
151.8381182354
 10
240.2352687214
 20
151.4951111096
 10
240.2003697282
 20
151.1449245572
 10
240.258477804
 20
150.7957666544
 10
240.4082309447
 20
150.4558213664
 10
240.6461190636
 20
150.1330567226
 10
240.9665662648
 20
149.8350380527
 10
241.3620615376
 20
149.5687506619
  0
LWPOLYLINE
  5
2E4
330
1F
100
AcDbEntity
  8
0
  6
Continuous
 62
     7
370
    30
100
AcDbPolyline
 90
       42
 70
   128
 43
0.0
 10
223.4015492955
 20
159.937133682
 10
223.8628225658
 20
159.7088191209
 10
224.3790619792
 20
159.5238288892
 10
224.9381673213
 20
159.3864990013
 10
225.5270336368
 20
159.3000483533
 10
226.1318583985
 20
159.2665032752
 10
226.7384650263
 20
159.2866500352
 10
227.3326351753
 20
159.3600164102
 10
227.9004420006
 20
159.4848827546
 10
228.4285765915
 20
159.6583223072
 10
228.9046599209
 20
159.8762697918
 10
229.317532999
 20
160.1336167041
 10
229.6575184308
 20
160.4243310506
 10
229.9166472459
 20
160.7415987334
 10
230.0888456845
 20
161.077983267
 10
230.1700775613
 20
161.425600083
 10
230.1584388697
 20
161.7763013378
 10
230.054202411
 20
162.1218668912
 10
229.8598113994
 20
162.4541969797
 10
229.5798221953
 20
162.7655020675
 10
229.2207975085
 20
163.0484854273
 10
228.7911525732
 20
163.296514169
 10
228.3009579028
 20
163.503774709
 10
227.7617032446
 20
163.665409036
 10
227.186028271
 20
163.7776285784
 10
226.5874263152
 20
163.8378030052
 10
225.9799281
 20
163.8445218788
 10
225.3777728684
 20
163.7976277145
 10
224.7950746288
 20
163.6982196718
 10
224.245491334
 20
163.548627791
 10
223.7419047507
 20
163.352358379
 10
223.2961185215
 20
163.1140118243
 10
222.9185814979
 20
162.8391747683
 10
222.6181428277
 20
162.5342891587
 10
222.4018445386
 20
162.2065012556
 10
222.2747564793
 20
161.8634941297
 10
222.2398574861
 20
161.5133075774
 10
222.2979655619
 20
161.1641496745
 10
222.4477187025
 20
160.8242043865
 10
222.6856068214
 20
160.5014397427
 10
223.0060540227
 20
160.2034210729
 10
223.4015492955
 20
159.937133682
  0
LWPOLYLINE
  5
2E5
330
1F
100
AcDbEntity
  8
0
  6
Continuous
 62
     7
370
    30
100
AcDbPolyline
 90
       42
 70
   128
 43
0.0
 10
205.4410370533
 20
149.5687506619
 10
205.9023103237
 20
149.3404361007
 10
206.418549737
 20
149.1554458691
 10
206.9776550792
 20
149.0181159812
 10
207.5665213947
 20
148.9316653332
 10
208.1713461563
 20
148.8981202551
 10
208.7779527842
 20
148.918267015
 10
209.3721229331
 20
148.99163339
 10
209.9399297584
 20
149.1164997344
 10
210.4680643494
 20
149.289939287
 10
210.9441476787
 20
149.5078867716
 10
211.3570207568
 20
149.7652336839
 10
211.6970061886
 20
150.0559480304
 10
211.9561350037
 20
150.3732157133
 10
212.1283334424
 20
150.7096002469
 10
212.2095653191
 20
151.0572170628
 10
212.1979266276
 20
151.4079183176
 10
212.0936901689
 20
151.7534838711
 10
211.8992991572
 20
152.0858139595
 10
211.6193099532
 20
152.3971190474
 10
211.2602852663
 20
152.6801024072
 10
210.8306403311
 20
152.9281311488
 10
210.3404456606
 20
153.1353916889
 10
209.8011910025
 20
153.2970260159
 10
209.2255160288
 20
153.4092455583
 10
208.6269140731
 20
153.469419985
 10
208.0194158578
 20
153.4761388586
 10
207.4172606262
 20
153.4292446944
 10
206.8345623866
 20
153.3298366517
 10
206.2849790919
 20
153.1802447709
 10
205.7813925086
 20
152.9839753588
 10
205.3356062794
 20
152.7456288042
 10
204.9580692558
 20
152.4707917482
 10
204.6576305855
 20
152.1659061385
 10
204.4413322965
 20
151.8381182354
 10
204.3142442371
 20
151.4951111096
 10
204.2793452439
 20
151.1449245572
 10
204.3374533197
 20
150.7957666544
 10
204.4872064604
 20
150.4558213664
 10
204.7250945793
 20
150.1330567226
 10
205.0455417805
 20
149.8350380527
 10
205.4410370533
 20
149.5687506619
  0
LWPOLYLINE
  5
2E6
330
1F
100
AcDbEntity
  8
0
  6
Continuous
 62
     7
370
    30
100
AcDbPolyline
 90
       42
 70
   128
 43
0.0
 10
223.4015492955
 20
139.2003676417
 10
223.8628225658
 20
138.9720530806
 10
224.3790619792
 20
138.7870628489
 10
224.9381673213
 20
138.649732961
 10
225.5270336369
 20
138.5632823131
 10
226.1318583985
 20
138.5297372349
 10
226.7384650263
 20
138.5498839949
 10
227.3326351753
 20
138.6232503699
 10
227.9004420006
 20
138.7481167143
 10
228.4285765915
 20
138.9215562669
 10
228.9046599209
 20
139.1395037515
 10
229.317532999
 20
139.3968506638
 10
229.6575184308
 20
139.6875650103
 10
229.9166472459
 20
140.0048326931
 10
230.0888456845
 20
140.3412172267
 10
230.1700775613
 20
140.6888340427
 10
230.1584388697
 20
141.0395352975
 10
230.054202411
 20
141.3851008509
 10
229.8598113994
 20
141.7174309394
 10
229.5798221953
 20
142.0287360272
 10
229.2207975085
 20
142.311719387
 10
228.7911525732
 20
142.5597481287
 10
228.3009579028
 20
142.7670086687
 10
227.7617032446
 20
142.9286429957
 10
227.186028271
 20
143.0408625381
 10
226.5874263153
 20
143.1010369649
 10
225.9799281
 20
143.1077558385
 10
225.3777728684
 20
143.0608616742
 10
224.7950746288
 20
142.9614536315
 10
224.245491334
 20
142.8118617507
 10
223.7419047507
 20
142.6155923387
 10
223.2961185215
 20
142.377245784
 10
222.9185814979
 20
142.1024087281
 10
222.6181428277
 20
141.7975231184
 10
222.4018445386
 20
141.4697352153
 10
222.2747564793
 20
141.1267280894
 10
222.2398574861
 20
140.7765415371
 10
222.2979655619
 20
140.4273836342
 10
222.4477187025
 20
140.0874383462
 10
222.6856068214
 20
139.7646737024
 10
223.0060540227
 20
139.4666550326
 10
223.4015492955
 20
139.2003676417
  0
LINE
  5
2E7
330
1F
100
AcDbEntity
  8
0
  6
Continuous
 62
     7
370
    30
100
AcDbLine
 10
235.0467140981
 20
113.8370777924
 30
0.0
 11
279.5944413129
 21
139.5539333148
 31
0.0
  0
LINE
  5
2E8
330
1F
100
AcDbEntity
  8
0
  6
Continuous
 62
     7
370
    30
100
AcDbLine
 10
172.8213173537
 20
147.3098103771
 30
0.0
 11
230.804073411
 21
113.8370777924
 31
0.0
  0
ARC
  5
2E9
330
1F
100
AcDbEntity
  8
0
  6
Continuous
 62
     7
370
    30
100
AcDbCircle
 10
244.1683915754
 20
129.9962623847
 30
0.0
 40
8.85799857097742
100
AcDbArc
 50
68.3243824334
 51
111.6756175666
  0
ARC
  5
2EA
330
1F
100
AcDbEntity
  8
0
  6
Continuous
 62
     7
370
    30
100
AcDbCircle
 10
208.2473670912
 20
129.9962623847
 30
0.0
 40
8.85799857097734
100
AcDbArc
 50
68.3243824334
 51
111.6756175666
  0
ARC
  5
2EB
330
1F
100
AcDbEntity
  8
0
  6
Continuous
 62
     7
370
    30
100
AcDbCircle
 10
226.2078793333
 20
133.5881161082
 30
0.0
 40
6.137659650595015
100
AcDbArc
 50
64.3240361232
 51
115.6759638768
  0
ARC
  5
2EC
330
1F
100
AcDbEntity
  8
0
  6
Continuous
 62
     7
370
    30
100
AcDbCircle
 10
226.2078793333
 20
134.9880225234
 30
0.0
 40
3.730138555523686
100
AcDbArc
 50
75.2751904589
 51
104.7248095411
  0
ARC
  5
2ED
330
1F
100
AcDbEntity
  8
0
  6
Continuous
 62
     7
370
    30
100
AcDbCircle
 10
278.9717497819
 20
140.9282646132
 30
0.0
 40
1.508817835481161
100
AcDbArc
 50
294.3746582936
 51
354.3052007488
  0
ARC
  5
2EE
330
1F
100
AcDbEntity
  8
0
  6
Continuous
 62
     7
370
    30
100
AcDbCircle
 10
226.2078793333
 20
140.3646454049
 30
0.0
 40
8.857998570977314
100
AcDbArc
 50
68.3243824334
 51
111.6756175666
  0
ARC
  5
2EF
330
1F
100
AcDbEntity
  8
0
  6
Continuous
 62
     7
370
    30
100
AcDbCircle
 10
208.2473670912
 20
143.9564991284
 30
0.0
 40
6.137659650595064
100
AcDbArc
 50
64.3240361232
 51
115.6759638768
  0
ARC
  5
2F0
330
1F
100
AcDbEntity
  8
0
  6
Continuous
 62
     7
370
    30
100
AcDbCircle
 10
244.1683915754
 20
143.9564991284
 30
0.0
 40
6.137659650595129
100
AcDbArc
 50
64.3240361232
 51
115.6759638768
  0
ARC
  5
2F1
330
1F
100
AcDbEntity
  8
0
  6
Continuous
 62
     7
370
    30
100
AcDbCircle
 10
208.2473670912
 20
145.3564055435
 30
0.0
 40
3.730138555523887
100
AcDbArc
 50
75.2751904589
 51
104.7248095411
  0
ARC
  5
2F2
330
1F
100
AcDbEntity
  8
0
  6
Continuous
 62
     7
370
    30
100
AcDbCircle
 10
244.1683915754
 20
145.3564055435
 30
0.0
 40
3.730138555524862
100
AcDbArc
 50
75.2751904589
 51
104.7248095411
  0
ARC
  5
2F3
330
1F
100
AcDbEntity
  8
0
  6
Continuous
 62
     7
370
    30
100
AcDbCircle
 10
173.4440088847
 20
148.6841416755
 30
0.0
 40
1.508817835481304
100
AcDbArc
 50
185.6947992512
 51
245.6253417064
  0
ARC
  5
2F4
330
1F
100
AcDbEntity
  8
0
  6
Continuous
 62
     7
370
    30
100
AcDbCircle
 10
244.1683915754
 20
150.733028425
 30
0.0
 40
8.85799857097742
100
AcDbArc
 50
68.3243824334
 51
111.6756175666
  0
ARC
  5
2F5
330
1F
100
AcDbEntity
  8
0
  6
Continuous
 62
     7
370
    30
100
AcDbCircle
 10
208.2473670912
 20
150.733028425
 30
0.0
 40
8.857998570977067
100
AcDbArc
 50
68.3243824334
 51
111.6756175666
  0
ARC
  5
2F6
330
1F
100
AcDbEntity
  8
0
  6
Continuous
 62
     7
370
    30
100
AcDbCircle
 10
226.2078793333
 20
154.3248821485
 30
0.0
 40
6.137659650595231
100
AcDbArc
 50
64.3240361232
 51
115.6759638768
  0
ARC
  5
2F7
330
1F
100
AcDbEntity
  8
0
  6
Continuous
 62
     7
370
    30
100
AcDbCircle
 10
226.2078793333
 20
155.7247885637
 30
0.0
 40
3.730138555525206
100
AcDbArc
 50
75.2751904589
 51
104.7248095411
  0
LINE
  5
2F8
330
1F
100
AcDbEntity
  8
0
  6
PHANTOM
 62
     8
370
     0
100
AcDbLine
 10
235.0467140981
 20
120.3694042875
 30
0.0
 11
235.0467140981
 21
113.8370777924
 31
0.0
  0
LINE
  5
2F9
330
1F
100
AcDbEntity
  8
0
  6
PHANTOM
 62
     8
370
     0
100
AcDbLine
 10
230.804073411
 20
113.8370777924
 30
0.0
 11
230.804073411
 21
120.3694042875
 31
0.0
  0
LINE
  5
2FA
330
1F
100
AcDbEntity
  8
0
  6
PHANTOM
 62
     8
370
     0
100
AcDbLine
 10
279.5944413129
 20
139.5539333148
 30
0.0
 11
279.5944413129
 21
146.0862598099
 31
0.0
  0
LINE
  5
2FB
330
1F
100
AcDbEntity
  8
0
  6
PHANTOM
 62
     8
370
     0
100
AcDbLine
 10
172.8213173537
 20
153.8421368722
 30
0.0
 11
172.8213173537
 21
147.3098103771
 31
0.0
  0
LWPOLYLINE
  5
2FC
330
1F
100
AcDbEntity
  8
0
  6
Continuous
 62
     7
370
     0
100
AcDbPolyline
 90
       34
 70
   128
 43
0.0
 10
264.3737792969
 20
139.5243796111
 10
263.9085154547
 20
139.3025222111
 10
263.3787432602
 20
139.1355258627
 10
262.8037986119
 20
139.029426249
 10
262.2044615073
 20
138.9880580865
 10
261.6023935509
 20
139.0129165284
 10
261.0193550473
 20
139.1031031258
 10
260.4764185273
 20
139.2553583002
 10
259.9932071311
 20
139.4641791527
 10
259.5871853776
 20
139.7220183538
 10
259.273027951
 20
140.0195569229
 10
259.0620893191
 20
140.3460410409
 10
258.9619933537
 20
140.6896707211
 10
258.9763577837
 20
141.0380262916
 10
259.1046634413
 20
141.3785172744
 10
259.3422730257
 20
141.6988374382
 10
259.6805987074
 20
141.9874095778
 10
260.1074125147
 20
142.2338039442
 10
260.6072882847
 20
142.4291152029
 10
261.1621592046
 20
142.5662842962
 10
261.7519707936
 20
142.6403535757
 10
262.3554057242
 20
142.6486459847
 10
262.9506542858
 20
142.5908618138
 10
263.5162026443
 20
142.4690895336
 10
264.0316104087
 20
142.2877303116
 10
264.4782493995
 20
142.0533389425
 10
264.8399769197
 20
141.7743869411
 10
265.1037191944
 20
141.4609563596
 10
265.2599438906
 20
141.1243753959
 10
265.3030046407
 20
140.7768089628
 10
265.231345117
 20
140.4308190169
 10
265.0475552814
 20
140.0989105363
 10
264.7582777775
 20
139.7930795582
 10
264.3739678478
 20
139.5243796111
  0
LWPOLYLINE
  5
2FD
330
1F
100
AcDbEntity
  8
0
  6
Continuous
 62
     7
370
     0
100
AcDbPolyline
 90
       34
 70
   128
 43
0.0
 10
246.4133501053
 20
129.155996591
 10
245.9480032126
 20
128.9341391909
 10
245.4182310181
 20
128.7671428425
 10
244.8432863698
 20
128.6610432288
 10
244.2439492651
 20
128.6196750663
 10
243.6418813088
 20
128.6445335083
 10
243.0588428052
 20
128.7347201057
 10
242.5159062851
 20
128.88697528
 10
242.0326948889
 20
129.0957961326
 10
241.6266731355
 20
129.3536353337
 10
241.3125157089
 20
129.6511739028
 10
241.101577077
 20
129.9776580208
 10
241.0014811115
 20
130.321287701
 10
241.0158455416
 20
130.6696432715
 10
241.1441511992
 20
131.0101342543
 10
241.3817607836
 20
131.3304544181
 10
241.7200864652
 20
131.6190265577
 10
242.1469002726
 20
131.865420924
 10
242.6467760426
 20
132.0607321827
 10
243.2016469625
 20
132.1979012761
 10
243.7914585515
 20
132.2719705556
 10
244.3948934821
 20
132.2802629646
 10
244.9901420436
 20
132.2224787937
 10
245.5556904022
 20
132.1007065135
 10
246.0710981666
 20
131.9193472914
 10
246.5177371574
 20
131.6849559223
 10
246.8794646776
 20
131.406003921
 10
247.1432069523
 20
131.0925733395
 10
247.2994316485
 20
130.7559923757
 10
247.3424923986
 20
130.4084259427
 10
247.2708328749
 20
130.0624359968
 10
247.0870430393
 20
129.7305275161
 10
246.7977655353
 20
129.4246965381
 10
246.4134556057
 20
129.155996591
  0
LWPOLYLINE
  5
2FE
330
1F
100
AcDbEntity
  8
0
  6
Continuous
 62
     7
370
     0
100
AcDbPolyline
 90
       34
 70
   128
 43
0.0
 10
192.5318241119
 20
160.2611456514
 10
192.0664664861
 20
160.0392882514
 10
191.5366942917
 20
159.872291903
 10
190.9617496434
 20
159.7661922893
 10
190.3624125387
 20
159.7248241268
 10
189.7603445823
 20
159.7496825687
 10
189.1773060788
 20
159.8398691661
 10
188.6343695587
 20
159.9921243405
 10
188.1511581625
 20
160.200945193
 10
187.7451364091
 20
160.4587843941
 10
187.4309789825
 20
160.7563229632
 10
187.2200403506
 20
161.0828070812
 10
187.1199443851
 20
161.4264367614
 10
187.1343088152
 20
161.7747923319
 10
187.2626144728
 20
162.1152833147
 10
187.5002240571
 20
162.4356034785
 10
187.8385497388
 20
162.7241756181
 10
188.2653635462
 20
162.9705699845
 10
188.7652393162
 20
163.1658812432
 10
189.3201102361
 20
163.3030503365
 10
189.9099218251
 20
163.377119616
 10
190.5133567557
 20
163.385412025
 10
191.1086053172
 20
163.3276278541
 10
191.6741536758
 20
163.2058555739
 10
192.1895614402
 20
163.0244963519
 10
192.6362004309
 20
162.7901049828
 10
192.9979279512
 20
162.5111529814
 10
193.2616702259
 20
162.1977223999
 10
193.4178949221
 20
161.8611414362
 10
193.4609556722
 20
161.5135750031
 10
193.3892961485
 20
161.1675850572
 10
193.2055063129
 20
160.8356765766
 10
192.9162288089
 20
160.5298455985
 10
192.5319188793
 20
160.2611456514
  0
LWPOLYLINE
  5
2FF
330
1F
100
AcDbEntity
  8
0
  6
Continuous
 62
     7
370
     0
100
AcDbPolyline
 90
       34
 70
   128
 43
0.0
 10
210.4923725128
 20
170.6295286715
 10
210.0269787283
 20
170.4076712715
 10
209.4972065338
 20
170.2406749231
 10
208.9222618855
 20
170.1345753094
 10
208.3229247809
 20
170.0932071469
 10
207.7208568245
 20
170.1180655888
 10
207.1378183209
 20
170.2082521863
 10
206.5948818008
 20
170.3605073606
 10
206.1116704047
 20
170.5693282132
 10
205.7056486512
 20
170.8271674143
 10
205.3914912246
 20
171.1247059834
 10
205.1805525927
 20
171.4511901014
 10
205.0804566273
 20
171.7948197816
 10
205.0948210573
 20
172.1431753521
 10
205.2231267149
 20
172.4836663349
 10
205.4607362993
 20
172.8039864987
 10
205.799061981
 20
173.0925586383
 10
206.2258757883
 20
173.3389530046
 10
206.7257515583
 20
173.5342642633
 10
207.2806224782
 20
173.6714333567
 10
207.8704340672
 20
173.7455026362
 10
208.4738689978
 20
173.7537950451
 10
209.0691175594
 20
173.6960108743
 10
209.6346659179
 20
173.5742385941
 10
210.1500736823
 20
173.392879372
 10
210.5967126731
 20
173.1584880029
 10
210.9584401933
 20
172.8795360016
 10
211.222182468
 20
172.5661054201
 10
211.3784071642
 20
172.2295244563
 10
211.4214679143
 20
171.8819580232
 10
211.3498083906
 20
171.5359680773
 10
211.166018555
 20
171.2040595967
 10
210.8767410511
 20
170.8982286187
 10
210.4924311214
 20
170.6295286715
  0
LWPOLYLINE
  5
300
330
1F
100
AcDbEntity
  8
0
  6
Continuous
 62
     7
370
     0
100
AcDbPolyline
 90
       34
 70
   128
 43
0.0
 10
255.3935050964
 20
144.7085711212
 10
254.9282593336
 20
144.4867137212
 10
254.3984871392
 20
144.3197173727
 10
253.8235424908
 20
144.2136177591
 10
253.2242053862
 20
144.1722495966
 10
252.6221374298
 20
144.1971080385
 10
252.0390989263
 20
144.2872946359
 10
251.4961624062
 20
144.4395498102
 10
251.01295101
 20
144.6483706628
 10
250.6069292566
 20
144.9062098639
 10
250.2927718299
 20
145.203748433
 10
250.081833198
 20
145.530232551
 10
249.9817372326
 20
145.8738622312
 10
249.9961016627
 20
146.2222178017
 10
250.1244073203
 20
146.5627087845
 10
250.3620169046
 20
146.8830289483
 10
250.7003425863
 20
147.1716010879
 10
251.1271563937
 20
147.4179954542
 10
251.6270321637
 20
147.613306713
 10
252.1819030835
 20
147.7504758063
 10
252.7717146726
 20
147.8245450858
 10
253.3751496032
 20
147.8328374948
 10
253.9703981647
 20
147.7750533239
 10
254.5359465233
 20
147.6532810437
 10
255.0513542877
 20
147.4719218217
 10
255.4979932784
 20
147.2375304526
 10
255.8597207987
 20
146.9585784512
 10
256.1234630734
 20
146.6451478697
 10
256.2796877696
 20
146.3085669059
 10
256.3227485197
 20
145.9610004729
 10
256.251088996
 20
145.615010527
 10
256.0672991604
 20
145.2831020464
 10
255.7780216564
 20
144.9772710683
 10
255.3937117268
 20
144.7085711212
  0
LWPOLYLINE
  5
301
330
1F
100
AcDbEntity
  8
0
  6
Continuous
 62
     7
370
     0
100
AcDbPolyline
 90
       34
 70
   128
 43
0.0
 10
219.4726467133
 20
165.4453371615
 10
219.0072348493
 20
165.2234797615
 10
218.4774626549
 20
165.056483413
 10
217.9025180066
 20
164.9503837993
 10
217.3031809019
 20
164.9090156369
 10
216.7011129455
 20
164.9338740788
 10
216.118074442
 20
165.0240606762
 10
215.5751379219
 20
165.1763158505
 10
215.0919265257
 20
165.3851367031
 10
214.6859047723
 20
165.6429759042
 10
214.3717473457
 20
165.9405144733
 10
214.1608087138
 20
166.2669985913
 10
214.0607127483
 20
166.6106282715
 10
214.0750771784
 20
166.958983842
 10
214.203382836
 20
167.2994748248
 10
214.4409924204
 20
167.6197949886
 10
214.779318102
 20
167.9083671282
 10
215.2061319094
 20
168.1547614945
 10
215.7060076794
 20
168.3500727533
 10
216.2608785993
 20
168.4872418466
 10
216.8506901883
 20
168.5613111261
 10
217.4541251189
 20
168.5696035351
 10
218.0493736804
 20
168.5118193642
 10
218.614922039
 20
168.390047084
 10
219.1303298034
 20
168.2086878619
 10
219.5769687941
 20
167.9742964929
 10
219.9386963144
 20
167.6953444915
 10
220.2024385891
 20
167.38191391
 10
220.3586632853
 20
167.0453329462
 10
220.4017240354
 20
166.6977665132
 10
220.3300645117
 20
166.3517765673
 10
220.1462746761
 20
166.0198680867
 10
219.8569971721
 20
165.7140371086
 10
219.4726872425
 20
165.4453371615
  0
LWPOLYLINE
  5
302
330
1F
100
AcDbEntity
  8
0
  6
Continuous
 62
     7
370
     0
100
AcDbPolyline
 90
       34
 70
   128
 43
0.0
 10
201.5120983124
 20
155.0769541413
 10
201.0467226072
 20
154.8550967413
 10
200.5169504128
 20
154.6881003929
 10
199.9420057644
 20
154.5820007792
 10
199.3426686598
 20
154.5406326167
 10
198.7406007034
 20
154.5654910586
 10
198.1575621999
 20
154.6556776561
 10
197.6146256798
 20
154.8079328304
 10
197.1314142836
 20
155.016753683
 10
196.7253925302
 20
155.2745928841
 10
196.4112351035
 20
155.5721314532
 10
196.2002964716
 20
155.8986155712
 10
196.1002005062
 20
156.2422452514
 10
196.1145649363
 20
156.5906008218
 10
196.2428705938
 20
156.9310918046
 10
196.4804801782
 20
157.2514119685
 10
196.8188058599
 20
157.5399841081
 10
197.2456196673
 20
157.7863784744
 10
197.7454954373
 20
157.9816897331
 10
198.3003663571
 20
158.1188588264
 10
198.8901779462
 20
158.192928106
 10
199.4936128767
 20
158.2012205149
 10
200.0888614383
 20
158.1434363441
 10
200.6544097969
 20
158.0216640639
 10
201.1698175613
 20
157.8403048418
 10
201.616456552
 20
157.6059134727
 10
201.9781840723
 20
157.3269614713
 10
202.241926347
 20
157.0135308899
 10
202.3981510431
 20
156.6769499261
 10
202.4412117932
 20
156.329383493
 10
202.3695522695
 20
155.9833935471
 10
202.185762434
 20
155.6514850665
 10
201.89648493
 20
155.3456540885
 10
201.5121750004
 20
155.0769541413
  0
LWPOLYLINE
  5
303
330
1F
100
AcDbEntity
  8
0
  6
Continuous
 62
     7
370
     0
100
AcDbPolyline
 90
       34
 70
   128
 43
0.0
 10
237.4331951141
 20
134.340188101
 10
236.9677470915
 20
134.118330701
 10
236.437974897
 20
133.9513343526
 10
235.8630302487
 20
133.8452347389
 10
235.2636931441
 20
133.8038665764
 10
234.6616251877
 20
133.8287250183
 10
234.0785866841
 20
133.9189116158
 10
233.5356501641
 20
134.0711667901
 10
233.0524387679
 20
134.2799876427
 10
232.6464170144
 20
134.5378268438
 10
232.3322595878
 20
134.8353654129
 10
232.1213209559
 20
135.1618495309
 10
232.0212249905
 20
135.5054792111
 10
232.0355894205
 20
135.8538347815
 10
232.1638950781
 20
136.1943257643
 10
232.4015046625
 20
136.5146459282
 10
232.7398303442
 20
136.8032180678
 10
233.1666441515
 20
137.0496124341
 10
233.6665199215
 20
137.2449236928
 10
234.2213908414
 20
137.3820927861
 10
234.8112024304
 20
137.4561620657
 10
235.414637361
 20
137.4644544746
 10
236.0098859226
 20
137.4066703038
 10
236.5754342811
 20
137.2848980236
 10
237.0908420455
 20
137.1035388015
 10
237.5374810363
 20
136.8691474324
 10
237.8992085565
 20
136.590195431
 10
238.1629508312
 20
136.2767648496
 10
238.3191755274
 20
135.9401838858
 10
238.3622362775
 20
135.5926174527
 10
238.2905767538
 20
135.2466275068
 10
238.1067869182
 20
134.9147190262
 10
237.8175094143
 20
134.6088880482
 10
237.4331994846
 20
134.340188101
  0
LWPOLYLINE
  5
304
330
1F
100
AcDbEntity
  8
0
  6
Continuous
 62
     7
370
     0
100
AcDbPolyline
 90
       34
 70
   128
 43
0.0
 10
264.3737792969
 20
149.8927626313
 10
263.9085154547
 20
149.6709052312
 10
263.3787432602
 20
149.5039088828
 10
262.8037986119
 20
149.3978092691
 10
262.2044615073
 20
149.3564411066
 10
261.6023935509
 20
149.3812995485
 10
261.0193550473
 20
149.471486146
 10
260.4764185273
 20
149.6237413203
 10
259.9932071311
 20
149.8325621729
 10
259.5871853776
 20
150.090401374
 10
259.273027951
 20
150.3879399431
 10
259.0620893191
 20
150.7144240611
 10
258.9619933537
 20
151.0580537413
 10
258.9763577837
 20
151.4064093118
 10
259.1046634413
 20
151.7469002946
 10
259.3422730257
 20
152.0672204584
 10
259.6805987074
 20
152.355792598
 10
260.1074125147
 20
152.6021869643
 10
260.6072882847
 20
152.797498223
 10
261.1621592046
 20
152.9346673164
 10
261.7519707936
 20
153.0087365959
 10
262.3554057242
 20
153.0170290048
 10
262.9506542858
 20
152.959244834
 10
263.5162026443
 20
152.8374725538
 10
264.0316104087
 20
152.6561133317
 10
264.4782493995
 20
152.4217219626
 10
264.8399769197
 20
152.1427699613
 10
265.1037191944
 20
151.8293393798
 10
265.2599438906
 20
151.492758416
 10
265.3030046407
 20
151.1451919829
 10
265.231345117
 20
150.7992020371
 10
265.0475552814
 20
150.4672935564
 10
264.7582777775
 20
150.1614625784
 10
264.3739678478
 20
149.8927626313
  0
LWPOLYLINE
  5
305
330
1F
100
AcDbEntity
  8
0
  6
Continuous
 62
     7
370
     0
100
AcDbPolyline
 90
       34
 70
   128
 43
0.0
 10
228.4529209137
 20
129.155996591
 10
227.9874909704
 20
128.9341391909
 10
227.457718776
 20
128.7671428425
 10
226.8827741276
 20
128.6610432288
 10
226.283437023
 20
128.6196750663
 10
225.6813690666
 20
128.6445335083
 10
225.0983305631
 20
128.7347201057
 10
224.555394043
 20
128.88697528
 10
224.0721826468
 20
129.0957961326
 10
223.6661608934
 20
129.3536353337
 10
223.3520034667
 20
129.6511739028
 10
223.1410648348
 20
129.9776580208
 10
223.0409688694
 20
130.321287701
 10
223.0553332995
 20
130.6696432715
 10
223.1836389571
 20
131.0101342543
 10
223.4212485414
 20
131.3304544181
 10
223.7595742231
 20
131.6190265577
 10
224.1863880305
 20
131.865420924
 10
224.6862638005
 20
132.0607321827
 10
225.2411347203
 20
132.1979012761
 10
225.8309463094
 20
132.2719705556
 10
226.43438124
 20
132.2802629646
 10
227.0296298015
 20
132.2224787937
 10
227.5951781601
 20
132.1007065135
 10
228.1105859245
 20
131.9193472914
 10
228.5572249152
 20
131.6849559223
 10
228.9189524355
 20
131.406003921
 10
229.1826947102
 20
131.0925733395
 10
229.3389194064
 20
130.7559923757
 10
229.3819801564
 20
130.4084259427
 10
229.3103206328
 20
130.0624359968
 10
229.1265307972
 20
129.7305275161
 10
228.8372532932
 20
129.4246965381
 10
228.4529433636
 20
129.155996591
  0
LWPOLYLINE
  5
306
330
1F
100
AcDbEntity
  8
0
  6
Continuous
 62
     7
370
     0
100
AcDbPolyline
 90
       34
 70
   128
 43
0.0
 10
192.5318241119
 20
149.8927626313
 10
192.0664664861
 20
149.6709052312
 10
191.5366942917
 20
149.5039088828
 10
190.9617496434
 20
149.3978092691
 10
190.3624125387
 20
149.3564411066
 10
189.7603445823
 20
149.3812995485
 10
189.1773060788
 20
149.471486146
 10
188.6343695587
 20
149.6237413203
 10
188.1511581625
 20
149.8325621729
 10
187.7451364091
 20
150.090401374
 10
187.4309789825
 20
150.3879399431
 10
187.2200403506
 20
150.7144240611
 10
187.1199443851
 20
151.0580537413
 10
187.1343088152
 20
151.4064093118
 10
187.2626144728
 20
151.7469002946
 10
187.5002240571
 20
152.0672204584
 10
187.8385497388
 20
152.355792598
 10
188.2653635462
 20
152.6021869643
 10
188.7652393162
 20
152.797498223
 10
189.3201102361
 20
152.9346673164
 10
189.9099218251
 20
153.0087365959
 10
190.5133567557
 20
153.0170290048
 10
191.1086053172
 20
152.959244834
 10
191.6741536758
 20
152.8374725538
 10
192.1895614402
 20
152.6561133317
 10
192.6362004309
 20
152.4217219626
 10
192.9979279512
 20
152.1427699613
 10
193.2616702259
 20
151.8293393798
 10
193.4178949221
 20
151.492758416
 10
193.4609556722
 20
151.1451919829
 10
193.3892961485
 20
150.7992020371
 10
193.2055063129
 20
150.4672935564
 10
192.9162288089
 20
150.1614625784
 10
192.5319188793
 20
149.8927626313
  0
LWPOLYLINE
  5
307
330
1F
100
AcDbEntity
  8
0
  6
Continuous
 62
     7
370
     0
100
AcDbPolyline
 90
       34
 70
   128
 43
0.0
 10
228.4529209137
 20
170.6295286715
 10
227.9874909704
 20
170.4076712715
 10
227.457718776
 20
170.2406749231
 10
226.8827741276
 20
170.1345753094
 10
226.283437023
 20
170.0932071469
 10
225.6813690666
 20
170.1180655888
 10
225.0983305631
 20
170.2082521863
 10
224.555394043
 20
170.3605073606
 10
224.0721826468
 20
170.5693282132
 10
223.6661608934
 20
170.8271674143
 10
223.3520034667
 20
171.1247059834
 10
223.1410648348
 20
171.4511901014
 10
223.0409688694
 20
171.7948197816
 10
223.0553332995
 20
172.1431753521
 10
223.1836389571
 20
172.4836663349
 10
223.4212485414
 20
172.8039864987
 10
223.7595742231
 20
173.0925586383
 10
224.1863880305
 20
173.3389530046
 10
224.6862638005
 20
173.5342642633
 10
225.2411347203
 20
173.6714333567
 10
225.8309463094
 20
173.7455026362
 10
226.43438124
 20
173.7537950451
 10
227.0296298015
 20
173.6960108743
 10
227.5951781601
 20
173.5742385941
 10
228.1105859245
 20
173.392879372
 10
228.5572249152
 20
173.1584880029
 10
228.9189524355
 20
172.8795360016
 10
229.1826947102
 20
172.5661054201
 10
229.3389194064
 20
172.2295244563
 10
229.3819801564
 20
171.8819580232
 10
229.3103206328
 20
171.5359680773
 10
229.1265307972
 20
171.2040595967
 10
228.8372532932
 20
170.8982286187
 10
228.4529433636
 20
170.6295286715
  0
LINE
  5
308
330
1F
100
AcDbEntity
  8
0
  6
Continuous
 62
     7
370
    30
100
AcDbLine
 10
143.9143465546
 20
46.9205809962
 30
0.0
 11
143.9143465546
 21
38.9205809962
 31
0.0
  0
LINE
  5
309
330
1F
100
AcDbEntity
  8
0
  6
Continuous
 62
     7
370
    30
100
AcDbLine
 10
143.9143465546
 20
38.9205809962
 30
0.0
 11
140.9143465546
 21
38.9205809962
 31
0.0
  0
LINE
  5
30A
330
1F
100
AcDbEntity
  8
0
  6
Continuous
 62
     7
370
    30
100
AcDbLine
 10
140.9143465546
 20
46.9205809962
 30
0.0
 11
143.9143465546
 21
46.9205809962
 31
0.0
  0
LINE
  5
30B
330
1F
100
AcDbEntity
  8
0
  6
Continuous
 62
     7
370
    30
100
AcDbLine
 10
58.9143465546
 20
38.9205809962
 30
0.0
 11
140.9143465546
 21
38.9205809962
 31
0.0
  0
LINE
  5
30C
330
1F
100
AcDbEntity
  8
0
  6
Continuous
 62
     7
370
    30
100
AcDbLine
 10
58.9143465546
 20
46.9205809962
 30
0.0
 11
140.9143465546
 21
46.9205809962
 31
0.0
  0
LINE
  5
30D
330
1F
100
AcDbEntity
  8
0
  6
Continuous
 62
     7
370
    30
100
AcDbLine
 10
58.9143465546
 20
38.9205809962
 30
0.0
 11
55.9143465546
 21
38.9205809962
 31
0.0
  0
LINE
  5
30E
330
1F
100
AcDbEntity
  8
0
  6
Continuous
 62
     7
370
    30
100
AcDbLine
 10
55.9143465546
 20
38.9205809962
 30
0.0
 11
55.9143465546
 21
46.9205809962
 31
0.0
  0
LINE
  5
30F
330
1F
100
AcDbEntity
  8
0
  6
Continuous
 62
     7
370
    30
100
AcDbLine
 10
55.9143465546
 20
46.9205809962
 30
0.0
 11
58.9143465546
 21
46.9205809962
 31
0.0
  0
LINE
  5
310
330
1F
100
AcDbEntity
  8
0
  6
PHANTOM
 62
     8
370
     0
100
AcDbLine
 10
140.9143465546
 20
38.9205809962
 30
0.0
 11
140.9143465546
 21
46.9205809962
 31
0.0
  0
LINE
  5
311
330
1F
100
AcDbEntity
  8
0
  6
PHANTOM
 62
     8
370
     0
100
AcDbLine
 10
58.9143465546
 20
46.9205809962
 30
0.0
 11
58.9143465546
 21
38.9205809962
 31
0.0
  0
DIMENSION
  5
312
330
1F
100
AcDbEntity
  8
SLD-0
 62
     7
100
AcDbDimension
  2
_D_15
 10
155.6186461033
 20
38.9205809962
 30
0.0
 11
155.6186461033
 21
42.9205809962
 31
0.0
 70
   160
  1
<>
 71
     2
 42
-1.0
  3
SLDDIMSTYLE0
100
AcDbAlignedDimension
 13
143.9143465546
 23
46.9205809962
 33
0.0
 14
143.9143465546
 24
38.9205809962
 34
0.0
 50
90.0
100
AcDbRotatedDimension
  0
ENDSEC
  0
SECTION
  2
OBJECTS
  0
DICTIONARY
  5
C
330
0
100
AcDbDictionary
281
     1
  3
ACAD_GROUP
350
D
  3
ACAD_LAYOUT
350
1A
  3
ACAD_MLINESTYLE
350
17
  3
ACAD_PLOTSETTINGS
350
19
  3
ACAD_PLOTSTYLENAME
350
E
  3
ACAD_SCALELIST
350
47
  0
DICTIONARY
  5
D
102
{ACAD_REACTORS
330
C
102
}
330
C
100
AcDbDictionary
281
     1
  0
DICTIONARY
  5
1A
102
{ACAD_REACTORS
330
C
102
}
330
C
100
AcDbDictionary
281
     1
  3
Layout1
350
1E
  3
Layout2
350
26
  3
Model
350
22
  0
DICTIONARY
  5
17
102
{ACAD_REACTORS
330
C
102
}
330
C
100
AcDbDictionary
281
     1
  3
Standard
350
18
  0
DICTIONARY
  5
19
102
{ACAD_REACTORS
330
C
102
}
330
C
100
AcDbDictionary
281
     1
  0
ACDBDICTIONARYWDFLT
  5
E
102
{ACAD_REACTORS
330
C
102
}
330
C
100
AcDbDictionary
281
     1
  3
Normal
350
F
100
AcDbDictionaryWithDefault
340
F
  0
DICTIONARY
  5
47
102
{ACAD_REACTORS
330
C
102
}
330
C
100
AcDbDictionary
281
     1
  3
A0
350
48
  3
A1
350
49
  3
A2
350
4A
  3
A3
350
4B
  3
A4
350
4C
  3
A5
350
4D
  3
A6
350
4E
  3
A7
350
4F
  3
A8
350
50
  3
A9
350
51
  3
B0
350
52
  3
B1
350
53
  3
B2
350
54
  3
B3
350
55
  3
B4
350
56
  3
B5
350
57
  3
B6
350
58
  3
B7
350
59
  3
B8
350
5A
  3
B9
350
5B
  3
C0
350
5C
  3
C1
350
5D
  3
C2
350
5E
  3
C3
350
5F
  3
C4
350
60
  3
C5
350
61
  3
C6
350
62
  3
C7
350
63
  3
C8
350
64
  3
C9
350
65
  3
D0
350
66
  3
D1
350
67
  3
D2
350
68
  0
LAYOUT
  5
1E
102
{ACAD_REACTORS
330
1A
102
}
330
1A
100
AcDbPlotSettings
  1

  2
none_device
  4

  6

 40
0.0
 41
0.0
 42
0.0
 43
0.0
 44
0.0
 45
0.0
 46
0.0
 47
0.0
 48
0.0
 49
0.0
140
0.0
141
0.0
142
1.0
143
1.0
 70
   688
 72
     1
 73
     0
 74
     5
  7

 75
    16
147
1.0
148
0.0
149
0.0
100
AcDbLayout
  1
Layout1
 70
     1
 71
     1
 10
0.0
 20
0.0
 11
420.0
 21
297.0
 12
0.0
 22
0.0
 32
0.0
 14
1.0000000000E+20
 24
1.0000000000E+20
 34
1.0000000000E+20
 15
-1.0000000000E+20
 25
-1.0000000000E+20
 35
-1.0000000000E+20
146
0.0
 13
0.0
 23
0.0
 33
0.0
 16
1.0
 26
0.0
 36
0.0
 17
0.0
 27
1.0
 37
0.0
 76
     0
330
1B
  0
LAYOUT
  5
26
102
{ACAD_REACTORS
330
1A
102
}
330
1A
100
AcDbPlotSettings
  1

  2
none_device
  4

  6

 40
0.0
 41
0.0
 42
0.0
 43
0.0
 44
0.0
 45
0.0
 46
0.0
 47
0.0
 48
0.0
 49
0.0
140
0.0
141
0.0
142
1.0
143
1.0
 70
   688
 72
     1
 73
     0
 74
     5
  7

 75
    16
147
1.0
148
0.0
149
0.0
100
AcDbLayout
  1
Layout2
 70
     1
 71
     2
 10
0.0
 20
0.0
 11
0.0
 21
0.0
 12
0.0
 22
0.0
 32
0.0
 14
0.0
 24
0.0
 34
0.0
 15
0.0
 25
0.0
 35
0.0
146
0.0
 13
0.0
 23
0.0
 33
0.0
 16
1.0
 26
0.0
 36
0.0
 17
0.0
 27
1.0
 37
0.0
 76
     0
330
23
  0
LAYOUT
  5
22
102
{ACAD_REACTORS
330
1A
102
}
330
1A
100
AcDbPlotSettings
  1

  2
none_device
  4
Letter_(8.50_x_11.00_Inches)
  6

 40
6.35
 41
6.35
 42
6.35000508
 43
6.35000508
 44
215.9
 45
279.4
 46
0.0
 47
0.0
 48
0.0
 49
0.0
140
0.0
141
0.0
142
1.0
143
1.0
 70
  1712
 72
     1
 73
     0
 74
     0
  7

 75
     0
147
1.0
148
0.0
149
0.0
100
AcDbLayout
  1
Model
 70
     1
 71
     0
 10
0.0
 20
0.0
 11
297.0
 21
210.0
 12
0.0
 22
0.0
 32
0.0
 14
0.0
 24
0.0
 34
0.0
 15
297.0
 25
210.0
 35
0.0
146
0.0
 13
0.0
 23
0.0
 33
0.0
 16
1.0
 26
0.0
 36
0.0
 17
0.0
 27
1.0
 37
0.0
 76
     0
330
1F
331
29
  0
MLINESTYLE
  5
18
102
{ACAD_REACTORS
330
17
102
}
330
17
100
AcDbMlineStyle
  2
Standard
 70
     0
  3

 62
   256
 51
90.0
 52
90.0
 71
     2
 49
0.5
 62
   256
  6
BYLAYER
 49
-0.5
 62
   256
  6
BYLAYER
  0
ACDBPLACEHOLDER
  5
F
102
{ACAD_REACTORS
330
E
102
}
330
E
  0
SCALE
  5
48
102
{ACAD_REACTORS
330
47
102
}
330
47
100
AcDbScale
 70
     0
300
1:1
140
1.0
141
1.0
290
     1
  0
SCALE
  5
49
102
{ACAD_REACTORS
330
47
102
}
330
47
100
AcDbScale
 70
     0
300
1:2
140
1.0
141
2.0
290
     0
  0
SCALE
  5
4A
102
{ACAD_REACTORS
330
47
102
}
330
47
100
AcDbScale
 70
     0
300
1:4
140
1.0
141
4.0
290
     0
  0
SCALE
  5
4B
102
{ACAD_REACTORS
330
47
102
}
330
47
100
AcDbScale
 70
     0
300
1:5
140
1.0
141
5.0
290
     0
  0
SCALE
  5
4C
102
{ACAD_REACTORS
330
47
102
}
330
47
100
AcDbScale
 70
     0
300
1:8
140
1.0
141
8.0
290
     0
  0
SCALE
  5
4D
102
{ACAD_REACTORS
330
47
102
}
330
47
100
AcDbScale
 70
     0
300
1:10
140
1.0
141
10.0
290
     0
  0
SCALE
  5
4E
102
{ACAD_REACTORS
330
47
102
}
330
47
100
AcDbScale
 70
     0
300
1:16
140
1.0
141
16.0
290
     0
  0
SCALE
  5
4F
102
{ACAD_REACTORS
330
47
102
}
330
47
100
AcDbScale
 70
     0
300
1:20
140
1.0
141
20.0
290
     0
  0
SCALE
  5
50
102
{ACAD_REACTORS
330
47
102
}
330
47
100
AcDbScale
 70
     0
300
1:30
140
1.0
141
30.0
290
     0
  0
SCALE
  5
51
102
{ACAD_REACTORS
330
47
102
}
330
47
100
AcDbScale
 70
     0
300
1:40
140
1.0
141
40.0
290
     0
  0
SCALE
  5
52
102
{ACAD_REACTORS
330
47
102
}
330
47
100
AcDbScale
 70
     0
300
1:50
140
1.0
141
50.0
290
     0
  0
SCALE
  5
53
102
{ACAD_REACTORS
330
47
102
}
330
47
100
AcDbScale
 70
     0
300
1:100
140
1.0
141
100.0
290
     0
  0
SCALE
  5
54
102
{ACAD_REACTORS
330
47
102
}
330
47
100
AcDbScale
 70
     0
300
2:1
140
2.0
141
1.0
290
     0
  0
SCALE
  5
55
102
{ACAD_REACTORS
330
47
102
}
330
47
100
AcDbScale
 70
     0
300
4:1
140
4.0
141
1.0
290
     0
  0
SCALE
  5
56
102
{ACAD_REACTORS
330
47
102
}
330
47
100
AcDbScale
 70
     0
300
8:1
140
8.0
141
1.0
290
     0
  0
SCALE
  5
57
102
{ACAD_REACTORS
330
47
102
}
330
47
100
AcDbScale
 70
     0
300
10:1
140
10.0
141
1.0
290
     0
  0
SCALE
  5
58
102
{ACAD_REACTORS
330
47
102
}
330
47
100
AcDbScale
 70
     0
300
100:1
140
100.0
141
1.0
290
     0
  0
SCALE
  5
59
102
{ACAD_REACTORS
330
47
102
}
330
47
100
AcDbScale
 70
     0
300
1/128" = 1'-0"
140
0.0078125
141
12.0
290
     0
  0
SCALE
  5
5A
102
{ACAD_REACTORS
330
47
102
}
330
47
100
AcDbScale
 70
     0
300
1/64" = 1'-0"
140
0.015625
141
12.0
290
     0
  0
SCALE
  5
5B
102
{ACAD_REACTORS
330
47
102
}
330
47
100
AcDbScale
 70
     0
300
1/32" = 1'-0"
140
0.03125
141
12.0
290
     0
  0
SCALE
  5
5C
102
{ACAD_REACTORS
330
47
102
}
330
47
100
AcDbScale
 70
     0
300
1/16" = 1'-0"
140
0.0625
141
12.0
290
     0
  0
SCALE
  5
5D
102
{ACAD_REACTORS
330
47
102
}
330
47
100
AcDbScale
 70
     0
300
3/32" = 1'-0"
140
0.09375
141
12.0
290
     0
  0
SCALE
  5
5E
102
{ACAD_REACTORS
330
47
102
}
330
47
100
AcDbScale
 70
     0
300
1/8" = 1'-0"
140
0.125
141
12.0
290
     0
  0
SCALE
  5
5F
102
{ACAD_REACTORS
330
47
102
}
330
47
100
AcDbScale
 70
     0
300
3/16" = 1'-0"
140
0.1875
141
12.0
290
     0
  0
SCALE
  5
60
102
{ACAD_REACTORS
330
47
102
}
330
47
100
AcDbScale
 70
     0
300
1/4" = 1'-0"
140
0.25
141
12.0
290
     0
  0
SCALE
  5
61
102
{ACAD_REACTORS
330
47
102
}
330
47
100
AcDbScale
 70
     0
300
3/8" = 1'-0"
140
0.375
141
12.0
290
     0
  0
SCALE
  5
62
102
{ACAD_REACTORS
330
47
102
}
330
47
100
AcDbScale
 70
     0
300
1/2" = 1'-0"
140
0.5
141
12.0
290
     0
  0
SCALE
  5
63
102
{ACAD_REACTORS
330
47
102
}
330
47
100
AcDbScale
 70
     0
300
3/4" = 1'-0"
140
0.75
141
12.0
290
     0
  0
SCALE
  5
64
102
{ACAD_REACTORS
330
47
102
}
330
47
100
AcDbScale
 70
     0
300
1" = 1'-0"
140
1.0
141
12.0
290
     0
  0
SCALE
  5
65
102
{ACAD_REACTORS
330
47
102
}
330
47
100
AcDbScale
 70
     0
300
1-1/2" = 1'-0"
140
1.5
141
12.0
290
     0
  0
SCALE
  5
66
102
{ACAD_REACTORS
330
47
102
}
330
47
100
AcDbScale
 70
     0
300
3" = 1'-0"
140
3.0
141
12.0
290
     0
  0
SCALE
  5
67
102
{ACAD_REACTORS
330
47
102
}
330
47
100
AcDbScale
 70
     0
300
6" = 1'-0"
140
6.0
141
12.0
290
     0
  0
SCALE
  5
68
102
{ACAD_REACTORS
330
47
102
}
330
47
100
AcDbScale
 70
     0
300
1'-0" = 1'-0"
140
12.0
141
12.0
290
     0
  0
ENDSEC
  0
EOF
