  0
SECTION
  2
HEADER
  9
$ACADVER
  1
AC1015
  9
$ACADMAINTVER
 70
     6
  9
$DWGCODEPAGE
  3
ANSI_950
  9
$INSBASE
 10
0.0
 20
0.0
 30
0.0
  9
$EXTMIN
 10
0.0
 20
0.0
 30
0.0
  9
$EXTMAX
 10
297.0
 20
210.0
 30
0.0
  9
$LIMMIN
 10
0.0
 20
0.0
  9
$LIMMAX
 10
297.0
 20
210.0
  9
$ORTHOMODE
 70
     0
  9
$REGENMODE
 70
     1
  9
$FILLMODE
 70
     1
  9
$QTEXTMODE
 70
     0
  9
$MIRRTEXT
 70
     1
  9
$LTSCALE
 40
1.0
  9
$ATTMODE
 70
     1
  9
$TEXTSIZE
 40
2.5
  9
$TRACEWID
 40
1.0
  9
$TEXTSTYLE
  7
Standard
  9
$CLAYER
  8
0
  9
$CELTYPE
  6
ByLayer
  9
$CECOLOR
 62
   256
  9
$CELTSCALE
 40
1.0
  9
$DISPSILH
 70
     0
  9
$DIMSCALE
 40
1.0
  9
$DIMASZ
 40
2.0
  9
$DIMEXO
 40
1.0
  9
$DIMDLI
 40
3.75
  9
$DIMRND
 40
0.0
  9
$DIMDLE
 40
0.0
  9
$DIMEXE
 40
1.0
  9
$DIMTP
 40
0.0
  9
$DIMTM
 40
0.0
  9
$DIMTXT
 40
2.5
  9
$DIMCEN
 40
2.5
  9
$DIMTSZ
 40
0.0
  9
$DIMTOL
 70
     0
  9
$DIMLIM
 70
     0
  9
$DIMTIH
 70
     1
  9
$DIMTOH
 70
     1
  9
$DIMSE1
 70
     0
  9
$DIMSE2
 70
     0
  9
$DIMTAD
 70
     1
  9
$DIMZIN
 70
     0
  9
$DIMBLK
  1

  9
$DIMASO
 70
     1
  9
$DIMSHO
 70
     1
  9
$DIMPOST
  1

  9
$DIMAPOST
  1

  9
$DIMALT
 70
     0
  9
$DIMALTD
 70
     3
  9
$DIMALTF
 40
0.0393700787
  9
$DIMLFAC
 40
1.0
  9
$DIMTOFL
 70
     1
  9
$DIMTVP
 40
0.0
  9
$DIMTIX
 70
     0
  9
$DIMSOXD
 70
     0
  9
$DIMSAH
 70
     0
  9
$DIMBLK1
  1

  9
$DIMBLK2
  1

  9
$DIMSTYLE
  2
ISO-25
  9
$DIMCLRD
 70
     0
  9
$DIMCLRE
 70
     0
  9
$DIMCLRT
 70
     0
  9
$DIMTFAC
 40
1.0
  9
$DIMGAP
 40
1.0
  9
$DIMJUST
 70
     0
  9
$DIMSD1
 70
     0
  9
$DIMSD2
 70
     0
  9
$DIMTOLJ
 70
     0
  9
$DIMTZIN
 70
     0
  9
$DIMALTZ
 70
     0
  9
$DIMALTTZ
 70
     0
  9
$DIMUPT
 70
     0
  9
$DIMDEC
 70
     2
  9
$DIMTDEC
 70
     2
  9
$DIMALTU
 70
     2
  9
$DIMALTTD
 70
     3
  9
$DIMTXSTY
  7
Standard
  9
$DIMAUNIT
 70
     0
  9
$DIMADEC
 70
     1
  9
$DIMALTRND
 40
0.0
  9
$DIMAZIN
 70
     0
  9
$DIMDSEP
 70
    44
  9
$DIMATFIT
 70
     3
  9
$DIMFRAC
 70
     0
  9
$DIMLDRBLK
  1

  9
$DIMLUNIT
 70
     2
  9
$DIMLWD
 70
    -2
  9
$DIMLWE
 70
    -2
  9
$DIMTMOVE
 70
     0
  9
$LUNITS
 70
     2
  9
$LUPREC
 70
     2
  9
$SKETCHINC
 40
1.0
  9
$FILLETRAD
 40
10.0
  9
$AUNITS
 70
     0
  9
$AUPREC
 70
     1
  9
$MENU
  1
.
  9
$ELEVATION
 40
0.0
  9
$PELEVATION
 40
0.0
  9
$THICKNESS
 40
0.0
  9
$LIMCHECK
 70
     0
  9
$CHAMFERA
 40
0.0
  9
$CHAMFERB
 40
0.0
  9
$CHAMFERC
 40
0.0
  9
$CHAMFERD
 40
0.0
  9
$SKPOLY
 70
     0
  9
$TDCREATE
 40
2457527.609834838
  9
$TDUCREATE
 40
2457527.276501505
  9
$TDUPDATE
 40
2457527.609839178
  9
$TDUUPDATE
 40
2457527.276505845
  9
$TDINDWG
 40
0.0000000116
  9
$TDUSRTIMER
 40
0.0000000116
  9
$USRTIMER
 70
     1
  9
$ANGBASE
 50
0.0
  9
$ANGDIR
 70
     0
  9
$PDMODE
 70
     0
  9
$PDSIZE
 40
-1.0
  9
$PLINEWID
 40
0.0
  9
$SPLFRAME
 70
     0
  9
$SPLINETYPE
 70
     6
  9
$SPLINESEGS
 70
     8
  9
$HANDSEED
  5
2CD
  9
$SURFTAB1
 70
     6
  9
$SURFTAB2
 70
     6
  9
$SURFTYPE
 70
     6
  9
$SURFU
 70
     6
  9
$SURFV
 70
     6
  9
$UCSBASE
  2

  9
$UCSNAME
  2

  9
$UCSORG
 10
0.0
 20
0.0
 30
0.0
  9
$UCSXDIR
 10
1.0
 20
0.0
 30
0.0
  9
$UCSYDIR
 10
0.0
 20
1.0
 30
0.0
  9
$UCSORTHOREF
  2

  9
$UCSORTHOVIEW
 70
     0
  9
$UCSORGTOP
 10
0.0
 20
0.0
 30
0.0
  9
$UCSORGBOTTOM
 10
0.0
 20
0.0
 30
0.0
  9
$UCSORGLEFT
 10
0.0
 20
0.0
 30
0.0
  9
$UCSORGRIGHT
 10
0.0
 20
0.0
 30
0.0
  9
$UCSORGFRONT
 10
0.0
 20
0.0
 30
0.0
  9
$UCSORGBACK
 10
0.0
 20
0.0
 30
0.0
  9
$PUCSBASE
  2

  9
$PUCSNAME
  2

  9
$PUCSORG
 10
0.0
 20
0.0
 30
0.0
  9
$PUCSXDIR
 10
1.0
 20
0.0
 30
0.0
  9
$PUCSYDIR
 10
0.0
 20
1.0
 30
0.0
  9
$PUCSORTHOREF
  2

  9
$PUCSORTHOVIEW
 70
     0
  9
$PUCSORGTOP
 10
0.0
 20
0.0
 30
0.0
  9
$PUCSORGBOTTOM
 10
0.0
 20
0.0
 30
0.0
  9
$PUCSORGLEFT
 10
0.0
 20
0.0
 30
0.0
  9
$PUCSORGRIGHT
 10
0.0
 20
0.0
 30
0.0
  9
$PUCSORGFRONT
 10
0.0
 20
0.0
 30
0.0
  9
$PUCSORGBACK
 10
0.0
 20
0.0
 30
0.0
  9
$USERI1
 70
     0
  9
$USERI2
 70
     0
  9
$USERI3
 70
     0
  9
$USERI4
 70
     0
  9
$USERI5
 70
     0
  9
$USERR1
 40
0.0
  9
$USERR2
 40
0.0
  9
$USERR3
 40
0.0
  9
$USERR4
 40
0.0
  9
$USERR5
 40
0.0
  9
$WORLDVIEW
 70
     1
  9
$SHADEDGE
 70
     3
  9
$SHADEDIF
 70
    70
  9
$TILEMODE
 70
     1
  9
$MAXACTVP
 70
    64
  9
$PINSBASE
 10
0.0
 20
0.0
 30
0.0
  9
$PLIMCHECK
 70
     0
  9
$PEXTMIN
 10
1.0000000000E+20
 20
1.0000000000E+20
 30
1.0000000000E+20
  9
$PEXTMAX
 10
-1.0000000000E+20
 20
-1.0000000000E+20
 30
-1.0000000000E+20
  9
$PLIMMIN
 10
0.0
 20
0.0
  9
$PLIMMAX
 10
420.0
 20
297.0
  9
$UNITMODE
 70
     0
  9
$VISRETAIN
 70
     1
  9
$PLINEGEN
 70
     0
  9
$PSLTSCALE
 70
     1
  9
$TREEDEPTH
 70
  3020
  9
$CMLSTYLE
  2
Standard
  9
$CMLJUST
 70
     0
  9
$CMLSCALE
 40
20.0
  9
$PROXYGRAPHICS
 70
     1
  9
$MEASUREMENT
 70
     1
  9
$CELWEIGHT
370
    -1
  9
$ENDCAPS
280
     0
  9
$JOINSTYLE
280
     0
  9
$LWDISPLAY
290
     1
  9
$INSUNITS
 70
     4
  9
$HYPERLINKBASE
  1

  9
$STYLESHEET
  1

  9
$XEDIT
290
     1
  9
$CEPSNTYPE
380
     0
  9
$PSTYLEMODE
290
     1
  9
$FINGERPRINTGUID
  2
{71465D7B-4331-4EF6-BBC4-2906DFC9149C}
  9
$VERSIONGUID
  2
{FAEB1C32-E019-11D5-929B-00C0DF256EC4}
  9
$EXTNAMES
290
     1
  9
$PSVPSCALE
 40
0.0
  9
$OLESTARTUP
290
     0
  0
ENDSEC
  0
SECTION
  2
CLASSES
  0
CLASS
  1
ACDBDICTIONARYWDFLT
  2
AcDbDictionaryWithDefault
  3
ObjectDBX Classes
 90
        0
280
     0
281
     0
  0
CLASS
  1
VISUALSTYLE
  2
AcDbVisualStyle
  3
ObjectDBX Classes
 90
     4095
280
     0
281
     0
  0
CLASS
  1
MATERIAL
  2
AcDbMaterial
  3
ObjectDBX Classes
 90
     1153
280
     0
281
     0
  0
CLASS
  1
SCALE
  2
AcDbScale
  3
ObjectDBX Classes
 90
     1153
280
     0
281
     0
  0
CLASS
  1
TABLESTYLE
  2
AcDbTableStyle
  3
ObjectDBX Classes
 90
     4095
280
     0
281
     0
  0
CLASS
  1
MLEADERSTYLE
  2
AcDbMLeaderStyle
  3
ACDB_MLEADERSTYLE_CLASS
 90
     4095
280
     0
281
     0
  0
CLASS
  1
SUN
  2
AcDbSun
  3
SCENEOE
 90
     1153
280
     0
281
     0
  0
CLASS
  1
ACDBPLACEHOLDER
  2
AcDbPlaceHolder
  3
ObjectDBX Classes
 90
        0
280
     0
281
     0
  0
CLASS
  1
LAYOUT
  2
AcDbLayout
  3
ObjectDBX Classes
 90
        0
280
     0
281
     0
  0
ENDSEC
  0
SECTION
  2
TABLES
  0
TABLE
  2
VPORT
  5
8
330
0
100
AcDbSymbolTable
 70
     1
  0
VPORT
  5
29
330
8
100
AcDbSymbolTableRecord
100
AcDbViewportTableRecord
  2
*Active
 70
     0
 10
0.0
 20
0.0
 11
1.0
 21
1.0
 12
148.5
 22
105.0
 13
0.0
 23
0.0
 14
10.0
 24
10.0
 15
10.0
 25
10.0
 16
0.0
 26
0.0
 36
1.0
 17
0.0
 27
0.0
 37
0.0
 40
210.0
 41
1.4142857143
 42
50.0
 43
0.0
 44
0.0
 50
0.0
 51
0.0
 71
     0
 72
  2000
 73
     1
 74
     3
 75
     0
 76
     0
 77
     0
 78
     0
281
     0
 65
     1
110
0.0
120
0.0
130
0.0
111
1.0
121
0.0
131
0.0
112
0.0
122
1.0
132
0.0
 79
     0
146
0.0
  0
ENDTAB
  0
TABLE
  2
LTYPE
  5
5
330
0
100
AcDbSymbolTable
 70
     6
  0
LTYPE
  5
14
330
5
100
AcDbSymbolTableRecord
100
AcDbLinetypeTableRecord
  2
ByBlock
 70
     0
  3

 72
    65
 73
     0
 40
0.0
  0
LTYPE
  5
15
330
5
100
AcDbSymbolTableRecord
100
AcDbLinetypeTableRecord
  2
ByLayer
 70
     0
  3

 72
    65
 73
     0
 40
0.0
  0
LTYPE
  5
16
330
5
100
AcDbSymbolTableRecord
100
AcDbLinetypeTableRecord
  2
Continuous
 70
     0
  3
Solid line
 72
    65
 73
     0
 40
0.0
  0
LTYPE
  5
6E
330
5
100
AcDbSymbolTableRecord
100
AcDbLinetypeTableRecord
  2
HIDDEN
 70
     0
  3
Hidden __ __ __ __ __ __ __ __ __ __ __ __ __ __
 72
    65
 73
     2
 40
1.905
 49
1.27
 74
     0
 49
-0.635
 74
     0
  0
LTYPE
  5
6F
330
5
100
AcDbSymbolTableRecord
100
AcDbLinetypeTableRecord
  2
PHANTOM
 70
     0
  3
Phantom ______  __  __  ______  __  __  ______
 72
    65
 73
     6
 40
12.7
 49
6.35
 74
     0
 49
-1.27
 74
     0
 49
1.27
 74
     0
 49
-1.27
 74
     0
 49
1.27
 74
     0
 49
-1.27
 74
     0
  0
LTYPE
  5
70
330
5
100
AcDbSymbolTableRecord
100
AcDbLinetypeTableRecord
  2
CENTER
 70
     0
  3
Center ____ _ ____ _ ____ _ ____ _ ____ _ ____
 72
    65
 73
     4
 40
10.16
 49
6.35
 74
     0
 49
-1.27
 74
     0
 49
1.27
 74
     0
 49
-1.27
 74
     0
  0
LTYPE
  5
71
330
5
100
AcDbSymbolTableRecord
100
AcDbLinetypeTableRecord
  2
CENTERX2
 70
     0
  3
Center (2x) ________  __  ________  __  _____
 72
    65
 73
     4
 40
20.32
 49
12.7
 74
     0
 49
-2.54
 74
     0
 49
2.54
 74
     0
 49
-2.54
 74
     0
  0
LTYPE
  5
72
330
5
100
AcDbSymbolTableRecord
100
AcDbLinetypeTableRecord
  2
DOT2
 70
     0
  3
Dot (.5x) ........................................
 72
    65
 73
     2
 40
0.635
 49
0.0
 74
     0
 49
-0.635
 74
     0
  0
ENDTAB
  0
TABLE
  2
LAYER
  5
2
330
0
100
AcDbSymbolTable
 70
     3
  0
LAYER
  5
10
330
2
100
AcDbSymbolTableRecord
100
AcDbLayerTableRecord
  2
0
 70
     0
 62
     7
  6
Continuous
370
    -3
390
F
  0
LAYER
  5
73
330
2
100
AcDbSymbolTableRecord
100
AcDbLayerTableRecord
  2
SLD-0
 70
     0
 62
     7
  6
Continuous
370
    15
390
F
  0
LAYER
  5
74
330
2
100
AcDbSymbolTableRecord
100
AcDbLayerTableRecord
  2
DIM
 70
     0
 62
     7
  6
Continuous
370
    -3
390
F
  0
ENDTAB
  0
TABLE
  2
STYLE
  5
3
330
0
100
AcDbSymbolTable
 70
     3
  0
STYLE
  5
11
330
3
100
AcDbSymbolTableRecord
100
AcDbTextStyleTableRecord
  2
Standard
 70
     0
 40
0.0
 41
1.0
 50
0.0
 71
     0
 42
2.5
  3
txt
  4

  0
STYLE
  5
C5
330
3
100
AcDbSymbolTableRecord
100
AcDbTextStyleTableRecord
  2
SLDTEXTSTYLE0
 70
     0
 40
0.0
 41
0.605
 50
0.0
 71
     0
 42
2.5
  3
TXT
  4

  0
STYLE
  5
CE
330
3
100
AcDbSymbolTableRecord
100
AcDbTextStyleTableRecord
  2
SLDTEXTSTYLE1
 70
     0
 40
0.0
 41
0.7
 50
0.0
 71
     0
 42
2.5
  3
TXT
  4

  0
ENDTAB
  0
TABLE
  2
VIEW
  5
6
330
0
100
AcDbSymbolTable
 70
     0
  0
ENDTAB
  0
TABLE
  2
UCS
  5
7
330
0
100
AcDbSymbolTable
 70
     0
  0
ENDTAB
  0
TABLE
  2
APPID
  5
9
330
0
100
AcDbSymbolTable
 70
     1
  0
APPID
  5
12
330
9
100
AcDbSymbolTableRecord
100
AcDbRegAppTableRecord
  2
ACAD
 70
     0
  0
ENDTAB
  0
TABLE
  2
DIMSTYLE
  5
A
330
0
100
AcDbSymbolTable
 70
     3
100
AcDbDimStyleTable
  0
DIMSTYLE
105
27
330
A
100
AcDbSymbolTableRecord
100
AcDbDimStyleTableRecord
  2
ISO-25
 70
     0
 41
2.5
 42
0.625
 43
3.75
 44
1.25
 73
     0
 74
     0
 77
     1
 78
     8
140
2.5
141
2.5
143
0.0393700787
147
0.625
171
     3
172
     1
178
     0
271
     2
272
     2
274
     3
278
    44
283
     0
284
     8
340
11
  0
DIMSTYLE
105
127
102
{ACAD_REACTORS
330
126
330
131
330
13B
330
145
330
14F
330
159
330
163
330
16D
330
177
330
19D
330
2C3
102
}
330
A
100
AcDbSymbolTableRecord
100
AcDbDimStyleTableRecord
  2
SLDDIMSTYLE0
 70
     0
 41
2.0
 44
0.0
 45
0.000000001
 73
     0
 74
     0
 77
     1
 78
    12
 79
     3
140
2.5
147
0.625
173
     1
178
     0
271
     2
272
     2
276
     2
284
    12
340
C5
  0
DIMSTYLE
105
182
102
{ACAD_REACTORS
330
181
330
18B
330
194
102
}
330
A
100
AcDbSymbolTableRecord
100
AcDbDimStyleTableRecord
  2
SLDDIMSTYLE1
 70
     0
  3
<>
 41
2.0
 44
0.0
 45
0.000000001
 78
    12
 79
     3
140
2.5
141
0.0
147
0.625
173
     1
178
     0
271
     2
272
     2
276
     2
284
    12
340
C5
  0
ENDTAB
  0
TABLE
  2
BLOCK_RECORD
  5
1
330
0
100
AcDbSymbolTable
 70
    34
  0
BLOCK_RECORD
  5
1F
330
1
100
AcDbSymbolTableRecord
100
AcDbBlockTableRecord
  2
*Model_Space
340
22
  0
BLOCK_RECORD
  5
1B
330
1
100
AcDbSymbolTableRecord
100
AcDbBlockTableRecord
  2
*Paper_Space
340
1E
  0
BLOCK_RECORD
  5
23
330
1
100
AcDbSymbolTableRecord
100
AcDbBlockTableRecord
  2
*Paper_Space0
340
26
  0
BLOCK_RECORD
  5
C7
330
1
100
AcDbSymbolTableRecord
100
AcDbBlockTableRecord
  2
SW_NOTE_0
340
0
102
{BLKREFS
331
CD
102
}
  0
BLOCK_RECORD
  5
FD
330
1
100
AcDbSymbolTableRecord
100
AcDbBlockTableRecord
  2
SW_NOTE_1
340
0
102
{BLKREFS
331
102
102
}
  0
BLOCK_RECORD
  5
128
330
1
100
AcDbSymbolTableRecord
100
AcDbBlockTableRecord
  2
_D
340
0
  0
BLOCK_RECORD
  5
132
330
1
100
AcDbSymbolTableRecord
100
AcDbBlockTableRecord
  2
_D_1
340
0
  0
BLOCK_RECORD
  5
13C
330
1
100
AcDbSymbolTableRecord
100
AcDbBlockTableRecord
  2
_D_2
340
0
  0
BLOCK_RECORD
  5
146
330
1
100
AcDbSymbolTableRecord
100
AcDbBlockTableRecord
  2
_D_3
340
0
  0
BLOCK_RECORD
  5
150
330
1
100
AcDbSymbolTableRecord
100
AcDbBlockTableRecord
  2
_D_4
340
0
  0
BLOCK_RECORD
  5
15A
330
1
100
AcDbSymbolTableRecord
100
AcDbBlockTableRecord
  2
_D_5
340
0
  0
BLOCK_RECORD
  5
164
330
1
100
AcDbSymbolTableRecord
100
AcDbBlockTableRecord
  2
_D_6
340
0
  0
BLOCK_RECORD
  5
16E
330
1
100
AcDbSymbolTableRecord
100
AcDbBlockTableRecord
  2
_D_7
340
0
  0
BLOCK_RECORD
  5
178
330
1
100
AcDbSymbolTableRecord
100
AcDbBlockTableRecord
  2
_D_8
340
0
  0
BLOCK_RECORD
  5
183
330
1
100
AcDbSymbolTableRecord
100
AcDbBlockTableRecord
  2
_D_9
340
0
  0
BLOCK_RECORD
  5
18C
330
1
100
AcDbSymbolTableRecord
100
AcDbBlockTableRecord
  2
_D_10
340
0
  0
BLOCK_RECORD
  5
195
330
1
100
AcDbSymbolTableRecord
100
AcDbBlockTableRecord
  2
_D_11
340
0
  0
BLOCK_RECORD
  5
19E
330
1
100
AcDbSymbolTableRecord
100
AcDbBlockTableRecord
  2
_D_12
340
0
  0
BLOCK_RECORD
  5
1A7
330
1
100
AcDbSymbolTableRecord
100
AcDbBlockTableRecord
  2
SW_CENTERMARKSYMBOL_0
340
0
102
{BLKREFS
331
1B2
102
}
  0
BLOCK_RECORD
  5
1B3
330
1
100
AcDbSymbolTableRecord
100
AcDbBlockTableRecord
  2
SW_CENTERMARKSYMBOL_1
340
0
102
{BLKREFS
331
1BE
102
}
  0
BLOCK_RECORD
  5
1BF
330
1
100
AcDbSymbolTableRecord
100
AcDbBlockTableRecord
  2
SW_CENTERMARKSYMBOL_2
340
0
102
{BLKREFS
331
1CA
102
}
  0
BLOCK_RECORD
  5
1CB
330
1
100
AcDbSymbolTableRecord
100
AcDbBlockTableRecord
  2
SW_CENTERMARKSYMBOL_3
340
0
102
{BLKREFS
331
1D6
102
}
  0
BLOCK_RECORD
  5
1D7
330
1
100
AcDbSymbolTableRecord
100
AcDbBlockTableRecord
  2
SW_CENTERMARKSYMBOL_4
340
0
102
{BLKREFS
331
1E2
102
}
  0
BLOCK_RECORD
  5
1E3
330
1
100
AcDbSymbolTableRecord
100
AcDbBlockTableRecord
  2
SW_CENTERMARKSYMBOL_5
340
0
102
{BLKREFS
331
1EE
102
}
  0
BLOCK_RECORD
  5
1EF
330
1
100
AcDbSymbolTableRecord
100
AcDbBlockTableRecord
  2
SW_CENTERMARKSYMBOL_6
340
0
102
{BLKREFS
331
1FA
102
}
  0
BLOCK_RECORD
  5
1FB
330
1
100
AcDbSymbolTableRecord
100
AcDbBlockTableRecord
  2
SW_CENTERMARKSYMBOL_7
340
0
102
{BLKREFS
331
206
102
}
  0
BLOCK_RECORD
  5
207
330
1
100
AcDbSymbolTableRecord
100
AcDbBlockTableRecord
  2
SW_CENTERMARKSYMBOL_8
340
0
102
{BLKREFS
331
212
102
}
  0
BLOCK_RECORD
  5
213
330
1
100
AcDbSymbolTableRecord
100
AcDbBlockTableRecord
  2
SW_CENTERMARKSYMBOL_9
340
0
102
{BLKREFS
331
21E
102
}
  0
BLOCK_RECORD
  5
21F
330
1
100
AcDbSymbolTableRecord
100
AcDbBlockTableRecord
  2
SW_CENTERMARKSYMBOL_10
340
0
102
{BLKREFS
331
22A
102
}
  0
BLOCK_RECORD
  5
22B
330
1
100
AcDbSymbolTableRecord
100
AcDbBlockTableRecord
  2
SW_CENTERMARKSYMBOL_11
340
0
102
{BLKREFS
331
236
102
}
  0
BLOCK_RECORD
  5
237
330
1
100
AcDbSymbolTableRecord
100
AcDbBlockTableRecord
  2
SW_CENTERMARKSYMBOL_12
340
0
102
{BLKREFS
331
242
102
}
  0
BLOCK_RECORD
  5
243
330
1
100
AcDbSymbolTableRecord
100
AcDbBlockTableRecord
  2
SW_CENTERMARKSYMBOL_13
340
0
102
{BLKREFS
331
24E
102
}
  0
BLOCK_RECORD
  5
24F
330
1
100
AcDbSymbolTableRecord
100
AcDbBlockTableRecord
  2
SW_CENTERMARKSYMBOL_14
340
0
102
{BLKREFS
331
25A
102
}
  0
BLOCK_RECORD
  5
25B
330
1
100
AcDbSymbolTableRecord
100
AcDbBlockTableRecord
  2
SW_CENTERMARKSYMBOL_15
340
0
102
{BLKREFS
331
266
102
}
  0
BLOCK_RECORD
  5
267
330
1
100
AcDbSymbolTableRecord
100
AcDbBlockTableRecord
  2
SW_CENTERMARKSYMBOL_16
340
0
102
{BLKREFS
331
272
102
}
  0
BLOCK_RECORD
  5
2C4
330
1
100
AcDbSymbolTableRecord
100
AcDbBlockTableRecord
  2
_D_13
340
0
  0
ENDTAB
  0
ENDSEC
  0
SECTION
  2
BLOCKS
  0
BLOCK
  5
20
330
1F
100
AcDbEntity
  8
0
100
AcDbBlockBegin
  2
*Model_Space
 70
     0
 10
0.0
 20
0.0
 30
0.0
  3
*Model_Space
  1

  0
ENDBLK
  5
21
330
1F
100
AcDbEntity
  8
0
100
AcDbBlockEnd
  0
BLOCK
  5
1C
330
1B
100
AcDbEntity
 67
     1
  8
0
100
AcDbBlockBegin
  2
*Paper_Space
 70
     0
 10
0.0
 20
0.0
 30
0.0
  3
*Paper_Space
  1

  0
ENDBLK
  5
1D
330
1B
100
AcDbEntity
 67
     1
  8
0
100
AcDbBlockEnd
  0
BLOCK
  5
24
330
23
100
AcDbEntity
  8
0
100
AcDbBlockBegin
  2
*Paper_Space0
 70
     0
 10
0.0
 20
0.0
 30
0.0
  3
*Paper_Space0
  1

  0
ENDBLK
  5
25
330
23
100
AcDbEntity
  8
0
100
AcDbBlockEnd
  0
BLOCK
  5
C8
330
C7
100
AcDbEntity
  8
0
100
AcDbBlockBegin
  2
SW_NOTE_0
 70
     0
 10
0.0
 20
0.0
 30
0.0
  3
SW_NOTE_0
  1

  0
MTEXT
  5
CA
330
C7
100
AcDbEntity
  8
0
  6
Continuous
 62
     0
370
     0
100
AcDbMText
 10
0.0
 20
3.4106583948
 30
0.0
 40
2.6458333333
 41
0.0
 71
     1
 72
     1
  1
PROPRIETARY AND CONFIDENTIAL
  7
SLDTEXTSTYLE0
 73
     1
 44
1.0
  0
MTEXT
  5
CB
330
C7
100
AcDbEntity
  8
0
  6
Continuous
 62
     0
370
     0
100
AcDbMText
 10
0.0
 20
-0.08198348
 30
0.0
 40
1.8520833333
 41
0.0
 71
     1
 72
     1
  1
THE INFORMATION CONTAINED IN THIS DRAWING IS THE SOLE PROPERTY OF UNICE E-O SERVICES INC. ANY REPRODUCTION IN PART OR AS A WHOLE WITHOUT THE WRITTEN PERMISSION OF UNICE E-O SERVICES INC IS
  7
SLDTEXTSTYLE0
 73
     1
 44
1.0
  0
MTEXT
  5
CC
330
C7
100
AcDbEntity
  8
0
  6
Continuous
 62
     0
370
     0
100
AcDbMText
 10
0.0
 20
-2.5514278946
 30
0.0
 40
1.8520833333
 41
0.0
 71
     1
 72
     1
  1
PROHIBITED.
  7
SLDTEXTSTYLE0
 73
     1
 44
1.0
  0
ENDBLK
  5
C9
330
C7
100
AcDbEntity
  8
0
100
AcDbBlockEnd
  0
BLOCK
  5
FE
330
FD
100
AcDbEntity
  8
0
100
AcDbBlockBegin
  2
SW_NOTE_1
 70
     0
 10
0.0
 20
0.0
 30
0.0
  3
SW_NOTE_1
  1

  0
MTEXT
  5
100
330
FD
100
AcDbEntity
  8
SLD-0
 62
     0
100
AcDbMText
 10
0.0
 20
2.3874608764
 30
0.0
 40
1.8520833333
 41
0.0
 71
     1
 72
     1
  1
No.5, Andong Rd., Chung Li District,
  7
SLDTEXTSTYLE1
 73
     1
 44
1.0
  0
MTEXT
  5
101
330
FD
100
AcDbEntity
  8
SLD-0
 62
     0
100
AcDbMText
 10
0.0
 20
-0.0819835382
 30
0.0
 40
1.8520833333
 41
0.0
 71
     1
 72
     1
  1
Taoyuan City 32063, Taiwan, R.O.C.
  7
SLDTEXTSTYLE1
 73
     1
 44
1.0
  0
ENDBLK
  5
FF
330
FD
100
AcDbEntity
  8
0
100
AcDbBlockEnd
  0
BLOCK
  5
129
330
128
100
AcDbEntity
  8
0
100
AcDbBlockBegin
  2
_D
 70
     0
 10
0.0
 20
0.0
 30
0.0
  3
_D
  1

  0
SOLID
  5
12B
330
128
100
AcDbEntity
  8
SLD-0
100
AcDbTrace
 10
61.4241048539
 20
161.7629352107
 30
0.0
 11
63.4241048539
 21
161.5129352107
 31
0.0
 12
63.4241048539
 22
162.0129352107
 32
0.0
 13
63.4241048539
 23
162.0129352107
 33
0.0
  0
SOLID
  5
12C
330
128
100
AcDbEntity
  8
SLD-0
100
AcDbTrace
 10
126.4241048539
 20
161.7629352107
 30
0.0
 11
124.4241048539
 21
162.0129352107
 31
0.0
 12
124.4241048539
 22
161.5129352107
 32
0.0
 13
124.4241048539
 23
161.5129352107
 33
0.0
  0
LINE
  5
12D
330
128
100
AcDbEntity
  8
SLD-0
100
AcDbLine
 10
61.4241048539
 20
141.470429188
 30
0.0
 11
61.4241048539
 21
162.7629352107
 31
0.0
  0
LINE
  5
12E
330
128
100
AcDbEntity
  8
SLD-0
100
AcDbLine
 10
126.4241048539
 20
141.470429188
 30
0.0
 11
126.4241048539
 21
162.7629352107
 31
0.0
  0
LINE
  5
12F
330
128
100
AcDbEntity
  8
SLD-0
100
AcDbLine
 10
61.4241048539
 20
161.7629352107
 30
0.0
 11
126.4241048539
 21
161.7629352107
 31
0.0
  0
MTEXT
  5
130
330
128
100
AcDbEntity
  8
SLD-0
100
AcDbMText
 10
92.0143826291
 20
164.9856043855
 30
0.0
 40
2.5
 41
0.0
 71
     1
 72
     1
  1
65
  7
SLDTEXTSTYLE0
 73
     1
 44
1.0
  0
ENDBLK
  5
12A
330
128
100
AcDbEntity
  8
0
100
AcDbBlockEnd
  0
BLOCK
  5
133
330
132
100
AcDbEntity
  8
0
100
AcDbBlockBegin
  2
_D_1
 70
     0
 10
0.0
 20
0.0
 30
0.0
  3
_D_1
  1

  0
SOLID
  5
135
330
132
100
AcDbEntity
  8
SLD-0
100
AcDbTrace
 10
40.4241048539
 20
143.470429188
 30
0.0
 11
40.1741048539
 21
141.470429188
 31
0.0
 12
40.6741048539
 22
141.470429188
 32
0.0
 13
40.6741048539
 23
141.470429188
 33
0.0
  0
SOLID
  5
136
330
132
100
AcDbEntity
  8
SLD-0
100
AcDbTrace
 10
40.4241048539
 20
78.470429188
 30
0.0
 11
40.6741048539
 21
80.470429188
 31
0.0
 12
40.1741048539
 22
80.470429188
 32
0.0
 13
40.1741048539
 23
80.470429188
 33
0.0
  0
LINE
  5
137
330
132
100
AcDbEntity
  8
SLD-0
100
AcDbLine
 10
63.4241048539
 20
143.470429188
 30
0.0
 11
39.4241048539
 21
143.470429188
 31
0.0
  0
LINE
  5
138
330
132
100
AcDbEntity
  8
SLD-0
100
AcDbLine
 10
63.4241048539
 20
78.470429188
 30
0.0
 11
39.4241048539
 21
78.470429188
 31
0.0
  0
LINE
  5
139
330
132
100
AcDbEntity
  8
SLD-0
100
AcDbLine
 10
40.4241048539
 20
143.470429188
 30
0.0
 11
40.4241048539
 21
78.470429188
 31
0.0
  0
MTEXT
  5
13A
330
132
100
AcDbEntity
  8
SLD-0
100
AcDbMText
 10
37.2014356791
 20
109.0607069632
 30
0.0
 40
2.5
 41
0.0
 71
     1
 72
     1
  1
65
  7
SLDTEXTSTYLE0
 11
-7.044195017643634E-15
 21
1.0
 31
0.0
 73
     1
 44
1.0
  0
ENDBLK
  5
134
330
132
100
AcDbEntity
  8
0
100
AcDbBlockEnd
  0
BLOCK
  5
13D
330
13C
100
AcDbEntity
  8
0
100
AcDbBlockBegin
  2
_D_2
 70
     0
 10
0.0
 20
0.0
 30
0.0
  3
_D_2
  1

  0
SOLID
  5
13F
330
13C
100
AcDbEntity
  8
SLD-0
100
AcDbTrace
 10
81.4241048539
 20
148.9587402507
 30
0.0
 11
83.4241048539
 21
148.7087402507
 31
0.0
 12
83.4241048539
 22
149.2087402507
 32
0.0
 13
83.4241048539
 23
149.2087402507
 33
0.0
  0
SOLID
  5
140
330
13C
100
AcDbEntity
  8
SLD-0
100
AcDbTrace
 10
93.9241048539
 20
148.9587402507
 30
0.0
 11
91.9241048539
 21
149.2087402507
 31
0.0
 12
91.9241048539
 22
148.7087402507
 32
0.0
 13
91.9241048539
 23
148.7087402507
 33
0.0
  0
LINE
  5
141
330
13C
100
AcDbEntity
  8
SLD-0
100
AcDbLine
 10
81.4241048539
 20
129.470429188
 30
0.0
 11
81.4241048539
 21
149.9587402507
 31
0.0
  0
LINE
  5
142
330
13C
100
AcDbEntity
  8
SLD-0
100
AcDbLine
 10
93.9241048539
 20
136.970429188
 30
0.0
 11
93.9241048539
 21
149.9587402507
 31
0.0
  0
LINE
  5
143
330
13C
100
AcDbEntity
  8
SLD-0
100
AcDbLine
 10
81.4241048539
 20
148.9587402507
 30
0.0
 11
93.9241048539
 21
148.9587402507
 31
0.0
  0
MTEXT
  5
144
330
13C
100
AcDbEntity
  8
SLD-0
100
AcDbMText
 10
84.3320910478
 20
152.1814094255
 30
0.0
 40
2.5
 41
0.0
 71
     1
 72
     1
  1
12.5
  7
SLDTEXTSTYLE0
 73
     1
 44
1.0
  0
ENDBLK
  5
13E
330
13C
100
AcDbEntity
  8
0
100
AcDbBlockEnd
  0
BLOCK
  5
147
330
146
100
AcDbEntity
  8
0
100
AcDbBlockBegin
  2
_D_3
 70
     0
 10
0.0
 20
0.0
 30
0.0
  3
_D_3
  1

  0
SOLID
  5
149
330
146
100
AcDbEntity
  8
SLD-0
100
AcDbTrace
 10
93.9241048539
 20
148.9587402507
 30
0.0
 11
95.9241048539
 21
148.7087402507
 31
0.0
 12
95.9241048539
 22
149.2087402507
 32
0.0
 13
95.9241048539
 23
149.2087402507
 33
0.0
  0
SOLID
  5
14A
330
146
100
AcDbEntity
  8
SLD-0
100
AcDbTrace
 10
106.4241048539
 20
148.9587402507
 30
0.0
 11
104.4241048539
 21
149.2087402507
 31
0.0
 12
104.4241048539
 22
148.7087402507
 32
0.0
 13
104.4241048539
 23
148.7087402507
 33
0.0
  0
LINE
  5
14B
330
146
100
AcDbEntity
  8
SLD-0
100
AcDbLine
 10
93.9241048539
 20
136.970429188
 30
0.0
 11
93.9241048539
 21
149.9587402507
 31
0.0
  0
LINE
  5
14C
330
146
100
AcDbEntity
  8
SLD-0
100
AcDbLine
 10
106.4241048539
 20
124.470429188
 30
0.0
 11
106.4241048539
 21
149.9587402507
 31
0.0
  0
LINE
  5
14D
330
146
100
AcDbEntity
  8
SLD-0
100
AcDbLine
 10
93.9241048539
 20
148.9587402507
 30
0.0
 11
106.4241048539
 21
148.9587402507
 31
0.0
  0
MTEXT
  5
14E
330
146
100
AcDbEntity
  8
SLD-0
100
AcDbMText
 10
96.8320910478
 20
152.1814094255
 30
0.0
 40
2.5
 41
0.0
 71
     1
 72
     1
  1
12.5
  7
SLDTEXTSTYLE0
 73
     1
 44
1.0
  0
ENDBLK
  5
148
330
146
100
AcDbEntity
  8
0
100
AcDbBlockEnd
  0
BLOCK
  5
151
330
150
100
AcDbEntity
  8
0
100
AcDbBlockBegin
  2
_D_4
 70
     0
 10
0.0
 20
0.0
 30
0.0
  3
_D_4
  1

  0
SOLID
  5
153
330
150
100
AcDbEntity
  8
SLD-0
100
AcDbTrace
 10
93.9241048539
 20
155.222662965
 30
0.0
 11
91.9241048539
 21
155.472662965
 31
0.0
 12
91.9241048539
 22
154.972662965
 32
0.0
 13
91.9241048539
 23
154.972662965
 33
0.0
  0
SOLID
  5
154
330
150
100
AcDbEntity
  8
SLD-0
100
AcDbTrace
 10
68.9241048539
 20
155.222662965
 30
0.0
 11
70.9241048539
 21
154.972662965
 31
0.0
 12
70.9241048539
 22
155.472662965
 32
0.0
 13
70.9241048539
 23
155.472662965
 33
0.0
  0
LINE
  5
155
330
150
100
AcDbEntity
  8
SLD-0
100
AcDbLine
 10
93.9241048539
 20
136.970429188
 30
0.0
 11
93.9241048539
 21
156.222662965
 31
0.0
  0
LINE
  5
156
330
150
100
AcDbEntity
  8
SLD-0
100
AcDbLine
 10
68.9241048539
 20
136.970429188
 30
0.0
 11
68.9241048539
 21
156.222662965
 31
0.0
  0
LINE
  5
157
330
150
100
AcDbEntity
  8
SLD-0
100
AcDbLine
 10
93.9241048539
 20
155.222662965
 30
0.0
 11
68.9241048539
 21
155.222662965
 31
0.0
  0
MTEXT
  5
158
330
150
100
AcDbEntity
  8
SLD-0
100
AcDbMText
 10
79.5143826291
 20
158.4453321398
 30
0.0
 40
2.5
 41
0.0
 71
     1
 72
     1
  1
25
  7
SLDTEXTSTYLE0
 73
     1
 44
1.0
  0
ENDBLK
  5
152
330
150
100
AcDbEntity
  8
0
100
AcDbBlockEnd
  0
BLOCK
  5
15B
330
15A
100
AcDbEntity
  8
0
100
AcDbBlockBegin
  2
_D_5
 70
     0
 10
0.0
 20
0.0
 30
0.0
  3
_D_5
  1

  0
SOLID
  5
15D
330
15A
100
AcDbEntity
  8
SLD-0
100
AcDbTrace
 10
93.9241048539
 20
155.222662965
 30
0.0
 11
95.9241048539
 21
154.972662965
 31
0.0
 12
95.9241048539
 22
155.472662965
 32
0.0
 13
95.9241048539
 23
155.472662965
 33
0.0
  0
SOLID
  5
15E
330
15A
100
AcDbEntity
  8
SLD-0
100
AcDbTrace
 10
118.9241048539
 20
155.222662965
 30
0.0
 11
116.9241048539
 21
155.472662965
 31
0.0
 12
116.9241048539
 22
154.972662965
 32
0.0
 13
116.9241048539
 23
154.972662965
 33
0.0
  0
LINE
  5
15F
330
15A
100
AcDbEntity
  8
SLD-0
100
AcDbLine
 10
93.9241048539
 20
136.970429188
 30
0.0
 11
93.9241048539
 21
156.222662965
 31
0.0
  0
LINE
  5
160
330
15A
100
AcDbEntity
  8
SLD-0
100
AcDbLine
 10
118.9241048539
 20
136.970429188
 30
0.0
 11
118.9241048539
 21
156.222662965
 31
0.0
  0
LINE
  5
161
330
15A
100
AcDbEntity
  8
SLD-0
100
AcDbLine
 10
93.9241048539
 20
155.222662965
 30
0.0
 11
118.9241048539
 21
155.222662965
 31
0.0
  0
MTEXT
  5
162
330
15A
100
AcDbEntity
  8
SLD-0
100
AcDbMText
 10
104.5143826291
 20
158.4453321398
 30
0.0
 40
2.5
 41
0.0
 71
     1
 72
     1
  1
25
  7
SLDTEXTSTYLE0
 73
     1
 44
1.0
  0
ENDBLK
  5
15C
330
15A
100
AcDbEntity
  8
0
100
AcDbBlockEnd
  0
BLOCK
  5
165
330
164
100
AcDbEntity
  8
0
100
AcDbBlockBegin
  2
_D_6
 70
     0
 10
0.0
 20
0.0
 30
0.0
  3
_D_6
  1

  0
SOLID
  5
167
330
164
100
AcDbEntity
  8
SLD-0
100
AcDbTrace
 10
55.8761553211
 20
123.470429188
 30
0.0
 11
55.6261553211
 21
121.470429188
 31
0.0
 12
56.1261553211
 22
121.470429188
 32
0.0
 13
56.1261553211
 23
121.470429188
 33
0.0
  0
SOLID
  5
168
330
164
100
AcDbEntity
  8
SLD-0
100
AcDbTrace
 10
55.8761553211
 20
110.970429188
 30
0.0
 11
56.1261553211
 21
112.970429188
 31
0.0
 12
55.6261553211
 22
112.970429188
 32
0.0
 13
55.6261553211
 23
112.970429188
 33
0.0
  0
LINE
  5
169
330
164
100
AcDbEntity
  8
SLD-0
100
AcDbLine
 10
67.9241048539
 20
123.470429188
 30
0.0
 11
54.8761553211
 21
123.470429188
 31
0.0
  0
LINE
  5
16A
330
164
100
AcDbEntity
  8
SLD-0
100
AcDbLine
 10
67.9241048539
 20
110.970429188
 30
0.0
 11
54.8761553211
 21
110.970429188
 31
0.0
  0
LINE
  5
16B
330
164
100
AcDbEntity
  8
SLD-0
100
AcDbLine
 10
55.8761553211
 20
123.470429188
 30
0.0
 11
55.8761553211
 21
110.970429188
 31
0.0
  0
MTEXT
  5
16C
330
164
100
AcDbEntity
  8
SLD-0
100
AcDbMText
 10
52.6534861463
 20
113.8784153819
 30
0.0
 40
2.5
 41
0.0
 71
     1
 72
     1
  1
12.5
  7
SLDTEXTSTYLE0
 11
-7.044195017643634E-15
 21
1.0
 31
0.0
 73
     1
 44
1.0
  0
ENDBLK
  5
166
330
164
100
AcDbEntity
  8
0
100
AcDbBlockEnd
  0
BLOCK
  5
16F
330
16E
100
AcDbEntity
  8
0
100
AcDbBlockBegin
  2
_D_7
 70
     0
 10
0.0
 20
0.0
 30
0.0
  3
_D_7
  1

  0
SOLID
  5
171
330
16E
100
AcDbEntity
  8
SLD-0
100
AcDbTrace
 10
55.8761553211
 20
110.970429188
 30
0.0
 11
55.6261553211
 21
108.970429188
 31
0.0
 12
56.1261553211
 22
108.970429188
 32
0.0
 13
56.1261553211
 23
108.970429188
 33
0.0
  0
SOLID
  5
172
330
16E
100
AcDbEntity
  8
SLD-0
100
AcDbTrace
 10
55.8761553211
 20
98.470429188
 30
0.0
 11
56.1261553211
 21
100.470429188
 31
0.0
 12
55.6261553211
 22
100.470429188
 32
0.0
 13
55.6261553211
 23
100.470429188
 33
0.0
  0
LINE
  5
173
330
16E
100
AcDbEntity
  8
SLD-0
100
AcDbLine
 10
67.9241048539
 20
110.970429188
 30
0.0
 11
54.8761553211
 21
110.970429188
 31
0.0
  0
LINE
  5
174
330
16E
100
AcDbEntity
  8
SLD-0
100
AcDbLine
 10
64.4241048539
 20
98.470429188
 30
0.0
 11
54.8761553211
 21
98.470429188
 31
0.0
  0
LINE
  5
175
330
16E
100
AcDbEntity
  8
SLD-0
100
AcDbLine
 10
55.8761553211
 20
110.970429188
 30
0.0
 11
55.8761553211
 21
98.470429188
 31
0.0
  0
MTEXT
  5
176
330
16E
100
AcDbEntity
  8
SLD-0
100
AcDbMText
 10
52.6534861463
 20
101.3784153819
 30
0.0
 40
2.5
 41
0.0
 71
     1
 72
     1
  1
12.5
  7
SLDTEXTSTYLE0
 11
-7.044195017643634E-15
 21
1.0
 31
0.0
 73
     1
 44
1.0
  0
ENDBLK
  5
170
330
16E
100
AcDbEntity
  8
0
100
AcDbBlockEnd
  0
BLOCK
  5
179
330
178
100
AcDbEntity
  8
0
100
AcDbBlockBegin
  2
_D_8
 70
     0
 10
0.0
 20
0.0
 30
0.0
  3
_D_8
  1

  0
SOLID
  5
17B
330
178
100
AcDbEntity
  8
SLD-0
100
AcDbTrace
 10
48.6946070567
 20
110.970429188
 30
0.0
 11
48.4446070567
 21
108.970429188
 31
0.0
 12
48.9446070567
 22
108.970429188
 32
0.0
 13
48.9446070567
 23
108.970429188
 33
0.0
  0
SOLID
  5
17C
330
178
100
AcDbEntity
  8
SLD-0
100
AcDbTrace
 10
48.6946070567
 20
85.970429188
 30
0.0
 11
48.9446070567
 21
87.970429188
 31
0.0
 12
48.4446070567
 22
87.970429188
 32
0.0
 13
48.4446070567
 23
87.970429188
 33
0.0
  0
LINE
  5
17D
330
178
100
AcDbEntity
  8
SLD-0
100
AcDbLine
 10
67.9241048539
 20
110.970429188
 30
0.0
 11
47.6946070567
 21
110.970429188
 31
0.0
  0
LINE
  5
17E
330
178
100
AcDbEntity
  8
SLD-0
100
AcDbLine
 10
67.9241048539
 20
85.970429188
 30
0.0
 11
47.6946070567
 21
85.970429188
 31
0.0
  0
LINE
  5
17F
330
178
100
AcDbEntity
  8
SLD-0
100
AcDbLine
 10
48.6946070567
 20
110.970429188
 30
0.0
 11
48.6946070567
 21
85.970429188
 31
0.0
  0
MTEXT
  5
180
330
178
100
AcDbEntity
  8
SLD-0
100
AcDbMText
 10
45.4719378819
 20
96.5607069632
 30
0.0
 40
2.5
 41
0.0
 71
     1
 72
     1
  1
25
  7
SLDTEXTSTYLE0
 11
-7.044195017643634E-15
 21
1.0
 31
0.0
 73
     1
 44
1.0
  0
ENDBLK
  5
17A
330
178
100
AcDbEntity
  8
0
100
AcDbBlockEnd
  0
BLOCK
  5
184
330
183
100
AcDbEntity
  8
0
100
AcDbBlockBegin
  2
_D_9
 70
     0
 10
0.0
 20
0.0
 30
0.0
  3
_D_9
  1

  0
SOLID
  5
186
330
183
100
AcDbEntity
  8
SLD-0
100
AcDbTrace
 10
79.9774358773
 20
94.7412001964
 30
0.0
 11
79.021024577
 21
92.9670025116
 31
0.0
 12
79.487178201
 22
92.7861688895
 32
0.0
 13
79.487178201
 23
92.7861688895
 33
0.0
  0
LINE
  5
187
330
183
100
AcDbEntity
  8
SLD-0
100
AcDbLine
 10
79.9774358773
 20
94.7412001964
 30
0.0
 11
68.1708576541
 21
64.3061563026
 31
0.0
  0
LINE
  5
188
330
183
100
AcDbEntity
  8
SLD-0
100
AcDbLine
 10
68.1708576541
 20
64.3061563026
 30
0.0
 11
51.4590523775
 21
64.3061563026
 31
0.0
  0
MTEXT
  5
189
330
183
100
AcDbEntity
  8
SLD-0
100
AcDbMText
 10
51.4590523775
 20
71.365630944
 30
0.0
 40
2.5
 41
0.0
 71
     1
 72
     1
  1
4 HOLES,
  7
SLDTEXTSTYLE0
 73
     1
 44
1.0
  0
MTEXT
  5
18A
330
183
100
AcDbEntity
  8
SLD-0
100
AcDbMText
 10
52.3965523775
 20
67.5288254774
 30
0.0
 40
2.5
 41
0.0
 71
     1
 72
     1
  1
M4 CLR
  7
SLDTEXTSTYLE0
 73
     1
 44
1.0
  0
ENDBLK
  5
185
330
183
100
AcDbEntity
  8
0
100
AcDbBlockEnd
  0
BLOCK
  5
18D
330
18C
100
AcDbEntity
  8
0
100
AcDbBlockBegin
  2
_D_10
 70
     0
 10
0.0
 20
0.0
 30
0.0
  3
_D_10
  1

  0
SOLID
  5
18F
330
18C
100
AcDbEntity
  8
SLD-0
100
AcDbTrace
 10
95.9017172591
 20
80.8382708531
 30
0.0
 11
96.3875691185
 21
78.8821399856
 31
0.0
 12
96.8541289671
 22
79.0619229315
 32
0.0
 13
96.8541289671
 23
79.0619229315
 33
0.0
  0
LINE
  5
190
330
18C
100
AcDbEntity
  8
SLD-0
100
AcDbLine
 10
95.9017172591
 20
80.8382708531
 30
0.0
 11
102.8917410456
 21
62.6982608374
 31
0.0
  0
LINE
  5
191
330
18C
100
AcDbEntity
  8
SLD-0
100
AcDbLine
 10
102.8917410456
 20
62.6982608374
 30
0.0
 11
119.6035463221
 21
62.6982608374
 31
0.0
  0
MTEXT
  5
192
330
18C
100
AcDbEntity
  8
SLD-0
100
AcDbMText
 10
104.1417410456
 20
69.7577354788
 30
0.0
 40
2.5
 41
0.0
 71
     1
 72
     1
  1
5 HOLES,
  7
SLDTEXTSTYLE0
 73
     1
 44
1.0
  0
MTEXT
  5
193
330
18C
100
AcDbEntity
  8
SLD-0
100
AcDbMText
 10
105.0792410456
 20
65.9209300122
 30
0.0
 40
2.5
 41
0.0
 71
     1
 72
     1
  1
M6 CLR
  7
SLDTEXTSTYLE0
 73
     1
 44
1.0
  0
ENDBLK
  5
18E
330
18C
100
AcDbEntity
  8
0
100
AcDbBlockEnd
  0
BLOCK
  5
196
330
195
100
AcDbEntity
  8
0
100
AcDbBlockBegin
  2
_D_11
 70
     0
 10
0.0
 20
0.0
 30
0.0
  3
_D_11
  1

  0
SOLID
  5
198
330
195
100
AcDbEntity
  8
SLD-0
100
AcDbTrace
 10
120.6114525848
 20
83.4899337465
 30
0.0
 11
121.5296431186
 21
81.695657808
 31
0.0
 12
121.9430590255
 22
81.9768824298
 32
0.0
 13
121.9430590255
 23
81.9768824298
 33
0.0
  0
LINE
  5
199
330
195
100
AcDbEntity
  8
SLD-0
100
AcDbLine
 10
120.6114525848
 20
83.4899337465
 30
0.0
 11
133.6611453189
 21
64.3061563026
 31
0.0
  0
LINE
  5
19A
330
195
100
AcDbEntity
  8
SLD-0
100
AcDbLine
 10
133.6611453189
 20
64.3061563026
 30
0.0
 11
150.3729505955
 21
64.3061563026
 31
0.0
  0
MTEXT
  5
19B
330
195
100
AcDbEntity
  8
SLD-0
100
AcDbMText
 10
134.9111453189
 20
71.365630944
 30
0.0
 40
2.5
 41
0.0
 71
     1
 72
     1
  1
8 HOLES,
  7
SLDTEXTSTYLE0
 73
     1
 44
1.0
  0
MTEXT
  5
19C
330
195
100
AcDbEntity
  8
SLD-0
100
AcDbMText
 10
135.8486453189
 20
67.5288254774
 30
0.0
 40
2.5
 41
0.0
 71
     1
 72
     1
  1
M6
  7
SLDTEXTSTYLE0
 73
     1
 44
1.0
  0
ENDBLK
  5
197
330
195
100
AcDbEntity
  8
0
100
AcDbBlockEnd
  0
BLOCK
  5
19F
330
19E
100
AcDbEntity
  8
0
100
AcDbBlockBegin
  2
_D_12
 70
     0
 10
0.0
 20
0.0
 30
0.0
  3
_D_12
  1

  0
SOLID
  5
1A1
330
19E
100
AcDbEntity
  8
SLD-0
 62
     7
100
AcDbTrace
 10
48.6946070567
 20
135.970429188
 30
0.0
 11
48.4446070567
 21
133.970429188
 31
0.0
 12
48.9446070567
 22
133.970429188
 32
0.0
 13
48.9446070567
 23
133.970429188
 33
0.0
  0
SOLID
  5
1A2
330
19E
100
AcDbEntity
  8
SLD-0
 62
     7
100
AcDbTrace
 10
48.6946070567
 20
110.970429188
 30
0.0
 11
48.9446070567
 21
112.970429188
 31
0.0
 12
48.4446070567
 22
112.970429188
 32
0.0
 13
48.4446070567
 23
112.970429188
 33
0.0
  0
LINE
  5
1A3
330
19E
100
AcDbEntity
  8
SLD-0
 62
     7
100
AcDbLine
 10
67.9241048539
 20
135.970429188
 30
0.0
 11
47.6946070567
 21
135.970429188
 31
0.0
  0
LINE
  5
1A4
330
19E
100
AcDbEntity
  8
SLD-0
 62
     7
100
AcDbLine
 10
67.9241048539
 20
110.970429188
 30
0.0
 11
47.6946070567
 21
110.970429188
 31
0.0
  0
LINE
  5
1A5
330
19E
100
AcDbEntity
  8
SLD-0
 62
     7
100
AcDbLine
 10
48.6946070567
 20
135.970429188
 30
0.0
 11
48.6946070567
 21
110.970429188
 31
0.0
  0
MTEXT
  5
1A6
330
19E
100
AcDbEntity
  8
SLD-0
 62
     7
100
AcDbMText
 10
45.4719378819
 20
121.5607069632
 30
0.0
 40
2.5
 41
0.0
 71
     1
 72
     1
  1
25
  7
SLDTEXTSTYLE0
 11
-7.044195017643634E-15
 21
1.0
 31
0.0
 73
     1
 44
1.0
  0
ENDBLK
  5
1A0
330
19E
100
AcDbEntity
  8
0
100
AcDbBlockEnd
  0
BLOCK
  5
1A8
330
1A7
100
AcDbEntity
  8
0
100
AcDbBlockBegin
  2
SW_CENTERMARKSYMBOL_0
 70
     0
 10
0.0
 20
0.0
 30
0.0
  3
SW_CENTERMARKSYMBOL_0
  1

  0
LINE
  5
1AA
330
1A7
100
AcDbEntity
  8
SLD-0
 62
     0
100
AcDbLine
 10
0.0
 20
0.0
 30
0.0
 11
0.0
 21
1.0
 31
0.0
  0
LINE
  5
1AB
330
1A7
100
AcDbEntity
  8
SLD-0
 62
     0
100
AcDbLine
 10
0.0
 20
0.0
 30
0.0
 11
-1.0
 21
0.0
 31
0.0
  0
LINE
  5
1AC
330
1A7
100
AcDbEntity
  8
SLD-0
 62
     0
100
AcDbLine
 10
0.0
 20
0.0
 30
0.0
 11
0.0
 21
-1.0
 31
0.0
  0
LINE
  5
1AD
330
1A7
100
AcDbEntity
  8
SLD-0
 62
     0
100
AcDbLine
 10
0.0
 20
0.0
 30
0.0
 11
1.0
 21
0.0
 31
0.0
  0
LINE
  5
1AE
330
1A7
100
AcDbEntity
  8
SLD-0
 62
     0
100
AcDbLine
 10
0.0
 20
2.0
 30
0.0
 11
0.0
 21
3.5
 31
0.0
  0
LINE
  5
1AF
330
1A7
100
AcDbEntity
  8
SLD-0
 62
     0
100
AcDbLine
 10
-2.0
 20
0.0
 30
0.0
 11
-3.5
 21
0.0
 31
0.0
  0
LINE
  5
1B0
330
1A7
100
AcDbEntity
  8
SLD-0
 62
     0
100
AcDbLine
 10
0.0
 20
-2.0
 30
0.0
 11
0.0
 21
-3.5
 31
0.0
  0
LINE
  5
1B1
330
1A7
100
AcDbEntity
  8
SLD-0
 62
     0
100
AcDbLine
 10
2.0
 20
0.0
 30
0.0
 11
3.5
 21
0.0
 31
0.0
  0
ENDBLK
  5
1A9
330
1A7
100
AcDbEntity
  8
0
100
AcDbBlockEnd
  0
BLOCK
  5
1B4
330
1B3
100
AcDbEntity
  8
0
100
AcDbBlockBegin
  2
SW_CENTERMARKSYMBOL_1
 70
     0
 10
0.0
 20
0.0
 30
0.0
  3
SW_CENTERMARKSYMBOL_1
  1

  0
LINE
  5
1B6
330
1B3
100
AcDbEntity
  8
SLD-0
 62
     0
100
AcDbLine
 10
0.0
 20
0.0
 30
0.0
 11
0.0
 21
1.0
 31
0.0
  0
LINE
  5
1B7
330
1B3
100
AcDbEntity
  8
SLD-0
 62
     0
100
AcDbLine
 10
0.0
 20
0.0
 30
0.0
 11
-1.0
 21
0.0
 31
0.0
  0
LINE
  5
1B8
330
1B3
100
AcDbEntity
  8
SLD-0
 62
     0
100
AcDbLine
 10
0.0
 20
0.0
 30
0.0
 11
0.0
 21
-1.0
 31
0.0
  0
LINE
  5
1B9
330
1B3
100
AcDbEntity
  8
SLD-0
 62
     0
100
AcDbLine
 10
0.0
 20
0.0
 30
0.0
 11
1.0
 21
0.0
 31
0.0
  0
LINE
  5
1BA
330
1B3
100
AcDbEntity
  8
SLD-0
 62
     0
100
AcDbLine
 10
0.0
 20
2.0
 30
0.0
 11
0.0
 21
6.5
 31
0.0
  0
LINE
  5
1BB
330
1B3
100
AcDbEntity
  8
SLD-0
 62
     0
100
AcDbLine
 10
-2.0
 20
0.0
 30
0.0
 11
-6.5
 21
0.0
 31
0.0
  0
LINE
  5
1BC
330
1B3
100
AcDbEntity
  8
SLD-0
 62
     0
100
AcDbLine
 10
0.0
 20
-2.0
 30
0.0
 11
0.0
 21
-6.5
 31
0.0
  0
LINE
  5
1BD
330
1B3
100
AcDbEntity
  8
SLD-0
 62
     0
100
AcDbLine
 10
2.0
 20
0.0
 30
0.0
 11
6.5
 21
0.0
 31
0.0
  0
ENDBLK
  5
1B5
330
1B3
100
AcDbEntity
  8
0
100
AcDbBlockEnd
  0
BLOCK
  5
1C0
330
1BF
100
AcDbEntity
  8
0
100
AcDbBlockBegin
  2
SW_CENTERMARKSYMBOL_2
 70
     0
 10
0.0
 20
0.0
 30
0.0
  3
SW_CENTERMARKSYMBOL_2
  1

  0
LINE
  5
1C2
330
1BF
100
AcDbEntity
  8
SLD-0
 62
     0
100
AcDbLine
 10
0.0
 20
0.0
 30
0.0
 11
0.0
 21
1.0
 31
0.0
  0
LINE
  5
1C3
330
1BF
100
AcDbEntity
  8
SLD-0
 62
     0
100
AcDbLine
 10
0.0
 20
0.0
 30
0.0
 11
-1.0
 21
0.0
 31
0.0
  0
LINE
  5
1C4
330
1BF
100
AcDbEntity
  8
SLD-0
 62
     0
100
AcDbLine
 10
0.0
 20
0.0
 30
0.0
 11
0.0
 21
-1.0
 31
0.0
  0
LINE
  5
1C5
330
1BF
100
AcDbEntity
  8
SLD-0
 62
     0
100
AcDbLine
 10
0.0
 20
0.0
 30
0.0
 11
1.0
 21
0.0
 31
0.0
  0
LINE
  5
1C6
330
1BF
100
AcDbEntity
  8
SLD-0
 62
     0
100
AcDbLine
 10
0.0
 20
2.0
 30
0.0
 11
0.0
 21
3.5
 31
0.0
  0
LINE
  5
1C7
330
1BF
100
AcDbEntity
  8
SLD-0
 62
     0
100
AcDbLine
 10
-2.0
 20
0.0
 30
0.0
 11
-3.5
 21
0.0
 31
0.0
  0
LINE
  5
1C8
330
1BF
100
AcDbEntity
  8
SLD-0
 62
     0
100
AcDbLine
 10
0.0
 20
-2.0
 30
0.0
 11
0.0
 21
-3.5
 31
0.0
  0
LINE
  5
1C9
330
1BF
100
AcDbEntity
  8
SLD-0
 62
     0
100
AcDbLine
 10
2.0
 20
0.0
 30
0.0
 11
3.5
 21
0.0
 31
0.0
  0
ENDBLK
  5
1C1
330
1BF
100
AcDbEntity
  8
0
100
AcDbBlockEnd
  0
BLOCK
  5
1CC
330
1CB
100
AcDbEntity
  8
0
100
AcDbBlockBegin
  2
SW_CENTERMARKSYMBOL_3
 70
     0
 10
0.0
 20
0.0
 30
0.0
  3
SW_CENTERMARKSYMBOL_3
  1

  0
LINE
  5
1CE
330
1CB
100
AcDbEntity
  8
SLD-0
 62
     0
100
AcDbLine
 10
0.0
 20
0.0
 30
0.0
 11
0.0
 21
1.0
 31
0.0
  0
LINE
  5
1CF
330
1CB
100
AcDbEntity
  8
SLD-0
 62
     0
100
AcDbLine
 10
0.0
 20
0.0
 30
0.0
 11
-1.0
 21
0.0
 31
0.0
  0
LINE
  5
1D0
330
1CB
100
AcDbEntity
  8
SLD-0
 62
     0
100
AcDbLine
 10
0.0
 20
0.0
 30
0.0
 11
0.0
 21
-1.0
 31
0.0
  0
LINE
  5
1D1
330
1CB
100
AcDbEntity
  8
SLD-0
 62
     0
100
AcDbLine
 10
0.0
 20
0.0
 30
0.0
 11
1.0
 21
0.0
 31
0.0
  0
LINE
  5
1D2
330
1CB
100
AcDbEntity
  8
SLD-0
 62
     0
100
AcDbLine
 10
0.0
 20
2.0
 30
0.0
 11
0.0
 21
6.5
 31
0.0
  0
LINE
  5
1D3
330
1CB
100
AcDbEntity
  8
SLD-0
 62
     0
100
AcDbLine
 10
-2.0
 20
0.0
 30
0.0
 11
-6.5
 21
0.0
 31
0.0
  0
LINE
  5
1D4
330
1CB
100
AcDbEntity
  8
SLD-0
 62
     0
100
AcDbLine
 10
0.0
 20
-2.0
 30
0.0
 11
0.0
 21
-6.5
 31
0.0
  0
LINE
  5
1D5
330
1CB
100
AcDbEntity
  8
SLD-0
 62
     0
100
AcDbLine
 10
2.0
 20
0.0
 30
0.0
 11
6.5
 21
0.0
 31
0.0
  0
ENDBLK
  5
1CD
330
1CB
100
AcDbEntity
  8
0
100
AcDbBlockEnd
  0
BLOCK
  5
1D8
330
1D7
100
AcDbEntity
  8
0
100
AcDbBlockBegin
  2
SW_CENTERMARKSYMBOL_4
 70
     0
 10
0.0
 20
0.0
 30
0.0
  3
SW_CENTERMARKSYMBOL_4
  1

  0
LINE
  5
1DA
330
1D7
100
AcDbEntity
  8
SLD-0
 62
     0
100
AcDbLine
 10
0.0
 20
0.0
 30
0.0
 11
0.0
 21
1.0
 31
0.0
  0
LINE
  5
1DB
330
1D7
100
AcDbEntity
  8
SLD-0
 62
     0
100
AcDbLine
 10
0.0
 20
0.0
 30
0.0
 11
-1.0
 21
0.0
 31
0.0
  0
LINE
  5
1DC
330
1D7
100
AcDbEntity
  8
SLD-0
 62
     0
100
AcDbLine
 10
0.0
 20
0.0
 30
0.0
 11
0.0
 21
-1.0
 31
0.0
  0
LINE
  5
1DD
330
1D7
100
AcDbEntity
  8
SLD-0
 62
     0
100
AcDbLine
 10
0.0
 20
0.0
 30
0.0
 11
1.0
 21
0.0
 31
0.0
  0
LINE
  5
1DE
330
1D7
100
AcDbEntity
  8
SLD-0
 62
     0
100
AcDbLine
 10
0.0
 20
2.0
 30
0.0
 11
0.0
 21
3.5
 31
0.0
  0
LINE
  5
1DF
330
1D7
100
AcDbEntity
  8
SLD-0
 62
     0
100
AcDbLine
 10
-2.0
 20
0.0
 30
0.0
 11
-3.5
 21
0.0
 31
0.0
  0
LINE
  5
1E0
330
1D7
100
AcDbEntity
  8
SLD-0
 62
     0
100
AcDbLine
 10
0.0
 20
-2.0
 30
0.0
 11
0.0
 21
-3.5
 31
0.0
  0
LINE
  5
1E1
330
1D7
100
AcDbEntity
  8
SLD-0
 62
     0
100
AcDbLine
 10
2.0
 20
0.0
 30
0.0
 11
3.5
 21
0.0
 31
0.0
  0
ENDBLK
  5
1D9
330
1D7
100
AcDbEntity
  8
0
100
AcDbBlockEnd
  0
BLOCK
  5
1E4
330
1E3
100
AcDbEntity
  8
0
100
AcDbBlockBegin
  2
SW_CENTERMARKSYMBOL_5
 70
     0
 10
0.0
 20
0.0
 30
0.0
  3
SW_CENTERMARKSYMBOL_5
  1

  0
LINE
  5
1E6
330
1E3
100
AcDbEntity
  8
SLD-0
 62
     0
100
AcDbLine
 10
0.0
 20
0.0
 30
0.0
 11
0.0
 21
1.0
 31
0.0
  0
LINE
  5
1E7
330
1E3
100
AcDbEntity
  8
SLD-0
 62
     0
100
AcDbLine
 10
0.0
 20
0.0
 30
0.0
 11
-1.0
 21
0.0
 31
0.0
  0
LINE
  5
1E8
330
1E3
100
AcDbEntity
  8
SLD-0
 62
     0
100
AcDbLine
 10
0.0
 20
0.0
 30
0.0
 11
0.0
 21
-1.0
 31
0.0
  0
LINE
  5
1E9
330
1E3
100
AcDbEntity
  8
SLD-0
 62
     0
100
AcDbLine
 10
0.0
 20
0.0
 30
0.0
 11
1.0
 21
0.0
 31
0.0
  0
LINE
  5
1EA
330
1E3
100
AcDbEntity
  8
SLD-0
 62
     0
100
AcDbLine
 10
0.0
 20
2.0
 30
0.0
 11
0.0
 21
3.5
 31
0.0
  0
LINE
  5
1EB
330
1E3
100
AcDbEntity
  8
SLD-0
 62
     0
100
AcDbLine
 10
-2.0
 20
0.0
 30
0.0
 11
-3.5
 21
0.0
 31
0.0
  0
LINE
  5
1EC
330
1E3
100
AcDbEntity
  8
SLD-0
 62
     0
100
AcDbLine
 10
0.0
 20
-2.0
 30
0.0
 11
0.0
 21
-3.5
 31
0.0
  0
LINE
  5
1ED
330
1E3
100
AcDbEntity
  8
SLD-0
 62
     0
100
AcDbLine
 10
2.0
 20
0.0
 30
0.0
 11
3.5
 21
0.0
 31
0.0
  0
ENDBLK
  5
1E5
330
1E3
100
AcDbEntity
  8
0
100
AcDbBlockEnd
  0
BLOCK
  5
1F0
330
1EF
100
AcDbEntity
  8
0
100
AcDbBlockBegin
  2
SW_CENTERMARKSYMBOL_6
 70
     0
 10
0.0
 20
0.0
 30
0.0
  3
SW_CENTERMARKSYMBOL_6
  1

  0
LINE
  5
1F2
330
1EF
100
AcDbEntity
  8
SLD-0
 62
     0
100
AcDbLine
 10
0.0
 20
0.0
 30
0.0
 11
0.0
 21
1.0
 31
0.0
  0
LINE
  5
1F3
330
1EF
100
AcDbEntity
  8
SLD-0
 62
     0
100
AcDbLine
 10
0.0
 20
0.0
 30
0.0
 11
-1.0
 21
0.0
 31
0.0
  0
LINE
  5
1F4
330
1EF
100
AcDbEntity
  8
SLD-0
 62
     0
100
AcDbLine
 10
0.0
 20
0.0
 30
0.0
 11
0.0
 21
-1.0
 31
0.0
  0
LINE
  5
1F5
330
1EF
100
AcDbEntity
  8
SLD-0
 62
     0
100
AcDbLine
 10
0.0
 20
0.0
 30
0.0
 11
1.0
 21
0.0
 31
0.0
  0
LINE
  5
1F6
330
1EF
100
AcDbEntity
  8
SLD-0
 62
     0
100
AcDbLine
 10
0.0
 20
2.0
 30
0.0
 11
0.0
 21
5.0
 31
0.0
  0
LINE
  5
1F7
330
1EF
100
AcDbEntity
  8
SLD-0
 62
     0
100
AcDbLine
 10
-2.0
 20
0.0
 30
0.0
 11
-5.0
 21
0.0
 31
0.0
  0
LINE
  5
1F8
330
1EF
100
AcDbEntity
  8
SLD-0
 62
     0
100
AcDbLine
 10
0.0
 20
-2.0
 30
0.0
 11
0.0
 21
-5.0
 31
0.0
  0
LINE
  5
1F9
330
1EF
100
AcDbEntity
  8
SLD-0
 62
     0
100
AcDbLine
 10
2.0
 20
0.0
 30
0.0
 11
5.0
 21
0.0
 31
0.0
  0
ENDBLK
  5
1F1
330
1EF
100
AcDbEntity
  8
0
100
AcDbBlockEnd
  0
BLOCK
  5
1FC
330
1FB
100
AcDbEntity
  8
0
100
AcDbBlockBegin
  2
SW_CENTERMARKSYMBOL_7
 70
     0
 10
0.0
 20
0.0
 30
0.0
  3
SW_CENTERMARKSYMBOL_7
  1

  0
LINE
  5
1FE
330
1FB
100
AcDbEntity
  8
SLD-0
 62
     0
100
AcDbLine
 10
0.0
 20
0.0
 30
0.0
 11
0.0
 21
1.0
 31
0.0
  0
LINE
  5
1FF
330
1FB
100
AcDbEntity
  8
SLD-0
 62
     0
100
AcDbLine
 10
0.0
 20
0.0
 30
0.0
 11
-1.0
 21
0.0
 31
0.0
  0
LINE
  5
200
330
1FB
100
AcDbEntity
  8
SLD-0
 62
     0
100
AcDbLine
 10
0.0
 20
0.0
 30
0.0
 11
0.0
 21
-1.0
 31
0.0
  0
LINE
  5
201
330
1FB
100
AcDbEntity
  8
SLD-0
 62
     0
100
AcDbLine
 10
0.0
 20
0.0
 30
0.0
 11
1.0
 21
0.0
 31
0.0
  0
LINE
  5
202
330
1FB
100
AcDbEntity
  8
SLD-0
 62
     0
100
AcDbLine
 10
0.0
 20
2.0
 30
0.0
 11
0.0
 21
5.0
 31
0.0
  0
LINE
  5
203
330
1FB
100
AcDbEntity
  8
SLD-0
 62
     0
100
AcDbLine
 10
-2.0
 20
0.0
 30
0.0
 11
-5.0
 21
0.0
 31
0.0
  0
LINE
  5
204
330
1FB
100
AcDbEntity
  8
SLD-0
 62
     0
100
AcDbLine
 10
0.0
 20
-2.0
 30
0.0
 11
0.0
 21
-5.0
 31
0.0
  0
LINE
  5
205
330
1FB
100
AcDbEntity
  8
SLD-0
 62
     0
100
AcDbLine
 10
2.0
 20
0.0
 30
0.0
 11
5.0
 21
0.0
 31
0.0
  0
ENDBLK
  5
1FD
330
1FB
100
AcDbEntity
  8
0
100
AcDbBlockEnd
  0
BLOCK
  5
208
330
207
100
AcDbEntity
  8
0
100
AcDbBlockBegin
  2
SW_CENTERMARKSYMBOL_8
 70
     0
 10
0.0
 20
0.0
 30
0.0
  3
SW_CENTERMARKSYMBOL_8
  1

  0
LINE
  5
20A
330
207
100
AcDbEntity
  8
SLD-0
 62
     0
100
AcDbLine
 10
0.0
 20
0.0
 30
0.0
 11
0.0
 21
1.0
 31
0.0
  0
LINE
  5
20B
330
207
100
AcDbEntity
  8
SLD-0
 62
     0
100
AcDbLine
 10
0.0
 20
0.0
 30
0.0
 11
-1.0
 21
0.0
 31
0.0
  0
LINE
  5
20C
330
207
100
AcDbEntity
  8
SLD-0
 62
     0
100
AcDbLine
 10
0.0
 20
0.0
 30
0.0
 11
0.0
 21
-1.0
 31
0.0
  0
LINE
  5
20D
330
207
100
AcDbEntity
  8
SLD-0
 62
     0
100
AcDbLine
 10
0.0
 20
0.0
 30
0.0
 11
1.0
 21
0.0
 31
0.0
  0
LINE
  5
20E
330
207
100
AcDbEntity
  8
SLD-0
 62
     0
100
AcDbLine
 10
0.0
 20
2.0
 30
0.0
 11
0.0
 21
6.5
 31
0.0
  0
LINE
  5
20F
330
207
100
AcDbEntity
  8
SLD-0
 62
     0
100
AcDbLine
 10
-2.0
 20
0.0
 30
0.0
 11
-6.5
 21
0.0
 31
0.0
  0
LINE
  5
210
330
207
100
AcDbEntity
  8
SLD-0
 62
     0
100
AcDbLine
 10
0.0
 20
-2.0
 30
0.0
 11
0.0
 21
-6.5
 31
0.0
  0
LINE
  5
211
330
207
100
AcDbEntity
  8
SLD-0
 62
     0
100
AcDbLine
 10
2.0
 20
0.0
 30
0.0
 11
6.5
 21
0.0
 31
0.0
  0
ENDBLK
  5
209
330
207
100
AcDbEntity
  8
0
100
AcDbBlockEnd
  0
BLOCK
  5
214
330
213
100
AcDbEntity
  8
0
100
AcDbBlockBegin
  2
SW_CENTERMARKSYMBOL_9
 70
     0
 10
0.0
 20
0.0
 30
0.0
  3
SW_CENTERMARKSYMBOL_9
  1

  0
LINE
  5
216
330
213
100
AcDbEntity
  8
SLD-0
 62
     0
100
AcDbLine
 10
0.0
 20
0.0
 30
0.0
 11
0.0
 21
1.0
 31
0.0
  0
LINE
  5
217
330
213
100
AcDbEntity
  8
SLD-0
 62
     0
100
AcDbLine
 10
0.0
 20
0.0
 30
0.0
 11
-1.0
 21
0.0
 31
0.0
  0
LINE
  5
218
330
213
100
AcDbEntity
  8
SLD-0
 62
     0
100
AcDbLine
 10
0.0
 20
0.0
 30
0.0
 11
0.0
 21
-1.0
 31
0.0
  0
LINE
  5
219
330
213
100
AcDbEntity
  8
SLD-0
 62
     0
100
AcDbLine
 10
0.0
 20
0.0
 30
0.0
 11
1.0
 21
0.0
 31
0.0
  0
LINE
  5
21A
330
213
100
AcDbEntity
  8
SLD-0
 62
     0
100
AcDbLine
 10
0.0
 20
2.0
 30
0.0
 11
0.0
 21
5.0
 31
0.0
  0
LINE
  5
21B
330
213
100
AcDbEntity
  8
SLD-0
 62
     0
100
AcDbLine
 10
-2.0
 20
0.0
 30
0.0
 11
-5.0
 21
0.0
 31
0.0
  0
LINE
  5
21C
330
213
100
AcDbEntity
  8
SLD-0
 62
     0
100
AcDbLine
 10
0.0
 20
-2.0
 30
0.0
 11
0.0
 21
-5.0
 31
0.0
  0
LINE
  5
21D
330
213
100
AcDbEntity
  8
SLD-0
 62
     0
100
AcDbLine
 10
2.0
 20
0.0
 30
0.0
 11
5.0
 21
0.0
 31
0.0
  0
ENDBLK
  5
215
330
213
100
AcDbEntity
  8
0
100
AcDbBlockEnd
  0
BLOCK
  5
220
330
21F
100
AcDbEntity
  8
0
100
AcDbBlockBegin
  2
SW_CENTERMARKSYMBOL_10
 70
     0
 10
0.0
 20
0.0
 30
0.0
  3
SW_CENTERMARKSYMBOL_10
  1

  0
LINE
  5
222
330
21F
100
AcDbEntity
  8
SLD-0
 62
     0
100
AcDbLine
 10
0.0
 20
0.0
 30
0.0
 11
0.0
 21
1.0
 31
0.0
  0
LINE
  5
223
330
21F
100
AcDbEntity
  8
SLD-0
 62
     0
100
AcDbLine
 10
0.0
 20
0.0
 30
0.0
 11
-1.0
 21
0.0
 31
0.0
  0
LINE
  5
224
330
21F
100
AcDbEntity
  8
SLD-0
 62
     0
100
AcDbLine
 10
0.0
 20
0.0
 30
0.0
 11
0.0
 21
-1.0
 31
0.0
  0
LINE
  5
225
330
21F
100
AcDbEntity
  8
SLD-0
 62
     0
100
AcDbLine
 10
0.0
 20
0.0
 30
0.0
 11
1.0
 21
0.0
 31
0.0
  0
LINE
  5
226
330
21F
100
AcDbEntity
  8
SLD-0
 62
     0
100
AcDbLine
 10
0.0
 20
2.0
 30
0.0
 11
0.0
 21
5.0
 31
0.0
  0
LINE
  5
227
330
21F
100
AcDbEntity
  8
SLD-0
 62
     0
100
AcDbLine
 10
-2.0
 20
0.0
 30
0.0
 11
-5.0
 21
0.0
 31
0.0
  0
LINE
  5
228
330
21F
100
AcDbEntity
  8
SLD-0
 62
     0
100
AcDbLine
 10
0.0
 20
-2.0
 30
0.0
 11
0.0
 21
-5.0
 31
0.0
  0
LINE
  5
229
330
21F
100
AcDbEntity
  8
SLD-0
 62
     0
100
AcDbLine
 10
2.0
 20
0.0
 30
0.0
 11
5.0
 21
0.0
 31
0.0
  0
ENDBLK
  5
221
330
21F
100
AcDbEntity
  8
0
100
AcDbBlockEnd
  0
BLOCK
  5
22C
330
22B
100
AcDbEntity
  8
0
100
AcDbBlockBegin
  2
SW_CENTERMARKSYMBOL_11
 70
     0
 10
0.0
 20
0.0
 30
0.0
  3
SW_CENTERMARKSYMBOL_11
  1

  0
LINE
  5
22E
330
22B
100
AcDbEntity
  8
SLD-0
 62
     0
100
AcDbLine
 10
0.0
 20
0.0
 30
0.0
 11
0.0
 21
1.0
 31
0.0
  0
LINE
  5
22F
330
22B
100
AcDbEntity
  8
SLD-0
 62
     0
100
AcDbLine
 10
0.0
 20
0.0
 30
0.0
 11
-1.0
 21
0.0
 31
0.0
  0
LINE
  5
230
330
22B
100
AcDbEntity
  8
SLD-0
 62
     0
100
AcDbLine
 10
0.0
 20
0.0
 30
0.0
 11
0.0
 21
-1.0
 31
0.0
  0
LINE
  5
231
330
22B
100
AcDbEntity
  8
SLD-0
 62
     0
100
AcDbLine
 10
0.0
 20
0.0
 30
0.0
 11
1.0
 21
0.0
 31
0.0
  0
LINE
  5
232
330
22B
100
AcDbEntity
  8
SLD-0
 62
     0
100
AcDbLine
 10
0.0
 20
2.0
 30
0.0
 11
0.0
 21
6.5
 31
0.0
  0
LINE
  5
233
330
22B
100
AcDbEntity
  8
SLD-0
 62
     0
100
AcDbLine
 10
-2.0
 20
0.0
 30
0.0
 11
-6.5
 21
0.0
 31
0.0
  0
LINE
  5
234
330
22B
100
AcDbEntity
  8
SLD-0
 62
     0
100
AcDbLine
 10
0.0
 20
-2.0
 30
0.0
 11
0.0
 21
-6.5
 31
0.0
  0
LINE
  5
235
330
22B
100
AcDbEntity
  8
SLD-0
 62
     0
100
AcDbLine
 10
2.0
 20
0.0
 30
0.0
 11
6.5
 21
0.0
 31
0.0
  0
ENDBLK
  5
22D
330
22B
100
AcDbEntity
  8
0
100
AcDbBlockEnd
  0
BLOCK
  5
238
330
237
100
AcDbEntity
  8
0
100
AcDbBlockBegin
  2
SW_CENTERMARKSYMBOL_12
 70
     0
 10
0.0
 20
0.0
 30
0.0
  3
SW_CENTERMARKSYMBOL_12
  1

  0
LINE
  5
23A
330
237
100
AcDbEntity
  8
SLD-0
 62
     0
100
AcDbLine
 10
0.0
 20
0.0
 30
0.0
 11
0.0
 21
1.0
 31
0.0
  0
LINE
  5
23B
330
237
100
AcDbEntity
  8
SLD-0
 62
     0
100
AcDbLine
 10
0.0
 20
0.0
 30
0.0
 11
-1.0
 21
0.0
 31
0.0
  0
LINE
  5
23C
330
237
100
AcDbEntity
  8
SLD-0
 62
     0
100
AcDbLine
 10
0.0
 20
0.0
 30
0.0
 11
0.0
 21
-1.0
 31
0.0
  0
LINE
  5
23D
330
237
100
AcDbEntity
  8
SLD-0
 62
     0
100
AcDbLine
 10
0.0
 20
0.0
 30
0.0
 11
1.0
 21
0.0
 31
0.0
  0
LINE
  5
23E
330
237
100
AcDbEntity
  8
SLD-0
 62
     0
100
AcDbLine
 10
0.0
 20
2.0
 30
0.0
 11
0.0
 21
3.5
 31
0.0
  0
LINE
  5
23F
330
237
100
AcDbEntity
  8
SLD-0
 62
     0
100
AcDbLine
 10
-2.0
 20
0.0
 30
0.0
 11
-3.5
 21
0.0
 31
0.0
  0
LINE
  5
240
330
237
100
AcDbEntity
  8
SLD-0
 62
     0
100
AcDbLine
 10
0.0
 20
-2.0
 30
0.0
 11
0.0
 21
-3.5
 31
0.0
  0
LINE
  5
241
330
237
100
AcDbEntity
  8
SLD-0
 62
     0
100
AcDbLine
 10
2.0
 20
0.0
 30
0.0
 11
3.5
 21
0.0
 31
0.0
  0
ENDBLK
  5
239
330
237
100
AcDbEntity
  8
0
100
AcDbBlockEnd
  0
BLOCK
  5
244
330
243
100
AcDbEntity
  8
0
100
AcDbBlockBegin
  2
SW_CENTERMARKSYMBOL_13
 70
     0
 10
0.0
 20
0.0
 30
0.0
  3
SW_CENTERMARKSYMBOL_13
  1

  0
LINE
  5
246
330
243
100
AcDbEntity
  8
SLD-0
 62
     0
100
AcDbLine
 10
0.0
 20
0.0
 30
0.0
 11
0.0
 21
1.0
 31
0.0
  0
LINE
  5
247
330
243
100
AcDbEntity
  8
SLD-0
 62
     0
100
AcDbLine
 10
0.0
 20
0.0
 30
0.0
 11
-1.0
 21
0.0
 31
0.0
  0
LINE
  5
248
330
243
100
AcDbEntity
  8
SLD-0
 62
     0
100
AcDbLine
 10
0.0
 20
0.0
 30
0.0
 11
0.0
 21
-1.0
 31
0.0
  0
LINE
  5
249
330
243
100
AcDbEntity
  8
SLD-0
 62
     0
100
AcDbLine
 10
0.0
 20
0.0
 30
0.0
 11
1.0
 21
0.0
 31
0.0
  0
LINE
  5
24A
330
243
100
AcDbEntity
  8
SLD-0
 62
     0
100
AcDbLine
 10
0.0
 20
2.0
 30
0.0
 11
0.0
 21
3.5
 31
0.0
  0
LINE
  5
24B
330
243
100
AcDbEntity
  8
SLD-0
 62
     0
100
AcDbLine
 10
-2.0
 20
0.0
 30
0.0
 11
-3.5
 21
0.0
 31
0.0
  0
LINE
  5
24C
330
243
100
AcDbEntity
  8
SLD-0
 62
     0
100
AcDbLine
 10
0.0
 20
-2.0
 30
0.0
 11
0.0
 21
-3.5
 31
0.0
  0
LINE
  5
24D
330
243
100
AcDbEntity
  8
SLD-0
 62
     0
100
AcDbLine
 10
2.0
 20
0.0
 30
0.0
 11
3.5
 21
0.0
 31
0.0
  0
ENDBLK
  5
245
330
243
100
AcDbEntity
  8
0
100
AcDbBlockEnd
  0
BLOCK
  5
250
330
24F
100
AcDbEntity
  8
0
100
AcDbBlockBegin
  2
SW_CENTERMARKSYMBOL_14
 70
     0
 10
0.0
 20
0.0
 30
0.0
  3
SW_CENTERMARKSYMBOL_14
  1

  0
LINE
  5
252
330
24F
100
AcDbEntity
  8
SLD-0
 62
     0
100
AcDbLine
 10
0.0
 20
0.0
 30
0.0
 11
0.0
 21
1.0
 31
0.0
  0
LINE
  5
253
330
24F
100
AcDbEntity
  8
SLD-0
 62
     0
100
AcDbLine
 10
0.0
 20
0.0
 30
0.0
 11
-1.0
 21
0.0
 31
0.0
  0
LINE
  5
254
330
24F
100
AcDbEntity
  8
SLD-0
 62
     0
100
AcDbLine
 10
0.0
 20
0.0
 30
0.0
 11
0.0
 21
-1.0
 31
0.0
  0
LINE
  5
255
330
24F
100
AcDbEntity
  8
SLD-0
 62
     0
100
AcDbLine
 10
0.0
 20
0.0
 30
0.0
 11
1.0
 21
0.0
 31
0.0
  0
LINE
  5
256
330
24F
100
AcDbEntity
  8
SLD-0
 62
     0
100
AcDbLine
 10
0.0
 20
2.0
 30
0.0
 11
0.0
 21
3.5
 31
0.0
  0
LINE
  5
257
330
24F
100
AcDbEntity
  8
SLD-0
 62
     0
100
AcDbLine
 10
-2.0
 20
0.0
 30
0.0
 11
-3.5
 21
0.0
 31
0.0
  0
LINE
  5
258
330
24F
100
AcDbEntity
  8
SLD-0
 62
     0
100
AcDbLine
 10
0.0
 20
-2.0
 30
0.0
 11
0.0
 21
-3.5
 31
0.0
  0
LINE
  5
259
330
24F
100
AcDbEntity
  8
SLD-0
 62
     0
100
AcDbLine
 10
2.0
 20
0.0
 30
0.0
 11
3.5
 21
0.0
 31
0.0
  0
ENDBLK
  5
251
330
24F
100
AcDbEntity
  8
0
100
AcDbBlockEnd
  0
BLOCK
  5
25C
330
25B
100
AcDbEntity
  8
0
100
AcDbBlockBegin
  2
SW_CENTERMARKSYMBOL_15
 70
     0
 10
0.0
 20
0.0
 30
0.0
  3
SW_CENTERMARKSYMBOL_15
  1

  0
LINE
  5
25E
330
25B
100
AcDbEntity
  8
SLD-0
 62
     0
100
AcDbLine
 10
0.0
 20
0.0
 30
0.0
 11
0.0
 21
1.0
 31
0.0
  0
LINE
  5
25F
330
25B
100
AcDbEntity
  8
SLD-0
 62
     0
100
AcDbLine
 10
0.0
 20
0.0
 30
0.0
 11
-1.0
 21
0.0
 31
0.0
  0
LINE
  5
260
330
25B
100
AcDbEntity
  8
SLD-0
 62
     0
100
AcDbLine
 10
0.0
 20
0.0
 30
0.0
 11
0.0
 21
-1.0
 31
0.0
  0
LINE
  5
261
330
25B
100
AcDbEntity
  8
SLD-0
 62
     0
100
AcDbLine
 10
0.0
 20
0.0
 30
0.0
 11
1.0
 21
0.0
 31
0.0
  0
LINE
  5
262
330
25B
100
AcDbEntity
  8
SLD-0
 62
     0
100
AcDbLine
 10
0.0
 20
2.0
 30
0.0
 11
0.0
 21
3.5
 31
0.0
  0
LINE
  5
263
330
25B
100
AcDbEntity
  8
SLD-0
 62
     0
100
AcDbLine
 10
-2.0
 20
0.0
 30
0.0
 11
-3.5
 21
0.0
 31
0.0
  0
LINE
  5
264
330
25B
100
AcDbEntity
  8
SLD-0
 62
     0
100
AcDbLine
 10
0.0
 20
-2.0
 30
0.0
 11
0.0
 21
-3.5
 31
0.0
  0
LINE
  5
265
330
25B
100
AcDbEntity
  8
SLD-0
 62
     0
100
AcDbLine
 10
2.0
 20
0.0
 30
0.0
 11
3.5
 21
0.0
 31
0.0
  0
ENDBLK
  5
25D
330
25B
100
AcDbEntity
  8
0
100
AcDbBlockEnd
  0
BLOCK
  5
268
330
267
100
AcDbEntity
  8
0
100
AcDbBlockBegin
  2
SW_CENTERMARKSYMBOL_16
 70
     0
 10
0.0
 20
0.0
 30
0.0
  3
SW_CENTERMARKSYMBOL_16
  1

  0
LINE
  5
26A
330
267
100
AcDbEntity
  8
SLD-0
 62
     0
100
AcDbLine
 10
0.0
 20
0.0
 30
0.0
 11
0.0
 21
1.0
 31
0.0
  0
LINE
  5
26B
330
267
100
AcDbEntity
  8
SLD-0
 62
     0
100
AcDbLine
 10
0.0
 20
0.0
 30
0.0
 11
-1.0
 21
0.0
 31
0.0
  0
LINE
  5
26C
330
267
100
AcDbEntity
  8
SLD-0
 62
     0
100
AcDbLine
 10
0.0
 20
0.0
 30
0.0
 11
0.0
 21
-1.0
 31
0.0
  0
LINE
  5
26D
330
267
100
AcDbEntity
  8
SLD-0
 62
     0
100
AcDbLine
 10
0.0
 20
0.0
 30
0.0
 11
1.0
 21
0.0
 31
0.0
  0
LINE
  5
26E
330
267
100
AcDbEntity
  8
SLD-0
 62
     0
100
AcDbLine
 10
0.0
 20
2.0
 30
0.0
 11
0.0
 21
6.5
 31
0.0
  0
LINE
  5
26F
330
267
100
AcDbEntity
  8
SLD-0
 62
     0
100
AcDbLine
 10
-2.0
 20
0.0
 30
0.0
 11
-6.5
 21
0.0
 31
0.0
  0
LINE
  5
270
330
267
100
AcDbEntity
  8
SLD-0
 62
     0
100
AcDbLine
 10
0.0
 20
-2.0
 30
0.0
 11
0.0
 21
-6.5
 31
0.0
  0
LINE
  5
271
330
267
100
AcDbEntity
  8
SLD-0
 62
     0
100
AcDbLine
 10
2.0
 20
0.0
 30
0.0
 11
6.5
 21
0.0
 31
0.0
  0
ENDBLK
  5
269
330
267
100
AcDbEntity
  8
0
100
AcDbBlockEnd
  0
BLOCK
  5
2C5
330
2C4
100
AcDbEntity
  8
0
100
AcDbBlockBegin
  2
_D_13
 70
     0
 10
0.0
 20
0.0
 30
0.0
  3
_D_13
  1

  0
SOLID
  5
2C7
330
2C4
100
AcDbEntity
  8
SLD-0
 62
     7
100
AcDbTrace
 10
136.7962291326
 20
46.9151351986
 30
0.0
 11
136.5462291326
 21
44.9151351986
 31
0.0
 12
137.0462291326
 22
44.9151351986
 32
0.0
 13
137.0462291326
 23
44.9151351986
 33
0.0
  0
SOLID
  5
2C8
330
2C4
100
AcDbEntity
  8
SLD-0
 62
     7
100
AcDbTrace
 10
136.7962291326
 20
38.9151351986
 30
0.0
 11
137.0462291326
 21
40.9151351986
 31
0.0
 12
136.5462291326
 22
40.9151351986
 32
0.0
 13
136.5462291326
 23
40.9151351986
 33
0.0
  0
LINE
  5
2C9
330
2C4
100
AcDbEntity
  8
SLD-0
 62
     7
100
AcDbLine
 10
127.4241048539
 20
46.9151351986
 30
0.0
 11
137.7962291326
 21
46.9151351986
 31
0.0
  0
LINE
  5
2CA
330
2C4
100
AcDbEntity
  8
SLD-0
 62
     7
100
AcDbLine
 10
127.4241048539
 20
38.9151351986
 30
0.0
 11
137.7962291326
 21
38.9151351986
 31
0.0
  0
LINE
  5
2CB
330
2C4
100
AcDbEntity
  8
SLD-0
 62
     7
100
AcDbLine
 10
136.7962291326
 20
46.9151351986
 30
0.0
 11
136.7962291326
 21
38.9151351986
 31
0.0
  0
MTEXT
  5
2CC
330
2C4
100
AcDbEntity
  8
SLD-0
 62
     7
100
AcDbMText
 10
133.5735599578
 20
41.9602740862
 30
0.0
 40
2.5
 41
0.0
 71
     1
 72
     1
  1
8
  7
SLDTEXTSTYLE0
 11
-7.044195017643634E-15
 21
1.0
 31
0.0
 73
     1
 44
1.0
  0
ENDBLK
  5
2C6
330
2C4
100
AcDbEntity
  8
0
100
AcDbBlockEnd
  0
ENDSEC
  0
SECTION
  2
ENTITIES
  0
HATCH
  5
75
330
1F
100
AcDbEntity
  8
DIM
 62
     7
100
AcDbHatch
 10
0.0
 20
0.0
 30
0.0
210
0.0
220
0.0
230
1.0
  2
SOLID
 70
     1
 71
     0
 91
        1
 92
        0
 93
       10
 72
     2
 10
192.1959864308272
 20
35.94109362601509
 40
3.045751395731247
 50
249.211220914341
 51
308.9221353953366
 73
     1
 72
     1
 10
194.1095213920618
 20
33.57149755986121
 11
195.0743410532789
 21
32.72421077621886
 72
     1
 10
195.0743410532789
 20
32.72421077621886
 11
191.8642010801231
 21
29.60717106345646
 72
     1
 10
191.8642010801231
 20
29.60717106345646
 11
190.9234006246292
 21
30.41716813356646
 72
     1
 10
190.9234006246292
 20
30.41716813356646
 11
191.5544525450443
 21
31.03306852403749
 72
     1
 10
191.5544525450443
 20
31.03306852403749
 11
187.5452502348487
 21
34.51767236431217
 72
     2
 10
188.5601916643894
 20
35.66523274007268
 40
1.531992467805808
 50
131.4906380929588
 51
229.7089352075141
 73
     0
 72
     1
 10
187.5694968168739
 20
36.83378938847272
 11
188.8761250717556
 21
38.09537646498024
 72
     1
 10
188.8761250717556
 20
38.09537646498024
 11
189.891318919158
 21
37.19984456416245
 72
     2
 10
191.8645892225307
 20
35.55245187676766
 40
2.570544369711283
 50
140.1430462780655
 51
253.0452525074004
 73
     1
 97
        0
 75
     0
 76
     1
 98
        1
 10
0.0
 20
0.0
  0
HATCH
  5
76
330
1F
100
AcDbEntity
  8
DIM
 62
     1
100
AcDbHatch
 10
0.0
 20
0.0
 30
0.0
210
0.0
220
0.0
230
1.0
  2
SOLID
 70
     1
 71
     0
 91
        1
 92
        0
 93
       10
 72
     2
 10
192.3291518697911
 20
35.18689398731305
 40
3.18163670452787
 50
234.1674444878508
 51
314.440707458399
 73
     0
 72
     2
 10
192.6468081605156
 20
35.72771579279122
 40
2.57756748834625
 50
317.818499299578
 51
398.0564711573081
 73
     0
 72
     1
 10
194.6763940035631
 20
34.13880564344958
 11
195.6618428965459
 21
33.28010870356009
 72
     1
 10
195.6618428965459
 20
33.28010870356009
 11
196.9035242113396
 21
34.4845416459673
 72
     2
 10
196.0101318856775
 20
35.71248837778824
 40
1.518552937418266
 50
306.0377529468126
 51
403.4396461533867
 73
     1
 72
     1
 10
197.1127517503498
 20
36.75663034982637
 11
192.9859958920065
 21
40.34580661846033
 72
     1
 10
192.9859958920065
 20
40.34580661846033
 11
193.6102471939338
 21
40.95486504929765
 72
     1
 10
193.6102471939338
 20
40.95486504929765
 11
192.6797406837497
 21
41.78505726914219
 72
     1
 10
192.6797406837497
 20
41.78505726914219
 11
189.4441552353399
 21
38.65813702252808
 72
     1
 10
189.4441552353399
 20
38.65813702252808
 11
190.4665631126884
 21
37.76634649540728
 97
        0
 75
     0
 76
     1
 98
        1
 10
0.0
 20
0.0
  0
LINE
  5
77
330
1F
100
AcDbEntity
  8
0
  6
Continuous
 62
     7
370
     0
100
AcDbLine
 10
167.8593775185
 20
17.7745192513
 30
0.0
 11
168.8593775185
 21
17.7745192513
 31
0.0
  0
LINE
  5
78
330
1F
100
AcDbEntity
  8
0
  6
Continuous
 62
     7
370
     0
100
AcDbLine
 10
164.8593775185
 20
17.7745192513
 30
0.0
 11
167.3593775185
 21
17.7745192513
 31
0.0
  0
LINE
  5
79
330
1F
100
AcDbEntity
  8
0
  6
Continuous
 62
     7
370
     0
100
AcDbLine
 10
181.3593775185
 20
15.2745192513
 30
0.0
 11
181.3593775185
 21
20.2745192513
 31
0.0
  0
LINE
  5
7A
330
1F
100
AcDbEntity
  8
0
  6
Continuous
 62
     7
370
     0
100
AcDbLine
 10
174.3593775185
 20
16.2745192513
 30
0.0
 11
181.3593775185
 21
15.2745192513
 31
0.0
  0
LINE
  5
7B
330
1F
100
AcDbEntity
  8
0
  6
Continuous
 62
     7
370
     0
100
AcDbLine
 10
168.3593775185
 20
16.7745192513
 30
0.0
 11
168.3593775185
 21
14.2745192513
 31
0.0
  0
LINE
  5
7C
330
1F
100
AcDbEntity
  8
0
  6
Continuous
 62
     7
370
     0
100
AcDbLine
 10
181.3593775185
 20
20.2745192513
 30
0.0
 11
174.3593775185
 21
19.2745192513
 31
0.0
  0
LINE
  5
7D
330
1F
100
AcDbEntity
  8
0
  6
Continuous
 62
     7
370
     0
100
AcDbLine
 10
173.3593775185
 20
17.7745192513
 30
0.0
 11
182.3593775185
 21
17.7745192513
 31
0.0
  0
LINE
  5
7E
330
1F
100
AcDbEntity
  8
0
  6
Continuous
 62
     7
370
     0
100
AcDbLine
 10
168.3593775185
 20
18.2745192513
 30
0.0
 11
168.3593775185
 21
17.2745192513
 31
0.0
  0
LINE
  5
7F
330
1F
100
AcDbEntity
  8
0
  6
Continuous
 62
     7
370
     0
100
AcDbLine
 10
169.3593775185
 20
17.7745192513
 30
0.0
 11
171.8593775185
 21
17.7745192513
 31
0.0
  0
LINE
  5
80
330
1F
100
AcDbEntity
  8
0
  6
Continuous
 62
     7
370
     0
100
AcDbLine
 10
168.3593775185
 20
21.2745192513
 30
0.0
 11
168.3593775185
 21
18.7745192513
 31
0.0
  0
LINE
  5
81
330
1F
100
AcDbEntity
  8
0
  6
Continuous
 62
     7
370
     0
100
AcDbLine
 10
174.3593775185
 20
19.2745192513
 30
0.0
 11
174.3593775185
 21
16.2745192513
 31
0.0
  0
LINE
  5
82
330
1F
100
AcDbEntity
  8
0
370
     0
100
AcDbLine
 10
195.0743410533
 20
32.7242107762
 30
0.0
 11
191.8642010801
 21
29.6071710635
 31
0.0
  0
LINE
  5
83
330
1F
100
AcDbEntity
  8
0
370
     0
100
AcDbLine
 10
191.8642010801
 20
29.6071710635
 30
0.0
 11
190.9234006246
 21
30.4171681336
 31
0.0
  0
LINE
  5
84
330
1F
100
AcDbEntity
  8
0
370
     0
100
AcDbLine
 10
190.9234006246
 20
30.4171681336
 30
0.0
 11
191.554452545
 21
31.033068524
 31
0.0
  0
LINE
  5
85
330
1F
100
AcDbEntity
  8
0
370
     0
100
AcDbLine
 10
187.5452502348
 20
34.5176723643
 30
0.0
 11
191.554452545
 21
31.033068524
 31
0.0
  0
LINE
  5
86
330
1F
100
AcDbEntity
  8
0
370
     0
100
AcDbLine
 10
188.8761250718
 20
38.095376465
 30
0.0
 11
187.5694968169
 21
36.8337893885
 31
0.0
  0
LINE
  5
87
330
1F
100
AcDbEntity
  8
0
370
     0
100
AcDbLine
 10
188.8761250718
 20
38.095376465
 30
0.0
 11
189.8913189192
 21
37.1998445642
 31
0.0
  0
LINE
  5
88
330
1F
100
AcDbEntity
  8
0
370
     0
100
AcDbLine
 10
194.1095213921
 20
33.5714975599
 30
0.0
 11
195.0743410533
 21
32.7242107762
 31
0.0
  0
LINE
  5
89
330
1F
100
AcDbEntity
  8
0
 62
     1
370
     0
100
AcDbLine
 10
190.4665631127
 20
37.7663464954
 30
0.0
 11
189.4441552353
 21
38.6581370225
 31
0.0
  0
LINE
  5
8A
330
1F
100
AcDbEntity
  8
0
 62
     1
370
     0
100
AcDbLine
 10
189.4441552353
 20
38.6581370225
 30
0.0
 11
192.6797406837
 21
41.7850572691
 31
0.0
  0
LINE
  5
8B
330
1F
100
AcDbEntity
  8
0
 62
     1
370
     0
100
AcDbLine
 10
192.6797406837
 20
41.7850572691
 30
0.0
 11
193.6102471939
 21
40.9548650493
 31
0.0
  0
LINE
  5
8C
330
1F
100
AcDbEntity
  8
0
 62
     1
370
     0
100
AcDbLine
 10
193.6102471939
 20
40.9548650493
 30
0.0
 11
192.985995892
 21
40.3458066185
 31
0.0
  0
LINE
  5
8D
330
1F
100
AcDbEntity
  8
0
 62
     1
370
     0
100
AcDbLine
 10
192.985995892
 20
40.3458066185
 30
0.0
 11
197.1127517503
 21
36.7566303498
 31
0.0
  0
LINE
  5
8E
330
1F
100
AcDbEntity
  8
0
 62
     1
370
     0
100
AcDbLine
 10
194.6763940036
 20
34.1388056434
 30
0.0
 11
195.6618428965
 21
33.2801087036
 31
0.0
  0
LINE
  5
8F
330
1F
100
AcDbEntity
  8
0
 62
     1
370
     0
100
AcDbLine
 10
195.6618428965
 20
33.2801087036
 30
0.0
 11
196.9035242113
 21
34.484541646
 31
0.0
  0
LINE
  5
90
330
1F
100
AcDbEntity
  8
0
  6
Continuous
 62
     7
370
     0
100
AcDbLine
 10
185.6907965209
 20
13.1152464079
 30
0.0
 11
285.6907965209
 21
13.1152464079
 31
0.0
  0
LINE
  5
91
330
1F
100
AcDbEntity
  8
0
  6
Continuous
 62
     7
370
     0
100
AcDbLine
 10
185.6907965209
 20
18.1152464079
 30
0.0
 11
235.6907965209
 21
18.1152464079
 31
0.0
  0
LINE
  5
92
330
1F
100
AcDbEntity
  8
0
  6
Continuous
 62
     7
370
     0
100
AcDbLine
 10
185.6907965209
 20
23.1152464079
 30
0.0
 11
235.6907965209
 21
23.1152464079
 31
0.0
  0
LINE
  5
93
330
1F
100
AcDbEntity
  8
0
  6
Continuous
 62
     7
370
     0
100
AcDbLine
 10
185.6907965209
 20
28.1152464079
 30
0.0
 11
285.6907965209
 21
28.1152464079
 31
0.0
  0
LINE
  5
94
330
1F
100
AcDbEntity
  8
0
  6
Continuous
 62
     7
370
     0
100
AcDbLine
 10
235.6907965209
 20
33.1152464079
 30
0.0
 11
285.6907965209
 21
33.1152464079
 31
0.0
  0
LINE
  5
95
330
1F
100
AcDbEntity
  8
0
  6
Continuous
 62
     7
370
    15
100
AcDbLine
 10
235.6907965209
 20
18.1152464079
 30
0.0
 11
285.6907965209
 21
18.1152464079
 31
0.0
  0
LINE
  5
96
330
1F
100
AcDbEntity
  8
0
  6
Continuous
 62
     7
370
     0
100
AcDbLine
 10
185.6907965209
 20
43.1152464079
 30
0.0
 11
285.6907965209
 21
43.1152464079
 31
0.0
  0
LINE
  5
97
330
1F
100
AcDbEntity
  8
0
  6
Continuous
 62
     7
370
     0
100
AcDbLine
 10
251.237217675
 20
8.1152464079
 30
0.0
 11
251.237217675
 21
18.1152464079
 31
0.0
  0
LINE
  5
98
330
1F
100
AcDbEntity
  8
0
  6
Continuous
 62
     7
370
     0
100
AcDbLine
 10
235.6907965209
 20
8.1152464079
 30
0.0
 11
235.6907965209
 21
43.1152464079
 31
0.0
  0
LINE
  5
99
330
1F
100
AcDbEntity
  8
0
  6
Continuous
 62
     7
370
     0
100
AcDbLine
 10
251.237217675
 20
28.1152464079
 30
0.0
 11
251.237217675
 21
33.1152464079
 31
0.0
  0
LINE
  5
9A
330
1F
100
AcDbEntity
  8
0
  6
Continuous
 62
     7
370
     0
100
AcDbLine
 10
214.4164086353
 20
8.1152464079
 30
0.0
 11
214.4164086353
 21
28.1152464079
 31
0.0
  0
LINE
  5
9B
330
1F
100
AcDbEntity
  8
0
  6
Continuous
 62
     7
370
     0
100
AcDbLine
 10
199.7785887506
 20
8.1152464079
 30
0.0
 11
199.7785887506
 21
28.1152464079
 31
0.0
  0
LINE
  5
9C
330
1F
100
AcDbEntity
  8
0
  6
Continuous
 62
     7
370
     0
100
AcDbLine
 10
185.6907965209
 20
8.1152464079
 30
0.0
 11
185.6907965209
 21
43.1152464079
 31
0.0
  0
LINE
  5
9D
330
1F
100
AcDbEntity
  8
0
  6
Continuous
 62
     7
370
    15
100
AcDbLine
 10
8.6907965209
 20
104.7436369915
 30
0.0
 11
14.6907965209
 21
104.7436369915
 31
0.0
  0
LINE
  5
9E
330
1F
100
AcDbEntity
  8
0
  6
Continuous
 62
     7
370
    15
100
AcDbLine
 10
285.6907965209
 20
104.7436369915
 30
0.0
 11
279.6907965209
 21
104.7436369915
 31
0.0
  0
LINE
  5
9F
330
1F
100
AcDbEntity
  8
0
  6
Continuous
 62
     7
370
    15
100
AcDbLine
 10
147.1907965209
 20
8.1152464079
 30
0.0
 11
147.1907965209
 21
14.1152464079
 31
0.0
  0
LINE
  5
A0
330
1F
100
AcDbEntity
  8
0
  6
Continuous
 62
     7
370
    15
100
AcDbLine
 10
147.1907965209
 20
201.3720275751
 30
0.0
 11
147.1907965209
 21
195.3720275751
 31
0.0
  0
LINE
  5
A1
330
1F
100
AcDbEntity
  8
0
  6
Continuous
 62
     7
370
    15
100
AcDbLine
 10
43.3207965209
 20
201.3720275751
 30
0.0
 11
43.3207965209
 21
202.8720275751
 31
0.0
  0
LINE
  5
A2
330
1F
100
AcDbEntity
  8
0
  6
Continuous
 62
     7
370
    15
100
AcDbLine
 10
77.9507965209
 20
201.3720275751
 30
0.0
 11
77.9507965209
 21
202.8720275751
 31
0.0
  0
LINE
  5
A3
330
1F
100
AcDbEntity
  8
0
  6
Continuous
 62
     7
370
    15
100
AcDbLine
 10
112.5807965209
 20
201.3720275751
 30
0.0
 11
112.5807965209
 21
202.8720275751
 31
0.0
  0
LINE
  5
A4
330
1F
100
AcDbEntity
  8
0
  6
Continuous
 62
     7
370
    15
100
AcDbLine
 10
147.2107965209
 20
201.3720275751
 30
0.0
 11
147.2107965209
 21
202.8720275751
 31
0.0
  0
LINE
  5
A5
330
1F
100
AcDbEntity
  8
0
  6
Continuous
 62
     7
370
    15
100
AcDbLine
 10
181.8407965209
 20
201.3720275751
 30
0.0
 11
181.8407965209
 21
202.8720275751
 31
0.0
  0
LINE
  5
A6
330
1F
100
AcDbEntity
  8
0
  6
Continuous
 62
     7
370
    15
100
AcDbLine
 10
216.4707965209
 20
201.3720275751
 30
0.0
 11
216.4707965209
 21
202.8720275751
 31
0.0
  0
LINE
  5
A7
330
1F
100
AcDbEntity
  8
0
  6
Continuous
 62
     7
370
    15
100
AcDbLine
 10
251.1007965209
 20
201.3720275751
 30
0.0
 11
251.1007965209
 21
202.8720275751
 31
0.0
  0
LINE
  5
A8
330
1F
100
AcDbEntity
  8
0
  6
Continuous
 62
     7
370
    15
100
AcDbLine
 10
43.3157965209
 20
8.1152464079
 30
0.0
 11
43.3157965209
 21
6.6152464079
 31
0.0
  0
LINE
  5
A9
330
1F
100
AcDbEntity
  8
0
  6
Continuous
 62
     7
370
    15
100
AcDbLine
 10
77.9407965209
 20
8.1152464079
 30
0.0
 11
77.9407965209
 21
6.6152464079
 31
0.0
  0
LINE
  5
AA
330
1F
100
AcDbEntity
  8
0
  6
Continuous
 62
     7
370
    15
100
AcDbLine
 10
112.5657965209
 20
8.1152464079
 30
0.0
 11
112.5657965209
 21
6.6152464079
 31
0.0
  0
LINE
  5
AB
330
1F
100
AcDbEntity
  8
0
  6
Continuous
 62
     7
370
    15
100
AcDbLine
 10
147.1907965209
 20
8.1152464079
 30
0.0
 11
147.1907965209
 21
6.6152464079
 31
0.0
  0
LINE
  5
AC
330
1F
100
AcDbEntity
  8
0
  6
Continuous
 62
     7
370
    15
100
AcDbLine
 10
181.8157965209
 20
8.1152464079
 30
0.0
 11
181.8157965209
 21
6.6152464079
 31
0.0
  0
LINE
  5
AD
330
1F
100
AcDbEntity
  8
0
  6
Continuous
 62
     7
370
    15
100
AcDbLine
 10
216.4407965209
 20
8.1152464079
 30
0.0
 11
216.4407965209
 21
6.6152464079
 31
0.0
  0
LINE
  5
AE
330
1F
100
AcDbEntity
  8
0
  6
Continuous
 62
     7
370
     0
100
AcDbLine
 10
285.6907965209
 20
201.3720275751
 30
0.0
 11
8.6907965209
 21
201.3720275751
 31
0.0
  0
LINE
  5
AF
330
1F
100
AcDbEntity
  8
0
  6
Continuous
 62
     7
370
     0
100
AcDbLine
 10
285.6907965209
 20
8.1152464079
 30
0.0
 11
285.6907965209
 21
201.3720275751
 31
0.0
  0
LINE
  5
B0
330
1F
100
AcDbEntity
  8
0
  6
Continuous
 62
     7
370
     0
100
AcDbLine
 10
8.6907965209
 20
201.3720275751
 30
0.0
 11
8.6907965209
 21
8.1152464079
 31
0.0
  0
LINE
  5
B1
330
1F
100
AcDbEntity
  8
0
  6
Continuous
 62
     7
370
     0
100
AcDbLine
 10
8.6907965209
 20
8.1152464079
 30
0.0
 11
285.6907965209
 21
8.1152464079
 31
0.0
  0
LINE
  5
B2
330
1F
100
AcDbEntity
  8
0
  6
Continuous
 62
     7
370
    15
100
AcDbLine
 10
251.0657965209
 20
8.1152464079
 30
0.0
 11
251.0657965209
 21
6.6152464079
 31
0.0
  0
LINE
  5
B3
330
1F
100
AcDbEntity
  8
0
  6
Continuous
 62
     7
370
    15
100
AcDbLine
 10
8.6907965209
 20
40.3252464079
 30
0.0
 11
7.1907965209
 21
40.3252464079
 31
0.0
  0
LINE
  5
B4
330
1F
100
AcDbEntity
  8
0
  6
Continuous
 62
     7
370
    15
100
AcDbLine
 10
8.6907965209
 20
72.5352464079
 30
0.0
 11
7.1907965209
 21
72.5352464079
 31
0.0
  0
LINE
  5
B5
330
1F
100
AcDbEntity
  8
0
  6
Continuous
 62
     7
370
    15
100
AcDbLine
 10
8.6907965209
 20
104.7452464079
 30
0.0
 11
7.1907965209
 21
104.7452464079
 31
0.0
  0
LINE
  5
B6
330
1F
100
AcDbEntity
  8
0
  6
Continuous
 62
     7
370
    15
100
AcDbLine
 10
8.6907965209
 20
136.9552464079
 30
0.0
 11
7.1907965209
 21
136.9552464079
 31
0.0
  0
LINE
  5
B7
330
1F
100
AcDbEntity
  8
0
  6
Continuous
 62
     7
370
    15
100
AcDbLine
 10
8.6907965209
 20
169.1652464079
 30
0.0
 11
7.1907965209
 21
169.1652464079
 31
0.0
  0
LINE
  5
B8
330
1F
100
AcDbEntity
  8
0
  6
Continuous
 62
     7
370
    15
100
AcDbLine
 10
285.6907965209
 20
40.3252464079
 30
0.0
 11
287.1907965209
 21
40.3252464079
 31
0.0
  0
LINE
  5
B9
330
1F
100
AcDbEntity
  8
0
  6
Continuous
 62
     7
370
    15
100
AcDbLine
 10
285.6907965209
 20
72.5352464079
 30
0.0
 11
287.1907965209
 21
72.5352464079
 31
0.0
  0
LINE
  5
BA
330
1F
100
AcDbEntity
  8
0
  6
Continuous
 62
     7
370
    15
100
AcDbLine
 10
285.6907965209
 20
104.7452464079
 30
0.0
 11
287.1907965209
 21
104.7452464079
 31
0.0
  0
LINE
  5
BB
330
1F
100
AcDbEntity
  8
0
  6
Continuous
 62
     7
370
    15
100
AcDbLine
 10
285.6907965209
 20
136.9552464079
 30
0.0
 11
287.1907965209
 21
136.9552464079
 31
0.0
  0
LINE
  5
BC
330
1F
100
AcDbEntity
  8
0
  6
Continuous
 62
     7
370
    15
100
AcDbLine
 10
285.6907965209
 20
169.1652464079
 30
0.0
 11
287.1907965209
 21
169.1652464079
 31
0.0
  0
CIRCLE
  5
BD
330
1F
100
AcDbEntity
  8
0
  6
Continuous
 62
     7
370
     0
100
AcDbCircle
 10
168.3593775185
 20
17.7745192513
 30
0.0
 40
1.5
  0
CIRCLE
  5
BE
330
1F
100
AcDbEntity
  8
0
  6
Continuous
 62
     7
370
     0
100
AcDbCircle
 10
168.3593775185
 20
17.7745192513
 30
0.0
 40
2.5
  0
ARC
  5
BF
330
1F
100
AcDbEntity
  8
0
370
     0
100
AcDbCircle
 10
188.5601916644
 20
35.6652327401
 30
0.0
 40
1.531992467805807
100
AcDbArc
 50
130.2910647925
 51
228.509361907
  0
ARC
  5
C0
330
1F
100
AcDbEntity
  8
0
370
     0
100
AcDbCircle
 10
191.8645892225
 20
35.5524518768
 30
0.0
 40
2.570544369711287
100
AcDbArc
 50
140.1430462781
 51
253.0452525074
  0
ARC
  5
C1
330
1F
100
AcDbEntity
  8
0
370
     0
100
AcDbCircle
 10
192.1959864308
 20
35.941093626
 30
0.0
 40
3.045751395731247
100
AcDbArc
 50
249.2112209143
 51
308.9221353953
  0
ARC
  5
C2
330
1F
100
AcDbEntity
  8
0
 62
     1
370
     0
100
AcDbCircle
 10
196.0101318857
 20
35.7124883778
 30
0.0
 40
1.51855293741827
100
AcDbArc
 50
306.0377529468
 51
43.4396461534
  0
ARC
  5
C3
330
1F
100
AcDbEntity
  8
0
 62
     1
370
     0
100
AcDbCircle
 10
192.3291518698
 20
35.1868939873
 30
0.0
 40
3.18163670452787
100
AcDbArc
 50
45.5592925416
 51
125.8325555121
  0
ARC
  5
C4
330
1F
100
AcDbEntity
  8
0
 62
     1
370
     0
100
AcDbCircle
 10
192.6468081605
 20
35.7277157928
 30
0.0
 40
2.57756748834625
100
AcDbArc
 50
321.9435288427
 51
42.1815007004
  0
MTEXT
  5
C6
330
1F
100
AcDbEntity
  8
0
  6
Continuous
 62
     7
370
     0
100
AcDbMText
 10
165.5426850804
 20
13.2208440369
 30
0.0
 40
2.6458333333
 41
0.0
 71
     1
 72
     1
  1
UNIT:m/m
  7
SLDTEXTSTYLE0
 73
     1
 44
1.0
  0
INSERT
  5
CD
330
1F
100
AcDbEntity
  8
0
  6
Continuous
 62
     7
370
     0
100
AcDbBlockReference
  2
SW_NOTE_0
 10
12.2315076053
 20
193.8904304251
 30
0.0
  0
MTEXT
  5
CF
330
1F
100
AcDbEntity
  8
0
  6
Continuous
 62
     7
370
     0
100
AcDbMText
 10
198.7251893935
 20
40.4406774139
 30
0.0
 40
2.38125
 41
0.0
 71
     1
 72
     1
  1
Unice E-O Services Inc.
  7
SLDTEXTSTYLE1
 73
     1
 44
1.0
  0
MTEXT
  5
D0
330
1F
100
AcDbEntity
  8
0
  6
Continuous
 62
     7
370
     0
100
AcDbMText
 10
219.1181900715
 20
21.5867148511
 30
0.0
 40
1.8520833333
 41
0.0
 71
     1
 72
     1
  1
2016/03/08
  7
SLDTEXTSTYLE0
 73
     1
 44
1.0
  0
MTEXT
  5
D1
330
1F
100
AcDbEntity
  8
0
  6
Continuous
 62
     7
370
     0
100
AcDbMText
 10
252.6088982507
 20
16.87117774
 30
0.0
 40
2.5
 41
0.0
 71
     1
 72
     1
  1
1:1
  7
SLDTEXTSTYLE0
 73
     1
 44
1.0
  0
MTEXT
  5
D2
330
1F
100
AcDbEntity
  8
0
  6
Continuous
 62
     7
370
     0
100
AcDbMText
 10
252.3075599985
 20
32.1519195438
 30
0.0
 40
2.5
 41
0.0
 71
     1
 72
     1
  1
06UAP-2M
  7
SLDTEXTSTYLE0
 73
     1
 44
1.0
  0
MTEXT
  5
D3
330
1F
100
AcDbEntity
  8
0
  6
Continuous
 62
     7
370
     0
100
AcDbMText
 10
252.3075599985
 20
38.1082117879
 30
0.0
 40
2.5
 41
0.0
 71
     1
 72
     1
  1
06UAP-2M
  7
SLDTEXTSTYLE0
 73
     1
 44
1.0
  0
MTEXT
  5
D4
330
1F
100
AcDbEntity
  8
0
  6
Continuous
 62
     7
370
     0
100
AcDbMText
 10
236.3921866786
 20
16.5064795728
 30
0.0
 40
2.1166666667
 41
0.0
 71
     1
 72
     1
  1
SCALE:
  7
SLDTEXTSTYLE0
 73
     1
 44
1.0
  0
MTEXT
  5
D5
330
1F
100
AcDbEntity
  8
0
  6
Continuous
 62
     7
370
     0
100
AcDbMText
 10
186.3336086789
 20
21.5867148511
 30
0.0
 40
1.8520833333
 41
0.0
 71
     1
 72
     1
  1
DRAWN
  7
SLDTEXTSTYLE0
 73
     1
 44
1.0
  0
MTEXT
  5
D6
330
1F
100
AcDbEntity
  8
0
  6
Continuous
 62
     7
370
     0
100
AcDbMText
 10
203.2228367937
 20
26.683208308
 30
0.0
 40
1.8520833333
 41
0.0
 71
     1
 72
     1
  1
NAME
  7
SLDTEXTSTYLE0
 73
     1
 44
1.0
  0
MTEXT
  5
D7
330
1F
100
AcDbEntity
  8
0
  6
Continuous
 62
     7
370
     0
100
AcDbMText
 10
220.8710155758
 20
26.683208308
 30
0.0
 40
1.8520833333
 41
0.0
 71
     1
 72
     1
  1
DATE
  7
SLDTEXTSTYLE0
 73
     1
 44
1.0
  0
MTEXT
  5
D8
330
1F
100
AcDbEntity
  8
0
  6
Continuous
 62
     7
370
     0
100
AcDbMText
 10
236.2756316645
 20
31.7872213766
 30
0.0
 40
2.1166666667
 41
0.0
 71
     1
 72
     1
  1
DWG. NO.
  7
SLDTEXTSTYLE0
 73
     1
 44
1.0
  0
MTEXT
  5
D9
330
1F
100
AcDbEntity
  8
0
  6
Continuous
 62
     7
370
     0
100
AcDbMText
 10
236.3629907088
 20
41.8840658243
 30
0.0
 40
2.1166666667
 41
0.0
 71
     1
 72
     1
  1
TITLE:
  7
SLDTEXTSTYLE0
 73
     1
 44
1.0
  0
MTEXT
  5
DA
330
1F
100
AcDbEntity
  8
0
  6
Continuous
 62
     7
370
     0
100
AcDbMText
 10
203.0314209802
 20
16.2403789724
 30
0.0
 40
1.8520833333
 41
0.0
 71
     1
 72
     1
  1
Johnny
  7
SLDTEXTSTYLE0
 73
     1
 44
1.0
  0
MTEXT
  5
DB
330
1F
100
AcDbEntity
  8
0
  6
Continuous
 62
     7
370
     0
100
AcDbMText
 10
186.3336086789
 20
16.2403789724
 30
0.0
 40
1.8520833333
 41
0.0
 71
     1
 72
     1
  1
ENG APPR.
  7
SLDTEXTSTYLE0
 73
     1
 44
1.0
  0
MTEXT
  5
DC
330
1F
100
AcDbEntity
  8
0
  6
Continuous
 62
     7
370
     0
100
AcDbMText
 10
236.3921866786
 20
11.6853389288
 30
0.0
 40
2.1166666667
 41
0.0
 71
     1
 72
     1
  1
REV
  7
SLDTEXTSTYLE0
 73
     1
 44
1.0
  0
MTEXT
  5
DD
330
1F
100
AcDbEntity
  8
0
  6
Continuous
 62
     7
370
     0
100
AcDbMText
 10
236.3629907088
 20
26.9493089085
 30
0.0
 40
2.1166666667
 41
0.0
 71
     1
 72
     1
  1
MATERIAL:
  7
SLDTEXTSTYLE0
 73
     1
 44
1.0
  0
MTEXT
  5
DE
330
1F
100
AcDbEntity
  8
0
  6
Continuous
 62
     7
370
     0
100
AcDbMText
 10
252.6088982507
 20
22.2175136187
 30
0.0
 40
2.5
 41
0.0
 71
     1
 72
     1
  1
N/A
  7
SLDTEXTSTYLE0
 73
     1
 44
1.0
  0
MTEXT
  5
DF
330
1F
100
AcDbEntity
  8
0
  6
Continuous
 62
     7
370
     0
100
AcDbMText
 10
26.6029931533
 20
204.453351657
 30
0.0
 40
2.1166666667
 41
0.0
 71
     1
 72
     1
  1
1
  7
SLDTEXTSTYLE0
 73
     1
 44
1.0
  0
MTEXT
  5
E0
330
1F
100
AcDbEntity
  8
0
  6
Continuous
 62
     7
370
     0
100
AcDbMText
 10
60.7170995724
 20
204.453351657
 30
0.0
 40
2.1166666667
 41
0.0
 71
     1
 72
     1
  1
2
  7
SLDTEXTSTYLE0
 73
     1
 44
1.0
  0
MTEXT
  5
E1
330
1F
100
AcDbEntity
  8
0
  6
Continuous
 62
     7
370
     0
100
AcDbMText
 10
94.9009943906
 20
204.453351657
 30
0.0
 40
2.1166666667
 41
0.0
 71
     1
 72
     1
  1
3
  7
SLDTEXTSTYLE0
 73
     1
 44
1.0
  0
MTEXT
  5
E2
330
1F
100
AcDbEntity
  8
0
  6
Continuous
 62
     7
370
     0
100
AcDbMText
 10
129.2533362851
 20
204.2992584364
 30
0.0
 40
2.1166666667
 41
0.0
 71
     1
 72
     1
  1
4
  7
SLDTEXTSTYLE0
 73
     1
 44
1.0
  0
MTEXT
  5
E3
330
1F
100
AcDbEntity
  8
0
  6
Continuous
 62
     7
370
     0
100
AcDbMText
 10
163.702323464
 20
204.453351657
 30
0.0
 40
2.1166666667
 41
0.0
 71
     1
 72
     1
  1
5
  7
SLDTEXTSTYLE0
 73
     1
 44
1.0
  0
MTEXT
  5
E4
330
1F
100
AcDbEntity
  8
0
  6
Continuous
 62
     7
370
     0
100
AcDbMText
 10
198.6382170415
 20
204.453351657
 30
0.0
 40
2.1166666667
 41
0.0
 71
     1
 72
     1
  1
6
  7
SLDTEXTSTYLE0
 73
     1
 44
1.0
  0
MTEXT
  5
E5
330
1F
100
AcDbEntity
  8
0
  6
Continuous
 62
     7
370
     0
100
AcDbMText
 10
234.3630657407
 20
204.453351657
 30
0.0
 40
2.1166666667
 41
0.0
 71
     1
 72
     1
  1
7
  7
SLDTEXTSTYLE0
 73
     1
 44
1.0
  0
MTEXT
  5
E6
330
1F
100
AcDbEntity
  8
0
  6
Continuous
 62
     7
370
     0
100
AcDbMText
 10
266.2787820494
 20
204.453351657
 30
0.0
 40
2.1166666667
 41
0.0
 71
     1
 72
     1
  1
8
  7
SLDTEXTSTYLE0
 73
     1
 44
1.0
  0
MTEXT
  5
E7
330
1F
100
AcDbEntity
  8
0
  6
Continuous
 62
     7
370
     0
100
AcDbMText
 10
5.3568236555
 20
185.8113022879
 30
0.0
 40
2.1166666667
 41
0.0
 71
     1
 72
     1
  1
A
  7
SLDTEXTSTYLE0
 73
     1
 44
1.0
  0
MTEXT
  5
E8
330
1F
100
AcDbEntity
  8
0
  6
Continuous
 62
     7
370
     0
100
AcDbMText
 10
5.5910431831
 20
154.2993048238
 30
0.0
 40
2.1166666667
 41
0.0
 71
     1
 72
     1
  1
B
  7
SLDTEXTSTYLE0
 73
     1
 44
1.0
  0
MTEXT
  5
E9
330
1F
100
AcDbEntity
  8
0
  6
Continuous
 62
     7
370
     0
100
AcDbMText
 10
5.5910431831
 20
121.274351423
 30
0.0
 40
2.1166666667
 41
0.0
 71
     1
 72
     1
  1
C
  7
SLDTEXTSTYLE0
 73
     1
 44
1.0
  0
MTEXT
  5
EA
330
1F
100
AcDbEntity
  8
0
  6
Continuous
 62
     7
370
     0
100
AcDbMText
 10
5.5910431831
 20
88.7453220221
 30
0.0
 40
2.1166666667
 41
0.0
 71
     1
 72
     1
  1
D
  7
SLDTEXTSTYLE0
 73
     1
 44
1.0
  0
MTEXT
  5
EB
330
1F
100
AcDbEntity
  8
0
  6
Continuous
 62
     7
370
     0
100
AcDbMText
 10
5.5910431831
 20
57.5558849197
 30
0.0
 40
2.1166666667
 41
0.0
 71
     1
 72
     1
  1
E
  7
SLDTEXTSTYLE0
 73
     1
 44
1.0
  0
MTEXT
  5
EC
330
1F
100
AcDbEntity
  8
0
  6
Continuous
 62
     7
370
     0
100
AcDbMText
 10
5.5910431831
 20
25.5694212252
 30
0.0
 40
2.1166666667
 41
0.0
 71
     1
 72
     1
  1
F
  7
SLDTEXTSTYLE0
 73
     1
 44
1.0
  0
MTEXT
  5
ED
330
1F
100
AcDbEntity
  8
0
  6
Continuous
 62
     7
370
     0
100
AcDbMText
 10
266.1858616964
 20
6.6236223963
 30
0.0
 40
2.1166666667
 41
0.0
 71
     1
 72
     1
  1
8
  7
SLDTEXTSTYLE0
 73
     1
 44
1.0
  0
MTEXT
  5
EE
330
1F
100
AcDbEntity
  8
0
  6
Continuous
 62
     7
370
     0
100
AcDbMText
 10
234.2701453876
 20
6.6236223963
 30
0.0
 40
2.1166666667
 41
0.0
 71
     1
 72
     1
  1
7
  7
SLDTEXTSTYLE0
 73
     1
 44
1.0
  0
MTEXT
  5
EF
330
1F
100
AcDbEntity
  8
0
  6
Continuous
 62
     7
370
     0
100
AcDbMText
 10
198.5452966885
 20
6.6236223963
 30
0.0
 40
2.1166666667
 41
0.0
 71
     1
 72
     1
  1
6
  7
SLDTEXTSTYLE0
 73
     1
 44
1.0
  0
MTEXT
  5
F0
330
1F
100
AcDbEntity
  8
0
  6
Continuous
 62
     7
370
     0
100
AcDbMText
 10
163.6094031109
 20
6.6236223963
 30
0.0
 40
2.1166666667
 41
0.0
 71
     1
 72
     1
  1
5
  7
SLDTEXTSTYLE0
 73
     1
 44
1.0
  0
MTEXT
  5
F1
330
1F
100
AcDbEntity
  8
0
  6
Continuous
 62
     7
370
     0
100
AcDbMText
 10
129.1604159321
 20
6.4695291758
 30
0.0
 40
2.1166666667
 41
0.0
 71
     1
 72
     1
  1
4
  7
SLDTEXTSTYLE0
 73
     1
 44
1.0
  0
MTEXT
  5
F2
330
1F
100
AcDbEntity
  8
0
  6
Continuous
 62
     7
370
     0
100
AcDbMText
 10
94.8080740376
 20
6.6236223963
 30
0.0
 40
2.1166666667
 41
0.0
 71
     1
 72
     1
  1
3
  7
SLDTEXTSTYLE0
 73
     1
 44
1.0
  0
MTEXT
  5
F3
330
1F
100
AcDbEntity
  8
0
  6
Continuous
 62
     7
370
     0
100
AcDbMText
 10
60.6241792194
 20
6.6236223963
 30
0.0
 40
2.1166666667
 41
0.0
 71
     1
 72
     1
  1
2
  7
SLDTEXTSTYLE0
 73
     1
 44
1.0
  0
MTEXT
  5
F4
330
1F
100
AcDbEntity
  8
0
  6
Continuous
 62
     7
370
     0
100
AcDbMText
 10
26.5100728003
 20
6.6236223963
 30
0.0
 40
2.1166666667
 41
0.0
 71
     1
 72
     1
  1
1
  7
SLDTEXTSTYLE0
 73
     1
 44
1.0
  0
MTEXT
  5
F5
330
1F
100
AcDbEntity
  8
0
  6
Continuous
 62
     7
370
     0
100
AcDbMText
 10
287.1023846145
 20
186.6424909092
 30
0.0
 40
2.1166666667
 41
0.0
 71
     1
 72
     1
  1
A
  7
SLDTEXTSTYLE0
 73
     1
 44
1.0
  0
MTEXT
  5
F6
330
1F
100
AcDbEntity
  8
0
  6
Continuous
 62
     7
370
     0
100
AcDbMText
 10
287.3366041421
 20
155.1304934451
 30
0.0
 40
2.1166666667
 41
0.0
 71
     1
 72
     1
  1
B
  7
SLDTEXTSTYLE0
 73
     1
 44
1.0
  0
MTEXT
  5
F7
330
1F
100
AcDbEntity
  8
0
  6
Continuous
 62
     7
370
     0
100
AcDbMText
 10
287.3366041421
 20
122.1055400442
 30
0.0
 40
2.1166666667
 41
0.0
 71
     1
 72
     1
  1
C
  7
SLDTEXTSTYLE0
 73
     1
 44
1.0
  0
MTEXT
  5
F8
330
1F
100
AcDbEntity
  8
0
  6
Continuous
 62
     7
370
     0
100
AcDbMText
 10
287.3366041421
 20
89.5765106433
 30
0.0
 40
2.1166666667
 41
0.0
 71
     1
 72
     1
  1
D
  7
SLDTEXTSTYLE0
 73
     1
 44
1.0
  0
MTEXT
  5
F9
330
1F
100
AcDbEntity
  8
0
  6
Continuous
 62
     7
370
     0
100
AcDbMText
 10
287.3366041421
 20
58.3870735409
 30
0.0
 40
2.1166666667
 41
0.0
 71
     1
 72
     1
  1
E
  7
SLDTEXTSTYLE0
 73
     1
 44
1.0
  0
MTEXT
  5
FA
330
1F
100
AcDbEntity
  8
0
  6
Continuous
 62
     7
370
     0
100
AcDbMText
 10
287.3366041421
 20
26.4006098464
 30
0.0
 40
2.1166666667
 41
0.0
 71
     1
 72
     1
  1
F
  7
SLDTEXTSTYLE0
 73
     1
 44
1.0
  0
MTEXT
  5
FB
330
1F
100
AcDbEntity
  8
0
  6
Continuous
 62
     7
370
     0
100
AcDbMText
 10
203.1553128802
 20
21.5867148511
 30
0.0
 40
1.8520833333
 41
0.0
 71
     1
 72
     1
  1
Sammy
  7
SLDTEXTSTYLE0
 73
     1
 44
1.0
  0
MTEXT
  5
FC
330
1F
100
AcDbEntity
  8
0
  6
Continuous
 62
     7
370
     0
100
AcDbMText
 10
252.8482239645
 20
12.0500370959
 30
0.0
 40
2.5
 41
0.0
 71
     1
 72
     1
  1
0
  7
SLDTEXTSTYLE0
 73
     1
 44
1.0
  0
INSERT
  5
102
330
1F
100
AcDbEntity
  8
SLD-0
 62
     7
100
AcDbBlockReference
  2
SW_NOTE_1
 10
198.7251893935
 20
32.965327525
 30
0.0
  0
MTEXT
  5
103
330
1F
100
AcDbEntity
  8
SLD-0
 62
     7
100
AcDbMText
 10
219.1181900715
 20
16.2403789724
 30
0.0
 40
1.8520833333
 41
0.0
 71
     1
 72
     1
  1
2016/03/08
  7
SLDTEXTSTYLE0
 73
     1
 44
1.0
  0
ARC
  5
104
330
1F
100
AcDbEntity
  8
0
  6
Continuous
 62
     7
370
    30
100
AcDbCircle
 10
123.4241048539
 20
81.470429188
 30
0.0
 40
3.000000000000014
100
AcDbArc
 50
270.0
 51
0.0
  0
LINE
  5
105
330
1F
100
AcDbEntity
  8
0
  6
Continuous
 62
     7
370
    30
100
AcDbLine
 10
64.4241046751
 20
78.4704303801
 30
0.0
 11
123.4241050327
 21
78.4704303801
 31
0.0
  0
ARC
  5
106
330
1F
100
AcDbEntity
  8
0
  6
Continuous
 62
     7
370
    30
100
AcDbCircle
 10
64.4241048539
 20
81.470429188
 30
0.0
 40
3.0
100
AcDbArc
 50
180.0
 51
270.0
  0
LINE
  5
107
330
1F
100
AcDbEntity
  8
0
  6
Continuous
 62
     7
370
    30
100
AcDbLine
 10
61.424106046
 20
140.4704293668
 30
0.0
 11
61.424106046
 21
81.4704290092
 31
0.0
  0
ARC
  5
108
330
1F
100
AcDbEntity
  8
0
  6
Continuous
 62
     7
370
    30
100
AcDbCircle
 10
64.4241048539
 20
140.470429188
 30
0.0
 40
3.000000000000007
100
AcDbArc
 50
90.0
 51
180.0
  0
LINE
  5
109
330
1F
100
AcDbEntity
  8
0
  6
Continuous
 62
     7
370
    30
100
AcDbLine
 10
123.4241050327
 20
143.4704279959
 30
0.0
 11
64.4241046751
 21
143.4704279959
 31
0.0
  0
ARC
  5
10A
330
1F
100
AcDbEntity
  8
0
  6
Continuous
 62
     7
370
    30
100
AcDbCircle
 10
123.4241048539
 20
140.470429188
 30
0.0
 40
3.000000000000014
100
AcDbArc
 50
0.0
 51
90.0
  0
LINE
  5
10B
330
1F
100
AcDbEntity
  8
0
  6
Continuous
 62
     7
370
    30
100
AcDbLine
 10
126.4241036618
 20
81.4704290092
 30
0.0
 11
126.4241036618
 21
140.4704293668
 31
0.0
  0
CIRCLE
  5
10C
330
1F
100
AcDbEntity
  8
0
  6
Continuous
 62
     7
370
    30
100
AcDbCircle
 10
68.9241048539
 20
85.970429188
 30
0.0
 40
2.499999999999986
  0
CIRCLE
  5
10D
330
1F
100
AcDbEntity
  8
0
  6
Continuous
 62
     7
370
    30
100
AcDbCircle
 10
68.9241048539
 20
123.470429188
 30
0.0
 40
2.499999999999986
  0
CIRCLE
  5
10E
330
1F
100
AcDbEntity
  8
0
  6
Continuous
 62
     7
370
    30
100
AcDbCircle
 10
68.9241048539
 20
98.470429188
 30
0.0
 40
2.5
  0
CIRCLE
  5
10F
330
1F
100
AcDbEntity
  8
0
  6
Continuous
 62
     7
370
    30
100
AcDbCircle
 10
118.9241048539
 20
98.470429188
 30
0.0
 40
2.5
  0
CIRCLE
  5
110
330
1F
100
AcDbEntity
  8
0
  6
Continuous
 62
     7
370
    30
100
AcDbCircle
 10
68.9241048539
 20
110.970429188
 30
0.0
 40
5.499999999999986
  0
CIRCLE
  5
111
330
1F
100
AcDbEntity
  8
0
  6
Continuous
 62
     7
370
    30
100
AcDbCircle
 10
118.9241048539
 20
110.970429188
 30
0.0
 40
5.499999999999986
  0
CIRCLE
  5
112
330
1F
100
AcDbEntity
  8
0
  6
Continuous
 62
     7
370
    30
100
AcDbCircle
 10
93.9241048539
 20
135.970429188
 30
0.0
 40
5.5
  0
CIRCLE
  5
113
330
1F
100
AcDbEntity
  8
0
  6
Continuous
 62
     7
370
    30
100
AcDbCircle
 10
93.9241048539
 20
110.970429188
 30
0.0
 40
5.499999999999986
  0
CIRCLE
  5
114
330
1F
100
AcDbEntity
  8
0
  6
Continuous
 62
     7
370
    30
100
AcDbCircle
 10
93.9241048539
 20
85.970429188
 30
0.0
 40
5.5
  0
CIRCLE
  5
115
330
1F
100
AcDbEntity
  8
0
  6
Continuous
 62
     7
370
    30
100
AcDbCircle
 10
106.4241048539
 20
123.470429188
 30
0.0
 40
4.0
  0
CIRCLE
  5
116
330
1F
100
AcDbEntity
  8
0
  6
Continuous
 62
     7
370
    30
100
AcDbCircle
 10
81.4241048539
 20
123.470429188
 30
0.0
 40
4.0
  0
CIRCLE
  5
117
330
1F
100
AcDbEntity
  8
0
  6
Continuous
 62
     7
370
    30
100
AcDbCircle
 10
81.4241048539
 20
98.470429188
 30
0.0
 40
3.999999999999986
  0
CIRCLE
  5
118
330
1F
100
AcDbEntity
  8
0
  6
Continuous
 62
     7
370
    30
100
AcDbCircle
 10
106.4241048539
 20
98.470429188
 30
0.0
 40
4.000000000000014
  0
CIRCLE
  5
119
330
1F
100
AcDbEntity
  8
0
  6
Continuous
 62
     7
370
    30
100
AcDbCircle
 10
118.9241048539
 20
123.470429188
 30
0.0
 40
2.499999999999986
  0
CIRCLE
  5
11A
330
1F
100
AcDbEntity
  8
0
  6
Continuous
 62
     7
370
    30
100
AcDbCircle
 10
118.9241048539
 20
85.970429188
 30
0.0
 40
2.499999999999986
  0
CIRCLE
  5
11B
330
1F
100
AcDbEntity
  8
0
  6
Continuous
 62
     7
370
    30
100
AcDbCircle
 10
118.9241048539
 20
135.970429188
 30
0.0
 40
2.5
  0
CIRCLE
  5
11C
330
1F
100
AcDbEntity
  8
0
  6
Continuous
 62
     7
370
    30
100
AcDbCircle
 10
68.9241048539
 20
135.970429188
 30
0.0
 40
2.5
  0
CIRCLE
  5
11D
330
1F
100
AcDbEntity
  8
0
  6
Continuous
 62
     7
370
    30
100
AcDbCircle
 10
106.4241048539
 20
98.470429188
 30
0.0
 40
2.250000000000014
  0
CIRCLE
  5
11E
330
1F
100
AcDbEntity
  8
0
  6
Continuous
 62
     7
370
    30
100
AcDbCircle
 10
81.4241048539
 20
98.470429188
 30
0.0
 40
2.25
  0
CIRCLE
  5
11F
330
1F
100
AcDbEntity
  8
0
  6
Continuous
 62
     7
370
    30
100
AcDbCircle
 10
81.4241048539
 20
123.470429188
 30
0.0
 40
2.25
  0
CIRCLE
  5
120
330
1F
100
AcDbEntity
  8
0
  6
Continuous
 62
     7
370
    30
100
AcDbCircle
 10
106.4241048539
 20
123.470429188
 30
0.0
 40
2.25
  0
CIRCLE
  5
121
330
1F
100
AcDbEntity
  8
0
  6
Continuous
 62
     7
370
    30
100
AcDbCircle
 10
93.9241048539
 20
135.970429188
 30
0.0
 40
3.300000000000011
  0
CIRCLE
  5
122
330
1F
100
AcDbEntity
  8
0
  6
Continuous
 62
     7
370
    30
100
AcDbCircle
 10
93.9241048539
 20
110.970429188
 30
0.0
 40
3.300000000000011
  0
CIRCLE
  5
123
330
1F
100
AcDbEntity
  8
0
  6
Continuous
 62
     7
370
    30
100
AcDbCircle
 10
68.9241048539
 20
110.970429188
 30
0.0
 40
3.300000000000011
  0
CIRCLE
  5
124
330
1F
100
AcDbEntity
  8
0
  6
Continuous
 62
     7
370
    30
100
AcDbCircle
 10
93.9241048539
 20
85.970429188
 30
0.0
 40
3.300000000000011
  0
CIRCLE
  5
125
330
1F
100
AcDbEntity
  8
0
  6
Continuous
 62
     7
370
    30
100
AcDbCircle
 10
118.9241048539
 20
110.970429188
 30
0.0
 40
3.300000000000011
  0
DIMENSION
  5
126
330
1F
100
AcDbEntity
  8
SLD-0
100
AcDbDimension
  2
_D
 10
126.4241048539
 20
161.7629352107
 30
0.0
 11
93.9241048539
 21
161.7629352107
 31
0.0
 70
   160
  1
<>
 71
     2
 42
-1.0
  3
SLDDIMSTYLE0
100
AcDbAlignedDimension
 13
61.4241048539
 23
140.470429188
 33
0.0
 14
126.4241048539
 24
140.470429188
 34
0.0
100
AcDbRotatedDimension
  0
DIMENSION
  5
131
330
1F
100
AcDbEntity
  8
SLD-0
100
AcDbDimension
  2
_D_1
 10
40.4241048539
 20
78.470429188
 30
0.0
 11
40.4241048539
 21
110.970429188
 31
0.0
 70
   160
  1
<>
 71
     2
 42
-1.0
  3
SLDDIMSTYLE0
100
AcDbAlignedDimension
 13
64.4241048539
 23
143.470429188
 33
0.0
 14
64.4241048539
 24
78.470429188
 34
0.0
 50
90.0
100
AcDbRotatedDimension
  0
DIMENSION
  5
13B
330
1F
100
AcDbEntity
  8
SLD-0
100
AcDbDimension
  2
_D_2
 10
93.9241048539
 20
148.9587402507
 30
0.0
 11
87.6741048539
 21
148.9587402507
 31
0.0
 70
   160
  1
<>
 71
     2
 42
-1.0
  3
SLDDIMSTYLE0
100
AcDbAlignedDimension
 13
81.4241048539
 23
128.470429188
 33
0.0
 14
93.9241048539
 24
135.970429188
 34
0.0
100
AcDbRotatedDimension
  0
DIMENSION
  5
145
330
1F
100
AcDbEntity
  8
SLD-0
100
AcDbDimension
  2
_D_3
 10
106.4241048539
 20
148.9587402507
 30
0.0
 11
100.1741048539
 21
148.9587402507
 31
0.0
 70
   160
  1
<>
 71
     2
 42
-1.0
  3
SLDDIMSTYLE0
100
AcDbAlignedDimension
 13
93.9241048539
 23
135.970429188
 33
0.0
 14
106.4241048539
 24
123.470429188
 34
0.0
100
AcDbRotatedDimension
  0
DIMENSION
  5
14F
330
1F
100
AcDbEntity
  8
SLD-0
100
AcDbDimension
  2
_D_4
 10
68.9241048539
 20
155.222662965
 30
0.0
 11
81.4241048539
 21
155.222662965
 31
0.0
 70
   160
  1
<>
 71
     2
 42
-1.0
  3
SLDDIMSTYLE0
100
AcDbAlignedDimension
 13
93.9241048539
 23
135.970429188
 33
0.0
 14
68.9241048539
 24
135.970429188
 34
0.0
100
AcDbRotatedDimension
  0
DIMENSION
  5
159
330
1F
100
AcDbEntity
  8
SLD-0
100
AcDbDimension
  2
_D_5
 10
118.9241048539
 20
155.222662965
 30
0.0
 11
106.4241048539
 21
155.222662965
 31
0.0
 70
   160
  1
<>
 71
     2
 42
-1.0
  3
SLDDIMSTYLE0
100
AcDbAlignedDimension
 13
93.9241048539
 23
135.970429188
 33
0.0
 14
118.9241048539
 24
135.970429188
 34
0.0
100
AcDbRotatedDimension
  0
DIMENSION
  5
163
330
1F
100
AcDbEntity
  8
SLD-0
100
AcDbDimension
  2
_D_6
 10
55.8761553211
 20
110.970429188
 30
0.0
 11
55.8761553211
 21
117.220429188
 31
0.0
 70
   160
  1
<>
 71
     2
 42
-1.0
  3
SLDDIMSTYLE0
100
AcDbAlignedDimension
 13
68.9241048539
 23
123.470429188
 33
0.0
 14
68.9241048539
 24
110.970429188
 34
0.0
 50
90.0
100
AcDbRotatedDimension
  0
DIMENSION
  5
16D
330
1F
100
AcDbEntity
  8
SLD-0
100
AcDbDimension
  2
_D_7
 10
55.8761553211
 20
98.470429188
 30
0.0
 11
55.8761553211
 21
104.720429188
 31
0.0
 70
   160
  1
<>
 71
     2
 42
-1.0
  3
SLDDIMSTYLE0
100
AcDbAlignedDimension
 13
68.9241048539
 23
110.970429188
 33
0.0
 14
65.4241048539
 24
98.470429188
 34
0.0
 50
90.0
100
AcDbRotatedDimension
  0
DIMENSION
  5
177
330
1F
100
AcDbEntity
  8
SLD-0
100
AcDbDimension
  2
_D_8
 10
48.6946070567
 20
85.970429188
 30
0.0
 11
48.6946070567
 21
98.470429188
 31
0.0
 70
   160
  1
<>
 71
     2
 42
-1.0
  3
SLDDIMSTYLE0
100
AcDbAlignedDimension
 13
68.9241048539
 23
110.970429188
 33
0.0
 14
68.9241048539
 24
85.970429188
 34
0.0
 50
90.0
100
AcDbRotatedDimension
  0
DIMENSION
  5
181
330
1F
100
AcDbEntity
  8
SLD-0
100
AcDbDimension
  2
_D_9
 10
82.8707738305
 20
102.1996581797
 30
0.0
 11
59.1899550158
 21
68.1429617692
 31
0.0
 70
   163
  1
4 HOLES,\P M4 CLR
 71
     1
 42
-1.0
  3
SLDDIMSTYLE1
100
AcDbDiametricDimension
 15
79.9774358773
 25
94.7412001964
 35
0.0
 40
0.0
  0
DIMENSION
  5
18B
330
1F
100
AcDbEntity
  8
SLD-0
100
AcDbDimension
  2
_D_10
 10
91.9464924487
 20
91.1025875229
 30
0.0
 11
111.8726436839
 21
66.535066304
 31
0.0
 70
   163
  1
5 HOLES,\P M6 CLR
 71
     1
 42
-1.0
  3
SLDDIMSTYLE1
100
AcDbDiametricDimension
 15
95.9017172591
 25
80.8382708531
 35
0.0
 40
0.0
  0
DIMENSION
  5
194
330
1F
100
AcDbEntity
  8
SLD-0
100
AcDbDimension
  2
_D_11
 10
117.236757123
 20
88.4509246295
 30
0.0
 11
142.6420479572
 21
68.1429617692
 31
0.0
 70
   163
  1
8 HOLES,\P M6
 71
     1
 42
-1.0
  3
SLDDIMSTYLE1
100
AcDbDiametricDimension
 15
120.6114525848
 25
83.4899337465
 35
0.0
 40
0.0
  0
DIMENSION
  5
19D
330
1F
100
AcDbEntity
  8
SLD-0
 62
     7
100
AcDbDimension
  2
_D_12
 10
48.6946070567
 20
110.970429188
 30
0.0
 11
48.6946070567
 21
123.470429188
 31
0.0
 70
   160
  1
<>
 71
     2
 42
-1.0
  3
SLDDIMSTYLE0
100
AcDbAlignedDimension
 13
68.9241048539
 23
135.970429188
 33
0.0
 14
68.9241048539
 24
110.970429188
 34
0.0
 50
90.0
100
AcDbRotatedDimension
  0
INSERT
  5
1B2
330
1F
100
AcDbEntity
  8
SLD-0
100
AcDbBlockReference
  2
SW_CENTERMARKSYMBOL_0
 10
68.9241048539
 20
135.970429188
 30
0.0
  0
INSERT
  5
1BE
330
1F
100
AcDbEntity
  8
SLD-0
100
AcDbBlockReference
  2
SW_CENTERMARKSYMBOL_1
 10
93.9241048539
 20
135.970429188
 30
0.0
  0
INSERT
  5
1CA
330
1F
100
AcDbEntity
  8
SLD-0
100
AcDbBlockReference
  2
SW_CENTERMARKSYMBOL_2
 10
68.9241048539
 20
123.470429188
 30
0.0
  0
INSERT
  5
1D6
330
1F
100
AcDbEntity
  8
SLD-0
100
AcDbBlockReference
  2
SW_CENTERMARKSYMBOL_3
 10
68.9241048539
 20
110.970429188
 30
0.0
  0
INSERT
  5
1E2
330
1F
100
AcDbEntity
  8
SLD-0
100
AcDbBlockReference
  2
SW_CENTERMARKSYMBOL_4
 10
68.9241048539
 20
98.470429188
 30
0.0
  0
INSERT
  5
1EE
330
1F
100
AcDbEntity
  8
SLD-0
100
AcDbBlockReference
  2
SW_CENTERMARKSYMBOL_5
 10
68.9241048539
 20
85.970429188
 30
0.0
  0
INSERT
  5
1FA
330
1F
100
AcDbEntity
  8
SLD-0
100
AcDbBlockReference
  2
SW_CENTERMARKSYMBOL_6
 10
81.4241048539
 20
98.470429188
 30
0.0
  0
INSERT
  5
206
330
1F
100
AcDbEntity
  8
SLD-0
100
AcDbBlockReference
  2
SW_CENTERMARKSYMBOL_7
 10
81.4241048539
 20
123.470429188
 30
0.0
  0
INSERT
  5
212
330
1F
100
AcDbEntity
  8
SLD-0
100
AcDbBlockReference
  2
SW_CENTERMARKSYMBOL_8
 10
93.9241048539
 20
110.970429188
 30
0.0
  0
INSERT
  5
21E
330
1F
100
AcDbEntity
  8
SLD-0
100
AcDbBlockReference
  2
SW_CENTERMARKSYMBOL_9
 10
106.4241048539
 20
123.470429188
 30
0.0
  0
INSERT
  5
22A
330
1F
100
AcDbEntity
  8
SLD-0
100
AcDbBlockReference
  2
SW_CENTERMARKSYMBOL_10
 10
106.4241048539
 20
98.470429188
 30
0.0
  0
INSERT
  5
236
330
1F
100
AcDbEntity
  8
SLD-0
100
AcDbBlockReference
  2
SW_CENTERMARKSYMBOL_11
 10
118.9241048539
 20
110.970429188
 30
0.0
  0
INSERT
  5
242
330
1F
100
AcDbEntity
  8
SLD-0
100
AcDbBlockReference
  2
SW_CENTERMARKSYMBOL_12
 10
118.9241048539
 20
123.470429188
 30
0.0
  0
INSERT
  5
24E
330
1F
100
AcDbEntity
  8
SLD-0
100
AcDbBlockReference
  2
SW_CENTERMARKSYMBOL_13
 10
118.9241048539
 20
135.970429188
 30
0.0
  0
INSERT
  5
25A
330
1F
100
AcDbEntity
  8
SLD-0
100
AcDbBlockReference
  2
SW_CENTERMARKSYMBOL_14
 10
118.9241048539
 20
98.470429188
 30
0.0
  0
INSERT
  5
266
330
1F
100
AcDbEntity
  8
SLD-0
100
AcDbBlockReference
  2
SW_CENTERMARKSYMBOL_15
 10
118.9241048539
 20
85.970429188
 30
0.0
  0
INSERT
  5
272
330
1F
100
AcDbEntity
  8
SLD-0
100
AcDbBlockReference
  2
SW_CENTERMARKSYMBOL_16
 10
93.9241048539
 20
85.970429188
 30
0.0
  0
ARC
  5
273
330
1F
100
AcDbEntity
  8
0
  6
Continuous
 62
     7
370
     0
100
AcDbCircle
 10
118.9241048539
 20
123.470429188
 30
0.0
 40
3.000000864267351
100
AcDbArc
 50
255.0
 51
195.0
  0
ARC
  5
274
330
1F
100
AcDbEntity
  8
0
  6
Continuous
 62
     7
370
     0
100
AcDbCircle
 10
68.9241048539
 20
123.470429188
 30
0.0
 40
3.000000119209311
100
AcDbArc
 50
255.0
 51
195.0
  0
ARC
  5
275
330
1F
100
AcDbEntity
  8
0
  6
Continuous
 62
     7
370
     0
100
AcDbCircle
 10
68.9241048539
 20
98.470429188
 30
0.0
 40
3.000000119209318
100
AcDbArc
 50
255.0
 51
195.0
  0
ARC
  5
276
330
1F
100
AcDbEntity
  8
0
  6
Continuous
 62
     7
370
     0
100
AcDbCircle
 10
118.9241048539
 20
98.470429188
 30
0.0
 40
3.000000864267365
100
AcDbArc
 50
255.0
 51
195.0
  0
ARC
  5
277
330
1F
100
AcDbEntity
  8
0
  6
Continuous
 62
     7
370
     0
100
AcDbCircle
 10
68.9241048539
 20
85.970429188
 30
0.0
 40
3.000000119209318
100
AcDbArc
 50
255.0
 51
195.0
  0
ARC
  5
278
330
1F
100
AcDbEntity
  8
0
  6
Continuous
 62
     7
370
     0
100
AcDbCircle
 10
68.9241048539
 20
135.970429188
 30
0.0
 40
3.000000119209318
100
AcDbArc
 50
255.0
 51
195.0
  0
ARC
  5
279
330
1F
100
AcDbEntity
  8
0
  6
Continuous
 62
     7
370
     0
100
AcDbCircle
 10
118.9241048539
 20
135.970429188
 30
0.0
 40
3.000000864267386
100
AcDbArc
 50
255.0
 51
195.0
  0
ARC
  5
27A
330
1F
100
AcDbEntity
  8
0
  6
Continuous
 62
     7
370
     0
100
AcDbCircle
 10
118.9241048539
 20
85.970429188
 30
0.0
 40
3.000000864267399
100
AcDbArc
 50
255.0
 51
195.0
  0
LINE
  5
27B
330
1F
100
AcDbEntity
  8
0
  6
Continuous
 62
     7
370
    30
100
AcDbLine
 10
268.654468358
 20
140.0658250651
 30
0.0
 11
268.654468358
 21
146.5981515602
 31
0.0
  0
LINE
  5
27C
330
1F
100
AcDbEntity
  8
0
  6
Continuous
 62
     7
370
    30
100
AcDbLine
 10
179.215868178
 20
146.5981515602
 30
0.0
 11
179.215868178
 21
140.0658250651
 31
0.0
  0
ARC
  5
27D
330
1F
100
AcDbEntity
  8
0
  6
Continuous
 62
     7
370
    30
100
AcDbCircle
 10
223.935168268
 20
125.361141379
 30
0.0
 40
4.591106920648842
100
AcDbArc
 50
242.4805390039
 51
297.5194609961
  0
LINE
  5
27E
330
1F
100
AcDbEntity
  8
0
  6
Continuous
 62
     7
370
    30
100
AcDbLine
 10
180.0945478344
 20
145.3735393924
 30
0.0
 11
221.8138479245
 21
121.2895000937
 31
0.0
  0
ARC
  5
27F
330
1F
100
AcDbEntity
  8
0
  6
Continuous
 62
     7
370
    30
100
AcDbCircle
 10
180.5723132524
 20
146.5981515602
 30
0.0
 40
1.314509321378503
100
AcDbArc
 50
111.3125518932
 51
248.6874481068
  0
LINE
  5
280
330
1F
100
AcDbEntity
  8
0
  6
Continuous
 62
     7
370
    30
100
AcDbLine
 10
221.8138479245
 20
171.9068030267
 30
0.0
 11
180.0945478344
 21
147.8227637279
 31
0.0
  0
ARC
  5
281
330
1F
100
AcDbEntity
  8
0
  6
Continuous
 62
     7
370
    30
100
AcDbCircle
 10
223.935168268
 20
167.8351617413
 30
0.0
 40
4.591106920648803
100
AcDbArc
 50
62.4805390039
 51
117.5194609961
  0
LINE
  5
282
330
1F
100
AcDbEntity
  8
0
  6
Continuous
 62
     7
370
    30
100
AcDbLine
 10
267.7757887016
 20
147.8227637279
 30
0.0
 11
226.0564886116
 21
171.9068030267
 31
0.0
  0
ARC
  5
283
330
1F
100
AcDbEntity
  8
0
  6
Continuous
 62
     7
370
    30
100
AcDbCircle
 10
267.2980232836
 20
146.5981515602
 30
0.0
 40
1.314509321378524
100
AcDbArc
 50
291.3125518932
 51
68.6874481068
  0
LINE
  5
284
330
1F
100
AcDbEntity
  8
0
  6
Continuous
 62
     7
370
    30
100
AcDbLine
 10
226.0564886116
 20
121.2895000937
 30
0.0
 11
267.7757887016
 21
145.3735393924
 31
0.0
  0
LWPOLYLINE
  5
285
330
1F
100
AcDbEntity
  8
0
  6
Continuous
 62
     7
370
    30
100
AcDbPolyline
 90
       37
 70
   128
 43
0.0
 10
186.8120622557
 20
145.5776414204
 10
187.1458881178
 20
145.4159355364
 10
187.5232835543
 20
145.2901506881
 10
187.9327815959
 20
145.2041087844
 10
188.3619398518
 20
145.160424165
 10
188.7977185656
 20
145.160424165
 10
189.2268768214
 20
145.2041087844
 10
189.636374863
 20
145.2901506881
 10
190.0137702996
 20
145.4159355364
 10
190.3475961617
 20
145.5776414204
 10
190.6277093194
 20
145.7703549886
 10
190.8455986763
 20
145.9882207367
 10
190.9946437744
 20
146.2246189242
 10
191.0703159539
 20
146.4723667119
 10
191.0703159539
 20
146.7239364085
 10
190.9946437744
 20
146.9716841961
 10
190.8455986763
 20
147.2080823837
 10
190.6277093194
 20
147.4259481318
 10
190.3475961617
 20
147.6186616999
 10
190.0137702996
 20
147.7803675839
 10
189.636374863
 20
147.9061524322
 10
189.2268768214
 20
147.9921943359
 10
188.7977185656
 20
148.0358789553
 10
188.3619398518
 20
148.0358789553
 10
187.9327815959
 20
147.9921943359
 10
187.5232835543
 20
147.9061524322
 10
187.1458881178
 20
147.7803675839
 10
186.8120622557
 20
147.6186616999
 10
186.531949098
 20
147.4259481318
 10
186.3140597411
 20
147.2080823837
 10
186.165014643
 20
146.9716841961
 10
186.0893424635
 20
146.7239364085
 10
186.0893424635
 20
146.4723667119
 10
186.165014643
 20
146.2246189242
 10
186.3140597411
 20
145.9882207367
 10
186.531949098
 20
145.7703549886
 10
186.8120622557
 20
145.5776414204
  0
LWPOLYLINE
  5
286
330
1F
100
AcDbEntity
  8
0
  6
Continuous
 62
     7
370
    30
100
AcDbPolyline
 90
       37
 70
   128
 43
0.0
 10
222.167401315
 20
165.987844216
 10
222.5012271771
 20
165.826138332
 10
222.8786226137
 20
165.7003534837
 10
223.2881206553
 20
165.61431158
 10
223.7172789111
 20
165.5706269606
 10
224.1530576249
 20
165.5706269606
 10
224.5822158808
 20
165.61431158
 10
224.9917139224
 20
165.7003534837
 10
225.3691093589
 20
165.826138332
 10
225.702935221
 20
165.987844216
 10
225.9830483787
 20
166.1805577841
 10
226.2009377356
 20
166.3984235322
 10
226.3499828337
 20
166.6348217198
 10
226.4256550132
 20
166.8825695074
 10
226.4256550132
 20
167.1341392041
 10
226.3499828337
 20
167.3818869917
 10
226.2009377356
 20
167.6182851793
 10
225.9830483787
 20
167.8361509274
 10
225.702935221
 20
168.0288644955
 10
225.3691093589
 20
168.1905703795
 10
224.9917139224
 20
168.3163552278
 10
224.5822158808
 20
168.4023971315
 10
224.1530576249
 20
168.4460817509
 10
223.7172789111
 20
168.4460817509
 10
223.2881206553
 20
168.4023971315
 10
222.8786226137
 20
168.3163552278
 10
222.5012271771
 20
168.1905703795
 10
222.167401315
 20
168.0288644955
 10
221.8872881573
 20
167.8361509274
 10
221.6693988004
 20
167.6182851793
 10
221.5203537023
 20
167.3818869917
 10
221.4446815228
 20
167.1341392041
 10
221.4446815228
 20
166.8825695074
 10
221.5203537023
 20
166.6348217198
 10
221.6693988004
 20
166.3984235322
 10
221.8872881573
 20
166.1805577841
 10
222.167401315
 20
165.987844216
  0
LWPOLYLINE
  5
287
330
1F
100
AcDbEntity
  8
0
  6
Continuous
 62
     7
370
    30
100
AcDbPolyline
 90
       37
 70
   128
 43
0.0
 10
257.5227403744
 20
145.5776414204
 10
257.8565662365
 20
145.4159355364
 10
258.233961673
 20
145.2901506881
 10
258.6434597146
 20
145.2041087844
 10
259.0726179705
 20
145.160424165
 10
259.5083966842
 20
145.160424165
 10
259.9375549401
 20
145.2041087844
 10
260.3470529817
 20
145.2901506881
 10
260.7244484182
 20
145.4159355364
 10
261.0582742803
 20
145.5776414204
 10
261.3383874381
 20
145.7703549886
 10
261.5562767949
 20
145.9882207367
 10
261.7053218931
 20
146.2246189242
 10
261.7809940726
 20
146.4723667119
 10
261.7809940726
 20
146.7239364085
 10
261.7053218931
 20
146.9716841961
 10
261.5562767949
 20
147.2080823837
 10
261.3383874381
 20
147.4259481318
 10
261.0582742803
 20
147.6186616999
 10
260.7244484182
 20
147.7803675839
 10
260.3470529817
 20
147.9061524322
 10
259.9375549401
 20
147.9921943359
 10
259.5083966842
 20
148.0358789553
 10
259.0726179705
 20
148.0358789553
 10
258.6434597146
 20
147.9921943359
 10
258.233961673
 20
147.9061524322
 10
257.8565662365
 20
147.7803675839
 10
257.5227403744
 20
147.6186616999
 10
257.2426272166
 20
147.4259481318
 10
257.0247378597
 20
147.2080823837
 10
256.8756927616
 20
146.9716841961
 10
256.8000205821
 20
146.7239364085
 10
256.8000205821
 20
146.4723667119
 10
256.8756927616
 20
146.2246189242
 10
257.0247378597
 20
145.9882207367
 10
257.2426272166
 20
145.7703549886
 10
257.5227403744
 20
145.5776414204
  0
LWPOLYLINE
  5
288
330
1F
100
AcDbEntity
  8
0
  6
Continuous
 62
     7
370
    30
100
AcDbPolyline
 90
       37
 70
   128
 43
0.0
 10
222.167401315
 20
125.1674386248
 10
222.5012271771
 20
125.0057327409
 10
222.8786226137
 20
124.8799478925
 10
223.2881206553
 20
124.7939059888
 10
223.7172789111
 20
124.7502213695
 10
224.1530576249
 20
124.7502213695
 10
224.5822158808
 20
124.7939059888
 10
224.9917139224
 20
124.8799478925
 10
225.3691093589
 20
125.0057327409
 10
225.702935221
 20
125.1674386248
 10
225.9830483787
 20
125.360152193
 10
226.2009377356
 20
125.5780179411
 10
226.3499828337
 20
125.8144161286
 10
226.4256550132
 20
126.0621639163
 10
226.4256550132
 20
126.3137336129
 10
226.3499828337
 20
126.5614814006
 10
226.2009377356
 20
126.7978795881
 10
225.9830483787
 20
127.0157453362
 10
225.702935221
 20
127.2084589044
 10
225.3691093589
 20
127.3701647883
 10
224.9917139224
 20
127.4959496367
 10
224.5822158808
 20
127.5819915404
 10
224.1530576249
 20
127.6256761597
 10
223.7172789111
 20
127.6256761597
 10
223.2881206553
 20
127.5819915404
 10
222.8786226137
 20
127.4959496367
 10
222.5012271771
 20
127.3701647883
 10
222.167401315
 20
127.2084589044
 10
221.8872881573
 20
127.0157453362
 10
221.6693988004
 20
126.7978795881
 10
221.5203537023
 20
126.5614814006
 10
221.4446815228
 20
126.3137336129
 10
221.4446815228
 20
126.0621639163
 10
221.5203537023
 20
125.8144161286
 10
221.6693988004
 20
125.5780179411
 10
221.8872881573
 20
125.360152193
 10
222.167401315
 20
125.1674386248
  0
LWPOLYLINE
  5
289
330
1F
100
AcDbEntity
  8
0
  6
Continuous
 62
     7
370
    30
100
AcDbPolyline
 90
       37
 70
   128
 43
0.0
 10
248.6839056095
 20
140.4750907215
 10
249.0177314716
 20
140.3133848375
 10
249.3951269082
 20
140.1875999892
 10
249.8046249498
 20
140.1015580855
 10
250.2337832056
 20
140.0578734661
 10
250.6695619194
 20
140.0578734661
 10
251.0987201753
 20
140.1015580855
 10
251.5082182169
 20
140.1875999892
 10
251.8856136534
 20
140.3133848375
 10
252.2194395155
 20
140.4750907215
 10
252.4995526732
 20
140.6678042897
 10
252.7174420301
 20
140.8856700378
 10
252.8664871282
 20
141.1220682253
 10
252.9421593077
 20
141.369816013
 10
252.9421593077
 20
141.6213857096
 10
252.8664871282
 20
141.8691334973
 10
252.7174420301
 20
142.1055316848
 10
252.4995526732
 20
142.3233974329
 10
252.2194395155
 20
142.5161110011
 10
251.8856136534
 20
142.677816885
 10
251.5082182169
 20
142.8036017333
 10
251.0987201753
 20
142.889643637
 10
250.6695619194
 20
142.9333282564
 10
250.2337832056
 20
142.9333282564
 10
249.8046249498
 20
142.889643637
 10
249.3951269082
 20
142.8036017333
 10
249.0177314716
 20
142.677816885
 10
248.6839056095
 20
142.5161110011
 10
248.4037924518
 20
142.3233974329
 10
248.1859030949
 20
142.1055316848
 10
248.0368579968
 20
141.8691334973
 10
247.9611858173
 20
141.6213857096
 10
247.9611858173
 20
141.369816013
 10
248.0368579968
 20
141.1220682253
 10
248.1859030949
 20
140.8856700378
 10
248.4037924518
 20
140.6678042897
 10
248.6839056095
 20
140.4750907215
  0
LWPOLYLINE
  5
28A
330
1F
100
AcDbEntity
  8
0
  6
Continuous
 62
     7
370
    30
100
AcDbPolyline
 90
       37
 70
   128
 43
0.0
 10
213.3285665502
 20
160.8852935171
 10
213.6623924123
 20
160.7235876331
 10
214.0397878488
 20
160.5978027848
 10
214.4492858904
 20
160.5117608811
 10
214.8784441463
 20
160.4680762617
 10
215.31422286
 20
160.4680762617
 10
215.7433811159
 20
160.5117608811
 10
216.1528791575
 20
160.5978027848
 10
216.5302745941
 20
160.7235876331
 10
216.8641004561
 20
160.8852935171
 10
217.1442136139
 20
161.0780070852
 10
217.3621029708
 20
161.2958728333
 10
217.5111480689
 20
161.5322710209
 10
217.5868202484
 20
161.7800188085
 10
217.5868202484
 20
162.0315885052
 10
217.5111480689
 20
162.2793362928
 10
217.3621029708
 20
162.5157344804
 10
217.1442136139
 20
162.7336002285
 10
216.8641004561
 20
162.9263137966
 10
216.5302745941
 20
163.0880196806
 10
216.1528791575
 20
163.2138045289
 10
215.7433811159
 20
163.2998464326
 10
215.31422286
 20
163.343531052
 10
214.8784441463
 20
163.343531052
 10
214.4492858904
 20
163.2998464326
 10
214.0397878488
 20
163.2138045289
 10
213.6623924123
 20
163.0880196806
 10
213.3285665502
 20
162.9263137966
 10
213.0484533925
 20
162.7336002285
 10
212.8305640356
 20
162.5157344804
 10
212.6815189375
 20
162.2793362928
 10
212.605846758
 20
162.0315885052
 10
212.605846758
 20
161.7800188085
 10
212.6815189375
 20
161.5322710209
 10
212.8305640356
 20
161.2958728333
 10
213.0484533925
 20
161.0780070852
 10
213.3285665502
 20
160.8852935171
  0
LWPOLYLINE
  5
28B
330
1F
100
AcDbEntity
  8
0
  6
Continuous
 62
     7
370
    30
100
AcDbPolyline
 90
       37
 70
   128
 43
0.0
 10
195.6508970205
 20
150.6801921193
 10
195.9847228826
 20
150.5184862353
 10
196.3621183192
 20
150.392701387
 10
196.7716163608
 20
150.3066594833
 10
197.2007746166
 20
150.2629748639
 10
197.6365533304
 20
150.2629748639
 10
198.0657115863
 20
150.3066594833
 10
198.4752096279
 20
150.392701387
 10
198.8526050644
 20
150.5184862353
 10
199.1864309265
 20
150.6801921193
 10
199.4665440842
 20
150.8729056874
 10
199.6844334411
 20
151.0907714355
 10
199.8334785392
 20
151.3271696231
 10
199.9091507187
 20
151.5749174107
 10
199.9091507187
 20
151.8264871074
 10
199.8334785392
 20
152.074234895
 10
199.6844334411
 20
152.3106330826
 10
199.4665440842
 20
152.5284988307
 10
199.1864309265
 20
152.7212123988
 10
198.8526050644
 20
152.8829182828
 10
198.4752096279
 20
153.0087031311
 10
198.0657115863
 20
153.0947450348
 10
197.6365533304
 20
153.1384296542
 10
197.2007746166
 20
153.1384296542
 10
196.7716163608
 20
153.0947450348
 10
196.3621183192
 20
153.0087031311
 10
195.9847228826
 20
152.8829182828
 10
195.6508970205
 20
152.7212123988
 10
195.3707838628
 20
152.5284988307
 10
195.1528945059
 20
152.3106330826
 10
195.0038494078
 20
152.074234895
 10
194.9281772283
 20
151.8264871074
 10
194.9281772283
 20
151.5749174107
 10
195.0038494078
 20
151.3271696231
 10
195.1528945059
 20
151.0907714355
 10
195.3707838628
 20
150.8729056874
 10
195.6508970205
 20
150.6801921193
  0
LWPOLYLINE
  5
28C
330
1F
100
AcDbEntity
  8
0
  6
Continuous
 62
     7
370
    30
100
AcDbPolyline
 90
       37
 70
   128
 43
0.0
 10
231.0062360799
 20
130.2699893237
 10
231.340061942
 20
130.1082834397
 10
231.7174573785
 20
129.9824985914
 10
232.1269554201
 20
129.8964566877
 10
232.556113676
 20
129.8527720684
 10
232.9918923897
 20
129.8527720684
 10
233.4210506456
 20
129.8964566877
 10
233.8305486872
 20
129.9824985914
 10
234.2079441237
 20
130.1082834397
 10
234.5417699858
 20
130.2699893237
 10
234.8218831436
 20
130.4627028919
 10
235.0397725004
 20
130.68056864
 10
235.1888175986
 20
130.9169668275
 10
235.2644897781
 20
131.1647146152
 10
235.2644897781
 20
131.4162843118
 10
235.1888175986
 20
131.6640320995
 10
235.0397725004
 20
131.900430287
 10
234.8218831436
 20
132.1182960351
 10
234.5417699858
 20
132.3110096033
 10
234.2079441237
 20
132.4727154872
 10
233.8305486872
 20
132.5985003356
 10
233.4210506456
 20
132.6845422393
 10
232.9918923897
 20
132.7282268586
 10
232.556113676
 20
132.7282268586
 10
232.1269554201
 20
132.6845422393
 10
231.7174573785
 20
132.5985003356
 10
231.340061942
 20
132.4727154872
 10
231.0062360799
 20
132.3110096033
 10
230.7261229221
 20
132.1182960351
 10
230.5082335653
 20
131.900430287
 10
230.3591884671
 20
131.6640320995
 10
230.2835162876
 20
131.4162843118
 10
230.2835162876
 20
131.1647146152
 10
230.3591884671
 20
130.9169668275
 10
230.5082335653
 20
130.68056864
 10
230.7261229221
 20
130.4627028919
 10
231.0062360799
 20
130.2699893237
  0
LWPOLYLINE
  5
28D
330
1F
100
AcDbEntity
  8
0
  6
Continuous
 62
     7
370
    30
100
AcDbPolyline
 90
       54
 70
   128
 43
0.0
 10
202.3684114418
 20
154.5581306504
 10
202.8556832587
 20
154.3083512139
 10
203.390709108
 20
154.093594729
 10
203.9659783997
 20
153.916875906
 10
204.5734156139
 20
153.7806754898
 10
205.2044936635
 20
153.6869054356
 10
205.8503535962
 20
153.6368820696
 10
206.5019289542
 20
153.6313076101
 10
207.1500730478
 20
153.6702603102
 10
207.7856873547
 20
153.7531933595
 10
208.3998492431
 20
153.8789425598
 10
208.9839372266
 20
154.0457426679
 10
209.5297519902
 20
154.2512521759
 10
210.0296314909
 20
154.4925861809
 10
210.4765585165
 20
154.7663568823
 10
210.864259191
 20
155.0687211397
 10
211.1872910469
 20
155.3954344218
 10
211.4411194251
 20
155.74191039
 10
211.6221811314
 20
156.1032852815
 10
211.7279344565
 20
156.4744861848
 10
211.7568948554
 20
156.8503022529
 10
211.7086557877
 20
157.225457852
 10
211.5838944241
 20
157.5946866199
 10
211.3843621406
 20
157.9528053941
 10
211.1128599332
 20
158.2947869719
 10
210.7731990978
 20
158.6158306816
 10
210.3701477278
 20
158.9114297733
 10
209.909363781
 20
159.1774346837
 10
209.397315654
 20
159.4101112869
 10
208.8411913801
 20
159.6061933135
 10
208.2487977251
 20
159.7629282016
 10
207.6284505972
 20
159.878115737
 10
206.9888583104
 20
159.9501389392
 10
206.3389993384
 20
159.9779867602
 10
205.6879962766
 20
159.9612682778
 10
205.044987781
 20
159.9002181827
 10
204.4190002813
 20
159.7956934845
 10
203.81882127
 20
159.6491614808
 10
203.2528759447
 20
159.4626791598
 10
202.7291089372
 20
159.2388643244
 10
202.2548727882
 20
158.9808588444
 10
201.8368247336
 20
158.6922845511
 10
201.4808332519
 20
158.377192395
 10
201.191895683
 20
158.0400055794
 10
200.974068077
 20
157.6854574679
 10
200.8304082561
 20
157.3185251389
 10
200.7629328893
 20
156.9443595181
 10
200.7725891827
 20
156.5682130704
 10
200.8592415833
 20
156.1953660675
 10
201.0216736811
 20
155.8310524641
 10
201.2576052857
 20
155.4803864245
 10
201.5637244345
 20
155.1482905312
 10
201.9357338856
 20
154.8394266828
 10
202.3684114418
 20
154.5581306504
  0
LWPOLYLINE
  5
28E
330
1F
100
AcDbEntity
  8
0
  6
Continuous
 62
     7
370
    30
100
AcDbPolyline
 90
       54
 70
   128
 43
0.0
 10
237.7237505011
 20
134.1479278549
 10
238.211022318
 20
133.8981484184
 10
238.7460481674
 20
133.6833919335
 10
239.321317459
 20
133.5066731104
 10
239.9287546732
 20
133.3704726942
 10
240.5598327229
 20
133.2767026401
 10
241.2056926556
 20
133.226679274
 10
241.8572680136
 20
133.2211048145
 10
242.5054121072
 20
133.2600575146
 10
243.141026414
 20
133.342990564
 10
243.7551883025
 20
133.4687397642
 10
244.339276286
 20
133.6355398723
 10
244.8850910495
 20
133.8410493803
 10
245.3849705503
 20
134.0823833853
 10
245.8318975758
 20
134.3561540867
 10
246.2195982503
 20
134.6585183442
 10
246.5426301062
 20
134.9852316262
 10
246.7964584844
 20
135.3317075945
 10
246.9775201907
 20
135.6930824859
 10
247.0832735158
 20
136.0642833892
 10
247.1122339147
 20
136.4400994573
 10
247.063994847
 20
136.8152550564
 10
246.9392334834
 20
137.1844838244
 10
246.7397011999
 20
137.5426025985
 10
246.4681989926
 20
137.8845841763
 10
246.1285381571
 20
138.205627886
 10
245.7254867871
 20
138.5012269777
 10
245.2647028403
 20
138.7672318881
 10
244.7526547134
 20
138.9999084913
 10
244.1965304395
 20
139.1959905179
 10
243.6041367844
 20
139.3527254061
 10
242.9837896565
 20
139.4679129414
 10
242.3441973697
 20
139.5399361436
 10
241.6943383977
 20
139.5677839646
 10
241.0433353359
 20
139.5510654822
 10
240.4003268403
 20
139.4900153871
 10
239.7743393407
 20
139.3854906889
 10
239.1741603294
 20
139.2389586852
 10
238.608215004
 20
139.0524763642
 10
238.0844479965
 20
138.8286615288
 10
237.6102118475
 20
138.5706560488
 10
237.192163793
 20
138.2820817555
 10
236.8361723112
 20
137.9669895994
 10
236.5472347423
 20
137.6298027838
 10
236.3294071364
 20
137.2752546723
 10
236.1857473155
 20
136.9083223434
 10
236.1182719486
 20
136.5341567225
 10
236.1279282421
 20
136.1580102748
 10
236.2145806426
 20
135.7851632719
 10
236.3770127405
 20
135.4208496685
 10
236.612944345
 20
135.0701836289
 10
236.9190634938
 20
134.7380877357
 10
237.2910729449
 20
134.4292238872
 10
237.7237505011
 20
134.1479278549
  0
LWPOLYLINE
  5
28F
330
1F
100
AcDbEntity
  8
0
  6
Continuous
 62
     7
370
    30
100
AcDbPolyline
 90
       54
 70
   128
 43
0.0
 10
237.7237505011
 20
154.5581306504
 10
238.211022318
 20
154.3083512139
 10
238.7460481674
 20
154.093594729
 10
239.321317459
 20
153.916875906
 10
239.9287546732
 20
153.7806754898
 10
240.5598327229
 20
153.6869054356
 10
241.2056926556
 20
153.6368820696
 10
241.8572680136
 20
153.6313076101
 10
242.5054121072
 20
153.6702603102
 10
243.141026414
 20
153.7531933595
 10
243.7551883025
 20
153.8789425598
 10
244.339276286
 20
154.0457426679
 10
244.8850910495
 20
154.2512521759
 10
245.3849705503
 20
154.4925861809
 10
245.8318975758
 20
154.7663568823
 10
246.2195982503
 20
155.0687211397
 10
246.5426301062
 20
155.3954344218
 10
246.7964584844
 20
155.74191039
 10
246.9775201907
 20
156.1032852815
 10
247.0832735158
 20
156.4744861848
 10
247.1122339147
 20
156.8503022529
 10
247.063994847
 20
157.225457852
 10
246.9392334834
 20
157.5946866199
 10
246.7397011999
 20
157.9528053941
 10
246.4681989926
 20
158.2947869719
 10
246.1285381571
 20
158.6158306816
 10
245.7254867871
 20
158.9114297733
 10
245.2647028403
 20
159.1774346837
 10
244.7526547134
 20
159.4101112869
 10
244.1965304395
 20
159.6061933135
 10
243.6041367844
 20
159.7629282016
 10
242.9837896565
 20
159.878115737
 10
242.3441973697
 20
159.9501389392
 10
241.6943383977
 20
159.9779867602
 10
241.0433353359
 20
159.9612682778
 10
240.4003268403
 20
159.9002181827
 10
239.7743393407
 20
159.7956934845
 10
239.1741603294
 20
159.6491614808
 10
238.608215004
 20
159.4626791598
 10
238.0844479965
 20
159.2388643244
 10
237.6102118475
 20
158.9808588444
 10
237.192163793
 20
158.6922845511
 10
236.8361723112
 20
158.377192395
 10
236.5472347423
 20
158.0400055794
 10
236.3294071364
 20
157.6854574679
 10
236.1857473155
 20
157.3185251389
 10
236.1182719486
 20
156.9443595181
 10
236.1279282421
 20
156.5682130704
 10
236.2145806426
 20
156.1953660675
 10
236.3770127405
 20
155.8310524641
 10
236.612944345
 20
155.4803864245
 10
236.9190634938
 20
155.1482905312
 10
237.2910729449
 20
154.8394266828
 10
237.7237505011
 20
154.5581306504
  0
LWPOLYLINE
  5
290
330
1F
100
AcDbEntity
  8
0
  6
Continuous
 62
     7
370
    30
100
AcDbPolyline
 90
       54
 70
   128
 43
0.0
 10
220.0460809715
 20
144.3530292527
 10
220.5333527884
 20
144.1032498162
 10
221.0683786377
 20
143.8884933312
 10
221.6436479294
 20
143.7117745082
 10
222.2510851435
 20
143.575574092
 10
222.8821631932
 20
143.4818040379
 10
223.5280231259
 20
143.4317806718
 10
224.1795984839
 20
143.4262062123
 10
224.8277425775
 20
143.4651589124
 10
225.4633568843
 20
143.5480919617
 10
226.0775187728
 20
143.673841162
 10
226.6616067563
 20
143.8406412701
 10
227.2074215198
 20
144.0461507781
 10
227.7073010206
 20
144.2874847831
 10
228.1542280461
 20
144.5612554845
 10
228.5419287206
 20
144.863619742
 10
228.8649605766
 20
145.190333024
 10
229.1187889547
 20
145.5368089923
 10
229.2998506611
 20
145.8981838837
 10
229.4056039861
 20
146.269384787
 10
229.4345643851
 20
146.6452008551
 10
229.3863253173
 20
147.0203564542
 10
229.2615639537
 20
147.3895852221
 10
229.0620316703
 20
147.7477039963
 10
228.7905294629
 20
148.0896855741
 10
228.4508686274
 20
148.4107292838
 10
228.0478172574
 20
148.7063283755
 10
227.5870333107
 20
148.9723332859
 10
227.0749851837
 20
149.2050098891
 10
226.5188609098
 20
149.4010919157
 10
225.9264672547
 20
149.5578268038
 10
225.3061201269
 20
149.6730143392
 10
224.6665278401
 20
149.7450375414
 10
224.016668868
 20
149.7728853624
 10
223.3656658062
 20
149.75616688
 10
222.7226573106
 20
149.6951167849
 10
222.096669811
 20
149.5905920867
 10
221.4964907997
 20
149.444060083
 10
220.9305454744
 20
149.257577762
 10
220.4067784669
 20
149.0337629266
 10
219.9325423179
 20
148.7757574466
 10
219.5144942633
 20
148.4871831533
 10
219.1585027815
 20
148.1720909972
 10
218.8695652126
 20
147.8349041816
 10
218.6517376067
 20
147.4803560701
 10
218.5080777858
 20
147.1134237412
 10
218.440602419
 20
146.7392581203
 10
218.4502587124
 20
146.3631116726
 10
218.5369111129
 20
145.9902646697
 10
218.6993432108
 20
145.6259510663
 10
218.9352748154
 20
145.2752850267
 10
219.2413939642
 20
144.9431891335
 10
219.6134034153
 20
144.634325285
 10
220.0460809715
 20
144.3530292527
  0
LWPOLYLINE
  5
291
330
1F
100
AcDbEntity
  8
0
  6
Continuous
 62
     7
370
    30
100
AcDbPolyline
 90
       54
 70
   128
 43
0.0
 10
202.3684114418
 20
134.1479278549
 10
202.8556832587
 20
133.8981484184
 10
203.390709108
 20
133.6833919335
 10
203.9659783997
 20
133.5066731104
 10
204.5734156139
 20
133.3704726942
 10
205.2044936635
 20
133.2767026401
 10
205.8503535962
 20
133.226679274
 10
206.5019289542
 20
133.2211048145
 10
207.1500730478
 20
133.2600575146
 10
207.7856873547
 20
133.342990564
 10
208.3998492431
 20
133.4687397642
 10
208.9839372266
 20
133.6355398723
 10
209.5297519902
 20
133.8410493803
 10
210.0296314909
 20
134.0823833853
 10
210.4765585165
 20
134.3561540867
 10
210.864259191
 20
134.6585183442
 10
211.1872910469
 20
134.9852316262
 10
211.4411194251
 20
135.3317075945
 10
211.6221811314
 20
135.6930824859
 10
211.7279344565
 20
136.0642833892
 10
211.7568948554
 20
136.4400994573
 10
211.7086557877
 20
136.8152550564
 10
211.5838944241
 20
137.1844838244
 10
211.3843621406
 20
137.5426025985
 10
211.1128599332
 20
137.8845841763
 10
210.7731990978
 20
138.205627886
 10
210.3701477278
 20
138.5012269777
 10
209.909363781
 20
138.7672318881
 10
209.397315654
 20
138.9999084913
 10
208.8411913801
 20
139.1959905179
 10
208.2487977251
 20
139.3527254061
 10
207.6284505972
 20
139.4679129414
 10
206.9888583104
 20
139.5399361436
 10
206.3389993384
 20
139.5677839646
 10
205.6879962766
 20
139.5510654822
 10
205.044987781
 20
139.4900153871
 10
204.4190002813
 20
139.3854906889
 10
203.81882127
 20
139.2389586852
 10
203.2528759447
 20
139.0524763642
 10
202.7291089372
 20
138.8286615288
 10
202.2548727882
 20
138.5706560488
 10
201.8368247336
 20
138.2820817555
 10
201.4808332519
 20
137.9669895994
 10
201.191895683
 20
137.6298027838
 10
200.974068077
 20
137.2752546723
 10
200.8304082561
 20
136.9083223434
 10
200.7629328893
 20
136.5341567225
 10
200.7725891827
 20
136.1580102748
 10
200.8592415833
 20
135.7851632719
 10
201.0216736811
 20
135.4208496685
 10
201.2576052857
 20
135.0701836289
 10
201.5637244345
 20
134.7380877357
 10
201.9357338856
 20
134.4292238872
 10
202.3684114418
 20
134.1479278549
  0
LWPOLYLINE
  5
292
330
1F
100
AcDbEntity
  8
0
  6
Continuous
 62
     7
370
    30
100
AcDbPolyline
 90
       46
 70
   128
 43
0.0
 10
238.7844106729
 20
144.9653353365
 10
239.2055777051
 20
144.7539816946
 10
239.6735993167
 20
144.5785227215
 10
240.1793659995
 20
144.4423735263
 10
240.7130335803
 20
144.3481840985
 10
241.2642148267
 20
144.297787728
 10
241.8221816226
 20
144.2921653228
 10
242.3760737792
 20
144.3314263168
 10
242.9151104155
 20
144.4148065392
 10
243.4287997966
 20
144.540683089
 10
243.9071435431
 20
144.7066059222
 10
244.3408312379
 20
144.9093455396
 10
244.7214216435
 20
145.1449558453
 10
245.0415070005
 20
145.4088509526
 10
245.2948572115
 20
145.6958944433
 10
245.4765411028
 20
146.0004993426
 10
245.5830224042
 20
146.3167368625
 10
245.6122285783
 20
146.6384517993
 10
245.5635911601
 20
146.9593823378
 10
245.4380568215
 20
147.2732819302
 10
245.2380689458
 20
147.5740408778
 10
244.9675200695
 20
147.8558052499
 10
244.6316761186
 20
148.1130908235
 10
244.2370739136
 20
148.3408898276
 10
243.7913939377
 20
148.5347684136
 10
243.3033108446
 20
148.6909529555
 10
242.7823246166
 20
148.8064034987
 10
242.2385756578
 20
148.8788729298
 10
241.6826474234
 20
148.9069507137
 10
241.1253604241
 20
148.8900903483
 10
240.5775616173
 20
148.8286200014
 10
240.0499132837
 20
148.7237361234
 10
239.552685498
 20
148.5774801598
 10
239.0955562335
 20
148.3926988164
 10
238.6874229912
 20
148.1729886519
 10
238.3362296205
 20
147.9226260748
 10
238.0488117009
 20
147.6464841078
 10
237.8307634953
 20
147.3499375402
 10
237.6863290639
 20
147.0387583137
 10
237.6183196587
 20
146.7190031779
 10
237.6280590053
 20
146.3968958029
 10
237.7153575385
 20
146.0787056422
 10
237.8785160917
 20
145.7706259055
 10
238.1143589691
 20
145.4786530143
 10
238.4182957575
 20
145.2084698889
 10
238.7844106729
 20
144.9653353365
  0
LWPOLYLINE
  5
293
330
1F
100
AcDbEntity
  8
0
  6
Continuous
 62
     7
370
    30
100
AcDbPolyline
 90
       46
 70
   128
 43
0.0
 10
221.1067411433
 20
155.1704367343
 10
221.5279081754
 20
154.9590830924
 10
221.995929787
 20
154.7836241192
 10
222.5016964698
 20
154.6474749241
 10
223.0353640506
 20
154.5532854963
 10
223.586545297
 20
154.5028891257
 10
224.144512093
 20
154.4972667206
 10
224.6984042495
 20
154.5365277145
 10
225.2374408858
 20
154.619907937
 10
225.751130267
 20
154.7457844867
 10
226.2294740134
 20
154.91170732
 10
226.6631617083
 20
155.1144469374
 10
227.0437521138
 20
155.3500572431
 10
227.3638374708
 20
155.6139523503
 10
227.6171876818
 20
155.9009958411
 10
227.7988715732
 20
156.2056007404
 10
227.9053528746
 20
156.5218382602
 10
227.9345590486
 20
156.8435531971
 10
227.8859216304
 20
157.1644837356
 10
227.7603872919
 20
157.4783833279
 10
227.5603994162
 20
157.7791422756
 10
227.2898505398
 20
158.0609066477
 10
226.9540065889
 20
158.3181922213
 10
226.559404384
 20
158.5459912254
 10
226.1137244081
 20
158.7398698114
 10
225.625641315
 20
158.8960543532
 10
225.1046550869
 20
159.0115048965
 10
224.5609061282
 20
159.0839743275
 10
224.0049778938
 20
159.1120521114
 10
223.4476908944
 20
159.095191746
 10
222.8998920876
 20
159.0337213992
 10
222.3722437541
 20
158.9288375212
 10
221.8750159684
 20
158.7825815575
 10
221.4178867038
 20
158.5978002141
 10
221.0097534615
 20
158.3780900497
 10
220.6585600909
 20
158.1277274725
 10
220.3711421713
 20
157.8515855056
 10
220.1530939656
 20
157.555038938
 10
220.0086595342
 20
157.2438597115
 10
219.940650129
 20
156.9241045757
 10
219.9503894756
 20
156.6019972006
 10
220.0376880089
 20
156.28380704
 10
220.200846562
 20
155.9757273032
 10
220.4366894395
 20
155.6837544121
 10
220.7406262278
 20
155.4135712867
 10
221.1067411433
 20
155.1704367343
  0
LWPOLYLINE
  5
294
330
1F
100
AcDbEntity
  8
0
  6
Continuous
 62
     7
370
    30
100
AcDbPolyline
 90
       46
 70
   128
 43
0.0
 10
203.4290716136
 20
144.9653353365
 10
203.8502386457
 20
144.7539816946
 10
204.3182602574
 20
144.5785227215
 10
204.8240269402
 20
144.4423735263
 10
205.357694521
 20
144.3481840985
 10
205.9088757674
 20
144.297787728
 10
206.4668425633
 20
144.2921653228
 10
207.0207347199
 20
144.3314263168
 10
207.5597713562
 20
144.4148065392
 10
208.0734607373
 20
144.540683089
 10
208.5518044838
 20
144.7066059222
 10
208.9854921786
 20
144.9093455396
 10
209.3660825842
 20
145.1449558453
 10
209.6861679412
 20
145.4088509526
 10
209.9395181522
 20
145.6958944433
 10
210.1212020435
 20
146.0004993426
 10
210.2276833449
 20
146.3167368625
 10
210.256889519
 20
146.6384517993
 10
210.2082521007
 20
146.9593823378
 10
210.0827177622
 20
147.2732819302
 10
209.8827298865
 20
147.5740408778
 10
209.6121810101
 20
147.8558052499
 10
209.2763370592
 20
148.1130908235
 10
208.8817348543
 20
148.3408898276
 10
208.4360548784
 20
148.5347684136
 10
207.9479717853
 20
148.6909529555
 10
207.4269855572
 20
148.8064034987
 10
206.8832365985
 20
148.8788729298
 10
206.3273083641
 20
148.9069507137
 10
205.7700213647
 20
148.8900903483
 10
205.2222225579
 20
148.8286200014
 10
204.6945742244
 20
148.7237361234
 10
204.1973464387
 20
148.5774801598
 10
203.7402171741
 20
148.3926988164
 10
203.3320839319
 20
148.1729886519
 10
202.9808905612
 20
147.9226260748
 10
202.6934726416
 20
147.6464841078
 10
202.4754244359
 20
147.3499375402
 10
202.3309900046
 20
147.0387583137
 10
202.2629805993
 20
146.7190031779
 10
202.272719946
 20
146.3968958029
 10
202.3600184792
 20
146.0787056422
 10
202.5231770324
 20
145.7706259055
 10
202.7590199098
 20
145.4786530143
 10
203.0629566982
 20
145.2084698889
 10
203.4290716136
 20
144.9653353365
  0
LWPOLYLINE
  5
295
330
1F
100
AcDbEntity
  8
0
  6
Continuous
 62
     7
370
    30
100
AcDbPolyline
 90
       46
 70
   128
 43
0.0
 10
221.1067411433
 20
134.7602339387
 10
221.5279081754
 20
134.5488802968
 10
221.995929787
 20
134.3734213237
 10
222.5016964698
 20
134.2372721285
 10
223.0353640506
 20
134.1430827007
 10
223.586545297
 20
134.0926863302
 10
224.144512093
 20
134.087063925
 10
224.6984042495
 20
134.126324919
 10
225.2374408858
 20
134.2097051414
 10
225.751130267
 20
134.3355816912
 10
226.2294740134
 20
134.5015045244
 10
226.6631617083
 20
134.7042441419
 10
227.0437521138
 20
134.9398544475
 10
227.3638374708
 20
135.2037495548
 10
227.6171876818
 20
135.4907930456
 10
227.7988715732
 20
135.7953979448
 10
227.9053528746
 20
136.1116354647
 10
227.9345590486
 20
136.4333504015
 10
227.8859216304
 20
136.75428094
 10
227.7603872919
 20
137.0681805324
 10
227.5603994162
 20
137.36893948
 10
227.2898505398
 20
137.6507038521
 10
226.9540065889
 20
137.9079894257
 10
226.559404384
 20
138.1357884298
 10
226.1137244081
 20
138.3296670158
 10
225.625641315
 20
138.4858515577
 10
225.1046550869
 20
138.6013021009
 10
224.5609061282
 20
138.673771532
 10
224.0049778938
 20
138.7018493159
 10
223.4476908944
 20
138.6849889505
 10
222.8998920876
 20
138.6235186036
 10
222.3722437541
 20
138.5186347256
 10
221.8750159684
 20
138.372378762
 10
221.4178867038
 20
138.1875974186
 10
221.0097534615
 20
137.9678872541
 10
220.6585600909
 20
137.717524677
 10
220.3711421713
 20
137.44138271
 10
220.1530939656
 20
137.1448361424
 10
220.0086595342
 20
136.8336569159
 10
219.940650129
 20
136.5139017801
 10
219.9503894756
 20
136.1917944051
 10
220.0376880089
 20
135.8736042444
 10
220.200846562
 20
135.5655245077
 10
220.4366894395
 20
135.2735516165
 10
220.7406262278
 20
135.0033684911
 10
221.1067411433
 20
134.7602339387
  0
ARC
  5
296
330
1F
100
AcDbEntity
  8
0
  6
Continuous
 62
     7
370
    30
100
AcDbCircle
 10
223.935168268
 20
118.828814884
 30
0.0
 40
4.591106920648955
100
AcDbArc
 50
242.4805390039
 51
297.5194609961
  0
LINE
  5
297
330
1F
100
AcDbEntity
  8
0
  6
Continuous
 62
     7
370
    30
100
AcDbLine
 10
226.0564886116
 20
114.7571735986
 30
0.0
 11
267.7757887016
 21
138.8412128973
 31
0.0
  0
LINE
  5
298
330
1F
100
AcDbEntity
  8
0
  6
Continuous
 62
     7
370
    30
100
AcDbLine
 10
180.0945478344
 20
138.8412128973
 30
0.0
 11
221.8138479245
 21
114.7571735986
 31
0.0
  0
ARC
  5
299
330
1F
100
AcDbEntity
  8
0
  6
Continuous
 62
     7
370
    30
100
AcDbCircle
 10
241.6128377977
 20
126.0001141962
 30
0.0
 40
8.679883517723175
100
AcDbArc
 50
66.2256974244
 51
113.7743025756
  0
ARC
  5
29A
330
1F
100
AcDbEntity
  8
0
  6
Continuous
 62
     7
370
    30
100
AcDbCircle
 10
206.2574987383
 20
126.0001141962
 30
0.0
 40
8.679883517723226
100
AcDbArc
 50
66.2256974244
 51
113.7743025756
  0
ARC
  5
29B
330
1F
100
AcDbEntity
  8
0
  6
Continuous
 62
     7
370
    30
100
AcDbCircle
 10
223.935168268
 20
128.8268610616
 30
0.0
 40
6.293443975735238
100
AcDbArc
 50
66.4619715056
 51
113.5380284944
  0
ARC
  5
29C
330
1F
100
AcDbEntity
  8
0
  6
Continuous
 62
     7
370
    30
100
AcDbCircle
 10
241.6128377977
 20
127.8310880679
 30
0.0
 40
5.568476299951861
100
AcDbArc
 50
78.3558668871
 51
101.6441331129
  0
ARC
  5
29D
330
1F
100
AcDbEntity
  8
0
  6
Continuous
 62
     7
370
    30
100
AcDbCircle
 10
206.2574987383
 20
127.8310880679
 30
0.0
 40
5.568476299951789
100
AcDbArc
 50
78.3558668871
 51
101.6441331129
  0
LWPOLYLINE
  5
29E
330
1F
100
AcDbEntity
  8
0
  6
Continuous
 62
     7
370
    30
100
AcDbPolyline
 90
        3
 70
   128
 43
0.0
 10
224.2107705097
 20
134.0893869358
 10
224.03908105
 20
134.0977819861
 10
223.6595660264
 20
134.0893869358
  0
ARC
  5
29F
330
1F
100
AcDbEntity
  8
0
  6
Continuous
 62
     7
370
    30
100
AcDbCircle
 10
223.935168268
 20
136.205215594
 30
0.0
 40
8.67988351772333
100
AcDbArc
 50
66.2256974244
 51
113.7743025756
  0
ARC
  5
2A0
330
1F
100
AcDbEntity
  8
0
  6
Continuous
 62
     7
370
    30
100
AcDbCircle
 10
206.2574987383
 20
139.0319624593
 30
0.0
 40
6.293443975735487
100
AcDbArc
 50
66.4619715056
 51
113.5380284944
  0
ARC
  5
2A1
330
1F
100
AcDbEntity
  8
0
  6
Continuous
 62
     7
370
    30
100
AcDbCircle
 10
241.6128377977
 20
139.0319624593
 30
0.0
 40
6.293443975734926
100
AcDbArc
 50
66.4619715056
 51
113.5380284944
  0
ARC
  5
2A2
330
1F
100
AcDbEntity
  8
0
  6
Continuous
 62
     7
370
    30
100
AcDbCircle
 10
223.935168268
 20
138.0361894657
 30
0.0
 40
5.568476299953172
100
AcDbArc
 50
78.3558668871
 51
101.6441331129
  0
LWPOLYLINE
  5
2A3
330
1F
100
AcDbEntity
  8
0
  6
Continuous
 62
     7
370
    30
100
AcDbPolyline
 90
        3
 70
   128
 43
0.0
 10
206.53310098
 20
144.2944883336
 10
206.3614115203
 20
144.3028833839
 10
205.9818964967
 20
144.2944883336
  0
LWPOLYLINE
  5
2A4
330
1F
100
AcDbEntity
  8
0
  6
Continuous
 62
     7
370
    30
100
AcDbPolyline
 90
        3
 70
   128
 43
0.0
 10
241.8884400393
 20
144.2944883336
 10
241.7167505796
 20
144.3028833839
 10
241.337235556
 20
144.2944883336
  0
ARC
  5
2A5
330
1F
100
AcDbEntity
  8
0
  6
Continuous
 62
     7
370
    30
100
AcDbCircle
 10
267.1548693704
 20
140.2142726128
 30
0.0
 40
1.506928597490764
100
AcDbArc
 50
294.333235592
 51
354.3466234504
  0
ARC
  5
2A6
330
1F
100
AcDbEntity
  8
0
  6
Continuous
 62
     7
370
    30
100
AcDbCircle
 10
180.6791969203
 20
140.1882481068
 30
0.0
 40
1.468440808843273
100
AcDbArc
 50
184.7822660226
 51
246.537874935
  0
ARC
  5
2A7
330
1F
100
AcDbEntity
  8
0
  6
Continuous
 62
     7
370
    30
100
AcDbCircle
 10
241.6128377977
 20
146.4103169917
 30
0.0
 40
8.679883517723043
100
AcDbArc
 50
66.2256974244
 51
113.7743025756
  0
ARC
  5
2A8
330
1F
100
AcDbEntity
  8
0
  6
Continuous
 62
     7
370
    30
100
AcDbCircle
 10
206.2574987383
 20
146.4103169917
 30
0.0
 40
8.679883517723281
100
AcDbArc
 50
66.2256974244
 51
113.7743025756
  0
ARC
  5
2A9
330
1F
100
AcDbEntity
  8
0
  6
Continuous
 62
     7
370
    30
100
AcDbCircle
 10
223.935168268
 20
149.2370638571
 30
0.0
 40
6.293443975735044
100
AcDbArc
 50
66.4619715056
 51
113.5380284944
  0
ARC
  5
2AA
330
1F
100
AcDbEntity
  8
0
  6
Continuous
 62
     7
370
    30
100
AcDbCircle
 10
241.6128377977
 20
148.2412908635
 30
0.0
 40
5.568476299950572
100
AcDbArc
 50
78.3558668871
 51
101.6441331129
  0
ARC
  5
2AB
330
1F
100
AcDbEntity
  8
0
  6
Continuous
 62
     7
370
    30
100
AcDbCircle
 10
206.2574987383
 20
148.2412908635
 30
0.0
 40
5.568476299951252
100
AcDbArc
 50
78.3558668871
 51
101.6441331129
  0
LWPOLYLINE
  5
2AC
330
1F
100
AcDbEntity
  8
0
  6
Continuous
 62
     7
370
    30
100
AcDbPolyline
 90
        3
 70
   128
 43
0.0
 10
224.2107705097
 20
154.4995897314
 10
224.03908105
 20
154.5079847816
 10
223.6595660264
 20
154.4995897314
  0
LINE
  5
2AD
330
1F
100
AcDbEntity
  8
0
  6
PHANTOM
 62
     8
370
     0
100
AcDbLine
 10
226.0564886116
 20
121.2895000937
 30
0.0
 11
226.0564886116
 21
114.7571735986
 31
0.0
  0
LINE
  5
2AE
330
1F
100
AcDbEntity
  8
0
  6
PHANTOM
 62
     8
370
     0
100
AcDbLine
 10
221.8138479245
 20
114.7571735986
 30
0.0
 11
221.8138479245
 21
121.2895000937
 31
0.0
  0
LINE
  5
2AF
330
1F
100
AcDbEntity
  8
0
  6
PHANTOM
 62
     8
370
     0
100
AcDbLine
 10
267.7757887016
 20
138.8412128973
 30
0.0
 11
267.7757887016
 21
145.3735393924
 31
0.0
  0
LINE
  5
2B0
330
1F
100
AcDbEntity
  8
0
  6
PHANTOM
 62
     8
370
     0
100
AcDbLine
 10
180.0945478344
 20
145.3735393924
 30
0.0
 11
180.0945478344
 21
138.8412128973
 31
0.0
  0
LWPOLYLINE
  5
2B1
330
1F
100
AcDbEntity
  8
0
  6
Continuous
 62
     7
370
     0
100
AcDbPolyline
 90
       36
 70
   128
 43
0.0
 10
252.5727748871
 20
140.270988727
 10
252.1601257551
 20
140.0720064103
 10
251.6923484202
 20
139.9187782716
 10
251.1846935811
 20
139.81623207
 10
250.6534793123
 20
139.767661215
 10
250.1157783801
 20
139.7746278239
 10
249.5888749436
 20
139.8369075965
 10
249.0897014993
 20
139.9524993198
 10
248.6343028255
 20
140.1176879759
 10
248.2373157325
 20
140.3271641156
 10
247.9115001786
 20
140.5741941738
 10
247.6673283386
 20
140.8508394479
 10
247.5126461119
 20
141.1482077698
 10
247.452427485
 20
141.4567420545
 10
247.4886079202
 20
141.766524056
 10
247.6200224525
 20
142.067599032
 10
247.8424491527
 20
142.350289764
 10
248.1487382034
 20
142.605509817
 10
248.5290456811
 20
142.8250566507
 10
248.9711476828
 20
143.001873556
 10
249.460835452
 20
143.1302777569
 10
249.9823697751
 20
143.2061421317
 10
250.5189860845
 20
143.2270286524
 10
251.0534403923
 20
143.1922647989
 10
251.5685539065
 20
143.1029690303
 10
252.0477688424
 20
142.9620112473
 10
252.4756844782
 20
142.7739223118
 10
252.8385464534
 20
142.5447461609
 10
253.1246926032
 20
142.2818501025
 10
253.324925695
 20
141.993683787
 10
253.4328084563
 20
141.6895085275
 10
253.444876943
 20
141.3791007667
 10
253.3607406381
 20
141.0724372969
 10
253.183105501
 20
140.7793740161
 10
252.9176784786
 20
140.5093322889
 10
252.5729936489
 20
140.270988727
  0
LWPOLYLINE
  5
2B2
330
1F
100
AcDbEntity
  8
0
  6
Continuous
 62
     7
370
     0
100
AcDbPolyline
 90
       36
 70
   128
 43
0.0
 10
217.2175645828
 20
160.6811918268
 10
216.804787486
 20
160.4822087497
 10
216.337008834
 20
160.3289813713
 10
215.829355312
 20
160.2264344093
 10
215.2981410432
 20
160.1778635544
 10
214.760440111
 20
160.1848301633
 10
214.2335353574
 20
160.2471106962
 10
213.7343619131
 20
160.3627024195
 10
213.2789632393
 20
160.5278910756
 10
212.8819761463
 20
160.7373672153
 10
212.5561605924
 20
160.9843972735
 10
212.3119887525
 20
161.2610425476
 10
212.1573078428
 20
161.5584101091
 10
212.0970892159
 20
161.8669443939
 10
212.1332683341
 20
162.1767271557
 10
212.2646828663
 20
162.4778021317
 10
212.4871095666
 20
162.7604928637
 10
212.7933986172
 20
163.0157129167
 10
213.173706095
 20
163.2352597504
 10
213.6158080966
 20
163.4120766557
 10
214.1054958658
 20
163.5404808566
 10
214.6270301889
 20
163.6163452314
 10
215.1636478154
 20
163.6372309918
 10
215.6981021232
 20
163.6024671383
 10
216.2132143203
 20
163.51317213
 10
216.6924292562
 20
163.372214347
 10
217.1203448921
 20
163.1841254115
 10
217.4832068672
 20
162.9549492607
 10
217.769353017
 20
162.6920532022
 10
217.9695861089
 20
162.4038868867
 10
218.0774701872
 20
162.0997108669
 10
218.0895386739
 20
161.7893031061
 10
218.005402369
 20
161.4826396362
 10
217.8277659149
 20
161.1895771158
 10
217.5623402095
 20
160.9195346282
 10
217.2176540627
 20
160.6811918268
  0
LWPOLYLINE
  5
2B3
330
1F
100
AcDbEntity
  8
0
  6
Continuous
 62
     7
370
     0
100
AcDbPolyline
 90
       36
 70
   128
 43
0.0
 10
199.539899826
 20
150.4760902769
 10
199.1271176929
 20
150.2771071999
 10
198.6593396995
 20
150.1238802017
 10
198.151685519
 20
150.0213328595
 10
197.6204712501
 20
149.9727620045
 10
197.0827709765
 20
149.9797289936
 10
196.5558655644
 20
150.0420091464
 10
196.0566927786
 20
150.1576012498
 10
195.6012941048
 20
150.322789906
 10
195.2043063532
 20
150.5322656654
 10
194.8784914579
 20
150.7792961038
 10
194.6343189594
 20
151.0559409977
 10
194.4796387083
 20
151.3533089394
 10
194.4194194228
 20
151.661842844
 10
194.455598541
 20
151.9716256059
 10
194.5870137318
 20
152.272700962
 10
194.809440432
 20
152.555391694
 10
195.1157294827
 20
152.810611747
 10
195.4960369604
 20
153.0301585807
 10
195.9381389621
 20
153.206975486
 10
196.4278267313
 20
153.3353796869
 10
196.9493603959
 20
153.4112436816
 10
197.4859780224
 20
153.4321294419
 10
198.0204329887
 20
153.3973659686
 10
198.5355445272
 20
153.3080705801
 10
199.0147601217
 20
153.1671131773
 10
199.442675099
 20
152.9790238616
 10
199.8055377327
 20
152.749848091
 10
200.0916838825
 20
152.4869520325
 10
200.2919163158
 20
152.1987853369
 10
200.3998010527
 20
151.8946096972
 10
200.4118688808
 20
151.5842015563
 10
200.3277325759
 20
151.2775380864
 10
200.1500967803
 20
150.9844759462
 10
199.8846704164
 20
150.7144330784
 10
199.5399842697
 20
150.4760902769
  0
LWPOLYLINE
  5
2B4
330
1F
100
AcDbEntity
  8
0
  6
Continuous
 62
     7
370
     0
100
AcDbPolyline
 90
       36
 70
   128
 43
0.0
 10
234.8952293396
 20
130.0658871772
 10
234.482455962
 20
129.8669048605
 10
234.0146792856
 20
129.713677102
 10
233.507023788
 20
129.6111305201
 10
232.9758095192
 20
129.5625596652
 10
232.4381092455
 20
129.5695266542
 10
231.9112051505
 20
129.6318060467
 10
231.4120323647
 20
129.7473981501
 10
230.9566336909
 20
129.9125868063
 10
230.5596459394
 20
130.1220625657
 10
230.233831044
 20
130.3690930041
 10
229.9896585456
 20
130.645737898
 10
229.8349769773
 20
130.9431066001
 10
229.7747576919
 20
131.2516405046
 10
229.8109381272
 20
131.5614225062
 10
229.9423533179
 20
131.8624978623
 10
230.1647800182
 20
132.1451885943
 10
230.4710690689
 20
132.4004086473
 10
230.8513765466
 20
132.619955481
 10
231.2934785482
 20
132.7967723863
 10
231.7831663175
 20
132.9251765872
 10
232.304699982
 20
133.0010405819
 10
232.8413162914
 20
133.0219271026
 10
233.3757712578
 20
132.9871636292
 10
233.8908841134
 20
132.8978674804
 10
234.3700997078
 20
132.7569100776
 10
234.7980146851
 20
132.5688207619
 10
235.1608773189
 20
132.3396449913
 10
235.4470234687
 20
132.0767489328
 10
235.6472559019
 20
131.7885822372
 10
235.7551393218
 20
131.4844073578
 10
235.7672071499
 20
131.1739992169
 10
235.683070845
 20
130.867335747
 10
235.5054363665
 20
130.5742728465
 10
235.2400086855
 20
130.304230739
 10
234.8953238558
 20
130.0658871772
  0
LWPOLYLINE
  5
2B5
330
1F
100
AcDbEntity
  8
0
  6
Continuous
 62
     7
370
     0
100
AcDbPolyline
 90
       36
 70
   128
 43
0.0
 10
190.7011270523
 20
145.373539502
 10
190.2882827964
 20
145.1745564249
 10
189.8205041444
 20
145.0213290466
 10
189.3128506224
 20
144.9187820845
 10
188.7816370121
 20
144.8702116098
 10
188.2439354214
 20
144.8771778385
 10
187.7170313264
 20
144.9394587516
 10
187.2178572235
 20
145.0550500947
 10
186.7624592082
 20
145.220239131
 10
186.3654714567
 20
145.4297148905
 10
186.0396565613
 20
145.6767453289
 10
185.7954840629
 20
145.9533902228
 10
185.6408038117
 20
146.2507581645
 10
185.5805851848
 20
146.5592924493
 10
185.616764303
 20
146.8690752111
 10
185.7481794938
 20
147.1701505673
 10
185.9706055355
 20
147.4528409191
 10
186.2768945862
 20
147.7080609721
 10
186.6572014053
 20
147.9276074256
 10
187.0993047241
 20
148.1044250913
 10
187.5889918348
 20
148.232828912
 10
188.1105261579
 20
148.3086932868
 10
188.6471437844
 20
148.3295790472
 10
189.1815987507
 20
148.2948155738
 10
189.6967096307
 20
148.2055198052
 10
190.1759258837
 20
148.0645627825
 10
190.6038402024
 20
147.8764730867
 10
190.9667034947
 20
147.6472976962
 10
191.2528489859
 20
147.3844012576
 10
191.4530820778
 20
147.0962349421
 10
191.5609661562
 20
146.7920589223
 10
191.5730346428
 20
146.4816511615
 10
191.4888976794
 20
146.1749873115
 10
191.3112618838
 20
145.8819251712
 10
191.0458355199
 20
145.6118823035
 10
190.7011493731
 20
145.373539502
  0
LWPOLYLINE
  5
2B6
330
1F
100
AcDbEntity
  8
0
  6
Continuous
 62
     7
370
     0
100
AcDbPolyline
 90
       36
 70
   128
 43
0.0
 10
226.0564565659
 20
165.7837426017
 10
225.6436223825
 20
165.5847595246
 10
225.1758437305
 20
165.4315321463
 10
224.6681902086
 20
165.3289851843
 10
224.1369752812
 20
165.2804139491
 10
223.5992750075
 20
165.2873809382
 10
223.0723695954
 20
165.349661091
 10
222.5731968096
 20
165.4652531944
 10
222.1177974773
 20
165.6304414704
 10
221.7208110428
 20
165.8399179902
 10
221.3949948304
 20
166.0869476682
 10
221.150823649
 20
166.3635933225
 10
220.9961420808
 20
166.6609605039
 10
220.9359234539
 20
166.9694947886
 10
220.9721025721
 20
167.2792775505
 10
221.1035177628
 20
167.5803529066
 10
221.3259438046
 20
167.8630432584
 10
221.6322341723
 20
168.1182640718
 10
222.0125409915
 20
168.3378105253
 10
222.4546429931
 20
168.5146274306
 10
222.9443301038
 20
168.6430312514
 10
223.4658644269
 20
168.7188956262
 10
224.0024820534
 20
168.7397813865
 10
224.5369370198
 20
168.7050179132
 10
225.0520492168
 20
168.6157229049
 10
225.5312641528
 20
168.4747651219
 10
225.9591797886
 20
168.2866761864
 10
226.3220417638
 20
168.0575000356
 10
226.6081885721
 20
167.7946043573
 10
226.8084203469
 20
167.5064372815
 10
226.9163057423
 20
167.202262022
 10
226.9283729119
 20
166.8918535009
 10
226.8442372656
 20
166.5851904112
 10
226.66660147
 20
166.2921282709
 10
226.401175106
 20
166.0220854032
 10
226.0564889593
 20
165.7837426017
  0
LWPOLYLINE
  5
2B7
330
1F
100
AcDbEntity
  8
0
  6
Continuous
 62
     7
370
     0
100
AcDbPolyline
 90
       36
 70
   128
 43
0.0
 10
261.4116668701
 20
145.373539502
 10
260.9989606516
 20
145.1745571853
 10
260.5311833167
 20
145.0213290466
 10
260.0235284777
 20
144.9187828449
 10
259.4923135503
 20
144.8702116098
 10
258.9546132766
 20
144.8771785988
 10
258.4277091816
 20
144.9394579913
 10
257.9285363958
 20
145.0550500947
 10
257.4731370635
 20
145.2202383707
 10
257.076150629
 20
145.4297148905
 10
256.7503344166
 20
145.6767445685
 10
256.5061632352
 20
145.9533902228
 10
256.3514803499
 20
146.2507581645
 10
256.291261723
 20
146.5592924493
 10
256.3274421582
 20
146.8690744508
 10
256.458857349
 20
147.1701498069
 10
256.6812833907
 20
147.4528401587
 10
256.9875737585
 20
147.7080609721
 10
257.3678805777
 20
147.9276074256
 10
257.8099825793
 20
148.1044243309
 10
258.29966969
 20
148.2328281517
 10
258.8212040131
 20
148.3086925265
 10
259.3578203225
 20
148.3295790472
 10
259.8922752889
 20
148.2948155738
 10
260.407388803
 20
148.2055198052
 10
260.8866037389
 20
148.0645620222
 10
261.3145193748
 20
147.8764730867
 10
261.6773813499
 20
147.6472969359
 10
261.9635281583
 20
147.3844012576
 10
262.163759933
 20
147.0962341818
 10
262.2716440114
 20
146.7920596826
 10
262.283711181
 20
146.4816511615
 10
262.1995755346
 20
146.1749880718
 10
262.0219410561
 20
145.8819251712
 10
261.7565133751
 20
145.6118830638
 10
261.4118285454
 20
145.373539502
  0
LWPOLYLINE
  5
2B8
330
1F
100
AcDbEntity
  8
0
  6
Continuous
 62
     7
370
     0
100
AcDbPolyline
 90
       36
 70
   128
 43
0.0
 10
226.0564565659
 20
124.9633364023
 10
225.6436210654
 20
124.7643540856
 10
225.1758437305
 20
124.6111259469
 10
224.6681888915
 20
124.5085797452
 10
224.1369752812
 20
124.4600092704
 10
223.5992736904
 20
124.4669754991
 10
223.0723709125
 20
124.5292556519
 10
222.5731968096
 20
124.644846995
 10
222.1177987944
 20
124.8100360313
 10
221.7208110428
 20
125.0195117908
 10
221.3949961475
 20
125.2665422292
 10
221.150823649
 20
125.5431871231
 10
220.9961420808
 20
125.8405558252
 10
220.9359234539
 20
126.1490901099
 10
220.9721038892
 20
126.4588721114
 10
221.1035190799
 20
126.7599474676
 10
221.3259451217
 20
127.0426378193
 10
221.6322341723
 20
127.2978578724
 10
222.0125409915
 20
127.5174043259
 10
222.4546443102
 20
127.6942219915
 10
222.9443314209
 20
127.8226258123
 10
223.465865744
 20
127.8984901871
 10
224.0024820534
 20
127.9193767078
 10
224.5369370198
 20
127.8846132344
 10
225.0520492168
 20
127.7953167055
 10
225.5312654699
 20
127.6543596828
 10
225.9591797886
 20
127.466269987
 10
226.3220430809
 20
127.2370945965
 10
226.6081885721
 20
126.9741981579
 10
226.8084216639
 20
126.6860318424
 10
226.9163044252
 20
126.3818565829
 10
226.9283729119
 20
126.0714488221
 10
226.8442359485
 20
125.7647849721
 10
226.66660147
 20
125.4717220715
 10
226.4011737889
 20
125.2016799641
 10
226.0564889593
 20
124.9633364023
  0
LINE
  5
2B9
330
1F
100
AcDbEntity
  8
0
  6
Continuous
 62
     7
370
    30
100
AcDbLine
 10
64.4241048539
 20
46.9151351986
 30
0.0
 11
123.4241048539
 21
46.9151351986
 31
0.0
  0
LINE
  5
2BA
330
1F
100
AcDbEntity
  8
0
  6
Continuous
 62
     7
370
    30
100
AcDbLine
 10
64.4241048539
 20
38.9151351986
 30
0.0
 11
123.4241048539
 21
38.9151351986
 31
0.0
  0
LINE
  5
2BB
330
1F
100
AcDbEntity
  8
0
  6
Continuous
 62
     7
370
    30
100
AcDbLine
 10
61.4241048539
 20
38.9151351986
 30
0.0
 11
61.4241048539
 21
46.9151351986
 31
0.0
  0
LINE
  5
2BC
330
1F
100
AcDbEntity
  8
0
  6
Continuous
 62
     7
370
    30
100
AcDbLine
 10
61.4241048539
 20
46.9151351986
 30
0.0
 11
64.4241048539
 21
46.9151351986
 31
0.0
  0
LINE
  5
2BD
330
1F
100
AcDbEntity
  8
0
  6
Continuous
 62
     7
370
    30
100
AcDbLine
 10
64.4241048539
 20
38.9151351986
 30
0.0
 11
61.4241048539
 21
38.9151351986
 31
0.0
  0
LINE
  5
2BE
330
1F
100
AcDbEntity
  8
0
  6
Continuous
 62
     7
370
    30
100
AcDbLine
 10
126.4241048539
 20
46.9151351986
 30
0.0
 11
126.4241048539
 21
38.9151351986
 31
0.0
  0
LINE
  5
2BF
330
1F
100
AcDbEntity
  8
0
  6
Continuous
 62
     7
370
    30
100
AcDbLine
 10
123.4241048539
 20
46.9151351986
 30
0.0
 11
126.4241048539
 21
46.9151351986
 31
0.0
  0
LINE
  5
2C0
330
1F
100
AcDbEntity
  8
0
  6
Continuous
 62
     7
370
    30
100
AcDbLine
 10
126.4241048539
 20
38.9151351986
 30
0.0
 11
123.4241048539
 21
38.9151351986
 31
0.0
  0
LINE
  5
2C1
330
1F
100
AcDbEntity
  8
0
  6
PHANTOM
 62
     8
370
     0
100
AcDbLine
 10
123.4241048539
 20
38.9151351986
 30
0.0
 11
123.4241048539
 21
46.9151351986
 31
0.0
  0
LINE
  5
2C2
330
1F
100
AcDbEntity
  8
0
  6
PHANTOM
 62
     8
370
     0
100
AcDbLine
 10
64.4241048539
 20
46.9151351986
 30
0.0
 11
64.4241048539
 21
38.9151351986
 31
0.0
  0
DIMENSION
  5
2C3
330
1F
100
AcDbEntity
  8
SLD-0
 62
     7
100
AcDbDimension
  2
_D_13
 10
136.7962291326
 20
38.9151351986
 30
0.0
 11
136.7962291326
 21
42.9151351986
 31
0.0
 70
   160
  1
<>
 71
     2
 42
-1.0
  3
SLDDIMSTYLE0
100
AcDbAlignedDimension
 13
126.4241048539
 23
46.9151351986
 33
0.0
 14
126.4241048539
 24
38.9151351986
 34
0.0
 50
90.0
100
AcDbRotatedDimension
  0
ENDSEC
  0
SECTION
  2
OBJECTS
  0
DICTIONARY
  5
C
330
0
100
AcDbDictionary
281
     1
  3
ACAD_GROUP
350
D
  3
ACAD_LAYOUT
350
1A
  3
ACAD_MLINESTYLE
350
17
  3
ACAD_PLOTSETTINGS
350
19
  3
ACAD_PLOTSTYLENAME
350
E
  3
ACAD_SCALELIST
350
47
  0
DICTIONARY
  5
D
102
{ACAD_REACTORS
330
C
102
}
330
C
100
AcDbDictionary
281
     1
  0
DICTIONARY
  5
1A
102
{ACAD_REACTORS
330
C
102
}
330
C
100
AcDbDictionary
281
     1
  3
Layout1
350
1E
  3
Layout2
350
26
  3
Model
350
22
  0
DICTIONARY
  5
17
102
{ACAD_REACTORS
330
C
102
}
330
C
100
AcDbDictionary
281
     1
  3
Standard
350
18
  0
DICTIONARY
  5
19
102
{ACAD_REACTORS
330
C
102
}
330
C
100
AcDbDictionary
281
     1
  0
ACDBDICTIONARYWDFLT
  5
E
102
{ACAD_REACTORS
330
C
102
}
330
C
100
AcDbDictionary
281
     1
  3
Normal
350
F
100
AcDbDictionaryWithDefault
340
F
  0
DICTIONARY
  5
47
102
{ACAD_REACTORS
330
C
102
}
330
C
100
AcDbDictionary
281
     1
  3
A0
350
48
  3
A1
350
49
  3
A2
350
4A
  3
A3
350
4B
  3
A4
350
4C
  3
A5
350
4D
  3
A6
350
4E
  3
A7
350
4F
  3
A8
350
50
  3
A9
350
51
  3
B0
350
52
  3
B1
350
53
  3
B2
350
54
  3
B3
350
55
  3
B4
350
56
  3
B5
350
57
  3
B6
350
58
  3
B7
350
59
  3
B8
350
5A
  3
B9
350
5B
  3
C0
350
5C
  3
C1
350
5D
  3
C2
350
5E
  3
C3
350
5F
  3
C4
350
60
  3
C5
350
61
  3
C6
350
62
  3
C7
350
63
  3
C8
350
64
  3
C9
350
65
  3
D0
350
66
  3
D1
350
67
  3
D2
350
68
  0
LAYOUT
  5
1E
102
{ACAD_REACTORS
330
1A
102
}
330
1A
100
AcDbPlotSettings
  1

  2
none_device
  4

  6

 40
0.0
 41
0.0
 42
0.0
 43
0.0
 44
0.0
 45
0.0
 46
0.0
 47
0.0
 48
0.0
 49
0.0
140
0.0
141
0.0
142
1.0
143
1.0
 70
   688
 72
     1
 73
     0
 74
     5
  7

 75
    16
147
1.0
148
0.0
149
0.0
100
AcDbLayout
  1
Layout1
 70
     1
 71
     1
 10
0.0
 20
0.0
 11
420.0
 21
297.0
 12
0.0
 22
0.0
 32
0.0
 14
1.0000000000E+20
 24
1.0000000000E+20
 34
1.0000000000E+20
 15
-1.0000000000E+20
 25
-1.0000000000E+20
 35
-1.0000000000E+20
146
0.0
 13
0.0
 23
0.0
 33
0.0
 16
1.0
 26
0.0
 36
0.0
 17
0.0
 27
1.0
 37
0.0
 76
     0
330
1B
  0
LAYOUT
  5
26
102
{ACAD_REACTORS
330
1A
102
}
330
1A
100
AcDbPlotSettings
  1

  2
none_device
  4

  6

 40
0.0
 41
0.0
 42
0.0
 43
0.0
 44
0.0
 45
0.0
 46
0.0
 47
0.0
 48
0.0
 49
0.0
140
0.0
141
0.0
142
1.0
143
1.0
 70
   688
 72
     1
 73
     0
 74
     5
  7

 75
    16
147
1.0
148
0.0
149
0.0
100
AcDbLayout
  1
Layout2
 70
     1
 71
     2
 10
0.0
 20
0.0
 11
0.0
 21
0.0
 12
0.0
 22
0.0
 32
0.0
 14
0.0
 24
0.0
 34
0.0
 15
0.0
 25
0.0
 35
0.0
146
0.0
 13
0.0
 23
0.0
 33
0.0
 16
1.0
 26
0.0
 36
0.0
 17
0.0
 27
1.0
 37
0.0
 76
     0
330
23
  0
LAYOUT
  5
22
102
{ACAD_REACTORS
330
1A
102
}
330
1A
100
AcDbPlotSettings
  1

  2
none_device
  4
Letter_(8.50_x_11.00_Inches)
  6

 40
6.35
 41
6.35
 42
6.35000508
 43
6.35000508
 44
215.9
 45
279.4
 46
0.0
 47
0.0
 48
0.0
 49
0.0
140
0.0
141
0.0
142
1.0
143
1.0
 70
  1712
 72
     1
 73
     0
 74
     0
  7

 75
     0
147
1.0
148
0.0
149
0.0
100
AcDbLayout
  1
Model
 70
     1
 71
     0
 10
0.0
 20
0.0
 11
297.0
 21
210.0
 12
0.0
 22
0.0
 32
0.0
 14
0.0
 24
0.0
 34
0.0
 15
297.0
 25
210.0
 35
0.0
146
0.0
 13
0.0
 23
0.0
 33
0.0
 16
1.0
 26
0.0
 36
0.0
 17
0.0
 27
1.0
 37
0.0
 76
     0
330
1F
331
29
  0
MLINESTYLE
  5
18
102
{ACAD_REACTORS
330
17
102
}
330
17
100
AcDbMlineStyle
  2
Standard
 70
     0
  3

 62
   256
 51
90.0
 52
90.0
 71
     2
 49
0.5
 62
   256
  6
BYLAYER
 49
-0.5
 62
   256
  6
BYLAYER
  0
ACDBPLACEHOLDER
  5
F
102
{ACAD_REACTORS
330
E
102
}
330
E
  0
SCALE
  5
48
102
{ACAD_REACTORS
330
47
102
}
330
47
100
AcDbScale
 70
     0
300
1:1
140
1.0
141
1.0
290
     1
  0
SCALE
  5
49
102
{ACAD_REACTORS
330
47
102
}
330
47
100
AcDbScale
 70
     0
300
1:2
140
1.0
141
2.0
290
     0
  0
SCALE
  5
4A
102
{ACAD_REACTORS
330
47
102
}
330
47
100
AcDbScale
 70
     0
300
1:4
140
1.0
141
4.0
290
     0
  0
SCALE
  5
4B
102
{ACAD_REACTORS
330
47
102
}
330
47
100
AcDbScale
 70
     0
300
1:5
140
1.0
141
5.0
290
     0
  0
SCALE
  5
4C
102
{ACAD_REACTORS
330
47
102
}
330
47
100
AcDbScale
 70
     0
300
1:8
140
1.0
141
8.0
290
     0
  0
SCALE
  5
4D
102
{ACAD_REACTORS
330
47
102
}
330
47
100
AcDbScale
 70
     0
300
1:10
140
1.0
141
10.0
290
     0
  0
SCALE
  5
4E
102
{ACAD_REACTORS
330
47
102
}
330
47
100
AcDbScale
 70
     0
300
1:16
140
1.0
141
16.0
290
     0
  0
SCALE
  5
4F
102
{ACAD_REACTORS
330
47
102
}
330
47
100
AcDbScale
 70
     0
300
1:20
140
1.0
141
20.0
290
     0
  0
SCALE
  5
50
102
{ACAD_REACTORS
330
47
102
}
330
47
100
AcDbScale
 70
     0
300
1:30
140
1.0
141
30.0
290
     0
  0
SCALE
  5
51
102
{ACAD_REACTORS
330
47
102
}
330
47
100
AcDbScale
 70
     0
300
1:40
140
1.0
141
40.0
290
     0
  0
SCALE
  5
52
102
{ACAD_REACTORS
330
47
102
}
330
47
100
AcDbScale
 70
     0
300
1:50
140
1.0
141
50.0
290
     0
  0
SCALE
  5
53
102
{ACAD_REACTORS
330
47
102
}
330
47
100
AcDbScale
 70
     0
300
1:100
140
1.0
141
100.0
290
     0
  0
SCALE
  5
54
102
{ACAD_REACTORS
330
47
102
}
330
47
100
AcDbScale
 70
     0
300
2:1
140
2.0
141
1.0
290
     0
  0
SCALE
  5
55
102
{ACAD_REACTORS
330
47
102
}
330
47
100
AcDbScale
 70
     0
300
4:1
140
4.0
141
1.0
290
     0
  0
SCALE
  5
56
102
{ACAD_REACTORS
330
47
102
}
330
47
100
AcDbScale
 70
     0
300
8:1
140
8.0
141
1.0
290
     0
  0
SCALE
  5
57
102
{ACAD_REACTORS
330
47
102
}
330
47
100
AcDbScale
 70
     0
300
10:1
140
10.0
141
1.0
290
     0
  0
SCALE
  5
58
102
{ACAD_REACTORS
330
47
102
}
330
47
100
AcDbScale
 70
     0
300
100:1
140
100.0
141
1.0
290
     0
  0
SCALE
  5
59
102
{ACAD_REACTORS
330
47
102
}
330
47
100
AcDbScale
 70
     0
300
1/128" = 1'-0"
140
0.0078125
141
12.0
290
     0
  0
SCALE
  5
5A
102
{ACAD_REACTORS
330
47
102
}
330
47
100
AcDbScale
 70
     0
300
1/64" = 1'-0"
140
0.015625
141
12.0
290
     0
  0
SCALE
  5
5B
102
{ACAD_REACTORS
330
47
102
}
330
47
100
AcDbScale
 70
     0
300
1/32" = 1'-0"
140
0.03125
141
12.0
290
     0
  0
SCALE
  5
5C
102
{ACAD_REACTORS
330
47
102
}
330
47
100
AcDbScale
 70
     0
300
1/16" = 1'-0"
140
0.0625
141
12.0
290
     0
  0
SCALE
  5
5D
102
{ACAD_REACTORS
330
47
102
}
330
47
100
AcDbScale
 70
     0
300
3/32" = 1'-0"
140
0.09375
141
12.0
290
     0
  0
SCALE
  5
5E
102
{ACAD_REACTORS
330
47
102
}
330
47
100
AcDbScale
 70
     0
300
1/8" = 1'-0"
140
0.125
141
12.0
290
     0
  0
SCALE
  5
5F
102
{ACAD_REACTORS
330
47
102
}
330
47
100
AcDbScale
 70
     0
300
3/16" = 1'-0"
140
0.1875
141
12.0
290
     0
  0
SCALE
  5
60
102
{ACAD_REACTORS
330
47
102
}
330
47
100
AcDbScale
 70
     0
300
1/4" = 1'-0"
140
0.25
141
12.0
290
     0
  0
SCALE
  5
61
102
{ACAD_REACTORS
330
47
102
}
330
47
100
AcDbScale
 70
     0
300
3/8" = 1'-0"
140
0.375
141
12.0
290
     0
  0
SCALE
  5
62
102
{ACAD_REACTORS
330
47
102
}
330
47
100
AcDbScale
 70
     0
300
1/2" = 1'-0"
140
0.5
141
12.0
290
     0
  0
SCALE
  5
63
102
{ACAD_REACTORS
330
47
102
}
330
47
100
AcDbScale
 70
     0
300
3/4" = 1'-0"
140
0.75
141
12.0
290
     0
  0
SCALE
  5
64
102
{ACAD_REACTORS
330
47
102
}
330
47
100
AcDbScale
 70
     0
300
1" = 1'-0"
140
1.0
141
12.0
290
     0
  0
SCALE
  5
65
102
{ACAD_REACTORS
330
47
102
}
330
47
100
AcDbScale
 70
     0
300
1-1/2" = 1'-0"
140
1.5
141
12.0
290
     0
  0
SCALE
  5
66
102
{ACAD_REACTORS
330
47
102
}
330
47
100
AcDbScale
 70
     0
300
3" = 1'-0"
140
3.0
141
12.0
290
     0
  0
SCALE
  5
67
102
{ACAD_REACTORS
330
47
102
}
330
47
100
AcDbScale
 70
     0
300
6" = 1'-0"
140
6.0
141
12.0
290
     0
  0
SCALE
  5
68
102
{ACAD_REACTORS
330
47
102
}
330
47
100
AcDbScale
 70
     0
300
1'-0" = 1'-0"
140
12.0
141
12.0
290
     0
  0
ENDSEC
  0
EOF
