  0
SECTION
  2
HEADER
  9
$ACADVER
  1
AC1015
  9
$ACADMAINTVER
 70
     6
  9
$DWGCODEPAGE
  3
ANSI_950
  9
$INSBASE
 10
0.0
 20
0.0
 30
0.0
  9
$EXTMIN
 10
0.0
 20
0.0
 30
0.0
  9
$EXTMAX
 10
297.0
 20
210.0
 30
0.0
  9
$LIMMIN
 10
0.0
 20
0.0
  9
$LIMMAX
 10
297.0
 20
210.0
  9
$ORTHOMODE
 70
     0
  9
$REGENMODE
 70
     1
  9
$FILLMODE
 70
     1
  9
$QTEXTMODE
 70
     0
  9
$MIRRTEXT
 70
     1
  9
$LTSCALE
 40
1.0
  9
$ATTMODE
 70
     1
  9
$TEXTSIZE
 40
2.5
  9
$TRACEWID
 40
1.0
  9
$TEXTSTYLE
  7
Standard
  9
$CLAYER
  8
0
  9
$CELTYPE
  6
ByLayer
  9
$CECOLOR
 62
   256
  9
$CELTSCALE
 40
1.0
  9
$DISPSILH
 70
     0
  9
$DIMSCALE
 40
1.0
  9
$DIMASZ
 40
2.0
  9
$DIMEXO
 40
1.0
  9
$DIMDLI
 40
3.75
  9
$DIMRND
 40
0.0
  9
$DIMDLE
 40
0.0
  9
$DIMEXE
 40
1.0
  9
$DIMTP
 40
0.0
  9
$DIMTM
 40
0.0
  9
$DIMTXT
 40
2.5
  9
$DIMCEN
 40
2.5
  9
$DIMTSZ
 40
0.0
  9
$DIMTOL
 70
     0
  9
$DIMLIM
 70
     0
  9
$DIMTIH
 70
     1
  9
$DIMTOH
 70
     1
  9
$DIMSE1
 70
     0
  9
$DIMSE2
 70
     0
  9
$DIMTAD
 70
     1
  9
$DIMZIN
 70
     0
  9
$DIMBLK
  1

  9
$DIMASO
 70
     1
  9
$DIMSHO
 70
     1
  9
$DIMPOST
  1

  9
$DIMAPOST
  1

  9
$DIMALT
 70
     0
  9
$DIMALTD
 70
     3
  9
$DIMALTF
 40
0.0393700787
  9
$DIMLFAC
 40
1.0
  9
$DIMTOFL
 70
     1
  9
$DIMTVP
 40
0.0
  9
$DIMTIX
 70
     0
  9
$DIMSOXD
 70
     0
  9
$DIMSAH
 70
     0
  9
$DIMBLK1
  1

  9
$DIMBLK2
  1

  9
$DIMSTYLE
  2
ISO-25
  9
$DIMCLRD
 70
     0
  9
$DIMCLRE
 70
     0
  9
$DIMCLRT
 70
     0
  9
$DIMTFAC
 40
1.0
  9
$DIMGAP
 40
1.0
  9
$DIMJUST
 70
     0
  9
$DIMSD1
 70
     0
  9
$DIMSD2
 70
     0
  9
$DIMTOLJ
 70
     0
  9
$DIMTZIN
 70
     0
  9
$DIMALTZ
 70
     0
  9
$DIMALTTZ
 70
     0
  9
$DIMUPT
 70
     0
  9
$DIMDEC
 70
     2
  9
$DIMTDEC
 70
     2
  9
$DIMALTU
 70
     2
  9
$DIMALTTD
 70
     3
  9
$DIMTXSTY
  7
Standard
  9
$DIMAUNIT
 70
     0
  9
$DIMADEC
 70
     1
  9
$DIMALTRND
 40
0.0
  9
$DIMAZIN
 70
     0
  9
$DIMDSEP
 70
    44
  9
$DIMATFIT
 70
     3
  9
$DIMFRAC
 70
     0
  9
$DIMLDRBLK
  1

  9
$DIMLUNIT
 70
     2
  9
$DIMLWD
 70
    -2
  9
$DIMLWE
 70
    -2
  9
$DIMTMOVE
 70
     0
  9
$LUNITS
 70
     2
  9
$LUPREC
 70
     2
  9
$SKETCHINC
 40
1.0
  9
$FILLETRAD
 40
10.0
  9
$AUNITS
 70
     0
  9
$AUPREC
 70
     1
  9
$MENU
  1
.
  9
$ELEVATION
 40
0.0
  9
$PELEVATION
 40
0.0
  9
$THICKNESS
 40
0.0
  9
$LIMCHECK
 70
     0
  9
$CHAMFERA
 40
0.0
  9
$CHAMFERB
 40
0.0
  9
$CHAMFERC
 40
0.0
  9
$CHAMFERD
 40
0.0
  9
$SKPOLY
 70
     0
  9
$TDCREATE
 40
2457527.612355231
  9
$TDUCREATE
 40
2457527.279021898
  9
$TDUPDATE
 40
2457527.612359572
  9
$TDUUPDATE
 40
2457527.279026238
  9
$TDINDWG
 40
0.0000000116
  9
$TDUSRTIMER
 40
0.0000000116
  9
$USRTIMER
 70
     1
  9
$ANGBASE
 50
0.0
  9
$ANGDIR
 70
     0
  9
$PDMODE
 70
     0
  9
$PDSIZE
 40
-1.0
  9
$PLINEWID
 40
0.0
  9
$SPLFRAME
 70
     0
  9
$SPLINETYPE
 70
     6
  9
$SPLINESEGS
 70
     8
  9
$HANDSEED
  5
2C8
  9
$SURFTAB1
 70
     6
  9
$SURFTAB2
 70
     6
  9
$SURFTYPE
 70
     6
  9
$SURFU
 70
     6
  9
$SURFV
 70
     6
  9
$UCSBASE
  2

  9
$UCSNAME
  2

  9
$UCSORG
 10
0.0
 20
0.0
 30
0.0
  9
$UCSXDIR
 10
1.0
 20
0.0
 30
0.0
  9
$UCSYDIR
 10
0.0
 20
1.0
 30
0.0
  9
$UCSORTHOREF
  2

  9
$UCSORTHOVIEW
 70
     0
  9
$UCSORGTOP
 10
0.0
 20
0.0
 30
0.0
  9
$UCSORGBOTTOM
 10
0.0
 20
0.0
 30
0.0
  9
$UCSORGLEFT
 10
0.0
 20
0.0
 30
0.0
  9
$UCSORGRIGHT
 10
0.0
 20
0.0
 30
0.0
  9
$UCSORGFRONT
 10
0.0
 20
0.0
 30
0.0
  9
$UCSORGBACK
 10
0.0
 20
0.0
 30
0.0
  9
$PUCSBASE
  2

  9
$PUCSNAME
  2

  9
$PUCSORG
 10
0.0
 20
0.0
 30
0.0
  9
$PUCSXDIR
 10
1.0
 20
0.0
 30
0.0
  9
$PUCSYDIR
 10
0.0
 20
1.0
 30
0.0
  9
$PUCSORTHOREF
  2

  9
$PUCSORTHOVIEW
 70
     0
  9
$PUCSORGTOP
 10
0.0
 20
0.0
 30
0.0
  9
$PUCSORGBOTTOM
 10
0.0
 20
0.0
 30
0.0
  9
$PUCSORGLEFT
 10
0.0
 20
0.0
 30
0.0
  9
$PUCSORGRIGHT
 10
0.0
 20
0.0
 30
0.0
  9
$PUCSORGFRONT
 10
0.0
 20
0.0
 30
0.0
  9
$PUCSORGBACK
 10
0.0
 20
0.0
 30
0.0
  9
$USERI1
 70
     0
  9
$USERI2
 70
     0
  9
$USERI3
 70
     0
  9
$USERI4
 70
     0
  9
$USERI5
 70
     0
  9
$USERR1
 40
0.0
  9
$USERR2
 40
0.0
  9
$USERR3
 40
0.0
  9
$USERR4
 40
0.0
  9
$USERR5
 40
0.0
  9
$WORLDVIEW
 70
     1
  9
$SHADEDGE
 70
     3
  9
$SHADEDIF
 70
    70
  9
$TILEMODE
 70
     1
  9
$MAXACTVP
 70
    64
  9
$PINSBASE
 10
0.0
 20
0.0
 30
0.0
  9
$PLIMCHECK
 70
     0
  9
$PEXTMIN
 10
1.0000000000E+20
 20
1.0000000000E+20
 30
1.0000000000E+20
  9
$PEXTMAX
 10
-1.0000000000E+20
 20
-1.0000000000E+20
 30
-1.0000000000E+20
  9
$PLIMMIN
 10
0.0
 20
0.0
  9
$PLIMMAX
 10
420.0
 20
297.0
  9
$UNITMODE
 70
     0
  9
$VISRETAIN
 70
     1
  9
$PLINEGEN
 70
     0
  9
$PSLTSCALE
 70
     1
  9
$TREEDEPTH
 70
  3020
  9
$CMLSTYLE
  2
Standard
  9
$CMLJUST
 70
     0
  9
$CMLSCALE
 40
20.0
  9
$PROXYGRAPHICS
 70
     1
  9
$MEASUREMENT
 70
     1
  9
$CELWEIGHT
370
    -1
  9
$ENDCAPS
280
     0
  9
$JOINSTYLE
280
     0
  9
$LWDISPLAY
290
     1
  9
$INSUNITS
 70
     4
  9
$HYPERLINKBASE
  1

  9
$STYLESHEET
  1

  9
$XEDIT
290
     1
  9
$CEPSNTYPE
380
     0
  9
$PSTYLEMODE
290
     1
  9
$FINGERPRINTGUID
  2
{D984D089-AD0F-40D3-B7DC-5336FB8D7732}
  9
$VERSIONGUID
  2
{FAEB1C32-E019-11D5-929B-00C0DF256EC4}
  9
$EXTNAMES
290
     1
  9
$PSVPSCALE
 40
0.0
  9
$OLESTARTUP
290
     0
  0
ENDSEC
  0
SECTION
  2
CLASSES
  0
CLASS
  1
ACDBDICTIONARYWDFLT
  2
AcDbDictionaryWithDefault
  3
ObjectDBX Classes
 90
        0
280
     0
281
     0
  0
CLASS
  1
VISUALSTYLE
  2
AcDbVisualStyle
  3
ObjectDBX Classes
 90
     4095
280
     0
281
     0
  0
CLASS
  1
MATERIAL
  2
AcDbMaterial
  3
ObjectDBX Classes
 90
     1153
280
     0
281
     0
  0
CLASS
  1
SCALE
  2
AcDbScale
  3
ObjectDBX Classes
 90
     1153
280
     0
281
     0
  0
CLASS
  1
TABLESTYLE
  2
AcDbTableStyle
  3
ObjectDBX Classes
 90
     4095
280
     0
281
     0
  0
CLASS
  1
MLEADERSTYLE
  2
AcDbMLeaderStyle
  3
ACDB_MLEADERSTYLE_CLASS
 90
     4095
280
     0
281
     0
  0
CLASS
  1
SUN
  2
AcDbSun
  3
SCENEOE
 90
     1153
280
     0
281
     0
  0
CLASS
  1
ACDBPLACEHOLDER
  2
AcDbPlaceHolder
  3
ObjectDBX Classes
 90
        0
280
     0
281
     0
  0
CLASS
  1
LAYOUT
  2
AcDbLayout
  3
ObjectDBX Classes
 90
        0
280
     0
281
     0
  0
ENDSEC
  0
SECTION
  2
TABLES
  0
TABLE
  2
VPORT
  5
8
330
0
100
AcDbSymbolTable
 70
     1
  0
VPORT
  5
29
330
8
100
AcDbSymbolTableRecord
100
AcDbViewportTableRecord
  2
*Active
 70
     0
 10
0.0
 20
0.0
 11
1.0
 21
1.0
 12
148.5
 22
105.0
 13
0.0
 23
0.0
 14
10.0
 24
10.0
 15
10.0
 25
10.0
 16
0.0
 26
0.0
 36
1.0
 17
0.0
 27
0.0
 37
0.0
 40
210.0
 41
1.4142857143
 42
50.0
 43
0.0
 44
0.0
 50
0.0
 51
0.0
 71
     0
 72
  2000
 73
     1
 74
     3
 75
     0
 76
     0
 77
     0
 78
     0
281
     0
 65
     1
110
0.0
120
0.0
130
0.0
111
1.0
121
0.0
131
0.0
112
0.0
122
1.0
132
0.0
 79
     0
146
0.0
  0
ENDTAB
  0
TABLE
  2
LTYPE
  5
5
330
0
100
AcDbSymbolTable
 70
     6
  0
LTYPE
  5
14
330
5
100
AcDbSymbolTableRecord
100
AcDbLinetypeTableRecord
  2
ByBlock
 70
     0
  3

 72
    65
 73
     0
 40
0.0
  0
LTYPE
  5
15
330
5
100
AcDbSymbolTableRecord
100
AcDbLinetypeTableRecord
  2
ByLayer
 70
     0
  3

 72
    65
 73
     0
 40
0.0
  0
LTYPE
  5
16
330
5
100
AcDbSymbolTableRecord
100
AcDbLinetypeTableRecord
  2
Continuous
 70
     0
  3
Solid line
 72
    65
 73
     0
 40
0.0
  0
LTYPE
  5
6E
330
5
100
AcDbSymbolTableRecord
100
AcDbLinetypeTableRecord
  2
HIDDEN
 70
     0
  3
Hidden __ __ __ __ __ __ __ __ __ __ __ __ __ __
 72
    65
 73
     2
 40
1.905
 49
1.27
 74
     0
 49
-0.635
 74
     0
  0
LTYPE
  5
6F
330
5
100
AcDbSymbolTableRecord
100
AcDbLinetypeTableRecord
  2
PHANTOM
 70
     0
  3
Phantom ______  __  __  ______  __  __  ______
 72
    65
 73
     6
 40
12.7
 49
6.35
 74
     0
 49
-1.27
 74
     0
 49
1.27
 74
     0
 49
-1.27
 74
     0
 49
1.27
 74
     0
 49
-1.27
 74
     0
  0
LTYPE
  5
70
330
5
100
AcDbSymbolTableRecord
100
AcDbLinetypeTableRecord
  2
CENTER
 70
     0
  3
Center ____ _ ____ _ ____ _ ____ _ ____ _ ____
 72
    65
 73
     4
 40
10.16
 49
6.35
 74
     0
 49
-1.27
 74
     0
 49
1.27
 74
     0
 49
-1.27
 74
     0
  0
LTYPE
  5
71
330
5
100
AcDbSymbolTableRecord
100
AcDbLinetypeTableRecord
  2
CENTERX2
 70
     0
  3
Center (2x) ________  __  ________  __  _____
 72
    65
 73
     4
 40
20.32
 49
12.7
 74
     0
 49
-2.54
 74
     0
 49
2.54
 74
     0
 49
-2.54
 74
     0
  0
LTYPE
  5
72
330
5
100
AcDbSymbolTableRecord
100
AcDbLinetypeTableRecord
  2
DOT2
 70
     0
  3
Dot (.5x) ........................................
 72
    65
 73
     2
 40
0.635
 49
0.0
 74
     0
 49
-0.635
 74
     0
  0
ENDTAB
  0
TABLE
  2
LAYER
  5
2
330
0
100
AcDbSymbolTable
 70
     3
  0
LAYER
  5
10
330
2
100
AcDbSymbolTableRecord
100
AcDbLayerTableRecord
  2
0
 70
     0
 62
     7
  6
Continuous
370
    -3
390
F
  0
LAYER
  5
73
330
2
100
AcDbSymbolTableRecord
100
AcDbLayerTableRecord
  2
SLD-0
 70
     0
 62
     7
  6
Continuous
370
    15
390
F
  0
LAYER
  5
74
330
2
100
AcDbSymbolTableRecord
100
AcDbLayerTableRecord
  2
DIM
 70
     0
 62
     7
  6
Continuous
370
    -3
390
F
  0
ENDTAB
  0
TABLE
  2
STYLE
  5
3
330
0
100
AcDbSymbolTable
 70
     3
  0
STYLE
  5
11
330
3
100
AcDbSymbolTableRecord
100
AcDbTextStyleTableRecord
  2
Standard
 70
     0
 40
0.0
 41
1.0
 50
0.0
 71
     0
 42
2.5
  3
txt
  4

  0
STYLE
  5
C5
330
3
100
AcDbSymbolTableRecord
100
AcDbTextStyleTableRecord
  2
SLDTEXTSTYLE0
 70
     0
 40
0.0
 41
0.605
 50
0.0
 71
     0
 42
2.5
  3
TXT
  4

  0
STYLE
  5
CE
330
3
100
AcDbSymbolTableRecord
100
AcDbTextStyleTableRecord
  2
SLDTEXTSTYLE1
 70
     0
 40
0.0
 41
0.7
 50
0.0
 71
     0
 42
2.5
  3
TXT
  4

  0
ENDTAB
  0
TABLE
  2
VIEW
  5
6
330
0
100
AcDbSymbolTable
 70
     0
  0
ENDTAB
  0
TABLE
  2
UCS
  5
7
330
0
100
AcDbSymbolTable
 70
     0
  0
ENDTAB
  0
TABLE
  2
APPID
  5
9
330
0
100
AcDbSymbolTable
 70
     1
  0
APPID
  5
12
330
9
100
AcDbSymbolTableRecord
100
AcDbRegAppTableRecord
  2
ACAD
 70
     0
  0
ENDTAB
  0
TABLE
  2
DIMSTYLE
  5
A
330
0
100
AcDbSymbolTable
 70
     3
100
AcDbDimStyleTable
  0
DIMSTYLE
105
27
330
A
100
AcDbSymbolTableRecord
100
AcDbDimStyleTableRecord
  2
ISO-25
 70
     0
 41
2.5
 42
0.625
 43
3.75
 44
1.25
 73
     0
 74
     0
 77
     1
 78
     8
140
2.5
141
2.5
143
0.0393700787
147
0.625
171
     3
172
     1
178
     0
271
     2
272
     2
274
     3
278
    44
283
     0
284
     8
340
11
  0
DIMSTYLE
105
127
102
{ACAD_REACTORS
330
126
330
131
330
13B
330
145
330
14F
330
159
330
163
330
189
330
193
330
19D
330
2BE
102
}
330
A
100
AcDbSymbolTableRecord
100
AcDbDimStyleTableRecord
  2
SLDDIMSTYLE0
 70
     0
 41
2.0
 44
0.0
 45
0.000000001
 73
     0
 74
     0
 77
     1
 78
    12
 79
     3
140
2.5
147
0.625
173
     1
178
     0
271
     2
272
     2
276
     2
284
    12
340
C5
  0
DIMSTYLE
105
16E
102
{ACAD_REACTORS
330
16D
330
177
330
180
102
}
330
A
100
AcDbSymbolTableRecord
100
AcDbDimStyleTableRecord
  2
SLDDIMSTYLE1
 70
     0
  3
<>
 41
2.0
 44
0.0
 45
0.000000001
 78
    12
 79
     3
140
2.5
141
0.0
147
0.625
173
     1
178
     0
271
     2
272
     2
276
     2
284
    12
340
C5
  0
ENDTAB
  0
TABLE
  2
BLOCK_RECORD
  5
1
330
0
100
AcDbSymbolTable
 70
    34
  0
BLOCK_RECORD
  5
1F
330
1
100
AcDbSymbolTableRecord
100
AcDbBlockTableRecord
  2
*Model_Space
340
22
  0
BLOCK_RECORD
  5
1B
330
1
100
AcDbSymbolTableRecord
100
AcDbBlockTableRecord
  2
*Paper_Space
340
1E
  0
BLOCK_RECORD
  5
23
330
1
100
AcDbSymbolTableRecord
100
AcDbBlockTableRecord
  2
*Paper_Space0
340
26
  0
BLOCK_RECORD
  5
C7
330
1
100
AcDbSymbolTableRecord
100
AcDbBlockTableRecord
  2
SW_NOTE_0
340
0
102
{BLKREFS
331
CD
102
}
  0
BLOCK_RECORD
  5
FD
330
1
100
AcDbSymbolTableRecord
100
AcDbBlockTableRecord
  2
SW_NOTE_1
340
0
102
{BLKREFS
331
102
102
}
  0
BLOCK_RECORD
  5
128
330
1
100
AcDbSymbolTableRecord
100
AcDbBlockTableRecord
  2
_D
340
0
  0
BLOCK_RECORD
  5
132
330
1
100
AcDbSymbolTableRecord
100
AcDbBlockTableRecord
  2
_D_1
340
0
  0
BLOCK_RECORD
  5
13C
330
1
100
AcDbSymbolTableRecord
100
AcDbBlockTableRecord
  2
_D_2
340
0
  0
BLOCK_RECORD
  5
146
330
1
100
AcDbSymbolTableRecord
100
AcDbBlockTableRecord
  2
_D_3
340
0
  0
BLOCK_RECORD
  5
150
330
1
100
AcDbSymbolTableRecord
100
AcDbBlockTableRecord
  2
_D_4
340
0
  0
BLOCK_RECORD
  5
15A
330
1
100
AcDbSymbolTableRecord
100
AcDbBlockTableRecord
  2
_D_5
340
0
  0
BLOCK_RECORD
  5
164
330
1
100
AcDbSymbolTableRecord
100
AcDbBlockTableRecord
  2
_D_6
340
0
  0
BLOCK_RECORD
  5
16F
330
1
100
AcDbSymbolTableRecord
100
AcDbBlockTableRecord
  2
_D_7
340
0
  0
BLOCK_RECORD
  5
178
330
1
100
AcDbSymbolTableRecord
100
AcDbBlockTableRecord
  2
_D_8
340
0
  0
BLOCK_RECORD
  5
181
330
1
100
AcDbSymbolTableRecord
100
AcDbBlockTableRecord
  2
_D_9
340
0
  0
BLOCK_RECORD
  5
18A
330
1
100
AcDbSymbolTableRecord
100
AcDbBlockTableRecord
  2
_D_10
340
0
  0
BLOCK_RECORD
  5
194
330
1
100
AcDbSymbolTableRecord
100
AcDbBlockTableRecord
  2
_D_11
340
0
  0
BLOCK_RECORD
  5
19E
330
1
100
AcDbSymbolTableRecord
100
AcDbBlockTableRecord
  2
_D_12
340
0
  0
BLOCK_RECORD
  5
1A7
330
1
100
AcDbSymbolTableRecord
100
AcDbBlockTableRecord
  2
SW_CENTERMARKSYMBOL_0
340
0
102
{BLKREFS
331
1B2
102
}
  0
BLOCK_RECORD
  5
1B3
330
1
100
AcDbSymbolTableRecord
100
AcDbBlockTableRecord
  2
SW_CENTERMARKSYMBOL_1
340
0
102
{BLKREFS
331
1BE
102
}
  0
BLOCK_RECORD
  5
1BF
330
1
100
AcDbSymbolTableRecord
100
AcDbBlockTableRecord
  2
SW_CENTERMARKSYMBOL_2
340
0
102
{BLKREFS
331
1CA
102
}
  0
BLOCK_RECORD
  5
1CB
330
1
100
AcDbSymbolTableRecord
100
AcDbBlockTableRecord
  2
SW_CENTERMARKSYMBOL_3
340
0
102
{BLKREFS
331
1D6
102
}
  0
BLOCK_RECORD
  5
1D7
330
1
100
AcDbSymbolTableRecord
100
AcDbBlockTableRecord
  2
SW_CENTERMARKSYMBOL_4
340
0
102
{BLKREFS
331
1E2
102
}
  0
BLOCK_RECORD
  5
1E3
330
1
100
AcDbSymbolTableRecord
100
AcDbBlockTableRecord
  2
SW_CENTERMARKSYMBOL_5
340
0
102
{BLKREFS
331
1EE
102
}
  0
BLOCK_RECORD
  5
1EF
330
1
100
AcDbSymbolTableRecord
100
AcDbBlockTableRecord
  2
SW_CENTERMARKSYMBOL_6
340
0
102
{BLKREFS
331
1FA
102
}
  0
BLOCK_RECORD
  5
1FB
330
1
100
AcDbSymbolTableRecord
100
AcDbBlockTableRecord
  2
SW_CENTERMARKSYMBOL_7
340
0
102
{BLKREFS
331
206
102
}
  0
BLOCK_RECORD
  5
207
330
1
100
AcDbSymbolTableRecord
100
AcDbBlockTableRecord
  2
SW_CENTERMARKSYMBOL_8
340
0
102
{BLKREFS
331
212
102
}
  0
BLOCK_RECORD
  5
213
330
1
100
AcDbSymbolTableRecord
100
AcDbBlockTableRecord
  2
SW_CENTERMARKSYMBOL_9
340
0
102
{BLKREFS
331
21E
102
}
  0
BLOCK_RECORD
  5
21F
330
1
100
AcDbSymbolTableRecord
100
AcDbBlockTableRecord
  2
SW_CENTERMARKSYMBOL_10
340
0
102
{BLKREFS
331
22A
102
}
  0
BLOCK_RECORD
  5
22B
330
1
100
AcDbSymbolTableRecord
100
AcDbBlockTableRecord
  2
SW_CENTERMARKSYMBOL_11
340
0
102
{BLKREFS
331
236
102
}
  0
BLOCK_RECORD
  5
237
330
1
100
AcDbSymbolTableRecord
100
AcDbBlockTableRecord
  2
SW_CENTERMARKSYMBOL_12
340
0
102
{BLKREFS
331
242
102
}
  0
BLOCK_RECORD
  5
243
330
1
100
AcDbSymbolTableRecord
100
AcDbBlockTableRecord
  2
SW_CENTERMARKSYMBOL_13
340
0
102
{BLKREFS
331
24E
102
}
  0
BLOCK_RECORD
  5
24F
330
1
100
AcDbSymbolTableRecord
100
AcDbBlockTableRecord
  2
SW_CENTERMARKSYMBOL_14
340
0
102
{BLKREFS
331
25A
102
}
  0
BLOCK_RECORD
  5
25B
330
1
100
AcDbSymbolTableRecord
100
AcDbBlockTableRecord
  2
SW_CENTERMARKSYMBOL_15
340
0
102
{BLKREFS
331
266
102
}
  0
BLOCK_RECORD
  5
267
330
1
100
AcDbSymbolTableRecord
100
AcDbBlockTableRecord
  2
SW_CENTERMARKSYMBOL_16
340
0
102
{BLKREFS
331
272
102
}
  0
BLOCK_RECORD
  5
2BF
330
1
100
AcDbSymbolTableRecord
100
AcDbBlockTableRecord
  2
_D_13
340
0
  0
ENDTAB
  0
ENDSEC
  0
SECTION
  2
BLOCKS
  0
BLOCK
  5
20
330
1F
100
AcDbEntity
  8
0
100
AcDbBlockBegin
  2
*Model_Space
 70
     0
 10
0.0
 20
0.0
 30
0.0
  3
*Model_Space
  1

  0
ENDBLK
  5
21
330
1F
100
AcDbEntity
  8
0
100
AcDbBlockEnd
  0
BLOCK
  5
1C
330
1B
100
AcDbEntity
 67
     1
  8
0
100
AcDbBlockBegin
  2
*Paper_Space
 70
     0
 10
0.0
 20
0.0
 30
0.0
  3
*Paper_Space
  1

  0
ENDBLK
  5
1D
330
1B
100
AcDbEntity
 67
     1
  8
0
100
AcDbBlockEnd
  0
BLOCK
  5
24
330
23
100
AcDbEntity
  8
0
100
AcDbBlockBegin
  2
*Paper_Space0
 70
     0
 10
0.0
 20
0.0
 30
0.0
  3
*Paper_Space0
  1

  0
ENDBLK
  5
25
330
23
100
AcDbEntity
  8
0
100
AcDbBlockEnd
  0
BLOCK
  5
C8
330
C7
100
AcDbEntity
  8
0
100
AcDbBlockBegin
  2
SW_NOTE_0
 70
     0
 10
0.0
 20
0.0
 30
0.0
  3
SW_NOTE_0
  1

  0
MTEXT
  5
CA
330
C7
100
AcDbEntity
  8
0
  6
Continuous
 62
     0
370
     0
100
AcDbMText
 10
0.0
 20
3.4106583948
 30
0.0
 40
2.6458333333
 41
0.0
 71
     1
 72
     1
  1
PROPRIETARY AND CONFIDENTIAL
  7
SLDTEXTSTYLE0
 73
     1
 44
1.0
  0
MTEXT
  5
CB
330
C7
100
AcDbEntity
  8
0
  6
Continuous
 62
     0
370
     0
100
AcDbMText
 10
0.0
 20
-0.08198348
 30
0.0
 40
1.8520833333
 41
0.0
 71
     1
 72
     1
  1
THE INFORMATION CONTAINED IN THIS DRAWING IS THE SOLE PROPERTY OF UNICE E-O SERVICES INC. ANY REPRODUCTION IN PART OR AS A WHOLE WITHOUT THE WRITTEN PERMISSION OF UNICE E-O SERVICES INC IS
  7
SLDTEXTSTYLE0
 73
     1
 44
1.0
  0
MTEXT
  5
CC
330
C7
100
AcDbEntity
  8
0
  6
Continuous
 62
     0
370
     0
100
AcDbMText
 10
0.0
 20
-2.5514278946
 30
0.0
 40
1.8520833333
 41
0.0
 71
     1
 72
     1
  1
PROHIBITED.
  7
SLDTEXTSTYLE0
 73
     1
 44
1.0
  0
ENDBLK
  5
C9
330
C7
100
AcDbEntity
  8
0
100
AcDbBlockEnd
  0
BLOCK
  5
FE
330
FD
100
AcDbEntity
  8
0
100
AcDbBlockBegin
  2
SW_NOTE_1
 70
     0
 10
0.0
 20
0.0
 30
0.0
  3
SW_NOTE_1
  1

  0
MTEXT
  5
100
330
FD
100
AcDbEntity
  8
SLD-0
 62
     0
100
AcDbMText
 10
0.0
 20
2.3874608764
 30
0.0
 40
1.8520833333
 41
0.0
 71
     1
 72
     1
  1
No.5, Andong Rd., Chung Li District,
  7
SLDTEXTSTYLE1
 73
     1
 44
1.0
  0
MTEXT
  5
101
330
FD
100
AcDbEntity
  8
SLD-0
 62
     0
100
AcDbMText
 10
0.0
 20
-0.0819835382
 30
0.0
 40
1.8520833333
 41
0.0
 71
     1
 72
     1
  1
Taoyuan City 32063, Taiwan, R.O.C.
  7
SLDTEXTSTYLE1
 73
     1
 44
1.0
  0
ENDBLK
  5
FF
330
FD
100
AcDbEntity
  8
0
100
AcDbBlockEnd
  0
BLOCK
  5
129
330
128
100
AcDbEntity
  8
0
100
AcDbBlockBegin
  2
_D
 70
     0
 10
0.0
 20
0.0
 30
0.0
  3
_D
  1

  0
SOLID
  5
12B
330
128
100
AcDbEntity
  8
SLD-0
100
AcDbTrace
 10
61.4241048539
 20
161.7629352107
 30
0.0
 11
63.4241048539
 21
161.5129352107
 31
0.0
 12
63.4241048539
 22
162.0129352107
 32
0.0
 13
63.4241048539
 23
162.0129352107
 33
0.0
  0
SOLID
  5
12C
330
128
100
AcDbEntity
  8
SLD-0
100
AcDbTrace
 10
126.4241048539
 20
161.7629352107
 30
0.0
 11
124.4241048539
 21
162.0129352107
 31
0.0
 12
124.4241048539
 22
161.5129352107
 32
0.0
 13
124.4241048539
 23
161.5129352107
 33
0.0
  0
LINE
  5
12D
330
128
100
AcDbEntity
  8
SLD-0
100
AcDbLine
 10
61.4241048539
 20
141.470429188
 30
0.0
 11
61.4241048539
 21
162.7629352107
 31
0.0
  0
LINE
  5
12E
330
128
100
AcDbEntity
  8
SLD-0
100
AcDbLine
 10
126.4241048539
 20
141.470429188
 30
0.0
 11
126.4241048539
 21
162.7629352107
 31
0.0
  0
LINE
  5
12F
330
128
100
AcDbEntity
  8
SLD-0
100
AcDbLine
 10
61.4241048539
 20
161.7629352107
 30
0.0
 11
126.4241048539
 21
161.7629352107
 31
0.0
  0
MTEXT
  5
130
330
128
100
AcDbEntity
  8
SLD-0
100
AcDbMText
 10
92.0143826291
 20
164.9856043855
 30
0.0
 40
2.5
 41
0.0
 71
     1
 72
     1
  1
65
  7
SLDTEXTSTYLE0
 73
     1
 44
1.0
  0
ENDBLK
  5
12A
330
128
100
AcDbEntity
  8
0
100
AcDbBlockEnd
  0
BLOCK
  5
133
330
132
100
AcDbEntity
  8
0
100
AcDbBlockBegin
  2
_D_1
 70
     0
 10
0.0
 20
0.0
 30
0.0
  3
_D_1
  1

  0
SOLID
  5
135
330
132
100
AcDbEntity
  8
SLD-0
100
AcDbTrace
 10
40.4241048539
 20
143.470429188
 30
0.0
 11
40.1741048539
 21
141.470429188
 31
0.0
 12
40.6741048539
 22
141.470429188
 32
0.0
 13
40.6741048539
 23
141.470429188
 33
0.0
  0
SOLID
  5
136
330
132
100
AcDbEntity
  8
SLD-0
100
AcDbTrace
 10
40.4241048539
 20
78.470429188
 30
0.0
 11
40.6741048539
 21
80.470429188
 31
0.0
 12
40.1741048539
 22
80.470429188
 32
0.0
 13
40.1741048539
 23
80.470429188
 33
0.0
  0
LINE
  5
137
330
132
100
AcDbEntity
  8
SLD-0
100
AcDbLine
 10
63.4241048539
 20
143.470429188
 30
0.0
 11
39.4241048539
 21
143.470429188
 31
0.0
  0
LINE
  5
138
330
132
100
AcDbEntity
  8
SLD-0
100
AcDbLine
 10
63.4241048539
 20
78.470429188
 30
0.0
 11
39.4241048539
 21
78.470429188
 31
0.0
  0
LINE
  5
139
330
132
100
AcDbEntity
  8
SLD-0
100
AcDbLine
 10
40.4241048539
 20
143.470429188
 30
0.0
 11
40.4241048539
 21
78.470429188
 31
0.0
  0
MTEXT
  5
13A
330
132
100
AcDbEntity
  8
SLD-0
100
AcDbMText
 10
37.2014356791
 20
109.0607069632
 30
0.0
 40
2.5
 41
0.0
 71
     1
 72
     1
  1
65
  7
SLDTEXTSTYLE0
 11
-7.044195017643634E-15
 21
1.0
 31
0.0
 73
     1
 44
1.0
  0
ENDBLK
  5
134
330
132
100
AcDbEntity
  8
0
100
AcDbBlockEnd
  0
BLOCK
  5
13D
330
13C
100
AcDbEntity
  8
0
100
AcDbBlockBegin
  2
_D_2
 70
     0
 10
0.0
 20
0.0
 30
0.0
  3
_D_2
  1

  0
SOLID
  5
13F
330
13C
100
AcDbEntity
  8
SLD-0
100
AcDbTrace
 10
81.2241048539
 20
148.9587402507
 30
0.0
 11
83.2241048539
 21
148.7087402507
 31
0.0
 12
83.2241048539
 22
149.2087402507
 32
0.0
 13
83.2241048539
 23
149.2087402507
 33
0.0
  0
SOLID
  5
140
330
13C
100
AcDbEntity
  8
SLD-0
100
AcDbTrace
 10
93.9241048539
 20
148.9587402507
 30
0.0
 11
91.9241048539
 21
149.2087402507
 31
0.0
 12
91.9241048539
 22
148.7087402507
 32
0.0
 13
91.9241048539
 23
148.7087402507
 33
0.0
  0
LINE
  5
141
330
13C
100
AcDbEntity
  8
SLD-0
100
AcDbLine
 10
81.2241048539
 20
129.639179188
 30
0.0
 11
81.2241048539
 21
149.9587402507
 31
0.0
  0
LINE
  5
142
330
13C
100
AcDbEntity
  8
SLD-0
100
AcDbLine
 10
93.9241048539
 20
137.370429188
 30
0.0
 11
93.9241048539
 21
149.9587402507
 31
0.0
  0
LINE
  5
143
330
13C
100
AcDbEntity
  8
SLD-0
100
AcDbLine
 10
81.2241048539
 20
148.9587402507
 30
0.0
 11
93.9241048539
 21
148.9587402507
 31
0.0
  0
MTEXT
  5
144
330
13C
100
AcDbEntity
  8
SLD-0
100
AcDbMText
 10
84.2320910478
 20
152.1814094255
 30
0.0
 40
2.5
 41
0.0
 71
     1
 72
     1
  1
12.7
  7
SLDTEXTSTYLE0
 73
     1
 44
1.0
  0
ENDBLK
  5
13E
330
13C
100
AcDbEntity
  8
0
100
AcDbBlockEnd
  0
BLOCK
  5
147
330
146
100
AcDbEntity
  8
0
100
AcDbBlockBegin
  2
_D_3
 70
     0
 10
0.0
 20
0.0
 30
0.0
  3
_D_3
  1

  0
SOLID
  5
149
330
146
100
AcDbEntity
  8
SLD-0
100
AcDbTrace
 10
93.9241048539
 20
149.3587402507
 30
0.0
 11
95.9241048539
 21
149.1087402507
 31
0.0
 12
95.9241048539
 22
149.6087402507
 32
0.0
 13
95.9241048539
 23
149.6087402507
 33
0.0
  0
SOLID
  5
14A
330
146
100
AcDbEntity
  8
SLD-0
100
AcDbTrace
 10
106.6241048539
 20
149.3587402507
 30
0.0
 11
104.6241048539
 21
149.6087402507
 31
0.0
 12
104.6241048539
 22
149.1087402507
 32
0.0
 13
104.6241048539
 23
149.1087402507
 33
0.0
  0
LINE
  5
14B
330
146
100
AcDbEntity
  8
SLD-0
100
AcDbLine
 10
93.9241048539
 20
137.370429188
 30
0.0
 11
93.9241048539
 21
150.3587402507
 31
0.0
  0
LINE
  5
14C
330
146
100
AcDbEntity
  8
SLD-0
100
AcDbLine
 10
106.6241048539
 20
124.670429188
 30
0.0
 11
106.6241048539
 21
150.3587402507
 31
0.0
  0
LINE
  5
14D
330
146
100
AcDbEntity
  8
SLD-0
100
AcDbLine
 10
93.9241048539
 20
149.3587402507
 30
0.0
 11
106.6241048539
 21
149.3587402507
 31
0.0
  0
MTEXT
  5
14E
330
146
100
AcDbEntity
  8
SLD-0
100
AcDbMText
 10
96.9320910478
 20
152.5814094255
 30
0.0
 40
2.5
 41
0.0
 71
     1
 72
     1
  1
12.7
  7
SLDTEXTSTYLE0
 73
     1
 44
1.0
  0
ENDBLK
  5
148
330
146
100
AcDbEntity
  8
0
100
AcDbBlockEnd
  0
BLOCK
  5
151
330
150
100
AcDbEntity
  8
0
100
AcDbBlockBegin
  2
_D_4
 70
     0
 10
0.0
 20
0.0
 30
0.0
  3
_D_4
  1

  0
SOLID
  5
153
330
150
100
AcDbEntity
  8
SLD-0
100
AcDbTrace
 10
55.4761553211
 20
123.670429188
 30
0.0
 11
55.2261553211
 21
121.670429188
 31
0.0
 12
55.7261553211
 22
121.670429188
 32
0.0
 13
55.7261553211
 23
121.670429188
 33
0.0
  0
SOLID
  5
154
330
150
100
AcDbEntity
  8
SLD-0
100
AcDbTrace
 10
55.4761553211
 20
110.970429188
 30
0.0
 11
55.7261553211
 21
112.970429188
 31
0.0
 12
55.2261553211
 22
112.970429188
 32
0.0
 13
55.2261553211
 23
112.970429188
 33
0.0
  0
LINE
  5
155
330
150
100
AcDbEntity
  8
SLD-0
100
AcDbLine
 10
67.5241048539
 20
123.670429188
 30
0.0
 11
54.4761553211
 21
123.670429188
 31
0.0
  0
LINE
  5
156
330
150
100
AcDbEntity
  8
SLD-0
100
AcDbLine
 10
67.5241048539
 20
110.970429188
 30
0.0
 11
54.4761553211
 21
110.970429188
 31
0.0
  0
LINE
  5
157
330
150
100
AcDbEntity
  8
SLD-0
100
AcDbLine
 10
55.4761553211
 20
123.670429188
 30
0.0
 11
55.4761553211
 21
110.970429188
 31
0.0
  0
MTEXT
  5
158
330
150
100
AcDbEntity
  8
SLD-0
100
AcDbMText
 10
52.2534861463
 20
113.9784153819
 30
0.0
 40
2.5
 41
0.0
 71
     1
 72
     1
  1
12.7
  7
SLDTEXTSTYLE0
 11
-6.156016597943509E-15
 21
1.0
 31
0.0
 73
     1
 44
1.0
  0
ENDBLK
  5
152
330
150
100
AcDbEntity
  8
0
100
AcDbBlockEnd
  0
BLOCK
  5
15B
330
15A
100
AcDbEntity
  8
0
100
AcDbBlockBegin
  2
_D_5
 70
     0
 10
0.0
 20
0.0
 30
0.0
  3
_D_5
  1

  0
SOLID
  5
15D
330
15A
100
AcDbEntity
  8
SLD-0
100
AcDbTrace
 10
55.4761553211
 20
110.970429188
 30
0.0
 11
55.2261553211
 21
108.970429188
 31
0.0
 12
55.7261553211
 22
108.970429188
 32
0.0
 13
55.7261553211
 23
108.970429188
 33
0.0
  0
SOLID
  5
15E
330
15A
100
AcDbEntity
  8
SLD-0
100
AcDbTrace
 10
55.4761553211
 20
98.270429188
 30
0.0
 11
55.7261553211
 21
100.270429188
 31
0.0
 12
55.2261553211
 22
100.270429188
 32
0.0
 13
55.2261553211
 23
100.270429188
 33
0.0
  0
LINE
  5
15F
330
15A
100
AcDbEntity
  8
SLD-0
100
AcDbLine
 10
67.5241048539
 20
110.970429188
 30
0.0
 11
54.4761553211
 21
110.970429188
 31
0.0
  0
LINE
  5
160
330
15A
100
AcDbEntity
  8
SLD-0
100
AcDbLine
 10
63.9714048539
 20
98.270429188
 30
0.0
 11
54.4761553211
 21
98.270429188
 31
0.0
  0
LINE
  5
161
330
15A
100
AcDbEntity
  8
SLD-0
100
AcDbLine
 10
55.4761553211
 20
110.970429188
 30
0.0
 11
55.4761553211
 21
98.270429188
 31
0.0
  0
MTEXT
  5
162
330
15A
100
AcDbEntity
  8
SLD-0
100
AcDbMText
 10
52.2534861463
 20
101.2784153819
 30
0.0
 40
2.5
 41
0.0
 71
     1
 72
     1
  1
12.7
  7
SLDTEXTSTYLE0
 11
-7.044195017643634E-15
 21
1.0
 31
0.0
 73
     1
 44
1.0
  0
ENDBLK
  5
15C
330
15A
100
AcDbEntity
  8
0
100
AcDbBlockEnd
  0
BLOCK
  5
165
330
164
100
AcDbEntity
  8
0
100
AcDbBlockBegin
  2
_D_6
 70
     0
 10
0.0
 20
0.0
 30
0.0
  3
_D_6
  1

  0
SOLID
  5
167
330
164
100
AcDbEntity
  8
SLD-0
100
AcDbTrace
 10
48.2946070567
 20
110.970429188
 30
0.0
 11
48.0446070567
 21
108.970429188
 31
0.0
 12
48.5446070567
 22
108.970429188
 32
0.0
 13
48.5446070567
 23
108.970429188
 33
0.0
  0
SOLID
  5
168
330
164
100
AcDbEntity
  8
SLD-0
100
AcDbTrace
 10
48.2946070567
 20
85.570429188
 30
0.0
 11
48.5446070567
 21
87.570429188
 31
0.0
 12
48.0446070567
 22
87.570429188
 32
0.0
 13
48.0446070567
 23
87.570429188
 33
0.0
  0
LINE
  5
169
330
164
100
AcDbEntity
  8
SLD-0
100
AcDbLine
 10
67.5241048539
 20
110.970429188
 30
0.0
 11
47.2946070567
 21
110.970429188
 31
0.0
  0
LINE
  5
16A
330
164
100
AcDbEntity
  8
SLD-0
100
AcDbLine
 10
67.5241048539
 20
85.570429188
 30
0.0
 11
47.2946070567
 21
85.570429188
 31
0.0
  0
LINE
  5
16B
330
164
100
AcDbEntity
  8
SLD-0
100
AcDbLine
 10
48.2946070567
 20
110.970429188
 30
0.0
 11
48.2946070567
 21
85.570429188
 31
0.0
  0
MTEXT
  5
16C
330
164
100
AcDbEntity
  8
SLD-0
100
AcDbMText
 10
45.0719378819
 20
94.9284153819
 30
0.0
 40
2.5
 41
0.0
 71
     1
 72
     1
  1
25.4
  7
SLDTEXTSTYLE0
 11
-7.044195017643634E-15
 21
1.0
 31
0.0
 73
     1
 44
1.0
  0
ENDBLK
  5
166
330
164
100
AcDbEntity
  8
0
100
AcDbBlockEnd
  0
BLOCK
  5
170
330
16F
100
AcDbEntity
  8
0
100
AcDbBlockBegin
  2
_D_7
 70
     0
 10
0.0
 20
0.0
 30
0.0
  3
_D_7
  1

  0
SOLID
  5
172
330
16F
100
AcDbEntity
  8
SLD-0
100
AcDbTrace
 10
79.7984040645
 20
94.5665995724
 30
0.0
 11
78.8466285729
 21
92.7899106819
 31
0.0
 12
79.3132527764
 22
92.6102948344
 32
0.0
 13
79.3132527764
 23
92.6102948344
 33
0.0
  0
LINE
  5
173
330
16F
100
AcDbEntity
  8
SLD-0
100
AcDbLine
 10
79.7984040645
 20
94.5665995724
 30
0.0
 11
68.0830847199
 21
64.1313588335
 31
0.0
  0
LINE
  5
174
330
16F
100
AcDbEntity
  8
SLD-0
100
AcDbLine
 10
68.0830847199
 20
64.1313588335
 30
0.0
 11
51.1837790633
 21
64.1313588335
 31
0.0
  0
MTEXT
  5
175
330
16F
100
AcDbEntity
  8
SLD-0
100
AcDbMText
 10
51.1837790633
 20
71.1908334748
 30
0.0
 40
2.5
 41
0.0
 71
     1
 72
     1
  1
4 HOLES,
  7
SLDTEXTSTYLE0
 73
     1
 44
1.0
  0
MTEXT
  5
176
330
16F
100
AcDbEntity
  8
SLD-0
100
AcDbMText
 10
52.1212790633
 20
67.3540280083
 30
0.0
 40
2.5
 41
0.0
 71
     1
 72
     1
  1
8-32 CLR
  7
SLDTEXTSTYLE0
 73
     1
 44
1.0
  0
ENDBLK
  5
171
330
16F
100
AcDbEntity
  8
0
100
AcDbBlockEnd
  0
BLOCK
  5
179
330
178
100
AcDbEntity
  8
0
100
AcDbBlockBegin
  2
_D_8
 70
     0
 10
0.0
 20
0.0
 30
0.0
  3
_D_8
  1

  0
SOLID
  5
17B
330
178
100
AcDbEntity
  8
SLD-0
100
AcDbTrace
 10
94.73072053
 20
80.0730402429
 30
0.0
 11
94.7737142967
 21
78.0579344055
 31
0.0
 12
95.2684174638
 22
78.1305207431
 32
0.0
 13
95.2684174638
 23
78.1305207431
 33
0.0
  0
LINE
  5
17C
330
178
100
AcDbEntity
  8
SLD-0
100
AcDbLine
 10
94.73072053
 20
80.0730402429
 30
0.0
 11
97.4518821234
 21
61.527301418
 31
0.0
  0
LINE
  5
17D
330
178
100
AcDbEntity
  8
SLD-0
100
AcDbLine
 10
97.4518821234
 20
61.527301418
 30
0.0
 11
118.4345213169
 21
61.527301418
 31
0.0
  0
MTEXT
  5
17E
330
178
100
AcDbEntity
  8
SLD-0
100
AcDbMText
 10
98.7018821234
 20
68.5867760594
 30
0.0
 40
2.5
 41
0.0
 71
     1
 72
     1
  1
5 HOLES,
  7
SLDTEXTSTYLE0
 73
     1
 44
1.0
  0
MTEXT
  5
17F
330
178
100
AcDbEntity
  8
SLD-0
100
AcDbMText
 10
99.6393821234
 20
64.7499705928
 30
0.0
 40
2.5
 41
0.0
 71
     1
 72
     1
  1
1/4"-20 CLR
  7
SLDTEXTSTYLE0
 73
     1
 44
1.0
  0
ENDBLK
  5
17A
330
178
100
AcDbEntity
  8
0
100
AcDbBlockEnd
  0
BLOCK
  5
182
330
181
100
AcDbEntity
  8
0
100
AcDbBlockBegin
  2
_D_9
 70
     0
 10
0.0
 20
0.0
 30
0.0
  3
_D_9
  1

  0
SOLID
  5
184
330
181
100
AcDbEntity
  8
SLD-0
100
AcDbTrace
 10
121.115504889
 20
82.9490724946
 30
0.0
 11
122.0375398171
 21
81.1567690628
 31
0.0
 12
122.4503518948
 22
81.4388793046
 32
0.0
 13
122.4503518948
 23
81.4388793046
 33
0.0
  0
LINE
  5
185
330
181
100
AcDbEntity
  8
SLD-0
100
AcDbLine
 10
121.115504889
 20
82.9490724946
 30
0.0
 11
134.2010348015
 21
63.8010091074
 31
0.0
  0
LINE
  5
186
330
181
100
AcDbEntity
  8
SLD-0
100
AcDbLine
 10
134.2010348015
 20
63.8010091074
 30
0.0
 11
150.9128400781
 21
63.8010091074
 31
0.0
  0
MTEXT
  5
187
330
181
100
AcDbEntity
  8
SLD-0
100
AcDbMText
 10
135.4510348015
 20
70.8604837488
 30
0.0
 40
2.5
 41
0.0
 71
     1
 72
     1
  1
8 HOLES,
  7
SLDTEXTSTYLE0
 73
     1
 44
1.0
  0
MTEXT
  5
188
330
181
100
AcDbEntity
  8
SLD-0
100
AcDbMText
 10
136.3885348015
 20
67.0236782822
 30
0.0
 40
2.5
 41
0.0
 71
     1
 72
     1
  1
1/4"-20
  7
SLDTEXTSTYLE0
 73
     1
 44
1.0
  0
ENDBLK
  5
183
330
181
100
AcDbEntity
  8
0
100
AcDbBlockEnd
  0
BLOCK
  5
18B
330
18A
100
AcDbEntity
  8
0
100
AcDbBlockBegin
  2
_D_10
 70
     0
 10
0.0
 20
0.0
 30
0.0
  3
_D_10
  1

  0
SOLID
  5
18D
330
18A
100
AcDbEntity
  8
SLD-0
 62
     7
100
AcDbTrace
 10
48.2946070567
 20
136.370429188
 30
0.0
 11
48.0446070567
 21
134.370429188
 31
0.0
 12
48.5446070567
 22
134.370429188
 32
0.0
 13
48.5446070567
 23
134.370429188
 33
0.0
  0
SOLID
  5
18E
330
18A
100
AcDbEntity
  8
SLD-0
 62
     7
100
AcDbTrace
 10
48.2946070567
 20
110.970429188
 30
0.0
 11
48.5446070567
 21
112.970429188
 31
0.0
 12
48.0446070567
 22
112.970429188
 32
0.0
 13
48.0446070567
 23
112.970429188
 33
0.0
  0
LINE
  5
18F
330
18A
100
AcDbEntity
  8
SLD-0
 62
     7
100
AcDbLine
 10
67.5241048539
 20
136.370429188
 30
0.0
 11
47.2946070567
 21
136.370429188
 31
0.0
  0
LINE
  5
190
330
18A
100
AcDbEntity
  8
SLD-0
 62
     7
100
AcDbLine
 10
67.5241048539
 20
110.970429188
 30
0.0
 11
47.2946070567
 21
110.970429188
 31
0.0
  0
LINE
  5
191
330
18A
100
AcDbEntity
  8
SLD-0
 62
     7
100
AcDbLine
 10
48.2946070567
 20
136.370429188
 30
0.0
 11
48.2946070567
 21
110.970429188
 31
0.0
  0
MTEXT
  5
192
330
18A
100
AcDbEntity
  8
SLD-0
 62
     7
100
AcDbMText
 10
45.0719378819
 20
120.3284153819
 30
0.0
 40
2.5
 41
0.0
 71
     1
 72
     1
  1
25.4
  7
SLDTEXTSTYLE0
 11
-7.044195017643634E-15
 21
1.0
 31
0.0
 73
     1
 44
1.0
  0
ENDBLK
  5
18C
330
18A
100
AcDbEntity
  8
0
100
AcDbBlockEnd
  0
BLOCK
  5
195
330
194
100
AcDbEntity
  8
0
100
AcDbBlockBegin
  2
_D_11
 70
     0
 10
0.0
 20
0.0
 30
0.0
  3
_D_11
  1

  0
SOLID
  5
197
330
194
100
AcDbEntity
  8
SLD-0
 62
     7
100
AcDbTrace
 10
93.9241048539
 20
155.2698093641
 30
0.0
 11
91.9241048539
 21
155.5198093641
 31
0.0
 12
91.9241048539
 22
155.0198093641
 32
0.0
 13
91.9241048539
 23
155.0198093641
 33
0.0
  0
SOLID
  5
198
330
194
100
AcDbEntity
  8
SLD-0
 62
     7
100
AcDbTrace
 10
68.5241048539
 20
155.2698093641
 30
0.0
 11
70.5241048539
 21
155.0198093641
 31
0.0
 12
70.5241048539
 22
155.5198093641
 32
0.0
 13
70.5241048539
 23
155.5198093641
 33
0.0
  0
LINE
  5
199
330
194
100
AcDbEntity
  8
SLD-0
 62
     7
100
AcDbLine
 10
93.9241048539
 20
137.370429188
 30
0.0
 11
93.9241048539
 21
156.2698093641
 31
0.0
  0
LINE
  5
19A
330
194
100
AcDbEntity
  8
SLD-0
 62
     7
100
AcDbLine
 10
68.5241048539
 20
137.370429188
 30
0.0
 11
68.5241048539
 21
156.2698093641
 31
0.0
  0
LINE
  5
19B
330
194
100
AcDbEntity
  8
SLD-0
 62
     7
100
AcDbLine
 10
93.9241048539
 20
155.2698093641
 30
0.0
 11
68.5241048539
 21
155.2698093641
 31
0.0
  0
MTEXT
  5
19C
330
194
100
AcDbEntity
  8
SLD-0
 62
     7
100
AcDbMText
 10
77.8820910478
 20
158.4924785389
 30
0.0
 40
2.5
 41
0.0
 71
     1
 72
     1
  1
25.4
  7
SLDTEXTSTYLE0
 73
     1
 44
1.0
  0
ENDBLK
  5
196
330
194
100
AcDbEntity
  8
0
100
AcDbBlockEnd
  0
BLOCK
  5
19F
330
19E
100
AcDbEntity
  8
0
100
AcDbBlockBegin
  2
_D_12
 70
     0
 10
0.0
 20
0.0
 30
0.0
  3
_D_12
  1

  0
SOLID
  5
1A1
330
19E
100
AcDbEntity
  8
SLD-0
 62
     7
100
AcDbTrace
 10
93.9241048539
 20
155.2698093641
 30
0.0
 11
95.9241048539
 21
155.0198093641
 31
0.0
 12
95.9241048539
 22
155.5198093641
 32
0.0
 13
95.9241048539
 23
155.5198093641
 33
0.0
  0
SOLID
  5
1A2
330
19E
100
AcDbEntity
  8
SLD-0
 62
     7
100
AcDbTrace
 10
119.3241048539
 20
155.2698093641
 30
0.0
 11
117.3241048539
 21
155.5198093641
 31
0.0
 12
117.3241048539
 22
155.0198093641
 32
0.0
 13
117.3241048539
 23
155.0198093641
 33
0.0
  0
LINE
  5
1A3
330
19E
100
AcDbEntity
  8
SLD-0
 62
     7
100
AcDbLine
 10
93.9241048539
 20
137.370429188
 30
0.0
 11
93.9241048539
 21
156.2698093641
 31
0.0
  0
LINE
  5
1A4
330
19E
100
AcDbEntity
  8
SLD-0
 62
     7
100
AcDbLine
 10
119.3241048539
 20
137.370429188
 30
0.0
 11
119.3241048539
 21
156.2698093641
 31
0.0
  0
LINE
  5
1A5
330
19E
100
AcDbEntity
  8
SLD-0
 62
     7
100
AcDbLine
 10
93.9241048539
 20
155.2698093641
 30
0.0
 11
119.3241048539
 21
155.2698093641
 31
0.0
  0
MTEXT
  5
1A6
330
19E
100
AcDbEntity
  8
SLD-0
 62
     7
100
AcDbMText
 10
103.2820910478
 20
158.4924785389
 30
0.0
 40
2.5
 41
0.0
 71
     1
 72
     1
  1
25.4
  7
SLDTEXTSTYLE0
 73
     1
 44
1.0
  0
ENDBLK
  5
1A0
330
19E
100
AcDbEntity
  8
0
100
AcDbBlockEnd
  0
BLOCK
  5
1A8
330
1A7
100
AcDbEntity
  8
0
100
AcDbBlockBegin
  2
SW_CENTERMARKSYMBOL_0
 70
     0
 10
0.0
 20
0.0
 30
0.0
  3
SW_CENTERMARKSYMBOL_0
  1

  0
LINE
  5
1AA
330
1A7
100
AcDbEntity
  8
SLD-0
 62
     0
100
AcDbLine
 10
0.0
 20
0.0
 30
0.0
 11
0.0
 21
1.0
 31
0.0
  0
LINE
  5
1AB
330
1A7
100
AcDbEntity
  8
SLD-0
 62
     0
100
AcDbLine
 10
0.0
 20
0.0
 30
0.0
 11
-1.0
 21
0.0
 31
0.0
  0
LINE
  5
1AC
330
1A7
100
AcDbEntity
  8
SLD-0
 62
     0
100
AcDbLine
 10
0.0
 20
0.0
 30
0.0
 11
0.0
 21
-1.0
 31
0.0
  0
LINE
  5
1AD
330
1A7
100
AcDbEntity
  8
SLD-0
 62
     0
100
AcDbLine
 10
0.0
 20
0.0
 30
0.0
 11
1.0
 21
0.0
 31
0.0
  0
LINE
  5
1AE
330
1A7
100
AcDbEntity
  8
SLD-0
 62
     0
100
AcDbLine
 10
0.0
 20
2.0
 30
0.0
 11
0.0
 21
3.5527
 31
0.0
  0
LINE
  5
1AF
330
1A7
100
AcDbEntity
  8
SLD-0
 62
     0
100
AcDbLine
 10
-2.0
 20
0.0
 30
0.0
 11
-3.5527
 21
0.0
 31
0.0
  0
LINE
  5
1B0
330
1A7
100
AcDbEntity
  8
SLD-0
 62
     0
100
AcDbLine
 10
0.0
 20
-2.0
 30
0.0
 11
0.0
 21
-3.5527
 31
0.0
  0
LINE
  5
1B1
330
1A7
100
AcDbEntity
  8
SLD-0
 62
     0
100
AcDbLine
 10
2.0
 20
0.0
 30
0.0
 11
3.5527
 21
0.0
 31
0.0
  0
ENDBLK
  5
1A9
330
1A7
100
AcDbEntity
  8
0
100
AcDbBlockEnd
  0
BLOCK
  5
1B4
330
1B3
100
AcDbEntity
  8
0
100
AcDbBlockBegin
  2
SW_CENTERMARKSYMBOL_1
 70
     0
 10
0.0
 20
0.0
 30
0.0
  3
SW_CENTERMARKSYMBOL_1
  1

  0
LINE
  5
1B6
330
1B3
100
AcDbEntity
  8
SLD-0
 62
     0
100
AcDbLine
 10
0.0
 20
0.0
 30
0.0
 11
0.0
 21
1.0
 31
0.0
  0
LINE
  5
1B7
330
1B3
100
AcDbEntity
  8
SLD-0
 62
     0
100
AcDbLine
 10
0.0
 20
0.0
 30
0.0
 11
-1.0
 21
0.0
 31
0.0
  0
LINE
  5
1B8
330
1B3
100
AcDbEntity
  8
SLD-0
 62
     0
100
AcDbLine
 10
0.0
 20
0.0
 30
0.0
 11
0.0
 21
-1.0
 31
0.0
  0
LINE
  5
1B9
330
1B3
100
AcDbEntity
  8
SLD-0
 62
     0
100
AcDbLine
 10
0.0
 20
0.0
 30
0.0
 11
1.0
 21
0.0
 31
0.0
  0
LINE
  5
1BA
330
1B3
100
AcDbEntity
  8
SLD-0
 62
     0
100
AcDbLine
 10
0.0
 20
2.0
 30
0.0
 11
0.0
 21
6.55625
 31
0.0
  0
LINE
  5
1BB
330
1B3
100
AcDbEntity
  8
SLD-0
 62
     0
100
AcDbLine
 10
-2.0
 20
0.0
 30
0.0
 11
-6.55625
 21
0.0
 31
0.0
  0
LINE
  5
1BC
330
1B3
100
AcDbEntity
  8
SLD-0
 62
     0
100
AcDbLine
 10
0.0
 20
-2.0
 30
0.0
 11
0.0
 21
-6.55625
 31
0.0
  0
LINE
  5
1BD
330
1B3
100
AcDbEntity
  8
SLD-0
 62
     0
100
AcDbLine
 10
2.0
 20
0.0
 30
0.0
 11
6.55625
 21
0.0
 31
0.0
  0
ENDBLK
  5
1B5
330
1B3
100
AcDbEntity
  8
0
100
AcDbBlockEnd
  0
BLOCK
  5
1C0
330
1BF
100
AcDbEntity
  8
0
100
AcDbBlockBegin
  2
SW_CENTERMARKSYMBOL_2
 70
     0
 10
0.0
 20
0.0
 30
0.0
  3
SW_CENTERMARKSYMBOL_2
  1

  0
LINE
  5
1C2
330
1BF
100
AcDbEntity
  8
SLD-0
 62
     0
100
AcDbLine
 10
0.0
 20
0.0
 30
0.0
 11
0.0
 21
1.0
 31
0.0
  0
LINE
  5
1C3
330
1BF
100
AcDbEntity
  8
SLD-0
 62
     0
100
AcDbLine
 10
0.0
 20
0.0
 30
0.0
 11
-1.0
 21
0.0
 31
0.0
  0
LINE
  5
1C4
330
1BF
100
AcDbEntity
  8
SLD-0
 62
     0
100
AcDbLine
 10
0.0
 20
0.0
 30
0.0
 11
0.0
 21
-1.0
 31
0.0
  0
LINE
  5
1C5
330
1BF
100
AcDbEntity
  8
SLD-0
 62
     0
100
AcDbLine
 10
0.0
 20
0.0
 30
0.0
 11
1.0
 21
0.0
 31
0.0
  0
LINE
  5
1C6
330
1BF
100
AcDbEntity
  8
SLD-0
 62
     0
100
AcDbLine
 10
0.0
 20
2.0
 30
0.0
 11
0.0
 21
3.5527
 31
0.0
  0
LINE
  5
1C7
330
1BF
100
AcDbEntity
  8
SLD-0
 62
     0
100
AcDbLine
 10
-2.0
 20
0.0
 30
0.0
 11
-3.5527
 21
0.0
 31
0.0
  0
LINE
  5
1C8
330
1BF
100
AcDbEntity
  8
SLD-0
 62
     0
100
AcDbLine
 10
0.0
 20
-2.0
 30
0.0
 11
0.0
 21
-3.5527
 31
0.0
  0
LINE
  5
1C9
330
1BF
100
AcDbEntity
  8
SLD-0
 62
     0
100
AcDbLine
 10
2.0
 20
0.0
 30
0.0
 11
3.5527
 21
0.0
 31
0.0
  0
ENDBLK
  5
1C1
330
1BF
100
AcDbEntity
  8
0
100
AcDbBlockEnd
  0
BLOCK
  5
1CC
330
1CB
100
AcDbEntity
  8
0
100
AcDbBlockBegin
  2
SW_CENTERMARKSYMBOL_3
 70
     0
 10
0.0
 20
0.0
 30
0.0
  3
SW_CENTERMARKSYMBOL_3
  1

  0
LINE
  5
1CE
330
1CB
100
AcDbEntity
  8
SLD-0
 62
     0
100
AcDbLine
 10
0.0
 20
0.0
 30
0.0
 11
0.0
 21
1.0
 31
0.0
  0
LINE
  5
1CF
330
1CB
100
AcDbEntity
  8
SLD-0
 62
     0
100
AcDbLine
 10
0.0
 20
0.0
 30
0.0
 11
-1.0
 21
0.0
 31
0.0
  0
LINE
  5
1D0
330
1CB
100
AcDbEntity
  8
SLD-0
 62
     0
100
AcDbLine
 10
0.0
 20
0.0
 30
0.0
 11
0.0
 21
-1.0
 31
0.0
  0
LINE
  5
1D1
330
1CB
100
AcDbEntity
  8
SLD-0
 62
     0
100
AcDbLine
 10
0.0
 20
0.0
 30
0.0
 11
1.0
 21
0.0
 31
0.0
  0
LINE
  5
1D2
330
1CB
100
AcDbEntity
  8
SLD-0
 62
     0
100
AcDbLine
 10
0.0
 20
2.0
 30
0.0
 11
0.0
 21
6.55625
 31
0.0
  0
LINE
  5
1D3
330
1CB
100
AcDbEntity
  8
SLD-0
 62
     0
100
AcDbLine
 10
-2.0
 20
0.0
 30
0.0
 11
-6.55625
 21
0.0
 31
0.0
  0
LINE
  5
1D4
330
1CB
100
AcDbEntity
  8
SLD-0
 62
     0
100
AcDbLine
 10
0.0
 20
-2.0
 30
0.0
 11
0.0
 21
-6.55625
 31
0.0
  0
LINE
  5
1D5
330
1CB
100
AcDbEntity
  8
SLD-0
 62
     0
100
AcDbLine
 10
2.0
 20
0.0
 30
0.0
 11
6.55625
 21
0.0
 31
0.0
  0
ENDBLK
  5
1CD
330
1CB
100
AcDbEntity
  8
0
100
AcDbBlockEnd
  0
BLOCK
  5
1D8
330
1D7
100
AcDbEntity
  8
0
100
AcDbBlockBegin
  2
SW_CENTERMARKSYMBOL_4
 70
     0
 10
0.0
 20
0.0
 30
0.0
  3
SW_CENTERMARKSYMBOL_4
  1

  0
LINE
  5
1DA
330
1D7
100
AcDbEntity
  8
SLD-0
 62
     0
100
AcDbLine
 10
0.0
 20
0.0
 30
0.0
 11
0.0
 21
1.0
 31
0.0
  0
LINE
  5
1DB
330
1D7
100
AcDbEntity
  8
SLD-0
 62
     0
100
AcDbLine
 10
0.0
 20
0.0
 30
0.0
 11
-1.0
 21
0.0
 31
0.0
  0
LINE
  5
1DC
330
1D7
100
AcDbEntity
  8
SLD-0
 62
     0
100
AcDbLine
 10
0.0
 20
0.0
 30
0.0
 11
0.0
 21
-1.0
 31
0.0
  0
LINE
  5
1DD
330
1D7
100
AcDbEntity
  8
SLD-0
 62
     0
100
AcDbLine
 10
0.0
 20
0.0
 30
0.0
 11
1.0
 21
0.0
 31
0.0
  0
LINE
  5
1DE
330
1D7
100
AcDbEntity
  8
SLD-0
 62
     0
100
AcDbLine
 10
0.0
 20
2.0
 30
0.0
 11
0.0
 21
3.5527
 31
0.0
  0
LINE
  5
1DF
330
1D7
100
AcDbEntity
  8
SLD-0
 62
     0
100
AcDbLine
 10
-2.0
 20
0.0
 30
0.0
 11
-3.5527
 21
0.0
 31
0.0
  0
LINE
  5
1E0
330
1D7
100
AcDbEntity
  8
SLD-0
 62
     0
100
AcDbLine
 10
0.0
 20
-2.0
 30
0.0
 11
0.0
 21
-3.5527
 31
0.0
  0
LINE
  5
1E1
330
1D7
100
AcDbEntity
  8
SLD-0
 62
     0
100
AcDbLine
 10
2.0
 20
0.0
 30
0.0
 11
3.5527
 21
0.0
 31
0.0
  0
ENDBLK
  5
1D9
330
1D7
100
AcDbEntity
  8
0
100
AcDbBlockEnd
  0
BLOCK
  5
1E4
330
1E3
100
AcDbEntity
  8
0
100
AcDbBlockBegin
  2
SW_CENTERMARKSYMBOL_5
 70
     0
 10
0.0
 20
0.0
 30
0.0
  3
SW_CENTERMARKSYMBOL_5
  1

  0
LINE
  5
1E6
330
1E3
100
AcDbEntity
  8
SLD-0
 62
     0
100
AcDbLine
 10
0.0
 20
0.0
 30
0.0
 11
0.0
 21
1.0
 31
0.0
  0
LINE
  5
1E7
330
1E3
100
AcDbEntity
  8
SLD-0
 62
     0
100
AcDbLine
 10
0.0
 20
0.0
 30
0.0
 11
-1.0
 21
0.0
 31
0.0
  0
LINE
  5
1E8
330
1E3
100
AcDbEntity
  8
SLD-0
 62
     0
100
AcDbLine
 10
0.0
 20
0.0
 30
0.0
 11
0.0
 21
-1.0
 31
0.0
  0
LINE
  5
1E9
330
1E3
100
AcDbEntity
  8
SLD-0
 62
     0
100
AcDbLine
 10
0.0
 20
0.0
 30
0.0
 11
1.0
 21
0.0
 31
0.0
  0
LINE
  5
1EA
330
1E3
100
AcDbEntity
  8
SLD-0
 62
     0
100
AcDbLine
 10
0.0
 20
2.0
 30
0.0
 11
0.0
 21
3.5527
 31
0.0
  0
LINE
  5
1EB
330
1E3
100
AcDbEntity
  8
SLD-0
 62
     0
100
AcDbLine
 10
-2.0
 20
0.0
 30
0.0
 11
-3.5527
 21
0.0
 31
0.0
  0
LINE
  5
1EC
330
1E3
100
AcDbEntity
  8
SLD-0
 62
     0
100
AcDbLine
 10
0.0
 20
-2.0
 30
0.0
 11
0.0
 21
-3.5527
 31
0.0
  0
LINE
  5
1ED
330
1E3
100
AcDbEntity
  8
SLD-0
 62
     0
100
AcDbLine
 10
2.0
 20
0.0
 30
0.0
 11
3.5527
 21
0.0
 31
0.0
  0
ENDBLK
  5
1E5
330
1E3
100
AcDbEntity
  8
0
100
AcDbBlockEnd
  0
BLOCK
  5
1F0
330
1EF
100
AcDbEntity
  8
0
100
AcDbBlockBegin
  2
SW_CENTERMARKSYMBOL_6
 70
     0
 10
0.0
 20
0.0
 30
0.0
  3
SW_CENTERMARKSYMBOL_6
  1

  0
LINE
  5
1F2
330
1EF
100
AcDbEntity
  8
SLD-0
 62
     0
100
AcDbLine
 10
0.0
 20
0.0
 30
0.0
 11
0.0
 21
1.0
 31
0.0
  0
LINE
  5
1F3
330
1EF
100
AcDbEntity
  8
SLD-0
 62
     0
100
AcDbLine
 10
0.0
 20
0.0
 30
0.0
 11
-1.0
 21
0.0
 31
0.0
  0
LINE
  5
1F4
330
1EF
100
AcDbEntity
  8
SLD-0
 62
     0
100
AcDbLine
 10
0.0
 20
0.0
 30
0.0
 11
0.0
 21
-1.0
 31
0.0
  0
LINE
  5
1F5
330
1EF
100
AcDbEntity
  8
SLD-0
 62
     0
100
AcDbLine
 10
0.0
 20
0.0
 30
0.0
 11
1.0
 21
0.0
 31
0.0
  0
LINE
  5
1F6
330
1EF
100
AcDbEntity
  8
SLD-0
 62
     0
100
AcDbLine
 10
0.0
 20
2.0
 30
0.0
 11
0.0
 21
4.96875
 31
0.0
  0
LINE
  5
1F7
330
1EF
100
AcDbEntity
  8
SLD-0
 62
     0
100
AcDbLine
 10
-2.0
 20
0.0
 30
0.0
 11
-4.96875
 21
0.0
 31
0.0
  0
LINE
  5
1F8
330
1EF
100
AcDbEntity
  8
SLD-0
 62
     0
100
AcDbLine
 10
0.0
 20
-2.0
 30
0.0
 11
0.0
 21
-4.96875
 31
0.0
  0
LINE
  5
1F9
330
1EF
100
AcDbEntity
  8
SLD-0
 62
     0
100
AcDbLine
 10
2.0
 20
0.0
 30
0.0
 11
4.96875
 21
0.0
 31
0.0
  0
ENDBLK
  5
1F1
330
1EF
100
AcDbEntity
  8
0
100
AcDbBlockEnd
  0
BLOCK
  5
1FC
330
1FB
100
AcDbEntity
  8
0
100
AcDbBlockBegin
  2
SW_CENTERMARKSYMBOL_7
 70
     0
 10
0.0
 20
0.0
 30
0.0
  3
SW_CENTERMARKSYMBOL_7
  1

  0
LINE
  5
1FE
330
1FB
100
AcDbEntity
  8
SLD-0
 62
     0
100
AcDbLine
 10
0.0
 20
0.0
 30
0.0
 11
0.0
 21
1.0
 31
0.0
  0
LINE
  5
1FF
330
1FB
100
AcDbEntity
  8
SLD-0
 62
     0
100
AcDbLine
 10
0.0
 20
0.0
 30
0.0
 11
-1.0
 21
0.0
 31
0.0
  0
LINE
  5
200
330
1FB
100
AcDbEntity
  8
SLD-0
 62
     0
100
AcDbLine
 10
0.0
 20
0.0
 30
0.0
 11
0.0
 21
-1.0
 31
0.0
  0
LINE
  5
201
330
1FB
100
AcDbEntity
  8
SLD-0
 62
     0
100
AcDbLine
 10
0.0
 20
0.0
 30
0.0
 11
1.0
 21
0.0
 31
0.0
  0
LINE
  5
202
330
1FB
100
AcDbEntity
  8
SLD-0
 62
     0
100
AcDbLine
 10
0.0
 20
2.0
 30
0.0
 11
0.0
 21
4.96875
 31
0.0
  0
LINE
  5
203
330
1FB
100
AcDbEntity
  8
SLD-0
 62
     0
100
AcDbLine
 10
-2.0
 20
0.0
 30
0.0
 11
-4.96875
 21
0.0
 31
0.0
  0
LINE
  5
204
330
1FB
100
AcDbEntity
  8
SLD-0
 62
     0
100
AcDbLine
 10
0.0
 20
-2.0
 30
0.0
 11
0.0
 21
-4.96875
 31
0.0
  0
LINE
  5
205
330
1FB
100
AcDbEntity
  8
SLD-0
 62
     0
100
AcDbLine
 10
2.0
 20
0.0
 30
0.0
 11
4.96875
 21
0.0
 31
0.0
  0
ENDBLK
  5
1FD
330
1FB
100
AcDbEntity
  8
0
100
AcDbBlockEnd
  0
BLOCK
  5
208
330
207
100
AcDbEntity
  8
0
100
AcDbBlockBegin
  2
SW_CENTERMARKSYMBOL_8
 70
     0
 10
0.0
 20
0.0
 30
0.0
  3
SW_CENTERMARKSYMBOL_8
  1

  0
LINE
  5
20A
330
207
100
AcDbEntity
  8
SLD-0
 62
     0
100
AcDbLine
 10
0.0
 20
0.0
 30
0.0
 11
0.0
 21
1.0
 31
0.0
  0
LINE
  5
20B
330
207
100
AcDbEntity
  8
SLD-0
 62
     0
100
AcDbLine
 10
0.0
 20
0.0
 30
0.0
 11
-1.0
 21
0.0
 31
0.0
  0
LINE
  5
20C
330
207
100
AcDbEntity
  8
SLD-0
 62
     0
100
AcDbLine
 10
0.0
 20
0.0
 30
0.0
 11
0.0
 21
-1.0
 31
0.0
  0
LINE
  5
20D
330
207
100
AcDbEntity
  8
SLD-0
 62
     0
100
AcDbLine
 10
0.0
 20
0.0
 30
0.0
 11
1.0
 21
0.0
 31
0.0
  0
LINE
  5
20E
330
207
100
AcDbEntity
  8
SLD-0
 62
     0
100
AcDbLine
 10
0.0
 20
2.0
 30
0.0
 11
0.0
 21
6.55625
 31
0.0
  0
LINE
  5
20F
330
207
100
AcDbEntity
  8
SLD-0
 62
     0
100
AcDbLine
 10
-2.0
 20
0.0
 30
0.0
 11
-6.55625
 21
0.0
 31
0.0
  0
LINE
  5
210
330
207
100
AcDbEntity
  8
SLD-0
 62
     0
100
AcDbLine
 10
0.0
 20
-2.0
 30
0.0
 11
0.0
 21
-6.55625
 31
0.0
  0
LINE
  5
211
330
207
100
AcDbEntity
  8
SLD-0
 62
     0
100
AcDbLine
 10
2.0
 20
0.0
 30
0.0
 11
6.55625
 21
0.0
 31
0.0
  0
ENDBLK
  5
209
330
207
100
AcDbEntity
  8
0
100
AcDbBlockEnd
  0
BLOCK
  5
214
330
213
100
AcDbEntity
  8
0
100
AcDbBlockBegin
  2
SW_CENTERMARKSYMBOL_9
 70
     0
 10
0.0
 20
0.0
 30
0.0
  3
SW_CENTERMARKSYMBOL_9
  1

  0
LINE
  5
216
330
213
100
AcDbEntity
  8
SLD-0
 62
     0
100
AcDbLine
 10
0.0
 20
0.0
 30
0.0
 11
0.0
 21
1.0
 31
0.0
  0
LINE
  5
217
330
213
100
AcDbEntity
  8
SLD-0
 62
     0
100
AcDbLine
 10
0.0
 20
0.0
 30
0.0
 11
-1.0
 21
0.0
 31
0.0
  0
LINE
  5
218
330
213
100
AcDbEntity
  8
SLD-0
 62
     0
100
AcDbLine
 10
0.0
 20
0.0
 30
0.0
 11
0.0
 21
-1.0
 31
0.0
  0
LINE
  5
219
330
213
100
AcDbEntity
  8
SLD-0
 62
     0
100
AcDbLine
 10
0.0
 20
0.0
 30
0.0
 11
1.0
 21
0.0
 31
0.0
  0
LINE
  5
21A
330
213
100
AcDbEntity
  8
SLD-0
 62
     0
100
AcDbLine
 10
0.0
 20
2.0
 30
0.0
 11
0.0
 21
4.96875
 31
0.0
  0
LINE
  5
21B
330
213
100
AcDbEntity
  8
SLD-0
 62
     0
100
AcDbLine
 10
-2.0
 20
0.0
 30
0.0
 11
-4.96875
 21
0.0
 31
0.0
  0
LINE
  5
21C
330
213
100
AcDbEntity
  8
SLD-0
 62
     0
100
AcDbLine
 10
0.0
 20
-2.0
 30
0.0
 11
0.0
 21
-4.96875
 31
0.0
  0
LINE
  5
21D
330
213
100
AcDbEntity
  8
SLD-0
 62
     0
100
AcDbLine
 10
2.0
 20
0.0
 30
0.0
 11
4.96875
 21
0.0
 31
0.0
  0
ENDBLK
  5
215
330
213
100
AcDbEntity
  8
0
100
AcDbBlockEnd
  0
BLOCK
  5
220
330
21F
100
AcDbEntity
  8
0
100
AcDbBlockBegin
  2
SW_CENTERMARKSYMBOL_10
 70
     0
 10
0.0
 20
0.0
 30
0.0
  3
SW_CENTERMARKSYMBOL_10
  1

  0
LINE
  5
222
330
21F
100
AcDbEntity
  8
SLD-0
 62
     0
100
AcDbLine
 10
0.0
 20
0.0
 30
0.0
 11
0.0
 21
1.0
 31
0.0
  0
LINE
  5
223
330
21F
100
AcDbEntity
  8
SLD-0
 62
     0
100
AcDbLine
 10
0.0
 20
0.0
 30
0.0
 11
-1.0
 21
0.0
 31
0.0
  0
LINE
  5
224
330
21F
100
AcDbEntity
  8
SLD-0
 62
     0
100
AcDbLine
 10
0.0
 20
0.0
 30
0.0
 11
0.0
 21
-1.0
 31
0.0
  0
LINE
  5
225
330
21F
100
AcDbEntity
  8
SLD-0
 62
     0
100
AcDbLine
 10
0.0
 20
0.0
 30
0.0
 11
1.0
 21
0.0
 31
0.0
  0
LINE
  5
226
330
21F
100
AcDbEntity
  8
SLD-0
 62
     0
100
AcDbLine
 10
0.0
 20
2.0
 30
0.0
 11
0.0
 21
4.96875
 31
0.0
  0
LINE
  5
227
330
21F
100
AcDbEntity
  8
SLD-0
 62
     0
100
AcDbLine
 10
-2.0
 20
0.0
 30
0.0
 11
-4.96875
 21
0.0
 31
0.0
  0
LINE
  5
228
330
21F
100
AcDbEntity
  8
SLD-0
 62
     0
100
AcDbLine
 10
0.0
 20
-2.0
 30
0.0
 11
0.0
 21
-4.96875
 31
0.0
  0
LINE
  5
229
330
21F
100
AcDbEntity
  8
SLD-0
 62
     0
100
AcDbLine
 10
2.0
 20
0.0
 30
0.0
 11
4.96875
 21
0.0
 31
0.0
  0
ENDBLK
  5
221
330
21F
100
AcDbEntity
  8
0
100
AcDbBlockEnd
  0
BLOCK
  5
22C
330
22B
100
AcDbEntity
  8
0
100
AcDbBlockBegin
  2
SW_CENTERMARKSYMBOL_11
 70
     0
 10
0.0
 20
0.0
 30
0.0
  3
SW_CENTERMARKSYMBOL_11
  1

  0
LINE
  5
22E
330
22B
100
AcDbEntity
  8
SLD-0
 62
     0
100
AcDbLine
 10
0.0
 20
0.0
 30
0.0
 11
0.0
 21
1.0
 31
0.0
  0
LINE
  5
22F
330
22B
100
AcDbEntity
  8
SLD-0
 62
     0
100
AcDbLine
 10
0.0
 20
0.0
 30
0.0
 11
-1.0
 21
0.0
 31
0.0
  0
LINE
  5
230
330
22B
100
AcDbEntity
  8
SLD-0
 62
     0
100
AcDbLine
 10
0.0
 20
0.0
 30
0.0
 11
0.0
 21
-1.0
 31
0.0
  0
LINE
  5
231
330
22B
100
AcDbEntity
  8
SLD-0
 62
     0
100
AcDbLine
 10
0.0
 20
0.0
 30
0.0
 11
1.0
 21
0.0
 31
0.0
  0
LINE
  5
232
330
22B
100
AcDbEntity
  8
SLD-0
 62
     0
100
AcDbLine
 10
0.0
 20
2.0
 30
0.0
 11
0.0
 21
6.55625
 31
0.0
  0
LINE
  5
233
330
22B
100
AcDbEntity
  8
SLD-0
 62
     0
100
AcDbLine
 10
-2.0
 20
0.0
 30
0.0
 11
-6.55625
 21
0.0
 31
0.0
  0
LINE
  5
234
330
22B
100
AcDbEntity
  8
SLD-0
 62
     0
100
AcDbLine
 10
0.0
 20
-2.0
 30
0.0
 11
0.0
 21
-6.55625
 31
0.0
  0
LINE
  5
235
330
22B
100
AcDbEntity
  8
SLD-0
 62
     0
100
AcDbLine
 10
2.0
 20
0.0
 30
0.0
 11
6.55625
 21
0.0
 31
0.0
  0
ENDBLK
  5
22D
330
22B
100
AcDbEntity
  8
0
100
AcDbBlockEnd
  0
BLOCK
  5
238
330
237
100
AcDbEntity
  8
0
100
AcDbBlockBegin
  2
SW_CENTERMARKSYMBOL_12
 70
     0
 10
0.0
 20
0.0
 30
0.0
  3
SW_CENTERMARKSYMBOL_12
  1

  0
LINE
  5
23A
330
237
100
AcDbEntity
  8
SLD-0
 62
     0
100
AcDbLine
 10
0.0
 20
0.0
 30
0.0
 11
0.0
 21
1.0
 31
0.0
  0
LINE
  5
23B
330
237
100
AcDbEntity
  8
SLD-0
 62
     0
100
AcDbLine
 10
0.0
 20
0.0
 30
0.0
 11
-1.0
 21
0.0
 31
0.0
  0
LINE
  5
23C
330
237
100
AcDbEntity
  8
SLD-0
 62
     0
100
AcDbLine
 10
0.0
 20
0.0
 30
0.0
 11
0.0
 21
-1.0
 31
0.0
  0
LINE
  5
23D
330
237
100
AcDbEntity
  8
SLD-0
 62
     0
100
AcDbLine
 10
0.0
 20
0.0
 30
0.0
 11
1.0
 21
0.0
 31
0.0
  0
LINE
  5
23E
330
237
100
AcDbEntity
  8
SLD-0
 62
     0
100
AcDbLine
 10
0.0
 20
2.0
 30
0.0
 11
0.0
 21
3.5527
 31
0.0
  0
LINE
  5
23F
330
237
100
AcDbEntity
  8
SLD-0
 62
     0
100
AcDbLine
 10
-2.0
 20
0.0
 30
0.0
 11
-3.5527
 21
0.0
 31
0.0
  0
LINE
  5
240
330
237
100
AcDbEntity
  8
SLD-0
 62
     0
100
AcDbLine
 10
0.0
 20
-2.0
 30
0.0
 11
0.0
 21
-3.5527
 31
0.0
  0
LINE
  5
241
330
237
100
AcDbEntity
  8
SLD-0
 62
     0
100
AcDbLine
 10
2.0
 20
0.0
 30
0.0
 11
3.5527
 21
0.0
 31
0.0
  0
ENDBLK
  5
239
330
237
100
AcDbEntity
  8
0
100
AcDbBlockEnd
  0
BLOCK
  5
244
330
243
100
AcDbEntity
  8
0
100
AcDbBlockBegin
  2
SW_CENTERMARKSYMBOL_13
 70
     0
 10
0.0
 20
0.0
 30
0.0
  3
SW_CENTERMARKSYMBOL_13
  1

  0
LINE
  5
246
330
243
100
AcDbEntity
  8
SLD-0
 62
     0
100
AcDbLine
 10
0.0
 20
0.0
 30
0.0
 11
0.0
 21
1.0
 31
0.0
  0
LINE
  5
247
330
243
100
AcDbEntity
  8
SLD-0
 62
     0
100
AcDbLine
 10
0.0
 20
0.0
 30
0.0
 11
-1.0
 21
0.0
 31
0.0
  0
LINE
  5
248
330
243
100
AcDbEntity
  8
SLD-0
 62
     0
100
AcDbLine
 10
0.0
 20
0.0
 30
0.0
 11
0.0
 21
-1.0
 31
0.0
  0
LINE
  5
249
330
243
100
AcDbEntity
  8
SLD-0
 62
     0
100
AcDbLine
 10
0.0
 20
0.0
 30
0.0
 11
1.0
 21
0.0
 31
0.0
  0
LINE
  5
24A
330
243
100
AcDbEntity
  8
SLD-0
 62
     0
100
AcDbLine
 10
0.0
 20
2.0
 30
0.0
 11
0.0
 21
3.5527
 31
0.0
  0
LINE
  5
24B
330
243
100
AcDbEntity
  8
SLD-0
 62
     0
100
AcDbLine
 10
-2.0
 20
0.0
 30
0.0
 11
-3.5527
 21
0.0
 31
0.0
  0
LINE
  5
24C
330
243
100
AcDbEntity
  8
SLD-0
 62
     0
100
AcDbLine
 10
0.0
 20
-2.0
 30
0.0
 11
0.0
 21
-3.5527
 31
0.0
  0
LINE
  5
24D
330
243
100
AcDbEntity
  8
SLD-0
 62
     0
100
AcDbLine
 10
2.0
 20
0.0
 30
0.0
 11
3.5527
 21
0.0
 31
0.0
  0
ENDBLK
  5
245
330
243
100
AcDbEntity
  8
0
100
AcDbBlockEnd
  0
BLOCK
  5
250
330
24F
100
AcDbEntity
  8
0
100
AcDbBlockBegin
  2
SW_CENTERMARKSYMBOL_14
 70
     0
 10
0.0
 20
0.0
 30
0.0
  3
SW_CENTERMARKSYMBOL_14
  1

  0
LINE
  5
252
330
24F
100
AcDbEntity
  8
SLD-0
 62
     0
100
AcDbLine
 10
0.0
 20
0.0
 30
0.0
 11
0.0
 21
1.0
 31
0.0
  0
LINE
  5
253
330
24F
100
AcDbEntity
  8
SLD-0
 62
     0
100
AcDbLine
 10
0.0
 20
0.0
 30
0.0
 11
-1.0
 21
0.0
 31
0.0
  0
LINE
  5
254
330
24F
100
AcDbEntity
  8
SLD-0
 62
     0
100
AcDbLine
 10
0.0
 20
0.0
 30
0.0
 11
0.0
 21
-1.0
 31
0.0
  0
LINE
  5
255
330
24F
100
AcDbEntity
  8
SLD-0
 62
     0
100
AcDbLine
 10
0.0
 20
0.0
 30
0.0
 11
1.0
 21
0.0
 31
0.0
  0
LINE
  5
256
330
24F
100
AcDbEntity
  8
SLD-0
 62
     0
100
AcDbLine
 10
0.0
 20
2.0
 30
0.0
 11
0.0
 21
3.5527
 31
0.0
  0
LINE
  5
257
330
24F
100
AcDbEntity
  8
SLD-0
 62
     0
100
AcDbLine
 10
-2.0
 20
0.0
 30
0.0
 11
-3.5527
 21
0.0
 31
0.0
  0
LINE
  5
258
330
24F
100
AcDbEntity
  8
SLD-0
 62
     0
100
AcDbLine
 10
0.0
 20
-2.0
 30
0.0
 11
0.0
 21
-3.5527
 31
0.0
  0
LINE
  5
259
330
24F
100
AcDbEntity
  8
SLD-0
 62
     0
100
AcDbLine
 10
2.0
 20
0.0
 30
0.0
 11
3.5527
 21
0.0
 31
0.0
  0
ENDBLK
  5
251
330
24F
100
AcDbEntity
  8
0
100
AcDbBlockEnd
  0
BLOCK
  5
25C
330
25B
100
AcDbEntity
  8
0
100
AcDbBlockBegin
  2
SW_CENTERMARKSYMBOL_15
 70
     0
 10
0.0
 20
0.0
 30
0.0
  3
SW_CENTERMARKSYMBOL_15
  1

  0
LINE
  5
25E
330
25B
100
AcDbEntity
  8
SLD-0
 62
     0
100
AcDbLine
 10
0.0
 20
0.0
 30
0.0
 11
0.0
 21
1.0
 31
0.0
  0
LINE
  5
25F
330
25B
100
AcDbEntity
  8
SLD-0
 62
     0
100
AcDbLine
 10
0.0
 20
0.0
 30
0.0
 11
-1.0
 21
0.0
 31
0.0
  0
LINE
  5
260
330
25B
100
AcDbEntity
  8
SLD-0
 62
     0
100
AcDbLine
 10
0.0
 20
0.0
 30
0.0
 11
0.0
 21
-1.0
 31
0.0
  0
LINE
  5
261
330
25B
100
AcDbEntity
  8
SLD-0
 62
     0
100
AcDbLine
 10
0.0
 20
0.0
 30
0.0
 11
1.0
 21
0.0
 31
0.0
  0
LINE
  5
262
330
25B
100
AcDbEntity
  8
SLD-0
 62
     0
100
AcDbLine
 10
0.0
 20
2.0
 30
0.0
 11
0.0
 21
3.5527
 31
0.0
  0
LINE
  5
263
330
25B
100
AcDbEntity
  8
SLD-0
 62
     0
100
AcDbLine
 10
-2.0
 20
0.0
 30
0.0
 11
-3.5527
 21
0.0
 31
0.0
  0
LINE
  5
264
330
25B
100
AcDbEntity
  8
SLD-0
 62
     0
100
AcDbLine
 10
0.0
 20
-2.0
 30
0.0
 11
0.0
 21
-3.5527
 31
0.0
  0
LINE
  5
265
330
25B
100
AcDbEntity
  8
SLD-0
 62
     0
100
AcDbLine
 10
2.0
 20
0.0
 30
0.0
 11
3.5527
 21
0.0
 31
0.0
  0
ENDBLK
  5
25D
330
25B
100
AcDbEntity
  8
0
100
AcDbBlockEnd
  0
BLOCK
  5
268
330
267
100
AcDbEntity
  8
0
100
AcDbBlockBegin
  2
SW_CENTERMARKSYMBOL_16
 70
     0
 10
0.0
 20
0.0
 30
0.0
  3
SW_CENTERMARKSYMBOL_16
  1

  0
LINE
  5
26A
330
267
100
AcDbEntity
  8
SLD-0
 62
     0
100
AcDbLine
 10
0.0
 20
0.0
 30
0.0
 11
0.0
 21
1.0
 31
0.0
  0
LINE
  5
26B
330
267
100
AcDbEntity
  8
SLD-0
 62
     0
100
AcDbLine
 10
0.0
 20
0.0
 30
0.0
 11
-1.0
 21
0.0
 31
0.0
  0
LINE
  5
26C
330
267
100
AcDbEntity
  8
SLD-0
 62
     0
100
AcDbLine
 10
0.0
 20
0.0
 30
0.0
 11
0.0
 21
-1.0
 31
0.0
  0
LINE
  5
26D
330
267
100
AcDbEntity
  8
SLD-0
 62
     0
100
AcDbLine
 10
0.0
 20
0.0
 30
0.0
 11
1.0
 21
0.0
 31
0.0
  0
LINE
  5
26E
330
267
100
AcDbEntity
  8
SLD-0
 62
     0
100
AcDbLine
 10
0.0
 20
2.0
 30
0.0
 11
0.0
 21
6.55625
 31
0.0
  0
LINE
  5
26F
330
267
100
AcDbEntity
  8
SLD-0
 62
     0
100
AcDbLine
 10
-2.0
 20
0.0
 30
0.0
 11
-6.55625
 21
0.0
 31
0.0
  0
LINE
  5
270
330
267
100
AcDbEntity
  8
SLD-0
 62
     0
100
AcDbLine
 10
0.0
 20
-2.0
 30
0.0
 11
0.0
 21
-6.55625
 31
0.0
  0
LINE
  5
271
330
267
100
AcDbEntity
  8
SLD-0
 62
     0
100
AcDbLine
 10
2.0
 20
0.0
 30
0.0
 11
6.55625
 21
0.0
 31
0.0
  0
ENDBLK
  5
269
330
267
100
AcDbEntity
  8
0
100
AcDbBlockEnd
  0
BLOCK
  5
2C0
330
2BF
100
AcDbEntity
  8
0
100
AcDbBlockBegin
  2
_D_13
 70
     0
 10
0.0
 20
0.0
 30
0.0
  3
_D_13
  1

  0
SOLID
  5
2C2
330
2BF
100
AcDbEntity
  8
SLD-0
 62
     7
100
AcDbTrace
 10
136.7962291326
 20
46.9151351986
 30
0.0
 11
136.5462291326
 21
44.9151351986
 31
0.0
 12
137.0462291326
 22
44.9151351986
 32
0.0
 13
137.0462291326
 23
44.9151351986
 33
0.0
  0
SOLID
  5
2C3
330
2BF
100
AcDbEntity
  8
SLD-0
 62
     7
100
AcDbTrace
 10
136.7962291326
 20
38.9151351986
 30
0.0
 11
137.0462291326
 21
40.9151351986
 31
0.0
 12
136.5462291326
 22
40.9151351986
 32
0.0
 13
136.5462291326
 23
40.9151351986
 33
0.0
  0
LINE
  5
2C4
330
2BF
100
AcDbEntity
  8
SLD-0
 62
     7
100
AcDbLine
 10
127.4241048539
 20
46.9151351986
 30
0.0
 11
137.7962291326
 21
46.9151351986
 31
0.0
  0
LINE
  5
2C5
330
2BF
100
AcDbEntity
  8
SLD-0
 62
     7
100
AcDbLine
 10
127.4241048539
 20
38.9151351986
 30
0.0
 11
137.7962291326
 21
38.9151351986
 31
0.0
  0
LINE
  5
2C6
330
2BF
100
AcDbEntity
  8
SLD-0
 62
     7
100
AcDbLine
 10
136.7962291326
 20
46.9151351986
 30
0.0
 11
136.7962291326
 21
38.9151351986
 31
0.0
  0
MTEXT
  5
2C7
330
2BF
100
AcDbEntity
  8
SLD-0
 62
     7
100
AcDbMText
 10
133.5735599578
 20
41.9602740862
 30
0.0
 40
2.5
 41
0.0
 71
     1
 72
     1
  1
8
  7
SLDTEXTSTYLE0
 11
-7.044195017643634E-15
 21
1.0
 31
0.0
 73
     1
 44
1.0
  0
ENDBLK
  5
2C1
330
2BF
100
AcDbEntity
  8
0
100
AcDbBlockEnd
  0
ENDSEC
  0
SECTION
  2
ENTITIES
  0
HATCH
  5
75
330
1F
100
AcDbEntity
  8
DIM
 62
     7
100
AcDbHatch
 10
0.0
 20
0.0
 30
0.0
210
0.0
220
0.0
230
1.0
  2
SOLID
 70
     1
 71
     0
 91
        1
 92
        0
 93
       10
 72
     2
 10
192.1959864308272
 20
35.94109362601509
 40
3.045751395731247
 50
249.211220914341
 51
308.9221353953366
 73
     1
 72
     1
 10
194.1095213920618
 20
33.57149755986121
 11
195.0743410532789
 21
32.72421077621886
 72
     1
 10
195.0743410532789
 20
32.72421077621886
 11
191.8642010801231
 21
29.60717106345646
 72
     1
 10
191.8642010801231
 20
29.60717106345646
 11
190.9234006246292
 21
30.41716813356646
 72
     1
 10
190.9234006246292
 20
30.41716813356646
 11
191.5544525450443
 21
31.03306852403749
 72
     1
 10
191.5544525450443
 20
31.03306852403749
 11
187.5452502348487
 21
34.51767236431217
 72
     2
 10
188.5601916643894
 20
35.66523274007268
 40
1.531992467805808
 50
131.4906380929588
 51
229.7089352075141
 73
     0
 72
     1
 10
187.5694968168739
 20
36.83378938847272
 11
188.8761250717556
 21
38.09537646498024
 72
     1
 10
188.8761250717556
 20
38.09537646498024
 11
189.891318919158
 21
37.19984456416245
 72
     2
 10
191.8645892225307
 20
35.55245187676766
 40
2.570544369711283
 50
140.1430462780655
 51
253.0452525074004
 73
     1
 97
        0
 75
     0
 76
     1
 98
        1
 10
0.0
 20
0.0
  0
HATCH
  5
76
330
1F
100
AcDbEntity
  8
DIM
 62
     1
100
AcDbHatch
 10
0.0
 20
0.0
 30
0.0
210
0.0
220
0.0
230
1.0
  2
SOLID
 70
     1
 71
     0
 91
        1
 92
        0
 93
       10
 72
     2
 10
192.3291518697911
 20
35.18689398731305
 40
3.18163670452787
 50
234.1674444878508
 51
314.440707458399
 73
     0
 72
     2
 10
192.6468081605156
 20
35.72771579279122
 40
2.57756748834625
 50
317.818499299578
 51
398.0564711573081
 73
     0
 72
     1
 10
194.6763940035631
 20
34.13880564344958
 11
195.6618428965459
 21
33.28010870356009
 72
     1
 10
195.6618428965459
 20
33.28010870356009
 11
196.9035242113396
 21
34.4845416459673
 72
     2
 10
196.0101318856775
 20
35.71248837778824
 40
1.518552937418266
 50
306.0377529468126
 51
403.4396461533867
 73
     1
 72
     1
 10
197.1127517503498
 20
36.75663034982637
 11
192.9859958920065
 21
40.34580661846033
 72
     1
 10
192.9859958920065
 20
40.34580661846033
 11
193.6102471939338
 21
40.95486504929765
 72
     1
 10
193.6102471939338
 20
40.95486504929765
 11
192.6797406837497
 21
41.78505726914219
 72
     1
 10
192.6797406837497
 20
41.78505726914219
 11
189.4441552353399
 21
38.65813702252808
 72
     1
 10
189.4441552353399
 20
38.65813702252808
 11
190.4665631126884
 21
37.76634649540728
 97
        0
 75
     0
 76
     1
 98
        1
 10
0.0
 20
0.0
  0
LINE
  5
77
330
1F
100
AcDbEntity
  8
0
  6
Continuous
 62
     7
370
     0
100
AcDbLine
 10
167.8593775185
 20
17.7745192513
 30
0.0
 11
168.8593775185
 21
17.7745192513
 31
0.0
  0
LINE
  5
78
330
1F
100
AcDbEntity
  8
0
  6
Continuous
 62
     7
370
     0
100
AcDbLine
 10
164.8593775185
 20
17.7745192513
 30
0.0
 11
167.3593775185
 21
17.7745192513
 31
0.0
  0
LINE
  5
79
330
1F
100
AcDbEntity
  8
0
  6
Continuous
 62
     7
370
     0
100
AcDbLine
 10
181.3593775185
 20
15.2745192513
 30
0.0
 11
181.3593775185
 21
20.2745192513
 31
0.0
  0
LINE
  5
7A
330
1F
100
AcDbEntity
  8
0
  6
Continuous
 62
     7
370
     0
100
AcDbLine
 10
174.3593775185
 20
16.2745192513
 30
0.0
 11
181.3593775185
 21
15.2745192513
 31
0.0
  0
LINE
  5
7B
330
1F
100
AcDbEntity
  8
0
  6
Continuous
 62
     7
370
     0
100
AcDbLine
 10
168.3593775185
 20
16.7745192513
 30
0.0
 11
168.3593775185
 21
14.2745192513
 31
0.0
  0
LINE
  5
7C
330
1F
100
AcDbEntity
  8
0
  6
Continuous
 62
     7
370
     0
100
AcDbLine
 10
181.3593775185
 20
20.2745192513
 30
0.0
 11
174.3593775185
 21
19.2745192513
 31
0.0
  0
LINE
  5
7D
330
1F
100
AcDbEntity
  8
0
  6
Continuous
 62
     7
370
     0
100
AcDbLine
 10
173.3593775185
 20
17.7745192513
 30
0.0
 11
182.3593775185
 21
17.7745192513
 31
0.0
  0
LINE
  5
7E
330
1F
100
AcDbEntity
  8
0
  6
Continuous
 62
     7
370
     0
100
AcDbLine
 10
168.3593775185
 20
18.2745192513
 30
0.0
 11
168.3593775185
 21
17.2745192513
 31
0.0
  0
LINE
  5
7F
330
1F
100
AcDbEntity
  8
0
  6
Continuous
 62
     7
370
     0
100
AcDbLine
 10
169.3593775185
 20
17.7745192513
 30
0.0
 11
171.8593775185
 21
17.7745192513
 31
0.0
  0
LINE
  5
80
330
1F
100
AcDbEntity
  8
0
  6
Continuous
 62
     7
370
     0
100
AcDbLine
 10
168.3593775185
 20
21.2745192513
 30
0.0
 11
168.3593775185
 21
18.7745192513
 31
0.0
  0
LINE
  5
81
330
1F
100
AcDbEntity
  8
0
  6
Continuous
 62
     7
370
     0
100
AcDbLine
 10
174.3593775185
 20
19.2745192513
 30
0.0
 11
174.3593775185
 21
16.2745192513
 31
0.0
  0
LINE
  5
82
330
1F
100
AcDbEntity
  8
0
370
     0
100
AcDbLine
 10
195.0743410533
 20
32.7242107762
 30
0.0
 11
191.8642010801
 21
29.6071710635
 31
0.0
  0
LINE
  5
83
330
1F
100
AcDbEntity
  8
0
370
     0
100
AcDbLine
 10
191.8642010801
 20
29.6071710635
 30
0.0
 11
190.9234006246
 21
30.4171681336
 31
0.0
  0
LINE
  5
84
330
1F
100
AcDbEntity
  8
0
370
     0
100
AcDbLine
 10
190.9234006246
 20
30.4171681336
 30
0.0
 11
191.554452545
 21
31.033068524
 31
0.0
  0
LINE
  5
85
330
1F
100
AcDbEntity
  8
0
370
     0
100
AcDbLine
 10
187.5452502348
 20
34.5176723643
 30
0.0
 11
191.554452545
 21
31.033068524
 31
0.0
  0
LINE
  5
86
330
1F
100
AcDbEntity
  8
0
370
     0
100
AcDbLine
 10
188.8761250718
 20
38.095376465
 30
0.0
 11
187.5694968169
 21
36.8337893885
 31
0.0
  0
LINE
  5
87
330
1F
100
AcDbEntity
  8
0
370
     0
100
AcDbLine
 10
188.8761250718
 20
38.095376465
 30
0.0
 11
189.8913189192
 21
37.1998445642
 31
0.0
  0
LINE
  5
88
330
1F
100
AcDbEntity
  8
0
370
     0
100
AcDbLine
 10
194.1095213921
 20
33.5714975599
 30
0.0
 11
195.0743410533
 21
32.7242107762
 31
0.0
  0
LINE
  5
89
330
1F
100
AcDbEntity
  8
0
 62
     1
370
     0
100
AcDbLine
 10
190.4665631127
 20
37.7663464954
 30
0.0
 11
189.4441552353
 21
38.6581370225
 31
0.0
  0
LINE
  5
8A
330
1F
100
AcDbEntity
  8
0
 62
     1
370
     0
100
AcDbLine
 10
189.4441552353
 20
38.6581370225
 30
0.0
 11
192.6797406837
 21
41.7850572691
 31
0.0
  0
LINE
  5
8B
330
1F
100
AcDbEntity
  8
0
 62
     1
370
     0
100
AcDbLine
 10
192.6797406837
 20
41.7850572691
 30
0.0
 11
193.6102471939
 21
40.9548650493
 31
0.0
  0
LINE
  5
8C
330
1F
100
AcDbEntity
  8
0
 62
     1
370
     0
100
AcDbLine
 10
193.6102471939
 20
40.9548650493
 30
0.0
 11
192.985995892
 21
40.3458066185
 31
0.0
  0
LINE
  5
8D
330
1F
100
AcDbEntity
  8
0
 62
     1
370
     0
100
AcDbLine
 10
192.985995892
 20
40.3458066185
 30
0.0
 11
197.1127517503
 21
36.7566303498
 31
0.0
  0
LINE
  5
8E
330
1F
100
AcDbEntity
  8
0
 62
     1
370
     0
100
AcDbLine
 10
194.6763940036
 20
34.1388056434
 30
0.0
 11
195.6618428965
 21
33.2801087036
 31
0.0
  0
LINE
  5
8F
330
1F
100
AcDbEntity
  8
0
 62
     1
370
     0
100
AcDbLine
 10
195.6618428965
 20
33.2801087036
 30
0.0
 11
196.9035242113
 21
34.484541646
 31
0.0
  0
LINE
  5
90
330
1F
100
AcDbEntity
  8
0
  6
Continuous
 62
     7
370
     0
100
AcDbLine
 10
185.6907965209
 20
13.1152464079
 30
0.0
 11
285.6907965209
 21
13.1152464079
 31
0.0
  0
LINE
  5
91
330
1F
100
AcDbEntity
  8
0
  6
Continuous
 62
     7
370
     0
100
AcDbLine
 10
185.6907965209
 20
18.1152464079
 30
0.0
 11
235.6907965209
 21
18.1152464079
 31
0.0
  0
LINE
  5
92
330
1F
100
AcDbEntity
  8
0
  6
Continuous
 62
     7
370
     0
100
AcDbLine
 10
185.6907965209
 20
23.1152464079
 30
0.0
 11
235.6907965209
 21
23.1152464079
 31
0.0
  0
LINE
  5
93
330
1F
100
AcDbEntity
  8
0
  6
Continuous
 62
     7
370
     0
100
AcDbLine
 10
185.6907965209
 20
28.1152464079
 30
0.0
 11
285.6907965209
 21
28.1152464079
 31
0.0
  0
LINE
  5
94
330
1F
100
AcDbEntity
  8
0
  6
Continuous
 62
     7
370
     0
100
AcDbLine
 10
235.6907965209
 20
33.1152464079
 30
0.0
 11
285.6907965209
 21
33.1152464079
 31
0.0
  0
LINE
  5
95
330
1F
100
AcDbEntity
  8
0
  6
Continuous
 62
     7
370
    15
100
AcDbLine
 10
235.6907965209
 20
18.1152464079
 30
0.0
 11
285.6907965209
 21
18.1152464079
 31
0.0
  0
LINE
  5
96
330
1F
100
AcDbEntity
  8
0
  6
Continuous
 62
     7
370
     0
100
AcDbLine
 10
185.6907965209
 20
43.1152464079
 30
0.0
 11
285.6907965209
 21
43.1152464079
 31
0.0
  0
LINE
  5
97
330
1F
100
AcDbEntity
  8
0
  6
Continuous
 62
     7
370
     0
100
AcDbLine
 10
251.237217675
 20
8.1152464079
 30
0.0
 11
251.237217675
 21
18.1152464079
 31
0.0
  0
LINE
  5
98
330
1F
100
AcDbEntity
  8
0
  6
Continuous
 62
     7
370
     0
100
AcDbLine
 10
235.6907965209
 20
8.1152464079
 30
0.0
 11
235.6907965209
 21
43.1152464079
 31
0.0
  0
LINE
  5
99
330
1F
100
AcDbEntity
  8
0
  6
Continuous
 62
     7
370
     0
100
AcDbLine
 10
251.237217675
 20
28.1152464079
 30
0.0
 11
251.237217675
 21
33.1152464079
 31
0.0
  0
LINE
  5
9A
330
1F
100
AcDbEntity
  8
0
  6
Continuous
 62
     7
370
     0
100
AcDbLine
 10
214.4164086353
 20
8.1152464079
 30
0.0
 11
214.4164086353
 21
28.1152464079
 31
0.0
  0
LINE
  5
9B
330
1F
100
AcDbEntity
  8
0
  6
Continuous
 62
     7
370
     0
100
AcDbLine
 10
199.7785887506
 20
8.1152464079
 30
0.0
 11
199.7785887506
 21
28.1152464079
 31
0.0
  0
LINE
  5
9C
330
1F
100
AcDbEntity
  8
0
  6
Continuous
 62
     7
370
     0
100
AcDbLine
 10
185.6907965209
 20
8.1152464079
 30
0.0
 11
185.6907965209
 21
43.1152464079
 31
0.0
  0
LINE
  5
9D
330
1F
100
AcDbEntity
  8
0
  6
Continuous
 62
     7
370
    15
100
AcDbLine
 10
8.6907965209
 20
104.7436369915
 30
0.0
 11
14.6907965209
 21
104.7436369915
 31
0.0
  0
LINE
  5
9E
330
1F
100
AcDbEntity
  8
0
  6
Continuous
 62
     7
370
    15
100
AcDbLine
 10
285.6907965209
 20
104.7436369915
 30
0.0
 11
279.6907965209
 21
104.7436369915
 31
0.0
  0
LINE
  5
9F
330
1F
100
AcDbEntity
  8
0
  6
Continuous
 62
     7
370
    15
100
AcDbLine
 10
147.1907965209
 20
8.1152464079
 30
0.0
 11
147.1907965209
 21
14.1152464079
 31
0.0
  0
LINE
  5
A0
330
1F
100
AcDbEntity
  8
0
  6
Continuous
 62
     7
370
    15
100
AcDbLine
 10
147.1907965209
 20
201.3720275751
 30
0.0
 11
147.1907965209
 21
195.3720275751
 31
0.0
  0
LINE
  5
A1
330
1F
100
AcDbEntity
  8
0
  6
Continuous
 62
     7
370
    15
100
AcDbLine
 10
43.3207965209
 20
201.3720275751
 30
0.0
 11
43.3207965209
 21
202.8720275751
 31
0.0
  0
LINE
  5
A2
330
1F
100
AcDbEntity
  8
0
  6
Continuous
 62
     7
370
    15
100
AcDbLine
 10
77.9507965209
 20
201.3720275751
 30
0.0
 11
77.9507965209
 21
202.8720275751
 31
0.0
  0
LINE
  5
A3
330
1F
100
AcDbEntity
  8
0
  6
Continuous
 62
     7
370
    15
100
AcDbLine
 10
112.5807965209
 20
201.3720275751
 30
0.0
 11
112.5807965209
 21
202.8720275751
 31
0.0
  0
LINE
  5
A4
330
1F
100
AcDbEntity
  8
0
  6
Continuous
 62
     7
370
    15
100
AcDbLine
 10
147.2107965209
 20
201.3720275751
 30
0.0
 11
147.2107965209
 21
202.8720275751
 31
0.0
  0
LINE
  5
A5
330
1F
100
AcDbEntity
  8
0
  6
Continuous
 62
     7
370
    15
100
AcDbLine
 10
181.8407965209
 20
201.3720275751
 30
0.0
 11
181.8407965209
 21
202.8720275751
 31
0.0
  0
LINE
  5
A6
330
1F
100
AcDbEntity
  8
0
  6
Continuous
 62
     7
370
    15
100
AcDbLine
 10
216.4707965209
 20
201.3720275751
 30
0.0
 11
216.4707965209
 21
202.8720275751
 31
0.0
  0
LINE
  5
A7
330
1F
100
AcDbEntity
  8
0
  6
Continuous
 62
     7
370
    15
100
AcDbLine
 10
251.1007965209
 20
201.3720275751
 30
0.0
 11
251.1007965209
 21
202.8720275751
 31
0.0
  0
LINE
  5
A8
330
1F
100
AcDbEntity
  8
0
  6
Continuous
 62
     7
370
    15
100
AcDbLine
 10
43.3157965209
 20
8.1152464079
 30
0.0
 11
43.3157965209
 21
6.6152464079
 31
0.0
  0
LINE
  5
A9
330
1F
100
AcDbEntity
  8
0
  6
Continuous
 62
     7
370
    15
100
AcDbLine
 10
77.9407965209
 20
8.1152464079
 30
0.0
 11
77.9407965209
 21
6.6152464079
 31
0.0
  0
LINE
  5
AA
330
1F
100
AcDbEntity
  8
0
  6
Continuous
 62
     7
370
    15
100
AcDbLine
 10
112.5657965209
 20
8.1152464079
 30
0.0
 11
112.5657965209
 21
6.6152464079
 31
0.0
  0
LINE
  5
AB
330
1F
100
AcDbEntity
  8
0
  6
Continuous
 62
     7
370
    15
100
AcDbLine
 10
147.1907965209
 20
8.1152464079
 30
0.0
 11
147.1907965209
 21
6.6152464079
 31
0.0
  0
LINE
  5
AC
330
1F
100
AcDbEntity
  8
0
  6
Continuous
 62
     7
370
    15
100
AcDbLine
 10
181.8157965209
 20
8.1152464079
 30
0.0
 11
181.8157965209
 21
6.6152464079
 31
0.0
  0
LINE
  5
AD
330
1F
100
AcDbEntity
  8
0
  6
Continuous
 62
     7
370
    15
100
AcDbLine
 10
216.4407965209
 20
8.1152464079
 30
0.0
 11
216.4407965209
 21
6.6152464079
 31
0.0
  0
LINE
  5
AE
330
1F
100
AcDbEntity
  8
0
  6
Continuous
 62
     7
370
     0
100
AcDbLine
 10
285.6907965209
 20
201.3720275751
 30
0.0
 11
8.6907965209
 21
201.3720275751
 31
0.0
  0
LINE
  5
AF
330
1F
100
AcDbEntity
  8
0
  6
Continuous
 62
     7
370
     0
100
AcDbLine
 10
285.6907965209
 20
8.1152464079
 30
0.0
 11
285.6907965209
 21
201.3720275751
 31
0.0
  0
LINE
  5
B0
330
1F
100
AcDbEntity
  8
0
  6
Continuous
 62
     7
370
     0
100
AcDbLine
 10
8.6907965209
 20
201.3720275751
 30
0.0
 11
8.6907965209
 21
8.1152464079
 31
0.0
  0
LINE
  5
B1
330
1F
100
AcDbEntity
  8
0
  6
Continuous
 62
     7
370
     0
100
AcDbLine
 10
8.6907965209
 20
8.1152464079
 30
0.0
 11
285.6907965209
 21
8.1152464079
 31
0.0
  0
LINE
  5
B2
330
1F
100
AcDbEntity
  8
0
  6
Continuous
 62
     7
370
    15
100
AcDbLine
 10
251.0657965209
 20
8.1152464079
 30
0.0
 11
251.0657965209
 21
6.6152464079
 31
0.0
  0
LINE
  5
B3
330
1F
100
AcDbEntity
  8
0
  6
Continuous
 62
     7
370
    15
100
AcDbLine
 10
8.6907965209
 20
40.3252464079
 30
0.0
 11
7.1907965209
 21
40.3252464079
 31
0.0
  0
LINE
  5
B4
330
1F
100
AcDbEntity
  8
0
  6
Continuous
 62
     7
370
    15
100
AcDbLine
 10
8.6907965209
 20
72.5352464079
 30
0.0
 11
7.1907965209
 21
72.5352464079
 31
0.0
  0
LINE
  5
B5
330
1F
100
AcDbEntity
  8
0
  6
Continuous
 62
     7
370
    15
100
AcDbLine
 10
8.6907965209
 20
104.7452464079
 30
0.0
 11
7.1907965209
 21
104.7452464079
 31
0.0
  0
LINE
  5
B6
330
1F
100
AcDbEntity
  8
0
  6
Continuous
 62
     7
370
    15
100
AcDbLine
 10
8.6907965209
 20
136.9552464079
 30
0.0
 11
7.1907965209
 21
136.9552464079
 31
0.0
  0
LINE
  5
B7
330
1F
100
AcDbEntity
  8
0
  6
Continuous
 62
     7
370
    15
100
AcDbLine
 10
8.6907965209
 20
169.1652464079
 30
0.0
 11
7.1907965209
 21
169.1652464079
 31
0.0
  0
LINE
  5
B8
330
1F
100
AcDbEntity
  8
0
  6
Continuous
 62
     7
370
    15
100
AcDbLine
 10
285.6907965209
 20
40.3252464079
 30
0.0
 11
287.1907965209
 21
40.3252464079
 31
0.0
  0
LINE
  5
B9
330
1F
100
AcDbEntity
  8
0
  6
Continuous
 62
     7
370
    15
100
AcDbLine
 10
285.6907965209
 20
72.5352464079
 30
0.0
 11
287.1907965209
 21
72.5352464079
 31
0.0
  0
LINE
  5
BA
330
1F
100
AcDbEntity
  8
0
  6
Continuous
 62
     7
370
    15
100
AcDbLine
 10
285.6907965209
 20
104.7452464079
 30
0.0
 11
287.1907965209
 21
104.7452464079
 31
0.0
  0
LINE
  5
BB
330
1F
100
AcDbEntity
  8
0
  6
Continuous
 62
     7
370
    15
100
AcDbLine
 10
285.6907965209
 20
136.9552464079
 30
0.0
 11
287.1907965209
 21
136.9552464079
 31
0.0
  0
LINE
  5
BC
330
1F
100
AcDbEntity
  8
0
  6
Continuous
 62
     7
370
    15
100
AcDbLine
 10
285.6907965209
 20
169.1652464079
 30
0.0
 11
287.1907965209
 21
169.1652464079
 31
0.0
  0
CIRCLE
  5
BD
330
1F
100
AcDbEntity
  8
0
  6
Continuous
 62
     7
370
     0
100
AcDbCircle
 10
168.3593775185
 20
17.7745192513
 30
0.0
 40
1.5
  0
CIRCLE
  5
BE
330
1F
100
AcDbEntity
  8
0
  6
Continuous
 62
     7
370
     0
100
AcDbCircle
 10
168.3593775185
 20
17.7745192513
 30
0.0
 40
2.5
  0
ARC
  5
BF
330
1F
100
AcDbEntity
  8
0
370
     0
100
AcDbCircle
 10
188.5601916644
 20
35.6652327401
 30
0.0
 40
1.531992467805807
100
AcDbArc
 50
130.2910647925
 51
228.509361907
  0
ARC
  5
C0
330
1F
100
AcDbEntity
  8
0
370
     0
100
AcDbCircle
 10
191.8645892225
 20
35.5524518768
 30
0.0
 40
2.570544369711287
100
AcDbArc
 50
140.1430462781
 51
253.0452525074
  0
ARC
  5
C1
330
1F
100
AcDbEntity
  8
0
370
     0
100
AcDbCircle
 10
192.1959864308
 20
35.941093626
 30
0.0
 40
3.045751395731247
100
AcDbArc
 50
249.2112209143
 51
308.9221353953
  0
ARC
  5
C2
330
1F
100
AcDbEntity
  8
0
 62
     1
370
     0
100
AcDbCircle
 10
196.0101318857
 20
35.7124883778
 30
0.0
 40
1.51855293741827
100
AcDbArc
 50
306.0377529468
 51
43.4396461534
  0
ARC
  5
C3
330
1F
100
AcDbEntity
  8
0
 62
     1
370
     0
100
AcDbCircle
 10
192.3291518698
 20
35.1868939873
 30
0.0
 40
3.18163670452787
100
AcDbArc
 50
45.5592925416
 51
125.8325555121
  0
ARC
  5
C4
330
1F
100
AcDbEntity
  8
0
 62
     1
370
     0
100
AcDbCircle
 10
192.6468081605
 20
35.7277157928
 30
0.0
 40
2.57756748834625
100
AcDbArc
 50
321.9435288427
 51
42.1815007004
  0
MTEXT
  5
C6
330
1F
100
AcDbEntity
  8
0
  6
Continuous
 62
     7
370
     0
100
AcDbMText
 10
165.5426850804
 20
13.2208440369
 30
0.0
 40
2.6458333333
 41
0.0
 71
     1
 72
     1
  1
UNIT:m/m
  7
SLDTEXTSTYLE0
 73
     1
 44
1.0
  0
INSERT
  5
CD
330
1F
100
AcDbEntity
  8
0
  6
Continuous
 62
     7
370
     0
100
AcDbBlockReference
  2
SW_NOTE_0
 10
12.2315076053
 20
193.8904304251
 30
0.0
  0
MTEXT
  5
CF
330
1F
100
AcDbEntity
  8
0
  6
Continuous
 62
     7
370
     0
100
AcDbMText
 10
198.7251893935
 20
40.4406774139
 30
0.0
 40
2.38125
 41
0.0
 71
     1
 72
     1
  1
Unice E-O Services Inc.
  7
SLDTEXTSTYLE1
 73
     1
 44
1.0
  0
MTEXT
  5
D0
330
1F
100
AcDbEntity
  8
0
  6
Continuous
 62
     7
370
     0
100
AcDbMText
 10
219.1181900715
 20
21.5867148511
 30
0.0
 40
1.8520833333
 41
0.0
 71
     1
 72
     1
  1
2016/03/08
  7
SLDTEXTSTYLE0
 73
     1
 44
1.0
  0
MTEXT
  5
D1
330
1F
100
AcDbEntity
  8
0
  6
Continuous
 62
     7
370
     0
100
AcDbMText
 10
252.6088982507
 20
16.87117774
 30
0.0
 40
2.5
 41
0.0
 71
     1
 72
     1
  1
1:1
  7
SLDTEXTSTYLE0
 73
     1
 44
1.0
  0
MTEXT
  5
D2
330
1F
100
AcDbEntity
  8
0
  6
Continuous
 62
     7
370
     0
100
AcDbMText
 10
252.3075599985
 20
32.1519195438
 30
0.0
 40
2.5
 41
0.0
 71
     1
 72
     1
  1
06UAP-2
  7
SLDTEXTSTYLE0
 73
     1
 44
1.0
  0
MTEXT
  5
D3
330
1F
100
AcDbEntity
  8
0
  6
Continuous
 62
     7
370
     0
100
AcDbMText
 10
252.3075599985
 20
38.1082117879
 30
0.0
 40
2.5
 41
0.0
 71
     1
 72
     1
  1
06UAP-2
  7
SLDTEXTSTYLE0
 73
     1
 44
1.0
  0
MTEXT
  5
D4
330
1F
100
AcDbEntity
  8
0
  6
Continuous
 62
     7
370
     0
100
AcDbMText
 10
236.3921866786
 20
16.5064795728
 30
0.0
 40
2.1166666667
 41
0.0
 71
     1
 72
     1
  1
SCALE:
  7
SLDTEXTSTYLE0
 73
     1
 44
1.0
  0
MTEXT
  5
D5
330
1F
100
AcDbEntity
  8
0
  6
Continuous
 62
     7
370
     0
100
AcDbMText
 10
186.3336086789
 20
21.5867148511
 30
0.0
 40
1.8520833333
 41
0.0
 71
     1
 72
     1
  1
DRAWN
  7
SLDTEXTSTYLE0
 73
     1
 44
1.0
  0
MTEXT
  5
D6
330
1F
100
AcDbEntity
  8
0
  6
Continuous
 62
     7
370
     0
100
AcDbMText
 10
203.2228367937
 20
26.683208308
 30
0.0
 40
1.8520833333
 41
0.0
 71
     1
 72
     1
  1
NAME
  7
SLDTEXTSTYLE0
 73
     1
 44
1.0
  0
MTEXT
  5
D7
330
1F
100
AcDbEntity
  8
0
  6
Continuous
 62
     7
370
     0
100
AcDbMText
 10
220.8710155758
 20
26.683208308
 30
0.0
 40
1.8520833333
 41
0.0
 71
     1
 72
     1
  1
DATE
  7
SLDTEXTSTYLE0
 73
     1
 44
1.0
  0
MTEXT
  5
D8
330
1F
100
AcDbEntity
  8
0
  6
Continuous
 62
     7
370
     0
100
AcDbMText
 10
236.2756316645
 20
31.7872213766
 30
0.0
 40
2.1166666667
 41
0.0
 71
     1
 72
     1
  1
DWG. NO.
  7
SLDTEXTSTYLE0
 73
     1
 44
1.0
  0
MTEXT
  5
D9
330
1F
100
AcDbEntity
  8
0
  6
Continuous
 62
     7
370
     0
100
AcDbMText
 10
236.3629907088
 20
41.8840658243
 30
0.0
 40
2.1166666667
 41
0.0
 71
     1
 72
     1
  1
TITLE:
  7
SLDTEXTSTYLE0
 73
     1
 44
1.0
  0
MTEXT
  5
DA
330
1F
100
AcDbEntity
  8
0
  6
Continuous
 62
     7
370
     0
100
AcDbMText
 10
203.0314209802
 20
16.2403789724
 30
0.0
 40
1.8520833333
 41
0.0
 71
     1
 72
     1
  1
Johnny
  7
SLDTEXTSTYLE0
 73
     1
 44
1.0
  0
MTEXT
  5
DB
330
1F
100
AcDbEntity
  8
0
  6
Continuous
 62
     7
370
     0
100
AcDbMText
 10
186.3336086789
 20
16.2403789724
 30
0.0
 40
1.8520833333
 41
0.0
 71
     1
 72
     1
  1
ENG APPR.
  7
SLDTEXTSTYLE0
 73
     1
 44
1.0
  0
MTEXT
  5
DC
330
1F
100
AcDbEntity
  8
0
  6
Continuous
 62
     7
370
     0
100
AcDbMText
 10
236.3921866786
 20
11.6853389288
 30
0.0
 40
2.1166666667
 41
0.0
 71
     1
 72
     1
  1
REV
  7
SLDTEXTSTYLE0
 73
     1
 44
1.0
  0
MTEXT
  5
DD
330
1F
100
AcDbEntity
  8
0
  6
Continuous
 62
     7
370
     0
100
AcDbMText
 10
236.3629907088
 20
26.9493089085
 30
0.0
 40
2.1166666667
 41
0.0
 71
     1
 72
     1
  1
MATERIAL:
  7
SLDTEXTSTYLE0
 73
     1
 44
1.0
  0
MTEXT
  5
DE
330
1F
100
AcDbEntity
  8
0
  6
Continuous
 62
     7
370
     0
100
AcDbMText
 10
252.6088982507
 20
22.2175136187
 30
0.0
 40
2.5
 41
0.0
 71
     1
 72
     1
  1
N/A
  7
SLDTEXTSTYLE0
 73
     1
 44
1.0
  0
MTEXT
  5
DF
330
1F
100
AcDbEntity
  8
0
  6
Continuous
 62
     7
370
     0
100
AcDbMText
 10
26.6029931533
 20
204.453351657
 30
0.0
 40
2.1166666667
 41
0.0
 71
     1
 72
     1
  1
1
  7
SLDTEXTSTYLE0
 73
     1
 44
1.0
  0
MTEXT
  5
E0
330
1F
100
AcDbEntity
  8
0
  6
Continuous
 62
     7
370
     0
100
AcDbMText
 10
60.7170995724
 20
204.453351657
 30
0.0
 40
2.1166666667
 41
0.0
 71
     1
 72
     1
  1
2
  7
SLDTEXTSTYLE0
 73
     1
 44
1.0
  0
MTEXT
  5
E1
330
1F
100
AcDbEntity
  8
0
  6
Continuous
 62
     7
370
     0
100
AcDbMText
 10
94.9009943906
 20
204.453351657
 30
0.0
 40
2.1166666667
 41
0.0
 71
     1
 72
     1
  1
3
  7
SLDTEXTSTYLE0
 73
     1
 44
1.0
  0
MTEXT
  5
E2
330
1F
100
AcDbEntity
  8
0
  6
Continuous
 62
     7
370
     0
100
AcDbMText
 10
129.2533362851
 20
204.2992584364
 30
0.0
 40
2.1166666667
 41
0.0
 71
     1
 72
     1
  1
4
  7
SLDTEXTSTYLE0
 73
     1
 44
1.0
  0
MTEXT
  5
E3
330
1F
100
AcDbEntity
  8
0
  6
Continuous
 62
     7
370
     0
100
AcDbMText
 10
163.702323464
 20
204.453351657
 30
0.0
 40
2.1166666667
 41
0.0
 71
     1
 72
     1
  1
5
  7
SLDTEXTSTYLE0
 73
     1
 44
1.0
  0
MTEXT
  5
E4
330
1F
100
AcDbEntity
  8
0
  6
Continuous
 62
     7
370
     0
100
AcDbMText
 10
198.6382170415
 20
204.453351657
 30
0.0
 40
2.1166666667
 41
0.0
 71
     1
 72
     1
  1
6
  7
SLDTEXTSTYLE0
 73
     1
 44
1.0
  0
MTEXT
  5
E5
330
1F
100
AcDbEntity
  8
0
  6
Continuous
 62
     7
370
     0
100
AcDbMText
 10
234.3630657407
 20
204.453351657
 30
0.0
 40
2.1166666667
 41
0.0
 71
     1
 72
     1
  1
7
  7
SLDTEXTSTYLE0
 73
     1
 44
1.0
  0
MTEXT
  5
E6
330
1F
100
AcDbEntity
  8
0
  6
Continuous
 62
     7
370
     0
100
AcDbMText
 10
266.2787820494
 20
204.453351657
 30
0.0
 40
2.1166666667
 41
0.0
 71
     1
 72
     1
  1
8
  7
SLDTEXTSTYLE0
 73
     1
 44
1.0
  0
MTEXT
  5
E7
330
1F
100
AcDbEntity
  8
0
  6
Continuous
 62
     7
370
     0
100
AcDbMText
 10
5.3568236555
 20
185.8113022879
 30
0.0
 40
2.1166666667
 41
0.0
 71
     1
 72
     1
  1
A
  7
SLDTEXTSTYLE0
 73
     1
 44
1.0
  0
MTEXT
  5
E8
330
1F
100
AcDbEntity
  8
0
  6
Continuous
 62
     7
370
     0
100
AcDbMText
 10
5.5910431831
 20
154.2993048238
 30
0.0
 40
2.1166666667
 41
0.0
 71
     1
 72
     1
  1
B
  7
SLDTEXTSTYLE0
 73
     1
 44
1.0
  0
MTEXT
  5
E9
330
1F
100
AcDbEntity
  8
0
  6
Continuous
 62
     7
370
     0
100
AcDbMText
 10
5.5910431831
 20
121.274351423
 30
0.0
 40
2.1166666667
 41
0.0
 71
     1
 72
     1
  1
C
  7
SLDTEXTSTYLE0
 73
     1
 44
1.0
  0
MTEXT
  5
EA
330
1F
100
AcDbEntity
  8
0
  6
Continuous
 62
     7
370
     0
100
AcDbMText
 10
5.5910431831
 20
88.7453220221
 30
0.0
 40
2.1166666667
 41
0.0
 71
     1
 72
     1
  1
D
  7
SLDTEXTSTYLE0
 73
     1
 44
1.0
  0
MTEXT
  5
EB
330
1F
100
AcDbEntity
  8
0
  6
Continuous
 62
     7
370
     0
100
AcDbMText
 10
5.5910431831
 20
57.5558849197
 30
0.0
 40
2.1166666667
 41
0.0
 71
     1
 72
     1
  1
E
  7
SLDTEXTSTYLE0
 73
     1
 44
1.0
  0
MTEXT
  5
EC
330
1F
100
AcDbEntity
  8
0
  6
Continuous
 62
     7
370
     0
100
AcDbMText
 10
5.5910431831
 20
25.5694212252
 30
0.0
 40
2.1166666667
 41
0.0
 71
     1
 72
     1
  1
F
  7
SLDTEXTSTYLE0
 73
     1
 44
1.0
  0
MTEXT
  5
ED
330
1F
100
AcDbEntity
  8
0
  6
Continuous
 62
     7
370
     0
100
AcDbMText
 10
266.1858616964
 20
6.6236223963
 30
0.0
 40
2.1166666667
 41
0.0
 71
     1
 72
     1
  1
8
  7
SLDTEXTSTYLE0
 73
     1
 44
1.0
  0
MTEXT
  5
EE
330
1F
100
AcDbEntity
  8
0
  6
Continuous
 62
     7
370
     0
100
AcDbMText
 10
234.2701453876
 20
6.6236223963
 30
0.0
 40
2.1166666667
 41
0.0
 71
     1
 72
     1
  1
7
  7
SLDTEXTSTYLE0
 73
     1
 44
1.0
  0
MTEXT
  5
EF
330
1F
100
AcDbEntity
  8
0
  6
Continuous
 62
     7
370
     0
100
AcDbMText
 10
198.5452966885
 20
6.6236223963
 30
0.0
 40
2.1166666667
 41
0.0
 71
     1
 72
     1
  1
6
  7
SLDTEXTSTYLE0
 73
     1
 44
1.0
  0
MTEXT
  5
F0
330
1F
100
AcDbEntity
  8
0
  6
Continuous
 62
     7
370
     0
100
AcDbMText
 10
163.6094031109
 20
6.6236223963
 30
0.0
 40
2.1166666667
 41
0.0
 71
     1
 72
     1
  1
5
  7
SLDTEXTSTYLE0
 73
     1
 44
1.0
  0
MTEXT
  5
F1
330
1F
100
AcDbEntity
  8
0
  6
Continuous
 62
     7
370
     0
100
AcDbMText
 10
129.1604159321
 20
6.4695291758
 30
0.0
 40
2.1166666667
 41
0.0
 71
     1
 72
     1
  1
4
  7
SLDTEXTSTYLE0
 73
     1
 44
1.0
  0
MTEXT
  5
F2
330
1F
100
AcDbEntity
  8
0
  6
Continuous
 62
     7
370
     0
100
AcDbMText
 10
94.8080740376
 20
6.6236223963
 30
0.0
 40
2.1166666667
 41
0.0
 71
     1
 72
     1
  1
3
  7
SLDTEXTSTYLE0
 73
     1
 44
1.0
  0
MTEXT
  5
F3
330
1F
100
AcDbEntity
  8
0
  6
Continuous
 62
     7
370
     0
100
AcDbMText
 10
60.6241792194
 20
6.6236223963
 30
0.0
 40
2.1166666667
 41
0.0
 71
     1
 72
     1
  1
2
  7
SLDTEXTSTYLE0
 73
     1
 44
1.0
  0
MTEXT
  5
F4
330
1F
100
AcDbEntity
  8
0
  6
Continuous
 62
     7
370
     0
100
AcDbMText
 10
26.5100728003
 20
6.6236223963
 30
0.0
 40
2.1166666667
 41
0.0
 71
     1
 72
     1
  1
1
  7
SLDTEXTSTYLE0
 73
     1
 44
1.0
  0
MTEXT
  5
F5
330
1F
100
AcDbEntity
  8
0
  6
Continuous
 62
     7
370
     0
100
AcDbMText
 10
287.1023846145
 20
186.6424909092
 30
0.0
 40
2.1166666667
 41
0.0
 71
     1
 72
     1
  1
A
  7
SLDTEXTSTYLE0
 73
     1
 44
1.0
  0
MTEXT
  5
F6
330
1F
100
AcDbEntity
  8
0
  6
Continuous
 62
     7
370
     0
100
AcDbMText
 10
287.3366041421
 20
155.1304934451
 30
0.0
 40
2.1166666667
 41
0.0
 71
     1
 72
     1
  1
B
  7
SLDTEXTSTYLE0
 73
     1
 44
1.0
  0
MTEXT
  5
F7
330
1F
100
AcDbEntity
  8
0
  6
Continuous
 62
     7
370
     0
100
AcDbMText
 10
287.3366041421
 20
122.1055400442
 30
0.0
 40
2.1166666667
 41
0.0
 71
     1
 72
     1
  1
C
  7
SLDTEXTSTYLE0
 73
     1
 44
1.0
  0
MTEXT
  5
F8
330
1F
100
AcDbEntity
  8
0
  6
Continuous
 62
     7
370
     0
100
AcDbMText
 10
287.3366041421
 20
89.5765106433
 30
0.0
 40
2.1166666667
 41
0.0
 71
     1
 72
     1
  1
D
  7
SLDTEXTSTYLE0
 73
     1
 44
1.0
  0
MTEXT
  5
F9
330
1F
100
AcDbEntity
  8
0
  6
Continuous
 62
     7
370
     0
100
AcDbMText
 10
287.3366041421
 20
58.3870735409
 30
0.0
 40
2.1166666667
 41
0.0
 71
     1
 72
     1
  1
E
  7
SLDTEXTSTYLE0
 73
     1
 44
1.0
  0
MTEXT
  5
FA
330
1F
100
AcDbEntity
  8
0
  6
Continuous
 62
     7
370
     0
100
AcDbMText
 10
287.3366041421
 20
26.4006098464
 30
0.0
 40
2.1166666667
 41
0.0
 71
     1
 72
     1
  1
F
  7
SLDTEXTSTYLE0
 73
     1
 44
1.0
  0
MTEXT
  5
FB
330
1F
100
AcDbEntity
  8
0
  6
Continuous
 62
     7
370
     0
100
AcDbMText
 10
203.1553128802
 20
21.5867148511
 30
0.0
 40
1.8520833333
 41
0.0
 71
     1
 72
     1
  1
Sammy
  7
SLDTEXTSTYLE0
 73
     1
 44
1.0
  0
MTEXT
  5
FC
330
1F
100
AcDbEntity
  8
0
  6
Continuous
 62
     7
370
     0
100
AcDbMText
 10
252.8482239645
 20
12.0500370959
 30
0.0
 40
2.5
 41
0.0
 71
     1
 72
     1
  1
0
  7
SLDTEXTSTYLE0
 73
     1
 44
1.0
  0
INSERT
  5
102
330
1F
100
AcDbEntity
  8
SLD-0
 62
     7
100
AcDbBlockReference
  2
SW_NOTE_1
 10
198.7251893935
 20
32.965327525
 30
0.0
  0
MTEXT
  5
103
330
1F
100
AcDbEntity
  8
SLD-0
 62
     7
100
AcDbMText
 10
219.1181900715
 20
16.2403789724
 30
0.0
 40
1.8520833333
 41
0.0
 71
     1
 72
     1
  1
2016/03/08
  7
SLDTEXTSTYLE0
 73
     1
 44
1.0
  0
ARC
  5
104
330
1F
100
AcDbEntity
  8
0
  6
Continuous
 62
     7
370
    30
100
AcDbCircle
 10
123.4241048539
 20
81.470429188
 30
0.0
 40
3.000000000000014
100
AcDbArc
 50
270.0
 51
0.0
  0
ARC
  5
105
330
1F
100
AcDbEntity
  8
0
  6
Continuous
 62
     7
370
    30
100
AcDbCircle
 10
64.4241048539
 20
81.470429188
 30
0.0
 40
3.0
100
AcDbArc
 50
180.0
 51
270.0
  0
ARC
  5
106
330
1F
100
AcDbEntity
  8
0
  6
Continuous
 62
     7
370
    30
100
AcDbCircle
 10
64.4241048539
 20
140.470429188
 30
0.0
 40
3.000000000000007
100
AcDbArc
 50
90.0
 51
180.0
  0
ARC
  5
107
330
1F
100
AcDbEntity
  8
0
  6
Continuous
 62
     7
370
    30
100
AcDbCircle
 10
123.4241048539
 20
140.470429188
 30
0.0
 40
3.000000000000014
100
AcDbArc
 50
0.0
 51
90.0
  0
CIRCLE
  5
108
330
1F
100
AcDbEntity
  8
0
  6
Continuous
 62
     7
370
    30
100
AcDbCircle
 10
68.5241048539
 20
85.570429188
 30
0.0
 40
2.552700000000002
  0
CIRCLE
  5
109
330
1F
100
AcDbEntity
  8
0
  6
Continuous
 62
     7
370
    30
100
AcDbCircle
 10
68.5241048539
 20
136.370429188
 30
0.0
 40
2.552699999999987
  0
CIRCLE
  5
10A
330
1F
100
AcDbEntity
  8
0
  6
Continuous
 62
     7
370
    30
100
AcDbCircle
 10
119.3241048539
 20
136.370429188
 30
0.0
 40
2.552699999999987
  0
CIRCLE
  5
10B
330
1F
100
AcDbEntity
  8
0
  6
Continuous
 62
     7
370
    30
100
AcDbCircle
 10
119.3241048539
 20
85.570429188
 30
0.0
 40
2.552700000000002
  0
CIRCLE
  5
10C
330
1F
100
AcDbEntity
  8
0
  6
Continuous
 62
     7
370
    30
100
AcDbCircle
 10
119.3241048539
 20
123.670429188
 30
0.0
 40
2.552699999999987
  0
CIRCLE
  5
10D
330
1F
100
AcDbEntity
  8
0
  6
Continuous
 62
     7
370
    30
100
AcDbCircle
 10
68.5241048539
 20
123.670429188
 30
0.0
 40
2.552699999999987
  0
CIRCLE
  5
10E
330
1F
100
AcDbEntity
  8
0
  6
Continuous
 62
     7
370
    30
100
AcDbCircle
 10
68.5241048539
 20
98.270429188
 30
0.0
 40
2.552699999999987
  0
CIRCLE
  5
10F
330
1F
100
AcDbEntity
  8
0
  6
Continuous
 62
     7
370
    30
100
AcDbCircle
 10
119.3241048539
 20
98.270429188
 30
0.0
 40
2.552699999999987
  0
CIRCLE
  5
110
330
1F
100
AcDbEntity
  8
0
  6
Continuous
 62
     7
370
    30
100
AcDbCircle
 10
68.5241048539
 20
110.970429188
 30
0.0
 40
5.556249999999991
  0
CIRCLE
  5
111
330
1F
100
AcDbEntity
  8
0
  6
Continuous
 62
     7
370
    30
100
AcDbCircle
 10
119.3241048539
 20
110.970429188
 30
0.0
 40
5.556249999999991
  0
CIRCLE
  5
112
330
1F
100
AcDbEntity
  8
0
  6
Continuous
 62
     7
370
    30
100
AcDbCircle
 10
93.9241048539
 20
136.370429188
 30
0.0
 40
5.556250000000006
  0
CIRCLE
  5
113
330
1F
100
AcDbEntity
  8
0
  6
Continuous
 62
     7
370
    30
100
AcDbCircle
 10
93.9241048539
 20
110.970429188
 30
0.0
 40
5.556249999999991
  0
CIRCLE
  5
114
330
1F
100
AcDbEntity
  8
0
  6
Continuous
 62
     7
370
    30
100
AcDbCircle
 10
93.9241048539
 20
85.570429188
 30
0.0
 40
5.556249999999991
  0
CIRCLE
  5
115
330
1F
100
AcDbEntity
  8
0
  6
Continuous
 62
     7
370
    30
100
AcDbCircle
 10
106.6241048539
 20
123.670429188
 30
0.0
 40
3.968749999999986
  0
CIRCLE
  5
116
330
1F
100
AcDbEntity
  8
0
  6
Continuous
 62
     7
370
    30
100
AcDbCircle
 10
81.2241048539
 20
123.670429188
 30
0.0
 40
3.96875
  0
CIRCLE
  5
117
330
1F
100
AcDbEntity
  8
0
  6
Continuous
 62
     7
370
    30
100
AcDbCircle
 10
81.2241048539
 20
98.270429188
 30
0.0
 40
3.968750000000014
  0
CIRCLE
  5
118
330
1F
100
AcDbEntity
  8
0
  6
Continuous
 62
     7
370
    30
100
AcDbCircle
 10
106.6241048539
 20
98.270429188
 30
0.0
 40
3.968749999999986
  0
LINE
  5
119
330
1F
100
AcDbEntity
  8
0
  6
Continuous
 62
     7
370
    30
100
AcDbLine
 10
123.4241048539
 20
143.470429188
 30
0.0
 11
64.4241048539
 21
143.470429188
 31
0.0
  0
LINE
  5
11A
330
1F
100
AcDbEntity
  8
0
  6
Continuous
 62
     7
370
    30
100
AcDbLine
 10
126.4241048539
 20
81.470429188
 30
0.0
 11
126.4241048539
 21
140.470429188
 31
0.0
  0
LINE
  5
11B
330
1F
100
AcDbEntity
  8
0
  6
Continuous
 62
     7
370
    30
100
AcDbLine
 10
64.4241048539
 20
78.470429188
 30
0.0
 11
123.4241048539
 21
78.470429188
 31
0.0
  0
LINE
  5
11C
330
1F
100
AcDbEntity
  8
0
  6
Continuous
 62
     7
370
    30
100
AcDbLine
 10
61.4241048539
 20
140.470429188
 30
0.0
 11
61.4241048539
 21
81.470429188
 31
0.0
  0
CIRCLE
  5
11D
330
1F
100
AcDbEntity
  8
0
  6
Continuous
 62
     7
370
    30
100
AcDbCircle
 10
106.6241048539
 20
98.270429188
 30
0.0
 40
2.247899999999987
  0
CIRCLE
  5
11E
330
1F
100
AcDbEntity
  8
0
  6
Continuous
 62
     7
370
    30
100
AcDbCircle
 10
81.2241048539
 20
98.270429188
 30
0.0
 40
2.247900000000001
  0
CIRCLE
  5
11F
330
1F
100
AcDbEntity
  8
0
  6
Continuous
 62
     7
370
    30
100
AcDbCircle
 10
81.2241048539
 20
123.670429188
 30
0.0
 40
2.247900000000001
  0
CIRCLE
  5
120
330
1F
100
AcDbEntity
  8
0
  6
Continuous
 62
     7
370
    30
100
AcDbCircle
 10
106.6241048539
 20
123.670429188
 30
0.0
 40
2.247899999999987
  0
CIRCLE
  5
121
330
1F
100
AcDbEntity
  8
0
  6
Continuous
 62
     7
370
    30
100
AcDbCircle
 10
93.9241048539
 20
136.370429188
 30
0.0
 40
3.378199999999993
  0
CIRCLE
  5
122
330
1F
100
AcDbEntity
  8
0
  6
Continuous
 62
     7
370
    30
100
AcDbCircle
 10
93.9241048539
 20
110.970429188
 30
0.0
 40
3.378199999999993
  0
CIRCLE
  5
123
330
1F
100
AcDbEntity
  8
0
  6
Continuous
 62
     7
370
    30
100
AcDbCircle
 10
68.5241048539
 20
110.970429188
 30
0.0
 40
3.378199999999993
  0
CIRCLE
  5
124
330
1F
100
AcDbEntity
  8
0
  6
Continuous
 62
     7
370
    30
100
AcDbCircle
 10
93.9241048539
 20
85.570429188
 30
0.0
 40
3.378199999999993
  0
CIRCLE
  5
125
330
1F
100
AcDbEntity
  8
0
  6
Continuous
 62
     7
370
    30
100
AcDbCircle
 10
119.3241048539
 20
110.970429188
 30
0.0
 40
3.378199999999993
  0
DIMENSION
  5
126
330
1F
100
AcDbEntity
  8
SLD-0
100
AcDbDimension
  2
_D
 10
126.4241048539
 20
161.7629352107
 30
0.0
 11
93.9241048539
 21
161.7629352107
 31
0.0
 70
   160
  1
<>
 71
     2
 42
-1.0
  3
SLDDIMSTYLE0
100
AcDbAlignedDimension
 13
61.4241048539
 23
140.470429188
 33
0.0
 14
126.4241048539
 24
140.470429188
 34
0.0
100
AcDbRotatedDimension
  0
DIMENSION
  5
131
330
1F
100
AcDbEntity
  8
SLD-0
100
AcDbDimension
  2
_D_1
 10
40.4241048539
 20
78.470429188
 30
0.0
 11
40.4241048539
 21
110.970429188
 31
0.0
 70
   160
  1
<>
 71
     2
 42
-1.0
  3
SLDDIMSTYLE0
100
AcDbAlignedDimension
 13
64.4241048539
 23
143.470429188
 33
0.0
 14
64.4241048539
 24
78.470429188
 34
0.0
 50
90.0
100
AcDbRotatedDimension
  0
DIMENSION
  5
13B
330
1F
100
AcDbEntity
  8
SLD-0
100
AcDbDimension
  2
_D_2
 10
93.9241048539
 20
148.9587402507
 30
0.0
 11
87.5741048539
 21
148.9587402507
 31
0.0
 70
   160
  1
<>
 71
     2
 42
-1.0
  3
SLDDIMSTYLE0
100
AcDbAlignedDimension
 13
81.2241048539
 23
128.639179188
 33
0.0
 14
93.9241048539
 24
136.370429188
 34
0.0
100
AcDbRotatedDimension
  0
DIMENSION
  5
145
330
1F
100
AcDbEntity
  8
SLD-0
100
AcDbDimension
  2
_D_3
 10
106.6241048539
 20
149.3587402507
 30
0.0
 11
100.2741048539
 21
149.3587402507
 31
0.0
 70
   160
  1
<>
 71
     2
 42
-1.0
  3
SLDDIMSTYLE0
100
AcDbAlignedDimension
 13
93.9241048539
 23
136.370429188
 33
0.0
 14
106.6241048539
 24
123.670429188
 34
0.0
100
AcDbRotatedDimension
  0
DIMENSION
  5
14F
330
1F
100
AcDbEntity
  8
SLD-0
100
AcDbDimension
  2
_D_4
 10
55.4761553211
 20
110.970429188
 30
0.0
 11
55.4761553211
 21
117.320429188
 31
0.0
 70
   160
  1
<>
 71
     2
 42
-1.0
  3
SLDDIMSTYLE0
100
AcDbAlignedDimension
 13
68.5241048539
 23
123.670429188
 33
0.0
 14
68.5241048539
 24
110.970429188
 34
0.0
 50
90.0
100
AcDbRotatedDimension
  0
DIMENSION
  5
159
330
1F
100
AcDbEntity
  8
SLD-0
100
AcDbDimension
  2
_D_5
 10
55.4761553211
 20
98.270429188
 30
0.0
 11
55.4761553211
 21
104.620429188
 31
0.0
 70
   160
  1
<>
 71
     2
 42
-1.0
  3
SLDDIMSTYLE0
100
AcDbAlignedDimension
 13
68.5241048539
 23
110.970429188
 33
0.0
 14
64.9714048539
 24
98.270429188
 34
0.0
 50
90.0
100
AcDbRotatedDimension
  0
DIMENSION
  5
163
330
1F
100
AcDbEntity
  8
SLD-0
100
AcDbDimension
  2
_D_6
 10
48.2946070567
 20
85.570429188
 30
0.0
 11
48.2946070567
 21
98.270429188
 31
0.0
 70
   160
  1
<>
 71
     2
 42
-1.0
  3
SLDDIMSTYLE0
100
AcDbAlignedDimension
 13
68.5241048539
 23
110.970429188
 33
0.0
 14
68.5241048539
 24
85.570429188
 34
0.0
 50
90.0
100
AcDbRotatedDimension
  0
DIMENSION
  5
16D
330
1F
100
AcDbEntity
  8
SLD-0
100
AcDbDimension
  2
_D_7
 10
82.6498056432
 20
101.9742588037
 30
0.0
 11
59.0084318916
 21
67.9681643
 31
0.0
 70
   163
  1
4 HOLES,\P 8-32 CLR
 71
     1
 42
-1.0
  3
SLDDIMSTYLE1
100
AcDbDiametricDimension
 15
79.7984040645
 25
94.5665995724
 35
0.0
 40
0.0
  0
DIMENSION
  5
177
330
1F
100
AcDbEntity
  8
SLD-0
100
AcDbDimension
  2
_D_8
 10
93.1174891778
 20
91.0678181331
 30
0.0
 11
108.5682017201
 21
65.3641068846
 31
0.0
 70
   163
  1
5 HOLES,\P 1/4"-20 CLR
 71
     1
 42
-1.0
  3
SLDDIMSTYLE1
100
AcDbDiametricDimension
 15
94.73072053
 25
80.0730402429
 35
0.0
 40
0.0
  0
DIMENSION
  5
180
330
1F
100
AcDbEntity
  8
SLD-0
100
AcDbDimension
  2
_D_9
 10
117.5327048188
 20
88.1917858815
 30
0.0
 11
143.1819374398
 21
67.637814574
 31
0.0
 70
   163
  1
8 HOLES,\P 1/4"-20
 71
     1
 42
-1.0
  3
SLDDIMSTYLE1
100
AcDbDiametricDimension
 15
121.115504889
 25
82.9490724946
 35
0.0
 40
0.0
  0
DIMENSION
  5
189
330
1F
100
AcDbEntity
  8
SLD-0
 62
     7
100
AcDbDimension
  2
_D_10
 10
48.2946070567
 20
110.970429188
 30
0.0
 11
48.2946070567
 21
123.670429188
 31
0.0
 70
   160
  1
<>
 71
     2
 42
-1.0
  3
SLDDIMSTYLE0
100
AcDbAlignedDimension
 13
68.5241048539
 23
136.370429188
 33
0.0
 14
68.5241048539
 24
110.970429188
 34
0.0
 50
90.0
100
AcDbRotatedDimension
  0
DIMENSION
  5
193
330
1F
100
AcDbEntity
  8
SLD-0
 62
     7
100
AcDbDimension
  2
_D_11
 10
68.5241048539
 20
155.2698093641
 30
0.0
 11
81.2241048539
 21
155.2698093641
 31
0.0
 70
   160
  1
<>
 71
     2
 42
-1.0
  3
SLDDIMSTYLE0
100
AcDbAlignedDimension
 13
93.9241048539
 23
136.370429188
 33
0.0
 14
68.5241048539
 24
136.370429188
 34
0.0
100
AcDbRotatedDimension
  0
DIMENSION
  5
19D
330
1F
100
AcDbEntity
  8
SLD-0
 62
     7
100
AcDbDimension
  2
_D_12
 10
119.3241048539
 20
155.2698093641
 30
0.0
 11
106.6241048539
 21
155.2698093641
 31
0.0
 70
   160
  1
<>
 71
     2
 42
-1.0
  3
SLDDIMSTYLE0
100
AcDbAlignedDimension
 13
93.9241048539
 23
136.370429188
 33
0.0
 14
119.3241048539
 24
136.370429188
 34
0.0
100
AcDbRotatedDimension
  0
INSERT
  5
1B2
330
1F
100
AcDbEntity
  8
SLD-0
100
AcDbBlockReference
  2
SW_CENTERMARKSYMBOL_0
 10
68.5241048539
 20
136.370429188
 30
0.0
  0
INSERT
  5
1BE
330
1F
100
AcDbEntity
  8
SLD-0
100
AcDbBlockReference
  2
SW_CENTERMARKSYMBOL_1
 10
93.9241048539
 20
136.370429188
 30
0.0
  0
INSERT
  5
1CA
330
1F
100
AcDbEntity
  8
SLD-0
100
AcDbBlockReference
  2
SW_CENTERMARKSYMBOL_2
 10
68.5241048539
 20
123.670429188
 30
0.0
  0
INSERT
  5
1D6
330
1F
100
AcDbEntity
  8
SLD-0
100
AcDbBlockReference
  2
SW_CENTERMARKSYMBOL_3
 10
68.5241048539
 20
110.970429188
 30
0.0
  0
INSERT
  5
1E2
330
1F
100
AcDbEntity
  8
SLD-0
100
AcDbBlockReference
  2
SW_CENTERMARKSYMBOL_4
 10
68.5241048539
 20
98.270429188
 30
0.0
  0
INSERT
  5
1EE
330
1F
100
AcDbEntity
  8
SLD-0
100
AcDbBlockReference
  2
SW_CENTERMARKSYMBOL_5
 10
68.5241048539
 20
85.570429188
 30
0.0
  0
INSERT
  5
1FA
330
1F
100
AcDbEntity
  8
SLD-0
100
AcDbBlockReference
  2
SW_CENTERMARKSYMBOL_6
 10
81.2241048539
 20
98.270429188
 30
0.0
  0
INSERT
  5
206
330
1F
100
AcDbEntity
  8
SLD-0
100
AcDbBlockReference
  2
SW_CENTERMARKSYMBOL_7
 10
81.2241048539
 20
123.670429188
 30
0.0
  0
INSERT
  5
212
330
1F
100
AcDbEntity
  8
SLD-0
100
AcDbBlockReference
  2
SW_CENTERMARKSYMBOL_8
 10
93.9241048539
 20
110.970429188
 30
0.0
  0
INSERT
  5
21E
330
1F
100
AcDbEntity
  8
SLD-0
100
AcDbBlockReference
  2
SW_CENTERMARKSYMBOL_9
 10
106.6241048539
 20
123.670429188
 30
0.0
  0
INSERT
  5
22A
330
1F
100
AcDbEntity
  8
SLD-0
100
AcDbBlockReference
  2
SW_CENTERMARKSYMBOL_10
 10
106.6241048539
 20
98.270429188
 30
0.0
  0
INSERT
  5
236
330
1F
100
AcDbEntity
  8
SLD-0
100
AcDbBlockReference
  2
SW_CENTERMARKSYMBOL_11
 10
119.3241048539
 20
110.970429188
 30
0.0
  0
INSERT
  5
242
330
1F
100
AcDbEntity
  8
SLD-0
100
AcDbBlockReference
  2
SW_CENTERMARKSYMBOL_12
 10
119.3241048539
 20
123.670429188
 30
0.0
  0
INSERT
  5
24E
330
1F
100
AcDbEntity
  8
SLD-0
100
AcDbBlockReference
  2
SW_CENTERMARKSYMBOL_13
 10
119.3241048539
 20
136.370429188
 30
0.0
  0
INSERT
  5
25A
330
1F
100
AcDbEntity
  8
SLD-0
100
AcDbBlockReference
  2
SW_CENTERMARKSYMBOL_14
 10
119.3241048539
 20
98.270429188
 30
0.0
  0
INSERT
  5
266
330
1F
100
AcDbEntity
  8
SLD-0
100
AcDbBlockReference
  2
SW_CENTERMARKSYMBOL_15
 10
119.3241048539
 20
85.570429188
 30
0.0
  0
INSERT
  5
272
330
1F
100
AcDbEntity
  8
SLD-0
100
AcDbBlockReference
  2
SW_CENTERMARKSYMBOL_16
 10
93.9241048539
 20
85.570429188
 30
0.0
  0
ARC
  5
273
330
1F
100
AcDbEntity
  8
0
  6
Continuous
 62
     7
370
     0
100
AcDbCircle
 10
119.3241048539
 20
123.670429188
 30
0.0
 40
3.175000000000042
100
AcDbArc
 50
255.0
 51
195.0
  0
ARC
  5
274
330
1F
100
AcDbEntity
  8
0
  6
Continuous
 62
     7
370
     0
100
AcDbCircle
 10
68.5241048539
 20
123.670429188
 30
0.0
 40
3.175000000000015
100
AcDbArc
 50
255.0
 51
195.0
  0
ARC
  5
275
330
1F
100
AcDbEntity
  8
0
  6
Continuous
 62
     7
370
     0
100
AcDbCircle
 10
68.5241048539
 20
98.270429188
 30
0.0
 40
3.174999999999987
100
AcDbArc
 50
255.0
 51
195.0
  0
ARC
  5
276
330
1F
100
AcDbEntity
  8
0
  6
Continuous
 62
     7
370
     0
100
AcDbCircle
 10
119.3241048539
 20
98.270429188
 30
0.0
 40
3.175000000000025
100
AcDbArc
 50
255.0
 51
195.0
  0
ARC
  5
277
330
1F
100
AcDbEntity
  8
0
  6
Continuous
 62
     7
370
     0
100
AcDbCircle
 10
68.5241048539
 20
85.570429188
 30
0.0
 40
3.175000000000001
100
AcDbArc
 50
255.0
 51
195.0
  0
ARC
  5
278
330
1F
100
AcDbEntity
  8
0
  6
Continuous
 62
     7
370
     0
100
AcDbCircle
 10
68.5241048539
 20
136.370429188
 30
0.0
 40
3.175000000000046
100
AcDbArc
 50
255.0
 51
195.0
  0
ARC
  5
279
330
1F
100
AcDbEntity
  8
0
  6
Continuous
 62
     7
370
     0
100
AcDbCircle
 10
119.3241048539
 20
136.370429188
 30
0.0
 40
3.175000000000018
100
AcDbArc
 50
255.0
 51
195.0
  0
ARC
  5
27A
330
1F
100
AcDbEntity
  8
0
  6
Continuous
 62
     7
370
     0
100
AcDbCircle
 10
119.3241048539
 20
85.570429188
 30
0.0
 40
3.175000000000017
100
AcDbArc
 50
255.0
 51
195.0
  0
LINE
  5
27B
330
1F
100
AcDbEntity
  8
0
  6
Continuous
 62
     7
370
    30
100
AcDbLine
 10
268.654468358
 20
140.0658250651
 30
0.0
 11
268.654468358
 21
146.5981515602
 31
0.0
  0
LINE
  5
27C
330
1F
100
AcDbEntity
  8
0
  6
Continuous
 62
     7
370
    30
100
AcDbLine
 10
179.215868178
 20
146.5981515602
 30
0.0
 11
179.215868178
 21
140.0658250651
 31
0.0
  0
ARC
  5
27D
330
1F
100
AcDbEntity
  8
0
  6
Continuous
 62
     7
370
    30
100
AcDbCircle
 10
223.935168268
 20
125.361141379
 30
0.0
 40
4.591106920648842
100
AcDbArc
 50
242.4805390039
 51
297.5194609961
  0
LINE
  5
27E
330
1F
100
AcDbEntity
  8
0
  6
Continuous
 62
     7
370
    30
100
AcDbLine
 10
180.0945478344
 20
145.3735393924
 30
0.0
 11
221.8138479245
 21
121.2895000937
 31
0.0
  0
ARC
  5
27F
330
1F
100
AcDbEntity
  8
0
  6
Continuous
 62
     7
370
    30
100
AcDbCircle
 10
180.5723132524
 20
146.5981515602
 30
0.0
 40
1.314509321378503
100
AcDbArc
 50
111.3125518932
 51
248.6874481068
  0
LINE
  5
280
330
1F
100
AcDbEntity
  8
0
  6
Continuous
 62
     7
370
    30
100
AcDbLine
 10
221.8138479245
 20
171.9068030267
 30
0.0
 11
180.0945478344
 21
147.8227637279
 31
0.0
  0
ARC
  5
281
330
1F
100
AcDbEntity
  8
0
  6
Continuous
 62
     7
370
    30
100
AcDbCircle
 10
223.935168268
 20
167.8351617413
 30
0.0
 40
4.591106920648803
100
AcDbArc
 50
62.4805390039
 51
117.5194609961
  0
LINE
  5
282
330
1F
100
AcDbEntity
  8
0
  6
Continuous
 62
     7
370
    30
100
AcDbLine
 10
267.7757887016
 20
147.8227637279
 30
0.0
 11
226.0564886116
 21
171.9068030267
 31
0.0
  0
ARC
  5
283
330
1F
100
AcDbEntity
  8
0
  6
Continuous
 62
     7
370
    30
100
AcDbCircle
 10
267.2980232836
 20
146.5981515602
 30
0.0
 40
1.314509321378524
100
AcDbArc
 50
291.3125518932
 51
68.6874481068
  0
LINE
  5
284
330
1F
100
AcDbEntity
  8
0
  6
Continuous
 62
     7
370
    30
100
AcDbLine
 10
226.0564886116
 20
121.2895000937
 30
0.0
 11
267.7757887016
 21
145.3735393924
 31
0.0
  0
LWPOLYLINE
  5
285
330
1F
100
AcDbEntity
  8
0
  6
Continuous
 62
     7
370
    30
100
AcDbPolyline
 90
       37
 70
   128
 43
0.0
 10
186.2091123034
 20
145.5561290666
 10
186.5499752147
 20
145.3910144226
 10
186.935326147
 20
145.2625780297
 10
187.3534564073
 20
145.1747223627
 10
187.7916613192
 20
145.1301168715
 10
188.2366262482
 20
145.1301168715
 10
188.6748311602
 20
145.1747223627
 10
189.0929614205
 20
145.2625780297
 10
189.4783123528
 20
145.3910144226
 10
189.8191752641
 20
145.5561290666
 10
190.1051932072
 20
145.7529050368
 10
190.3276756717
 20
145.9753633949
 10
190.4798626405
 20
146.2167448562
 10
190.5571299896
 20
146.4697151673
 10
190.5571299896
 20
146.7265879531
 10
190.4798626405
 20
146.9795582641
 10
190.3276756717
 20
147.2209397254
 10
190.1051932072
 20
147.4433980835
 10
189.8191752641
 20
147.6401740537
 10
189.4783123528
 20
147.8052886977
 10
189.0929614205
 20
147.9337250906
 10
188.6748311602
 20
148.0215807576
 10
188.2366262482
 20
148.0661862488
 10
187.7916613192
 20
148.0661862488
 10
187.3534564073
 20
148.0215807576
 10
186.935326147
 20
147.9337250906
 10
186.5499752147
 20
147.8052886977
 10
186.2091123034
 20
147.6401740537
 10
185.9230943603
 20
147.4433980835
 10
185.7006118958
 20
147.2209397254
 10
185.548424927
 20
146.9795582641
 10
185.4711575779
 20
146.7265879531
 10
185.4711575779
 20
146.4697151673
 10
185.548424927
 20
146.2167448562
 10
185.7006118958
 20
145.9753633949
 10
185.9230943603
 20
145.7529050368
 10
186.2091123034
 20
145.5561290666
  0
LWPOLYLINE
  5
286
330
1F
100
AcDbEntity
  8
0
  6
Continuous
 62
     7
370
    30
100
AcDbPolyline
 90
       37
 70
   128
 43
0.0
 10
222.1301367877
 20
166.2928951069
 10
222.4709996989
 20
166.1277804629
 10
222.8563506313
 20
165.99934407
 10
223.2744808916
 20
165.911488403
 10
223.7126858035
 20
165.8668829118
 10
224.1576507325
 20
165.8668829118
 10
224.5958556444
 20
165.911488403
 10
225.0139859048
 20
165.99934407
 10
225.3993368371
 20
166.1277804629
 10
225.7401997483
 20
166.2928951069
 10
226.0262176915
 20
166.4896710771
 10
226.248700156
 20
166.7121294352
 10
226.4008871248
 20
166.9535108965
 10
226.4781544738
 20
167.2064812075
 10
226.4781544738
 20
167.4633539934
 10
226.4008871248
 20
167.7163243044
 10
226.248700156
 20
167.9577057657
 10
226.0262176915
 20
168.1801641238
 10
225.7401997483
 20
168.376940094
 10
225.3993368371
 20
168.542054738
 10
225.0139859048
 20
168.6704911309
 10
224.5958556444
 20
168.7583467979
 10
224.1576507325
 20
168.8029522891
 10
223.7126858035
 20
168.8029522891
 10
223.2744808916
 20
168.7583467979
 10
222.8563506313
 20
168.6704911309
 10
222.4709996989
 20
168.542054738
 10
222.1301367877
 20
168.376940094
 10
221.8441188446
 20
168.1801641238
 10
221.62163638
 20
167.9577057657
 10
221.4694494112
 20
167.7163243044
 10
221.3921820622
 20
167.4633539934
 10
221.3921820622
 20
167.2064812075
 10
221.4694494112
 20
166.9535108965
 10
221.62163638
 20
166.7121294352
 10
221.8441188446
 20
166.4896710771
 10
222.1301367877
 20
166.2928951069
  0
LWPOLYLINE
  5
287
330
1F
100
AcDbEntity
  8
0
  6
Continuous
 62
     7
370
    30
100
AcDbPolyline
 90
       37
 70
   128
 43
0.0
 10
258.051161272
 20
145.5561290666
 10
258.3920241832
 20
145.3910144226
 10
258.7773751155
 20
145.2625780297
 10
259.1955053759
 20
145.1747223627
 10
259.6337102878
 20
145.1301168715
 10
260.0786752168
 20
145.1301168715
 10
260.5168801287
 20
145.1747223627
 10
260.935010389
 20
145.2625780297
 10
261.3203613214
 20
145.3910144226
 10
261.6612242326
 20
145.5561290666
 10
261.9472421757
 20
145.7529050368
 10
262.1697246403
 20
145.9753633949
 10
262.3219116091
 20
146.2167448562
 10
262.3991789581
 20
146.4697151673
 10
262.3991789581
 20
146.7265879531
 10
262.3219116091
 20
146.9795582641
 10
262.1697246403
 20
147.2209397254
 10
261.9472421757
 20
147.4433980835
 10
261.6612242326
 20
147.6401740537
 10
261.3203613214
 20
147.8052886977
 10
260.935010389
 20
147.9337250906
 10
260.5168801287
 20
148.0215807576
 10
260.0786752168
 20
148.0661862488
 10
259.6337102878
 20
148.0661862488
 10
259.1955053759
 20
148.0215807576
 10
258.7773751155
 20
147.9337250906
 10
258.3920241832
 20
147.8052886977
 10
258.051161272
 20
147.6401740537
 10
257.7651433288
 20
147.4433980835
 10
257.5426608643
 20
147.2209397254
 10
257.3904738955
 20
146.9795582641
 10
257.3132065465
 20
146.7265879531
 10
257.3132065465
 20
146.4697151673
 10
257.3904738955
 20
146.2167448562
 10
257.5426608643
 20
145.9753633949
 10
257.7651433288
 20
145.7529050368
 10
258.051161272
 20
145.5561290666
  0
LWPOLYLINE
  5
288
330
1F
100
AcDbEntity
  8
0
  6
Continuous
 62
     7
370
    30
100
AcDbPolyline
 90
       37
 70
   128
 43
0.0
 10
222.1301367877
 20
124.8193630263
 10
222.4709996989
 20
124.6542483823
 10
222.8563506313
 20
124.5258119894
 10
223.2744808916
 20
124.4379563224
 10
223.7126858035
 20
124.3933508313
 10
224.1576507325
 20
124.3933508313
 10
224.5958556444
 20
124.4379563224
 10
225.0139859048
 20
124.5258119894
 10
225.3993368371
 20
124.6542483823
 10
225.7401997483
 20
124.8193630263
 10
226.0262176915
 20
125.0161389965
 10
226.248700156
 20
125.2385973546
 10
226.4008871248
 20
125.4799788159
 10
226.4781544738
 20
125.732949127
 10
226.4781544738
 20
125.9898219128
 10
226.4008871248
 20
126.2427922238
 10
226.248700156
 20
126.4841736851
 10
226.0262176915
 20
126.7066320432
 10
225.7401997483
 20
126.9034080134
 10
225.3993368371
 20
127.0685226574
 10
225.0139859048
 20
127.1969590503
 10
224.5958556444
 20
127.2848147173
 10
224.1576507325
 20
127.3294202085
 10
223.7126858035
 20
127.3294202085
 10
223.2744808916
 20
127.2848147173
 10
222.8563506313
 20
127.1969590503
 10
222.4709996989
 20
127.0685226574
 10
222.1301367877
 20
126.9034080134
 10
221.8441188446
 20
126.7066320432
 10
221.62163638
 20
126.4841736851
 10
221.4694494112
 20
126.2427922238
 10
221.3921820622
 20
125.9898219128
 10
221.3921820622
 20
125.732949127
 10
221.4694494112
 20
125.4799788159
 10
221.62163638
 20
125.2385973546
 10
221.8441188446
 20
125.0161389965
 10
222.1301367877
 20
124.8193630263
  0
LWPOLYLINE
  5
289
330
1F
100
AcDbEntity
  8
0
  6
Continuous
 62
     7
370
    30
100
AcDbPolyline
 90
       37
 70
   128
 43
0.0
 10
249.0709051509
 20
140.3719375566
 10
249.4117680621
 20
140.2068229126
 10
249.7971189945
 20
140.0783865197
 10
250.2152492548
 20
139.9905308526
 10
250.6534541667
 20
139.9459253615
 10
251.0984190957
 20
139.9459253615
 10
251.5366240077
 20
139.9905308526
 10
251.954754268
 20
140.0783865197
 10
252.3401052003
 20
140.2068229126
 10
252.6809681116
 20
140.3719375566
 10
252.9669860547
 20
140.5687135267
 10
253.1894685192
 20
140.7911718848
 10
253.341655488
 20
141.0325533462
 10
253.418922837
 20
141.2855236572
 10
253.418922837
 20
141.542396443
 10
253.341655488
 20
141.795366754
 10
253.1894685192
 20
142.0367482154
 10
252.9669860547
 20
142.2592065734
 10
252.6809681116
 20
142.4559825436
 10
252.3401052003
 20
142.6210971876
 10
251.954754268
 20
142.7495335805
 10
251.5366240077
 20
142.8373892476
 10
251.0984190957
 20
142.8819947387
 10
250.6534541667
 20
142.8819947387
 10
250.2152492548
 20
142.8373892476
 10
249.7971189945
 20
142.7495335805
 10
249.4117680621
 20
142.6210971876
 10
249.0709051509
 20
142.4559825436
 10
248.7848872078
 20
142.2592065734
 10
248.5624047433
 20
142.0367482154
 10
248.4102177745
 20
141.795366754
 10
248.3329504254
 20
141.542396443
 10
248.3329504254
 20
141.2855236572
 10
248.4102177745
 20
141.0325533462
 10
248.5624047433
 20
140.7911718848
 10
248.7848872078
 20
140.5687135267
 10
249.0709051509
 20
140.3719375566
  0
LWPOLYLINE
  5
28A
330
1F
100
AcDbEntity
  8
0
  6
Continuous
 62
     7
370
    30
100
AcDbPolyline
 90
       37
 70
   128
 43
0.0
 10
213.1498806666
 20
161.1087035969
 10
213.4907435779
 20
160.9435889529
 10
213.8760945102
 20
160.8151525599
 10
214.2942247705
 20
160.7272968929
 10
214.7324296824
 20
160.6826914018
 10
215.1773946115
 20
160.6826914018
 10
215.6155995234
 20
160.7272968929
 10
216.0337297837
 20
160.8151525599
 10
216.419080716
 20
160.9435889529
 10
216.7599436273
 20
161.1087035969
 10
217.0459615704
 20
161.305479567
 10
217.2684440349
 20
161.5279379251
 10
217.4206310037
 20
161.7693193864
 10
217.4978983528
 20
162.0222896975
 10
217.4978983528
 20
162.2791624833
 10
217.4206310037
 20
162.5321327943
 10
217.2684440349
 20
162.7735142557
 10
217.0459615704
 20
162.9959726137
 10
216.7599436273
 20
163.1927485839
 10
216.419080716
 20
163.3578632279
 10
216.0337297837
 20
163.4862996208
 10
215.6155995234
 20
163.5741552879
 10
215.1773946115
 20
163.618760779
 10
214.7324296824
 20
163.618760779
 10
214.2942247705
 20
163.5741552879
 10
213.8760945102
 20
163.4862996208
 10
213.4907435779
 20
163.3578632279
 10
213.1498806666
 20
163.1927485839
 10
212.8638627235
 20
162.9959726137
 10
212.641380259
 20
162.7735142557
 10
212.4891932902
 20
162.5321327943
 10
212.4119259411
 20
162.2791624833
 10
212.4119259411
 20
162.0222896975
 10
212.4891932902
 20
161.7693193864
 10
212.641380259
 20
161.5279379251
 10
212.8638627235
 20
161.305479567
 10
213.1498806666
 20
161.1087035969
  0
LWPOLYLINE
  5
28B
330
1F
100
AcDbEntity
  8
0
  6
Continuous
 62
     7
370
    30
100
AcDbPolyline
 90
       37
 70
   128
 43
0.0
 10
195.1893684245
 20
150.7403205767
 10
195.5302313357
 20
150.5752059327
 10
195.9155822681
 20
150.4467695398
 10
196.3337125284
 20
150.3589138728
 10
196.7719174403
 20
150.3143083816
 10
197.2168823693
 20
150.3143083816
 10
197.6550872812
 20
150.3589138728
 10
198.0732175415
 20
150.4467695398
 10
198.4585684739
 20
150.5752059327
 10
198.7994313851
 20
150.7403205767
 10
199.0854493283
 20
150.9370965469
 10
199.3079317928
 20
151.159554905
 10
199.4601187616
 20
151.4009363663
 10
199.5373861106
 20
151.6539066773
 10
199.5373861106
 20
151.9107794632
 10
199.4601187616
 20
152.1637497742
 10
199.3079317928
 20
152.4051312355
 10
199.0854493283
 20
152.6275895936
 10
198.7994313851
 20
152.8243655638
 10
198.4585684739
 20
152.9894802078
 10
198.0732175415
 20
153.1179166007
 10
197.6550872812
 20
153.2057722677
 10
197.2168823693
 20
153.2503777589
 10
196.7719174403
 20
153.2503777589
 10
196.3337125284
 20
153.2057722677
 10
195.9155822681
 20
153.1179166007
 10
195.5302313357
 20
152.9894802078
 10
195.1893684245
 20
152.8243655638
 10
194.9033504813
 20
152.6275895936
 10
194.6808680168
 20
152.4051312355
 10
194.528681048
 20
152.1637497742
 10
194.451413699
 20
151.9107794632
 10
194.451413699
 20
151.6539066773
 10
194.528681048
 20
151.4009363663
 10
194.6808680168
 20
151.159554905
 10
194.9033504813
 20
150.9370965469
 10
195.1893684245
 20
150.7403205767
  0
LWPOLYLINE
  5
28C
330
1F
100
AcDbEntity
  8
0
  6
Continuous
 62
     7
370
    30
100
AcDbPolyline
 90
       37
 70
   128
 43
0.0
 10
231.1103929087
 20
130.0035545364
 10
231.45125582
 20
129.8384398924
 10
231.8366067523
 20
129.7100034995
 10
232.2547370126
 20
129.6221478325
 10
232.6929419246
 20
129.5775423413
 10
233.1379068536
 20
129.5775423413
 10
233.5761117655
 20
129.6221478325
 10
233.9942420258
 20
129.7100034995
 10
234.3795929582
 20
129.8384398924
 10
234.7204558694
 20
130.0035545364
 10
235.0064738125
 20
130.2003305066
 10
235.228956277
 20
130.4227888647
 10
235.3811432458
 20
130.664170326
 10
235.4584105949
 20
130.917140637
 10
235.4584105949
 20
131.1740134229
 10
235.3811432458
 20
131.4269837339
 10
235.228956277
 20
131.6683651952
 10
235.0064738125
 20
131.8908235533
 10
234.7204558694
 20
132.0875995235
 10
234.3795929582
 20
132.2527141675
 10
233.9942420258
 20
132.3811505604
 10
233.5761117655
 20
132.4690062274
 10
233.1379068536
 20
132.5136117186
 10
232.6929419246
 20
132.5136117186
 10
232.2547370126
 20
132.4690062274
 10
231.8366067523
 20
132.3811505604
 10
231.45125582
 20
132.2527141675
 10
231.1103929087
 20
132.0875995235
 10
230.8243749656
 20
131.8908235533
 10
230.6018925011
 20
131.6683651952
 10
230.4497055323
 20
131.4269837339
 10
230.3724381833
 20
131.1740134229
 10
230.3724381833
 20
130.917140637
 10
230.4497055323
 20
130.664170326
 10
230.6018925011
 20
130.4227888647
 10
230.8243749656
 20
130.2003305066
 10
231.1103929087
 20
130.0035545364
  0
LWPOLYLINE
  5
28D
330
1F
100
AcDbEntity
  8
0
  6
Continuous
 62
     7
370
    30
100
AcDbPolyline
 90
       54
 70
   128
 43
0.0
 10
202.0457939729
 20
154.6984507947
 10
202.5380492515
 20
154.4461167957
 10
203.0785469562
 20
154.2291639377
 10
203.6596996838
 20
154.0506377631
 10
204.273349324
 20
153.913044388
 10
204.910881581
 20
153.818315322
 10
205.5633468993
 20
153.7677803533
 10
206.2215860963
 20
153.7621488823
 10
206.8763589363
 20
153.8014999623
 10
207.5184738439
 20
153.8852811905
 10
208.1389169336
 20
154.0123164622
 10
208.7289785442
 20
154.1808224805
 10
209.2803755041
 20
154.3884337903
 10
209.7853674089
 20
154.6322359839
 10
210.236865279
 20
154.908806613
 10
210.628531074
 20
155.2142632321
 10
210.9548666649
 20
155.5443179
 10
211.2112910151
 20
155.8943373725
 10
211.3942044888
 20
156.2594081435
 10
211.501039382
 20
156.6344054197
 10
211.5302959668
 20
157.0140650612
 10
211.481563545
 20
157.393057479
 10
211.3555262129
 20
157.7660624502
 10
211.1539532584
 20
158.1278438027
 10
210.8796743239
 20
158.4733229194
 10
210.5365396844
 20
158.7976500307
 10
210.1293661981
 20
159.0962722949
 10
209.6638696883
 20
159.36499771
 10
209.1465847055
 20
159.6000539604
 10
208.584772797
 20
159.7981413713
 10
207.9863205704
 20
159.9564792299
 10
207.3596289833
 20
160.0728448196
 10
206.7134954117
 20
160.1456046227
 10
206.0569901548
 20
160.173737251
 10
205.3993291071
 20
160.1568477841
 10
204.7497443882
 20
160.095173313
 10
204.1173547437
 20
159.9895796122
 10
203.511037538
 20
159.8415489858
 10
202.9393041355
 20
159.6531594592
 10
202.41018042
 20
159.4270556085
 10
201.9310941285
 20
159.166411436
 10
201.5087705825
 20
158.8748858147
 10
201.1491382788
 20
158.5565711252
 10
200.8572456665
 20
158.2159358081
 10
200.6371902782
 20
157.8577616364
 10
200.4920612092
 20
157.4870765904
 10
200.4238957534
 20
157.1090842757
 10
200.4336508044
 20
156.7290908757
 10
200.5211894226
 20
156.3524306648
 10
200.6852827578
 20
155.9843911268
 10
200.9236272993
 20
155.63013873
 10
201.2328772121
 20
155.2946464015
 10
201.6086913053
 20
154.9826237182
 10
202.0457939729
 20
154.6984507947
  0
LWPOLYLINE
  5
28E
330
1F
100
AcDbEntity
  8
0
  6
Continuous
 62
     7
370
    30
100
AcDbPolyline
 90
       54
 70
   128
 43
0.0
 10
237.9668184572
 20
133.9616847544
 10
238.4590737358
 20
133.7093507554
 10
238.9995714404
 20
133.4923978974
 10
239.5807241681
 20
133.3138717228
 10
240.1943738083
 20
133.1762783478
 10
240.8319060652
 20
133.0815492817
 10
241.4843713836
 20
133.031014313
 10
242.1426105805
 20
133.025382842
 10
242.7973834205
 20
133.064733922
 10
243.4394983282
 20
133.1485151502
 10
244.0599414178
 20
133.2755504219
 10
244.6500030284
 20
133.4440564402
 10
245.2013999884
 20
133.65166775
 10
245.7063918932
 20
133.8954699436
 10
246.1578897633
 20
134.1720405727
 10
246.5495555583
 20
134.4774971918
 10
246.8758911491
 20
134.8075518597
 10
247.1323154993
 20
135.1575713322
 10
247.3152289731
 20
135.5226421032
 10
247.4220638663
 20
135.8976393794
 10
247.4513204511
 20
136.2772990209
 10
247.4025880293
 20
136.6562914387
 10
247.2765506972
 20
137.0292964099
 10
247.0749777427
 20
137.3910777624
 10
246.8006988082
 20
137.7365568791
 10
246.4575641687
 20
138.0608839904
 10
246.0503906824
 20
138.3595062546
 10
245.5848941726
 20
138.6282316697
 10
245.0676091898
 20
138.8632879201
 10
244.5057972812
 20
139.061375331
 10
243.9073450547
 20
139.2197131896
 10
243.2806534676
 20
139.3360787793
 10
242.634519896
 20
139.4088385824
 10
241.978014639
 20
139.4369712107
 10
241.3203535914
 20
139.4200817438
 10
240.6707688725
 20
139.3584072727
 10
240.038379228
 20
139.252813572
 10
239.4320620223
 20
139.1047829455
 10
238.8603286198
 20
138.9163934189
 10
238.3312049042
 20
138.6902895682
 10
237.8521186128
 20
138.4296453957
 10
237.4297950668
 20
138.1381197744
 10
237.070162763
 20
137.8198050849
 10
236.7782701508
 20
137.4791697678
 10
236.5582147625
 20
137.1209955961
 10
236.4130856935
 20
136.7503105501
 10
236.3449202376
 20
136.3723182354
 10
236.3546752886
 20
135.9923248354
 10
236.4422139069
 20
135.6156646245
 10
236.6063072421
 20
135.2476250865
 10
236.8446517836
 20
134.8933726897
 10
237.1539016964
 20
134.5578803612
 10
237.5297157896
 20
134.2458576779
 10
237.9668184572
 20
133.9616847544
  0
LWPOLYLINE
  5
28F
330
1F
100
AcDbEntity
  8
0
  6
Continuous
 62
     7
370
    30
100
AcDbPolyline
 90
       54
 70
   128
 43
0.0
 10
237.9668184572
 20
154.6984507947
 10
238.4590737358
 20
154.4461167957
 10
238.9995714404
 20
154.2291639377
 10
239.5807241681
 20
154.0506377631
 10
240.1943738083
 20
153.913044388
 10
240.8319060652
 20
153.818315322
 10
241.4843713836
 20
153.7677803533
 10
242.1426105805
 20
153.7621488823
 10
242.7973834205
 20
153.8014999623
 10
243.4394983282
 20
153.8852811905
 10
244.0599414178
 20
154.0123164622
 10
244.6500030284
 20
154.1808224805
 10
245.2013999884
 20
154.3884337903
 10
245.7063918932
 20
154.6322359839
 10
246.1578897633
 20
154.908806613
 10
246.5495555583
 20
155.2142632321
 10
246.8758911491
 20
155.5443179
 10
247.1323154993
 20
155.8943373725
 10
247.3152289731
 20
156.2594081435
 10
247.4220638663
 20
156.6344054197
 10
247.4513204511
 20
157.0140650612
 10
247.4025880293
 20
157.393057479
 10
247.2765506972
 20
157.7660624502
 10
247.0749777427
 20
158.1278438027
 10
246.8006988082
 20
158.4733229194
 10
246.4575641687
 20
158.7976500307
 10
246.0503906824
 20
159.0962722949
 10
245.5848941726
 20
159.36499771
 10
245.0676091898
 20
159.6000539604
 10
244.5057972812
 20
159.7981413713
 10
243.9073450547
 20
159.9564792299
 10
243.2806534676
 20
160.0728448196
 10
242.634519896
 20
160.1456046227
 10
241.978014639
 20
160.173737251
 10
241.3203535914
 20
160.1568477841
 10
240.6707688725
 20
160.095173313
 10
240.038379228
 20
159.9895796122
 10
239.4320620223
 20
159.8415489858
 10
238.8603286198
 20
159.6531594592
 10
238.3312049042
 20
159.4270556085
 10
237.8521186128
 20
159.166411436
 10
237.4297950668
 20
158.8748858147
 10
237.070162763
 20
158.5565711252
 10
236.7782701508
 20
158.2159358081
 10
236.5582147625
 20
157.8577616364
 10
236.4130856935
 20
157.4870765904
 10
236.3449202376
 20
157.1090842757
 10
236.3546752886
 20
156.7290908757
 10
236.4422139069
 20
156.3524306648
 10
236.6063072421
 20
155.9843911268
 10
236.8446517836
 20
155.63013873
 10
237.1539016964
 20
155.2946464015
 10
237.5297157896
 20
154.9826237182
 10
237.9668184572
 20
154.6984507947
  0
LWPOLYLINE
  5
290
330
1F
100
AcDbEntity
  8
0
  6
Continuous
 62
     7
370
    30
100
AcDbPolyline
 90
       54
 70
   128
 43
0.0
 10
220.006306215
 20
144.3300677745
 10
220.4985614937
 20
144.0777337756
 10
221.0390591983
 20
143.8607809175
 10
221.6202119259
 20
143.6822547429
 10
222.2338615661
 20
143.5446613679
 10
222.8713938231
 20
143.4499323018
 10
223.5238591415
 20
143.3993973332
 10
224.1820983384
 20
143.3937658621
 10
224.8368711784
 20
143.4331169422
 10
225.4789860861
 20
143.5168981704
 10
226.0994291757
 20
143.643933442
 10
226.6894907863
 20
143.8124394603
 10
227.2408877463
 20
144.0200507701
 10
227.745879651
 20
144.2638529638
 10
228.1973775211
 20
144.5404235928
 10
228.5890433162
 20
144.845880212
 10
228.915378907
 20
145.1759348798
 10
229.1718032572
 20
145.5259543524
 10
229.354716731
 20
145.8910251234
 10
229.4615516242
 20
146.2660223995
 10
229.490808209
 20
146.6456820411
 10
229.4420757872
 20
147.0246744588
 10
229.316038455
 20
147.3976794301
 10
229.1144655005
 20
147.7594607826
 10
228.840186566
 20
148.1049398992
 10
228.4970519265
 20
148.4292670105
 10
228.0898784403
 20
148.7278892747
 10
227.6243819304
 20
148.9966146899
 10
227.1070969476
 20
149.2316709402
 10
226.5452850391
 20
149.4297583512
 10
225.9468328125
 20
149.5880962097
 10
225.3201412254
 20
149.7044617995
 10
224.6740076539
 20
149.7772216026
 10
224.0175023969
 20
149.8053542309
 10
223.3598413492
 20
149.7884647639
 10
222.7102566304
 20
149.7267902929
 10
222.0778669859
 20
149.6211965921
 10
221.4715497801
 20
149.4731659657
 10
220.8998163776
 20
149.2847764391
 10
220.3706926621
 20
149.0586725883
 10
219.8916063706
 20
148.7980284159
 10
219.4692828246
 20
148.5065027946
 10
219.1096505209
 20
148.1881881051
 10
218.8177579087
 20
147.8475527879
 10
218.5977025204
 20
147.4893786162
 10
218.4525734513
 20
147.1186935703
 10
218.3844079955
 20
146.7407012555
 10
218.3941630465
 20
146.3607078556
 10
218.4817016648
 20
145.9840476447
 10
218.645795
 20
145.6160081067
 10
218.8841395414
 20
145.2617557099
 10
219.1933894542
 20
144.9262633814
 10
219.5692035475
 20
144.6142406981
 10
220.006306215
 20
144.3300677745
  0
LWPOLYLINE
  5
291
330
1F
100
AcDbEntity
  8
0
  6
Continuous
 62
     7
370
    30
100
AcDbPolyline
 90
       54
 70
   128
 43
0.0
 10
202.0457939729
 20
133.9616847544
 10
202.5380492515
 20
133.7093507554
 10
203.0785469562
 20
133.4923978974
 10
203.6596996838
 20
133.3138717228
 10
204.273349324
 20
133.1762783478
 10
204.910881581
 20
133.0815492817
 10
205.5633468993
 20
133.031014313
 10
206.2215860963
 20
133.025382842
 10
206.8763589363
 20
133.064733922
 10
207.5184738439
 20
133.1485151502
 10
208.1389169336
 20
133.2755504219
 10
208.7289785442
 20
133.4440564402
 10
209.2803755041
 20
133.65166775
 10
209.7853674089
 20
133.8954699436
 10
210.236865279
 20
134.1720405727
 10
210.628531074
 20
134.4774971918
 10
210.9548666649
 20
134.8075518597
 10
211.2112910151
 20
135.1575713322
 10
211.3942044888
 20
135.5226421032
 10
211.501039382
 20
135.8976393794
 10
211.5302959668
 20
136.2772990209
 10
211.481563545
 20
136.6562914387
 10
211.3555262129
 20
137.0292964099
 10
211.1539532584
 20
137.3910777624
 10
210.8796743239
 20
137.7365568791
 10
210.5365396844
 20
138.0608839904
 10
210.1293661981
 20
138.3595062546
 10
209.6638696883
 20
138.6282316697
 10
209.1465847055
 20
138.8632879201
 10
208.584772797
 20
139.061375331
 10
207.9863205704
 20
139.2197131896
 10
207.3596289833
 20
139.3360787793
 10
206.7134954117
 20
139.4088385824
 10
206.0569901548
 20
139.4369712107
 10
205.3993291071
 20
139.4200817438
 10
204.7497443882
 20
139.3584072727
 10
204.1173547437
 20
139.252813572
 10
203.511037538
 20
139.1047829455
 10
202.9393041355
 20
138.9163934189
 10
202.41018042
 20
138.6902895682
 10
201.9310941285
 20
138.4296453957
 10
201.5087705825
 20
138.1381197744
 10
201.1491382788
 20
137.8198050849
 10
200.8572456665
 20
137.4791697678
 10
200.6371902782
 20
137.1209955961
 10
200.4920612092
 20
136.7503105501
 10
200.4238957534
 20
136.3723182354
 10
200.4336508044
 20
135.9923248354
 10
200.5211894226
 20
135.6156646245
 10
200.6852827578
 20
135.2476250865
 10
200.9236272993
 20
134.8933726897
 10
201.2328772121
 20
134.5578803612
 10
201.6086913053
 20
134.2458576779
 10
202.0457939729
 20
133.9616847544
  0
LWPOLYLINE
  5
292
330
1F
100
AcDbEntity
  8
0
  6
Continuous
 62
     7
370
    30
100
AcDbPolyline
 90
       46
 70
   128
 43
0.0
 10
239.0893504723
 20
144.9780917133
 10
239.507227137
 20
144.7683892717
 10
239.9715923298
 20
144.5943010718
 10
240.4734077104
 20
144.4592155422
 10
241.0029060132
 20
144.3657619693
 10
241.5497811561
 20
144.3157593204
 10
242.1033888365
 20
144.3101808403
 10
242.6529537105
 20
144.3491351077
 10
243.1877791232
 20
144.4318639222
 10
243.697455306
 20
144.5567570614
 10
244.1720619919
 20
144.7213836225
 10
244.6023615016
 20
144.9225393367
 10
244.9799785447
 20
145.1563089368
 10
245.2975632348
 20
145.4181423636
 10
245.5489341473
 20
145.7029433271
 10
245.7291986332
 20
146.0051685006
 10
245.8348480495
 20
146.3189354148
 10
245.8638260503
 20
146.6381369537
 10
245.8155686119
 20
146.9565602224
 10
245.6910150104
 20
147.2680074741
 10
245.49258954
 20
147.5664167425
 10
245.2241543267
 20
147.8459798305
 10
244.8909341567
 20
148.1012553605
 10
244.4994147815
 20
148.3272746849
 10
244.0572166804
 20
148.5196385945
 10
243.5729467364
 20
148.6746029446
 10
243.0560307133
 20
148.7891515304
 10
242.5165297933
 20
148.8610547941
 10
241.9649447482
 20
148.8889132203
 10
241.4120115535
 20
148.8721845765
 10
240.8684924249
 20
148.8111944667
 10
240.344966344
 20
148.707129994
 10
239.8516231503
 20
148.5620166551
 10
239.3980652082
 20
148.3786789159
 10
238.9931205068
 20
148.1606852371
 10
238.6446708344
 20
147.9122786176
 10
238.3594983673
 20
147.6382940098
 10
238.1431536632
 20
147.3440642123
 10
237.9998476258
 20
147.0353160735
 10
237.9323695441
 20
146.7180590247
 10
237.9420328021
 20
146.3984681135
 10
238.0286493155
 20
146.0827638134
 10
238.1905331925
 20
145.7770909496
 10
238.4245335474
 20
145.4873990967
 10
238.7260958296
 20
145.219326777
 10
239.0893504723
 20
144.9780917133
  0
LWPOLYLINE
  5
293
330
1F
100
AcDbEntity
  8
0
  6
Continuous
 62
     7
370
    30
100
AcDbPolyline
 90
       46
 70
   128
 43
0.0
 10
221.1288382302
 20
155.3464747334
 10
221.5467148949
 20
155.1367722919
 10
222.0110800877
 20
154.9626840919
 10
222.5128954683
 20
154.8275985624
 10
223.0423937711
 20
154.7341449894
 10
223.589268914
 20
154.6841423405
 10
224.1428765943
 20
154.6785638604
 10
224.6924414684
 20
154.7175181279
 10
225.227266881
 20
154.8002469423
 10
225.7369430639
 20
154.9251400815
 10
226.2115497498
 20
155.0897666426
 10
226.6418492595
 20
155.2909223568
 10
227.0194663025
 20
155.524691957
 10
227.3370509927
 20
155.7865253837
 10
227.5884219051
 20
156.0713263472
 10
227.7686863911
 20
156.3735515207
 10
227.8743358073
 20
156.6873184349
 10
227.9033138082
 20
157.0065199738
 10
227.8550563697
 20
157.3249432425
 10
227.7305027682
 20
157.6363904943
 10
227.5320772978
 20
157.9347997626
 10
227.2636420845
 20
158.2143628506
 10
226.9304219145
 20
158.4696383807
 10
226.5389025393
 20
158.695657705
 10
226.0967044382
 20
158.8880216146
 10
225.6124344943
 20
159.0429859647
 10
225.0955184711
 20
159.1575345506
 10
224.5560175511
 20
159.2294378142
 10
224.0044325061
 20
159.2572962404
 10
223.4514993114
 20
159.2405675966
 10
222.9079801828
 20
159.1795774868
 10
222.3844541018
 20
159.0755130142
 10
221.8911109082
 20
158.9303996752
 10
221.437552966
 20
158.7470619361
 10
221.0326082647
 20
158.5290682572
 10
220.6841585922
 20
158.2806616378
 10
220.3989861251
 20
158.0066770299
 10
220.1826414211
 20
157.7124472324
 10
220.0393353837
 20
157.4036990936
 10
219.971857302
 20
157.0864420448
 10
219.98152056
 20
156.7668511336
 10
220.0681370734
 20
156.4511468336
 10
220.2300209503
 20
156.1454739698
 10
220.4640213053
 20
155.8557821168
 10
220.7655835875
 20
155.5877097971
 10
221.1288382302
 20
155.3464747334
  0
LWPOLYLINE
  5
294
330
1F
100
AcDbEntity
  8
0
  6
Continuous
 62
     7
370
    30
100
AcDbPolyline
 90
       46
 70
   128
 43
0.0
 10
203.168325988
 20
144.9780917133
 10
203.5862026527
 20
144.7683892717
 10
204.0505678455
 20
144.5943010718
 10
204.5523832261
 20
144.4592155422
 10
205.0818815289
 20
144.3657619693
 10
205.6287566718
 20
144.3157593204
 10
206.1823643522
 20
144.3101808403
 10
206.7319292263
 20
144.3491351077
 10
207.2667546389
 20
144.4318639222
 10
207.7764308217
 20
144.5567570614
 10
208.2510375076
 20
144.7213836225
 10
208.6813370174
 20
144.9225393367
 10
209.0589540604
 20
145.1563089368
 10
209.3765387505
 20
145.4181423636
 10
209.627909663
 20
145.7029433271
 10
209.808174149
 20
146.0051685006
 10
209.9138235652
 20
146.3189354148
 10
209.942801566
 20
146.6381369537
 10
209.8945441276
 20
146.9565602224
 10
209.7699905261
 20
147.2680074741
 10
209.5715650557
 20
147.5664167425
 10
209.3031298424
 20
147.8459798305
 10
208.9699096724
 20
148.1012553605
 10
208.5783902972
 20
148.3272746849
 10
208.1361921961
 20
148.5196385945
 10
207.6519222522
 20
148.6746029446
 10
207.135006229
 20
148.7891515304
 10
206.595505309
 20
148.8610547941
 10
206.0439202639
 20
148.8889132203
 10
205.4909870692
 20
148.8721845765
 10
204.9474679406
 20
148.8111944667
 10
204.4239418597
 20
148.707129994
 10
203.9305986661
 20
148.5620166551
 10
203.4770407239
 20
148.3786789159
 10
203.0720960226
 20
148.1606852371
 10
202.7236463501
 20
147.9122786176
 10
202.438473883
 20
147.6382940098
 10
202.222129179
 20
147.3440642123
 10
202.0788231416
 20
147.0353160735
 10
202.0113450598
 20
146.7180590247
 10
202.0210083178
 20
146.3984681135
 10
202.1076248313
 20
146.0827638134
 10
202.2695087082
 20
145.7770909496
 10
202.5035090632
 20
145.4873990967
 10
202.8050713454
 20
145.219326777
 10
203.168325988
 20
144.9780917133
  0
LWPOLYLINE
  5
295
330
1F
100
AcDbEntity
  8
0
  6
Continuous
 62
     7
370
    30
100
AcDbPolyline
 90
       46
 70
   128
 43
0.0
 10
221.1288382302
 20
134.6097086931
 10
221.5467148949
 20
134.4000062516
 10
222.0110800877
 20
134.2259180516
 10
222.5128954683
 20
134.0908325221
 10
223.0423937711
 20
133.9973789491
 10
223.589268914
 20
133.9473763002
 10
224.1428765944
 20
133.9417978201
 10
224.6924414684
 20
133.9807520876
 10
225.227266881
 20
134.063480902
 10
225.7369430639
 20
134.1883740412
 10
226.2115497498
 20
134.3530006023
 10
226.6418492595
 20
134.5541563165
 10
227.0194663025
 20
134.7879259167
 10
227.3370509927
 20
135.0497593434
 10
227.5884219052
 20
135.3345603069
 10
227.7686863911
 20
135.6367854804
 10
227.8743358073
 20
135.9505523946
 10
227.9033138082
 20
136.2697539335
 10
227.8550563697
 20
136.5881772022
 10
227.7305027682
 20
136.899624454
 10
227.5320772978
 20
137.1980337224
 10
227.2636420845
 20
137.4775968103
 10
226.9304219145
 20
137.7328723404
 10
226.5389025393
 20
137.9588916647
 10
226.0967044382
 20
138.1512555743
 10
225.6124344943
 20
138.3062199244
 10
225.0955184711
 20
138.4207685103
 10
224.5560175511
 20
138.4926717739
 10
224.0044325061
 20
138.5205302001
 10
223.4514993114
 20
138.5038015563
 10
222.9079801828
 20
138.4428114465
 10
222.3844541018
 20
138.3387469739
 10
221.8911109082
 20
138.1936336349
 10
221.437552966
 20
138.0102958958
 10
221.0326082647
 20
137.7923022169
 10
220.6841585922
 20
137.5438955975
 10
220.3989861251
 20
137.2699109896
 10
220.1826414211
 20
136.9756811921
 10
220.0393353837
 20
136.6669330533
 10
219.971857302
 20
136.3496760045
 10
219.98152056
 20
136.0300850933
 10
220.0681370734
 20
135.7143807933
 10
220.2300209504
 20
135.4087079295
 10
220.4640213053
 20
135.1190160765
 10
220.7655835875
 20
134.8509437568
 10
221.1288382302
 20
134.6097086931
  0
ARC
  5
296
330
1F
100
AcDbEntity
  8
0
  6
Continuous
 62
     7
370
    30
100
AcDbCircle
 10
223.935168268
 20
118.828814884
 30
0.0
 40
4.591106920648955
100
AcDbArc
 50
242.4805390039
 51
297.5194609961
  0
LINE
  5
297
330
1F
100
AcDbEntity
  8
0
  6
Continuous
 62
     7
370
    30
100
AcDbLine
 10
226.0564886116
 20
114.7571735986
 30
0.0
 11
267.7757887016
 21
138.8412128973
 31
0.0
  0
LINE
  5
298
330
1F
100
AcDbEntity
  8
0
  6
Continuous
 62
     7
370
    30
100
AcDbLine
 10
180.0945478344
 20
138.8412128973
 30
0.0
 11
221.8138479245
 21
114.7571735986
 31
0.0
  0
ARC
  5
299
330
1F
100
AcDbEntity
  8
0
  6
Continuous
 62
     7
370
    30
100
AcDbCircle
 10
241.8956805101
 20
125.3769778158
 30
0.0
 40
8.884606359993574
100
AcDbArc
 50
68.392565906
 51
111.607434094
  0
ARC
  5
29A
330
1F
100
AcDbEntity
  8
0
  6
Continuous
 62
     7
370
    30
100
AcDbCircle
 10
205.9746560259
 20
125.3769778158
 30
0.0
 40
8.884606359993636
100
AcDbArc
 50
68.392565906
 51
111.607434094
  0
ARC
  5
29B
330
1F
100
AcDbEntity
  8
0
  6
Continuous
 62
     7
370
    30
100
AcDbCircle
 10
223.935168268
 20
128.9677097052
 30
0.0
 40
6.164483282170838
100
AcDbArc
 50
64.4438330727
 51
115.5561669273
  0
ARC
  5
29C
330
1F
100
AcDbEntity
  8
0
  6
Continuous
 62
     7
370
    30
100
AcDbCircle
 10
223.935168268
 20
130.4130482965
 30
0.0
 40
3.714971093921297
100
AcDbArc
 50
75.2137039368
 51
104.7862960632
  0
ARC
  5
29D
330
1F
100
AcDbEntity
  8
0
  6
Continuous
 62
     7
370
    30
100
AcDbCircle
 10
223.935168268
 20
135.7453608359
 30
0.0
 40
8.884606359993827
100
AcDbArc
 50
68.392565906
 51
111.607434094
  0
ARC
  5
29E
330
1F
100
AcDbEntity
  8
0
  6
Continuous
 62
     7
370
    30
100
AcDbCircle
 10
205.9746560259
 20
139.3360927253
 30
0.0
 40
6.164483282171043
100
AcDbArc
 50
64.4438330727
 51
115.5561669273
  0
ARC
  5
29F
330
1F
100
AcDbEntity
  8
0
  6
Continuous
 62
     7
370
    30
100
AcDbCircle
 10
241.8956805101
 20
139.3360927253
 30
0.0
 40
6.164483282171158
100
AcDbArc
 50
64.4438330727
 51
115.5561669273
  0
ARC
  5
2A0
330
1F
100
AcDbEntity
  8
0
  6
Continuous
 62
     7
370
    30
100
AcDbCircle
 10
205.9746560259
 20
140.7814313167
 30
0.0
 40
3.714971093921436
100
AcDbArc
 50
75.2137039368
 51
104.7862960632
  0
ARC
  5
2A1
330
1F
100
AcDbEntity
  8
0
  6
Continuous
 62
     7
370
    30
100
AcDbCircle
 10
241.8956805101
 20
140.7814313167
 30
0.0
 40
3.714971093927632
100
AcDbArc
 50
75.2137039369
 51
104.7862960631
  0
ARC
  5
2A2
330
1F
100
AcDbEntity
  8
0
  6
Continuous
 62
     7
370
    30
100
AcDbCircle
 10
267.1548693704
 20
140.2142726128
 30
0.0
 40
1.506928597490764
100
AcDbArc
 50
294.333235592
 51
354.3466234504
  0
ARC
  5
2A3
330
1F
100
AcDbEntity
  8
0
  6
Continuous
 62
     7
370
    30
100
AcDbCircle
 10
180.6791969203
 20
140.1882481068
 30
0.0
 40
1.468440808843273
100
AcDbArc
 50
184.7822660226
 51
246.537874935
  0
ARC
  5
2A4
330
1F
100
AcDbEntity
  8
0
  6
Continuous
 62
     7
370
    30
100
AcDbCircle
 10
241.8956805101
 20
146.1137438561
 30
0.0
 40
8.88460635999372
100
AcDbArc
 50
68.392565906
 51
111.607434094
  0
ARC
  5
2A5
330
1F
100
AcDbEntity
  8
0
  6
Continuous
 62
     7
370
    30
100
AcDbCircle
 10
205.9746560259
 20
146.1137438561
 30
0.0
 40
8.884606359993324
100
AcDbArc
 50
68.392565906
 51
111.607434094
  0
ARC
  5
2A6
330
1F
100
AcDbEntity
  8
0
  6
Continuous
 62
     7
370
    30
100
AcDbCircle
 10
223.935168268
 20
149.7044757455
 30
0.0
 40
6.164483282171158
100
AcDbArc
 50
64.4438330727
 51
115.5561669273
  0
ARC
  5
2A7
330
1F
100
AcDbEntity
  8
0
  6
Continuous
 62
     7
370
    30
100
AcDbCircle
 10
223.935168268
 20
151.1498143368
 30
0.0
 40
3.714971093925564
100
AcDbArc
 50
75.2137039368
 51
104.7862960632
  0
LINE
  5
2A8
330
1F
100
AcDbEntity
  8
0
  6
PHANTOM
 62
     8
370
     0
100
AcDbLine
 10
226.0564886116
 20
121.2895000937
 30
0.0
 11
226.0564886116
 21
114.7571735986
 31
0.0
  0
LINE
  5
2A9
330
1F
100
AcDbEntity
  8
0
  6
PHANTOM
 62
     8
370
     0
100
AcDbLine
 10
221.8138479245
 20
114.7571735986
 30
0.0
 11
221.8138479245
 21
121.2895000937
 31
0.0
  0
LINE
  5
2AA
330
1F
100
AcDbEntity
  8
0
  6
PHANTOM
 62
     8
370
     0
100
AcDbLine
 10
267.7757887016
 20
138.8412128973
 30
0.0
 11
267.7757887016
 21
145.3735393924
 31
0.0
  0
LINE
  5
2AB
330
1F
100
AcDbEntity
  8
0
  6
PHANTOM
 62
     8
370
     0
100
AcDbLine
 10
180.0945478344
 20
145.3735393924
 30
0.0
 11
180.0945478344
 21
138.8412128973
 31
0.0
  0
LWPOLYLINE
  5
2AC
330
1F
100
AcDbEntity
  8
0
  6
Continuous
 62
     7
370
     0
100
AcDbPolyline
 90
       37
 70
   128
 43
0.0
 10
253.1208992004
 20
140.1179121726
 10
252.6970418166
 20
139.9125456999
 10
252.2177496122
 20
139.7527989426
 10
251.6976870994
 20
139.6435257249
 10
251.1526561144
 20
139.5880462583
 10
250.599217148
 20
139.5880462583
 10
250.054186163
 20
139.6435257249
 10
249.5341236502
 20
139.7527989426
 10
249.0548314458
 20
139.9125456999
 10
248.630872601
 20
140.1179121726
 10
248.2751288906
 20
140.3626584041
 10
247.9984094074
 20
140.6393479042
 10
247.8091221328
 20
140.9395736024
 10
247.7130184648
 20
141.2542132927
 10
247.7130184648
 20
141.5737068075
 10
247.8091221328
 20
141.8883464978
 10
247.9984094074
 20
142.188572196
 10
248.2751288906
 20
142.4652616961
 10
248.630872601
 20
142.7100079276
 10
249.0548314458
 20
142.9153744003
 10
249.5341236502
 20
143.0751211576
 10
250.054186163
 20
143.1843943753
 10
250.599217148
 20
143.2398738419
 10
251.1526561144
 20
143.2398738419
 10
251.6976870994
 20
143.1843943753
 10
252.2177496122
 20
143.0751211576
 10
252.6970418166
 20
142.9153744003
 10
253.1210006615
 20
142.7100079276
 10
253.4767443718
 20
142.4652616961
 10
253.7534638551
 20
142.188572196
 10
253.9427511297
 20
141.8883464978
 10
254.0388547977
 20
141.5737068075
 10
254.0388547977
 20
141.2542132927
 10
253.9427511297
 20
140.9395736024
 10
253.7534638551
 20
140.6393479042
 10
253.4767443718
 20
140.3626584041
 10
253.1210006615
 20
140.1179121726
  0
LWPOLYLINE
  5
2AD
330
1F
100
AcDbEntity
  8
0
  6
Continuous
 62
     7
370
     0
100
AcDbPolyline
 90
       37
 70
   128
 43
0.0
 10
217.199921608
 20
160.8546782129
 10
216.7760173324
 20
160.6493117402
 10
216.296725128
 20
160.4895649829
 10
215.7766626151
 20
160.3802917652
 10
215.2316316302
 20
160.3248122986
 10
214.6781926637
 20
160.3248122986
 10
214.1331616787
 20
160.3802917652
 10
213.6130991659
 20
160.4895649829
 10
213.1338069615
 20
160.6493117402
 10
212.7098481167
 20
160.8546782129
 10
212.3541044063
 20
161.0994244444
 10
212.0773849231
 20
161.3761139445
 10
211.8880976485
 20
161.6763396427
 10
211.7919939805
 20
161.990979333
 10
211.7919939805
 20
162.3104728478
 10
211.8880976485
 20
162.6251125381
 10
212.0773849231
 20
162.9253382363
 10
212.3541044063
 20
163.2020277363
 10
212.7098481167
 20
163.4467739679
 10
213.1338069615
 20
163.6521404405
 10
213.6130991659
 20
163.8118871979
 10
214.1331616787
 20
163.9211604156
 10
214.6781926637
 20
163.9766398822
 10
215.2316316302
 20
163.9766398822
 10
215.7766626151
 20
163.9211604156
 10
216.296725128
 20
163.8118871979
 10
216.7760173324
 20
163.6521404405
 10
217.1999761772
 20
163.4467739679
 10
217.5557198876
 20
163.2020277363
 10
217.8324393708
 20
162.9253382363
 10
218.0217266454
 20
162.6251125381
 10
218.1178303134
 20
162.3104728478
 10
218.1178303134
 20
161.990979333
 10
218.0217266454
 20
161.6763396427
 10
217.8324393708
 20
161.3761139445
 10
217.5557198876
 20
161.0994244444
 10
217.1999761772
 20
160.8546782129
  0
LWPOLYLINE
  5
2AE
330
1F
100
AcDbEntity
  8
0
  6
Continuous
 62
     7
370
     0
100
AcDbPolyline
 90
       37
 70
   128
 43
0.0
 10
199.2393732071
 20
150.4862951927
 10
198.8155050902
 20
150.2809287201
 10
198.3362128858
 20
150.1211819627
 10
197.816150373
 20
150.011908745
 10
197.271119388
 20
149.9564292784
 10
196.7176804216
 20
149.9564292784
 10
196.1726494366
 20
150.011908745
 10
195.6525869238
 20
150.1211819627
 10
195.1732947194
 20
150.2809287201
 10
194.7493358745
 20
150.4862951927
 10
194.3935921642
 20
150.7310414243
 10
194.116872681
 20
151.0077309244
 10
193.9275854063
 20
151.3079566226
 10
193.8314817384
 20
151.6225963129
 10
193.8314817384
 20
151.9420898276
 10
193.9275854063
 20
152.2567295179
 10
194.116872681
 20
152.5569552161
 10
194.3935921642
 20
152.8336447162
 10
194.7493358745
 20
153.0783909478
 10
195.1732947194
 20
153.2837574204
 10
195.6525869238
 20
153.4435041778
 10
196.1726494366
 20
153.5527773955
 10
196.7176804216
 20
153.6082568621
 10
197.271119388
 20
153.6082568621
 10
197.816150373
 20
153.5527773955
 10
198.3362128858
 20
153.4435041778
 10
198.8155050902
 20
153.2837574204
 10
199.2394639351
 20
153.0783909478
 10
199.5952076454
 20
152.8336447162
 10
199.8719271286
 20
152.5569552161
 10
200.0612144033
 20
152.2567295179
 10
200.1573180712
 20
151.9420898276
 10
200.1573180712
 20
151.6225963129
 10
200.0612144033
 20
151.3079566226
 10
199.8719271286
 20
151.0077309244
 10
199.5952076454
 20
150.7310414243
 10
199.2394639351
 20
150.4862951927
  0
LWPOLYLINE
  5
2AF
330
1F
100
AcDbEntity
  8
0
  6
Continuous
 62
     7
370
     0
100
AcDbPolyline
 90
       37
 70
   128
 43
0.0
 10
235.1604700089
 20
129.7495291524
 10
234.7365295745
 20
129.5441626798
 10
234.2572373701
 20
129.3844159224
 10
233.7371748573
 20
129.2751427047
 10
233.1921438723
 20
129.2196632381
 10
232.6387049059
 20
129.2196632381
 10
232.0936739209
 20
129.2751427047
 10
231.5736114081
 20
129.3844159224
 10
231.0943192037
 20
129.5441626798
 10
230.6703603588
 20
129.7495291524
 10
230.3146166485
 20
129.994275384
 10
230.0378971652
 20
130.2709648841
 10
229.8486098906
 20
130.5711905823
 10
229.7525062226
 20
130.8858302726
 10
229.7525062226
 20
131.2053237873
 10
229.8486098906
 20
131.5199634776
 10
230.0378971652
 20
131.8201891758
 10
230.3146166485
 20
132.0968786759
 10
230.6703603588
 20
132.3416249075
 10
231.0943192037
 20
132.5469913801
 10
231.5736114081
 20
132.7067381375
 10
232.0936739209
 20
132.8160113552
 10
232.6387049059
 20
132.8714908218
 10
233.1921438723
 20
132.8714908218
 10
233.7371748573
 20
132.8160113552
 10
234.2572373701
 20
132.7067381375
 10
234.7365295745
 20
132.5469913801
 10
235.1604884193
 20
132.3416249075
 10
235.5162321297
 20
132.0968786759
 10
235.7929516129
 20
131.8201891758
 10
235.9822388875
 20
131.5199634776
 10
236.0783425555
 20
131.2053237873
 10
236.0783425555
 20
130.8858302726
 10
235.9822388875
 20
130.5711905823
 10
235.7929516129
 20
130.2709648841
 10
235.5162321297
 20
129.994275384
 10
235.1604884193
 20
129.7495291524
  0
LWPOLYLINE
  5
2B0
330
1F
100
AcDbEntity
  8
0
  6
Continuous
 62
     7
370
     0
100
AcDbPolyline
 90
       37
 70
   128
 43
0.0
 10
190.2590990067
 20
145.3021036827
 10
189.8352489691
 20
145.09673721
 10
189.3559567648
 20
144.9369904527
 10
188.8358942519
 20
144.827717235
 10
188.290863267
 20
144.7722377684
 10
187.7374243005
 20
144.7722377684
 10
187.1923933155
 20
144.827717235
 10
186.6723308027
 20
144.9369904527
 10
186.1930385983
 20
145.09673721
 10
185.7690797535
 20
145.3021036827
 10
185.4133360431
 20
145.5468499142
 10
185.1366165599
 20
145.8235394143
 10
184.9473292853
 20
146.1237651125
 10
184.8512256173
 20
146.4384048028
 10
184.8512256173
 20
146.7578983175
 10
184.9473292853
 20
147.0725380079
 10
185.1366165599
 20
147.372763706
 10
185.4133360431
 20
147.6494532061
 10
185.7690797535
 20
147.8941994377
 10
186.1930385983
 20
148.0995659103
 10
186.6723308027
 20
148.2593126677
 10
187.1923933155
 20
148.3685858854
 10
187.7374243005
 20
148.424065352
 10
188.290863267
 20
148.424065352
 10
188.8358942519
 20
148.3685858854
 10
189.3559567648
 20
148.2593126677
 10
189.8352489691
 20
148.0995659103
 10
190.259207814
 20
147.8941994377
 10
190.6149515244
 20
147.6494532061
 10
190.8916710076
 20
147.372763706
 10
191.0809582822
 20
147.0725380079
 10
191.1770619502
 20
146.7578983175
 10
191.1770619502
 20
146.4384048028
 10
191.0809582822
 20
146.1237651125
 10
190.8916710076
 20
145.8235394143
 10
190.6149515244
 20
145.5468499142
 10
190.259207814
 20
145.3021036827
  0
LWPOLYLINE
  5
2B1
330
1F
100
AcDbEntity
  8
0
  6
Continuous
 62
     7
370
     0
100
AcDbPolyline
 90
       37
 70
   128
 43
0.0
 10
226.1801958084
 20
166.0388697229
 10
225.7562734534
 20
165.8335032503
 10
225.276981249
 20
165.673756493
 10
224.7569187362
 20
165.5644832753
 10
224.2118877512
 20
165.5090038086
 10
223.6584487848
 20
165.5090038086
 10
223.1134177998
 20
165.5644832753
 10
222.593355287
 20
165.673756493
 10
222.1140630826
 20
165.8335032503
 10
221.6901042377
 20
166.0388697229
 10
221.3343605274
 20
166.2836159545
 10
221.0576410442
 20
166.5603054546
 10
220.8683537695
 20
166.8605311528
 10
220.7722501016
 20
167.1751708431
 10
220.7722501016
 20
167.4946643578
 10
220.8683537695
 20
167.8093040482
 10
221.0576410442
 20
168.1095297463
 10
221.3343605274
 20
168.3862192464
 10
221.6901042377
 20
168.630965478
 10
222.1140630826
 20
168.8363319506
 10
222.593355287
 20
168.996078708
 10
223.1134177998
 20
169.1053519257
 10
223.6584487848
 20
169.1608313923
 10
224.2118877512
 20
169.1608313923
 10
224.7569187362
 20
169.1053519257
 10
225.276981249
 20
168.996078708
 10
225.7562734534
 20
168.8363319506
 10
226.1802322983
 20
168.630965478
 10
226.5359760086
 20
168.3862192464
 10
226.8126954919
 20
168.1095297463
 10
227.0019827665
 20
167.8093040482
 10
227.0980864345
 20
167.4946643578
 10
227.0980864345
 20
167.1751708431
 10
227.0019827665
 20
166.8605311528
 10
226.8126954919
 20
166.5603054546
 10
226.5359760086
 20
166.2836159545
 10
226.1802322983
 20
166.0388697229
  0
LWPOLYLINE
  5
2B2
330
1F
100
AcDbEntity
  8
0
  6
Continuous
 62
     7
370
     0
100
AcDbPolyline
 90
       37
 70
   128
 43
0.0
 10
262.1011734009
 20
145.3021036827
 10
261.6772979377
 20
145.09673721
 10
261.1980057333
 20
144.9369904527
 10
260.6779432205
 20
144.827717235
 10
260.1329122355
 20
144.7722377684
 10
259.5794732691
 20
144.7722377684
 10
259.0344422841
 20
144.827717235
 10
258.5143797713
 20
144.9369904527
 10
258.0350875669
 20
145.09673721
 10
257.611128722
 20
145.3021036827
 10
257.2553850117
 20
145.5468499142
 10
256.9786655284
 20
145.8235394143
 10
256.7893782538
 20
146.1237651125
 10
256.6932745858
 20
146.4384048028
 10
256.6932745858
 20
146.7578983175
 10
256.7893782538
 20
147.0725380079
 10
256.9786655284
 20
147.372763706
 10
257.2553850117
 20
147.6494532061
 10
257.611128722
 20
147.8941994377
 10
258.0350875669
 20
148.0995659103
 10
258.5143797713
 20
148.2593126677
 10
259.0344422841
 20
148.3685858854
 10
259.5794732691
 20
148.424065352
 10
260.1329122355
 20
148.424065352
 10
260.6779432205
 20
148.3685858854
 10
261.1980057333
 20
148.2593126677
 10
261.6772979377
 20
148.0995659103
 10
262.1012567826
 20
147.8941994377
 10
262.4570004929
 20
147.6494532061
 10
262.7337199761
 20
147.372763706
 10
262.9230072508
 20
147.0725380079
 10
263.0191109187
 20
146.7578983175
 10
263.0191109187
 20
146.4384048028
 10
262.9230072508
 20
146.1237651125
 10
262.7337199761
 20
145.8235394143
 10
262.4570004929
 20
145.5468499142
 10
262.1012567826
 20
145.3021036827
  0
LWPOLYLINE
  5
2B3
330
1F
100
AcDbEntity
  8
0
  6
Continuous
 62
     7
370
     0
100
AcDbPolyline
 90
       37
 70
   128
 43
0.0
 10
226.1801958084
 20
124.5653376424
 10
225.7562734534
 20
124.3599711697
 10
225.276981249
 20
124.2002244124
 10
224.7569187362
 20
124.0909511947
 10
224.2118877512
 20
124.0354717281
 10
223.6584487848
 20
124.0354717281
 10
223.1134177998
 20
124.0909511947
 10
222.593355287
 20
124.2002244124
 10
222.1140630826
 20
124.3599711697
 10
221.6901042377
 20
124.5653376424
 10
221.3343605274
 20
124.8100838739
 10
221.0576410442
 20
125.086773374
 10
220.8683537695
 20
125.3869990722
 10
220.7722501016
 20
125.7016387625
 10
220.7722501016
 20
126.0211322772
 10
220.8683537695
 20
126.3357719676
 10
221.0576410442
 20
126.6359976657
 10
221.3343605274
 20
126.9126871658
 10
221.6901042377
 20
127.1574333974
 10
222.1140630826
 20
127.36279987
 10
222.593355287
 20
127.5225466274
 10
223.1134177998
 20
127.6318198451
 10
223.6584487848
 20
127.6872993117
 10
224.2118877512
 20
127.6872993117
 10
224.7569187362
 20
127.6318198451
 10
225.276981249
 20
127.5225466274
 10
225.7562734534
 20
127.36279987
 10
226.1802322983
 20
127.1574333974
 10
226.5359760086
 20
126.9126871658
 10
226.8126954919
 20
126.6359976657
 10
227.0019827665
 20
126.3357719676
 10
227.0980864345
 20
126.0211322772
 10
227.0980864345
 20
125.7016387625
 10
227.0019827665
 20
125.3869990722
 10
226.8126954919
 20
125.086773374
 10
226.5359760086
 20
124.8100838739
 10
226.1802322983
 20
124.5653376424
  0
LINE
  5
2B4
330
1F
100
AcDbEntity
  8
0
  6
Continuous
 62
     7
370
    30
100
AcDbLine
 10
64.4241048539
 20
46.9151351986
 30
0.0
 11
123.4241048539
 21
46.9151351986
 31
0.0
  0
LINE
  5
2B5
330
1F
100
AcDbEntity
  8
0
  6
Continuous
 62
     7
370
    30
100
AcDbLine
 10
64.4241048539
 20
38.9151351986
 30
0.0
 11
123.4241048539
 21
38.9151351986
 31
0.0
  0
LINE
  5
2B6
330
1F
100
AcDbEntity
  8
0
  6
Continuous
 62
     7
370
    30
100
AcDbLine
 10
61.4241048539
 20
38.9151351986
 30
0.0
 11
61.4241048539
 21
46.9151351986
 31
0.0
  0
LINE
  5
2B7
330
1F
100
AcDbEntity
  8
0
  6
Continuous
 62
     7
370
    30
100
AcDbLine
 10
61.4241048539
 20
46.9151351986
 30
0.0
 11
64.4241048539
 21
46.9151351986
 31
0.0
  0
LINE
  5
2B8
330
1F
100
AcDbEntity
  8
0
  6
Continuous
 62
     7
370
    30
100
AcDbLine
 10
64.4241048539
 20
38.9151351986
 30
0.0
 11
61.4241048539
 21
38.9151351986
 31
0.0
  0
LINE
  5
2B9
330
1F
100
AcDbEntity
  8
0
  6
Continuous
 62
     7
370
    30
100
AcDbLine
 10
126.4241048539
 20
46.9151351986
 30
0.0
 11
126.4241048539
 21
38.9151351986
 31
0.0
  0
LINE
  5
2BA
330
1F
100
AcDbEntity
  8
0
  6
Continuous
 62
     7
370
    30
100
AcDbLine
 10
123.4241048539
 20
46.9151351986
 30
0.0
 11
126.4241048539
 21
46.9151351986
 31
0.0
  0
LINE
  5
2BB
330
1F
100
AcDbEntity
  8
0
  6
Continuous
 62
     7
370
    30
100
AcDbLine
 10
126.4241048539
 20
38.9151351986
 30
0.0
 11
123.4241048539
 21
38.9151351986
 31
0.0
  0
LINE
  5
2BC
330
1F
100
AcDbEntity
  8
0
  6
PHANTOM
 62
     8
370
     0
100
AcDbLine
 10
123.4241048539
 20
38.9151351986
 30
0.0
 11
123.4241048539
 21
46.9151351986
 31
0.0
  0
LINE
  5
2BD
330
1F
100
AcDbEntity
  8
0
  6
PHANTOM
 62
     8
370
     0
100
AcDbLine
 10
64.4241048539
 20
46.9151351986
 30
0.0
 11
64.4241048539
 21
38.9151351986
 31
0.0
  0
DIMENSION
  5
2BE
330
1F
100
AcDbEntity
  8
SLD-0
 62
     7
100
AcDbDimension
  2
_D_13
 10
136.7962291326
 20
38.9151351986
 30
0.0
 11
136.7962291326
 21
42.9151351986
 31
0.0
 70
   160
  1
<>
 71
     2
 42
-1.0
  3
SLDDIMSTYLE0
100
AcDbAlignedDimension
 13
126.4241048539
 23
46.9151351986
 33
0.0
 14
126.4241048539
 24
38.9151351986
 34
0.0
 50
90.0
100
AcDbRotatedDimension
  0
ENDSEC
  0
SECTION
  2
OBJECTS
  0
DICTIONARY
  5
C
330
0
100
AcDbDictionary
281
     1
  3
ACAD_GROUP
350
D
  3
ACAD_LAYOUT
350
1A
  3
ACAD_MLINESTYLE
350
17
  3
ACAD_PLOTSETTINGS
350
19
  3
ACAD_PLOTSTYLENAME
350
E
  3
ACAD_SCALELIST
350
47
  0
DICTIONARY
  5
D
102
{ACAD_REACTORS
330
C
102
}
330
C
100
AcDbDictionary
281
     1
  0
DICTIONARY
  5
1A
102
{ACAD_REACTORS
330
C
102
}
330
C
100
AcDbDictionary
281
     1
  3
Layout1
350
1E
  3
Layout2
350
26
  3
Model
350
22
  0
DICTIONARY
  5
17
102
{ACAD_REACTORS
330
C
102
}
330
C
100
AcDbDictionary
281
     1
  3
Standard
350
18
  0
DICTIONARY
  5
19
102
{ACAD_REACTORS
330
C
102
}
330
C
100
AcDbDictionary
281
     1
  0
ACDBDICTIONARYWDFLT
  5
E
102
{ACAD_REACTORS
330
C
102
}
330
C
100
AcDbDictionary
281
     1
  3
Normal
350
F
100
AcDbDictionaryWithDefault
340
F
  0
DICTIONARY
  5
47
102
{ACAD_REACTORS
330
C
102
}
330
C
100
AcDbDictionary
281
     1
  3
A0
350
48
  3
A1
350
49
  3
A2
350
4A
  3
A3
350
4B
  3
A4
350
4C
  3
A5
350
4D
  3
A6
350
4E
  3
A7
350
4F
  3
A8
350
50
  3
A9
350
51
  3
B0
350
52
  3
B1
350
53
  3
B2
350
54
  3
B3
350
55
  3
B4
350
56
  3
B5
350
57
  3
B6
350
58
  3
B7
350
59
  3
B8
350
5A
  3
B9
350
5B
  3
C0
350
5C
  3
C1
350
5D
  3
C2
350
5E
  3
C3
350
5F
  3
C4
350
60
  3
C5
350
61
  3
C6
350
62
  3
C7
350
63
  3
C8
350
64
  3
C9
350
65
  3
D0
350
66
  3
D1
350
67
  3
D2
350
68
  0
LAYOUT
  5
1E
102
{ACAD_REACTORS
330
1A
102
}
330
1A
100
AcDbPlotSettings
  1

  2
none_device
  4

  6

 40
0.0
 41
0.0
 42
0.0
 43
0.0
 44
0.0
 45
0.0
 46
0.0
 47
0.0
 48
0.0
 49
0.0
140
0.0
141
0.0
142
1.0
143
1.0
 70
   688
 72
     1
 73
     0
 74
     5
  7

 75
    16
147
1.0
148
0.0
149
0.0
100
AcDbLayout
  1
Layout1
 70
     1
 71
     1
 10
0.0
 20
0.0
 11
420.0
 21
297.0
 12
0.0
 22
0.0
 32
0.0
 14
1.0000000000E+20
 24
1.0000000000E+20
 34
1.0000000000E+20
 15
-1.0000000000E+20
 25
-1.0000000000E+20
 35
-1.0000000000E+20
146
0.0
 13
0.0
 23
0.0
 33
0.0
 16
1.0
 26
0.0
 36
0.0
 17
0.0
 27
1.0
 37
0.0
 76
     0
330
1B
  0
LAYOUT
  5
26
102
{ACAD_REACTORS
330
1A
102
}
330
1A
100
AcDbPlotSettings
  1

  2
none_device
  4

  6

 40
0.0
 41
0.0
 42
0.0
 43
0.0
 44
0.0
 45
0.0
 46
0.0
 47
0.0
 48
0.0
 49
0.0
140
0.0
141
0.0
142
1.0
143
1.0
 70
   688
 72
     1
 73
     0
 74
     5
  7

 75
    16
147
1.0
148
0.0
149
0.0
100
AcDbLayout
  1
Layout2
 70
     1
 71
     2
 10
0.0
 20
0.0
 11
0.0
 21
0.0
 12
0.0
 22
0.0
 32
0.0
 14
0.0
 24
0.0
 34
0.0
 15
0.0
 25
0.0
 35
0.0
146
0.0
 13
0.0
 23
0.0
 33
0.0
 16
1.0
 26
0.0
 36
0.0
 17
0.0
 27
1.0
 37
0.0
 76
     0
330
23
  0
LAYOUT
  5
22
102
{ACAD_REACTORS
330
1A
102
}
330
1A
100
AcDbPlotSettings
  1

  2
none_device
  4
Letter_(8.50_x_11.00_Inches)
  6

 40
6.35
 41
6.35
 42
6.35000508
 43
6.35000508
 44
215.9
 45
279.4
 46
0.0
 47
0.0
 48
0.0
 49
0.0
140
0.0
141
0.0
142
1.0
143
1.0
 70
  1712
 72
     1
 73
     0
 74
     0
  7

 75
     0
147
1.0
148
0.0
149
0.0
100
AcDbLayout
  1
Model
 70
     1
 71
     0
 10
0.0
 20
0.0
 11
297.0
 21
210.0
 12
0.0
 22
0.0
 32
0.0
 14
0.0
 24
0.0
 34
0.0
 15
297.0
 25
210.0
 35
0.0
146
0.0
 13
0.0
 23
0.0
 33
0.0
 16
1.0
 26
0.0
 36
0.0
 17
0.0
 27
1.0
 37
0.0
 76
     0
330
1F
331
29
  0
MLINESTYLE
  5
18
102
{ACAD_REACTORS
330
17
102
}
330
17
100
AcDbMlineStyle
  2
Standard
 70
     0
  3

 62
   256
 51
90.0
 52
90.0
 71
     2
 49
0.5
 62
   256
  6
BYLAYER
 49
-0.5
 62
   256
  6
BYLAYER
  0
ACDBPLACEHOLDER
  5
F
102
{ACAD_REACTORS
330
E
102
}
330
E
  0
SCALE
  5
48
102
{ACAD_REACTORS
330
47
102
}
330
47
100
AcDbScale
 70
     0
300
1:1
140
1.0
141
1.0
290
     1
  0
SCALE
  5
49
102
{ACAD_REACTORS
330
47
102
}
330
47
100
AcDbScale
 70
     0
300
1:2
140
1.0
141
2.0
290
     0
  0
SCALE
  5
4A
102
{ACAD_REACTORS
330
47
102
}
330
47
100
AcDbScale
 70
     0
300
1:4
140
1.0
141
4.0
290
     0
  0
SCALE
  5
4B
102
{ACAD_REACTORS
330
47
102
}
330
47
100
AcDbScale
 70
     0
300
1:5
140
1.0
141
5.0
290
     0
  0
SCALE
  5
4C
102
{ACAD_REACTORS
330
47
102
}
330
47
100
AcDbScale
 70
     0
300
1:8
140
1.0
141
8.0
290
     0
  0
SCALE
  5
4D
102
{ACAD_REACTORS
330
47
102
}
330
47
100
AcDbScale
 70
     0
300
1:10
140
1.0
141
10.0
290
     0
  0
SCALE
  5
4E
102
{ACAD_REACTORS
330
47
102
}
330
47
100
AcDbScale
 70
     0
300
1:16
140
1.0
141
16.0
290
     0
  0
SCALE
  5
4F
102
{ACAD_REACTORS
330
47
102
}
330
47
100
AcDbScale
 70
     0
300
1:20
140
1.0
141
20.0
290
     0
  0
SCALE
  5
50
102
{ACAD_REACTORS
330
47
102
}
330
47
100
AcDbScale
 70
     0
300
1:30
140
1.0
141
30.0
290
     0
  0
SCALE
  5
51
102
{ACAD_REACTORS
330
47
102
}
330
47
100
AcDbScale
 70
     0
300
1:40
140
1.0
141
40.0
290
     0
  0
SCALE
  5
52
102
{ACAD_REACTORS
330
47
102
}
330
47
100
AcDbScale
 70
     0
300
1:50
140
1.0
141
50.0
290
     0
  0
SCALE
  5
53
102
{ACAD_REACTORS
330
47
102
}
330
47
100
AcDbScale
 70
     0
300
1:100
140
1.0
141
100.0
290
     0
  0
SCALE
  5
54
102
{ACAD_REACTORS
330
47
102
}
330
47
100
AcDbScale
 70
     0
300
2:1
140
2.0
141
1.0
290
     0
  0
SCALE
  5
55
102
{ACAD_REACTORS
330
47
102
}
330
47
100
AcDbScale
 70
     0
300
4:1
140
4.0
141
1.0
290
     0
  0
SCALE
  5
56
102
{ACAD_REACTORS
330
47
102
}
330
47
100
AcDbScale
 70
     0
300
8:1
140
8.0
141
1.0
290
     0
  0
SCALE
  5
57
102
{ACAD_REACTORS
330
47
102
}
330
47
100
AcDbScale
 70
     0
300
10:1
140
10.0
141
1.0
290
     0
  0
SCALE
  5
58
102
{ACAD_REACTORS
330
47
102
}
330
47
100
AcDbScale
 70
     0
300
100:1
140
100.0
141
1.0
290
     0
  0
SCALE
  5
59
102
{ACAD_REACTORS
330
47
102
}
330
47
100
AcDbScale
 70
     0
300
1/128" = 1'-0"
140
0.0078125
141
12.0
290
     0
  0
SCALE
  5
5A
102
{ACAD_REACTORS
330
47
102
}
330
47
100
AcDbScale
 70
     0
300
1/64" = 1'-0"
140
0.015625
141
12.0
290
     0
  0
SCALE
  5
5B
102
{ACAD_REACTORS
330
47
102
}
330
47
100
AcDbScale
 70
     0
300
1/32" = 1'-0"
140
0.03125
141
12.0
290
     0
  0
SCALE
  5
5C
102
{ACAD_REACTORS
330
47
102
}
330
47
100
AcDbScale
 70
     0
300
1/16" = 1'-0"
140
0.0625
141
12.0
290
     0
  0
SCALE
  5
5D
102
{ACAD_REACTORS
330
47
102
}
330
47
100
AcDbScale
 70
     0
300
3/32" = 1'-0"
140
0.09375
141
12.0
290
     0
  0
SCALE
  5
5E
102
{ACAD_REACTORS
330
47
102
}
330
47
100
AcDbScale
 70
     0
300
1/8" = 1'-0"
140
0.125
141
12.0
290
     0
  0
SCALE
  5
5F
102
{ACAD_REACTORS
330
47
102
}
330
47
100
AcDbScale
 70
     0
300
3/16" = 1'-0"
140
0.1875
141
12.0
290
     0
  0
SCALE
  5
60
102
{ACAD_REACTORS
330
47
102
}
330
47
100
AcDbScale
 70
     0
300
1/4" = 1'-0"
140
0.25
141
12.0
290
     0
  0
SCALE
  5
61
102
{ACAD_REACTORS
330
47
102
}
330
47
100
AcDbScale
 70
     0
300
3/8" = 1'-0"
140
0.375
141
12.0
290
     0
  0
SCALE
  5
62
102
{ACAD_REACTORS
330
47
102
}
330
47
100
AcDbScale
 70
     0
300
1/2" = 1'-0"
140
0.5
141
12.0
290
     0
  0
SCALE
  5
63
102
{ACAD_REACTORS
330
47
102
}
330
47
100
AcDbScale
 70
     0
300
3/4" = 1'-0"
140
0.75
141
12.0
290
     0
  0
SCALE
  5
64
102
{ACAD_REACTORS
330
47
102
}
330
47
100
AcDbScale
 70
     0
300
1" = 1'-0"
140
1.0
141
12.0
290
     0
  0
SCALE
  5
65
102
{ACAD_REACTORS
330
47
102
}
330
47
100
AcDbScale
 70
     0
300
1-1/2" = 1'-0"
140
1.5
141
12.0
290
     0
  0
SCALE
  5
66
102
{ACAD_REACTORS
330
47
102
}
330
47
100
AcDbScale
 70
     0
300
3" = 1'-0"
140
3.0
141
12.0
290
     0
  0
SCALE
  5
67
102
{ACAD_REACTORS
330
47
102
}
330
47
100
AcDbScale
 70
     0
300
6" = 1'-0"
140
6.0
141
12.0
290
     0
  0
SCALE
  5
68
102
{ACAD_REACTORS
330
47
102
}
330
47
100
AcDbScale
 70
     0
300
1'-0" = 1'-0"
140
12.0
141
12.0
290
     0
  0
ENDSEC
  0
EOF
