  0
SECTION
  2
HEADER
  9
$ACADVER
  1
AC1015
  9
$ACADMAINTVER
 70
     6
  9
$DWGCODEPAGE
  3
ANSI_950
  9
$INSBASE
 10
0.0
 20
0.0
 30
0.0
  9
$EXTMIN
 10
0.0
 20
0.0
 30
0.0
  9
$EXTMAX
 10
297.0
 20
210.0
 30
0.0
  9
$LIMMIN
 10
0.0
 20
0.0
  9
$LIMMAX
 10
297.0
 20
210.0
  9
$ORTHOMODE
 70
     0
  9
$REGENMODE
 70
     1
  9
$FILLMODE
 70
     1
  9
$QTEXTMODE
 70
     0
  9
$MIRRTEXT
 70
     1
  9
$LTSCALE
 40
1.0
  9
$ATTMODE
 70
     1
  9
$TEXTSIZE
 40
2.5
  9
$TRACEWID
 40
1.0
  9
$TEXTSTYLE
  7
Standard
  9
$CLAYER
  8
0
  9
$CELTYPE
  6
ByLayer
  9
$CECOLOR
 62
   256
  9
$CELTSCALE
 40
1.0
  9
$DISPSILH
 70
     0
  9
$DIMSCALE
 40
1.0
  9
$DIMASZ
 40
2.0
  9
$DIMEXO
 40
1.0
  9
$DIMDLI
 40
3.75
  9
$DIMRND
 40
0.0
  9
$DIMDLE
 40
0.0
  9
$DIMEXE
 40
1.0
  9
$DIMTP
 40
0.0
  9
$DIMTM
 40
0.0
  9
$DIMTXT
 40
2.5
  9
$DIMCEN
 40
2.5
  9
$DIMTSZ
 40
0.0
  9
$DIMTOL
 70
     0
  9
$DIMLIM
 70
     0
  9
$DIMTIH
 70
     1
  9
$DIMTOH
 70
     1
  9
$DIMSE1
 70
     0
  9
$DIMSE2
 70
     0
  9
$DIMTAD
 70
     1
  9
$DIMZIN
 70
     0
  9
$DIMBLK
  1

  9
$DIMASO
 70
     1
  9
$DIMSHO
 70
     1
  9
$DIMPOST
  1

  9
$DIMAPOST
  1

  9
$DIMALT
 70
     0
  9
$DIMALTD
 70
     3
  9
$DIMALTF
 40
0.0393700787
  9
$DIMLFAC
 40
1.0
  9
$DIMTOFL
 70
     1
  9
$DIMTVP
 40
0.0
  9
$DIMTIX
 70
     0
  9
$DIMSOXD
 70
     0
  9
$DIMSAH
 70
     0
  9
$DIMBLK1
  1

  9
$DIMBLK2
  1

  9
$DIMSTYLE
  2
ISO-25
  9
$DIMCLRD
 70
     0
  9
$DIMCLRE
 70
     0
  9
$DIMCLRT
 70
     0
  9
$DIMTFAC
 40
1.0
  9
$DIMGAP
 40
1.0
  9
$DIMJUST
 70
     0
  9
$DIMSD1
 70
     0
  9
$DIMSD2
 70
     0
  9
$DIMTOLJ
 70
     0
  9
$DIMTZIN
 70
     0
  9
$DIMALTZ
 70
     0
  9
$DIMALTTZ
 70
     0
  9
$DIMUPT
 70
     0
  9
$DIMDEC
 70
     2
  9
$DIMTDEC
 70
     2
  9
$DIMALTU
 70
     2
  9
$DIMALTTD
 70
     3
  9
$DIMTXSTY
  7
Standard
  9
$DIMAUNIT
 70
     0
  9
$DIMADEC
 70
     1
  9
$DIMALTRND
 40
0.0
  9
$DIMAZIN
 70
     0
  9
$DIMDSEP
 70
    44
  9
$DIMATFIT
 70
     3
  9
$DIMFRAC
 70
     0
  9
$DIMLDRBLK
  1

  9
$DIMLUNIT
 70
     2
  9
$DIMLWD
 70
    -2
  9
$DIMLWE
 70
    -2
  9
$DIMTMOVE
 70
     0
  9
$LUNITS
 70
     2
  9
$LUPREC
 70
     2
  9
$SKETCHINC
 40
1.0
  9
$FILLETRAD
 40
10.0
  9
$AUNITS
 70
     0
  9
$AUPREC
 70
     1
  9
$MENU
  1
.
  9
$ELEVATION
 40
0.0
  9
$PELEVATION
 40
0.0
  9
$THICKNESS
 40
0.0
  9
$LIMCHECK
 70
     0
  9
$CHAMFERA
 40
0.0
  9
$CHAMFERB
 40
0.0
  9
$CHAMFERC
 40
0.0
  9
$CHAMFERD
 40
0.0
  9
$SKPOLY
 70
     0
  9
$TDCREATE
 40
2457527.603802824
  9
$TDUCREATE
 40
2457527.270469491
  9
$TDUPDATE
 40
2457527.603807164
  9
$TDUUPDATE
 40
2457527.270473831
  9
$TDINDWG
 40
0.0000000116
  9
$TDUSRTIMER
 40
0.0000000116
  9
$USRTIMER
 70
     1
  9
$ANGBASE
 50
0.0
  9
$ANGDIR
 70
     0
  9
$PDMODE
 70
     0
  9
$PDSIZE
 40
-1.0
  9
$PLINEWID
 40
0.0
  9
$SPLFRAME
 70
     0
  9
$SPLINETYPE
 70
     6
  9
$SPLINESEGS
 70
     8
  9
$HANDSEED
  5
2C8
  9
$SURFTAB1
 70
     6
  9
$SURFTAB2
 70
     6
  9
$SURFTYPE
 70
     6
  9
$SURFU
 70
     6
  9
$SURFV
 70
     6
  9
$UCSBASE
  2

  9
$UCSNAME
  2

  9
$UCSORG
 10
0.0
 20
0.0
 30
0.0
  9
$UCSXDIR
 10
1.0
 20
0.0
 30
0.0
  9
$UCSYDIR
 10
0.0
 20
1.0
 30
0.0
  9
$UCSORTHOREF
  2

  9
$UCSORTHOVIEW
 70
     0
  9
$UCSORGTOP
 10
0.0
 20
0.0
 30
0.0
  9
$UCSORGBOTTOM
 10
0.0
 20
0.0
 30
0.0
  9
$UCSORGLEFT
 10
0.0
 20
0.0
 30
0.0
  9
$UCSORGRIGHT
 10
0.0
 20
0.0
 30
0.0
  9
$UCSORGFRONT
 10
0.0
 20
0.0
 30
0.0
  9
$UCSORGBACK
 10
0.0
 20
0.0
 30
0.0
  9
$PUCSBASE
  2

  9
$PUCSNAME
  2

  9
$PUCSORG
 10
0.0
 20
0.0
 30
0.0
  9
$PUCSXDIR
 10
1.0
 20
0.0
 30
0.0
  9
$PUCSYDIR
 10
0.0
 20
1.0
 30
0.0
  9
$PUCSORTHOREF
  2

  9
$PUCSORTHOVIEW
 70
     0
  9
$PUCSORGTOP
 10
0.0
 20
0.0
 30
0.0
  9
$PUCSORGBOTTOM
 10
0.0
 20
0.0
 30
0.0
  9
$PUCSORGLEFT
 10
0.0
 20
0.0
 30
0.0
  9
$PUCSORGRIGHT
 10
0.0
 20
0.0
 30
0.0
  9
$PUCSORGFRONT
 10
0.0
 20
0.0
 30
0.0
  9
$PUCSORGBACK
 10
0.0
 20
0.0
 30
0.0
  9
$USERI1
 70
     0
  9
$USERI2
 70
     0
  9
$USERI3
 70
     0
  9
$USERI4
 70
     0
  9
$USERI5
 70
     0
  9
$USERR1
 40
0.0
  9
$USERR2
 40
0.0
  9
$USERR3
 40
0.0
  9
$USERR4
 40
0.0
  9
$USERR5
 40
0.0
  9
$WORLDVIEW
 70
     1
  9
$SHADEDGE
 70
     3
  9
$SHADEDIF
 70
    70
  9
$TILEMODE
 70
     1
  9
$MAXACTVP
 70
    64
  9
$PINSBASE
 10
0.0
 20
0.0
 30
0.0
  9
$PLIMCHECK
 70
     0
  9
$PEXTMIN
 10
1.0000000000E+20
 20
1.0000000000E+20
 30
1.0000000000E+20
  9
$PEXTMAX
 10
-1.0000000000E+20
 20
-1.0000000000E+20
 30
-1.0000000000E+20
  9
$PLIMMIN
 10
0.0
 20
0.0
  9
$PLIMMAX
 10
420.0
 20
297.0
  9
$UNITMODE
 70
     0
  9
$VISRETAIN
 70
     1
  9
$PLINEGEN
 70
     0
  9
$PSLTSCALE
 70
     1
  9
$TREEDEPTH
 70
  3020
  9
$CMLSTYLE
  2
Standard
  9
$CMLJUST
 70
     0
  9
$CMLSCALE
 40
20.0
  9
$PROXYGRAPHICS
 70
     1
  9
$MEASUREMENT
 70
     1
  9
$CELWEIGHT
370
    -1
  9
$ENDCAPS
280
     0
  9
$JOINSTYLE
280
     0
  9
$LWDISPLAY
290
     1
  9
$INSUNITS
 70
     4
  9
$HYPERLINKBASE
  1

  9
$STYLESHEET
  1

  9
$XEDIT
290
     1
  9
$CEPSNTYPE
380
     0
  9
$PSTYLEMODE
290
     1
  9
$FINGERPRINTGUID
  2
{8D79C465-C5A9-43DB-9C29-E32C0E452E90}
  9
$VERSIONGUID
  2
{FAEB1C32-E019-11D5-929B-00C0DF256EC4}
  9
$EXTNAMES
290
     1
  9
$PSVPSCALE
 40
0.0
  9
$OLESTARTUP
290
     0
  0
ENDSEC
  0
SECTION
  2
CLASSES
  0
CLASS
  1
ACDBDICTIONARYWDFLT
  2
AcDbDictionaryWithDefault
  3
ObjectDBX Classes
 90
        0
280
     0
281
     0
  0
CLASS
  1
VISUALSTYLE
  2
AcDbVisualStyle
  3
ObjectDBX Classes
 90
     4095
280
     0
281
     0
  0
CLASS
  1
MATERIAL
  2
AcDbMaterial
  3
ObjectDBX Classes
 90
     1153
280
     0
281
     0
  0
CLASS
  1
SCALE
  2
AcDbScale
  3
ObjectDBX Classes
 90
     1153
280
     0
281
     0
  0
CLASS
  1
TABLESTYLE
  2
AcDbTableStyle
  3
ObjectDBX Classes
 90
     4095
280
     0
281
     0
  0
CLASS
  1
MLEADERSTYLE
  2
AcDbMLeaderStyle
  3
ACDB_MLEADERSTYLE_CLASS
 90
     4095
280
     0
281
     0
  0
CLASS
  1
SUN
  2
AcDbSun
  3
SCENEOE
 90
     1153
280
     0
281
     0
  0
CLASS
  1
ACDBPLACEHOLDER
  2
AcDbPlaceHolder
  3
ObjectDBX Classes
 90
        0
280
     0
281
     0
  0
CLASS
  1
LAYOUT
  2
AcDbLayout
  3
ObjectDBX Classes
 90
        0
280
     0
281
     0
  0
ENDSEC
  0
SECTION
  2
TABLES
  0
TABLE
  2
VPORT
  5
8
330
0
100
AcDbSymbolTable
 70
     1
  0
VPORT
  5
29
330
8
100
AcDbSymbolTableRecord
100
AcDbViewportTableRecord
  2
*Active
 70
     0
 10
0.0
 20
0.0
 11
1.0
 21
1.0
 12
148.5
 22
105.0
 13
0.0
 23
0.0
 14
10.0
 24
10.0
 15
10.0
 25
10.0
 16
0.0
 26
0.0
 36
1.0
 17
0.0
 27
0.0
 37
0.0
 40
210.0
 41
1.4142857143
 42
50.0
 43
0.0
 44
0.0
 50
0.0
 51
0.0
 71
     0
 72
  2000
 73
     1
 74
     3
 75
     0
 76
     0
 77
     0
 78
     0
281
     0
 65
     1
110
0.0
120
0.0
130
0.0
111
1.0
121
0.0
131
0.0
112
0.0
122
1.0
132
0.0
 79
     0
146
0.0
  0
ENDTAB
  0
TABLE
  2
LTYPE
  5
5
330
0
100
AcDbSymbolTable
 70
     6
  0
LTYPE
  5
14
330
5
100
AcDbSymbolTableRecord
100
AcDbLinetypeTableRecord
  2
ByBlock
 70
     0
  3

 72
    65
 73
     0
 40
0.0
  0
LTYPE
  5
15
330
5
100
AcDbSymbolTableRecord
100
AcDbLinetypeTableRecord
  2
ByLayer
 70
     0
  3

 72
    65
 73
     0
 40
0.0
  0
LTYPE
  5
16
330
5
100
AcDbSymbolTableRecord
100
AcDbLinetypeTableRecord
  2
Continuous
 70
     0
  3
Solid line
 72
    65
 73
     0
 40
0.0
  0
LTYPE
  5
6E
330
5
100
AcDbSymbolTableRecord
100
AcDbLinetypeTableRecord
  2
HIDDEN
 70
     0
  3
Hidden __ __ __ __ __ __ __ __ __ __ __ __ __ __
 72
    65
 73
     2
 40
1.905
 49
1.27
 74
     0
 49
-0.635
 74
     0
  0
LTYPE
  5
6F
330
5
100
AcDbSymbolTableRecord
100
AcDbLinetypeTableRecord
  2
PHANTOM
 70
     0
  3
Phantom ______  __  __  ______  __  __  ______
 72
    65
 73
     6
 40
12.7
 49
6.35
 74
     0
 49
-1.27
 74
     0
 49
1.27
 74
     0
 49
-1.27
 74
     0
 49
1.27
 74
     0
 49
-1.27
 74
     0
  0
LTYPE
  5
70
330
5
100
AcDbSymbolTableRecord
100
AcDbLinetypeTableRecord
  2
CENTER
 70
     0
  3
Center ____ _ ____ _ ____ _ ____ _ ____ _ ____
 72
    65
 73
     4
 40
10.16
 49
6.35
 74
     0
 49
-1.27
 74
     0
 49
1.27
 74
     0
 49
-1.27
 74
     0
  0
LTYPE
  5
71
330
5
100
AcDbSymbolTableRecord
100
AcDbLinetypeTableRecord
  2
CENTERX2
 70
     0
  3
Center (2x) ________  __  ________  __  _____
 72
    65
 73
     4
 40
20.32
 49
12.7
 74
     0
 49
-2.54
 74
     0
 49
2.54
 74
     0
 49
-2.54
 74
     0
  0
LTYPE
  5
72
330
5
100
AcDbSymbolTableRecord
100
AcDbLinetypeTableRecord
  2
DOT2
 70
     0
  3
Dot (.5x) ........................................
 72
    65
 73
     2
 40
0.635
 49
0.0
 74
     0
 49
-0.635
 74
     0
  0
ENDTAB
  0
TABLE
  2
LAYER
  5
2
330
0
100
AcDbSymbolTable
 70
     3
  0
LAYER
  5
10
330
2
100
AcDbSymbolTableRecord
100
AcDbLayerTableRecord
  2
0
 70
     0
 62
     7
  6
Continuous
370
    -3
390
F
  0
LAYER
  5
73
330
2
100
AcDbSymbolTableRecord
100
AcDbLayerTableRecord
  2
SLD-0
 70
     0
 62
     7
  6
Continuous
370
    15
390
F
  0
LAYER
  5
74
330
2
100
AcDbSymbolTableRecord
100
AcDbLayerTableRecord
  2
DIM
 70
     0
 62
     7
  6
Continuous
370
    -3
390
F
  0
ENDTAB
  0
TABLE
  2
STYLE
  5
3
330
0
100
AcDbSymbolTable
 70
     3
  0
STYLE
  5
11
330
3
100
AcDbSymbolTableRecord
100
AcDbTextStyleTableRecord
  2
Standard
 70
     0
 40
0.0
 41
1.0
 50
0.0
 71
     0
 42
2.5
  3
txt
  4

  0
STYLE
  5
C5
330
3
100
AcDbSymbolTableRecord
100
AcDbTextStyleTableRecord
  2
SLDTEXTSTYLE0
 70
     0
 40
0.0
 41
0.605
 50
0.0
 71
     0
 42
2.5
  3
TXT
  4

  0
STYLE
  5
CE
330
3
100
AcDbSymbolTableRecord
100
AcDbTextStyleTableRecord
  2
SLDTEXTSTYLE1
 70
     0
 40
0.0
 41
0.7
 50
0.0
 71
     0
 42
2.5
  3
TXT
  4

  0
ENDTAB
  0
TABLE
  2
VIEW
  5
6
330
0
100
AcDbSymbolTable
 70
     0
  0
ENDTAB
  0
TABLE
  2
UCS
  5
7
330
0
100
AcDbSymbolTable
 70
     0
  0
ENDTAB
  0
TABLE
  2
APPID
  5
9
330
0
100
AcDbSymbolTable
 70
     1
  0
APPID
  5
12
330
9
100
AcDbSymbolTableRecord
100
AcDbRegAppTableRecord
  2
ACAD
 70
     0
  0
ENDTAB
  0
TABLE
  2
DIMSTYLE
  5
A
330
0
100
AcDbSymbolTable
 70
     3
100
AcDbDimStyleTable
  0
DIMSTYLE
105
27
330
A
100
AcDbSymbolTableRecord
100
AcDbDimStyleTableRecord
  2
ISO-25
 70
     0
 41
2.5
 42
0.625
 43
3.75
 44
1.25
 73
     0
 74
     0
 77
     1
 78
     8
140
2.5
141
2.5
143
0.0393700787
147
0.625
171
     3
172
     1
178
     0
271
     2
272
     2
274
     3
278
    44
283
     0
284
     8
340
11
  0
DIMSTYLE
105
122
102
{ACAD_REACTORS
330
121
330
12C
330
136
330
140
330
14A
330
154
330
15E
330
168
330
172
330
198
330
2BE
102
}
330
A
100
AcDbSymbolTableRecord
100
AcDbDimStyleTableRecord
  2
SLDDIMSTYLE0
 70
     0
 41
2.0
 44
0.0
 45
0.000000001
 73
     0
 74
     0
 77
     1
 78
    12
 79
     3
140
2.5
147
0.625
173
     1
178
     0
271
     2
272
     2
276
     2
284
    12
340
C5
  0
DIMSTYLE
105
17D
102
{ACAD_REACTORS
330
17C
330
186
330
18F
102
}
330
A
100
AcDbSymbolTableRecord
100
AcDbDimStyleTableRecord
  2
SLDDIMSTYLE1
 70
     0
  3
<>
 41
2.0
 44
0.0
 45
0.000000001
 78
    12
 79
     3
140
2.5
141
0.0
147
0.625
173
     1
178
     0
271
     2
272
     2
276
     2
284
    12
340
C5
  0
ENDTAB
  0
TABLE
  2
BLOCK_RECORD
  5
1
330
0
100
AcDbSymbolTable
 70
    34
  0
BLOCK_RECORD
  5
1F
330
1
100
AcDbSymbolTableRecord
100
AcDbBlockTableRecord
  2
*Model_Space
340
22
  0
BLOCK_RECORD
  5
1B
330
1
100
AcDbSymbolTableRecord
100
AcDbBlockTableRecord
  2
*Paper_Space
340
1E
  0
BLOCK_RECORD
  5
23
330
1
100
AcDbSymbolTableRecord
100
AcDbBlockTableRecord
  2
*Paper_Space0
340
26
  0
BLOCK_RECORD
  5
C7
330
1
100
AcDbSymbolTableRecord
100
AcDbBlockTableRecord
  2
SW_NOTE_0
340
0
102
{BLKREFS
331
CD
102
}
  0
BLOCK_RECORD
  5
FD
330
1
100
AcDbSymbolTableRecord
100
AcDbBlockTableRecord
  2
SW_NOTE_1
340
0
102
{BLKREFS
331
102
102
}
  0
BLOCK_RECORD
  5
123
330
1
100
AcDbSymbolTableRecord
100
AcDbBlockTableRecord
  2
_D
340
0
  0
BLOCK_RECORD
  5
12D
330
1
100
AcDbSymbolTableRecord
100
AcDbBlockTableRecord
  2
_D_1
340
0
  0
BLOCK_RECORD
  5
137
330
1
100
AcDbSymbolTableRecord
100
AcDbBlockTableRecord
  2
_D_2
340
0
  0
BLOCK_RECORD
  5
141
330
1
100
AcDbSymbolTableRecord
100
AcDbBlockTableRecord
  2
_D_3
340
0
  0
BLOCK_RECORD
  5
14B
330
1
100
AcDbSymbolTableRecord
100
AcDbBlockTableRecord
  2
_D_4
340
0
  0
BLOCK_RECORD
  5
155
330
1
100
AcDbSymbolTableRecord
100
AcDbBlockTableRecord
  2
_D_5
340
0
  0
BLOCK_RECORD
  5
15F
330
1
100
AcDbSymbolTableRecord
100
AcDbBlockTableRecord
  2
_D_6
340
0
  0
BLOCK_RECORD
  5
169
330
1
100
AcDbSymbolTableRecord
100
AcDbBlockTableRecord
  2
_D_7
340
0
  0
BLOCK_RECORD
  5
173
330
1
100
AcDbSymbolTableRecord
100
AcDbBlockTableRecord
  2
_D_8
340
0
  0
BLOCK_RECORD
  5
17E
330
1
100
AcDbSymbolTableRecord
100
AcDbBlockTableRecord
  2
_D_9
340
0
  0
BLOCK_RECORD
  5
187
330
1
100
AcDbSymbolTableRecord
100
AcDbBlockTableRecord
  2
_D_10
340
0
  0
BLOCK_RECORD
  5
190
330
1
100
AcDbSymbolTableRecord
100
AcDbBlockTableRecord
  2
_D_11
340
0
  0
BLOCK_RECORD
  5
199
330
1
100
AcDbSymbolTableRecord
100
AcDbBlockTableRecord
  2
_D_12
340
0
  0
BLOCK_RECORD
  5
1A2
330
1
100
AcDbSymbolTableRecord
100
AcDbBlockTableRecord
  2
SW_CENTERMARKSYMBOL_0
340
0
102
{BLKREFS
331
1AD
102
}
  0
BLOCK_RECORD
  5
1AE
330
1
100
AcDbSymbolTableRecord
100
AcDbBlockTableRecord
  2
SW_CENTERMARKSYMBOL_1
340
0
102
{BLKREFS
331
1B9
102
}
  0
BLOCK_RECORD
  5
1BA
330
1
100
AcDbSymbolTableRecord
100
AcDbBlockTableRecord
  2
SW_CENTERMARKSYMBOL_2
340
0
102
{BLKREFS
331
1C5
102
}
  0
BLOCK_RECORD
  5
1C6
330
1
100
AcDbSymbolTableRecord
100
AcDbBlockTableRecord
  2
SW_CENTERMARKSYMBOL_3
340
0
102
{BLKREFS
331
1D1
102
}
  0
BLOCK_RECORD
  5
1D2
330
1
100
AcDbSymbolTableRecord
100
AcDbBlockTableRecord
  2
SW_CENTERMARKSYMBOL_4
340
0
102
{BLKREFS
331
1DD
102
}
  0
BLOCK_RECORD
  5
1DE
330
1
100
AcDbSymbolTableRecord
100
AcDbBlockTableRecord
  2
SW_CENTERMARKSYMBOL_5
340
0
102
{BLKREFS
331
1E9
102
}
  0
BLOCK_RECORD
  5
1EA
330
1
100
AcDbSymbolTableRecord
100
AcDbBlockTableRecord
  2
SW_CENTERMARKSYMBOL_6
340
0
102
{BLKREFS
331
1F5
102
}
  0
BLOCK_RECORD
  5
1F6
330
1
100
AcDbSymbolTableRecord
100
AcDbBlockTableRecord
  2
SW_CENTERMARKSYMBOL_7
340
0
102
{BLKREFS
331
201
102
}
  0
BLOCK_RECORD
  5
202
330
1
100
AcDbSymbolTableRecord
100
AcDbBlockTableRecord
  2
SW_CENTERMARKSYMBOL_8
340
0
102
{BLKREFS
331
20D
102
}
  0
BLOCK_RECORD
  5
20E
330
1
100
AcDbSymbolTableRecord
100
AcDbBlockTableRecord
  2
SW_CENTERMARKSYMBOL_9
340
0
102
{BLKREFS
331
219
102
}
  0
BLOCK_RECORD
  5
21A
330
1
100
AcDbSymbolTableRecord
100
AcDbBlockTableRecord
  2
SW_CENTERMARKSYMBOL_10
340
0
102
{BLKREFS
331
225
102
}
  0
BLOCK_RECORD
  5
226
330
1
100
AcDbSymbolTableRecord
100
AcDbBlockTableRecord
  2
SW_CENTERMARKSYMBOL_11
340
0
102
{BLKREFS
331
231
102
}
  0
BLOCK_RECORD
  5
232
330
1
100
AcDbSymbolTableRecord
100
AcDbBlockTableRecord
  2
SW_CENTERMARKSYMBOL_12
340
0
102
{BLKREFS
331
23D
102
}
  0
BLOCK_RECORD
  5
23E
330
1
100
AcDbSymbolTableRecord
100
AcDbBlockTableRecord
  2
SW_CENTERMARKSYMBOL_13
340
0
102
{BLKREFS
331
249
102
}
  0
BLOCK_RECORD
  5
24A
330
1
100
AcDbSymbolTableRecord
100
AcDbBlockTableRecord
  2
SW_CENTERMARKSYMBOL_14
340
0
102
{BLKREFS
331
255
102
}
  0
BLOCK_RECORD
  5
256
330
1
100
AcDbSymbolTableRecord
100
AcDbBlockTableRecord
  2
SW_CENTERMARKSYMBOL_15
340
0
102
{BLKREFS
331
261
102
}
  0
BLOCK_RECORD
  5
262
330
1
100
AcDbSymbolTableRecord
100
AcDbBlockTableRecord
  2
SW_CENTERMARKSYMBOL_16
340
0
102
{BLKREFS
331
26D
102
}
  0
BLOCK_RECORD
  5
2BF
330
1
100
AcDbSymbolTableRecord
100
AcDbBlockTableRecord
  2
_D_13
340
0
  0
ENDTAB
  0
ENDSEC
  0
SECTION
  2
BLOCKS
  0
BLOCK
  5
20
330
1F
100
AcDbEntity
  8
0
100
AcDbBlockBegin
  2
*Model_Space
 70
     0
 10
0.0
 20
0.0
 30
0.0
  3
*Model_Space
  1

  0
ENDBLK
  5
21
330
1F
100
AcDbEntity
  8
0
100
AcDbBlockEnd
  0
BLOCK
  5
1C
330
1B
100
AcDbEntity
 67
     1
  8
0
100
AcDbBlockBegin
  2
*Paper_Space
 70
     0
 10
0.0
 20
0.0
 30
0.0
  3
*Paper_Space
  1

  0
ENDBLK
  5
1D
330
1B
100
AcDbEntity
 67
     1
  8
0
100
AcDbBlockEnd
  0
BLOCK
  5
24
330
23
100
AcDbEntity
  8
0
100
AcDbBlockBegin
  2
*Paper_Space0
 70
     0
 10
0.0
 20
0.0
 30
0.0
  3
*Paper_Space0
  1

  0
ENDBLK
  5
25
330
23
100
AcDbEntity
  8
0
100
AcDbBlockEnd
  0
BLOCK
  5
C8
330
C7
100
AcDbEntity
  8
0
100
AcDbBlockBegin
  2
SW_NOTE_0
 70
     0
 10
0.0
 20
0.0
 30
0.0
  3
SW_NOTE_0
  1

  0
MTEXT
  5
CA
330
C7
100
AcDbEntity
  8
0
  6
Continuous
 62
     0
370
     0
100
AcDbMText
 10
0.0
 20
3.4106583948
 30
0.0
 40
2.6458333333
 41
0.0
 71
     1
 72
     1
  1
PROPRIETARY AND CONFIDENTIAL
  7
SLDTEXTSTYLE0
 73
     1
 44
1.0
  0
MTEXT
  5
CB
330
C7
100
AcDbEntity
  8
0
  6
Continuous
 62
     0
370
     0
100
AcDbMText
 10
0.0
 20
-0.08198348
 30
0.0
 40
1.8520833333
 41
0.0
 71
     1
 72
     1
  1
THE INFORMATION CONTAINED IN THIS DRAWING IS THE SOLE PROPERTY OF UNICE E-O SERVICES INC. ANY REPRODUCTION IN PART OR AS A WHOLE WITHOUT THE WRITTEN PERMISSION OF UNICE E-O SERVICES INC IS
  7
SLDTEXTSTYLE0
 73
     1
 44
1.0
  0
MTEXT
  5
CC
330
C7
100
AcDbEntity
  8
0
  6
Continuous
 62
     0
370
     0
100
AcDbMText
 10
0.0
 20
-2.5514278946
 30
0.0
 40
1.8520833333
 41
0.0
 71
     1
 72
     1
  1
PROHIBITED.
  7
SLDTEXTSTYLE0
 73
     1
 44
1.0
  0
ENDBLK
  5
C9
330
C7
100
AcDbEntity
  8
0
100
AcDbBlockEnd
  0
BLOCK
  5
FE
330
FD
100
AcDbEntity
  8
0
100
AcDbBlockBegin
  2
SW_NOTE_1
 70
     0
 10
0.0
 20
0.0
 30
0.0
  3
SW_NOTE_1
  1

  0
MTEXT
  5
100
330
FD
100
AcDbEntity
  8
SLD-0
 62
     0
100
AcDbMText
 10
0.0
 20
2.3874608764
 30
0.0
 40
1.8520833333
 41
0.0
 71
     1
 72
     1
  1
No.5, Andong Rd., Chung Li District,
  7
SLDTEXTSTYLE1
 73
     1
 44
1.0
  0
MTEXT
  5
101
330
FD
100
AcDbEntity
  8
SLD-0
 62
     0
100
AcDbMText
 10
0.0
 20
-0.0819835382
 30
0.0
 40
1.8520833333
 41
0.0
 71
     1
 72
     1
  1
Taoyuan City 32063, Taiwan, R.O.C.
  7
SLDTEXTSTYLE1
 73
     1
 44
1.0
  0
ENDBLK
  5
FF
330
FD
100
AcDbEntity
  8
0
100
AcDbBlockEnd
  0
BLOCK
  5
124
330
123
100
AcDbEntity
  8
0
100
AcDbBlockBegin
  2
_D
 70
     0
 10
0.0
 20
0.0
 30
0.0
  3
_D
  1

  0
SOLID
  5
126
330
123
100
AcDbEntity
  8
SLD-0
100
AcDbTrace
 10
94.4132957305
 20
155.24141052
 30
0.0
 11
92.4132957305
 21
155.49141052
 31
0.0
 12
92.4132957305
 22
154.99141052
 32
0.0
 13
92.4132957305
 23
154.99141052
 33
0.0
  0
SOLID
  5
127
330
123
100
AcDbEntity
  8
SLD-0
100
AcDbTrace
 10
81.9132957305
 20
155.24141052
 30
0.0
 11
83.9132957305
 21
154.99141052
 31
0.0
 12
83.9132957305
 22
155.49141052
 32
0.0
 13
83.9132957305
 23
155.49141052
 33
0.0
  0
LINE
  5
128
330
123
100
AcDbEntity
  8
SLD-0
100
AcDbLine
 10
94.4132957305
 20
145.6220809043
 30
0.0
 11
94.4132957305
 21
156.24141052
 31
0.0
  0
LINE
  5
129
330
123
100
AcDbEntity
  8
SLD-0
100
AcDbLine
 10
81.9132957305
 20
133.1220809043
 30
0.0
 11
81.9132957305
 21
156.24141052
 31
0.0
  0
LINE
  5
12A
330
123
100
AcDbEntity
  8
SLD-0
100
AcDbLine
 10
94.4132957305
 20
155.24141052
 30
0.0
 11
81.9132957305
 21
155.24141052
 31
0.0
  0
MTEXT
  5
12B
330
123
100
AcDbEntity
  8
SLD-0
100
AcDbMText
 10
84.8212819244
 20
158.4640796948
 30
0.0
 40
2.5
 41
0.0
 71
     1
 72
     1
  1
12.5
  7
SLDTEXTSTYLE0
 73
     1
 44
1.0
  0
ENDBLK
  5
125
330
123
100
AcDbEntity
  8
0
100
AcDbBlockEnd
  0
BLOCK
  5
12E
330
12D
100
AcDbEntity
  8
0
100
AcDbBlockBegin
  2
_D_1
 70
     0
 10
0.0
 20
0.0
 30
0.0
  3
_D_1
  1

  0
SOLID
  5
130
330
12D
100
AcDbEntity
  8
SLD-0
100
AcDbTrace
 10
94.4132957305
 20
161.1821649106
 30
0.0
 11
92.4132957305
 21
161.4321649106
 31
0.0
 12
92.4132957305
 22
160.9321649106
 32
0.0
 13
92.4132957305
 23
160.9321649106
 33
0.0
  0
SOLID
  5
131
330
12D
100
AcDbEntity
  8
SLD-0
100
AcDbTrace
 10
69.4132957305
 20
161.1821649106
 30
0.0
 11
71.4132957305
 21
160.9321649106
 31
0.0
 12
71.4132957305
 22
161.4321649106
 32
0.0
 13
71.4132957305
 23
161.4321649106
 33
0.0
  0
LINE
  5
132
330
12D
100
AcDbEntity
  8
SLD-0
100
AcDbLine
 10
94.4132957305
 20
145.6220809043
 30
0.0
 11
94.4132957305
 21
162.1821649106
 31
0.0
  0
LINE
  5
133
330
12D
100
AcDbEntity
  8
SLD-0
100
AcDbLine
 10
69.4132957305
 20
145.6220809043
 30
0.0
 11
69.4132957305
 21
162.1821649106
 31
0.0
  0
LINE
  5
134
330
12D
100
AcDbEntity
  8
SLD-0
100
AcDbLine
 10
94.4132957305
 20
161.1821649106
 30
0.0
 11
69.4132957305
 21
161.1821649106
 31
0.0
  0
MTEXT
  5
135
330
12D
100
AcDbEntity
  8
SLD-0
100
AcDbMText
 10
80.0035735057
 20
164.4048340854
 30
0.0
 40
2.5
 41
0.0
 71
     1
 72
     1
  1
25
  7
SLDTEXTSTYLE0
 73
     1
 44
1.0
  0
ENDBLK
  5
12F
330
12D
100
AcDbEntity
  8
0
100
AcDbBlockEnd
  0
BLOCK
  5
138
330
137
100
AcDbEntity
  8
0
100
AcDbBlockBegin
  2
_D_2
 70
     0
 10
0.0
 20
0.0
 30
0.0
  3
_D_2
  1

  0
SOLID
  5
13A
330
137
100
AcDbEntity
  8
SLD-0
100
AcDbTrace
 10
94.4132957305
 20
161.1821649106
 30
0.0
 11
96.4132957305
 21
160.9321649106
 31
0.0
 12
96.4132957305
 22
161.4321649106
 32
0.0
 13
96.4132957305
 23
161.4321649106
 33
0.0
  0
SOLID
  5
13B
330
137
100
AcDbEntity
  8
SLD-0
100
AcDbTrace
 10
119.4132957305
 20
161.1821649106
 30
0.0
 11
117.4132957305
 21
161.4321649106
 31
0.0
 12
117.4132957305
 22
160.9321649106
 32
0.0
 13
117.4132957305
 23
160.9321649106
 33
0.0
  0
LINE
  5
13C
330
137
100
AcDbEntity
  8
SLD-0
100
AcDbLine
 10
94.4132957305
 20
145.6220809043
 30
0.0
 11
94.4132957305
 21
162.1821649106
 31
0.0
  0
LINE
  5
13D
330
137
100
AcDbEntity
  8
SLD-0
100
AcDbLine
 10
119.4132957305
 20
145.6220809043
 30
0.0
 11
119.4132957305
 21
162.1821649106
 31
0.0
  0
LINE
  5
13E
330
137
100
AcDbEntity
  8
SLD-0
100
AcDbLine
 10
94.4132957305
 20
161.1821649106
 30
0.0
 11
119.4132957305
 21
161.1821649106
 31
0.0
  0
MTEXT
  5
13F
330
137
100
AcDbEntity
  8
SLD-0
100
AcDbMText
 10
105.0035735057
 20
164.4048340854
 30
0.0
 40
2.5
 41
0.0
 71
     1
 72
     1
  1
25
  7
SLDTEXTSTYLE0
 73
     1
 44
1.0
  0
ENDBLK
  5
139
330
137
100
AcDbEntity
  8
0
100
AcDbBlockEnd
  0
BLOCK
  5
142
330
141
100
AcDbEntity
  8
0
100
AcDbBlockBegin
  2
_D_3
 70
     0
 10
0.0
 20
0.0
 30
0.0
  3
_D_3
  1

  0
SOLID
  5
144
330
141
100
AcDbEntity
  8
SLD-0
100
AcDbTrace
 10
64.4132957305
 20
167.2530726292
 30
0.0
 11
66.4132957305
 21
167.0030726292
 31
0.0
 12
66.4132957305
 22
167.5030726292
 32
0.0
 13
66.4132957305
 23
167.5030726292
 33
0.0
  0
SOLID
  5
145
330
141
100
AcDbEntity
  8
SLD-0
100
AcDbTrace
 10
124.4132957305
 20
167.2530726292
 30
0.0
 11
122.4132957305
 21
167.5030726292
 31
0.0
 12
122.4132957305
 22
167.0030726292
 32
0.0
 13
122.4132957305
 23
167.0030726292
 33
0.0
  0
LINE
  5
146
330
141
100
AcDbEntity
  8
SLD-0
100
AcDbLine
 10
64.4132957305
 20
145.6220809043
 30
0.0
 11
64.4132957305
 21
168.2530726292
 31
0.0
  0
LINE
  5
147
330
141
100
AcDbEntity
  8
SLD-0
100
AcDbLine
 10
124.4132957305
 20
145.6220809043
 30
0.0
 11
124.4132957305
 21
168.2530726292
 31
0.0
  0
LINE
  5
148
330
141
100
AcDbEntity
  8
SLD-0
100
AcDbLine
 10
64.4132957305
 20
167.2530726292
 30
0.0
 11
124.4132957305
 21
167.2530726292
 31
0.0
  0
MTEXT
  5
149
330
141
100
AcDbEntity
  8
SLD-0
100
AcDbMText
 10
92.5035735057
 20
170.475741804
 30
0.0
 40
2.5
 41
0.0
 71
     1
 72
     1
  1
60
  7
SLDTEXTSTYLE0
 73
     1
 44
1.0
  0
ENDBLK
  5
143
330
141
100
AcDbEntity
  8
0
100
AcDbBlockEnd
  0
BLOCK
  5
14C
330
14B
100
AcDbEntity
  8
0
100
AcDbBlockBegin
  2
_D_4
 70
     0
 10
0.0
 20
0.0
 30
0.0
  3
_D_4
  1

  0
SOLID
  5
14E
330
14B
100
AcDbEntity
  8
SLD-0
100
AcDbTrace
 10
59.418354812
 20
119.6220809043
 30
0.0
 11
59.668354812
 21
121.6220809043
 31
0.0
 12
59.168354812
 22
121.6220809043
 32
0.0
 13
59.168354812
 23
121.6220809043
 33
0.0
  0
SOLID
  5
14F
330
14B
100
AcDbEntity
  8
SLD-0
100
AcDbTrace
 10
59.418354812
 20
132.1220809043
 30
0.0
 11
59.168354812
 21
130.1220809043
 31
0.0
 12
59.668354812
 22
130.1220809043
 32
0.0
 13
59.668354812
 23
130.1220809043
 33
0.0
  0
LINE
  5
150
330
14B
100
AcDbEntity
  8
SLD-0
100
AcDbLine
 10
68.4132957305
 20
119.6220809043
 30
0.0
 11
58.418354812
 21
119.6220809043
 31
0.0
  0
LINE
  5
151
330
14B
100
AcDbEntity
  8
SLD-0
100
AcDbLine
 10
80.9132957305
 20
132.1220809043
 30
0.0
 11
58.418354812
 21
132.1220809043
 31
0.0
  0
LINE
  5
152
330
14B
100
AcDbEntity
  8
SLD-0
100
AcDbLine
 10
59.418354812
 20
119.6220809043
 30
0.0
 11
59.418354812
 21
132.1220809043
 31
0.0
  0
MTEXT
  5
153
330
14B
100
AcDbEntity
  8
SLD-0
100
AcDbMText
 10
56.1956856372
 20
122.5300670982
 30
0.0
 40
2.5
 41
0.0
 71
     1
 72
     1
  1
12.5
  7
SLDTEXTSTYLE0
 11
6.123233995736766E-17
 21
1.0
 31
0.0
 73
     1
 44
1.0
  0
ENDBLK
  5
14D
330
14B
100
AcDbEntity
  8
0
100
AcDbBlockEnd
  0
BLOCK
  5
156
330
155
100
AcDbEntity
  8
0
100
AcDbBlockBegin
  2
_D_5
 70
     0
 10
0.0
 20
0.0
 30
0.0
  3
_D_5
  1

  0
SOLID
  5
158
330
155
100
AcDbEntity
  8
SLD-0
100
AcDbTrace
 10
59.418354812
 20
119.6220809043
 30
0.0
 11
59.168354812
 21
117.6220809043
 31
0.0
 12
59.668354812
 22
117.6220809043
 32
0.0
 13
59.668354812
 23
117.6220809043
 33
0.0
  0
SOLID
  5
159
330
155
100
AcDbEntity
  8
SLD-0
100
AcDbTrace
 10
59.418354812
 20
107.1220809043
 30
0.0
 11
59.668354812
 21
109.1220809043
 31
0.0
 12
59.168354812
 22
109.1220809043
 32
0.0
 13
59.168354812
 23
109.1220809043
 33
0.0
  0
LINE
  5
15A
330
155
100
AcDbEntity
  8
SLD-0
100
AcDbLine
 10
68.4132957305
 20
119.6220809043
 30
0.0
 11
58.418354812
 21
119.6220809043
 31
0.0
  0
LINE
  5
15B
330
155
100
AcDbEntity
  8
SLD-0
100
AcDbLine
 10
80.9132957305
 20
107.1220809043
 30
0.0
 11
58.418354812
 21
107.1220809043
 31
0.0
  0
LINE
  5
15C
330
155
100
AcDbEntity
  8
SLD-0
100
AcDbLine
 10
59.418354812
 20
119.6220809043
 30
0.0
 11
59.418354812
 21
107.1220809043
 31
0.0
  0
MTEXT
  5
15D
330
155
100
AcDbEntity
  8
SLD-0
100
AcDbMText
 10
56.1956856372
 20
110.0300670982
 30
0.0
 40
2.5
 41
0.0
 71
     1
 72
     1
  1
12.5
  7
SLDTEXTSTYLE0
 11
-7.044195017643634E-15
 21
1.0
 31
0.0
 73
     1
 44
1.0
  0
ENDBLK
  5
157
330
155
100
AcDbEntity
  8
0
100
AcDbBlockEnd
  0
BLOCK
  5
160
330
15F
100
AcDbEntity
  8
0
100
AcDbBlockBegin
  2
_D_6
 70
     0
 10
0.0
 20
0.0
 30
0.0
  3
_D_6
  1

  0
SOLID
  5
162
330
15F
100
AcDbEntity
  8
SLD-0
100
AcDbTrace
 10
50.4132957305
 20
119.6220809043
 30
0.0
 11
50.6632957305
 21
121.6220809043
 31
0.0
 12
50.1632957305
 22
121.6220809043
 32
0.0
 13
50.1632957305
 23
121.6220809043
 33
0.0
  0
SOLID
  5
163
330
15F
100
AcDbEntity
  8
SLD-0
100
AcDbTrace
 10
50.4132957305
 20
144.6220809043
 30
0.0
 11
50.1632957305
 21
142.6220809043
 31
0.0
 12
50.6632957305
 22
142.6220809043
 32
0.0
 13
50.6632957305
 23
142.6220809043
 33
0.0
  0
LINE
  5
164
330
15F
100
AcDbEntity
  8
SLD-0
100
AcDbLine
 10
68.4132957305
 20
119.6220809043
 30
0.0
 11
49.4132957305
 21
119.6220809043
 31
0.0
  0
LINE
  5
165
330
15F
100
AcDbEntity
  8
SLD-0
100
AcDbLine
 10
68.4132957305
 20
144.6220809043
 30
0.0
 11
49.4132957305
 21
144.6220809043
 31
0.0
  0
LINE
  5
166
330
15F
100
AcDbEntity
  8
SLD-0
100
AcDbLine
 10
50.4132957305
 20
119.6220809043
 30
0.0
 11
50.4132957305
 21
144.6220809043
 31
0.0
  0
MTEXT
  5
167
330
15F
100
AcDbEntity
  8
SLD-0
100
AcDbMText
 10
47.1906265557
 20
130.2123586795
 30
0.0
 40
2.5
 41
0.0
 71
     1
 72
     1
  1
25
  7
SLDTEXTSTYLE0
 11
6.123233995736766E-17
 21
1.0
 31
0.0
 73
     1
 44
1.0
  0
ENDBLK
  5
161
330
15F
100
AcDbEntity
  8
0
100
AcDbBlockEnd
  0
BLOCK
  5
16A
330
169
100
AcDbEntity
  8
0
100
AcDbBlockBegin
  2
_D_7
 70
     0
 10
0.0
 20
0.0
 30
0.0
  3
_D_7
  1

  0
SOLID
  5
16C
330
169
100
AcDbEntity
  8
SLD-0
100
AcDbTrace
 10
50.4132957305
 20
119.6220809043
 30
0.0
 11
50.1632957305
 21
117.6220809043
 31
0.0
 12
50.6632957305
 22
117.6220809043
 32
0.0
 13
50.6632957305
 23
117.6220809043
 33
0.0
  0
SOLID
  5
16D
330
169
100
AcDbEntity
  8
SLD-0
100
AcDbTrace
 10
50.4132957305
 20
94.6220809043
 30
0.0
 11
50.6632957305
 21
96.6220809043
 31
0.0
 12
50.1632957305
 22
96.6220809043
 32
0.0
 13
50.1632957305
 23
96.6220809043
 33
0.0
  0
LINE
  5
16E
330
169
100
AcDbEntity
  8
SLD-0
100
AcDbLine
 10
68.4132957305
 20
119.6220809043
 30
0.0
 11
49.4132957305
 21
119.6220809043
 31
0.0
  0
LINE
  5
16F
330
169
100
AcDbEntity
  8
SLD-0
100
AcDbLine
 10
68.4132957305
 20
94.6220809043
 30
0.0
 11
49.4132957305
 21
94.6220809043
 31
0.0
  0
LINE
  5
170
330
169
100
AcDbEntity
  8
SLD-0
100
AcDbLine
 10
50.4132957305
 20
119.6220809043
 30
0.0
 11
50.4132957305
 21
94.6220809043
 31
0.0
  0
MTEXT
  5
171
330
169
100
AcDbEntity
  8
SLD-0
100
AcDbMText
 10
47.1906265557
 20
105.2123586795
 30
0.0
 40
2.5
 41
0.0
 71
     1
 72
     1
  1
25
  7
SLDTEXTSTYLE0
 11
-7.044195017643634E-15
 21
1.0
 31
0.0
 73
     1
 44
1.0
  0
ENDBLK
  5
16B
330
169
100
AcDbEntity
  8
0
100
AcDbBlockEnd
  0
BLOCK
  5
174
330
173
100
AcDbEntity
  8
0
100
AcDbBlockBegin
  2
_D_8
 70
     0
 10
0.0
 20
0.0
 30
0.0
  3
_D_8
  1

  0
SOLID
  5
176
330
173
100
AcDbEntity
  8
SLD-0
100
AcDbTrace
 10
43.4132957305
 20
149.6220809043
 30
0.0
 11
43.1632957305
 21
147.6220809043
 31
0.0
 12
43.6632957305
 22
147.6220809043
 32
0.0
 13
43.6632957305
 23
147.6220809043
 33
0.0
  0
SOLID
  5
177
330
173
100
AcDbEntity
  8
SLD-0
100
AcDbTrace
 10
43.4132957305
 20
89.6220809043
 30
0.0
 11
43.6632957305
 21
91.6220809043
 31
0.0
 12
43.1632957305
 22
91.6220809043
 32
0.0
 13
43.1632957305
 23
91.6220809043
 33
0.0
  0
LINE
  5
178
330
173
100
AcDbEntity
  8
SLD-0
100
AcDbLine
 10
68.4132957305
 20
149.6220809043
 30
0.0
 11
42.4132957305
 21
149.6220809043
 31
0.0
  0
LINE
  5
179
330
173
100
AcDbEntity
  8
SLD-0
100
AcDbLine
 10
68.4132957305
 20
89.6220809043
 30
0.0
 11
42.4132957305
 21
89.6220809043
 31
0.0
  0
LINE
  5
17A
330
173
100
AcDbEntity
  8
SLD-0
100
AcDbLine
 10
43.4132957305
 20
149.6220809043
 30
0.0
 11
43.4132957305
 21
89.6220809043
 31
0.0
  0
MTEXT
  5
17B
330
173
100
AcDbEntity
  8
SLD-0
100
AcDbMText
 10
40.1906265557
 20
117.7123586795
 30
0.0
 40
2.5
 41
0.0
 71
     1
 72
     1
  1
60
  7
SLDTEXTSTYLE0
 11
-7.044195017643634E-15
 21
1.0
 31
0.0
 73
     1
 44
1.0
  0
ENDBLK
  5
175
330
173
100
AcDbEntity
  8
0
100
AcDbBlockEnd
  0
BLOCK
  5
17F
330
17E
100
AcDbEntity
  8
0
100
AcDbBlockBegin
  2
_D_9
 70
     0
 10
0.0
 20
0.0
 30
0.0
  3
_D_9
  1

  0
SOLID
  5
181
330
17E
100
AcDbEntity
  8
SLD-0
100
AcDbTrace
 10
120.1897528658
 20
91.7243034254
 30
0.0
 11
120.4659094995
 21
89.7277470116
 31
0.0
 12
120.9488724126
 22
89.8571565341
 32
0.0
 13
120.9488724126
 23
89.8571565341
 33
0.0
  0
LINE
  5
182
330
17E
100
AcDbEntity
  8
SLD-0
100
AcDbLine
 10
120.1897528658
 20
91.7243034254
 30
0.0
 11
124.2523286834
 21
76.5625640647
 31
0.0
  0
LINE
  5
183
330
17E
100
AcDbEntity
  8
SLD-0
100
AcDbLine
 10
124.2523286834
 20
76.5625640647
 30
0.0
 11
140.96413396
 21
76.5625640647
 31
0.0
  0
MTEXT
  5
184
330
17E
100
AcDbEntity
  8
SLD-0
100
AcDbMText
 10
125.5023286834
 20
83.622038706
 30
0.0
 40
2.5
 41
0.0
 71
     1
 72
     1
  1
9 HOLES,
  7
SLDTEXTSTYLE0
 73
     1
 44
1.0
  0
MTEXT
  5
185
330
17E
100
AcDbEntity
  8
SLD-0
100
AcDbMText
 10
126.4398286834
 20
79.7852332395
 30
0.0
 40
2.5
 41
0.0
 71
     1
 72
     1
  1
M6
  7
SLDTEXTSTYLE0
 73
     1
 44
1.0
  0
ENDBLK
  5
180
330
17E
100
AcDbEntity
  8
0
100
AcDbBlockEnd
  0
BLOCK
  5
188
330
187
100
AcDbEntity
  8
0
100
AcDbBlockBegin
  2
_D_10
 70
     0
 10
0.0
 20
0.0
 30
0.0
  3
_D_10
  1

  0
SOLID
  5
18A
330
187
100
AcDbEntity
  8
SLD-0
100
AcDbTrace
 10
81.1213212134
 20
105.2855688939
 30
0.0
 11
80.099782695
 21
103.5480536982
 31
0.0
 12
80.5589106976
 22
103.3500600689
 32
0.0
 13
80.5589106976
 23
103.3500600689
 33
0.0
  0
LINE
  5
18B
330
187
100
AcDbEntity
  8
SLD-0
100
AcDbLine
 10
81.1213212134
 20
105.2855688939
 30
0.0
 11
68.3992574503
 21
75.7843382435
 31
0.0
  0
LINE
  5
18C
330
187
100
AcDbEntity
  8
SLD-0
100
AcDbLine
 10
68.3992574503
 20
75.7843382435
 30
0.0
 11
51.6874521737
 21
75.7843382435
 31
0.0
  0
MTEXT
  5
18D
330
187
100
AcDbEntity
  8
SLD-0
100
AcDbMText
 10
51.6874521737
 20
82.8438128848
 30
0.0
 40
2.5
 41
0.0
 71
     1
 72
     1
  1
4 HOLES,
  7
SLDTEXTSTYLE0
 73
     1
 44
1.0
  0
MTEXT
  5
18E
330
187
100
AcDbEntity
  8
SLD-0
100
AcDbMText
 10
52.6249521737
 20
79.0070074183
 30
0.0
 40
2.5
 41
0.0
 71
     1
 72
     1
  1
M4
  7
SLDTEXTSTYLE0
 73
     1
 44
1.0
  0
ENDBLK
  5
189
330
187
100
AcDbEntity
  8
0
100
AcDbBlockEnd
  0
BLOCK
  5
191
330
190
100
AcDbEntity
  8
0
100
AcDbBlockBegin
  2
_D_11
 70
     0
 10
0.0
 20
0.0
 30
0.0
  3
_D_11
  1

  0
SOLID
  5
193
330
190
100
AcDbEntity
  8
SLD-0
100
AcDbTrace
 10
95.1699175033
 20
101.6743728089
 30
0.0
 11
95.1974295982
 21
99.6589961481
 31
0.0
 12
95.6926757887
 22
99.7277799457
 32
0.0
 13
95.6926757887
 23
99.7277799457
 33
0.0
  0
LINE
  5
194
330
190
100
AcDbEntity
  8
SLD-0
100
AcDbLine
 10
95.1699175033
 20
101.6743728089
 30
0.0
 11
99.3331801569
 21
71.6987093047
 31
0.0
  0
LINE
  5
195
330
190
100
AcDbEntity
  8
SLD-0
100
AcDbLine
 10
99.3331801569
 20
71.6987093047
 30
0.0
 11
116.0449854335
 21
71.6987093047
 31
0.0
  0
MTEXT
  5
196
330
190
100
AcDbEntity
  8
SLD-0
100
AcDbMText
 10
100.5831801569
 20
78.7581839461
 30
0.0
 40
2.5
 41
0.0
 71
     1
 72
     1
  1
4 HOLES,
  7
SLDTEXTSTYLE0
 73
     1
 44
1.0
  0
MTEXT
  5
197
330
190
100
AcDbEntity
  8
SLD-0
100
AcDbMText
 10
101.5206801569
 20
74.9213784795
 30
0.0
 40
2.5
 41
0.0
 71
     1
 72
     1
  1
M6 CLR
  7
SLDTEXTSTYLE0
 73
     1
 44
1.0
  0
ENDBLK
  5
192
330
190
100
AcDbEntity
  8
0
100
AcDbBlockEnd
  0
BLOCK
  5
19A
330
199
100
AcDbEntity
  8
0
100
AcDbBlockBegin
  2
_D_12
 70
     0
 10
0.0
 20
0.0
 30
0.0
  3
_D_12
  1

  0
SOLID
  5
19C
330
199
100
AcDbEntity
  8
SLD-0
 62
     7
100
AcDbTrace
 10
94.4132957305
 20
155.24141052
 30
0.0
 11
96.4132957305
 21
154.99141052
 31
0.0
 12
96.4132957305
 22
155.49141052
 32
0.0
 13
96.4132957305
 23
155.49141052
 33
0.0
  0
SOLID
  5
19D
330
199
100
AcDbEntity
  8
SLD-0
 62
     7
100
AcDbTrace
 10
106.9132957305
 20
155.24141052
 30
0.0
 11
104.9132957305
 21
155.49141052
 31
0.0
 12
104.9132957305
 22
154.99141052
 32
0.0
 13
104.9132957305
 23
154.99141052
 33
0.0
  0
LINE
  5
19E
330
199
100
AcDbEntity
  8
SLD-0
 62
     7
100
AcDbLine
 10
94.4132957305
 20
149.1220809043
 30
0.0
 11
94.4132957305
 21
156.24141052
 31
0.0
  0
LINE
  5
19F
330
199
100
AcDbEntity
  8
SLD-0
 62
     7
100
AcDbLine
 10
106.9132957305
 20
133.1220809043
 30
0.0
 11
106.9132957305
 21
156.24141052
 31
0.0
  0
LINE
  5
1A0
330
199
100
AcDbEntity
  8
SLD-0
 62
     7
100
AcDbLine
 10
94.4132957305
 20
155.24141052
 30
0.0
 11
106.9132957305
 21
155.24141052
 31
0.0
  0
MTEXT
  5
1A1
330
199
100
AcDbEntity
  8
SLD-0
 62
     7
100
AcDbMText
 10
97.3212819244
 20
158.4640796948
 30
0.0
 40
2.5
 41
0.0
 71
     1
 72
     1
  1
12.5
  7
SLDTEXTSTYLE0
 73
     1
 44
1.0
  0
ENDBLK
  5
19B
330
199
100
AcDbEntity
  8
0
100
AcDbBlockEnd
  0
BLOCK
  5
1A3
330
1A2
100
AcDbEntity
  8
0
100
AcDbBlockBegin
  2
SW_CENTERMARKSYMBOL_0
 70
     0
 10
0.0
 20
0.0
 30
0.0
  3
SW_CENTERMARKSYMBOL_0
  1

  0
LINE
  5
1A5
330
1A2
100
AcDbEntity
  8
SLD-0
 62
     0
100
AcDbLine
 10
0.0
 20
0.0
 30
0.0
 11
0.0
 21
1.0
 31
0.0
  0
LINE
  5
1A6
330
1A2
100
AcDbEntity
  8
SLD-0
 62
     0
100
AcDbLine
 10
0.0
 20
0.0
 30
0.0
 11
-1.0
 21
0.0
 31
0.0
  0
LINE
  5
1A7
330
1A2
100
AcDbEntity
  8
SLD-0
 62
     0
100
AcDbLine
 10
0.0
 20
0.0
 30
0.0
 11
0.0
 21
-1.0
 31
0.0
  0
LINE
  5
1A8
330
1A2
100
AcDbEntity
  8
SLD-0
 62
     0
100
AcDbLine
 10
0.0
 20
0.0
 30
0.0
 11
1.0
 21
0.0
 31
0.0
  0
LINE
  5
1A9
330
1A2
100
AcDbEntity
  8
SLD-0
 62
     0
100
AcDbLine
 10
0.0
 20
2.0
 30
0.0
 11
0.0
 21
3.5
 31
0.0
  0
LINE
  5
1AA
330
1A2
100
AcDbEntity
  8
SLD-0
 62
     0
100
AcDbLine
 10
-2.0
 20
0.0
 30
0.0
 11
-3.5
 21
0.0
 31
0.0
  0
LINE
  5
1AB
330
1A2
100
AcDbEntity
  8
SLD-0
 62
     0
100
AcDbLine
 10
0.0
 20
-2.0
 30
0.0
 11
0.0
 21
-3.5
 31
0.0
  0
LINE
  5
1AC
330
1A2
100
AcDbEntity
  8
SLD-0
 62
     0
100
AcDbLine
 10
2.0
 20
0.0
 30
0.0
 11
3.5
 21
0.0
 31
0.0
  0
ENDBLK
  5
1A4
330
1A2
100
AcDbEntity
  8
0
100
AcDbBlockEnd
  0
BLOCK
  5
1AF
330
1AE
100
AcDbEntity
  8
0
100
AcDbBlockBegin
  2
SW_CENTERMARKSYMBOL_1
 70
     0
 10
0.0
 20
0.0
 30
0.0
  3
SW_CENTERMARKSYMBOL_1
  1

  0
LINE
  5
1B1
330
1AE
100
AcDbEntity
  8
SLD-0
 62
     0
100
AcDbLine
 10
0.0
 20
0.0
 30
0.0
 11
0.0
 21
1.0
 31
0.0
  0
LINE
  5
1B2
330
1AE
100
AcDbEntity
  8
SLD-0
 62
     0
100
AcDbLine
 10
0.0
 20
0.0
 30
0.0
 11
-1.0
 21
0.0
 31
0.0
  0
LINE
  5
1B3
330
1AE
100
AcDbEntity
  8
SLD-0
 62
     0
100
AcDbLine
 10
0.0
 20
0.0
 30
0.0
 11
0.0
 21
-1.0
 31
0.0
  0
LINE
  5
1B4
330
1AE
100
AcDbEntity
  8
SLD-0
 62
     0
100
AcDbLine
 10
0.0
 20
0.0
 30
0.0
 11
1.0
 21
0.0
 31
0.0
  0
LINE
  5
1B5
330
1AE
100
AcDbEntity
  8
SLD-0
 62
     0
100
AcDbLine
 10
0.0
 20
2.0
 30
0.0
 11
0.0
 21
3.5
 31
0.0
  0
LINE
  5
1B6
330
1AE
100
AcDbEntity
  8
SLD-0
 62
     0
100
AcDbLine
 10
-2.0
 20
0.0
 30
0.0
 11
-3.5
 21
0.0
 31
0.0
  0
LINE
  5
1B7
330
1AE
100
AcDbEntity
  8
SLD-0
 62
     0
100
AcDbLine
 10
0.0
 20
-2.0
 30
0.0
 11
0.0
 21
-3.5
 31
0.0
  0
LINE
  5
1B8
330
1AE
100
AcDbEntity
  8
SLD-0
 62
     0
100
AcDbLine
 10
2.0
 20
0.0
 30
0.0
 11
3.5
 21
0.0
 31
0.0
  0
ENDBLK
  5
1B0
330
1AE
100
AcDbEntity
  8
0
100
AcDbBlockEnd
  0
BLOCK
  5
1BB
330
1BA
100
AcDbEntity
  8
0
100
AcDbBlockBegin
  2
SW_CENTERMARKSYMBOL_2
 70
     0
 10
0.0
 20
0.0
 30
0.0
  3
SW_CENTERMARKSYMBOL_2
  1

  0
LINE
  5
1BD
330
1BA
100
AcDbEntity
  8
SLD-0
 62
     0
100
AcDbLine
 10
0.0
 20
0.0
 30
0.0
 11
0.0
 21
1.0
 31
0.0
  0
LINE
  5
1BE
330
1BA
100
AcDbEntity
  8
SLD-0
 62
     0
100
AcDbLine
 10
0.0
 20
0.0
 30
0.0
 11
-1.0
 21
0.0
 31
0.0
  0
LINE
  5
1BF
330
1BA
100
AcDbEntity
  8
SLD-0
 62
     0
100
AcDbLine
 10
0.0
 20
0.0
 30
0.0
 11
0.0
 21
-1.0
 31
0.0
  0
LINE
  5
1C0
330
1BA
100
AcDbEntity
  8
SLD-0
 62
     0
100
AcDbLine
 10
0.0
 20
0.0
 30
0.0
 11
1.0
 21
0.0
 31
0.0
  0
LINE
  5
1C1
330
1BA
100
AcDbEntity
  8
SLD-0
 62
     0
100
AcDbLine
 10
0.0
 20
2.0
 30
0.0
 11
0.0
 21
3.5
 31
0.0
  0
LINE
  5
1C2
330
1BA
100
AcDbEntity
  8
SLD-0
 62
     0
100
AcDbLine
 10
-2.0
 20
0.0
 30
0.0
 11
-3.5
 21
0.0
 31
0.0
  0
LINE
  5
1C3
330
1BA
100
AcDbEntity
  8
SLD-0
 62
     0
100
AcDbLine
 10
0.0
 20
-2.0
 30
0.0
 11
0.0
 21
-3.5
 31
0.0
  0
LINE
  5
1C4
330
1BA
100
AcDbEntity
  8
SLD-0
 62
     0
100
AcDbLine
 10
2.0
 20
0.0
 30
0.0
 11
3.5
 21
0.0
 31
0.0
  0
ENDBLK
  5
1BC
330
1BA
100
AcDbEntity
  8
0
100
AcDbBlockEnd
  0
BLOCK
  5
1C7
330
1C6
100
AcDbEntity
  8
0
100
AcDbBlockBegin
  2
SW_CENTERMARKSYMBOL_3
 70
     0
 10
0.0
 20
0.0
 30
0.0
  3
SW_CENTERMARKSYMBOL_3
  1

  0
LINE
  5
1C9
330
1C6
100
AcDbEntity
  8
SLD-0
 62
     0
100
AcDbLine
 10
0.0
 20
0.0
 30
0.0
 11
0.0
 21
1.0
 31
0.0
  0
LINE
  5
1CA
330
1C6
100
AcDbEntity
  8
SLD-0
 62
     0
100
AcDbLine
 10
0.0
 20
0.0
 30
0.0
 11
-1.0
 21
0.0
 31
0.0
  0
LINE
  5
1CB
330
1C6
100
AcDbEntity
  8
SLD-0
 62
     0
100
AcDbLine
 10
0.0
 20
0.0
 30
0.0
 11
0.0
 21
-1.0
 31
0.0
  0
LINE
  5
1CC
330
1C6
100
AcDbEntity
  8
SLD-0
 62
     0
100
AcDbLine
 10
0.0
 20
0.0
 30
0.0
 11
1.0
 21
0.0
 31
0.0
  0
LINE
  5
1CD
330
1C6
100
AcDbEntity
  8
SLD-0
 62
     0
100
AcDbLine
 10
0.0
 20
2.0
 30
0.0
 11
0.0
 21
2.65
 31
0.0
  0
LINE
  5
1CE
330
1C6
100
AcDbEntity
  8
SLD-0
 62
     0
100
AcDbLine
 10
-2.0
 20
0.0
 30
0.0
 11
-2.65
 21
0.0
 31
0.0
  0
LINE
  5
1CF
330
1C6
100
AcDbEntity
  8
SLD-0
 62
     0
100
AcDbLine
 10
0.0
 20
-2.0
 30
0.0
 11
0.0
 21
-2.65
 31
0.0
  0
LINE
  5
1D0
330
1C6
100
AcDbEntity
  8
SLD-0
 62
     0
100
AcDbLine
 10
2.0
 20
0.0
 30
0.0
 11
2.65
 21
0.0
 31
0.0
  0
ENDBLK
  5
1C8
330
1C6
100
AcDbEntity
  8
0
100
AcDbBlockEnd
  0
BLOCK
  5
1D3
330
1D2
100
AcDbEntity
  8
0
100
AcDbBlockBegin
  2
SW_CENTERMARKSYMBOL_4
 70
     0
 10
0.0
 20
0.0
 30
0.0
  3
SW_CENTERMARKSYMBOL_4
  1

  0
LINE
  5
1D5
330
1D2
100
AcDbEntity
  8
SLD-0
 62
     0
100
AcDbLine
 10
0.0
 20
0.0
 30
0.0
 11
0.0
 21
1.0
 31
0.0
  0
LINE
  5
1D6
330
1D2
100
AcDbEntity
  8
SLD-0
 62
     0
100
AcDbLine
 10
0.0
 20
0.0
 30
0.0
 11
-1.0
 21
0.0
 31
0.0
  0
LINE
  5
1D7
330
1D2
100
AcDbEntity
  8
SLD-0
 62
     0
100
AcDbLine
 10
0.0
 20
0.0
 30
0.0
 11
0.0
 21
-1.0
 31
0.0
  0
LINE
  5
1D8
330
1D2
100
AcDbEntity
  8
SLD-0
 62
     0
100
AcDbLine
 10
0.0
 20
0.0
 30
0.0
 11
1.0
 21
0.0
 31
0.0
  0
LINE
  5
1D9
330
1D2
100
AcDbEntity
  8
SLD-0
 62
     0
100
AcDbLine
 10
0.0
 20
2.0
 30
0.0
 11
0.0
 21
6.5
 31
0.0
  0
LINE
  5
1DA
330
1D2
100
AcDbEntity
  8
SLD-0
 62
     0
100
AcDbLine
 10
-2.0
 20
0.0
 30
0.0
 11
-6.5
 21
0.0
 31
0.0
  0
LINE
  5
1DB
330
1D2
100
AcDbEntity
  8
SLD-0
 62
     0
100
AcDbLine
 10
0.0
 20
-2.0
 30
0.0
 11
0.0
 21
-6.5
 31
0.0
  0
LINE
  5
1DC
330
1D2
100
AcDbEntity
  8
SLD-0
 62
     0
100
AcDbLine
 10
2.0
 20
0.0
 30
0.0
 11
6.5
 21
0.0
 31
0.0
  0
ENDBLK
  5
1D4
330
1D2
100
AcDbEntity
  8
0
100
AcDbBlockEnd
  0
BLOCK
  5
1DF
330
1DE
100
AcDbEntity
  8
0
100
AcDbBlockBegin
  2
SW_CENTERMARKSYMBOL_5
 70
     0
 10
0.0
 20
0.0
 30
0.0
  3
SW_CENTERMARKSYMBOL_5
  1

  0
LINE
  5
1E1
330
1DE
100
AcDbEntity
  8
SLD-0
 62
     0
100
AcDbLine
 10
0.0
 20
0.0
 30
0.0
 11
0.0
 21
1.0
 31
0.0
  0
LINE
  5
1E2
330
1DE
100
AcDbEntity
  8
SLD-0
 62
     0
100
AcDbLine
 10
0.0
 20
0.0
 30
0.0
 11
-1.0
 21
0.0
 31
0.0
  0
LINE
  5
1E3
330
1DE
100
AcDbEntity
  8
SLD-0
 62
     0
100
AcDbLine
 10
0.0
 20
0.0
 30
0.0
 11
0.0
 21
-1.0
 31
0.0
  0
LINE
  5
1E4
330
1DE
100
AcDbEntity
  8
SLD-0
 62
     0
100
AcDbLine
 10
0.0
 20
0.0
 30
0.0
 11
1.0
 21
0.0
 31
0.0
  0
LINE
  5
1E5
330
1DE
100
AcDbEntity
  8
SLD-0
 62
     0
100
AcDbLine
 10
0.0
 20
2.0
 30
0.0
 11
0.0
 21
2.65
 31
0.0
  0
LINE
  5
1E6
330
1DE
100
AcDbEntity
  8
SLD-0
 62
     0
100
AcDbLine
 10
-2.0
 20
0.0
 30
0.0
 11
-2.65
 21
0.0
 31
0.0
  0
LINE
  5
1E7
330
1DE
100
AcDbEntity
  8
SLD-0
 62
     0
100
AcDbLine
 10
0.0
 20
-2.0
 30
0.0
 11
0.0
 21
-2.65
 31
0.0
  0
LINE
  5
1E8
330
1DE
100
AcDbEntity
  8
SLD-0
 62
     0
100
AcDbLine
 10
2.0
 20
0.0
 30
0.0
 11
2.65
 21
0.0
 31
0.0
  0
ENDBLK
  5
1E0
330
1DE
100
AcDbEntity
  8
0
100
AcDbBlockEnd
  0
BLOCK
  5
1EB
330
1EA
100
AcDbEntity
  8
0
100
AcDbBlockBegin
  2
SW_CENTERMARKSYMBOL_6
 70
     0
 10
0.0
 20
0.0
 30
0.0
  3
SW_CENTERMARKSYMBOL_6
  1

  0
LINE
  5
1ED
330
1EA
100
AcDbEntity
  8
SLD-0
 62
     0
100
AcDbLine
 10
0.0
 20
0.0
 30
0.0
 11
0.0
 21
1.0
 31
0.0
  0
LINE
  5
1EE
330
1EA
100
AcDbEntity
  8
SLD-0
 62
     0
100
AcDbLine
 10
0.0
 20
0.0
 30
0.0
 11
-1.0
 21
0.0
 31
0.0
  0
LINE
  5
1EF
330
1EA
100
AcDbEntity
  8
SLD-0
 62
     0
100
AcDbLine
 10
0.0
 20
0.0
 30
0.0
 11
0.0
 21
-1.0
 31
0.0
  0
LINE
  5
1F0
330
1EA
100
AcDbEntity
  8
SLD-0
 62
     0
100
AcDbLine
 10
0.0
 20
0.0
 30
0.0
 11
1.0
 21
0.0
 31
0.0
  0
LINE
  5
1F1
330
1EA
100
AcDbEntity
  8
SLD-0
 62
     0
100
AcDbLine
 10
0.0
 20
2.0
 30
0.0
 11
0.0
 21
3.5
 31
0.0
  0
LINE
  5
1F2
330
1EA
100
AcDbEntity
  8
SLD-0
 62
     0
100
AcDbLine
 10
-2.0
 20
0.0
 30
0.0
 11
-3.5
 21
0.0
 31
0.0
  0
LINE
  5
1F3
330
1EA
100
AcDbEntity
  8
SLD-0
 62
     0
100
AcDbLine
 10
0.0
 20
-2.0
 30
0.0
 11
0.0
 21
-3.5
 31
0.0
  0
LINE
  5
1F4
330
1EA
100
AcDbEntity
  8
SLD-0
 62
     0
100
AcDbLine
 10
2.0
 20
0.0
 30
0.0
 11
3.5
 21
0.0
 31
0.0
  0
ENDBLK
  5
1EC
330
1EA
100
AcDbEntity
  8
0
100
AcDbBlockEnd
  0
BLOCK
  5
1F7
330
1F6
100
AcDbEntity
  8
0
100
AcDbBlockBegin
  2
SW_CENTERMARKSYMBOL_7
 70
     0
 10
0.0
 20
0.0
 30
0.0
  3
SW_CENTERMARKSYMBOL_7
  1

  0
LINE
  5
1F9
330
1F6
100
AcDbEntity
  8
SLD-0
 62
     0
100
AcDbLine
 10
0.0
 20
0.0
 30
0.0
 11
0.0
 21
1.0
 31
0.0
  0
LINE
  5
1FA
330
1F6
100
AcDbEntity
  8
SLD-0
 62
     0
100
AcDbLine
 10
0.0
 20
0.0
 30
0.0
 11
-1.0
 21
0.0
 31
0.0
  0
LINE
  5
1FB
330
1F6
100
AcDbEntity
  8
SLD-0
 62
     0
100
AcDbLine
 10
0.0
 20
0.0
 30
0.0
 11
0.0
 21
-1.0
 31
0.0
  0
LINE
  5
1FC
330
1F6
100
AcDbEntity
  8
SLD-0
 62
     0
100
AcDbLine
 10
0.0
 20
0.0
 30
0.0
 11
1.0
 21
0.0
 31
0.0
  0
LINE
  5
1FD
330
1F6
100
AcDbEntity
  8
SLD-0
 62
     0
100
AcDbLine
 10
0.0
 20
2.0
 30
0.0
 11
0.0
 21
6.5
 31
0.0
  0
LINE
  5
1FE
330
1F6
100
AcDbEntity
  8
SLD-0
 62
     0
100
AcDbLine
 10
-2.0
 20
0.0
 30
0.0
 11
-6.5
 21
0.0
 31
0.0
  0
LINE
  5
1FF
330
1F6
100
AcDbEntity
  8
SLD-0
 62
     0
100
AcDbLine
 10
0.0
 20
-2.0
 30
0.0
 11
0.0
 21
-6.5
 31
0.0
  0
LINE
  5
200
330
1F6
100
AcDbEntity
  8
SLD-0
 62
     0
100
AcDbLine
 10
2.0
 20
0.0
 30
0.0
 11
6.5
 21
0.0
 31
0.0
  0
ENDBLK
  5
1F8
330
1F6
100
AcDbEntity
  8
0
100
AcDbBlockEnd
  0
BLOCK
  5
203
330
202
100
AcDbEntity
  8
0
100
AcDbBlockBegin
  2
SW_CENTERMARKSYMBOL_8
 70
     0
 10
0.0
 20
0.0
 30
0.0
  3
SW_CENTERMARKSYMBOL_8
  1

  0
LINE
  5
205
330
202
100
AcDbEntity
  8
SLD-0
 62
     0
100
AcDbLine
 10
0.0
 20
0.0
 30
0.0
 11
0.0
 21
1.0
 31
0.0
  0
LINE
  5
206
330
202
100
AcDbEntity
  8
SLD-0
 62
     0
100
AcDbLine
 10
0.0
 20
0.0
 30
0.0
 11
-1.0
 21
0.0
 31
0.0
  0
LINE
  5
207
330
202
100
AcDbEntity
  8
SLD-0
 62
     0
100
AcDbLine
 10
0.0
 20
0.0
 30
0.0
 11
0.0
 21
-1.0
 31
0.0
  0
LINE
  5
208
330
202
100
AcDbEntity
  8
SLD-0
 62
     0
100
AcDbLine
 10
0.0
 20
0.0
 30
0.0
 11
1.0
 21
0.0
 31
0.0
  0
LINE
  5
209
330
202
100
AcDbEntity
  8
SLD-0
 62
     0
100
AcDbLine
 10
0.0
 20
2.0
 30
0.0
 11
0.0
 21
3.5
 31
0.0
  0
LINE
  5
20A
330
202
100
AcDbEntity
  8
SLD-0
 62
     0
100
AcDbLine
 10
-2.0
 20
0.0
 30
0.0
 11
-3.5
 21
0.0
 31
0.0
  0
LINE
  5
20B
330
202
100
AcDbEntity
  8
SLD-0
 62
     0
100
AcDbLine
 10
0.0
 20
-2.0
 30
0.0
 11
0.0
 21
-3.5
 31
0.0
  0
LINE
  5
20C
330
202
100
AcDbEntity
  8
SLD-0
 62
     0
100
AcDbLine
 10
2.0
 20
0.0
 30
0.0
 11
3.5
 21
0.0
 31
0.0
  0
ENDBLK
  5
204
330
202
100
AcDbEntity
  8
0
100
AcDbBlockEnd
  0
BLOCK
  5
20F
330
20E
100
AcDbEntity
  8
0
100
AcDbBlockBegin
  2
SW_CENTERMARKSYMBOL_9
 70
     0
 10
0.0
 20
0.0
 30
0.0
  3
SW_CENTERMARKSYMBOL_9
  1

  0
LINE
  5
211
330
20E
100
AcDbEntity
  8
SLD-0
 62
     0
100
AcDbLine
 10
0.0
 20
0.0
 30
0.0
 11
0.0
 21
1.0
 31
0.0
  0
LINE
  5
212
330
20E
100
AcDbEntity
  8
SLD-0
 62
     0
100
AcDbLine
 10
0.0
 20
0.0
 30
0.0
 11
-1.0
 21
0.0
 31
0.0
  0
LINE
  5
213
330
20E
100
AcDbEntity
  8
SLD-0
 62
     0
100
AcDbLine
 10
0.0
 20
0.0
 30
0.0
 11
0.0
 21
-1.0
 31
0.0
  0
LINE
  5
214
330
20E
100
AcDbEntity
  8
SLD-0
 62
     0
100
AcDbLine
 10
0.0
 20
0.0
 30
0.0
 11
1.0
 21
0.0
 31
0.0
  0
LINE
  5
215
330
20E
100
AcDbEntity
  8
SLD-0
 62
     0
100
AcDbLine
 10
0.0
 20
2.0
 30
0.0
 11
0.0
 21
6.5
 31
0.0
  0
LINE
  5
216
330
20E
100
AcDbEntity
  8
SLD-0
 62
     0
100
AcDbLine
 10
-2.0
 20
0.0
 30
0.0
 11
-6.5
 21
0.0
 31
0.0
  0
LINE
  5
217
330
20E
100
AcDbEntity
  8
SLD-0
 62
     0
100
AcDbLine
 10
0.0
 20
-2.0
 30
0.0
 11
0.0
 21
-6.5
 31
0.0
  0
LINE
  5
218
330
20E
100
AcDbEntity
  8
SLD-0
 62
     0
100
AcDbLine
 10
2.0
 20
0.0
 30
0.0
 11
6.5
 21
0.0
 31
0.0
  0
ENDBLK
  5
210
330
20E
100
AcDbEntity
  8
0
100
AcDbBlockEnd
  0
BLOCK
  5
21B
330
21A
100
AcDbEntity
  8
0
100
AcDbBlockBegin
  2
SW_CENTERMARKSYMBOL_10
 70
     0
 10
0.0
 20
0.0
 30
0.0
  3
SW_CENTERMARKSYMBOL_10
  1

  0
LINE
  5
21D
330
21A
100
AcDbEntity
  8
SLD-0
 62
     0
100
AcDbLine
 10
0.0
 20
0.0
 30
0.0
 11
0.0
 21
1.0
 31
0.0
  0
LINE
  5
21E
330
21A
100
AcDbEntity
  8
SLD-0
 62
     0
100
AcDbLine
 10
0.0
 20
0.0
 30
0.0
 11
-1.0
 21
0.0
 31
0.0
  0
LINE
  5
21F
330
21A
100
AcDbEntity
  8
SLD-0
 62
     0
100
AcDbLine
 10
0.0
 20
0.0
 30
0.0
 11
0.0
 21
-1.0
 31
0.0
  0
LINE
  5
220
330
21A
100
AcDbEntity
  8
SLD-0
 62
     0
100
AcDbLine
 10
0.0
 20
0.0
 30
0.0
 11
1.0
 21
0.0
 31
0.0
  0
LINE
  5
221
330
21A
100
AcDbEntity
  8
SLD-0
 62
     0
100
AcDbLine
 10
0.0
 20
2.0
 30
0.0
 11
0.0
 21
3.5
 31
0.0
  0
LINE
  5
222
330
21A
100
AcDbEntity
  8
SLD-0
 62
     0
100
AcDbLine
 10
-2.0
 20
0.0
 30
0.0
 11
-3.5
 21
0.0
 31
0.0
  0
LINE
  5
223
330
21A
100
AcDbEntity
  8
SLD-0
 62
     0
100
AcDbLine
 10
0.0
 20
-2.0
 30
0.0
 11
0.0
 21
-3.5
 31
0.0
  0
LINE
  5
224
330
21A
100
AcDbEntity
  8
SLD-0
 62
     0
100
AcDbLine
 10
2.0
 20
0.0
 30
0.0
 11
3.5
 21
0.0
 31
0.0
  0
ENDBLK
  5
21C
330
21A
100
AcDbEntity
  8
0
100
AcDbBlockEnd
  0
BLOCK
  5
227
330
226
100
AcDbEntity
  8
0
100
AcDbBlockBegin
  2
SW_CENTERMARKSYMBOL_11
 70
     0
 10
0.0
 20
0.0
 30
0.0
  3
SW_CENTERMARKSYMBOL_11
  1

  0
LINE
  5
229
330
226
100
AcDbEntity
  8
SLD-0
 62
     0
100
AcDbLine
 10
0.0
 20
0.0
 30
0.0
 11
0.0
 21
1.0
 31
0.0
  0
LINE
  5
22A
330
226
100
AcDbEntity
  8
SLD-0
 62
     0
100
AcDbLine
 10
0.0
 20
0.0
 30
0.0
 11
-1.0
 21
0.0
 31
0.0
  0
LINE
  5
22B
330
226
100
AcDbEntity
  8
SLD-0
 62
     0
100
AcDbLine
 10
0.0
 20
0.0
 30
0.0
 11
0.0
 21
-1.0
 31
0.0
  0
LINE
  5
22C
330
226
100
AcDbEntity
  8
SLD-0
 62
     0
100
AcDbLine
 10
0.0
 20
0.0
 30
0.0
 11
1.0
 21
0.0
 31
0.0
  0
LINE
  5
22D
330
226
100
AcDbEntity
  8
SLD-0
 62
     0
100
AcDbLine
 10
0.0
 20
2.0
 30
0.0
 11
0.0
 21
2.65
 31
0.0
  0
LINE
  5
22E
330
226
100
AcDbEntity
  8
SLD-0
 62
     0
100
AcDbLine
 10
-2.0
 20
0.0
 30
0.0
 11
-2.65
 21
0.0
 31
0.0
  0
LINE
  5
22F
330
226
100
AcDbEntity
  8
SLD-0
 62
     0
100
AcDbLine
 10
0.0
 20
-2.0
 30
0.0
 11
0.0
 21
-2.65
 31
0.0
  0
LINE
  5
230
330
226
100
AcDbEntity
  8
SLD-0
 62
     0
100
AcDbLine
 10
2.0
 20
0.0
 30
0.0
 11
2.65
 21
0.0
 31
0.0
  0
ENDBLK
  5
228
330
226
100
AcDbEntity
  8
0
100
AcDbBlockEnd
  0
BLOCK
  5
233
330
232
100
AcDbEntity
  8
0
100
AcDbBlockBegin
  2
SW_CENTERMARKSYMBOL_12
 70
     0
 10
0.0
 20
0.0
 30
0.0
  3
SW_CENTERMARKSYMBOL_12
  1

  0
LINE
  5
235
330
232
100
AcDbEntity
  8
SLD-0
 62
     0
100
AcDbLine
 10
0.0
 20
0.0
 30
0.0
 11
0.0
 21
1.0
 31
0.0
  0
LINE
  5
236
330
232
100
AcDbEntity
  8
SLD-0
 62
     0
100
AcDbLine
 10
0.0
 20
0.0
 30
0.0
 11
-1.0
 21
0.0
 31
0.0
  0
LINE
  5
237
330
232
100
AcDbEntity
  8
SLD-0
 62
     0
100
AcDbLine
 10
0.0
 20
0.0
 30
0.0
 11
0.0
 21
-1.0
 31
0.0
  0
LINE
  5
238
330
232
100
AcDbEntity
  8
SLD-0
 62
     0
100
AcDbLine
 10
0.0
 20
0.0
 30
0.0
 11
1.0
 21
0.0
 31
0.0
  0
LINE
  5
239
330
232
100
AcDbEntity
  8
SLD-0
 62
     0
100
AcDbLine
 10
0.0
 20
2.0
 30
0.0
 11
0.0
 21
6.5
 31
0.0
  0
LINE
  5
23A
330
232
100
AcDbEntity
  8
SLD-0
 62
     0
100
AcDbLine
 10
-2.0
 20
0.0
 30
0.0
 11
-6.5
 21
0.0
 31
0.0
  0
LINE
  5
23B
330
232
100
AcDbEntity
  8
SLD-0
 62
     0
100
AcDbLine
 10
0.0
 20
-2.0
 30
0.0
 11
0.0
 21
-6.5
 31
0.0
  0
LINE
  5
23C
330
232
100
AcDbEntity
  8
SLD-0
 62
     0
100
AcDbLine
 10
2.0
 20
0.0
 30
0.0
 11
6.5
 21
0.0
 31
0.0
  0
ENDBLK
  5
234
330
232
100
AcDbEntity
  8
0
100
AcDbBlockEnd
  0
BLOCK
  5
23F
330
23E
100
AcDbEntity
  8
0
100
AcDbBlockBegin
  2
SW_CENTERMARKSYMBOL_13
 70
     0
 10
0.0
 20
0.0
 30
0.0
  3
SW_CENTERMARKSYMBOL_13
  1

  0
LINE
  5
241
330
23E
100
AcDbEntity
  8
SLD-0
 62
     0
100
AcDbLine
 10
0.0
 20
0.0
 30
0.0
 11
0.0
 21
1.0
 31
0.0
  0
LINE
  5
242
330
23E
100
AcDbEntity
  8
SLD-0
 62
     0
100
AcDbLine
 10
0.0
 20
0.0
 30
0.0
 11
-1.0
 21
0.0
 31
0.0
  0
LINE
  5
243
330
23E
100
AcDbEntity
  8
SLD-0
 62
     0
100
AcDbLine
 10
0.0
 20
0.0
 30
0.0
 11
0.0
 21
-1.0
 31
0.0
  0
LINE
  5
244
330
23E
100
AcDbEntity
  8
SLD-0
 62
     0
100
AcDbLine
 10
0.0
 20
0.0
 30
0.0
 11
1.0
 21
0.0
 31
0.0
  0
LINE
  5
245
330
23E
100
AcDbEntity
  8
SLD-0
 62
     0
100
AcDbLine
 10
0.0
 20
2.0
 30
0.0
 11
0.0
 21
2.65
 31
0.0
  0
LINE
  5
246
330
23E
100
AcDbEntity
  8
SLD-0
 62
     0
100
AcDbLine
 10
-2.0
 20
0.0
 30
0.0
 11
-2.65
 21
0.0
 31
0.0
  0
LINE
  5
247
330
23E
100
AcDbEntity
  8
SLD-0
 62
     0
100
AcDbLine
 10
0.0
 20
-2.0
 30
0.0
 11
0.0
 21
-2.65
 31
0.0
  0
LINE
  5
248
330
23E
100
AcDbEntity
  8
SLD-0
 62
     0
100
AcDbLine
 10
2.0
 20
0.0
 30
0.0
 11
2.65
 21
0.0
 31
0.0
  0
ENDBLK
  5
240
330
23E
100
AcDbEntity
  8
0
100
AcDbBlockEnd
  0
BLOCK
  5
24B
330
24A
100
AcDbEntity
  8
0
100
AcDbBlockBegin
  2
SW_CENTERMARKSYMBOL_14
 70
     0
 10
0.0
 20
0.0
 30
0.0
  3
SW_CENTERMARKSYMBOL_14
  1

  0
LINE
  5
24D
330
24A
100
AcDbEntity
  8
SLD-0
 62
     0
100
AcDbLine
 10
0.0
 20
0.0
 30
0.0
 11
0.0
 21
1.0
 31
0.0
  0
LINE
  5
24E
330
24A
100
AcDbEntity
  8
SLD-0
 62
     0
100
AcDbLine
 10
0.0
 20
0.0
 30
0.0
 11
-1.0
 21
0.0
 31
0.0
  0
LINE
  5
24F
330
24A
100
AcDbEntity
  8
SLD-0
 62
     0
100
AcDbLine
 10
0.0
 20
0.0
 30
0.0
 11
0.0
 21
-1.0
 31
0.0
  0
LINE
  5
250
330
24A
100
AcDbEntity
  8
SLD-0
 62
     0
100
AcDbLine
 10
0.0
 20
0.0
 30
0.0
 11
1.0
 21
0.0
 31
0.0
  0
LINE
  5
251
330
24A
100
AcDbEntity
  8
SLD-0
 62
     0
100
AcDbLine
 10
0.0
 20
2.0
 30
0.0
 11
0.0
 21
3.5
 31
0.0
  0
LINE
  5
252
330
24A
100
AcDbEntity
  8
SLD-0
 62
     0
100
AcDbLine
 10
-2.0
 20
0.0
 30
0.0
 11
-3.5
 21
0.0
 31
0.0
  0
LINE
  5
253
330
24A
100
AcDbEntity
  8
SLD-0
 62
     0
100
AcDbLine
 10
0.0
 20
-2.0
 30
0.0
 11
0.0
 21
-3.5
 31
0.0
  0
LINE
  5
254
330
24A
100
AcDbEntity
  8
SLD-0
 62
     0
100
AcDbLine
 10
2.0
 20
0.0
 30
0.0
 11
3.5
 21
0.0
 31
0.0
  0
ENDBLK
  5
24C
330
24A
100
AcDbEntity
  8
0
100
AcDbBlockEnd
  0
BLOCK
  5
257
330
256
100
AcDbEntity
  8
0
100
AcDbBlockBegin
  2
SW_CENTERMARKSYMBOL_15
 70
     0
 10
0.0
 20
0.0
 30
0.0
  3
SW_CENTERMARKSYMBOL_15
  1

  0
LINE
  5
259
330
256
100
AcDbEntity
  8
SLD-0
 62
     0
100
AcDbLine
 10
0.0
 20
0.0
 30
0.0
 11
0.0
 21
1.0
 31
0.0
  0
LINE
  5
25A
330
256
100
AcDbEntity
  8
SLD-0
 62
     0
100
AcDbLine
 10
0.0
 20
0.0
 30
0.0
 11
-1.0
 21
0.0
 31
0.0
  0
LINE
  5
25B
330
256
100
AcDbEntity
  8
SLD-0
 62
     0
100
AcDbLine
 10
0.0
 20
0.0
 30
0.0
 11
0.0
 21
-1.0
 31
0.0
  0
LINE
  5
25C
330
256
100
AcDbEntity
  8
SLD-0
 62
     0
100
AcDbLine
 10
0.0
 20
0.0
 30
0.0
 11
1.0
 21
0.0
 31
0.0
  0
LINE
  5
25D
330
256
100
AcDbEntity
  8
SLD-0
 62
     0
100
AcDbLine
 10
0.0
 20
2.0
 30
0.0
 11
0.0
 21
3.5
 31
0.0
  0
LINE
  5
25E
330
256
100
AcDbEntity
  8
SLD-0
 62
     0
100
AcDbLine
 10
-2.0
 20
0.0
 30
0.0
 11
-3.5
 21
0.0
 31
0.0
  0
LINE
  5
25F
330
256
100
AcDbEntity
  8
SLD-0
 62
     0
100
AcDbLine
 10
0.0
 20
-2.0
 30
0.0
 11
0.0
 21
-3.5
 31
0.0
  0
LINE
  5
260
330
256
100
AcDbEntity
  8
SLD-0
 62
     0
100
AcDbLine
 10
2.0
 20
0.0
 30
0.0
 11
3.5
 21
0.0
 31
0.0
  0
ENDBLK
  5
258
330
256
100
AcDbEntity
  8
0
100
AcDbBlockEnd
  0
BLOCK
  5
263
330
262
100
AcDbEntity
  8
0
100
AcDbBlockBegin
  2
SW_CENTERMARKSYMBOL_16
 70
     0
 10
0.0
 20
0.0
 30
0.0
  3
SW_CENTERMARKSYMBOL_16
  1

  0
LINE
  5
265
330
262
100
AcDbEntity
  8
SLD-0
 62
     0
100
AcDbLine
 10
0.0
 20
0.0
 30
0.0
 11
0.0
 21
1.0
 31
0.0
  0
LINE
  5
266
330
262
100
AcDbEntity
  8
SLD-0
 62
     0
100
AcDbLine
 10
0.0
 20
0.0
 30
0.0
 11
-1.0
 21
0.0
 31
0.0
  0
LINE
  5
267
330
262
100
AcDbEntity
  8
SLD-0
 62
     0
100
AcDbLine
 10
0.0
 20
0.0
 30
0.0
 11
0.0
 21
-1.0
 31
0.0
  0
LINE
  5
268
330
262
100
AcDbEntity
  8
SLD-0
 62
     0
100
AcDbLine
 10
0.0
 20
0.0
 30
0.0
 11
1.0
 21
0.0
 31
0.0
  0
LINE
  5
269
330
262
100
AcDbEntity
  8
SLD-0
 62
     0
100
AcDbLine
 10
0.0
 20
2.0
 30
0.0
 11
0.0
 21
3.5
 31
0.0
  0
LINE
  5
26A
330
262
100
AcDbEntity
  8
SLD-0
 62
     0
100
AcDbLine
 10
-2.0
 20
0.0
 30
0.0
 11
-3.5
 21
0.0
 31
0.0
  0
LINE
  5
26B
330
262
100
AcDbEntity
  8
SLD-0
 62
     0
100
AcDbLine
 10
0.0
 20
-2.0
 30
0.0
 11
0.0
 21
-3.5
 31
0.0
  0
LINE
  5
26C
330
262
100
AcDbEntity
  8
SLD-0
 62
     0
100
AcDbLine
 10
2.0
 20
0.0
 30
0.0
 11
3.5
 21
0.0
 31
0.0
  0
ENDBLK
  5
264
330
262
100
AcDbEntity
  8
0
100
AcDbBlockEnd
  0
BLOCK
  5
2C0
330
2BF
100
AcDbEntity
  8
0
100
AcDbBlockBegin
  2
_D_13
 70
     0
 10
0.0
 20
0.0
 30
0.0
  3
_D_13
  1

  0
SOLID
  5
2C2
330
2BF
100
AcDbEntity
  8
SLD-0
 62
     7
100
AcDbTrace
 10
135.5148892115
 20
53.1995336103
 30
0.0
 11
135.2648892115
 21
51.1995336103
 31
0.0
 12
135.7648892115
 22
51.1995336103
 32
0.0
 13
135.7648892115
 23
51.1995336103
 33
0.0
  0
SOLID
  5
2C3
330
2BF
100
AcDbEntity
  8
SLD-0
 62
     7
100
AcDbTrace
 10
135.5148892115
 20
45.1995336103
 30
0.0
 11
135.7648892115
 21
47.1995336103
 31
0.0
 12
135.2648892115
 22
47.1995336103
 32
0.0
 13
135.2648892115
 23
47.1995336103
 33
0.0
  0
LINE
  5
2C4
330
2BF
100
AcDbEntity
  8
SLD-0
 62
     7
100
AcDbLine
 10
125.4132957305
 20
53.1995336103
 30
0.0
 11
136.5148892115
 21
53.1995336103
 31
0.0
  0
LINE
  5
2C5
330
2BF
100
AcDbEntity
  8
SLD-0
 62
     7
100
AcDbLine
 10
125.4132957305
 20
45.1995336103
 30
0.0
 11
136.5148892115
 21
45.1995336103
 31
0.0
  0
LINE
  5
2C6
330
2BF
100
AcDbEntity
  8
SLD-0
 62
     7
100
AcDbLine
 10
135.5148892115
 20
53.1995336103
 30
0.0
 11
135.5148892115
 21
45.1995336103
 31
0.0
  0
MTEXT
  5
2C7
330
2BF
100
AcDbEntity
  8
SLD-0
 62
     7
100
AcDbMText
 10
132.2922200367
 20
48.2446724979
 30
0.0
 40
2.5
 41
0.0
 71
     1
 72
     1
  1
8
  7
SLDTEXTSTYLE0
 11
-7.044195017643634E-15
 21
1.0
 31
0.0
 73
     1
 44
1.0
  0
ENDBLK
  5
2C1
330
2BF
100
AcDbEntity
  8
0
100
AcDbBlockEnd
  0
ENDSEC
  0
SECTION
  2
ENTITIES
  0
HATCH
  5
75
330
1F
100
AcDbEntity
  8
DIM
 62
     7
100
AcDbHatch
 10
0.0
 20
0.0
 30
0.0
210
0.0
220
0.0
230
1.0
  2
SOLID
 70
     1
 71
     0
 91
        1
 92
        0
 93
       10
 72
     2
 10
192.1959864308272
 20
35.94109362601509
 40
3.045751395731247
 50
249.211220914341
 51
308.9221353953366
 73
     1
 72
     1
 10
194.1095213920618
 20
33.57149755986121
 11
195.0743410532789
 21
32.72421077621886
 72
     1
 10
195.0743410532789
 20
32.72421077621886
 11
191.8642010801231
 21
29.60717106345646
 72
     1
 10
191.8642010801231
 20
29.60717106345646
 11
190.9234006246292
 21
30.41716813356646
 72
     1
 10
190.9234006246292
 20
30.41716813356646
 11
191.5544525450443
 21
31.03306852403749
 72
     1
 10
191.5544525450443
 20
31.03306852403749
 11
187.5452502348487
 21
34.51767236431217
 72
     2
 10
188.5601916643894
 20
35.66523274007268
 40
1.531992467805808
 50
131.4906380929588
 51
229.7089352075141
 73
     0
 72
     1
 10
187.5694968168739
 20
36.83378938847272
 11
188.8761250717556
 21
38.09537646498024
 72
     1
 10
188.8761250717556
 20
38.09537646498024
 11
189.891318919158
 21
37.19984456416245
 72
     2
 10
191.8645892225307
 20
35.55245187676766
 40
2.570544369711283
 50
140.1430462780655
 51
253.0452525074004
 73
     1
 97
        0
 75
     0
 76
     1
 98
        1
 10
0.0
 20
0.0
  0
HATCH
  5
76
330
1F
100
AcDbEntity
  8
DIM
 62
     1
100
AcDbHatch
 10
0.0
 20
0.0
 30
0.0
210
0.0
220
0.0
230
1.0
  2
SOLID
 70
     1
 71
     0
 91
        1
 92
        0
 93
       10
 72
     2
 10
192.3291518697911
 20
35.18689398731305
 40
3.18163670452787
 50
234.1674444878508
 51
314.440707458399
 73
     0
 72
     2
 10
192.6468081605156
 20
35.72771579279122
 40
2.57756748834625
 50
317.818499299578
 51
398.0564711573081
 73
     0
 72
     1
 10
194.6763940035631
 20
34.13880564344958
 11
195.6618428965459
 21
33.28010870356009
 72
     1
 10
195.6618428965459
 20
33.28010870356009
 11
196.9035242113396
 21
34.4845416459673
 72
     2
 10
196.0101318856775
 20
35.71248837778824
 40
1.518552937418266
 50
306.0377529468126
 51
403.4396461533867
 73
     1
 72
     1
 10
197.1127517503498
 20
36.75663034982637
 11
192.9859958920065
 21
40.34580661846033
 72
     1
 10
192.9859958920065
 20
40.34580661846033
 11
193.6102471939338
 21
40.95486504929765
 72
     1
 10
193.6102471939338
 20
40.95486504929765
 11
192.6797406837497
 21
41.78505726914219
 72
     1
 10
192.6797406837497
 20
41.78505726914219
 11
189.4441552353399
 21
38.65813702252808
 72
     1
 10
189.4441552353399
 20
38.65813702252808
 11
190.4665631126884
 21
37.76634649540728
 97
        0
 75
     0
 76
     1
 98
        1
 10
0.0
 20
0.0
  0
LINE
  5
77
330
1F
100
AcDbEntity
  8
0
  6
Continuous
 62
     7
370
     0
100
AcDbLine
 10
167.8593775185
 20
17.7745192513
 30
0.0
 11
168.8593775185
 21
17.7745192513
 31
0.0
  0
LINE
  5
78
330
1F
100
AcDbEntity
  8
0
  6
Continuous
 62
     7
370
     0
100
AcDbLine
 10
164.8593775185
 20
17.7745192513
 30
0.0
 11
167.3593775185
 21
17.7745192513
 31
0.0
  0
LINE
  5
79
330
1F
100
AcDbEntity
  8
0
  6
Continuous
 62
     7
370
     0
100
AcDbLine
 10
181.3593775185
 20
15.2745192513
 30
0.0
 11
181.3593775185
 21
20.2745192513
 31
0.0
  0
LINE
  5
7A
330
1F
100
AcDbEntity
  8
0
  6
Continuous
 62
     7
370
     0
100
AcDbLine
 10
174.3593775185
 20
16.2745192513
 30
0.0
 11
181.3593775185
 21
15.2745192513
 31
0.0
  0
LINE
  5
7B
330
1F
100
AcDbEntity
  8
0
  6
Continuous
 62
     7
370
     0
100
AcDbLine
 10
168.3593775185
 20
16.7745192513
 30
0.0
 11
168.3593775185
 21
14.2745192513
 31
0.0
  0
LINE
  5
7C
330
1F
100
AcDbEntity
  8
0
  6
Continuous
 62
     7
370
     0
100
AcDbLine
 10
181.3593775185
 20
20.2745192513
 30
0.0
 11
174.3593775185
 21
19.2745192513
 31
0.0
  0
LINE
  5
7D
330
1F
100
AcDbEntity
  8
0
  6
Continuous
 62
     7
370
     0
100
AcDbLine
 10
173.3593775185
 20
17.7745192513
 30
0.0
 11
182.3593775185
 21
17.7745192513
 31
0.0
  0
LINE
  5
7E
330
1F
100
AcDbEntity
  8
0
  6
Continuous
 62
     7
370
     0
100
AcDbLine
 10
168.3593775185
 20
18.2745192513
 30
0.0
 11
168.3593775185
 21
17.2745192513
 31
0.0
  0
LINE
  5
7F
330
1F
100
AcDbEntity
  8
0
  6
Continuous
 62
     7
370
     0
100
AcDbLine
 10
169.3593775185
 20
17.7745192513
 30
0.0
 11
171.8593775185
 21
17.7745192513
 31
0.0
  0
LINE
  5
80
330
1F
100
AcDbEntity
  8
0
  6
Continuous
 62
     7
370
     0
100
AcDbLine
 10
168.3593775185
 20
21.2745192513
 30
0.0
 11
168.3593775185
 21
18.7745192513
 31
0.0
  0
LINE
  5
81
330
1F
100
AcDbEntity
  8
0
  6
Continuous
 62
     7
370
     0
100
AcDbLine
 10
174.3593775185
 20
19.2745192513
 30
0.0
 11
174.3593775185
 21
16.2745192513
 31
0.0
  0
LINE
  5
82
330
1F
100
AcDbEntity
  8
0
370
     0
100
AcDbLine
 10
195.0743410533
 20
32.7242107762
 30
0.0
 11
191.8642010801
 21
29.6071710635
 31
0.0
  0
LINE
  5
83
330
1F
100
AcDbEntity
  8
0
370
     0
100
AcDbLine
 10
191.8642010801
 20
29.6071710635
 30
0.0
 11
190.9234006246
 21
30.4171681336
 31
0.0
  0
LINE
  5
84
330
1F
100
AcDbEntity
  8
0
370
     0
100
AcDbLine
 10
190.9234006246
 20
30.4171681336
 30
0.0
 11
191.554452545
 21
31.033068524
 31
0.0
  0
LINE
  5
85
330
1F
100
AcDbEntity
  8
0
370
     0
100
AcDbLine
 10
187.5452502348
 20
34.5176723643
 30
0.0
 11
191.554452545
 21
31.033068524
 31
0.0
  0
LINE
  5
86
330
1F
100
AcDbEntity
  8
0
370
     0
100
AcDbLine
 10
188.8761250718
 20
38.095376465
 30
0.0
 11
187.5694968169
 21
36.8337893885
 31
0.0
  0
LINE
  5
87
330
1F
100
AcDbEntity
  8
0
370
     0
100
AcDbLine
 10
188.8761250718
 20
38.095376465
 30
0.0
 11
189.8913189192
 21
37.1998445642
 31
0.0
  0
LINE
  5
88
330
1F
100
AcDbEntity
  8
0
370
     0
100
AcDbLine
 10
194.1095213921
 20
33.5714975599
 30
0.0
 11
195.0743410533
 21
32.7242107762
 31
0.0
  0
LINE
  5
89
330
1F
100
AcDbEntity
  8
0
 62
     1
370
     0
100
AcDbLine
 10
190.4665631127
 20
37.7663464954
 30
0.0
 11
189.4441552353
 21
38.6581370225
 31
0.0
  0
LINE
  5
8A
330
1F
100
AcDbEntity
  8
0
 62
     1
370
     0
100
AcDbLine
 10
189.4441552353
 20
38.6581370225
 30
0.0
 11
192.6797406837
 21
41.7850572691
 31
0.0
  0
LINE
  5
8B
330
1F
100
AcDbEntity
  8
0
 62
     1
370
     0
100
AcDbLine
 10
192.6797406837
 20
41.7850572691
 30
0.0
 11
193.6102471939
 21
40.9548650493
 31
0.0
  0
LINE
  5
8C
330
1F
100
AcDbEntity
  8
0
 62
     1
370
     0
100
AcDbLine
 10
193.6102471939
 20
40.9548650493
 30
0.0
 11
192.985995892
 21
40.3458066185
 31
0.0
  0
LINE
  5
8D
330
1F
100
AcDbEntity
  8
0
 62
     1
370
     0
100
AcDbLine
 10
192.985995892
 20
40.3458066185
 30
0.0
 11
197.1127517503
 21
36.7566303498
 31
0.0
  0
LINE
  5
8E
330
1F
100
AcDbEntity
  8
0
 62
     1
370
     0
100
AcDbLine
 10
194.6763940036
 20
34.1388056434
 30
0.0
 11
195.6618428965
 21
33.2801087036
 31
0.0
  0
LINE
  5
8F
330
1F
100
AcDbEntity
  8
0
 62
     1
370
     0
100
AcDbLine
 10
195.6618428965
 20
33.2801087036
 30
0.0
 11
196.9035242113
 21
34.484541646
 31
0.0
  0
LINE
  5
90
330
1F
100
AcDbEntity
  8
0
  6
Continuous
 62
     7
370
     0
100
AcDbLine
 10
185.6907965209
 20
13.1152464079
 30
0.0
 11
285.6907965209
 21
13.1152464079
 31
0.0
  0
LINE
  5
91
330
1F
100
AcDbEntity
  8
0
  6
Continuous
 62
     7
370
     0
100
AcDbLine
 10
185.6907965209
 20
18.1152464079
 30
0.0
 11
235.6907965209
 21
18.1152464079
 31
0.0
  0
LINE
  5
92
330
1F
100
AcDbEntity
  8
0
  6
Continuous
 62
     7
370
     0
100
AcDbLine
 10
185.6907965209
 20
23.1152464079
 30
0.0
 11
235.6907965209
 21
23.1152464079
 31
0.0
  0
LINE
  5
93
330
1F
100
AcDbEntity
  8
0
  6
Continuous
 62
     7
370
     0
100
AcDbLine
 10
185.6907965209
 20
28.1152464079
 30
0.0
 11
285.6907965209
 21
28.1152464079
 31
0.0
  0
LINE
  5
94
330
1F
100
AcDbEntity
  8
0
  6
Continuous
 62
     7
370
     0
100
AcDbLine
 10
235.6907965209
 20
33.1152464079
 30
0.0
 11
285.6907965209
 21
33.1152464079
 31
0.0
  0
LINE
  5
95
330
1F
100
AcDbEntity
  8
0
  6
Continuous
 62
     7
370
    15
100
AcDbLine
 10
235.6907965209
 20
18.1152464079
 30
0.0
 11
285.6907965209
 21
18.1152464079
 31
0.0
  0
LINE
  5
96
330
1F
100
AcDbEntity
  8
0
  6
Continuous
 62
     7
370
     0
100
AcDbLine
 10
185.6907965209
 20
43.1152464079
 30
0.0
 11
285.6907965209
 21
43.1152464079
 31
0.0
  0
LINE
  5
97
330
1F
100
AcDbEntity
  8
0
  6
Continuous
 62
     7
370
     0
100
AcDbLine
 10
251.237217675
 20
8.1152464079
 30
0.0
 11
251.237217675
 21
18.1152464079
 31
0.0
  0
LINE
  5
98
330
1F
100
AcDbEntity
  8
0
  6
Continuous
 62
     7
370
     0
100
AcDbLine
 10
235.6907965209
 20
8.1152464079
 30
0.0
 11
235.6907965209
 21
43.1152464079
 31
0.0
  0
LINE
  5
99
330
1F
100
AcDbEntity
  8
0
  6
Continuous
 62
     7
370
     0
100
AcDbLine
 10
251.237217675
 20
28.1152464079
 30
0.0
 11
251.237217675
 21
33.1152464079
 31
0.0
  0
LINE
  5
9A
330
1F
100
AcDbEntity
  8
0
  6
Continuous
 62
     7
370
     0
100
AcDbLine
 10
214.4164086353
 20
8.1152464079
 30
0.0
 11
214.4164086353
 21
28.1152464079
 31
0.0
  0
LINE
  5
9B
330
1F
100
AcDbEntity
  8
0
  6
Continuous
 62
     7
370
     0
100
AcDbLine
 10
199.7785887506
 20
8.1152464079
 30
0.0
 11
199.7785887506
 21
28.1152464079
 31
0.0
  0
LINE
  5
9C
330
1F
100
AcDbEntity
  8
0
  6
Continuous
 62
     7
370
     0
100
AcDbLine
 10
185.6907965209
 20
8.1152464079
 30
0.0
 11
185.6907965209
 21
43.1152464079
 31
0.0
  0
LINE
  5
9D
330
1F
100
AcDbEntity
  8
0
  6
Continuous
 62
     7
370
    15
100
AcDbLine
 10
8.6907965209
 20
104.7436369915
 30
0.0
 11
14.6907965209
 21
104.7436369915
 31
0.0
  0
LINE
  5
9E
330
1F
100
AcDbEntity
  8
0
  6
Continuous
 62
     7
370
    15
100
AcDbLine
 10
285.6907965209
 20
104.7436369915
 30
0.0
 11
279.6907965209
 21
104.7436369915
 31
0.0
  0
LINE
  5
9F
330
1F
100
AcDbEntity
  8
0
  6
Continuous
 62
     7
370
    15
100
AcDbLine
 10
147.1907965209
 20
8.1152464079
 30
0.0
 11
147.1907965209
 21
14.1152464079
 31
0.0
  0
LINE
  5
A0
330
1F
100
AcDbEntity
  8
0
  6
Continuous
 62
     7
370
    15
100
AcDbLine
 10
147.1907965209
 20
201.3720275751
 30
0.0
 11
147.1907965209
 21
195.3720275751
 31
0.0
  0
LINE
  5
A1
330
1F
100
AcDbEntity
  8
0
  6
Continuous
 62
     7
370
    15
100
AcDbLine
 10
43.3207965209
 20
201.3720275751
 30
0.0
 11
43.3207965209
 21
202.8720275751
 31
0.0
  0
LINE
  5
A2
330
1F
100
AcDbEntity
  8
0
  6
Continuous
 62
     7
370
    15
100
AcDbLine
 10
77.9507965209
 20
201.3720275751
 30
0.0
 11
77.9507965209
 21
202.8720275751
 31
0.0
  0
LINE
  5
A3
330
1F
100
AcDbEntity
  8
0
  6
Continuous
 62
     7
370
    15
100
AcDbLine
 10
112.5807965209
 20
201.3720275751
 30
0.0
 11
112.5807965209
 21
202.8720275751
 31
0.0
  0
LINE
  5
A4
330
1F
100
AcDbEntity
  8
0
  6
Continuous
 62
     7
370
    15
100
AcDbLine
 10
147.2107965209
 20
201.3720275751
 30
0.0
 11
147.2107965209
 21
202.8720275751
 31
0.0
  0
LINE
  5
A5
330
1F
100
AcDbEntity
  8
0
  6
Continuous
 62
     7
370
    15
100
AcDbLine
 10
181.8407965209
 20
201.3720275751
 30
0.0
 11
181.8407965209
 21
202.8720275751
 31
0.0
  0
LINE
  5
A6
330
1F
100
AcDbEntity
  8
0
  6
Continuous
 62
     7
370
    15
100
AcDbLine
 10
216.4707965209
 20
201.3720275751
 30
0.0
 11
216.4707965209
 21
202.8720275751
 31
0.0
  0
LINE
  5
A7
330
1F
100
AcDbEntity
  8
0
  6
Continuous
 62
     7
370
    15
100
AcDbLine
 10
251.1007965209
 20
201.3720275751
 30
0.0
 11
251.1007965209
 21
202.8720275751
 31
0.0
  0
LINE
  5
A8
330
1F
100
AcDbEntity
  8
0
  6
Continuous
 62
     7
370
    15
100
AcDbLine
 10
43.3157965209
 20
8.1152464079
 30
0.0
 11
43.3157965209
 21
6.6152464079
 31
0.0
  0
LINE
  5
A9
330
1F
100
AcDbEntity
  8
0
  6
Continuous
 62
     7
370
    15
100
AcDbLine
 10
77.9407965209
 20
8.1152464079
 30
0.0
 11
77.9407965209
 21
6.6152464079
 31
0.0
  0
LINE
  5
AA
330
1F
100
AcDbEntity
  8
0
  6
Continuous
 62
     7
370
    15
100
AcDbLine
 10
112.5657965209
 20
8.1152464079
 30
0.0
 11
112.5657965209
 21
6.6152464079
 31
0.0
  0
LINE
  5
AB
330
1F
100
AcDbEntity
  8
0
  6
Continuous
 62
     7
370
    15
100
AcDbLine
 10
147.1907965209
 20
8.1152464079
 30
0.0
 11
147.1907965209
 21
6.6152464079
 31
0.0
  0
LINE
  5
AC
330
1F
100
AcDbEntity
  8
0
  6
Continuous
 62
     7
370
    15
100
AcDbLine
 10
181.8157965209
 20
8.1152464079
 30
0.0
 11
181.8157965209
 21
6.6152464079
 31
0.0
  0
LINE
  5
AD
330
1F
100
AcDbEntity
  8
0
  6
Continuous
 62
     7
370
    15
100
AcDbLine
 10
216.4407965209
 20
8.1152464079
 30
0.0
 11
216.4407965209
 21
6.6152464079
 31
0.0
  0
LINE
  5
AE
330
1F
100
AcDbEntity
  8
0
  6
Continuous
 62
     7
370
     0
100
AcDbLine
 10
285.6907965209
 20
201.3720275751
 30
0.0
 11
8.6907965209
 21
201.3720275751
 31
0.0
  0
LINE
  5
AF
330
1F
100
AcDbEntity
  8
0
  6
Continuous
 62
     7
370
     0
100
AcDbLine
 10
285.6907965209
 20
8.1152464079
 30
0.0
 11
285.6907965209
 21
201.3720275751
 31
0.0
  0
LINE
  5
B0
330
1F
100
AcDbEntity
  8
0
  6
Continuous
 62
     7
370
     0
100
AcDbLine
 10
8.6907965209
 20
201.3720275751
 30
0.0
 11
8.6907965209
 21
8.1152464079
 31
0.0
  0
LINE
  5
B1
330
1F
100
AcDbEntity
  8
0
  6
Continuous
 62
     7
370
     0
100
AcDbLine
 10
8.6907965209
 20
8.1152464079
 30
0.0
 11
285.6907965209
 21
8.1152464079
 31
0.0
  0
LINE
  5
B2
330
1F
100
AcDbEntity
  8
0
  6
Continuous
 62
     7
370
    15
100
AcDbLine
 10
251.0657965209
 20
8.1152464079
 30
0.0
 11
251.0657965209
 21
6.6152464079
 31
0.0
  0
LINE
  5
B3
330
1F
100
AcDbEntity
  8
0
  6
Continuous
 62
     7
370
    15
100
AcDbLine
 10
8.6907965209
 20
40.3252464079
 30
0.0
 11
7.1907965209
 21
40.3252464079
 31
0.0
  0
LINE
  5
B4
330
1F
100
AcDbEntity
  8
0
  6
Continuous
 62
     7
370
    15
100
AcDbLine
 10
8.6907965209
 20
72.5352464079
 30
0.0
 11
7.1907965209
 21
72.5352464079
 31
0.0
  0
LINE
  5
B5
330
1F
100
AcDbEntity
  8
0
  6
Continuous
 62
     7
370
    15
100
AcDbLine
 10
8.6907965209
 20
104.7452464079
 30
0.0
 11
7.1907965209
 21
104.7452464079
 31
0.0
  0
LINE
  5
B6
330
1F
100
AcDbEntity
  8
0
  6
Continuous
 62
     7
370
    15
100
AcDbLine
 10
8.6907965209
 20
136.9552464079
 30
0.0
 11
7.1907965209
 21
136.9552464079
 31
0.0
  0
LINE
  5
B7
330
1F
100
AcDbEntity
  8
0
  6
Continuous
 62
     7
370
    15
100
AcDbLine
 10
8.6907965209
 20
169.1652464079
 30
0.0
 11
7.1907965209
 21
169.1652464079
 31
0.0
  0
LINE
  5
B8
330
1F
100
AcDbEntity
  8
0
  6
Continuous
 62
     7
370
    15
100
AcDbLine
 10
285.6907965209
 20
40.3252464079
 30
0.0
 11
287.1907965209
 21
40.3252464079
 31
0.0
  0
LINE
  5
B9
330
1F
100
AcDbEntity
  8
0
  6
Continuous
 62
     7
370
    15
100
AcDbLine
 10
285.6907965209
 20
72.5352464079
 30
0.0
 11
287.1907965209
 21
72.5352464079
 31
0.0
  0
LINE
  5
BA
330
1F
100
AcDbEntity
  8
0
  6
Continuous
 62
     7
370
    15
100
AcDbLine
 10
285.6907965209
 20
104.7452464079
 30
0.0
 11
287.1907965209
 21
104.7452464079
 31
0.0
  0
LINE
  5
BB
330
1F
100
AcDbEntity
  8
0
  6
Continuous
 62
     7
370
    15
100
AcDbLine
 10
285.6907965209
 20
136.9552464079
 30
0.0
 11
287.1907965209
 21
136.9552464079
 31
0.0
  0
LINE
  5
BC
330
1F
100
AcDbEntity
  8
0
  6
Continuous
 62
     7
370
    15
100
AcDbLine
 10
285.6907965209
 20
169.1652464079
 30
0.0
 11
287.1907965209
 21
169.1652464079
 31
0.0
  0
CIRCLE
  5
BD
330
1F
100
AcDbEntity
  8
0
  6
Continuous
 62
     7
370
     0
100
AcDbCircle
 10
168.3593775185
 20
17.7745192513
 30
0.0
 40
1.5
  0
CIRCLE
  5
BE
330
1F
100
AcDbEntity
  8
0
  6
Continuous
 62
     7
370
     0
100
AcDbCircle
 10
168.3593775185
 20
17.7745192513
 30
0.0
 40
2.5
  0
ARC
  5
BF
330
1F
100
AcDbEntity
  8
0
370
     0
100
AcDbCircle
 10
188.5601916644
 20
35.6652327401
 30
0.0
 40
1.531992467805807
100
AcDbArc
 50
130.2910647925
 51
228.509361907
  0
ARC
  5
C0
330
1F
100
AcDbEntity
  8
0
370
     0
100
AcDbCircle
 10
191.8645892225
 20
35.5524518768
 30
0.0
 40
2.570544369711287
100
AcDbArc
 50
140.1430462781
 51
253.0452525074
  0
ARC
  5
C1
330
1F
100
AcDbEntity
  8
0
370
     0
100
AcDbCircle
 10
192.1959864308
 20
35.941093626
 30
0.0
 40
3.045751395731247
100
AcDbArc
 50
249.2112209143
 51
308.9221353953
  0
ARC
  5
C2
330
1F
100
AcDbEntity
  8
0
 62
     1
370
     0
100
AcDbCircle
 10
196.0101318857
 20
35.7124883778
 30
0.0
 40
1.51855293741827
100
AcDbArc
 50
306.0377529468
 51
43.4396461534
  0
ARC
  5
C3
330
1F
100
AcDbEntity
  8
0
 62
     1
370
     0
100
AcDbCircle
 10
192.3291518698
 20
35.1868939873
 30
0.0
 40
3.18163670452787
100
AcDbArc
 50
45.5592925416
 51
125.8325555121
  0
ARC
  5
C4
330
1F
100
AcDbEntity
  8
0
 62
     1
370
     0
100
AcDbCircle
 10
192.6468081605
 20
35.7277157928
 30
0.0
 40
2.57756748834625
100
AcDbArc
 50
321.9435288427
 51
42.1815007004
  0
MTEXT
  5
C6
330
1F
100
AcDbEntity
  8
0
  6
Continuous
 62
     7
370
     0
100
AcDbMText
 10
165.5426850804
 20
13.2208440369
 30
0.0
 40
2.6458333333
 41
0.0
 71
     1
 72
     1
  1
UNIT:m/m
  7
SLDTEXTSTYLE0
 73
     1
 44
1.0
  0
INSERT
  5
CD
330
1F
100
AcDbEntity
  8
0
  6
Continuous
 62
     7
370
     0
100
AcDbBlockReference
  2
SW_NOTE_0
 10
12.2315076053
 20
193.8904304251
 30
0.0
  0
MTEXT
  5
CF
330
1F
100
AcDbEntity
  8
0
  6
Continuous
 62
     7
370
     0
100
AcDbMText
 10
198.7251893935
 20
40.4406774139
 30
0.0
 40
2.38125
 41
0.0
 71
     1
 72
     1
  1
Unice E-O Services Inc.
  7
SLDTEXTSTYLE1
 73
     1
 44
1.0
  0
MTEXT
  5
D0
330
1F
100
AcDbEntity
  8
0
  6
Continuous
 62
     7
370
     0
100
AcDbMText
 10
219.1181900715
 20
21.5867148511
 30
0.0
 40
1.8520833333
 41
0.0
 71
     1
 72
     1
  1
2016/03/08
  7
SLDTEXTSTYLE0
 73
     1
 44
1.0
  0
MTEXT
  5
D1
330
1F
100
AcDbEntity
  8
0
  6
Continuous
 62
     7
370
     0
100
AcDbMText
 10
252.6088982507
 20
16.87117774
 30
0.0
 40
2.5
 41
0.0
 71
     1
 72
     1
  1
1:1
  7
SLDTEXTSTYLE0
 73
     1
 44
1.0
  0
MTEXT
  5
D2
330
1F
100
AcDbEntity
  8
0
  6
Continuous
 62
     7
370
     0
100
AcDbMText
 10
252.3075599985
 20
32.1519195438
 30
0.0
 40
2.5
 41
0.0
 71
     1
 72
     1
  1
06UAP-1M
  7
SLDTEXTSTYLE0
 73
     1
 44
1.0
  0
MTEXT
  5
D3
330
1F
100
AcDbEntity
  8
0
  6
Continuous
 62
     7
370
     0
100
AcDbMText
 10
252.3075599985
 20
38.1082117879
 30
0.0
 40
2.5
 41
0.0
 71
     1
 72
     1
  1
06UAP-1M
  7
SLDTEXTSTYLE0
 73
     1
 44
1.0
  0
MTEXT
  5
D4
330
1F
100
AcDbEntity
  8
0
  6
Continuous
 62
     7
370
     0
100
AcDbMText
 10
236.3921866786
 20
16.5064795728
 30
0.0
 40
2.1166666667
 41
0.0
 71
     1
 72
     1
  1
SCALE:
  7
SLDTEXTSTYLE0
 73
     1
 44
1.0
  0
MTEXT
  5
D5
330
1F
100
AcDbEntity
  8
0
  6
Continuous
 62
     7
370
     0
100
AcDbMText
 10
186.3336086789
 20
21.5867148511
 30
0.0
 40
1.8520833333
 41
0.0
 71
     1
 72
     1
  1
DRAWN
  7
SLDTEXTSTYLE0
 73
     1
 44
1.0
  0
MTEXT
  5
D6
330
1F
100
AcDbEntity
  8
0
  6
Continuous
 62
     7
370
     0
100
AcDbMText
 10
203.2228367937
 20
26.683208308
 30
0.0
 40
1.8520833333
 41
0.0
 71
     1
 72
     1
  1
NAME
  7
SLDTEXTSTYLE0
 73
     1
 44
1.0
  0
MTEXT
  5
D7
330
1F
100
AcDbEntity
  8
0
  6
Continuous
 62
     7
370
     0
100
AcDbMText
 10
220.8710155758
 20
26.683208308
 30
0.0
 40
1.8520833333
 41
0.0
 71
     1
 72
     1
  1
DATE
  7
SLDTEXTSTYLE0
 73
     1
 44
1.0
  0
MTEXT
  5
D8
330
1F
100
AcDbEntity
  8
0
  6
Continuous
 62
     7
370
     0
100
AcDbMText
 10
236.2756316645
 20
31.7872213766
 30
0.0
 40
2.1166666667
 41
0.0
 71
     1
 72
     1
  1
DWG. NO.
  7
SLDTEXTSTYLE0
 73
     1
 44
1.0
  0
MTEXT
  5
D9
330
1F
100
AcDbEntity
  8
0
  6
Continuous
 62
     7
370
     0
100
AcDbMText
 10
236.3629907088
 20
41.8840658243
 30
0.0
 40
2.1166666667
 41
0.0
 71
     1
 72
     1
  1
TITLE:
  7
SLDTEXTSTYLE0
 73
     1
 44
1.0
  0
MTEXT
  5
DA
330
1F
100
AcDbEntity
  8
0
  6
Continuous
 62
     7
370
     0
100
AcDbMText
 10
203.0314209802
 20
16.2403789724
 30
0.0
 40
1.8520833333
 41
0.0
 71
     1
 72
     1
  1
Johnny
  7
SLDTEXTSTYLE0
 73
     1
 44
1.0
  0
MTEXT
  5
DB
330
1F
100
AcDbEntity
  8
0
  6
Continuous
 62
     7
370
     0
100
AcDbMText
 10
186.3336086789
 20
16.2403789724
 30
0.0
 40
1.8520833333
 41
0.0
 71
     1
 72
     1
  1
ENG APPR.
  7
SLDTEXTSTYLE0
 73
     1
 44
1.0
  0
MTEXT
  5
DC
330
1F
100
AcDbEntity
  8
0
  6
Continuous
 62
     7
370
     0
100
AcDbMText
 10
236.3921866786
 20
11.6853389288
 30
0.0
 40
2.1166666667
 41
0.0
 71
     1
 72
     1
  1
REV
  7
SLDTEXTSTYLE0
 73
     1
 44
1.0
  0
MTEXT
  5
DD
330
1F
100
AcDbEntity
  8
0
  6
Continuous
 62
     7
370
     0
100
AcDbMText
 10
236.3629907088
 20
26.9493089085
 30
0.0
 40
2.1166666667
 41
0.0
 71
     1
 72
     1
  1
MATERIAL:
  7
SLDTEXTSTYLE0
 73
     1
 44
1.0
  0
MTEXT
  5
DE
330
1F
100
AcDbEntity
  8
0
  6
Continuous
 62
     7
370
     0
100
AcDbMText
 10
252.6088982507
 20
22.2175136187
 30
0.0
 40
2.5
 41
0.0
 71
     1
 72
     1
  1
N/A
  7
SLDTEXTSTYLE0
 73
     1
 44
1.0
  0
MTEXT
  5
DF
330
1F
100
AcDbEntity
  8
0
  6
Continuous
 62
     7
370
     0
100
AcDbMText
 10
26.6029931533
 20
204.453351657
 30
0.0
 40
2.1166666667
 41
0.0
 71
     1
 72
     1
  1
1
  7
SLDTEXTSTYLE0
 73
     1
 44
1.0
  0
MTEXT
  5
E0
330
1F
100
AcDbEntity
  8
0
  6
Continuous
 62
     7
370
     0
100
AcDbMText
 10
60.7170995724
 20
204.453351657
 30
0.0
 40
2.1166666667
 41
0.0
 71
     1
 72
     1
  1
2
  7
SLDTEXTSTYLE0
 73
     1
 44
1.0
  0
MTEXT
  5
E1
330
1F
100
AcDbEntity
  8
0
  6
Continuous
 62
     7
370
     0
100
AcDbMText
 10
94.9009943906
 20
204.453351657
 30
0.0
 40
2.1166666667
 41
0.0
 71
     1
 72
     1
  1
3
  7
SLDTEXTSTYLE0
 73
     1
 44
1.0
  0
MTEXT
  5
E2
330
1F
100
AcDbEntity
  8
0
  6
Continuous
 62
     7
370
     0
100
AcDbMText
 10
129.2533362851
 20
204.2992584364
 30
0.0
 40
2.1166666667
 41
0.0
 71
     1
 72
     1
  1
4
  7
SLDTEXTSTYLE0
 73
     1
 44
1.0
  0
MTEXT
  5
E3
330
1F
100
AcDbEntity
  8
0
  6
Continuous
 62
     7
370
     0
100
AcDbMText
 10
163.702323464
 20
204.453351657
 30
0.0
 40
2.1166666667
 41
0.0
 71
     1
 72
     1
  1
5
  7
SLDTEXTSTYLE0
 73
     1
 44
1.0
  0
MTEXT
  5
E4
330
1F
100
AcDbEntity
  8
0
  6
Continuous
 62
     7
370
     0
100
AcDbMText
 10
198.6382170415
 20
204.453351657
 30
0.0
 40
2.1166666667
 41
0.0
 71
     1
 72
     1
  1
6
  7
SLDTEXTSTYLE0
 73
     1
 44
1.0
  0
MTEXT
  5
E5
330
1F
100
AcDbEntity
  8
0
  6
Continuous
 62
     7
370
     0
100
AcDbMText
 10
234.3630657407
 20
204.453351657
 30
0.0
 40
2.1166666667
 41
0.0
 71
     1
 72
     1
  1
7
  7
SLDTEXTSTYLE0
 73
     1
 44
1.0
  0
MTEXT
  5
E6
330
1F
100
AcDbEntity
  8
0
  6
Continuous
 62
     7
370
     0
100
AcDbMText
 10
266.2787820494
 20
204.453351657
 30
0.0
 40
2.1166666667
 41
0.0
 71
     1
 72
     1
  1
8
  7
SLDTEXTSTYLE0
 73
     1
 44
1.0
  0
MTEXT
  5
E7
330
1F
100
AcDbEntity
  8
0
  6
Continuous
 62
     7
370
     0
100
AcDbMText
 10
5.3568236555
 20
185.8113022879
 30
0.0
 40
2.1166666667
 41
0.0
 71
     1
 72
     1
  1
A
  7
SLDTEXTSTYLE0
 73
     1
 44
1.0
  0
MTEXT
  5
E8
330
1F
100
AcDbEntity
  8
0
  6
Continuous
 62
     7
370
     0
100
AcDbMText
 10
5.5910431831
 20
154.2993048238
 30
0.0
 40
2.1166666667
 41
0.0
 71
     1
 72
     1
  1
B
  7
SLDTEXTSTYLE0
 73
     1
 44
1.0
  0
MTEXT
  5
E9
330
1F
100
AcDbEntity
  8
0
  6
Continuous
 62
     7
370
     0
100
AcDbMText
 10
5.5910431831
 20
121.274351423
 30
0.0
 40
2.1166666667
 41
0.0
 71
     1
 72
     1
  1
C
  7
SLDTEXTSTYLE0
 73
     1
 44
1.0
  0
MTEXT
  5
EA
330
1F
100
AcDbEntity
  8
0
  6
Continuous
 62
     7
370
     0
100
AcDbMText
 10
5.5910431831
 20
88.7453220221
 30
0.0
 40
2.1166666667
 41
0.0
 71
     1
 72
     1
  1
D
  7
SLDTEXTSTYLE0
 73
     1
 44
1.0
  0
MTEXT
  5
EB
330
1F
100
AcDbEntity
  8
0
  6
Continuous
 62
     7
370
     0
100
AcDbMText
 10
5.5910431831
 20
57.5558849197
 30
0.0
 40
2.1166666667
 41
0.0
 71
     1
 72
     1
  1
E
  7
SLDTEXTSTYLE0
 73
     1
 44
1.0
  0
MTEXT
  5
EC
330
1F
100
AcDbEntity
  8
0
  6
Continuous
 62
     7
370
     0
100
AcDbMText
 10
5.5910431831
 20
25.5694212252
 30
0.0
 40
2.1166666667
 41
0.0
 71
     1
 72
     1
  1
F
  7
SLDTEXTSTYLE0
 73
     1
 44
1.0
  0
MTEXT
  5
ED
330
1F
100
AcDbEntity
  8
0
  6
Continuous
 62
     7
370
     0
100
AcDbMText
 10
266.1858616964
 20
6.6236223963
 30
0.0
 40
2.1166666667
 41
0.0
 71
     1
 72
     1
  1
8
  7
SLDTEXTSTYLE0
 73
     1
 44
1.0
  0
MTEXT
  5
EE
330
1F
100
AcDbEntity
  8
0
  6
Continuous
 62
     7
370
     0
100
AcDbMText
 10
234.2701453876
 20
6.6236223963
 30
0.0
 40
2.1166666667
 41
0.0
 71
     1
 72
     1
  1
7
  7
SLDTEXTSTYLE0
 73
     1
 44
1.0
  0
MTEXT
  5
EF
330
1F
100
AcDbEntity
  8
0
  6
Continuous
 62
     7
370
     0
100
AcDbMText
 10
198.5452966885
 20
6.6236223963
 30
0.0
 40
2.1166666667
 41
0.0
 71
     1
 72
     1
  1
6
  7
SLDTEXTSTYLE0
 73
     1
 44
1.0
  0
MTEXT
  5
F0
330
1F
100
AcDbEntity
  8
0
  6
Continuous
 62
     7
370
     0
100
AcDbMText
 10
163.6094031109
 20
6.6236223963
 30
0.0
 40
2.1166666667
 41
0.0
 71
     1
 72
     1
  1
5
  7
SLDTEXTSTYLE0
 73
     1
 44
1.0
  0
MTEXT
  5
F1
330
1F
100
AcDbEntity
  8
0
  6
Continuous
 62
     7
370
     0
100
AcDbMText
 10
129.1604159321
 20
6.4695291758
 30
0.0
 40
2.1166666667
 41
0.0
 71
     1
 72
     1
  1
4
  7
SLDTEXTSTYLE0
 73
     1
 44
1.0
  0
MTEXT
  5
F2
330
1F
100
AcDbEntity
  8
0
  6
Continuous
 62
     7
370
     0
100
AcDbMText
 10
94.8080740376
 20
6.6236223963
 30
0.0
 40
2.1166666667
 41
0.0
 71
     1
 72
     1
  1
3
  7
SLDTEXTSTYLE0
 73
     1
 44
1.0
  0
MTEXT
  5
F3
330
1F
100
AcDbEntity
  8
0
  6
Continuous
 62
     7
370
     0
100
AcDbMText
 10
60.6241792194
 20
6.6236223963
 30
0.0
 40
2.1166666667
 41
0.0
 71
     1
 72
     1
  1
2
  7
SLDTEXTSTYLE0
 73
     1
 44
1.0
  0
MTEXT
  5
F4
330
1F
100
AcDbEntity
  8
0
  6
Continuous
 62
     7
370
     0
100
AcDbMText
 10
26.5100728003
 20
6.6236223963
 30
0.0
 40
2.1166666667
 41
0.0
 71
     1
 72
     1
  1
1
  7
SLDTEXTSTYLE0
 73
     1
 44
1.0
  0
MTEXT
  5
F5
330
1F
100
AcDbEntity
  8
0
  6
Continuous
 62
     7
370
     0
100
AcDbMText
 10
287.1023846145
 20
186.6424909092
 30
0.0
 40
2.1166666667
 41
0.0
 71
     1
 72
     1
  1
A
  7
SLDTEXTSTYLE0
 73
     1
 44
1.0
  0
MTEXT
  5
F6
330
1F
100
AcDbEntity
  8
0
  6
Continuous
 62
     7
370
     0
100
AcDbMText
 10
287.3366041421
 20
155.1304934451
 30
0.0
 40
2.1166666667
 41
0.0
 71
     1
 72
     1
  1
B
  7
SLDTEXTSTYLE0
 73
     1
 44
1.0
  0
MTEXT
  5
F7
330
1F
100
AcDbEntity
  8
0
  6
Continuous
 62
     7
370
     0
100
AcDbMText
 10
287.3366041421
 20
122.1055400442
 30
0.0
 40
2.1166666667
 41
0.0
 71
     1
 72
     1
  1
C
  7
SLDTEXTSTYLE0
 73
     1
 44
1.0
  0
MTEXT
  5
F8
330
1F
100
AcDbEntity
  8
0
  6
Continuous
 62
     7
370
     0
100
AcDbMText
 10
287.3366041421
 20
89.5765106433
 30
0.0
 40
2.1166666667
 41
0.0
 71
     1
 72
     1
  1
D
  7
SLDTEXTSTYLE0
 73
     1
 44
1.0
  0
MTEXT
  5
F9
330
1F
100
AcDbEntity
  8
0
  6
Continuous
 62
     7
370
     0
100
AcDbMText
 10
287.3366041421
 20
58.3870735409
 30
0.0
 40
2.1166666667
 41
0.0
 71
     1
 72
     1
  1
E
  7
SLDTEXTSTYLE0
 73
     1
 44
1.0
  0
MTEXT
  5
FA
330
1F
100
AcDbEntity
  8
0
  6
Continuous
 62
     7
370
     0
100
AcDbMText
 10
287.3366041421
 20
26.4006098464
 30
0.0
 40
2.1166666667
 41
0.0
 71
     1
 72
     1
  1
F
  7
SLDTEXTSTYLE0
 73
     1
 44
1.0
  0
MTEXT
  5
FB
330
1F
100
AcDbEntity
  8
0
  6
Continuous
 62
     7
370
     0
100
AcDbMText
 10
203.1553128802
 20
21.5867148511
 30
0.0
 40
1.8520833333
 41
0.0
 71
     1
 72
     1
  1
Sammy
  7
SLDTEXTSTYLE0
 73
     1
 44
1.0
  0
MTEXT
  5
FC
330
1F
100
AcDbEntity
  8
0
  6
Continuous
 62
     7
370
     0
100
AcDbMText
 10
252.8482239645
 20
12.0500370959
 30
0.0
 40
2.5
 41
0.0
 71
     1
 72
     1
  1
0
  7
SLDTEXTSTYLE0
 73
     1
 44
1.0
  0
INSERT
  5
102
330
1F
100
AcDbEntity
  8
SLD-0
 62
     7
100
AcDbBlockReference
  2
SW_NOTE_1
 10
198.7251893935
 20
32.965327525
 30
0.0
  0
MTEXT
  5
103
330
1F
100
AcDbEntity
  8
SLD-0
 62
     7
100
AcDbMText
 10
219.1181900715
 20
16.2403789724
 30
0.0
 40
1.8520833333
 41
0.0
 71
     1
 72
     1
  1
2016/03/08
  7
SLDTEXTSTYLE0
 73
     1
 44
1.0
  0
ARC
  5
104
330
1F
100
AcDbEntity
  8
0
  6
Continuous
 62
     7
370
    30
100
AcDbCircle
 10
69.4132957305
 20
144.6220809043
 30
0.0
 40
5.000000000000014
100
AcDbArc
 50
90.0
 51
180.0
  0
LINE
  5
105
330
1F
100
AcDbEntity
  8
0
  6
Continuous
 62
     7
370
    30
100
AcDbLine
 10
119.413296103
 20
149.6220802337
 30
0.0
 11
69.413295358
 21
149.6220802337
 31
0.0
  0
ARC
  5
106
330
1F
100
AcDbEntity
  8
0
  6
Continuous
 62
     7
370
    30
100
AcDbCircle
 10
119.4132957305
 20
144.6220809043
 30
0.0
 40
5.0
100
AcDbArc
 50
0.0
 51
90.0
  0
LINE
  5
107
330
1F
100
AcDbEntity
  8
0
  6
Continuous
 62
     7
370
    30
100
AcDbLine
 10
124.41329506
 20
94.6220805318
 30
0.0
 11
124.41329506
 21
144.6220812768
 31
0.0
  0
ARC
  5
108
330
1F
100
AcDbEntity
  8
0
  6
Continuous
 62
     7
370
    30
100
AcDbCircle
 10
119.4132957305
 20
94.6220809043
 30
0.0
 40
5.0
100
AcDbArc
 50
270.0
 51
0.0
  0
LINE
  5
109
330
1F
100
AcDbEntity
  8
0
  6
Continuous
 62
     7
370
    30
100
AcDbLine
 10
69.413295358
 20
89.6220815748
 30
0.0
 11
119.413296103
 21
89.6220815748
 31
0.0
  0
ARC
  5
10A
330
1F
100
AcDbEntity
  8
0
  6
Continuous
 62
     7
370
    30
100
AcDbCircle
 10
69.4132957305
 20
94.6220809043
 30
0.0
 40
5.000000000000014
100
AcDbArc
 50
180.0
 51
270.0
  0
LINE
  5
10B
330
1F
100
AcDbEntity
  8
0
  6
Continuous
 62
     7
370
    30
100
AcDbLine
 10
64.4132964011
 20
144.6220812768
 30
0.0
 11
64.4132964011
 21
94.6220805318
 31
0.0
  0
CIRCLE
  5
10C
330
1F
100
AcDbEntity
  8
0
  6
Continuous
 62
     7
370
    30
100
AcDbCircle
 10
119.4132957305
 20
144.6220809043
 30
0.0
 40
2.5
  0
CIRCLE
  5
10D
330
1F
100
AcDbEntity
  8
0
  6
Continuous
 62
     7
370
    30
100
AcDbCircle
 10
119.4132957305
 20
94.6220809043
 30
0.0
 40
2.5
  0
CIRCLE
  5
10E
330
1F
100
AcDbEntity
  8
0
  6
Continuous
 62
     7
370
    30
100
AcDbCircle
 10
69.4132957305
 20
94.6220809043
 30
0.0
 40
2.5
  0
CIRCLE
  5
10F
330
1F
100
AcDbEntity
  8
0
  6
Continuous
 62
     7
370
    30
100
AcDbCircle
 10
69.4132957305
 20
144.6220809043
 30
0.0
 40
2.5
  0
CIRCLE
  5
110
330
1F
100
AcDbEntity
  8
0
  6
Continuous
 62
     7
370
    30
100
AcDbCircle
 10
81.9132957305
 20
119.6220809043
 30
0.0
 40
5.500000000000014
  0
CIRCLE
  5
111
330
1F
100
AcDbEntity
  8
0
  6
Continuous
 62
     7
370
    30
100
AcDbCircle
 10
106.9132957305
 20
119.6220809043
 30
0.0
 40
5.5
  0
CIRCLE
  5
112
330
1F
100
AcDbEntity
  8
0
  6
Continuous
 62
     7
370
    30
100
AcDbCircle
 10
94.4132957305
 20
132.1220809043
 30
0.0
 40
5.500000000000014
  0
CIRCLE
  5
113
330
1F
100
AcDbEntity
  8
0
  6
Continuous
 62
     7
370
    30
100
AcDbCircle
 10
94.4132957305
 20
107.1220809043
 30
0.0
 40
5.5
  0
CIRCLE
  5
114
330
1F
100
AcDbEntity
  8
0
  6
Continuous
 62
     7
370
    30
100
AcDbCircle
 10
106.9132957305
 20
107.1220809043
 30
0.0
 40
1.649999999999991
  0
CIRCLE
  5
115
330
1F
100
AcDbEntity
  8
0
  6
Continuous
 62
     7
370
    30
100
AcDbCircle
 10
94.4132957305
 20
119.6220809043
 30
0.0
 40
2.499999999999986
  0
CIRCLE
  5
116
330
1F
100
AcDbEntity
  8
0
  6
Continuous
 62
     7
370
    30
100
AcDbCircle
 10
94.4132957305
 20
144.6220809043
 30
0.0
 40
2.5
  0
CIRCLE
  5
117
330
1F
100
AcDbEntity
  8
0
  6
Continuous
 62
     7
370
    30
100
AcDbCircle
 10
69.4132957305
 20
119.6220809043
 30
0.0
 40
2.499999999999986
  0
CIRCLE
  5
118
330
1F
100
AcDbEntity
  8
0
  6
Continuous
 62
     7
370
    30
100
AcDbCircle
 10
94.4132957305
 20
94.6220809043
 30
0.0
 40
2.499999999999986
  0
CIRCLE
  5
119
330
1F
100
AcDbEntity
  8
0
  6
Continuous
 62
     7
370
    30
100
AcDbCircle
 10
81.9132957305
 20
107.1220809043
 30
0.0
 40
1.649999999999977
  0
CIRCLE
  5
11A
330
1F
100
AcDbEntity
  8
0
  6
Continuous
 62
     7
370
    30
100
AcDbCircle
 10
81.9132957305
 20
132.1220809043
 30
0.0
 40
1.649999999999977
  0
CIRCLE
  5
11B
330
1F
100
AcDbEntity
  8
0
  6
Continuous
 62
     7
370
    30
100
AcDbCircle
 10
106.9132957305
 20
132.1220809043
 30
0.0
 40
1.650000000000006
  0
CIRCLE
  5
11C
330
1F
100
AcDbEntity
  8
0
  6
Continuous
 62
     7
370
    30
100
AcDbCircle
 10
119.4132957305
 20
119.6220809043
 30
0.0
 40
2.499999999999986
  0
CIRCLE
  5
11D
330
1F
100
AcDbEntity
  8
0
  6
Continuous
 62
     7
370
    30
100
AcDbCircle
 10
94.4132957305
 20
107.1220809043
 30
0.0
 40
3.299999999999997
  0
CIRCLE
  5
11E
330
1F
100
AcDbEntity
  8
0
  6
Continuous
 62
     7
370
    30
100
AcDbCircle
 10
94.4132957305
 20
132.1220809043
 30
0.0
 40
3.300000000000011
  0
CIRCLE
  5
11F
330
1F
100
AcDbEntity
  8
0
  6
Continuous
 62
     7
370
    30
100
AcDbCircle
 10
106.9132957305
 20
119.6220809043
 30
0.0
 40
3.299999999999997
  0
CIRCLE
  5
120
330
1F
100
AcDbEntity
  8
0
  6
Continuous
 62
     7
370
    30
100
AcDbCircle
 10
81.9132957305
 20
119.6220809043
 30
0.0
 40
3.299999999999997
  0
DIMENSION
  5
121
330
1F
100
AcDbEntity
  8
SLD-0
100
AcDbDimension
  2
_D
 10
81.9132957305
 20
155.24141052
 30
0.0
 11
88.1632957305
 21
155.24141052
 31
0.0
 70
   160
  1
<>
 71
     2
 42
-1.0
  3
SLDDIMSTYLE0
100
AcDbAlignedDimension
 13
94.4132957305
 23
144.6220809043
 33
0.0
 14
81.9132957305
 24
132.1220809043
 34
0.0
100
AcDbRotatedDimension
  0
DIMENSION
  5
12C
330
1F
100
AcDbEntity
  8
SLD-0
100
AcDbDimension
  2
_D_1
 10
69.4132957305
 20
161.1821649106
 30
0.0
 11
81.9132957305
 21
161.1821649106
 31
0.0
 70
   160
  1
<>
 71
     2
 42
-1.0
  3
SLDDIMSTYLE0
100
AcDbAlignedDimension
 13
94.4132957305
 23
144.6220809043
 33
0.0
 14
69.4132957305
 24
144.6220809043
 34
0.0
100
AcDbRotatedDimension
  0
DIMENSION
  5
136
330
1F
100
AcDbEntity
  8
SLD-0
100
AcDbDimension
  2
_D_2
 10
119.4132957305
 20
161.1821649106
 30
0.0
 11
106.9132957305
 21
161.1821649106
 31
0.0
 70
   160
  1
<>
 71
     2
 42
-1.0
  3
SLDDIMSTYLE0
100
AcDbAlignedDimension
 13
94.4132957305
 23
144.6220809043
 33
0.0
 14
119.4132957305
 24
144.6220809043
 34
0.0
100
AcDbRotatedDimension
  0
DIMENSION
  5
140
330
1F
100
AcDbEntity
  8
SLD-0
100
AcDbDimension
  2
_D_3
 10
124.4132957305
 20
167.2530726292
 30
0.0
 11
94.4132957305
 21
167.2530726292
 31
0.0
 70
   160
  1
<>
 71
     2
 42
-1.0
  3
SLDDIMSTYLE0
100
AcDbAlignedDimension
 13
64.4132957305
 23
144.6220809043
 33
0.0
 14
124.4132957305
 24
144.6220809043
 34
0.0
100
AcDbRotatedDimension
  0
DIMENSION
  5
14A
330
1F
100
AcDbEntity
  8
SLD-0
100
AcDbDimension
  2
_D_4
 10
59.418354812
 20
132.1220809043
 30
0.0
 11
59.418354812
 21
125.8720809043
 31
0.0
 70
   160
  1
<>
 71
     2
 42
-1.0
  3
SLDDIMSTYLE0
100
AcDbAlignedDimension
 13
69.4132957305
 23
119.6220809043
 33
0.0
 14
81.9132957305
 24
132.1220809043
 34
0.0
 50
90.0
100
AcDbRotatedDimension
  0
DIMENSION
  5
154
330
1F
100
AcDbEntity
  8
SLD-0
100
AcDbDimension
  2
_D_5
 10
59.418354812
 20
107.1220809043
 30
0.0
 11
59.418354812
 21
113.3720809043
 31
0.0
 70
   160
  1
<>
 71
     2
 42
-1.0
  3
SLDDIMSTYLE0
100
AcDbAlignedDimension
 13
69.4132957305
 23
119.6220809043
 33
0.0
 14
81.9132957305
 24
107.1220809043
 34
0.0
 50
90.0
100
AcDbRotatedDimension
  0
DIMENSION
  5
15E
330
1F
100
AcDbEntity
  8
SLD-0
100
AcDbDimension
  2
_D_6
 10
50.4132957305
 20
144.6220809043
 30
0.0
 11
50.4132957305
 21
132.1220809043
 31
0.0
 70
   160
  1
<>
 71
     2
 42
-1.0
  3
SLDDIMSTYLE0
100
AcDbAlignedDimension
 13
69.4132957305
 23
119.6220809043
 33
0.0
 14
69.4132957305
 24
144.6220809043
 34
0.0
 50
90.0
100
AcDbRotatedDimension
  0
DIMENSION
  5
168
330
1F
100
AcDbEntity
  8
SLD-0
100
AcDbDimension
  2
_D_7
 10
50.4132957305
 20
94.6220809043
 30
0.0
 11
50.4132957305
 21
107.1220809043
 31
0.0
 70
   160
  1
<>
 71
     2
 42
-1.0
  3
SLDDIMSTYLE0
100
AcDbAlignedDimension
 13
69.4132957305
 23
119.6220809043
 33
0.0
 14
69.4132957305
 24
94.6220809043
 34
0.0
 50
90.0
100
AcDbRotatedDimension
  0
DIMENSION
  5
172
330
1F
100
AcDbEntity
  8
SLD-0
100
AcDbDimension
  2
_D_8
 10
43.4132957305
 20
89.6220809043
 30
0.0
 11
43.4132957305
 21
119.6220809043
 31
0.0
 70
   160
  1
<>
 71
     2
 42
-1.0
  3
SLDDIMSTYLE0
100
AcDbAlignedDimension
 13
69.4132957305
 23
149.6220809043
 33
0.0
 14
69.4132957305
 24
89.6220809043
 34
0.0
 50
90.0
100
AcDbRotatedDimension
  0
DIMENSION
  5
17C
330
1F
100
AcDbEntity
  8
SLD-0
100
AcDbDimension
  2
_D_9
 10
118.6368385952
 20
97.5198583832
 30
0.0
 11
133.2332313217
 21
80.3993695312
 31
0.0
 70
   163
  1
9 HOLES,\P M6 
 71
     1
 42
-1.0
  3
SLDDIMSTYLE1
100
AcDbDiametricDimension
 15
120.1897528658
 25
91.7243034254
 35
0.0
 40
0.0
  0
DIMENSION
  5
186
330
1F
100
AcDbEntity
  8
SLD-0
100
AcDbDimension
  2
_D_10
 10
82.7052702476
 20
108.9585929147
 30
0.0
 11
59.418354812
 21
79.62114371
 31
0.0
 70
   163
  1
4 HOLES,\P M4
 71
     1
 42
-1.0
  3
SLDDIMSTYLE1
100
AcDbDiametricDimension
 15
81.1213212134
 25
105.2855688939
 35
0.0
 40
0.0
  0
DIMENSION
  5
18F
330
1F
100
AcDbEntity
  8
SLD-0
100
AcDbDimension
  2
_D_11
 10
93.6566739577
 20
112.5697889997
 30
0.0
 11
108.3140827952
 21
75.5355147713
 31
0.0
 70
   163
  1
4 HOLES,\P M6 CLR
 71
     1
 42
-1.0
  3
SLDDIMSTYLE1
100
AcDbDiametricDimension
 15
95.1699175033
 25
101.6743728089
 35
0.0
 40
0.0
  0
DIMENSION
  5
198
330
1F
100
AcDbEntity
  8
SLD-0
 62
     7
100
AcDbDimension
  2
_D_12
 10
106.9132957305
 20
155.24141052
 30
0.0
 11
100.6632957305
 21
155.24141052
 31
0.0
 70
   160
  1
<>
 71
     2
 42
-1.0
  3
SLDDIMSTYLE0
100
AcDbAlignedDimension
 13
94.4132957305
 23
148.1220809043
 33
0.0
 14
106.9132957305
 24
132.1220809043
 34
0.0
100
AcDbRotatedDimension
  0
INSERT
  5
1AD
330
1F
100
AcDbEntity
  8
SLD-0
100
AcDbBlockReference
  2
SW_CENTERMARKSYMBOL_0
 10
69.4132957305
 20
144.6220809043
 30
0.0
  0
INSERT
  5
1B9
330
1F
100
AcDbEntity
  8
SLD-0
100
AcDbBlockReference
  2
SW_CENTERMARKSYMBOL_1
 10
94.4132957305
 20
144.6220809043
 30
0.0
  0
INSERT
  5
1C5
330
1F
100
AcDbEntity
  8
SLD-0
100
AcDbBlockReference
  2
SW_CENTERMARKSYMBOL_2
 10
119.4132957305
 20
144.6220809043
 30
0.0
  0
INSERT
  5
1D1
330
1F
100
AcDbEntity
  8
SLD-0
100
AcDbBlockReference
  2
SW_CENTERMARKSYMBOL_3
 10
106.9132957305
 20
132.1220809043
 30
0.0
  0
INSERT
  5
1DD
330
1F
100
AcDbEntity
  8
SLD-0
100
AcDbBlockReference
  2
SW_CENTERMARKSYMBOL_4
 10
94.4132957305
 20
132.1220809043
 30
0.0
  0
INSERT
  5
1E9
330
1F
100
AcDbEntity
  8
SLD-0
100
AcDbBlockReference
  2
SW_CENTERMARKSYMBOL_5
 10
81.9132957305
 20
132.1220809043
 30
0.0
  0
INSERT
  5
1F5
330
1F
100
AcDbEntity
  8
SLD-0
100
AcDbBlockReference
  2
SW_CENTERMARKSYMBOL_6
 10
69.4132957305
 20
119.6220809043
 30
0.0
  0
INSERT
  5
201
330
1F
100
AcDbEntity
  8
SLD-0
100
AcDbBlockReference
  2
SW_CENTERMARKSYMBOL_7
 10
81.9132957305
 20
119.6220809043
 30
0.0
  0
INSERT
  5
20D
330
1F
100
AcDbEntity
  8
SLD-0
100
AcDbBlockReference
  2
SW_CENTERMARKSYMBOL_8
 10
94.4132957305
 20
119.6220809043
 30
0.0
  0
INSERT
  5
219
330
1F
100
AcDbEntity
  8
SLD-0
100
AcDbBlockReference
  2
SW_CENTERMARKSYMBOL_9
 10
106.9132957305
 20
119.6220809043
 30
0.0
  0
INSERT
  5
225
330
1F
100
AcDbEntity
  8
SLD-0
100
AcDbBlockReference
  2
SW_CENTERMARKSYMBOL_10
 10
119.4132957305
 20
119.6220809043
 30
0.0
  0
INSERT
  5
231
330
1F
100
AcDbEntity
  8
SLD-0
100
AcDbBlockReference
  2
SW_CENTERMARKSYMBOL_11
 10
106.9132957305
 20
107.1220809043
 30
0.0
  0
INSERT
  5
23D
330
1F
100
AcDbEntity
  8
SLD-0
100
AcDbBlockReference
  2
SW_CENTERMARKSYMBOL_12
 10
94.4132957305
 20
107.1220809043
 30
0.0
  0
INSERT
  5
249
330
1F
100
AcDbEntity
  8
SLD-0
100
AcDbBlockReference
  2
SW_CENTERMARKSYMBOL_13
 10
81.9132957305
 20
107.1220809043
 30
0.0
  0
INSERT
  5
255
330
1F
100
AcDbEntity
  8
SLD-0
100
AcDbBlockReference
  2
SW_CENTERMARKSYMBOL_14
 10
69.4132957305
 20
94.6220809043
 30
0.0
  0
INSERT
  5
261
330
1F
100
AcDbEntity
  8
SLD-0
100
AcDbBlockReference
  2
SW_CENTERMARKSYMBOL_15
 10
94.4132957305
 20
94.6220809043
 30
0.0
  0
INSERT
  5
26D
330
1F
100
AcDbEntity
  8
SLD-0
100
AcDbBlockReference
  2
SW_CENTERMARKSYMBOL_16
 10
119.4132957305
 20
94.6220809043
 30
0.0
  0
ARC
  5
26E
330
1F
100
AcDbEntity
  8
0
  6
Continuous
 62
     7
370
     0
100
AcDbCircle
 10
119.4132957305
 20
144.6220809043
 30
0.0
 40
3.000000864267399
100
AcDbArc
 50
255.0
 51
195.0
  0
ARC
  5
26F
330
1F
100
AcDbEntity
  8
0
  6
Continuous
 62
     7
370
     0
100
AcDbCircle
 10
119.4132957305
 20
94.6220809043
 30
0.0
 40
3.000000864267371
100
AcDbArc
 50
255.0
 51
195.0
  0
ARC
  5
270
330
1F
100
AcDbEntity
  8
0
  6
Continuous
 62
     7
370
     0
100
AcDbCircle
 10
69.4132957305
 20
94.6220809043
 30
0.0
 40
3.000000119209311
100
AcDbArc
 50
255.0
 51
195.0
  0
ARC
  5
271
330
1F
100
AcDbEntity
  8
0
  6
Continuous
 62
     7
370
     0
100
AcDbCircle
 10
69.4132957305
 20
144.6220809043
 30
0.0
 40
3.000000119209353
100
AcDbArc
 50
255.0
 51
195.0
  0
ARC
  5
272
330
1F
100
AcDbEntity
  8
0
  6
Continuous
 62
     7
370
     0
100
AcDbCircle
 10
106.9132957305
 20
132.1220809043
 30
0.0
 40
1.999999582768223
100
AcDbArc
 50
255.0
 51
195.0
  0
ARC
  5
273
330
1F
100
AcDbEntity
  8
0
  6
Continuous
 62
     7
370
     0
100
AcDbCircle
 10
81.9132957305
 20
132.1220809043
 30
0.0
 40
2.000000141561743
100
AcDbArc
 50
255.0
 51
195.0
  0
ARC
  5
274
330
1F
100
AcDbEntity
  8
0
  6
Continuous
 62
     7
370
     0
100
AcDbCircle
 10
81.9132957305
 20
107.1220809043
 30
0.0
 40
2.000000141561054
100
AcDbArc
 50
255.0
 51
195.0
  0
ARC
  5
275
330
1F
100
AcDbEntity
  8
0
  6
Continuous
 62
     7
370
     0
100
AcDbCircle
 10
106.9132957305
 20
107.1220809043
 30
0.0
 40
1.999999582767509
100
AcDbArc
 50
255.0
 51
195.0
  0
ARC
  5
276
330
1F
100
AcDbEntity
  8
0
  6
Continuous
 62
     7
370
     0
100
AcDbCircle
 10
94.4132957305
 20
119.6220809043
 30
0.0
 40
3.000000026077063
100
AcDbArc
 50
255.0
 51
195.0
  0
ARC
  5
277
330
1F
100
AcDbEntity
  8
0
  6
Continuous
 62
     7
370
     0
100
AcDbCircle
 10
94.4132957305
 20
144.6220809043
 30
0.0
 40
3.000000026076828
100
AcDbArc
 50
255.0
 51
195.0
  0
ARC
  5
278
330
1F
100
AcDbEntity
  8
0
  6
Continuous
 62
     7
370
     0
100
AcDbCircle
 10
69.4132957305
 20
119.6220809043
 30
0.0
 40
3.000000119209311
100
AcDbArc
 50
255.0
 51
195.0
  0
ARC
  5
279
330
1F
100
AcDbEntity
  8
0
  6
Continuous
 62
     7
370
     0
100
AcDbCircle
 10
94.4132957305
 20
94.6220809043
 30
0.0
 40
3.000000026077148
100
AcDbArc
 50
255.0
 51
195.0
  0
ARC
  5
27A
330
1F
100
AcDbEntity
  8
0
  6
Continuous
 62
     7
370
     0
100
AcDbCircle
 10
119.4132957305
 20
119.6220809043
 30
0.0
 40
3.000000864267358
100
AcDbArc
 50
255.0
 51
195.0
  0
LINE
  5
27B
330
1F
100
AcDbEntity
  8
0
  6
Continuous
 62
     7
370
    30
100
AcDbLine
 10
265.8975377376
 20
146.7016988099
 30
0.0
 11
265.8975377376
 21
153.234025305
 31
0.0
  0
LINE
  5
27C
330
1F
100
AcDbEntity
  8
0
  6
Continuous
 62
     7
370
    30
100
AcDbLine
 10
185.186859619
 20
153.234025305
 30
0.0
 11
185.186859619
 21
146.7016988099
 31
0.0
  0
ARC
  5
27D
330
1F
100
AcDbEntity
  8
0
  6
Continuous
 62
     7
370
    30
100
AcDbCircle
 10
225.5421986783
 20
168.8865088235
 30
0.0
 40
7.663084206650926
100
AcDbArc
 50
62.5243123925
 51
117.4756876075
  0
LINE
  5
27E
330
1F
100
AcDbEntity
  8
0
  6
Continuous
 62
     7
370
    30
100
AcDbLine
 10
264.4330716436
 20
155.2750455845
 30
0.0
 11
229.0777325842
 21
175.6852483801
 31
0.0
  0
ARC
  5
27F
330
1F
100
AcDbEntity
  8
0
  6
Continuous
 62
     7
370
    30
100
AcDbCircle
 10
263.6441106138
 20
153.234025305
 30
0.0
 40
2.188200924968379
100
AcDbArc
 50
291.1341228318
 51
68.8658771682
  0
LINE
  5
280
330
1F
100
AcDbEntity
  8
0
  6
Continuous
 62
     7
370
    30
100
AcDbLine
 10
229.0777325842
 20
130.7828022298
 30
0.0
 11
264.4330716436
 21
151.1930050254
 31
0.0
  0
ARC
  5
281
330
1F
100
AcDbEntity
  8
0
  6
Continuous
 62
     7
370
    30
100
AcDbCircle
 10
225.5421986783
 20
137.5815417864
 30
0.0
 40
7.663084206651015
100
AcDbArc
 50
242.5243123925
 51
297.4756876075
  0
LINE
  5
282
330
1F
100
AcDbEntity
  8
0
  6
Continuous
 62
     7
370
    30
100
AcDbLine
 10
186.651325713
 20
151.1930050254
 30
0.0
 11
222.0066647724
 21
130.7828022298
 31
0.0
  0
ARC
  5
283
330
1F
100
AcDbEntity
  8
0
  6
Continuous
 62
     7
370
    30
100
AcDbCircle
 10
187.4402867428
 20
153.234025305
 30
0.0
 40
2.188200924968394
100
AcDbArc
 50
111.1341228318
 51
248.8658771682
  0
LINE
  5
284
330
1F
100
AcDbEntity
  8
0
  6
Continuous
 62
     7
370
    30
100
AcDbLine
 10
222.0066647724
 20
175.6852483801
 30
0.0
 11
186.651325713
 21
155.2750455845
 31
0.0
  0
LWPOLYLINE
  5
285
330
1F
100
AcDbEntity
  8
0
  6
Continuous
 62
     7
370
    30
100
AcDbPolyline
 90
       38
 70
   128
 43
0.0
 10
259.1297707847
 20
152.2135151652
 10
259.4539525682
 20
152.0557272237
 10
259.8196636687
 20
151.9318367728
 10
260.2163832437
 20
151.845407915
 10
260.6326983933
 20
151.7989270513
 10
261.0566324887
 20
151.7937313515
 10
261.4759897177
 20
151.8299702863
 10
261.8787059365
 20
151.9066013278
 10
262.2531957326
 20
152.0214199401
 10
262.5886857164
 20
152.1711230011
 10
262.8755244519
 20
152.3514038261
 10
263.105460111
 20
152.5570760641
 10
263.2718778633
 20
152.7822228992
 10
263.3699901732
 20
153.0203672669
 10
263.3969745281
 20
153.2646581874
 10
263.3520546372
 20
153.5080678556
 10
263.2365227641
 20
153.7435938186
 10
263.0537025503
 20
153.9644604233
 10
262.8088534006
 20
154.1643137394
 10
262.5090191792
 20
154.3374043511
 10
262.1628255707
 20
154.4787527565
 10
261.780231935
 20
154.5842926195
 10
261.3722447943
 20
154.6509877502
 10
260.950601196
 20
154.6769194512
 10
260.5274310585
 20
154.6613417147
 10
260.1149082163
 20
154.6047026838
 10
259.7249002006
 20
154.5086317603
 10
259.3686268317
 20
154.3758927298
 10
259.056337446
 20
154.2103042524
 10
258.7970160403
 20
154.0166300072
 10
258.5981228195
 20
153.8004416496
 10
258.4653795794
 20
153.5679585251
 10
258.4026051012
 20
153.3258687498
 10
258.4116052925
 20
153.0811368058
 10
258.4921212341
 20
152.8408031856
 10
258.641836629
 20
152.6117818498
 10
258.8564444378
 20
152.4006613253
 10
259.1297707847
 20
152.2135151652
  0
LWPOLYLINE
  5
286
330
1F
100
AcDbEntity
  8
0
  6
Continuous
 62
     7
370
    30
100
AcDbPolyline
 90
       38
 70
   128
 43
0.0
 10
223.7744317253
 20
131.8033123696
 10
224.0986135089
 20
131.6455244282
 10
224.4643246094
 20
131.5216339772
 10
224.8610441844
 20
131.4352051195
 10
225.277359334
 20
131.3887242557
 10
225.7012934294
 20
131.3835285559
 10
226.1206506584
 20
131.4197674908
 10
226.5233668772
 20
131.4963985322
 10
226.8978566732
 20
131.6112171446
 10
227.233346657
 20
131.7609202055
 10
227.5201853926
 20
131.9412010305
 10
227.7501210516
 20
132.1468732685
 10
227.916538804
 20
132.3720201036
 10
228.0146511139
 20
132.6101644714
 10
228.0416354687
 20
132.8544553918
 10
227.9967155779
 20
133.0978650601
 10
227.8811837047
 20
133.3333910231
 10
227.698363491
 20
133.5542576277
 10
227.4535143413
 20
133.7541109439
 10
227.1536801199
 20
133.9272015555
 10
226.8074865114
 20
134.068549961
 10
226.4248928757
 20
134.1740898239
 10
226.016905735
 20
134.2407849546
 10
225.5952621366
 20
134.2667166556
 10
225.1720919992
 20
134.2511389191
 10
224.759569157
 20
134.1944998882
 10
224.3695611412
 20
134.0984289648
 10
224.0132877724
 20
133.9656899342
 10
223.7009983866
 20
133.8001014568
 10
223.441676981
 20
133.6064272117
 10
223.2427837602
 20
133.3902388541
 10
223.1100405201
 20
133.1577557295
 10
223.0472660419
 20
132.9156659542
 10
223.0562662332
 20
132.6709340102
 10
223.1367821748
 20
132.43060039
 10
223.2864975697
 20
132.2015790542
 10
223.5011053785
 20
131.9904585297
 10
223.7744317253
 20
131.8033123696
  0
LWPOLYLINE
  5
287
330
1F
100
AcDbEntity
  8
0
  6
Continuous
 62
     7
370
    30
100
AcDbPolyline
 90
       38
 70
   128
 43
0.0
 10
188.419092666
 20
152.2135151652
 10
188.7432744495
 20
152.0557272237
 10
189.1089855501
 20
151.9318367728
 10
189.5057051251
 20
151.845407915
 10
189.9220202747
 20
151.7989270513
 10
190.34595437
 20
151.7937313515
 10
190.7653115991
 20
151.8299702863
 10
191.1680278178
 20
151.9066013278
 10
191.5425176139
 20
152.0214199401
 10
191.8780075977
 20
152.1711230011
 10
192.1648463332
 20
152.3514038261
 10
192.3947819923
 20
152.5570760641
 10
192.5611997446
 20
152.7822228992
 10
192.6593120545
 20
153.0203672669
 10
192.6862964094
 20
153.2646581874
 10
192.6413765185
 20
153.5080678556
 10
192.5258446454
 20
153.7435938186
 10
192.3430244316
 20
153.9644604233
 10
192.0981752819
 20
154.1643137394
 10
191.7983410605
 20
154.3374043511
 10
191.4521474521
 20
154.4787527565
 10
191.0695538164
 20
154.5842926195
 10
190.6615666757
 20
154.6509877502
 10
190.2399230773
 20
154.6769194512
 10
189.8167529398
 20
154.6613417147
 10
189.4042300977
 20
154.6047026838
 10
189.0142220819
 20
154.5086317603
 10
188.6579487131
 20
154.3758927298
 10
188.3456593273
 20
154.2103042524
 10
188.0863379217
 20
154.0166300072
 10
187.8874447009
 20
153.8004416496
 10
187.7547014607
 20
153.5679585251
 10
187.6919269826
 20
153.3258687498
 10
187.7009271739
 20
153.0811368058
 10
187.7814431155
 20
152.8408031856
 10
187.9311585103
 20
152.6117818498
 10
188.1457663192
 20
152.4006613253
 10
188.419092666
 20
152.2135151652
  0
LWPOLYLINE
  5
288
330
1F
100
AcDbEntity
  8
0
  6
Continuous
 62
     7
370
    30
100
AcDbPolyline
 90
       38
 70
   128
 43
0.0
 10
223.7744317253
 20
172.6237179607
 10
224.0986135089
 20
172.4659300193
 10
224.4643246094
 20
172.3420395684
 10
224.8610441844
 20
172.2556107106
 10
225.277359334
 20
172.2091298469
 10
225.7012934294
 20
172.203934147
 10
226.1206506584
 20
172.2401730819
 10
226.5233668772
 20
172.3168041233
 10
226.8978566732
 20
172.4316227357
 10
227.233346657
 20
172.5813257967
 10
227.5201853926
 20
172.7616066217
 10
227.7501210516
 20
172.9672788596
 10
227.916538804
 20
173.1924256948
 10
228.0146511139
 20
173.4305700625
 10
228.0416354687
 20
173.674860983
 10
227.9967155779
 20
173.9182706512
 10
227.8811837047
 20
174.1537966142
 10
227.698363491
 20
174.3746632188
 10
227.4535143413
 20
174.574516535
 10
227.1536801199
 20
174.7476071467
 10
226.8074865114
 20
174.8889555521
 10
226.4248928757
 20
174.994495415
 10
226.016905735
 20
175.0611905458
 10
225.5952621366
 20
175.0871222468
 10
225.1720919992
 20
175.0715445103
 10
224.759569157
 20
175.0149054794
 10
224.3695611412
 20
174.9188345559
 10
224.0132877724
 20
174.7860955253
 10
223.7009983866
 20
174.620507048
 10
223.441676981
 20
174.4268328028
 10
223.2427837602
 20
174.2106444452
 10
223.1100405201
 20
173.9781613207
 10
223.0472660419
 20
173.7360715454
 10
223.0562662332
 20
173.4913396014
 10
223.1367821748
 20
173.2510059812
 10
223.2864975697
 20
173.0219846454
 10
223.5011053785
 20
172.8108641209
 10
223.7744317253
 20
172.6237179607
  0
LWPOLYLINE
  5
289
330
1F
100
AcDbEntity
  8
0
  6
Continuous
 62
     7
370
    30
100
AcDbPolyline
 90
       56
 70
   128
 43
0.0
 10
212.8142766169
 20
156.0914536963
 10
213.2829492613
 20
155.8501633405
 10
213.7962122415
 20
155.6412871762
 10
214.3473743897
 20
155.4675482237
 10
214.9292504643
 20
155.3312114359
 10
215.5342548209
 20
155.2340541714
 10
216.1545003025
 20
155.1773430236
 10
216.7819010606
 20
155.1618173092
 10
217.4082779668
 20
155.1876794296
 10
218.0254652404
 20
155.2545922323
 10
218.6254169013
 20
155.3616834069
 10
219.200311662
 20
155.5075568559
 10
219.7426548903
 20
155.690310896
 10
220.2453763127
 20
155.9075630487
 10
220.7019221867
 20
156.1564811
 10
221.1063407386
 20
156.4338200223
 10
221.453359754
 20
156.7359642788
 10
221.7384553095
 20
157.0589749569
 10
221.9579107485
 20
157.3986411185
 10
222.1088651337
 20
157.7505346958
 10
222.1893505438
 20
158.1100682177
 10
222.1983177285
 20
158.472554615
 10
222.1356497867
 20
158.8332683231
 10
222.002163691
 20
159.1875068873
 10
221.7995996367
 20
159.5306522661
 10
221.5305983561
 20
159.8582310347
 10
221.1986666922
 20
160.1659727029
 10
220.8081318819
 20
160.4498653874
 10
220.3640851437
 20
160.706208113
 10
219.8723153059
 20
160.9316590601
 10
219.3392333404
 20
161.1232791309
 10
218.7717887859
 20
161.2785702648
 10
218.17737915
 20
161.3955080042
 10
217.5637534712
 20
161.472567887
 10
216.9389112987
 20
161.5087453197
 10
216.3109984059
 20
161.5035686742
 10
215.6882005975
 20
161.4571054359
 10
215.0786369954
 20
161.3699613243
 10
214.4902541933
 20
161.243272396
 10
213.930722661
 20
161.0786902351
 10
213.4073367477
 20
160.8783604216
 10
212.926919589
 20
160.644894561
 10
212.4957341575
 20
160.381336238
 10
212.1194016145
 20
160.0911213382
 10
211.8028280304
 20
159.7780332568
 10
211.550140426
 20
159.4461535757
 10
211.3646329705
 20
159.099808854
 10
211.2487240374
 20
158.7435142249
 10
211.2039246769
 20
158.3819145338
 10
211.2308189172
 20
158.0197237856
 10
211.3290561506
 20
157.6616636906
 10
211.4973557047
 20
157.3124021098
 10
211.7335235374
 20
156.976492202
 10
212.0344808397
 20
156.6583130665
 10
212.3963041731
 20
156.3620126549
 10
212.8142766169
 20
156.0914536963
  0
LWPOLYLINE
  5
28A
330
1F
100
AcDbEntity
  8
0
  6
Continuous
 62
     7
370
    30
100
AcDbPolyline
 90
       56
 70
   128
 43
0.0
 10
230.4919461466
 20
145.8863522985
 10
230.960618791
 20
145.6450619427
 10
231.4738817712
 20
145.4361857784
 10
232.0250439194
 20
145.2624468259
 10
232.606919994
 20
145.1261100381
 10
233.2119243506
 20
145.0289527736
 10
233.8321698321
 20
144.9722416259
 10
234.4595705902
 20
144.9567159114
 10
235.0859474965
 20
144.9825780318
 10
235.7031347701
 20
145.0494908346
 10
236.3030864309
 20
145.1565820091
 10
236.8779811917
 20
145.3024554581
 10
237.42032442
 20
145.4852094982
 10
237.9230458424
 20
145.7024616509
 10
238.3795917163
 20
145.9513797022
 10
238.7840102682
 20
146.2287186245
 10
239.1310292837
 20
146.530862881
 10
239.4161248392
 20
146.8538735591
 10
239.6355802782
 20
147.1935397207
 10
239.7865346634
 20
147.545433298
 10
239.8670200735
 20
147.9049668199
 10
239.8759872582
 20
148.2674532172
 10
239.8133193164
 20
148.6281669253
 10
239.6798332207
 20
148.9824054895
 10
239.4772691664
 20
149.3255508683
 10
239.2082678858
 20
149.6531296369
 10
238.8763362219
 20
149.9608713051
 10
238.4858014116
 20
150.2447639896
 10
238.0417546734
 20
150.5011067152
 10
237.5499848356
 20
150.7265576623
 10
237.0169028701
 20
150.9181777331
 10
236.4494583156
 20
151.073468867
 10
235.8550486796
 20
151.1904066064
 10
235.2414230009
 20
151.2674664892
 10
234.6165808284
 20
151.303643922
 10
233.9886679355
 20
151.2984672764
 10
233.3658701271
 20
151.2520040382
 10
232.756306525
 20
151.1648599265
 10
232.167923723
 20
151.0381709982
 10
231.6083921907
 20
150.8735888373
 10
231.0850062773
 20
150.6732590238
 10
230.6045891187
 20
150.4397931632
 10
230.1734036871
 20
150.1762348402
 10
229.7970711442
 20
149.8860199404
 10
229.4804975601
 20
149.572931859
 10
229.2278099556
 20
149.2410521779
 10
229.0423025002
 20
148.8947074562
 10
228.9263935671
 20
148.5384128271
 10
228.8815942066
 20
148.176813136
 10
228.9084884468
 20
147.8146223878
 10
229.0067256803
 20
147.4565622928
 10
229.1750252344
 20
147.107300712
 10
229.411193067
 20
146.7713908042
 10
229.7121503694
 20
146.4532116687
 10
230.0739737027
 20
146.1569112571
 10
230.4919461466
 20
145.8863522985
  0
LWPOLYLINE
  5
28B
330
1F
100
AcDbEntity
  8
0
  6
Continuous
 62
     7
370
    30
100
AcDbPolyline
 90
       56
 70
   128
 43
0.0
 10
230.4919461466
 20
156.0914536963
 10
230.960618791
 20
155.8501633405
 10
231.4738817712
 20
155.6412871762
 10
232.0250439194
 20
155.4675482237
 10
232.606919994
 20
155.3312114359
 10
233.2119243506
 20
155.2340541714
 10
233.8321698321
 20
155.1773430236
 10
234.4595705902
 20
155.1618173092
 10
235.0859474965
 20
155.1876794296
 10
235.7031347701
 20
155.2545922323
 10
236.3030864309
 20
155.3616834069
 10
236.8779811917
 20
155.5075568559
 10
237.42032442
 20
155.690310896
 10
237.9230458424
 20
155.9075630487
 10
238.3795917163
 20
156.1564811
 10
238.7840102682
 20
156.4338200223
 10
239.1310292837
 20
156.7359642788
 10
239.4161248392
 20
157.0589749569
 10
239.6355802782
 20
157.3986411185
 10
239.7865346634
 20
157.7505346958
 10
239.8670200735
 20
158.1100682177
 10
239.8759872582
 20
158.472554615
 10
239.8133193164
 20
158.8332683231
 10
239.6798332207
 20
159.1875068873
 10
239.4772691664
 20
159.5306522661
 10
239.2082678858
 20
159.8582310347
 10
238.8763362219
 20
160.1659727029
 10
238.4858014116
 20
160.4498653874
 10
238.0417546734
 20
160.706208113
 10
237.5499848356
 20
160.9316590601
 10
237.0169028701
 20
161.1232791309
 10
236.4494583156
 20
161.2785702648
 10
235.8550486796
 20
161.3955080042
 10
235.2414230009
 20
161.472567887
 10
234.6165808284
 20
161.5087453197
 10
233.9886679355
 20
161.5035686742
 10
233.3658701271
 20
161.4571054359
 10
232.756306525
 20
161.3699613243
 10
232.167923723
 20
161.243272396
 10
231.6083921907
 20
161.0786902351
 10
231.0850062773
 20
160.8783604216
 10
230.6045891187
 20
160.644894561
 10
230.1734036871
 20
160.381336238
 10
229.7970711442
 20
160.0911213382
 10
229.4804975601
 20
159.7780332568
 10
229.2278099556
 20
159.4461535757
 10
229.0423025002
 20
159.099808854
 10
228.9263935671
 20
158.7435142249
 10
228.8815942066
 20
158.3819145338
 10
228.9084884468
 20
158.0197237856
 10
229.0067256803
 20
157.6616636906
 10
229.1750252344
 20
157.3124021098
 10
229.411193067
 20
156.976492202
 10
229.7121503694
 20
156.6583130665
 10
230.0739737027
 20
156.3620126549
 10
230.4919461466
 20
156.0914536963
  0
LWPOLYLINE
  5
28C
330
1F
100
AcDbEntity
  8
0
  6
Continuous
 62
     7
370
    30
100
AcDbPolyline
 90
       56
 70
   128
 43
0.0
 10
212.8142766169
 20
145.8863522985
 10
213.2829492613
 20
145.6450619427
 10
213.7962122415
 20
145.4361857784
 10
214.3473743897
 20
145.2624468259
 10
214.9292504643
 20
145.1261100381
 10
215.5342548209
 20
145.0289527736
 10
216.1545003025
 20
144.9722416259
 10
216.7819010606
 20
144.9567159114
 10
217.4082779668
 20
144.9825780318
 10
218.0254652404
 20
145.0494908346
 10
218.6254169013
 20
145.1565820091
 10
219.200311662
 20
145.3024554581
 10
219.7426548903
 20
145.4852094982
 10
220.2453763127
 20
145.7024616509
 10
220.7019221867
 20
145.9513797022
 10
221.1063407386
 20
146.2287186245
 10
221.453359754
 20
146.530862881
 10
221.7384553095
 20
146.8538735591
 10
221.9579107485
 20
147.1935397207
 10
222.1088651337
 20
147.545433298
 10
222.1893505438
 20
147.9049668199
 10
222.1983177285
 20
148.2674532172
 10
222.1356497867
 20
148.6281669253
 10
222.002163691
 20
148.9824054895
 10
221.7995996367
 20
149.3255508683
 10
221.5305983561
 20
149.6531296369
 10
221.1986666922
 20
149.9608713051
 10
220.8081318819
 20
150.2447639896
 10
220.3640851437
 20
150.5011067152
 10
219.8723153059
 20
150.7265576623
 10
219.3392333404
 20
150.9181777331
 10
218.7717887859
 20
151.073468867
 10
218.17737915
 20
151.1904066064
 10
217.5637534712
 20
151.2674664892
 10
216.9389112987
 20
151.303643922
 10
216.3109984059
 20
151.2984672764
 10
215.6882005975
 20
151.2520040382
 10
215.0786369954
 20
151.1648599265
 10
214.4902541933
 20
151.0381709982
 10
213.930722661
 20
150.8735888373
 10
213.4073367477
 20
150.6732590238
 10
212.926919589
 20
150.4397931632
 10
212.4957341575
 20
150.1762348402
 10
212.1194016145
 20
149.8860199404
 10
211.8028280304
 20
149.572931859
 10
211.550140426
 20
149.2410521779
 10
211.3646329705
 20
148.8947074562
 10
211.2487240374
 20
148.5384128271
 10
211.2039246769
 20
148.176813136
 10
211.2308189172
 20
147.8146223878
 10
211.3290561506
 20
147.4565622928
 10
211.4973557047
 20
147.107300712
 10
211.7335235374
 20
146.7713908042
 10
212.0344808397
 20
146.4532116687
 10
212.3963041731
 20
146.1569112571
 10
212.8142766169
 20
145.8863522985
  0
LWPOLYLINE
  5
28D
330
1F
100
AcDbEntity
  8
0
  6
Continuous
 62
     7
370
    30
100
AcDbPolyline
 90
       31
 70
   128
 43
0.0
 10
242.053142019
 20
152.5604886127
 10
242.3212138002
 20
152.4351708529
 10
242.6285610912
 20
152.344766866
 10
242.9617513406
 20
152.29322774
 10
243.3062225358
 20
152.282805982
 10
243.6469196324
 20
152.313957073
 10
243.9689525325
 20
152.3853195606
 10
244.2582468532
 20
152.4937745618
 10
244.5021590444
 20
152.6345820726
 10
244.6900289729
 20
152.8015881291
 10
244.8136458213
 20
152.9874937652
 10
244.8676069403
 20
153.1841740126
 10
244.8495539699
 20
153.3830330007
 10
244.7602759117
 20
153.5753796375
 10
244.6036746451
 20
153.752807452
 10
244.3865943969
 20
153.9075619972
 10
244.1185226157
 20
154.032879757
 10
243.8111753247
 20
154.1232837439
 10
243.4779850753
 20
154.1748228699
 10
243.1335138802
 20
154.1852446279
 10
242.7928167835
 20
154.154093537
 10
242.4707838834
 20
154.0827310493
 10
242.1814895627
 20
153.9742760481
 10
241.9375773716
 20
153.8334685373
 10
241.7497074431
 20
153.6664624808
 10
241.6260905946
 20
153.4805568447
 10
241.5721294756
 20
153.2838765973
 10
241.590182446
 20
153.0850176092
 10
241.6794605042
 20
152.8926709724
 10
241.8360617709
 20
152.7152431579
 10
242.053142019
 20
152.5604886127
  0
LWPOLYLINE
  5
28E
330
1F
100
AcDbEntity
  8
0
  6
Continuous
 62
     7
370
    30
100
AcDbPolyline
 90
       31
 70
   128
 43
0.0
 10
224.3754724893
 20
162.7655900105
 10
224.6435442705
 20
162.6402722507
 10
224.9508915616
 20
162.5498682638
 10
225.284081811
 20
162.4983291378
 10
225.6285530061
 20
162.4879073798
 10
225.9692501027
 20
162.5190584707
 10
226.2912830029
 20
162.5904209584
 10
226.5805773235
 20
162.6988759596
 10
226.8244895147
 20
162.8396834704
 10
227.0123594432
 20
163.0066895268
 10
227.1359762917
 20
163.192595163
 10
227.1899374106
 20
163.3892754104
 10
227.1718844403
 20
163.5881343985
 10
227.082606382
 20
163.7804810353
 10
226.9260051154
 20
163.9579088498
 10
226.7089248673
 20
164.112663395
 10
226.4408530861
 20
164.2379811548
 10
226.133505795
 20
164.3283851417
 10
225.8003155456
 20
164.3799242677
 10
225.4558443505
 20
164.3903460256
 10
225.1151472539
 20
164.3591949347
 10
224.7931143537
 20
164.2878324471
 10
224.5038200331
 20
164.1793774459
 10
224.2599078419
 20
164.0385699351
 10
224.0720379134
 20
163.8715638786
 10
223.9484210649
 20
163.6856582425
 10
223.894459946
 20
163.4889779951
 10
223.9125129163
 20
163.290119007
 10
224.0017909746
 20
163.0977723702
 10
224.1583922412
 20
162.9203445557
 10
224.3754724893
 20
162.7655900105
  0
LWPOLYLINE
  5
28F
330
1F
100
AcDbEntity
  8
0
  6
Continuous
 62
     7
370
    30
100
AcDbPolyline
 90
       31
 70
   128
 43
0.0
 10
206.6978029597
 20
152.5604886127
 10
206.9658747409
 20
152.4351708529
 10
207.2732220319
 20
152.344766866
 10
207.6064122813
 20
152.29322774
 10
207.9508834764
 20
152.282805982
 10
208.2915805731
 20
152.313957073
 10
208.6136134732
 20
152.3853195606
 10
208.9029077939
 20
152.4937745618
 10
209.146819985
 20
152.6345820726
 10
209.3346899135
 20
152.8015881291
 10
209.458306762
 20
152.9874937652
 10
209.512267881
 20
153.1841740126
 10
209.4942149106
 20
153.3830330007
 10
209.4049368524
 20
153.5753796375
 10
209.2483355857
 20
153.752807452
 10
209.0312553376
 20
153.9075619972
 10
208.7631835564
 20
154.032879757
 10
208.4558362654
 20
154.1232837439
 10
208.122646016
 20
154.1748228699
 10
207.7781748208
 20
154.1852446279
 10
207.4374777242
 20
154.154093537
 10
207.1154448241
 20
154.0827310493
 10
206.8261505034
 20
153.9742760481
 10
206.5822383122
 20
153.8334685373
 10
206.3943683837
 20
153.6664624808
 10
206.2707515353
 20
153.4805568447
 10
206.2167904163
 20
153.2838765973
 10
206.2348433867
 20
153.0850176092
 10
206.3241214449
 20
152.8926709724
 10
206.4807227115
 20
152.7152431579
 10
206.6978029597
 20
152.5604886127
  0
LWPOLYLINE
  5
290
330
1F
100
AcDbEntity
  8
0
  6
Continuous
 62
     7
370
    30
100
AcDbPolyline
 90
       31
 70
   128
 43
0.0
 10
224.3754724893
 20
142.3553872149
 10
224.6435442705
 20
142.2300694551
 10
224.9508915616
 20
142.1396654682
 10
225.284081811
 20
142.0881263422
 10
225.6285530061
 20
142.0777045843
 10
225.9692501027
 20
142.1088556752
 10
226.2912830029
 20
142.1802181628
 10
226.5805773235
 20
142.288673164
 10
226.8244895147
 20
142.4294806748
 10
227.0123594432
 20
142.5964867313
 10
227.1359762917
 20
142.7823923674
 10
227.1899374106
 20
142.9790726148
 10
227.1718844403
 20
143.177931603
 10
227.082606382
 20
143.3702782397
 10
226.9260051154
 20
143.5477060542
 10
226.7089248673
 20
143.7024605994
 10
226.4408530861
 20
143.8277783592
 10
226.1335057951
 20
143.9181823461
 10
225.8003155456
 20
143.9697214721
 10
225.4558443505
 20
143.9801432301
 10
225.1151472539
 20
143.9489921392
 10
224.7931143537
 20
143.8776296515
 10
224.5038200331
 20
143.7691746503
 10
224.2599078419
 20
143.6283671396
 10
224.0720379134
 20
143.4613610831
 10
223.9484210649
 20
143.2754554469
 10
223.894459946
 20
143.0787751995
 10
223.9125129163
 20
142.8799162114
 10
224.0017909746
 20
142.6875695746
 10
224.1583922412
 20
142.5101417601
 10
224.3754724893
 20
142.3553872149
  0
LWPOLYLINE
  5
291
330
1F
100
AcDbEntity
  8
0
  6
Continuous
 62
     7
370
    30
100
AcDbPolyline
 90
       38
 70
   128
 43
0.0
 10
223.7744317253
 20
152.2135151652
 10
224.0986135089
 20
152.0557272237
 10
224.4643246094
 20
151.9318367728
 10
224.8610441844
 20
151.845407915
 10
225.277359334
 20
151.7989270513
 10
225.7012934294
 20
151.7937313515
 10
226.1206506584
 20
151.8299702863
 10
226.5233668772
 20
151.9066013278
 10
226.8978566732
 20
152.0214199401
 10
227.233346657
 20
152.1711230011
 10
227.5201853926
 20
152.3514038261
 10
227.7501210516
 20
152.5570760641
 10
227.916538804
 20
152.7822228992
 10
228.0146511139
 20
153.0203672669
 10
228.0416354687
 20
153.2646581874
 10
227.9967155779
 20
153.5080678556
 10
227.8811837047
 20
153.7435938186
 10
227.698363491
 20
153.9644604233
 10
227.4535143413
 20
154.1643137394
 10
227.1536801199
 20
154.3374043511
 10
226.8074865114
 20
154.4787527565
 10
226.4248928757
 20
154.5842926195
 10
226.016905735
 20
154.6509877502
 10
225.5952621366
 20
154.6769194512
 10
225.1720919992
 20
154.6613417147
 10
224.759569157
 20
154.6047026838
 10
224.3695611412
 20
154.5086317603
 10
224.0132877724
 20
154.3758927298
 10
223.7009983866
 20
154.2103042524
 10
223.441676981
 20
154.0166300072
 10
223.2427837602
 20
153.8004416496
 10
223.1100405201
 20
153.5679585251
 10
223.0472660419
 20
153.3258687498
 10
223.0562662332
 20
153.0811368058
 10
223.1367821748
 20
152.8408031856
 10
223.2864975697
 20
152.6117818498
 10
223.5011053785
 20
152.4006613253
 10
223.7744317253
 20
152.2135151652
  0
LWPOLYLINE
  5
292
330
1F
100
AcDbEntity
  8
0
  6
Continuous
 62
     7
370
    30
100
AcDbPolyline
 90
       38
 70
   128
 43
0.0
 10
241.452101255
 20
162.418616563
 10
241.7762830385
 20
162.2608286215
 10
242.141994139
 20
162.1369381706
 10
242.538713714
 20
162.0505093128
 10
242.9550288637
 20
162.0040284491
 10
243.378962959
 20
161.9988327493
 10
243.7983201881
 20
162.0350716841
 10
244.2010364068
 20
162.1117027255
 10
244.5755262029
 20
162.2265213379
 10
244.9110161867
 20
162.3762243989
 10
245.1978549222
 20
162.5565052239
 10
245.4277905813
 20
162.7621774619
 10
245.5942083336
 20
162.987324297
 10
245.6923206435
 20
163.2254686647
 10
245.7193049984
 20
163.4697595852
 10
245.6743851075
 20
163.7131692534
 10
245.5588532344
 20
163.9486952164
 10
245.3760330206
 20
164.169561821
 10
245.1311838709
 20
164.3694151372
 10
244.8313496495
 20
164.5425057489
 10
244.4851560411
 20
164.6838541543
 10
244.1025624053
 20
164.7893940173
 10
243.6945752647
 20
164.856089148
 10
243.2729316663
 20
164.882020849
 10
242.8497615288
 20
164.8664431125
 10
242.4372386867
 20
164.8098040816
 10
242.0472306709
 20
164.7137331581
 10
241.6909573021
 20
164.5809941276
 10
241.3786679163
 20
164.4154056502
 10
241.1193465107
 20
164.221731405
 10
240.9204532899
 20
164.0055430474
 10
240.7877100497
 20
163.7730599229
 10
240.7249355716
 20
163.5309701476
 10
240.7339357628
 20
163.2862382036
 10
240.8144517044
 20
163.0459045834
 10
240.9641670993
 20
162.8168832476
 10
241.1787749081
 20
162.6057627231
 10
241.452101255
 20
162.418616563
  0
LWPOLYLINE
  5
293
330
1F
100
AcDbEntity
  8
0
  6
Continuous
 62
     7
370
    30
100
AcDbPolyline
 90
       38
 70
   128
 43
0.0
 10
206.0967621957
 20
162.418616563
 10
206.4209439792
 20
162.2608286215
 10
206.7866550797
 20
162.1369381706
 10
207.1833746547
 20
162.0505093128
 10
207.5996898043
 20
162.0040284491
 10
208.0236238997
 20
161.9988327493
 10
208.4429811287
 20
162.0350716841
 10
208.8456973475
 20
162.1117027255
 10
209.2201871436
 20
162.2265213379
 10
209.5556771274
 20
162.3762243989
 10
209.8425158629
 20
162.5565052239
 10
210.072451522
 20
162.7621774619
 10
210.2388692743
 20
162.987324297
 10
210.3369815842
 20
163.2254686647
 10
210.3639659391
 20
163.4697595852
 10
210.3190460482
 20
163.7131692534
 10
210.2035141751
 20
163.9486952164
 10
210.0206939613
 20
164.169561821
 10
209.7758448116
 20
164.3694151372
 10
209.4760105902
 20
164.5425057489
 10
209.1298169817
 20
164.6838541543
 10
208.747223346
 20
164.7893940173
 10
208.3392362054
 20
164.856089148
 10
207.917592607
 20
164.882020849
 10
207.4944224695
 20
164.8664431125
 10
207.0818996273
 20
164.8098040816
 10
206.6918916116
 20
164.7137331581
 10
206.3356182427
 20
164.5809941276
 10
206.023328857
 20
164.4154056502
 10
205.7640074514
 20
164.221731405
 10
205.5651142305
 20
164.0055430474
 10
205.4323709904
 20
163.7730599229
 10
205.3695965122
 20
163.5309701476
 10
205.3785967035
 20
163.2862382036
 10
205.4591126451
 20
163.0459045834
 10
205.60882804
 20
162.8168832476
 10
205.8234358488
 20
162.6057627231
 10
206.0967621957
 20
162.418616563
  0
LWPOLYLINE
  5
294
330
1F
100
AcDbEntity
  8
0
  6
Continuous
 62
     7
370
    30
100
AcDbPolyline
 90
       38
 70
   128
 43
0.0
 10
206.0967621957
 20
142.0084137674
 10
206.4209439792
 20
141.850625826
 10
206.7866550797
 20
141.726735375
 10
207.1833746547
 20
141.6403065172
 10
207.5996898043
 20
141.5938256535
 10
208.0236238997
 20
141.5886299537
 10
208.4429811287
 20
141.6248688886
 10
208.8456973475
 20
141.70149993
 10
209.2201871436
 20
141.8163185424
 10
209.5556771274
 20
141.9660216033
 10
209.8425158629
 20
142.1463024283
 10
210.072451522
 20
142.3519746663
 10
210.2388692743
 20
142.5771215014
 10
210.3369815842
 20
142.8152658691
 10
210.3639659391
 20
143.0595567896
 10
210.3190460482
 20
143.3029664579
 10
210.2035141751
 20
143.5384924208
 10
210.0206939613
 20
143.7593590255
 10
209.7758448116
 20
143.9592123416
 10
209.4760105902
 20
144.1323029533
 10
209.1298169817
 20
144.2736513588
 10
208.747223346
 20
144.3791912217
 10
208.3392362054
 20
144.4458863524
 10
207.917592607
 20
144.4718180534
 10
207.4944224695
 20
144.4562403169
 10
207.0818996273
 20
144.399601286
 10
206.6918916116
 20
144.3035303625
 10
206.3356182427
 20
144.170791332
 10
206.023328857
 20
144.0052028546
 10
205.7640074514
 20
143.8115286094
 10
205.5651142305
 20
143.5953402519
 10
205.4323709904
 20
143.3628571273
 10
205.3695965122
 20
143.120767352
 10
205.3785967035
 20
142.876035408
 10
205.4591126451
 20
142.6357017878
 10
205.60882804
 20
142.406680452
 10
205.8234358488
 20
142.1955599275
 10
206.0967621957
 20
142.0084137674
  0
LWPOLYLINE
  5
295
330
1F
100
AcDbEntity
  8
0
  6
Continuous
 62
     7
370
    30
100
AcDbPolyline
 90
       38
 70
   128
 43
0.0
 10
241.452101255
 20
142.0084137674
 10
241.7762830385
 20
141.850625826
 10
242.141994139
 20
141.726735375
 10
242.538713714
 20
141.6403065172
 10
242.9550288637
 20
141.5938256535
 10
243.378962959
 20
141.5886299537
 10
243.7983201881
 20
141.6248688886
 10
244.2010364068
 20
141.70149993
 10
244.5755262029
 20
141.8163185424
 10
244.9110161867
 20
141.9660216033
 10
245.1978549222
 20
142.1463024283
 10
245.4277905813
 20
142.3519746663
 10
245.5942083336
 20
142.5771215014
 10
245.6923206435
 20
142.8152658691
 10
245.7193049984
 20
143.0595567896
 10
245.6743851075
 20
143.3029664579
 10
245.5588532344
 20
143.5384924208
 10
245.3760330206
 20
143.7593590255
 10
245.1311838709
 20
143.9592123416
 10
244.8313496495
 20
144.1323029533
 10
244.4851560411
 20
144.2736513588
 10
244.1025624053
 20
144.3791912217
 10
243.6945752647
 20
144.4458863524
 10
243.2729316663
 20
144.4718180534
 10
242.8497615288
 20
144.4562403169
 10
242.4372386867
 20
144.399601286
 10
242.0472306709
 20
144.3035303625
 10
241.6909573021
 20
144.170791332
 10
241.3786679163
 20
144.0052028546
 10
241.1193465107
 20
143.8115286094
 10
240.9204532899
 20
143.5953402519
 10
240.7877100497
 20
143.3628571273
 10
240.7249355716
 20
143.120767352
 10
240.7339357628
 20
142.876035408
 10
240.8144517044
 20
142.6357017878
 10
240.9641670993
 20
142.406680452
 10
241.1787749081
 20
142.1955599275
 10
241.452101255
 20
142.0084137674
  0
ARC
  5
296
330
1F
100
AcDbEntity
  8
0
  6
Continuous
 62
     7
370
    30
100
AcDbCircle
 10
225.5421986783
 20
131.0492152913
 30
0.0
 40
7.663084206650952
100
AcDbArc
 50
242.5243123925
 51
297.4756876075
  0
LINE
  5
297
330
1F
100
AcDbEntity
  8
0
  6
Continuous
 62
     7
370
    30
100
AcDbLine
 10
186.651325713
 20
144.6606785303
 30
0.0
 11
222.0066647724
 21
124.2504757347
 31
0.0
  0
LINE
  5
298
330
1F
100
AcDbEntity
  8
0
  6
Continuous
 62
     7
370
    30
100
AcDbLine
 10
229.0777325842
 20
124.2504757347
 30
0.0
 11
264.4330716436
 21
144.6606785303
 31
0.0
  0
ARC
  5
299
330
1F
100
AcDbEntity
  8
0
  6
Continuous
 62
     7
370
    30
100
AcDbCircle
 10
234.3810334431
 20
137.7756061032
 30
0.0
 40
8.645974491698786
100
AcDbArc
 50
66.1266707591
 51
113.8733292409
  0
ARC
  5
29A
330
1F
100
AcDbEntity
  8
0
  6
Continuous
 62
     7
370
    30
100
AcDbCircle
 10
216.7033639135
 20
137.7756061032
 30
0.0
 40
8.645974491699201
100
AcDbArc
 50
66.1266707591
 51
113.8733292409
  0
ARC
  5
29B
330
1F
100
AcDbEntity
  8
0
  6
Continuous
 62
     7
370
    30
100
AcDbCircle
 10
234.3810334431
 20
139.5889933873
 30
0.0
 40
5.549397732095329
100
AcDbArc
 50
78.3152715483
 51
101.6847284517
  0
ARC
  5
29C
330
1F
100
AcDbEntity
  8
0
  6
Continuous
 62
     7
370
    30
100
AcDbCircle
 10
216.7033639135
 20
139.5889933873
 30
0.0
 40
5.549397732095324
100
AcDbArc
 50
78.3152715483
 51
101.6847284517
  0
ARC
  5
29D
330
1F
100
AcDbEntity
  8
0
  6
Continuous
 62
     7
370
    30
100
AcDbCircle
 10
263.355367864
 20
146.9798485323
 30
0.0
 40
2.557341380101117
100
AcDbArc
 50
294.9239981559
 51
353.7558608865
  0
ARC
  5
29E
330
1F
100
AcDbEntity
  8
0
  6
Continuous
 62
     7
370
    30
100
AcDbCircle
 10
187.6040354959
 20
146.8901632548
 30
0.0
 40
2.42451192342239
100
AcDbArc
 50
184.4582669999
 51
246.8618739577
  0
ARC
  5
29F
330
1F
100
AcDbEntity
  8
0
  6
Continuous
 62
     7
370
    30
100
AcDbCircle
 10
234.3810334431
 20
147.980707501
 30
0.0
 40
8.64597449169916
100
AcDbArc
 50
66.1266707591
 51
113.8733292409
  0
ARC
  5
2A0
330
1F
100
AcDbEntity
  8
0
  6
Continuous
 62
     7
370
    30
100
AcDbCircle
 10
216.7033639135
 20
147.980707501
 30
0.0
 40
8.645974491699107
100
AcDbArc
 50
66.1266707591
 51
113.8733292409
  0
ARC
  5
2A1
330
1F
100
AcDbEntity
  8
0
  6
Continuous
 62
     7
370
    30
100
AcDbCircle
 10
234.3810334431
 20
149.7940947851
 30
0.0
 40
5.549397732088594
100
AcDbArc
 50
78.3152715483
 51
101.6847284517
  0
ARC
  5
2A2
330
1F
100
AcDbEntity
  8
0
  6
Continuous
 62
     7
370
    30
100
AcDbCircle
 10
216.7033639135
 20
149.7940947851
 30
0.0
 40
5.54939773209283
100
AcDbArc
 50
78.3152715483
 51
101.6847284517
  0
LINE
  5
2A3
330
1F
100
AcDbEntity
  8
0
  6
PHANTOM
 62
     8
370
     0
100
AcDbLine
 10
229.0777325842
 20
130.7828022298
 30
0.0
 11
229.0777325842
 21
124.2504757347
 31
0.0
  0
LINE
  5
2A4
330
1F
100
AcDbEntity
  8
0
  6
PHANTOM
 62
     8
370
     0
100
AcDbLine
 10
222.0066647724
 20
124.2504757347
 30
0.0
 11
222.0066647724
 21
130.7828022298
 31
0.0
  0
LINE
  5
2A5
330
1F
100
AcDbEntity
  8
0
  6
PHANTOM
 62
     8
370
     0
100
AcDbLine
 10
186.651325713
 20
151.1930050254
 30
0.0
 11
186.651325713
 21
144.6606785303
 31
0.0
  0
LINE
  5
2A6
330
1F
100
AcDbEntity
  8
0
  6
PHANTOM
 62
     8
370
     0
100
AcDbLine
 10
264.4330716436
 20
144.6606785303
 30
0.0
 11
264.4330716436
 21
151.1930050254
 31
0.0
  0
LWPOLYLINE
  5
2A7
330
1F
100
AcDbEntity
  8
0
  6
Continuous
 62
     7
370
     0
100
AcDbPolyline
 90
       38
 70
   128
 43
0.0
 10
263.0188465118
 20
152.0094131372
 10
262.629839941
 20
151.8200676075
 10
262.1909866203
 20
151.6713990664
 10
261.7149231303
 20
151.567684437
 10
261.2153449508
 20
151.5119074006
 10
260.7066240364
 20
151.5056725608
 10
260.2033953615
 20
151.5491592826
 10
259.720135899
 20
151.6411165323
 10
259.2707481437
 20
151.7788988672
 10
258.8681601631
 20
151.9585425403
 10
258.5239536805
 20
152.1748795303
 10
258.2480308896
 20
152.4216862159
 10
258.0483295868
 20
152.691862418
 10
257.930594815
 20
152.9776356593
 10
257.8982135891
 20
153.2707847639
 10
257.9521174581
 20
153.5628763658
 10
258.0907557059
 20
153.8455075214
 10
258.3101399624
 20
154.1105474469
 10
258.6039589421
 20
154.3503714263
 10
258.9637600078
 20
154.5580801603
 10
259.3791923379
 20
154.7276982469
 10
259.8383047008
 20
154.8543460824
 10
260.3278892696
 20
154.9343802392
 10
260.8338615876
 20
154.9654982805
 10
261.3416657526
 20
154.9468049967
 10
261.8366931632
 20
154.8788381596
 10
262.3047027821
 20
154.7635530514
 10
262.7322308247
 20
154.6042662147
 10
263.1069780876
 20
154.4055600419
 10
263.4181637744
 20
154.1731509477
 10
263.6568356393
 20
153.9137249186
 10
263.8161275275
 20
153.6347451691
 10
263.8914569013
 20
153.3442374388
 10
263.8806566718
 20
153.050559106
 10
263.7840375419
 20
152.7621587617
 10
263.604379068
 20
152.4873331588
 10
263.3468496974
 20
152.2339885294
 10
263.0188580812
 20
152.0094131372
  0
LWPOLYLINE
  5
2A8
330
1F
100
AcDbEntity
  8
0
  6
Continuous
 62
     7
370
     0
100
AcDbPolyline
 90
       38
 70
   128
 43
0.0
 10
227.6635169983
 20
131.5992103417
 10
227.2745008816
 20
131.4098648119
 10
226.835647561
 20
131.2611962708
 10
226.359584071
 20
131.1574816415
 10
225.8600058915
 20
131.101704605
 10
225.351284977
 20
131.0954697652
 10
224.8480563022
 20
131.1389564871
 10
224.3647968397
 20
131.2309137367
 10
223.9154090844
 20
131.3686960716
 10
223.5128211038
 20
131.5483397448
 10
223.1686146212
 20
131.7646767348
 10
222.8926918303
 20
132.0114834203
 10
222.6929905275
 20
132.2816596225
 10
222.5752557556
 20
132.5674328638
 10
222.5428745298
 20
132.8605819683
 10
222.5967783988
 20
133.1526735702
 10
222.7354166466
 20
133.4353047258
 10
222.9548009031
 20
133.7003446513
 10
223.2486198827
 20
133.9401686307
 10
223.6084209484
 20
134.1478773648
 10
224.0238532786
 20
134.3174954513
 10
224.4829656414
 20
134.4441432868
 10
224.9725502102
 20
134.5241774437
 10
225.4785225283
 20
134.5552954849
 10
225.9863266933
 20
134.5366022011
 10
226.4813541039
 20
134.468635364
 10
226.9493637228
 20
134.3533502558
 10
227.3768917654
 20
134.1940634192
 10
227.7516390283
 20
133.9953572463
 10
228.062824715
 20
133.7629481521
 10
228.30149658
 20
133.503522123
 10
228.4607884682
 20
133.2245423736
 10
228.536117842
 20
132.9340346432
 10
228.5253176124
 20
132.6403563104
 10
228.4286984825
 20
132.3519559661
 10
228.2490400087
 20
132.0771303632
 10
227.9915106381
 20
131.8237857338
 10
227.6635190219
 20
131.5992103417
  0
LWPOLYLINE
  5
2A9
330
1F
100
AcDbEntity
  8
0
  6
Continuous
 62
     7
370
     0
100
AcDbPolyline
 90
       38
 70
   128
 43
0.0
 10
192.3080682755
 20
152.0094131372
 10
191.9191618223
 20
151.8200676075
 10
191.4803085017
 20
151.6713990664
 10
191.0042450117
 20
151.567684437
 10
190.5046668321
 20
151.5119074006
 10
189.9959459177
 20
151.5056725608
 10
189.4927172429
 20
151.5491592826
 10
189.0094577803
 20
151.6411165323
 10
188.560070025
 20
151.7788988672
 10
188.1574820445
 20
151.9585425403
 10
187.8132755618
 20
152.1748795303
 10
187.537352771
 20
152.4216862159
 10
187.3376514682
 20
152.691862418
 10
187.2199166963
 20
152.9776356593
 10
187.1875354704
 20
153.2707847639
 10
187.2414393395
 20
153.5628763658
 10
187.3800775872
 20
153.8455075214
 10
187.5994618438
 20
154.1105474469
 10
187.8932808234
 20
154.3503714263
 10
188.2530818891
 20
154.5580801603
 10
188.6685142193
 20
154.7276982469
 10
189.1276265821
 20
154.8543460824
 10
189.6172111509
 20
154.9343802392
 10
190.123183469
 20
154.9654982805
 10
190.6309876339
 20
154.9468049967
 10
191.1260150445
 20
154.8788381596
 10
191.5940246634
 20
154.7635530514
 10
192.0215527061
 20
154.6042662147
 10
192.396299969
 20
154.4055600419
 10
192.7074856557
 20
154.1731509477
 10
192.9461575207
 20
153.9137249186
 10
193.1054494089
 20
153.6347451691
 10
193.1807787827
 20
153.3442374388
 10
193.1699785531
 20
153.050559106
 10
193.0733594232
 20
152.7621587617
 10
192.8937009493
 20
152.4873331588
 10
192.6361715788
 20
152.2339885294
 10
192.3081799625
 20
152.0094131372
  0
LWPOLYLINE
  5
2AA
330
1F
100
AcDbEntity
  8
0
  6
Continuous
 62
     7
370
     0
100
AcDbPolyline
 90
       38
 70
   128
 43
0.0
 10
227.6635169983
 20
172.4196159328
 10
227.2745008816
 20
172.2302704031
 10
226.835647561
 20
172.0816018619
 10
226.359584071
 20
171.9778872326
 10
225.8600058915
 20
171.9221101961
 10
225.351284977
 20
171.9158753563
 10
224.8480563022
 20
171.9593620782
 10
224.3647968397
 20
172.0513193279
 10
223.9154090844
 20
172.1891016627
 10
223.5128211038
 20
172.3687453359
 10
223.1686146212
 20
172.5850823259
 10
222.8926918303
 20
172.8318890115
 10
222.6929905275
 20
173.1020652136
 10
222.5752557556
 20
173.3878384549
 10
222.5428745298
 20
173.6809875595
 10
222.5967783988
 20
173.9730791613
 10
222.7354166466
 20
174.2557103169
 10
222.9548009031
 20
174.5207502425
 10
223.2486198827
 20
174.7605742219
 10
223.6084209484
 20
174.9682829559
 10
224.0238532786
 20
175.1379010424
 10
224.4829656414
 20
175.2645488779
 10
224.9725502102
 20
175.3445830348
 10
225.4785225283
 20
175.375701076
 10
225.9863266933
 20
175.3570077922
 10
226.4813541039
 20
175.2890409552
 10
226.9493637228
 20
175.173755847
 10
227.3768917654
 20
175.0144690103
 10
227.7516390283
 20
174.8157628375
 10
228.062824715
 20
174.5833537432
 10
228.30149658
 20
174.3239277141
 10
228.4607884682
 20
174.0449479647
 10
228.536117842
 20
173.7544402343
 10
228.5253176124
 20
173.4607619016
 10
228.4286984825
 20
173.1723615573
 10
228.2490400087
 20
172.8975359543
 10
227.9915106381
 20
172.6441913249
 10
227.6635190219
 20
172.4196159328
  0
LWPOLYLINE
  5
2AB
330
1F
100
AcDbEntity
  8
0
  6
Continuous
 62
     7
370
     0
100
AcDbPolyline
 90
       31
 70
   128
 43
0.0
 10
244.6340322495
 20
152.4176171931
 10
244.309146278
 20
152.2657168782
 10
243.9366041071
 20
152.156136288
 10
243.532737138
 20
152.0936646202
 10
243.1151962955
 20
152.0810321863
 10
242.7022301178
 20
152.1187910843
 10
242.3118872085
 20
152.2052910693
 10
241.9612274259
 20
152.3367516769
 10
241.6655762851
 20
152.5074274475
 10
241.4378551596
 20
152.7098590311
 10
241.2880165554
 20
152.9351991962
 10
241.2226091385
 20
153.1735994961
 10
241.2444915268
 20
153.4146406938
 10
241.352707355
 20
153.6477881323
 10
241.5425270721
 20
153.8628521498
 10
241.8056546456
 20
154.0504334168
 10
242.1305901379
 20
154.2023337317
 10
242.5031323089
 20
154.3119143219
 10
242.9069992779
 20
154.3743859897
 10
243.3245401205
 20
154.3870184236
 10
243.7375062982
 20
154.3492595256
 10
244.1278492074
 20
154.2627595406
 10
244.4785089901
 20
154.131298933
 10
244.7741601309
 20
153.9606231624
 10
245.0018812563
 20
153.7581915788
 10
245.1517198605
 20
153.5328514137
 10
245.2171272775
 20
153.2944511138
 10
245.1952448892
 20
153.0534099161
 10
245.087029061
 20
152.8202624776
 10
244.8972093439
 20
152.6051984601
 10
244.6340817703
 20
152.4176171931
  0
LWPOLYLINE
  5
2AC
330
1F
100
AcDbEntity
  8
0
  6
Continuous
 62
     7
370
     0
100
AcDbPolyline
 90
       31
 70
   128
 43
0.0
 10
226.9563674927
 20
162.6227185909
 10
226.6314767483
 20
162.470818276
 10
226.2589345774
 20
162.3612376858
 10
225.8550676084
 20
162.2987660179
 10
225.4375267658
 20
162.2861335841
 10
225.0245605881
 20
162.3238924821
 10
224.6342176788
 20
162.4103924671
 10
224.2835578962
 20
162.5418530746
 10
223.9879067554
 20
162.7125288453
 10
223.7601856299
 20
162.9149604289
 10
223.6103470257
 20
163.140300594
 10
223.5449396088
 20
163.3787008939
 10
223.5668219971
 20
163.6197420916
 10
223.6750378253
 20
163.8528895301
 10
223.8648575424
 20
164.0679535476
 10
224.1279851159
 20
164.2555348146
 10
224.4529206083
 20
164.4074351295
 10
224.8254627792
 20
164.5170157197
 10
225.2293297482
 20
164.5794873875
 10
225.6468705908
 20
164.5921198214
 10
226.0598367685
 20
164.5543609233
 10
226.4501796778
 20
164.4678609383
 10
226.8008394604
 20
164.3364003308
 10
227.0964906012
 20
164.1657245602
 10
227.3242117267
 20
163.9632929765
 10
227.4740503309
 20
163.7379528115
 10
227.5394577478
 20
163.4995525116
 10
227.5175753595
 20
163.2585113139
 10
227.4093595313
 20
163.0253638754
 10
227.2195398142
 20
162.8102998579
 10
226.9564122407
 20
162.6227185909
  0
LWPOLYLINE
  5
2AD
330
1F
100
AcDbEntity
  8
0
  6
Continuous
 62
     7
370
     0
100
AcDbPolyline
 90
       31
 70
   128
 43
0.0
 10
209.2787027359
 20
152.4176171931
 10
208.9538072187
 20
152.2657168782
 10
208.5812650477
 20
152.156136288
 10
208.1773980787
 20
152.0936646202
 10
207.7598572362
 20
152.0810321863
 10
207.3468910584
 20
152.1187910843
 10
206.9565481492
 20
152.2052910693
 10
206.6058883665
 20
152.3367516769
 10
206.3102372257
 20
152.5074274475
 10
206.0825161003
 20
152.7098590311
 10
205.9326774961
 20
152.9351991962
 10
205.8672700791
 20
153.1735994961
 10
205.8891524674
 20
153.4146406938
 10
205.9973682956
 20
153.6477881323
 10
206.1871880127
 20
153.8628521498
 10
206.4503155863
 20
154.0504334168
 10
206.7752510786
 20
154.2023337317
 10
207.1477932495
 20
154.3119143219
 10
207.5516602186
 20
154.3743859897
 10
207.9692010611
 20
154.3870184236
 10
208.3821672388
 20
154.3492595256
 10
208.7725101481
 20
154.2627595406
 10
209.1231699307
 20
154.131298933
 10
209.4188210716
 20
153.9606231624
 10
209.646542197
 20
153.7581915788
 10
209.7963808012
 20
153.5328514137
 10
209.8617882181
 20
153.2944511138
 10
209.8399058298
 20
153.0534099161
 10
209.7316900016
 20
152.8202624776
 10
209.5418702845
 20
152.6051984601
 10
209.278742711
 20
152.4176171931
  0
LWPOLYLINE
  5
2AE
330
1F
100
AcDbEntity
  8
0
  6
Continuous
 62
     7
370
     0
100
AcDbPolyline
 90
       31
 70
   128
 43
0.0
 10
226.9563674927
 20
142.2125157953
 10
226.6314767483
 20
142.0606154804
 10
226.2589345774
 20
141.9510348902
 10
225.8550676084
 20
141.8885632224
 10
225.4375267658
 20
141.8759307885
 10
225.0245605881
 20
141.9136896866
 10
224.6342176788
 20
142.0001896716
 10
224.2835578962
 20
142.1316502791
 10
223.9879067554
 20
142.3023260497
 10
223.7601856299
 20
142.5047576334
 10
223.6103470257
 20
142.7300977984
 10
223.5449396088
 20
142.9684980983
 10
223.5668219971
 20
143.209539296
 10
223.6750378253
 20
143.4426867345
 10
223.8648575424
 20
143.657750752
 10
224.1279851159
 20
143.845332019
 10
224.4529206083
 20
143.9972323339
 10
224.8254627792
 20
144.1068129241
 10
225.2293297482
 20
144.169284592
 10
225.6468705908
 20
144.1819170258
 10
226.0598367685
 20
144.1441581278
 10
226.4501796778
 20
144.0576581428
 10
226.8008394604
 20
143.9261975353
 10
227.0964906012
 20
143.7555217646
 10
227.3242117267
 20
143.553090181
 10
227.4740503309
 20
143.327750016
 10
227.5394577478
 20
143.089349716
 10
227.5175753595
 20
142.8483085183
 10
227.4093595313
 20
142.6151610798
 10
227.2195398142
 20
142.4000970623
 10
226.9564122407
 20
142.2125157953
  0
LWPOLYLINE
  5
2AF
330
1F
100
AcDbEntity
  8
0
  6
Continuous
 62
     7
370
     0
100
AcDbPolyline
 90
       38
 70
   128
 43
0.0
 10
227.6635169983
 20
152.0094131372
 10
227.2745008816
 20
151.8200676075
 10
226.835647561
 20
151.6713990664
 10
226.359584071
 20
151.567684437
 10
225.8600058915
 20
151.5119074006
 10
225.351284977
 20
151.5056725608
 10
224.8480563022
 20
151.5491592826
 10
224.3647968397
 20
151.6411165323
 10
223.9154090844
 20
151.7788988672
 10
223.5128211038
 20
151.9585425403
 10
223.1686146212
 20
152.1748795303
 10
222.8926918303
 20
152.4216862159
 10
222.6929905275
 20
152.691862418
 10
222.5752557556
 20
152.9776356593
 10
222.5428745298
 20
153.2707847639
 10
222.5967783988
 20
153.5628763658
 10
222.7354166466
 20
153.8455075214
 10
222.9548009031
 20
154.1105474469
 10
223.2486198827
 20
154.3503714263
 10
223.6084209484
 20
154.5580801603
 10
224.0238532786
 20
154.7276982469
 10
224.4829656414
 20
154.8543460824
 10
224.9725502102
 20
154.9343802392
 10
225.4785225283
 20
154.9654982805
 10
225.9863266933
 20
154.9468049967
 10
226.4813541039
 20
154.8788381596
 10
226.9493637228
 20
154.7635530514
 10
227.3768917654
 20
154.6042662147
 10
227.7516390283
 20
154.4055600419
 10
228.062824715
 20
154.1731509477
 10
228.30149658
 20
153.9137249186
 10
228.4607884682
 20
153.6347451691
 10
228.536117842
 20
153.3442374388
 10
228.5253176124
 20
153.050559106
 10
228.4286984825
 20
152.7621587617
 10
228.2490400087
 20
152.4873331588
 10
227.9915106381
 20
152.2339885294
 10
227.6635190219
 20
152.0094131372
  0
LWPOLYLINE
  5
2B0
330
1F
100
AcDbEntity
  8
0
  6
Continuous
 62
     7
370
     0
100
AcDbPolyline
 90
       38
 70
   128
 43
0.0
 10
245.3411817551
 20
162.214514535
 10
244.9521704113
 20
162.0251690053
 10
244.5133170907
 20
161.8765004641
 10
244.0372536007
 20
161.7727858348
 10
243.5376754211
 20
161.7170087984
 10
243.0289545067
 20
161.7107739586
 10
242.5257258318
 20
161.7542606804
 10
242.0424663693
 20
161.8462179301
 10
241.593078614
 20
161.984000265
 10
241.1904906335
 20
162.1636439381
 10
240.8462841508
 20
162.3799809281
 10
240.57036136
 20
162.6267876137
 10
240.3706600572
 20
162.8969638158
 10
240.2529252853
 20
163.1827370571
 10
240.2205440594
 20
163.4758861617
 10
240.2744479285
 20
163.7679777636
 10
240.4130861762
 20
164.0506089191
 10
240.6324704328
 20
164.3156488447
 10
240.9262894124
 20
164.5554728241
 10
241.2860904781
 20
164.7631815581
 10
241.7015228082
 20
164.9327996446
 10
242.1606351711
 20
165.0594474802
 10
242.6502197399
 20
165.139481637
 10
243.156192058
 20
165.1705996782
 10
243.6639962229
 20
165.1519063944
 10
244.1590236335
 20
165.0839395574
 10
244.6270332524
 20
164.9686544492
 10
245.054561295
 20
164.8093676125
 10
245.4293085579
 20
164.6106614397
 10
245.7404942447
 20
164.3782523455
 10
245.9791661097
 20
164.1188263164
 10
246.1384579979
 20
163.8398465669
 10
246.2137873716
 20
163.5493388366
 10
246.2029871421
 20
163.2556605038
 10
246.1063680122
 20
162.9672601595
 10
245.9267095383
 20
162.6924345565
 10
245.6691801677
 20
162.4390899271
 10
245.3411885515
 20
162.214514535
  0
LWPOLYLINE
  5
2B1
330
1F
100
AcDbEntity
  8
0
  6
Continuous
 62
     7
370
     0
100
AcDbPolyline
 90
       38
 70
   128
 43
0.0
 10
209.9857330322
 20
162.214514535
 10
209.596831352
 20
162.0251690053
 10
209.1579780313
 20
161.8765004641
 10
208.6819145413
 20
161.7727858348
 10
208.1823363618
 20
161.7170087984
 10
207.6736154474
 20
161.7107739586
 10
207.1703867725
 20
161.7542606804
 10
206.68712731
 20
161.8462179301
 10
206.2377395547
 20
161.984000265
 10
205.8351515741
 20
162.1636439381
 10
205.4909450915
 20
162.3799809281
 10
205.2150223006
 20
162.6267876137
 10
205.0153209978
 20
162.8969638158
 10
204.897586226
 20
163.1827370571
 10
204.8652050001
 20
163.4758861617
 10
204.9191088691
 20
163.7679777636
 10
205.0577471169
 20
164.0506089191
 10
205.2771313734
 20
164.3156488447
 10
205.5709503531
 20
164.5554728241
 10
205.9307514188
 20
164.7631815581
 10
206.3461837489
 20
164.9327996446
 10
206.8052961118
 20
165.0594474802
 10
207.2948806806
 20
165.139481637
 10
207.8008529986
 20
165.1705996782
 10
208.3086571636
 20
165.1519063944
 10
208.8036845742
 20
165.0839395574
 10
209.2716941931
 20
164.9686544492
 10
209.6992222357
 20
164.8093676125
 10
210.0739694986
 20
164.6106614397
 10
210.3851551854
 20
164.3782523455
 10
210.6238270504
 20
164.1188263164
 10
210.7831189385
 20
163.8398465669
 10
210.8584483123
 20
163.5493388366
 10
210.8476480828
 20
163.2556605038
 10
210.7510289529
 20
162.9672601595
 10
210.571370479
 20
162.6924345565
 10
210.3138411084
 20
162.4390899271
 10
209.9858494922
 20
162.214514535
  0
LWPOLYLINE
  5
2B2
330
1F
100
AcDbEntity
  8
0
  6
Continuous
 62
     7
370
     0
100
AcDbPolyline
 90
       38
 70
   128
 43
0.0
 10
209.9857330322
 20
141.8043117394
 10
209.596831352
 20
141.6149662097
 10
209.1579780313
 20
141.4662976686
 10
208.6819145413
 20
141.3625830393
 10
208.1823363618
 20
141.3068060028
 10
207.6736154474
 20
141.300571163
 10
207.1703867725
 20
141.3440578848
 10
206.68712731
 20
141.4360151345
 10
206.2377395547
 20
141.5737974694
 10
205.8351515741
 20
141.7534411425
 10
205.4909450915
 20
141.9697781326
 10
205.2150223006
 20
142.2165848181
 10
205.0153209978
 20
142.4867610203
 10
204.897586226
 20
142.7725342615
 10
204.8652050001
 20
143.0656833661
 10
204.9191088691
 20
143.357774968
 10
205.0577471169
 20
143.6404061236
 10
205.2771313734
 20
143.9054460491
 10
205.5709503531
 20
144.1452700285
 10
205.9307514188
 20
144.3529787625
 10
206.3461837489
 20
144.5225968491
 10
206.8052961118
 20
144.6492446846
 10
207.2948806806
 20
144.7292788414
 10
207.8008529986
 20
144.7603968827
 10
208.3086571636
 20
144.7417035989
 10
208.8036845742
 20
144.6737367618
 10
209.2716941931
 20
144.5584516536
 10
209.6992222357
 20
144.3991648169
 10
210.0739694986
 20
144.2004586441
 10
210.3851551854
 20
143.9680495499
 10
210.6238270504
 20
143.7086235208
 10
210.7831189385
 20
143.4296437713
 10
210.8584483123
 20
143.139136041
 10
210.8476480828
 20
142.8454577082
 10
210.7510289529
 20
142.5570573639
 10
210.571370479
 20
142.282231761
 10
210.3138411084
 20
142.0288871316
 10
209.9858494922
 20
141.8043117394
  0
LWPOLYLINE
  5
2B3
330
1F
100
AcDbEntity
  8
0
  6
Continuous
 62
     7
370
     0
100
AcDbPolyline
 90
       38
 70
   128
 43
0.0
 10
245.3411817551
 20
141.8043117394
 10
244.9521704113
 20
141.6149662097
 10
244.5133170907
 20
141.4662976686
 10
244.0372536007
 20
141.3625830393
 10
243.5376754211
 20
141.3068060028
 10
243.0289545067
 20
141.300571163
 10
242.5257258318
 20
141.3440578848
 10
242.0424663693
 20
141.4360151345
 10
241.593078614
 20
141.5737974694
 10
241.1904906335
 20
141.7534411425
 10
240.8462841508
 20
141.9697781326
 10
240.57036136
 20
142.2165848181
 10
240.3706600572
 20
142.4867610203
 10
240.2529252853
 20
142.7725342615
 10
240.2205440594
 20
143.0656833661
 10
240.2744479285
 20
143.357774968
 10
240.4130861762
 20
143.6404061236
 10
240.6324704328
 20
143.9054460491
 10
240.9262894124
 20
144.1452700285
 10
241.2860904781
 20
144.3529787625
 10
241.7015228082
 20
144.5225968491
 10
242.1606351711
 20
144.6492446846
 10
242.6502197399
 20
144.7292788414
 10
243.156192058
 20
144.7603968827
 10
243.6639962229
 20
144.7417035989
 10
244.1590236335
 20
144.6737367618
 10
244.6270332524
 20
144.5584516536
 10
245.054561295
 20
144.3991648169
 10
245.4293085579
 20
144.2004586441
 10
245.7404942447
 20
143.9680495499
 10
245.9791661097
 20
143.7086235208
 10
246.1384579979
 20
143.4296437713
 10
246.2137873716
 20
143.139136041
 10
246.2029871421
 20
142.8454577082
 10
246.1063680122
 20
142.5570573639
 10
245.9267095383
 20
142.282231761
 10
245.6691801677
 20
142.0288871316
 10
245.3411885515
 20
141.8043117394
  0
LINE
  5
2B4
330
1F
100
AcDbEntity
  8
0
  6
Continuous
 62
     7
370
    30
100
AcDbLine
 10
69.4132957305
 20
45.1995336103
 30
0.0
 11
119.4132957305
 21
45.1995336103
 31
0.0
  0
LINE
  5
2B5
330
1F
100
AcDbEntity
  8
0
  6
Continuous
 62
     7
370
    30
100
AcDbLine
 10
69.4132957305
 20
53.1995336103
 30
0.0
 11
119.4132957305
 21
53.1995336103
 31
0.0
  0
LINE
  5
2B6
330
1F
100
AcDbEntity
  8
0
  6
Continuous
 62
     7
370
    30
100
AcDbLine
 10
69.4132957305
 20
45.1995336103
 30
0.0
 11
64.4132957305
 21
45.1995336103
 31
0.0
  0
LINE
  5
2B7
330
1F
100
AcDbEntity
  8
0
  6
Continuous
 62
     7
370
    30
100
AcDbLine
 10
64.4132957305
 20
45.1995336103
 30
0.0
 11
64.4132957305
 21
53.1995336103
 31
0.0
  0
LINE
  5
2B8
330
1F
100
AcDbEntity
  8
0
  6
Continuous
 62
     7
370
    30
100
AcDbLine
 10
64.4132957305
 20
53.1995336103
 30
0.0
 11
69.4132957305
 21
53.1995336103
 31
0.0
  0
LINE
  5
2B9
330
1F
100
AcDbEntity
  8
0
  6
Continuous
 62
     7
370
    30
100
AcDbLine
 10
124.4132957305
 20
53.1995336103
 30
0.0
 11
124.4132957305
 21
45.1995336103
 31
0.0
  0
LINE
  5
2BA
330
1F
100
AcDbEntity
  8
0
  6
Continuous
 62
     7
370
    30
100
AcDbLine
 10
124.4132957305
 20
45.1995336103
 30
0.0
 11
119.4132957305
 21
45.1995336103
 31
0.0
  0
LINE
  5
2BB
330
1F
100
AcDbEntity
  8
0
  6
Continuous
 62
     7
370
    30
100
AcDbLine
 10
119.4132957305
 20
53.1995336103
 30
0.0
 11
124.4132957305
 21
53.1995336103
 31
0.0
  0
LINE
  5
2BC
330
1F
100
AcDbEntity
  8
0
  6
PHANTOM
 62
     8
370
     0
100
AcDbLine
 10
119.4132957305
 20
45.1995336103
 30
0.0
 11
119.4132957305
 21
53.1995336103
 31
0.0
  0
LINE
  5
2BD
330
1F
100
AcDbEntity
  8
0
  6
PHANTOM
 62
     8
370
     0
100
AcDbLine
 10
69.4132957305
 20
53.1995336103
 30
0.0
 11
69.4132957305
 21
45.1995336103
 31
0.0
  0
DIMENSION
  5
2BE
330
1F
100
AcDbEntity
  8
SLD-0
 62
     7
100
AcDbDimension
  2
_D_13
 10
135.5148892115
 20
45.1995336103
 30
0.0
 11
135.5148892115
 21
49.1995336103
 31
0.0
 70
   160
  1
<>
 71
     2
 42
-1.0
  3
SLDDIMSTYLE0
100
AcDbAlignedDimension
 13
124.4132957305
 23
53.1995336103
 33
0.0
 14
124.4132957305
 24
45.1995336103
 34
0.0
 50
90.0
100
AcDbRotatedDimension
  0
ENDSEC
  0
SECTION
  2
OBJECTS
  0
DICTIONARY
  5
C
330
0
100
AcDbDictionary
281
     1
  3
ACAD_GROUP
350
D
  3
ACAD_LAYOUT
350
1A
  3
ACAD_MLINESTYLE
350
17
  3
ACAD_PLOTSETTINGS
350
19
  3
ACAD_PLOTSTYLENAME
350
E
  3
ACAD_SCALELIST
350
47
  0
DICTIONARY
  5
D
102
{ACAD_REACTORS
330
C
102
}
330
C
100
AcDbDictionary
281
     1
  0
DICTIONARY
  5
1A
102
{ACAD_REACTORS
330
C
102
}
330
C
100
AcDbDictionary
281
     1
  3
Layout1
350
1E
  3
Layout2
350
26
  3
Model
350
22
  0
DICTIONARY
  5
17
102
{ACAD_REACTORS
330
C
102
}
330
C
100
AcDbDictionary
281
     1
  3
Standard
350
18
  0
DICTIONARY
  5
19
102
{ACAD_REACTORS
330
C
102
}
330
C
100
AcDbDictionary
281
     1
  0
ACDBDICTIONARYWDFLT
  5
E
102
{ACAD_REACTORS
330
C
102
}
330
C
100
AcDbDictionary
281
     1
  3
Normal
350
F
100
AcDbDictionaryWithDefault
340
F
  0
DICTIONARY
  5
47
102
{ACAD_REACTORS
330
C
102
}
330
C
100
AcDbDictionary
281
     1
  3
A0
350
48
  3
A1
350
49
  3
A2
350
4A
  3
A3
350
4B
  3
A4
350
4C
  3
A5
350
4D
  3
A6
350
4E
  3
A7
350
4F
  3
A8
350
50
  3
A9
350
51
  3
B0
350
52
  3
B1
350
53
  3
B2
350
54
  3
B3
350
55
  3
B4
350
56
  3
B5
350
57
  3
B6
350
58
  3
B7
350
59
  3
B8
350
5A
  3
B9
350
5B
  3
C0
350
5C
  3
C1
350
5D
  3
C2
350
5E
  3
C3
350
5F
  3
C4
350
60
  3
C5
350
61
  3
C6
350
62
  3
C7
350
63
  3
C8
350
64
  3
C9
350
65
  3
D0
350
66
  3
D1
350
67
  3
D2
350
68
  0
LAYOUT
  5
1E
102
{ACAD_REACTORS
330
1A
102
}
330
1A
100
AcDbPlotSettings
  1

  2
none_device
  4

  6

 40
0.0
 41
0.0
 42
0.0
 43
0.0
 44
0.0
 45
0.0
 46
0.0
 47
0.0
 48
0.0
 49
0.0
140
0.0
141
0.0
142
1.0
143
1.0
 70
   688
 72
     1
 73
     0
 74
     5
  7

 75
    16
147
1.0
148
0.0
149
0.0
100
AcDbLayout
  1
Layout1
 70
     1
 71
     1
 10
0.0
 20
0.0
 11
420.0
 21
297.0
 12
0.0
 22
0.0
 32
0.0
 14
1.0000000000E+20
 24
1.0000000000E+20
 34
1.0000000000E+20
 15
-1.0000000000E+20
 25
-1.0000000000E+20
 35
-1.0000000000E+20
146
0.0
 13
0.0
 23
0.0
 33
0.0
 16
1.0
 26
0.0
 36
0.0
 17
0.0
 27
1.0
 37
0.0
 76
     0
330
1B
  0
LAYOUT
  5
26
102
{ACAD_REACTORS
330
1A
102
}
330
1A
100
AcDbPlotSettings
  1

  2
none_device
  4

  6

 40
0.0
 41
0.0
 42
0.0
 43
0.0
 44
0.0
 45
0.0
 46
0.0
 47
0.0
 48
0.0
 49
0.0
140
0.0
141
0.0
142
1.0
143
1.0
 70
   688
 72
     1
 73
     0
 74
     5
  7

 75
    16
147
1.0
148
0.0
149
0.0
100
AcDbLayout
  1
Layout2
 70
     1
 71
     2
 10
0.0
 20
0.0
 11
0.0
 21
0.0
 12
0.0
 22
0.0
 32
0.0
 14
0.0
 24
0.0
 34
0.0
 15
0.0
 25
0.0
 35
0.0
146
0.0
 13
0.0
 23
0.0
 33
0.0
 16
1.0
 26
0.0
 36
0.0
 17
0.0
 27
1.0
 37
0.0
 76
     0
330
23
  0
LAYOUT
  5
22
102
{ACAD_REACTORS
330
1A
102
}
330
1A
100
AcDbPlotSettings
  1

  2
none_device
  4
Letter_(8.50_x_11.00_Inches)
  6

 40
6.35
 41
6.35
 42
6.35000508
 43
6.35000508
 44
215.9
 45
279.4
 46
0.0
 47
0.0
 48
0.0
 49
0.0
140
0.0
141
0.0
142
1.0
143
1.0
 70
  1712
 72
     1
 73
     0
 74
     0
  7

 75
     0
147
1.0
148
0.0
149
0.0
100
AcDbLayout
  1
Model
 70
     1
 71
     0
 10
0.0
 20
0.0
 11
297.0
 21
210.0
 12
0.0
 22
0.0
 32
0.0
 14
0.0
 24
0.0
 34
0.0
 15
297.0
 25
210.0
 35
0.0
146
0.0
 13
0.0
 23
0.0
 33
0.0
 16
1.0
 26
0.0
 36
0.0
 17
0.0
 27
1.0
 37
0.0
 76
     0
330
1F
331
29
  0
MLINESTYLE
  5
18
102
{ACAD_REACTORS
330
17
102
}
330
17
100
AcDbMlineStyle
  2
Standard
 70
     0
  3

 62
   256
 51
90.0
 52
90.0
 71
     2
 49
0.5
 62
   256
  6
BYLAYER
 49
-0.5
 62
   256
  6
BYLAYER
  0
ACDBPLACEHOLDER
  5
F
102
{ACAD_REACTORS
330
E
102
}
330
E
  0
SCALE
  5
48
102
{ACAD_REACTORS
330
47
102
}
330
47
100
AcDbScale
 70
     0
300
1:1
140
1.0
141
1.0
290
     1
  0
SCALE
  5
49
102
{ACAD_REACTORS
330
47
102
}
330
47
100
AcDbScale
 70
     0
300
1:2
140
1.0
141
2.0
290
     0
  0
SCALE
  5
4A
102
{ACAD_REACTORS
330
47
102
}
330
47
100
AcDbScale
 70
     0
300
1:4
140
1.0
141
4.0
290
     0
  0
SCALE
  5
4B
102
{ACAD_REACTORS
330
47
102
}
330
47
100
AcDbScale
 70
     0
300
1:5
140
1.0
141
5.0
290
     0
  0
SCALE
  5
4C
102
{ACAD_REACTORS
330
47
102
}
330
47
100
AcDbScale
 70
     0
300
1:8
140
1.0
141
8.0
290
     0
  0
SCALE
  5
4D
102
{ACAD_REACTORS
330
47
102
}
330
47
100
AcDbScale
 70
     0
300
1:10
140
1.0
141
10.0
290
     0
  0
SCALE
  5
4E
102
{ACAD_REACTORS
330
47
102
}
330
47
100
AcDbScale
 70
     0
300
1:16
140
1.0
141
16.0
290
     0
  0
SCALE
  5
4F
102
{ACAD_REACTORS
330
47
102
}
330
47
100
AcDbScale
 70
     0
300
1:20
140
1.0
141
20.0
290
     0
  0
SCALE
  5
50
102
{ACAD_REACTORS
330
47
102
}
330
47
100
AcDbScale
 70
     0
300
1:30
140
1.0
141
30.0
290
     0
  0
SCALE
  5
51
102
{ACAD_REACTORS
330
47
102
}
330
47
100
AcDbScale
 70
     0
300
1:40
140
1.0
141
40.0
290
     0
  0
SCALE
  5
52
102
{ACAD_REACTORS
330
47
102
}
330
47
100
AcDbScale
 70
     0
300
1:50
140
1.0
141
50.0
290
     0
  0
SCALE
  5
53
102
{ACAD_REACTORS
330
47
102
}
330
47
100
AcDbScale
 70
     0
300
1:100
140
1.0
141
100.0
290
     0
  0
SCALE
  5
54
102
{ACAD_REACTORS
330
47
102
}
330
47
100
AcDbScale
 70
     0
300
2:1
140
2.0
141
1.0
290
     0
  0
SCALE
  5
55
102
{ACAD_REACTORS
330
47
102
}
330
47
100
AcDbScale
 70
     0
300
4:1
140
4.0
141
1.0
290
     0
  0
SCALE
  5
56
102
{ACAD_REACTORS
330
47
102
}
330
47
100
AcDbScale
 70
     0
300
8:1
140
8.0
141
1.0
290
     0
  0
SCALE
  5
57
102
{ACAD_REACTORS
330
47
102
}
330
47
100
AcDbScale
 70
     0
300
10:1
140
10.0
141
1.0
290
     0
  0
SCALE
  5
58
102
{ACAD_REACTORS
330
47
102
}
330
47
100
AcDbScale
 70
     0
300
100:1
140
100.0
141
1.0
290
     0
  0
SCALE
  5
59
102
{ACAD_REACTORS
330
47
102
}
330
47
100
AcDbScale
 70
     0
300
1/128" = 1'-0"
140
0.0078125
141
12.0
290
     0
  0
SCALE
  5
5A
102
{ACAD_REACTORS
330
47
102
}
330
47
100
AcDbScale
 70
     0
300
1/64" = 1'-0"
140
0.015625
141
12.0
290
     0
  0
SCALE
  5
5B
102
{ACAD_REACTORS
330
47
102
}
330
47
100
AcDbScale
 70
     0
300
1/32" = 1'-0"
140
0.03125
141
12.0
290
     0
  0
SCALE
  5
5C
102
{ACAD_REACTORS
330
47
102
}
330
47
100
AcDbScale
 70
     0
300
1/16" = 1'-0"
140
0.0625
141
12.0
290
     0
  0
SCALE
  5
5D
102
{ACAD_REACTORS
330
47
102
}
330
47
100
AcDbScale
 70
     0
300
3/32" = 1'-0"
140
0.09375
141
12.0
290
     0
  0
SCALE
  5
5E
102
{ACAD_REACTORS
330
47
102
}
330
47
100
AcDbScale
 70
     0
300
1/8" = 1'-0"
140
0.125
141
12.0
290
     0
  0
SCALE
  5
5F
102
{ACAD_REACTORS
330
47
102
}
330
47
100
AcDbScale
 70
     0
300
3/16" = 1'-0"
140
0.1875
141
12.0
290
     0
  0
SCALE
  5
60
102
{ACAD_REACTORS
330
47
102
}
330
47
100
AcDbScale
 70
     0
300
1/4" = 1'-0"
140
0.25
141
12.0
290
     0
  0
SCALE
  5
61
102
{ACAD_REACTORS
330
47
102
}
330
47
100
AcDbScale
 70
     0
300
3/8" = 1'-0"
140
0.375
141
12.0
290
     0
  0
SCALE
  5
62
102
{ACAD_REACTORS
330
47
102
}
330
47
100
AcDbScale
 70
     0
300
1/2" = 1'-0"
140
0.5
141
12.0
290
     0
  0
SCALE
  5
63
102
{ACAD_REACTORS
330
47
102
}
330
47
100
AcDbScale
 70
     0
300
3/4" = 1'-0"
140
0.75
141
12.0
290
     0
  0
SCALE
  5
64
102
{ACAD_REACTORS
330
47
102
}
330
47
100
AcDbScale
 70
     0
300
1" = 1'-0"
140
1.0
141
12.0
290
     0
  0
SCALE
  5
65
102
{ACAD_REACTORS
330
47
102
}
330
47
100
AcDbScale
 70
     0
300
1-1/2" = 1'-0"
140
1.5
141
12.0
290
     0
  0
SCALE
  5
66
102
{ACAD_REACTORS
330
47
102
}
330
47
100
AcDbScale
 70
     0
300
3" = 1'-0"
140
3.0
141
12.0
290
     0
  0
SCALE
  5
67
102
{ACAD_REACTORS
330
47
102
}
330
47
100
AcDbScale
 70
     0
300
6" = 1'-0"
140
6.0
141
12.0
290
     0
  0
SCALE
  5
68
102
{ACAD_REACTORS
330
47
102
}
330
47
100
AcDbScale
 70
     0
300
1'-0" = 1'-0"
140
12.0
141
12.0
290
     0
  0
ENDSEC
  0
EOF
