  0
SECTION
  2
HEADER
  9
$ACADVER
  1
AC1015
  9
$ACADMAINTVER
 70
     6
  9
$DWGCODEPAGE
  3
ANSI_950
  9
$INSBASE
 10
0.0
 20
0.0
 30
0.0
  9
$EXTMIN
 10
0.0
 20
0.0
 30
0.0
  9
$EXTMAX
 10
297.0
 20
210.0
 30
0.0
  9
$LIMMIN
 10
0.0
 20
0.0
  9
$LIMMAX
 10
297.0
 20
210.0
  9
$ORTHOMODE
 70
     0
  9
$REGENMODE
 70
     1
  9
$FILLMODE
 70
     1
  9
$QTEXTMODE
 70
     0
  9
$MIRRTEXT
 70
     1
  9
$LTSCALE
 40
1.0
  9
$ATTMODE
 70
     1
  9
$TEXTSIZE
 40
2.5
  9
$TRACEWID
 40
1.0
  9
$TEXTSTYLE
  7
Standard
  9
$CLAYER
  8
0
  9
$CELTYPE
  6
ByLayer
  9
$CECOLOR
 62
   256
  9
$CELTSCALE
 40
1.0
  9
$DISPSILH
 70
     0
  9
$DIMSCALE
 40
1.0
  9
$DIMASZ
 40
2.0
  9
$DIMEXO
 40
1.0
  9
$DIMDLI
 40
3.75
  9
$DIMRND
 40
0.0
  9
$DIMDLE
 40
0.0
  9
$DIMEXE
 40
1.0
  9
$DIMTP
 40
0.0
  9
$DIMTM
 40
0.0
  9
$DIMTXT
 40
2.5
  9
$DIMCEN
 40
2.5
  9
$DIMTSZ
 40
0.0
  9
$DIMTOL
 70
     0
  9
$DIMLIM
 70
     0
  9
$DIMTIH
 70
     1
  9
$DIMTOH
 70
     1
  9
$DIMSE1
 70
     0
  9
$DIMSE2
 70
     0
  9
$DIMTAD
 70
     1
  9
$DIMZIN
 70
     0
  9
$DIMBLK
  1

  9
$DIMASO
 70
     1
  9
$DIMSHO
 70
     1
  9
$DIMPOST
  1

  9
$DIMAPOST
  1

  9
$DIMALT
 70
     0
  9
$DIMALTD
 70
     3
  9
$DIMALTF
 40
0.0393700787
  9
$DIMLFAC
 40
1.0
  9
$DIMTOFL
 70
     1
  9
$DIMTVP
 40
0.0
  9
$DIMTIX
 70
     0
  9
$DIMSOXD
 70
     0
  9
$DIMSAH
 70
     0
  9
$DIMBLK1
  1

  9
$DIMBLK2
  1

  9
$DIMSTYLE
  2
ISO-25
  9
$DIMCLRD
 70
     0
  9
$DIMCLRE
 70
     0
  9
$DIMCLRT
 70
     0
  9
$DIMTFAC
 40
1.0
  9
$DIMGAP
 40
1.0
  9
$DIMJUST
 70
     0
  9
$DIMSD1
 70
     0
  9
$DIMSD2
 70
     0
  9
$DIMTOLJ
 70
     0
  9
$DIMTZIN
 70
     0
  9
$DIMALTZ
 70
     0
  9
$DIMALTTZ
 70
     0
  9
$DIMUPT
 70
     0
  9
$DIMDEC
 70
     2
  9
$DIMTDEC
 70
     2
  9
$DIMALTU
 70
     2
  9
$DIMALTTD
 70
     3
  9
$DIMTXSTY
  7
Standard
  9
$DIMAUNIT
 70
     0
  9
$DIMADEC
 70
     1
  9
$DIMALTRND
 40
0.0
  9
$DIMAZIN
 70
     0
  9
$DIMDSEP
 70
    44
  9
$DIMATFIT
 70
     3
  9
$DIMFRAC
 70
     0
  9
$DIMLDRBLK
  1

  9
$DIMLUNIT
 70
     2
  9
$DIMLWD
 70
    -2
  9
$DIMLWE
 70
    -2
  9
$DIMTMOVE
 70
     0
  9
$LUNITS
 70
     2
  9
$LUPREC
 70
     2
  9
$SKETCHINC
 40
1.0
  9
$FILLETRAD
 40
10.0
  9
$AUNITS
 70
     0
  9
$AUPREC
 70
     1
  9
$MENU
  1
.
  9
$ELEVATION
 40
0.0
  9
$PELEVATION
 40
0.0
  9
$THICKNESS
 40
0.0
  9
$LIMCHECK
 70
     0
  9
$CHAMFERA
 40
0.0
  9
$CHAMFERB
 40
0.0
  9
$CHAMFERC
 40
0.0
  9
$CHAMFERD
 40
0.0
  9
$SKPOLY
 70
     0
  9
$TDCREATE
 40
2457527.606131562
  9
$TDUCREATE
 40
2457527.272798229
  9
$TDUPDATE
 40
2457527.606136621
  9
$TDUUPDATE
 40
2457527.272803287
  9
$TDINDWG
 40
0.0000000116
  9
$TDUSRTIMER
 40
0.0000000116
  9
$USRTIMER
 70
     1
  9
$ANGBASE
 50
0.0
  9
$ANGDIR
 70
     0
  9
$PDMODE
 70
     0
  9
$PDSIZE
 40
-1.0
  9
$PLINEWID
 40
0.0
  9
$SPLFRAME
 70
     0
  9
$SPLINETYPE
 70
     6
  9
$SPLINESEGS
 70
     8
  9
$HANDSEED
  5
2C4
  9
$SURFTAB1
 70
     6
  9
$SURFTAB2
 70
     6
  9
$SURFTYPE
 70
     6
  9
$SURFU
 70
     6
  9
$SURFV
 70
     6
  9
$UCSBASE
  2

  9
$UCSNAME
  2

  9
$UCSORG
 10
0.0
 20
0.0
 30
0.0
  9
$UCSXDIR
 10
1.0
 20
0.0
 30
0.0
  9
$UCSYDIR
 10
0.0
 20
1.0
 30
0.0
  9
$UCSORTHOREF
  2

  9
$UCSORTHOVIEW
 70
     0
  9
$UCSORGTOP
 10
0.0
 20
0.0
 30
0.0
  9
$UCSORGBOTTOM
 10
0.0
 20
0.0
 30
0.0
  9
$UCSORGLEFT
 10
0.0
 20
0.0
 30
0.0
  9
$UCSORGRIGHT
 10
0.0
 20
0.0
 30
0.0
  9
$UCSORGFRONT
 10
0.0
 20
0.0
 30
0.0
  9
$UCSORGBACK
 10
0.0
 20
0.0
 30
0.0
  9
$PUCSBASE
  2

  9
$PUCSNAME
  2

  9
$PUCSORG
 10
0.0
 20
0.0
 30
0.0
  9
$PUCSXDIR
 10
1.0
 20
0.0
 30
0.0
  9
$PUCSYDIR
 10
0.0
 20
1.0
 30
0.0
  9
$PUCSORTHOREF
  2

  9
$PUCSORTHOVIEW
 70
     0
  9
$PUCSORGTOP
 10
0.0
 20
0.0
 30
0.0
  9
$PUCSORGBOTTOM
 10
0.0
 20
0.0
 30
0.0
  9
$PUCSORGLEFT
 10
0.0
 20
0.0
 30
0.0
  9
$PUCSORGRIGHT
 10
0.0
 20
0.0
 30
0.0
  9
$PUCSORGFRONT
 10
0.0
 20
0.0
 30
0.0
  9
$PUCSORGBACK
 10
0.0
 20
0.0
 30
0.0
  9
$USERI1
 70
     0
  9
$USERI2
 70
     0
  9
$USERI3
 70
     0
  9
$USERI4
 70
     0
  9
$USERI5
 70
     0
  9
$USERR1
 40
0.0
  9
$USERR2
 40
0.0
  9
$USERR3
 40
0.0
  9
$USERR4
 40
0.0
  9
$USERR5
 40
0.0
  9
$WORLDVIEW
 70
     1
  9
$SHADEDGE
 70
     3
  9
$SHADEDIF
 70
    70
  9
$TILEMODE
 70
     1
  9
$MAXACTVP
 70
    64
  9
$PINSBASE
 10
0.0
 20
0.0
 30
0.0
  9
$PLIMCHECK
 70
     0
  9
$PEXTMIN
 10
1.0000000000E+20
 20
1.0000000000E+20
 30
1.0000000000E+20
  9
$PEXTMAX
 10
-1.0000000000E+20
 20
-1.0000000000E+20
 30
-1.0000000000E+20
  9
$PLIMMIN
 10
0.0
 20
0.0
  9
$PLIMMAX
 10
420.0
 20
297.0
  9
$UNITMODE
 70
     0
  9
$VISRETAIN
 70
     1
  9
$PLINEGEN
 70
     0
  9
$PSLTSCALE
 70
     1
  9
$TREEDEPTH
 70
  3020
  9
$CMLSTYLE
  2
Standard
  9
$CMLJUST
 70
     0
  9
$CMLSCALE
 40
20.0
  9
$PROXYGRAPHICS
 70
     1
  9
$MEASUREMENT
 70
     1
  9
$CELWEIGHT
370
    -1
  9
$ENDCAPS
280
     0
  9
$JOINSTYLE
280
     0
  9
$LWDISPLAY
290
     1
  9
$INSUNITS
 70
     4
  9
$HYPERLINKBASE
  1

  9
$STYLESHEET
  1

  9
$XEDIT
290
     1
  9
$CEPSNTYPE
380
     0
  9
$PSTYLEMODE
290
     1
  9
$FINGERPRINTGUID
  2
{57537C08-8801-4090-8675-EF0F7DC3BCA7}
  9
$VERSIONGUID
  2
{FAEB1C32-E019-11D5-929B-00C0DF256EC4}
  9
$EXTNAMES
290
     1
  9
$PSVPSCALE
 40
0.0
  9
$OLESTARTUP
290
     0
  0
ENDSEC
  0
SECTION
  2
CLASSES
  0
CLASS
  1
ACDBDICTIONARYWDFLT
  2
AcDbDictionaryWithDefault
  3
ObjectDBX Classes
 90
        0
280
     0
281
     0
  0
CLASS
  1
VISUALSTYLE
  2
AcDbVisualStyle
  3
ObjectDBX Classes
 90
     4095
280
     0
281
     0
  0
CLASS
  1
MATERIAL
  2
AcDbMaterial
  3
ObjectDBX Classes
 90
     1153
280
     0
281
     0
  0
CLASS
  1
SCALE
  2
AcDbScale
  3
ObjectDBX Classes
 90
     1153
280
     0
281
     0
  0
CLASS
  1
TABLESTYLE
  2
AcDbTableStyle
  3
ObjectDBX Classes
 90
     4095
280
     0
281
     0
  0
CLASS
  1
MLEADERSTYLE
  2
AcDbMLeaderStyle
  3
ACDB_MLEADERSTYLE_CLASS
 90
     4095
280
     0
281
     0
  0
CLASS
  1
SUN
  2
AcDbSun
  3
SCENEOE
 90
     1153
280
     0
281
     0
  0
CLASS
  1
ACDBPLACEHOLDER
  2
AcDbPlaceHolder
  3
ObjectDBX Classes
 90
        0
280
     0
281
     0
  0
CLASS
  1
LAYOUT
  2
AcDbLayout
  3
ObjectDBX Classes
 90
        0
280
     0
281
     0
  0
ENDSEC
  0
SECTION
  2
TABLES
  0
TABLE
  2
VPORT
  5
8
330
0
100
AcDbSymbolTable
 70
     1
  0
VPORT
  5
29
330
8
100
AcDbSymbolTableRecord
100
AcDbViewportTableRecord
  2
*Active
 70
     0
 10
0.0
 20
0.0
 11
1.0
 21
1.0
 12
148.5
 22
105.0
 13
0.0
 23
0.0
 14
10.0
 24
10.0
 15
10.0
 25
10.0
 16
0.0
 26
0.0
 36
1.0
 17
0.0
 27
0.0
 37
0.0
 40
210.0
 41
1.4142857143
 42
50.0
 43
0.0
 44
0.0
 50
0.0
 51
0.0
 71
     0
 72
  2000
 73
     1
 74
     3
 75
     0
 76
     0
 77
     0
 78
     0
281
     0
 65
     1
110
0.0
120
0.0
130
0.0
111
1.0
121
0.0
131
0.0
112
0.0
122
1.0
132
0.0
 79
     0
146
0.0
  0
ENDTAB
  0
TABLE
  2
LTYPE
  5
5
330
0
100
AcDbSymbolTable
 70
     6
  0
LTYPE
  5
14
330
5
100
AcDbSymbolTableRecord
100
AcDbLinetypeTableRecord
  2
ByBlock
 70
     0
  3

 72
    65
 73
     0
 40
0.0
  0
LTYPE
  5
15
330
5
100
AcDbSymbolTableRecord
100
AcDbLinetypeTableRecord
  2
ByLayer
 70
     0
  3

 72
    65
 73
     0
 40
0.0
  0
LTYPE
  5
16
330
5
100
AcDbSymbolTableRecord
100
AcDbLinetypeTableRecord
  2
Continuous
 70
     0
  3
Solid line
 72
    65
 73
     0
 40
0.0
  0
LTYPE
  5
6E
330
5
100
AcDbSymbolTableRecord
100
AcDbLinetypeTableRecord
  2
HIDDEN
 70
     0
  3
Hidden __ __ __ __ __ __ __ __ __ __ __ __ __ __
 72
    65
 73
     2
 40
1.905
 49
1.27
 74
     0
 49
-0.635
 74
     0
  0
LTYPE
  5
6F
330
5
100
AcDbSymbolTableRecord
100
AcDbLinetypeTableRecord
  2
PHANTOM
 70
     0
  3
Phantom ______  __  __  ______  __  __  ______
 72
    65
 73
     6
 40
12.7
 49
6.35
 74
     0
 49
-1.27
 74
     0
 49
1.27
 74
     0
 49
-1.27
 74
     0
 49
1.27
 74
     0
 49
-1.27
 74
     0
  0
LTYPE
  5
70
330
5
100
AcDbSymbolTableRecord
100
AcDbLinetypeTableRecord
  2
CENTER
 70
     0
  3
Center ____ _ ____ _ ____ _ ____ _ ____ _ ____
 72
    65
 73
     4
 40
10.16
 49
6.35
 74
     0
 49
-1.27
 74
     0
 49
1.27
 74
     0
 49
-1.27
 74
     0
  0
LTYPE
  5
71
330
5
100
AcDbSymbolTableRecord
100
AcDbLinetypeTableRecord
  2
CENTERX2
 70
     0
  3
Center (2x) ________  __  ________  __  _____
 72
    65
 73
     4
 40
20.32
 49
12.7
 74
     0
 49
-2.54
 74
     0
 49
2.54
 74
     0
 49
-2.54
 74
     0
  0
LTYPE
  5
72
330
5
100
AcDbSymbolTableRecord
100
AcDbLinetypeTableRecord
  2
DOT2
 70
     0
  3
Dot (.5x) ........................................
 72
    65
 73
     2
 40
0.635
 49
0.0
 74
     0
 49
-0.635
 74
     0
  0
ENDTAB
  0
TABLE
  2
LAYER
  5
2
330
0
100
AcDbSymbolTable
 70
     3
  0
LAYER
  5
10
330
2
100
AcDbSymbolTableRecord
100
AcDbLayerTableRecord
  2
0
 70
     0
 62
     7
  6
Continuous
370
    -3
390
F
  0
LAYER
  5
73
330
2
100
AcDbSymbolTableRecord
100
AcDbLayerTableRecord
  2
SLD-0
 70
     0
 62
     7
  6
Continuous
370
    15
390
F
  0
LAYER
  5
74
330
2
100
AcDbSymbolTableRecord
100
AcDbLayerTableRecord
  2
DIM
 70
     0
 62
     7
  6
Continuous
370
    -3
390
F
  0
ENDTAB
  0
TABLE
  2
STYLE
  5
3
330
0
100
AcDbSymbolTable
 70
     3
  0
STYLE
  5
11
330
3
100
AcDbSymbolTableRecord
100
AcDbTextStyleTableRecord
  2
Standard
 70
     0
 40
0.0
 41
1.0
 50
0.0
 71
     0
 42
2.5
  3
txt
  4

  0
STYLE
  5
C5
330
3
100
AcDbSymbolTableRecord
100
AcDbTextStyleTableRecord
  2
SLDTEXTSTYLE0
 70
     0
 40
0.0
 41
0.605
 50
0.0
 71
     0
 42
2.5
  3
TXT
  4

  0
STYLE
  5
CE
330
3
100
AcDbSymbolTableRecord
100
AcDbTextStyleTableRecord
  2
SLDTEXTSTYLE1
 70
     0
 40
0.0
 41
0.7
 50
0.0
 71
     0
 42
2.5
  3
TXT
  4

  0
ENDTAB
  0
TABLE
  2
VIEW
  5
6
330
0
100
AcDbSymbolTable
 70
     0
  0
ENDTAB
  0
TABLE
  2
UCS
  5
7
330
0
100
AcDbSymbolTable
 70
     0
  0
ENDTAB
  0
TABLE
  2
APPID
  5
9
330
0
100
AcDbSymbolTable
 70
     1
  0
APPID
  5
12
330
9
100
AcDbSymbolTableRecord
100
AcDbRegAppTableRecord
  2
ACAD
 70
     0
  0
ENDTAB
  0
TABLE
  2
DIMSTYLE
  5
A
330
0
100
AcDbSymbolTable
 70
     3
100
AcDbDimStyleTable
  0
DIMSTYLE
105
27
330
A
100
AcDbSymbolTableRecord
100
AcDbDimStyleTableRecord
  2
ISO-25
 70
     0
 41
2.5
 42
0.625
 43
3.75
 44
1.25
 73
     0
 74
     0
 77
     1
 78
     8
140
2.5
141
2.5
143
0.0393700787
147
0.625
171
     3
172
     1
178
     0
271
     2
272
     2
274
     3
278
    44
283
     0
284
     8
340
11
  0
DIMSTYLE
105
122
102
{ACAD_REACTORS
330
121
330
12C
330
136
330
140
330
14A
330
154
330
15E
330
168
330
172
330
198
330
2BA
102
}
330
A
100
AcDbSymbolTableRecord
100
AcDbDimStyleTableRecord
  2
SLDDIMSTYLE0
 70
     0
 41
2.0
 44
0.0
 45
0.000000001
 73
     0
 74
     0
 77
     1
 78
    12
 79
     3
140
2.5
147
0.625
173
     1
178
     0
271
     2
272
     2
276
     2
284
    12
340
C5
  0
DIMSTYLE
105
17D
102
{ACAD_REACTORS
330
17C
330
186
330
18F
102
}
330
A
100
AcDbSymbolTableRecord
100
AcDbDimStyleTableRecord
  2
SLDDIMSTYLE1
 70
     0
  3
<>
 41
2.0
 44
0.0
 45
0.000000001
 78
    12
 79
     3
140
2.5
141
0.0
147
0.625
173
     1
178
     0
271
     2
272
     2
276
     2
284
    12
340
C5
  0
ENDTAB
  0
TABLE
  2
BLOCK_RECORD
  5
1
330
0
100
AcDbSymbolTable
 70
    34
  0
BLOCK_RECORD
  5
1F
330
1
100
AcDbSymbolTableRecord
100
AcDbBlockTableRecord
  2
*Model_Space
340
22
  0
BLOCK_RECORD
  5
1B
330
1
100
AcDbSymbolTableRecord
100
AcDbBlockTableRecord
  2
*Paper_Space
340
1E
  0
BLOCK_RECORD
  5
23
330
1
100
AcDbSymbolTableRecord
100
AcDbBlockTableRecord
  2
*Paper_Space0
340
26
  0
BLOCK_RECORD
  5
C7
330
1
100
AcDbSymbolTableRecord
100
AcDbBlockTableRecord
  2
SW_NOTE_0
340
0
102
{BLKREFS
331
CD
102
}
  0
BLOCK_RECORD
  5
FD
330
1
100
AcDbSymbolTableRecord
100
AcDbBlockTableRecord
  2
SW_NOTE_1
340
0
102
{BLKREFS
331
102
102
}
  0
BLOCK_RECORD
  5
123
330
1
100
AcDbSymbolTableRecord
100
AcDbBlockTableRecord
  2
_D
340
0
  0
BLOCK_RECORD
  5
12D
330
1
100
AcDbSymbolTableRecord
100
AcDbBlockTableRecord
  2
_D_1
340
0
  0
BLOCK_RECORD
  5
137
330
1
100
AcDbSymbolTableRecord
100
AcDbBlockTableRecord
  2
_D_2
340
0
  0
BLOCK_RECORD
  5
141
330
1
100
AcDbSymbolTableRecord
100
AcDbBlockTableRecord
  2
_D_3
340
0
  0
BLOCK_RECORD
  5
14B
330
1
100
AcDbSymbolTableRecord
100
AcDbBlockTableRecord
  2
_D_4
340
0
  0
BLOCK_RECORD
  5
155
330
1
100
AcDbSymbolTableRecord
100
AcDbBlockTableRecord
  2
_D_5
340
0
  0
BLOCK_RECORD
  5
15F
330
1
100
AcDbSymbolTableRecord
100
AcDbBlockTableRecord
  2
_D_6
340
0
  0
BLOCK_RECORD
  5
169
330
1
100
AcDbSymbolTableRecord
100
AcDbBlockTableRecord
  2
_D_7
340
0
  0
BLOCK_RECORD
  5
173
330
1
100
AcDbSymbolTableRecord
100
AcDbBlockTableRecord
  2
_D_8
340
0
  0
BLOCK_RECORD
  5
17E
330
1
100
AcDbSymbolTableRecord
100
AcDbBlockTableRecord
  2
_D_9
340
0
  0
BLOCK_RECORD
  5
187
330
1
100
AcDbSymbolTableRecord
100
AcDbBlockTableRecord
  2
_D_10
340
0
  0
BLOCK_RECORD
  5
190
330
1
100
AcDbSymbolTableRecord
100
AcDbBlockTableRecord
  2
_D_11
340
0
  0
BLOCK_RECORD
  5
199
330
1
100
AcDbSymbolTableRecord
100
AcDbBlockTableRecord
  2
_D_12
340
0
  0
BLOCK_RECORD
  5
1A2
330
1
100
AcDbSymbolTableRecord
100
AcDbBlockTableRecord
  2
SW_CENTERMARKSYMBOL_0
340
0
102
{BLKREFS
331
1AD
102
}
  0
BLOCK_RECORD
  5
1AE
330
1
100
AcDbSymbolTableRecord
100
AcDbBlockTableRecord
  2
SW_CENTERMARKSYMBOL_1
340
0
102
{BLKREFS
331
1B9
102
}
  0
BLOCK_RECORD
  5
1BA
330
1
100
AcDbSymbolTableRecord
100
AcDbBlockTableRecord
  2
SW_CENTERMARKSYMBOL_2
340
0
102
{BLKREFS
331
1C5
102
}
  0
BLOCK_RECORD
  5
1C6
330
1
100
AcDbSymbolTableRecord
100
AcDbBlockTableRecord
  2
SW_CENTERMARKSYMBOL_3
340
0
102
{BLKREFS
331
1D1
102
}
  0
BLOCK_RECORD
  5
1D2
330
1
100
AcDbSymbolTableRecord
100
AcDbBlockTableRecord
  2
SW_CENTERMARKSYMBOL_4
340
0
102
{BLKREFS
331
1DD
102
}
  0
BLOCK_RECORD
  5
1DE
330
1
100
AcDbSymbolTableRecord
100
AcDbBlockTableRecord
  2
SW_CENTERMARKSYMBOL_5
340
0
102
{BLKREFS
331
1E9
102
}
  0
BLOCK_RECORD
  5
1EA
330
1
100
AcDbSymbolTableRecord
100
AcDbBlockTableRecord
  2
SW_CENTERMARKSYMBOL_6
340
0
102
{BLKREFS
331
1F5
102
}
  0
BLOCK_RECORD
  5
1F6
330
1
100
AcDbSymbolTableRecord
100
AcDbBlockTableRecord
  2
SW_CENTERMARKSYMBOL_7
340
0
102
{BLKREFS
331
201
102
}
  0
BLOCK_RECORD
  5
202
330
1
100
AcDbSymbolTableRecord
100
AcDbBlockTableRecord
  2
SW_CENTERMARKSYMBOL_8
340
0
102
{BLKREFS
331
20D
102
}
  0
BLOCK_RECORD
  5
20E
330
1
100
AcDbSymbolTableRecord
100
AcDbBlockTableRecord
  2
SW_CENTERMARKSYMBOL_9
340
0
102
{BLKREFS
331
219
102
}
  0
BLOCK_RECORD
  5
21A
330
1
100
AcDbSymbolTableRecord
100
AcDbBlockTableRecord
  2
SW_CENTERMARKSYMBOL_10
340
0
102
{BLKREFS
331
225
102
}
  0
BLOCK_RECORD
  5
226
330
1
100
AcDbSymbolTableRecord
100
AcDbBlockTableRecord
  2
SW_CENTERMARKSYMBOL_11
340
0
102
{BLKREFS
331
231
102
}
  0
BLOCK_RECORD
  5
232
330
1
100
AcDbSymbolTableRecord
100
AcDbBlockTableRecord
  2
SW_CENTERMARKSYMBOL_12
340
0
102
{BLKREFS
331
23D
102
}
  0
BLOCK_RECORD
  5
23E
330
1
100
AcDbSymbolTableRecord
100
AcDbBlockTableRecord
  2
SW_CENTERMARKSYMBOL_13
340
0
102
{BLKREFS
331
249
102
}
  0
BLOCK_RECORD
  5
24A
330
1
100
AcDbSymbolTableRecord
100
AcDbBlockTableRecord
  2
SW_CENTERMARKSYMBOL_14
340
0
102
{BLKREFS
331
255
102
}
  0
BLOCK_RECORD
  5
256
330
1
100
AcDbSymbolTableRecord
100
AcDbBlockTableRecord
  2
SW_CENTERMARKSYMBOL_15
340
0
102
{BLKREFS
331
261
102
}
  0
BLOCK_RECORD
  5
262
330
1
100
AcDbSymbolTableRecord
100
AcDbBlockTableRecord
  2
SW_CENTERMARKSYMBOL_16
340
0
102
{BLKREFS
331
26D
102
}
  0
BLOCK_RECORD
  5
2BB
330
1
100
AcDbSymbolTableRecord
100
AcDbBlockTableRecord
  2
_D_13
340
0
  0
ENDTAB
  0
ENDSEC
  0
SECTION
  2
BLOCKS
  0
BLOCK
  5
20
330
1F
100
AcDbEntity
  8
0
100
AcDbBlockBegin
  2
*Model_Space
 70
     0
 10
0.0
 20
0.0
 30
0.0
  3
*Model_Space
  1

  0
ENDBLK
  5
21
330
1F
100
AcDbEntity
  8
0
100
AcDbBlockEnd
  0
BLOCK
  5
1C
330
1B
100
AcDbEntity
 67
     1
  8
0
100
AcDbBlockBegin
  2
*Paper_Space
 70
     0
 10
0.0
 20
0.0
 30
0.0
  3
*Paper_Space
  1

  0
ENDBLK
  5
1D
330
1B
100
AcDbEntity
 67
     1
  8
0
100
AcDbBlockEnd
  0
BLOCK
  5
24
330
23
100
AcDbEntity
  8
0
100
AcDbBlockBegin
  2
*Paper_Space0
 70
     0
 10
0.0
 20
0.0
 30
0.0
  3
*Paper_Space0
  1

  0
ENDBLK
  5
25
330
23
100
AcDbEntity
  8
0
100
AcDbBlockEnd
  0
BLOCK
  5
C8
330
C7
100
AcDbEntity
  8
0
100
AcDbBlockBegin
  2
SW_NOTE_0
 70
     0
 10
0.0
 20
0.0
 30
0.0
  3
SW_NOTE_0
  1

  0
MTEXT
  5
CA
330
C7
100
AcDbEntity
  8
0
  6
Continuous
 62
     0
370
     0
100
AcDbMText
 10
0.0
 20
3.4106583948
 30
0.0
 40
2.6458333333
 41
0.0
 71
     1
 72
     1
  1
PROPRIETARY AND CONFIDENTIAL
  7
SLDTEXTSTYLE0
 73
     1
 44
1.0
  0
MTEXT
  5
CB
330
C7
100
AcDbEntity
  8
0
  6
Continuous
 62
     0
370
     0
100
AcDbMText
 10
0.0
 20
-0.08198348
 30
0.0
 40
1.8520833333
 41
0.0
 71
     1
 72
     1
  1
THE INFORMATION CONTAINED IN THIS DRAWING IS THE SOLE PROPERTY OF UNICE E-O SERVICES INC. ANY REPRODUCTION IN PART OR AS A WHOLE WITHOUT THE WRITTEN PERMISSION OF UNICE E-O SERVICES INC IS
  7
SLDTEXTSTYLE0
 73
     1
 44
1.0
  0
MTEXT
  5
CC
330
C7
100
AcDbEntity
  8
0
  6
Continuous
 62
     0
370
     0
100
AcDbMText
 10
0.0
 20
-2.5514278946
 30
0.0
 40
1.8520833333
 41
0.0
 71
     1
 72
     1
  1
PROHIBITED.
  7
SLDTEXTSTYLE0
 73
     1
 44
1.0
  0
ENDBLK
  5
C9
330
C7
100
AcDbEntity
  8
0
100
AcDbBlockEnd
  0
BLOCK
  5
FE
330
FD
100
AcDbEntity
  8
0
100
AcDbBlockBegin
  2
SW_NOTE_1
 70
     0
 10
0.0
 20
0.0
 30
0.0
  3
SW_NOTE_1
  1

  0
MTEXT
  5
100
330
FD
100
AcDbEntity
  8
SLD-0
 62
     0
100
AcDbMText
 10
0.0
 20
2.3874608764
 30
0.0
 40
1.8520833333
 41
0.0
 71
     1
 72
     1
  1
No.5, Andong Rd., Chung Li District,
  7
SLDTEXTSTYLE1
 73
     1
 44
1.0
  0
MTEXT
  5
101
330
FD
100
AcDbEntity
  8
SLD-0
 62
     0
100
AcDbMText
 10
0.0
 20
-0.0819835382
 30
0.0
 40
1.8520833333
 41
0.0
 71
     1
 72
     1
  1
Taoyuan City 32063, Taiwan, R.O.C.
  7
SLDTEXTSTYLE1
 73
     1
 44
1.0
  0
ENDBLK
  5
FF
330
FD
100
AcDbEntity
  8
0
100
AcDbBlockEnd
  0
BLOCK
  5
124
330
123
100
AcDbEntity
  8
0
100
AcDbBlockBegin
  2
_D
 70
     0
 10
0.0
 20
0.0
 30
0.0
  3
_D
  1

  0
SOLID
  5
126
330
123
100
AcDbEntity
  8
SLD-0
100
AcDbTrace
 10
94.4132957305
 20
155.64141052
 30
0.0
 11
92.4132957305
 21
155.89141052
 31
0.0
 12
92.4132957305
 22
155.39141052
 32
0.0
 13
92.4132957305
 23
155.39141052
 33
0.0
  0
SOLID
  5
127
330
123
100
AcDbEntity
  8
SLD-0
100
AcDbTrace
 10
81.7132957305
 20
155.64141052
 30
0.0
 11
83.7132957305
 21
155.39141052
 31
0.0
 12
83.7132957305
 22
155.89141052
 32
0.0
 13
83.7132957305
 23
155.89141052
 33
0.0
  0
LINE
  5
128
330
123
100
AcDbEntity
  8
SLD-0
100
AcDbLine
 10
94.4132957305
 20
146.0220809043
 30
0.0
 11
94.4132957305
 21
156.64141052
 31
0.0
  0
LINE
  5
129
330
123
100
AcDbEntity
  8
SLD-0
100
AcDbLine
 10
81.7132957305
 20
133.3220809043
 30
0.0
 11
81.7132957305
 21
156.64141052
 31
0.0
  0
LINE
  5
12A
330
123
100
AcDbEntity
  8
SLD-0
100
AcDbLine
 10
94.4132957305
 20
155.64141052
 30
0.0
 11
81.7132957305
 21
155.64141052
 31
0.0
  0
MTEXT
  5
12B
330
123
100
AcDbEntity
  8
SLD-0
100
AcDbMText
 10
84.7212819244
 20
158.8640796948
 30
0.0
 40
2.5
 41
0.0
 71
     1
 72
     1
  1
12.7
  7
SLDTEXTSTYLE0
 73
     1
 44
1.0
  0
ENDBLK
  5
125
330
123
100
AcDbEntity
  8
0
100
AcDbBlockEnd
  0
BLOCK
  5
12E
330
12D
100
AcDbEntity
  8
0
100
AcDbBlockBegin
  2
_D_1
 70
     0
 10
0.0
 20
0.0
 30
0.0
  3
_D_1
  1

  0
SOLID
  5
130
330
12D
100
AcDbEntity
  8
SLD-0
100
AcDbTrace
 10
94.4132957305
 20
161.5821649106
 30
0.0
 11
92.4132957305
 21
161.8321649106
 31
0.0
 12
92.4132957305
 22
161.3321649106
 32
0.0
 13
92.4132957305
 23
161.3321649106
 33
0.0
  0
SOLID
  5
131
330
12D
100
AcDbEntity
  8
SLD-0
100
AcDbTrace
 10
69.0132957305
 20
161.5821649106
 30
0.0
 11
71.0132957305
 21
161.3321649106
 31
0.0
 12
71.0132957305
 22
161.8321649106
 32
0.0
 13
71.0132957305
 23
161.8321649106
 33
0.0
  0
LINE
  5
132
330
12D
100
AcDbEntity
  8
SLD-0
100
AcDbLine
 10
94.4132957305
 20
146.0220809043
 30
0.0
 11
94.4132957305
 21
162.5821649106
 31
0.0
  0
LINE
  5
133
330
12D
100
AcDbEntity
  8
SLD-0
100
AcDbLine
 10
69.0132957305
 20
146.0220809043
 30
0.0
 11
69.0132957305
 21
162.5821649106
 31
0.0
  0
LINE
  5
134
330
12D
100
AcDbEntity
  8
SLD-0
100
AcDbLine
 10
94.4132957305
 20
161.5821649106
 30
0.0
 11
69.0132957305
 21
161.5821649106
 31
0.0
  0
MTEXT
  5
135
330
12D
100
AcDbEntity
  8
SLD-0
100
AcDbMText
 10
78.3712819244
 20
164.8048340854
 30
0.0
 40
2.5
 41
0.0
 71
     1
 72
     1
  1
25.4
  7
SLDTEXTSTYLE0
 73
     1
 44
1.0
  0
ENDBLK
  5
12F
330
12D
100
AcDbEntity
  8
0
100
AcDbBlockEnd
  0
BLOCK
  5
138
330
137
100
AcDbEntity
  8
0
100
AcDbBlockBegin
  2
_D_2
 70
     0
 10
0.0
 20
0.0
 30
0.0
  3
_D_2
  1

  0
SOLID
  5
13A
330
137
100
AcDbEntity
  8
SLD-0
100
AcDbTrace
 10
94.4132957305
 20
161.5821649106
 30
0.0
 11
96.4132957305
 21
161.3321649106
 31
0.0
 12
96.4132957305
 22
161.8321649106
 32
0.0
 13
96.4132957305
 23
161.8321649106
 33
0.0
  0
SOLID
  5
13B
330
137
100
AcDbEntity
  8
SLD-0
100
AcDbTrace
 10
119.8132957305
 20
161.5821649106
 30
0.0
 11
117.8132957305
 21
161.8321649106
 31
0.0
 12
117.8132957305
 22
161.3321649106
 32
0.0
 13
117.8132957305
 23
161.3321649106
 33
0.0
  0
LINE
  5
13C
330
137
100
AcDbEntity
  8
SLD-0
100
AcDbLine
 10
94.4132957305
 20
146.0220809043
 30
0.0
 11
94.4132957305
 21
162.5821649106
 31
0.0
  0
LINE
  5
13D
330
137
100
AcDbEntity
  8
SLD-0
100
AcDbLine
 10
119.8132957305
 20
146.0220809043
 30
0.0
 11
119.8132957305
 21
162.5821649106
 31
0.0
  0
LINE
  5
13E
330
137
100
AcDbEntity
  8
SLD-0
100
AcDbLine
 10
94.4132957305
 20
161.5821649106
 30
0.0
 11
119.8132957305
 21
161.5821649106
 31
0.0
  0
MTEXT
  5
13F
330
137
100
AcDbEntity
  8
SLD-0
100
AcDbMText
 10
103.7712819244
 20
164.8048340854
 30
0.0
 40
2.5
 41
0.0
 71
     1
 72
     1
  1
25.4
  7
SLDTEXTSTYLE0
 73
     1
 44
1.0
  0
ENDBLK
  5
139
330
137
100
AcDbEntity
  8
0
100
AcDbBlockEnd
  0
BLOCK
  5
142
330
141
100
AcDbEntity
  8
0
100
AcDbBlockBegin
  2
_D_3
 70
     0
 10
0.0
 20
0.0
 30
0.0
  3
_D_3
  1

  0
SOLID
  5
144
330
141
100
AcDbEntity
  8
SLD-0
100
AcDbTrace
 10
64.4132957305
 20
167.2530726292
 30
0.0
 11
66.4132957305
 21
167.0030726292
 31
0.0
 12
66.4132957305
 22
167.5030726292
 32
0.0
 13
66.4132957305
 23
167.5030726292
 33
0.0
  0
SOLID
  5
145
330
141
100
AcDbEntity
  8
SLD-0
100
AcDbTrace
 10
124.4132957305
 20
167.2530726292
 30
0.0
 11
122.4132957305
 21
167.5030726292
 31
0.0
 12
122.4132957305
 22
167.0030726292
 32
0.0
 13
122.4132957305
 23
167.0030726292
 33
0.0
  0
LINE
  5
146
330
141
100
AcDbEntity
  8
SLD-0
100
AcDbLine
 10
64.4132957305
 20
145.6220809043
 30
0.0
 11
64.4132957305
 21
168.2530726292
 31
0.0
  0
LINE
  5
147
330
141
100
AcDbEntity
  8
SLD-0
100
AcDbLine
 10
124.4132957305
 20
145.6220809043
 30
0.0
 11
124.4132957305
 21
168.2530726292
 31
0.0
  0
LINE
  5
148
330
141
100
AcDbEntity
  8
SLD-0
100
AcDbLine
 10
64.4132957305
 20
167.2530726292
 30
0.0
 11
124.4132957305
 21
167.2530726292
 31
0.0
  0
MTEXT
  5
149
330
141
100
AcDbEntity
  8
SLD-0
100
AcDbMText
 10
92.5035735057
 20
170.475741804
 30
0.0
 40
2.5
 41
0.0
 71
     1
 72
     1
  1
60
  7
SLDTEXTSTYLE0
 73
     1
 44
1.0
  0
ENDBLK
  5
143
330
141
100
AcDbEntity
  8
0
100
AcDbBlockEnd
  0
BLOCK
  5
14C
330
14B
100
AcDbEntity
  8
0
100
AcDbBlockBegin
  2
_D_4
 70
     0
 10
0.0
 20
0.0
 30
0.0
  3
_D_4
  1

  0
SOLID
  5
14E
330
14B
100
AcDbEntity
  8
SLD-0
100
AcDbTrace
 10
59.018354812
 20
119.6220809043
 30
0.0
 11
59.268354812
 21
121.6220809043
 31
0.0
 12
58.768354812
 22
121.6220809043
 32
0.0
 13
58.768354812
 23
121.6220809043
 33
0.0
  0
SOLID
  5
14F
330
14B
100
AcDbEntity
  8
SLD-0
100
AcDbTrace
 10
59.018354812
 20
132.3220809043
 30
0.0
 11
58.768354812
 21
130.3220809043
 31
0.0
 12
59.268354812
 22
130.3220809043
 32
0.0
 13
59.268354812
 23
130.3220809043
 33
0.0
  0
LINE
  5
150
330
14B
100
AcDbEntity
  8
SLD-0
100
AcDbLine
 10
68.0132957305
 20
119.6220809043
 30
0.0
 11
58.018354812
 21
119.6220809043
 31
0.0
  0
LINE
  5
151
330
14B
100
AcDbEntity
  8
SLD-0
100
AcDbLine
 10
80.7132957305
 20
132.3220809043
 30
0.0
 11
58.018354812
 21
132.3220809043
 31
0.0
  0
LINE
  5
152
330
14B
100
AcDbEntity
  8
SLD-0
100
AcDbLine
 10
59.018354812
 20
119.6220809043
 30
0.0
 11
59.018354812
 21
132.3220809043
 31
0.0
  0
MTEXT
  5
153
330
14B
100
AcDbEntity
  8
SLD-0
100
AcDbMText
 10
55.7956856372
 20
122.6300670982
 30
0.0
 40
2.5
 41
0.0
 71
     1
 72
     1
  1
12.7
  7
SLDTEXTSTYLE0
 11
6.123233995736766E-17
 21
1.0
 31
0.0
 73
     1
 44
1.0
  0
ENDBLK
  5
14D
330
14B
100
AcDbEntity
  8
0
100
AcDbBlockEnd
  0
BLOCK
  5
156
330
155
100
AcDbEntity
  8
0
100
AcDbBlockBegin
  2
_D_5
 70
     0
 10
0.0
 20
0.0
 30
0.0
  3
_D_5
  1

  0
SOLID
  5
158
330
155
100
AcDbEntity
  8
SLD-0
100
AcDbTrace
 10
59.018354812
 20
119.6220809043
 30
0.0
 11
58.768354812
 21
117.6220809043
 31
0.0
 12
59.268354812
 22
117.6220809043
 32
0.0
 13
59.268354812
 23
117.6220809043
 33
0.0
  0
SOLID
  5
159
330
155
100
AcDbEntity
  8
SLD-0
100
AcDbTrace
 10
59.018354812
 20
106.9220809043
 30
0.0
 11
59.268354812
 21
108.9220809043
 31
0.0
 12
58.768354812
 22
108.9220809043
 32
0.0
 13
58.768354812
 23
108.9220809043
 33
0.0
  0
LINE
  5
15A
330
155
100
AcDbEntity
  8
SLD-0
100
AcDbLine
 10
68.0132957305
 20
119.6220809043
 30
0.0
 11
58.018354812
 21
119.6220809043
 31
0.0
  0
LINE
  5
15B
330
155
100
AcDbEntity
  8
SLD-0
100
AcDbLine
 10
80.7132957305
 20
106.9220809043
 30
0.0
 11
58.018354812
 21
106.9220809043
 31
0.0
  0
LINE
  5
15C
330
155
100
AcDbEntity
  8
SLD-0
100
AcDbLine
 10
59.018354812
 20
119.6220809043
 30
0.0
 11
59.018354812
 21
106.9220809043
 31
0.0
  0
MTEXT
  5
15D
330
155
100
AcDbEntity
  8
SLD-0
100
AcDbMText
 10
55.7956856372
 20
109.9300670982
 30
0.0
 40
2.5
 41
0.0
 71
     1
 72
     1
  1
12.7
  7
SLDTEXTSTYLE0
 11
-7.044195017643634E-15
 21
1.0
 31
0.0
 73
     1
 44
1.0
  0
ENDBLK
  5
157
330
155
100
AcDbEntity
  8
0
100
AcDbBlockEnd
  0
BLOCK
  5
160
330
15F
100
AcDbEntity
  8
0
100
AcDbBlockBegin
  2
_D_6
 70
     0
 10
0.0
 20
0.0
 30
0.0
  3
_D_6
  1

  0
SOLID
  5
162
330
15F
100
AcDbEntity
  8
SLD-0
100
AcDbTrace
 10
52.0433917253
 20
119.6220809043
 30
0.0
 11
52.2933917253
 21
121.6220809043
 31
0.0
 12
51.7933917253
 22
121.6220809043
 32
0.0
 13
51.7933917253
 23
121.6220809043
 33
0.0
  0
SOLID
  5
163
330
15F
100
AcDbEntity
  8
SLD-0
100
AcDbTrace
 10
52.0433917253
 20
145.0220809043
 30
0.0
 11
51.7933917253
 21
143.0220809043
 31
0.0
 12
52.2933917253
 22
143.0220809043
 32
0.0
 13
52.2933917253
 23
143.0220809043
 33
0.0
  0
LINE
  5
164
330
15F
100
AcDbEntity
  8
SLD-0
100
AcDbLine
 10
68.0132957305
 20
119.6220809043
 30
0.0
 11
51.0433917253
 21
119.6220809043
 31
0.0
  0
LINE
  5
165
330
15F
100
AcDbEntity
  8
SLD-0
100
AcDbLine
 10
68.0132957305
 20
145.0220809043
 30
0.0
 11
51.0433917253
 21
145.0220809043
 31
0.0
  0
LINE
  5
166
330
15F
100
AcDbEntity
  8
SLD-0
100
AcDbLine
 10
52.0433917253
 20
119.6220809043
 30
0.0
 11
52.0433917253
 21
145.0220809043
 31
0.0
  0
MTEXT
  5
167
330
15F
100
AcDbEntity
  8
SLD-0
100
AcDbMText
 10
48.8207225505
 20
128.9800670982
 30
0.0
 40
2.5
 41
0.0
 71
     1
 72
     1
  1
25.4
  7
SLDTEXTSTYLE0
 11
6.123233995736766E-17
 21
1.0
 31
0.0
 73
     1
 44
1.0
  0
ENDBLK
  5
161
330
15F
100
AcDbEntity
  8
0
100
AcDbBlockEnd
  0
BLOCK
  5
16A
330
169
100
AcDbEntity
  8
0
100
AcDbBlockBegin
  2
_D_7
 70
     0
 10
0.0
 20
0.0
 30
0.0
  3
_D_7
  1

  0
SOLID
  5
16C
330
169
100
AcDbEntity
  8
SLD-0
100
AcDbTrace
 10
52.0433917253
 20
119.6220809043
 30
0.0
 11
51.7933917253
 21
117.6220809043
 31
0.0
 12
52.2933917253
 22
117.6220809043
 32
0.0
 13
52.2933917253
 23
117.6220809043
 33
0.0
  0
SOLID
  5
16D
330
169
100
AcDbEntity
  8
SLD-0
100
AcDbTrace
 10
52.0433917253
 20
94.2220809043
 30
0.0
 11
52.2933917253
 21
96.2220809043
 31
0.0
 12
51.7933917253
 22
96.2220809043
 32
0.0
 13
51.7933917253
 23
96.2220809043
 33
0.0
  0
LINE
  5
16E
330
169
100
AcDbEntity
  8
SLD-0
100
AcDbLine
 10
68.0132957305
 20
119.6220809043
 30
0.0
 11
51.0433917253
 21
119.6220809043
 31
0.0
  0
LINE
  5
16F
330
169
100
AcDbEntity
  8
SLD-0
100
AcDbLine
 10
68.0132957305
 20
94.2220809043
 30
0.0
 11
51.0433917253
 21
94.2220809043
 31
0.0
  0
LINE
  5
170
330
169
100
AcDbEntity
  8
SLD-0
100
AcDbLine
 10
52.0433917253
 20
119.6220809043
 30
0.0
 11
52.0433917253
 21
94.2220809043
 31
0.0
  0
MTEXT
  5
171
330
169
100
AcDbEntity
  8
SLD-0
100
AcDbMText
 10
48.8207225505
 20
103.5800670982
 30
0.0
 40
2.5
 41
0.0
 71
     1
 72
     1
  1
25.4
  7
SLDTEXTSTYLE0
 11
-7.044195017643634E-15
 21
1.0
 31
0.0
 73
     1
 44
1.0
  0
ENDBLK
  5
16B
330
169
100
AcDbEntity
  8
0
100
AcDbBlockEnd
  0
BLOCK
  5
174
330
173
100
AcDbEntity
  8
0
100
AcDbBlockBegin
  2
_D_8
 70
     0
 10
0.0
 20
0.0
 30
0.0
  3
_D_8
  1

  0
SOLID
  5
176
330
173
100
AcDbEntity
  8
SLD-0
100
AcDbTrace
 10
43.4132957305
 20
149.6220809043
 30
0.0
 11
43.1632957305
 21
147.6220809043
 31
0.0
 12
43.6632957305
 22
147.6220809043
 32
0.0
 13
43.6632957305
 23
147.6220809043
 33
0.0
  0
SOLID
  5
177
330
173
100
AcDbEntity
  8
SLD-0
100
AcDbTrace
 10
43.4132957305
 20
89.6220809043
 30
0.0
 11
43.6632957305
 21
91.6220809043
 31
0.0
 12
43.1632957305
 22
91.6220809043
 32
0.0
 13
43.1632957305
 23
91.6220809043
 33
0.0
  0
LINE
  5
178
330
173
100
AcDbEntity
  8
SLD-0
100
AcDbLine
 10
68.4132957305
 20
149.6220809043
 30
0.0
 11
42.4132957305
 21
149.6220809043
 31
0.0
  0
LINE
  5
179
330
173
100
AcDbEntity
  8
SLD-0
100
AcDbLine
 10
68.4132957305
 20
89.6220809043
 30
0.0
 11
42.4132957305
 21
89.6220809043
 31
0.0
  0
LINE
  5
17A
330
173
100
AcDbEntity
  8
SLD-0
100
AcDbLine
 10
43.4132957305
 20
149.6220809043
 30
0.0
 11
43.4132957305
 21
89.6220809043
 31
0.0
  0
MTEXT
  5
17B
330
173
100
AcDbEntity
  8
SLD-0
100
AcDbMText
 10
40.1906265557
 20
117.7123586795
 30
0.0
 40
2.5
 41
0.0
 71
     1
 72
     1
  1
60
  7
SLDTEXTSTYLE0
 11
-7.044195017643634E-15
 21
1.0
 31
0.0
 73
     1
 44
1.0
  0
ENDBLK
  5
175
330
173
100
AcDbEntity
  8
0
100
AcDbBlockEnd
  0
BLOCK
  5
17F
330
17E
100
AcDbEntity
  8
0
100
AcDbBlockBegin
  2
_D_9
 70
     0
 10
0.0
 20
0.0
 30
0.0
  3
_D_9
  1

  0
SOLID
  5
181
330
17E
100
AcDbEntity
  8
SLD-0
100
AcDbTrace
 10
120.648918387
 20
91.1590171152
 30
0.0
 11
120.9341087384
 21
89.1637310546
 31
0.0
 12
121.4164809887
 22
89.2953251738
 32
0.0
 13
121.4164809887
 23
89.2953251738
 33
0.0
  0
LINE
  5
182
330
17E
100
AcDbEntity
  8
SLD-0
100
AcDbLine
 10
120.648918387
 20
91.1590171152
 30
0.0
 11
124.7742824643
 21
76.0370559959
 31
0.0
  0
LINE
  5
183
330
17E
100
AcDbEntity
  8
SLD-0
100
AcDbLine
 10
124.7742824643
 20
76.0370559959
 30
0.0
 11
141.4860877409
 21
76.0370559959
 31
0.0
  0
MTEXT
  5
184
330
17E
100
AcDbEntity
  8
SLD-0
100
AcDbMText
 10
126.0242824643
 20
83.0965306373
 30
0.0
 40
2.5
 41
0.0
 71
     1
 72
     1
  1
9 HOLES,
  7
SLDTEXTSTYLE0
 73
     1
 44
1.0
  0
MTEXT
  5
185
330
17E
100
AcDbEntity
  8
SLD-0
100
AcDbMText
 10
126.9617824643
 20
79.2597251707
 30
0.0
 40
2.5
 41
0.0
 71
     1
 72
     1
  1
1/4"-20
  7
SLDTEXTSTYLE0
 73
     1
 44
1.0
  0
ENDBLK
  5
180
330
17E
100
AcDbEntity
  8
0
100
AcDbBlockEnd
  0
BLOCK
  5
188
330
187
100
AcDbEntity
  8
0
100
AcDbBlockBegin
  2
_D_10
 70
     0
 10
0.0
 20
0.0
 30
0.0
  3
_D_10
  1

  0
SOLID
  5
18A
330
187
100
AcDbEntity
  8
SLD-0
100
AcDbTrace
 10
80.8849445601
 20
105.0110889685
 30
0.0
 11
79.8601460558
 21
103.2754945385
 31
0.0
 12
80.3189015618
 22
103.0766393507
 32
0.0
 13
80.3189015618
 23
103.0766393507
 33
0.0
  0
LINE
  5
18B
330
187
100
AcDbEntity
  8
SLD-0
100
AcDbLine
 10
80.8849445601
 20
105.0110889685
 30
0.0
 11
67.9992574503
 21
75.284029922
 31
0.0
  0
LINE
  5
18C
330
187
100
AcDbEntity
  8
SLD-0
100
AcDbLine
 10
67.9992574503
 20
75.284029922
 30
0.0
 11
51.2874521737
 21
75.284029922
 31
0.0
  0
MTEXT
  5
18D
330
187
100
AcDbEntity
  8
SLD-0
100
AcDbMText
 10
51.2874521737
 20
82.3435045633
 30
0.0
 40
2.5
 41
0.0
 71
     1
 72
     1
  1
4 HOLES,
  7
SLDTEXTSTYLE0
 73
     1
 44
1.0
  0
MTEXT
  5
18E
330
187
100
AcDbEntity
  8
SLD-0
100
AcDbMText
 10
52.2249521737
 20
78.5066990968
 30
0.0
 40
2.5
 41
0.0
 71
     1
 72
     1
  1
8-32
  7
SLDTEXTSTYLE0
 73
     1
 44
1.0
  0
ENDBLK
  5
189
330
187
100
AcDbEntity
  8
0
100
AcDbBlockEnd
  0
BLOCK
  5
191
330
190
100
AcDbEntity
  8
0
100
AcDbBlockBegin
  2
_D_11
 70
     0
 10
0.0
 20
0.0
 30
0.0
  3
_D_11
  1

  0
SOLID
  5
193
330
190
100
AcDbEntity
  8
SLD-0
100
AcDbTrace
 10
94.851591697
 20
101.383145022
 30
0.0
 11
94.760137562
 21
99.3696564719
 31
0.0
 12
95.2585794861
 22
99.4090981787
 32
0.0
 13
95.2585794861
 23
99.4090981787
 33
0.0
  0
LINE
  5
194
330
190
100
AcDbEntity
  8
SLD-0
100
AcDbLine
 10
94.851591697
 20
101.383145022
 30
0.0
 11
97.2204209298
 21
71.4472244554
 31
0.0
  0
LINE
  5
195
330
190
100
AcDbEntity
  8
SLD-0
100
AcDbLine
 10
97.2204209298
 20
71.4472244554
 30
0.0
 11
118.2030601233
 21
71.4472244554
 31
0.0
  0
MTEXT
  5
196
330
190
100
AcDbEntity
  8
SLD-0
100
AcDbMText
 10
98.4704209298
 20
78.5066990968
 30
0.0
 40
2.5
 41
0.0
 71
     1
 72
     1
  1
4 HOLES,
  7
SLDTEXTSTYLE0
 73
     1
 44
1.0
  0
MTEXT
  5
197
330
190
100
AcDbEntity
  8
SLD-0
100
AcDbMText
 10
99.4079209298
 20
74.6698936302
 30
0.0
 40
2.5
 41
0.0
 71
     1
 72
     1
  1
1/4"-20 CLR
  7
SLDTEXTSTYLE0
 73
     1
 44
1.0
  0
ENDBLK
  5
192
330
190
100
AcDbEntity
  8
0
100
AcDbBlockEnd
  0
BLOCK
  5
19A
330
199
100
AcDbEntity
  8
0
100
AcDbBlockBegin
  2
_D_12
 70
     0
 10
0.0
 20
0.0
 30
0.0
  3
_D_12
  1

  0
SOLID
  5
19C
330
199
100
AcDbEntity
  8
SLD-0
 62
     7
100
AcDbTrace
 10
94.4132957305
 20
155.24141052
 30
0.0
 11
96.4132957305
 21
154.99141052
 31
0.0
 12
96.4132957305
 22
155.49141052
 32
0.0
 13
96.4132957305
 23
155.49141052
 33
0.0
  0
SOLID
  5
19D
330
199
100
AcDbEntity
  8
SLD-0
 62
     7
100
AcDbTrace
 10
107.1132957305
 20
155.24141052
 30
0.0
 11
105.1132957305
 21
155.49141052
 31
0.0
 12
105.1132957305
 22
154.99141052
 32
0.0
 13
105.1132957305
 23
154.99141052
 33
0.0
  0
LINE
  5
19E
330
199
100
AcDbEntity
  8
SLD-0
 62
     7
100
AcDbLine
 10
94.4132957305
 20
149.5747809043
 30
0.0
 11
94.4132957305
 21
156.24141052
 31
0.0
  0
LINE
  5
19F
330
199
100
AcDbEntity
  8
SLD-0
 62
     7
100
AcDbLine
 10
107.1132957305
 20
133.3220809043
 30
0.0
 11
107.1132957305
 21
156.24141052
 31
0.0
  0
LINE
  5
1A0
330
199
100
AcDbEntity
  8
SLD-0
 62
     7
100
AcDbLine
 10
94.4132957305
 20
155.24141052
 30
0.0
 11
107.1132957305
 21
155.24141052
 31
0.0
  0
MTEXT
  5
1A1
330
199
100
AcDbEntity
  8
SLD-0
 62
     7
100
AcDbMText
 10
97.4212819244
 20
158.4640796948
 30
0.0
 40
2.5
 41
0.0
 71
     1
 72
     1
  1
12.7
  7
SLDTEXTSTYLE0
 73
     1
 44
1.0
  0
ENDBLK
  5
19B
330
199
100
AcDbEntity
  8
0
100
AcDbBlockEnd
  0
BLOCK
  5
1A3
330
1A2
100
AcDbEntity
  8
0
100
AcDbBlockBegin
  2
SW_CENTERMARKSYMBOL_0
 70
     0
 10
0.0
 20
0.0
 30
0.0
  3
SW_CENTERMARKSYMBOL_0
  1

  0
LINE
  5
1A5
330
1A2
100
AcDbEntity
  8
SLD-0
 62
     0
100
AcDbLine
 10
0.0
 20
0.0
 30
0.0
 11
0.0
 21
1.0
 31
0.0
  0
LINE
  5
1A6
330
1A2
100
AcDbEntity
  8
SLD-0
 62
     0
100
AcDbLine
 10
0.0
 20
0.0
 30
0.0
 11
-1.0
 21
0.0
 31
0.0
  0
LINE
  5
1A7
330
1A2
100
AcDbEntity
  8
SLD-0
 62
     0
100
AcDbLine
 10
0.0
 20
0.0
 30
0.0
 11
0.0
 21
-1.0
 31
0.0
  0
LINE
  5
1A8
330
1A2
100
AcDbEntity
  8
SLD-0
 62
     0
100
AcDbLine
 10
0.0
 20
0.0
 30
0.0
 11
1.0
 21
0.0
 31
0.0
  0
LINE
  5
1A9
330
1A2
100
AcDbEntity
  8
SLD-0
 62
     0
100
AcDbLine
 10
0.0
 20
2.0
 30
0.0
 11
0.0
 21
3.5527
 31
0.0
  0
LINE
  5
1AA
330
1A2
100
AcDbEntity
  8
SLD-0
 62
     0
100
AcDbLine
 10
-2.0
 20
0.0
 30
0.0
 11
-3.5527
 21
0.0
 31
0.0
  0
LINE
  5
1AB
330
1A2
100
AcDbEntity
  8
SLD-0
 62
     0
100
AcDbLine
 10
0.0
 20
-2.0
 30
0.0
 11
0.0
 21
-3.5527
 31
0.0
  0
LINE
  5
1AC
330
1A2
100
AcDbEntity
  8
SLD-0
 62
     0
100
AcDbLine
 10
2.0
 20
0.0
 30
0.0
 11
3.5527
 21
0.0
 31
0.0
  0
ENDBLK
  5
1A4
330
1A2
100
AcDbEntity
  8
0
100
AcDbBlockEnd
  0
BLOCK
  5
1AF
330
1AE
100
AcDbEntity
  8
0
100
AcDbBlockBegin
  2
SW_CENTERMARKSYMBOL_1
 70
     0
 10
0.0
 20
0.0
 30
0.0
  3
SW_CENTERMARKSYMBOL_1
  1

  0
LINE
  5
1B1
330
1AE
100
AcDbEntity
  8
SLD-0
 62
     0
100
AcDbLine
 10
0.0
 20
0.0
 30
0.0
 11
0.0
 21
1.0
 31
0.0
  0
LINE
  5
1B2
330
1AE
100
AcDbEntity
  8
SLD-0
 62
     0
100
AcDbLine
 10
0.0
 20
0.0
 30
0.0
 11
-1.0
 21
0.0
 31
0.0
  0
LINE
  5
1B3
330
1AE
100
AcDbEntity
  8
SLD-0
 62
     0
100
AcDbLine
 10
0.0
 20
0.0
 30
0.0
 11
0.0
 21
-1.0
 31
0.0
  0
LINE
  5
1B4
330
1AE
100
AcDbEntity
  8
SLD-0
 62
     0
100
AcDbLine
 10
0.0
 20
0.0
 30
0.0
 11
1.0
 21
0.0
 31
0.0
  0
LINE
  5
1B5
330
1AE
100
AcDbEntity
  8
SLD-0
 62
     0
100
AcDbLine
 10
0.0
 20
2.0
 30
0.0
 11
0.0
 21
3.5527
 31
0.0
  0
LINE
  5
1B6
330
1AE
100
AcDbEntity
  8
SLD-0
 62
     0
100
AcDbLine
 10
-2.0
 20
0.0
 30
0.0
 11
-3.5527
 21
0.0
 31
0.0
  0
LINE
  5
1B7
330
1AE
100
AcDbEntity
  8
SLD-0
 62
     0
100
AcDbLine
 10
0.0
 20
-2.0
 30
0.0
 11
0.0
 21
-3.5527
 31
0.0
  0
LINE
  5
1B8
330
1AE
100
AcDbEntity
  8
SLD-0
 62
     0
100
AcDbLine
 10
2.0
 20
0.0
 30
0.0
 11
3.5527
 21
0.0
 31
0.0
  0
ENDBLK
  5
1B0
330
1AE
100
AcDbEntity
  8
0
100
AcDbBlockEnd
  0
BLOCK
  5
1BB
330
1BA
100
AcDbEntity
  8
0
100
AcDbBlockBegin
  2
SW_CENTERMARKSYMBOL_2
 70
     0
 10
0.0
 20
0.0
 30
0.0
  3
SW_CENTERMARKSYMBOL_2
  1

  0
LINE
  5
1BD
330
1BA
100
AcDbEntity
  8
SLD-0
 62
     0
100
AcDbLine
 10
0.0
 20
0.0
 30
0.0
 11
0.0
 21
1.0
 31
0.0
  0
LINE
  5
1BE
330
1BA
100
AcDbEntity
  8
SLD-0
 62
     0
100
AcDbLine
 10
0.0
 20
0.0
 30
0.0
 11
-1.0
 21
0.0
 31
0.0
  0
LINE
  5
1BF
330
1BA
100
AcDbEntity
  8
SLD-0
 62
     0
100
AcDbLine
 10
0.0
 20
0.0
 30
0.0
 11
0.0
 21
-1.0
 31
0.0
  0
LINE
  5
1C0
330
1BA
100
AcDbEntity
  8
SLD-0
 62
     0
100
AcDbLine
 10
0.0
 20
0.0
 30
0.0
 11
1.0
 21
0.0
 31
0.0
  0
LINE
  5
1C1
330
1BA
100
AcDbEntity
  8
SLD-0
 62
     0
100
AcDbLine
 10
0.0
 20
2.0
 30
0.0
 11
0.0
 21
3.5527
 31
0.0
  0
LINE
  5
1C2
330
1BA
100
AcDbEntity
  8
SLD-0
 62
     0
100
AcDbLine
 10
-2.0
 20
0.0
 30
0.0
 11
-3.5527
 21
0.0
 31
0.0
  0
LINE
  5
1C3
330
1BA
100
AcDbEntity
  8
SLD-0
 62
     0
100
AcDbLine
 10
0.0
 20
-2.0
 30
0.0
 11
0.0
 21
-3.5527
 31
0.0
  0
LINE
  5
1C4
330
1BA
100
AcDbEntity
  8
SLD-0
 62
     0
100
AcDbLine
 10
2.0
 20
0.0
 30
0.0
 11
3.5527
 21
0.0
 31
0.0
  0
ENDBLK
  5
1BC
330
1BA
100
AcDbEntity
  8
0
100
AcDbBlockEnd
  0
BLOCK
  5
1C7
330
1C6
100
AcDbEntity
  8
0
100
AcDbBlockBegin
  2
SW_CENTERMARKSYMBOL_3
 70
     0
 10
0.0
 20
0.0
 30
0.0
  3
SW_CENTERMARKSYMBOL_3
  1

  0
LINE
  5
1C9
330
1C6
100
AcDbEntity
  8
SLD-0
 62
     0
100
AcDbLine
 10
0.0
 20
0.0
 30
0.0
 11
0.0
 21
1.0
 31
0.0
  0
LINE
  5
1CA
330
1C6
100
AcDbEntity
  8
SLD-0
 62
     0
100
AcDbLine
 10
0.0
 20
0.0
 30
0.0
 11
-1.0
 21
0.0
 31
0.0
  0
LINE
  5
1CB
330
1C6
100
AcDbEntity
  8
SLD-0
 62
     0
100
AcDbLine
 10
0.0
 20
0.0
 30
0.0
 11
0.0
 21
-1.0
 31
0.0
  0
LINE
  5
1CC
330
1C6
100
AcDbEntity
  8
SLD-0
 62
     0
100
AcDbLine
 10
0.0
 20
0.0
 30
0.0
 11
1.0
 21
0.0
 31
0.0
  0
LINE
  5
1CD
330
1C6
100
AcDbEntity
  8
SLD-0
 62
     0
100
AcDbLine
 10
0.0
 20
2.0
 30
0.0
 11
0.0
 21
2.7272
 31
0.0
  0
LINE
  5
1CE
330
1C6
100
AcDbEntity
  8
SLD-0
 62
     0
100
AcDbLine
 10
-2.0
 20
0.0
 30
0.0
 11
-2.7272
 21
0.0
 31
0.0
  0
LINE
  5
1CF
330
1C6
100
AcDbEntity
  8
SLD-0
 62
     0
100
AcDbLine
 10
0.0
 20
-2.0
 30
0.0
 11
0.0
 21
-2.7272
 31
0.0
  0
LINE
  5
1D0
330
1C6
100
AcDbEntity
  8
SLD-0
 62
     0
100
AcDbLine
 10
2.0
 20
0.0
 30
0.0
 11
2.7272
 21
0.0
 31
0.0
  0
ENDBLK
  5
1C8
330
1C6
100
AcDbEntity
  8
0
100
AcDbBlockEnd
  0
BLOCK
  5
1D3
330
1D2
100
AcDbEntity
  8
0
100
AcDbBlockBegin
  2
SW_CENTERMARKSYMBOL_4
 70
     0
 10
0.0
 20
0.0
 30
0.0
  3
SW_CENTERMARKSYMBOL_4
  1

  0
LINE
  5
1D5
330
1D2
100
AcDbEntity
  8
SLD-0
 62
     0
100
AcDbLine
 10
0.0
 20
0.0
 30
0.0
 11
0.0
 21
1.0
 31
0.0
  0
LINE
  5
1D6
330
1D2
100
AcDbEntity
  8
SLD-0
 62
     0
100
AcDbLine
 10
0.0
 20
0.0
 30
0.0
 11
-1.0
 21
0.0
 31
0.0
  0
LINE
  5
1D7
330
1D2
100
AcDbEntity
  8
SLD-0
 62
     0
100
AcDbLine
 10
0.0
 20
0.0
 30
0.0
 11
0.0
 21
-1.0
 31
0.0
  0
LINE
  5
1D8
330
1D2
100
AcDbEntity
  8
SLD-0
 62
     0
100
AcDbLine
 10
0.0
 20
0.0
 30
0.0
 11
1.0
 21
0.0
 31
0.0
  0
LINE
  5
1D9
330
1D2
100
AcDbEntity
  8
SLD-0
 62
     0
100
AcDbLine
 10
0.0
 20
2.0
 30
0.0
 11
0.0
 21
6.55625
 31
0.0
  0
LINE
  5
1DA
330
1D2
100
AcDbEntity
  8
SLD-0
 62
     0
100
AcDbLine
 10
-2.0
 20
0.0
 30
0.0
 11
-6.55625
 21
0.0
 31
0.0
  0
LINE
  5
1DB
330
1D2
100
AcDbEntity
  8
SLD-0
 62
     0
100
AcDbLine
 10
0.0
 20
-2.0
 30
0.0
 11
0.0
 21
-6.55625
 31
0.0
  0
LINE
  5
1DC
330
1D2
100
AcDbEntity
  8
SLD-0
 62
     0
100
AcDbLine
 10
2.0
 20
0.0
 30
0.0
 11
6.55625
 21
0.0
 31
0.0
  0
ENDBLK
  5
1D4
330
1D2
100
AcDbEntity
  8
0
100
AcDbBlockEnd
  0
BLOCK
  5
1DF
330
1DE
100
AcDbEntity
  8
0
100
AcDbBlockBegin
  2
SW_CENTERMARKSYMBOL_5
 70
     0
 10
0.0
 20
0.0
 30
0.0
  3
SW_CENTERMARKSYMBOL_5
  1

  0
LINE
  5
1E1
330
1DE
100
AcDbEntity
  8
SLD-0
 62
     0
100
AcDbLine
 10
0.0
 20
0.0
 30
0.0
 11
0.0
 21
1.0
 31
0.0
  0
LINE
  5
1E2
330
1DE
100
AcDbEntity
  8
SLD-0
 62
     0
100
AcDbLine
 10
0.0
 20
0.0
 30
0.0
 11
-1.0
 21
0.0
 31
0.0
  0
LINE
  5
1E3
330
1DE
100
AcDbEntity
  8
SLD-0
 62
     0
100
AcDbLine
 10
0.0
 20
0.0
 30
0.0
 11
0.0
 21
-1.0
 31
0.0
  0
LINE
  5
1E4
330
1DE
100
AcDbEntity
  8
SLD-0
 62
     0
100
AcDbLine
 10
0.0
 20
0.0
 30
0.0
 11
1.0
 21
0.0
 31
0.0
  0
LINE
  5
1E5
330
1DE
100
AcDbEntity
  8
SLD-0
 62
     0
100
AcDbLine
 10
0.0
 20
2.0
 30
0.0
 11
0.0
 21
2.7272
 31
0.0
  0
LINE
  5
1E6
330
1DE
100
AcDbEntity
  8
SLD-0
 62
     0
100
AcDbLine
 10
-2.0
 20
0.0
 30
0.0
 11
-2.7272
 21
0.0
 31
0.0
  0
LINE
  5
1E7
330
1DE
100
AcDbEntity
  8
SLD-0
 62
     0
100
AcDbLine
 10
0.0
 20
-2.0
 30
0.0
 11
0.0
 21
-2.7272
 31
0.0
  0
LINE
  5
1E8
330
1DE
100
AcDbEntity
  8
SLD-0
 62
     0
100
AcDbLine
 10
2.0
 20
0.0
 30
0.0
 11
2.7272
 21
0.0
 31
0.0
  0
ENDBLK
  5
1E0
330
1DE
100
AcDbEntity
  8
0
100
AcDbBlockEnd
  0
BLOCK
  5
1EB
330
1EA
100
AcDbEntity
  8
0
100
AcDbBlockBegin
  2
SW_CENTERMARKSYMBOL_6
 70
     0
 10
0.0
 20
0.0
 30
0.0
  3
SW_CENTERMARKSYMBOL_6
  1

  0
LINE
  5
1ED
330
1EA
100
AcDbEntity
  8
SLD-0
 62
     0
100
AcDbLine
 10
0.0
 20
0.0
 30
0.0
 11
0.0
 21
1.0
 31
0.0
  0
LINE
  5
1EE
330
1EA
100
AcDbEntity
  8
SLD-0
 62
     0
100
AcDbLine
 10
0.0
 20
0.0
 30
0.0
 11
-1.0
 21
0.0
 31
0.0
  0
LINE
  5
1EF
330
1EA
100
AcDbEntity
  8
SLD-0
 62
     0
100
AcDbLine
 10
0.0
 20
0.0
 30
0.0
 11
0.0
 21
-1.0
 31
0.0
  0
LINE
  5
1F0
330
1EA
100
AcDbEntity
  8
SLD-0
 62
     0
100
AcDbLine
 10
0.0
 20
0.0
 30
0.0
 11
1.0
 21
0.0
 31
0.0
  0
LINE
  5
1F1
330
1EA
100
AcDbEntity
  8
SLD-0
 62
     0
100
AcDbLine
 10
0.0
 20
2.0
 30
0.0
 11
0.0
 21
3.5527
 31
0.0
  0
LINE
  5
1F2
330
1EA
100
AcDbEntity
  8
SLD-0
 62
     0
100
AcDbLine
 10
-2.0
 20
0.0
 30
0.0
 11
-3.5527
 21
0.0
 31
0.0
  0
LINE
  5
1F3
330
1EA
100
AcDbEntity
  8
SLD-0
 62
     0
100
AcDbLine
 10
0.0
 20
-2.0
 30
0.0
 11
0.0
 21
-3.5527
 31
0.0
  0
LINE
  5
1F4
330
1EA
100
AcDbEntity
  8
SLD-0
 62
     0
100
AcDbLine
 10
2.0
 20
0.0
 30
0.0
 11
3.5527
 21
0.0
 31
0.0
  0
ENDBLK
  5
1EC
330
1EA
100
AcDbEntity
  8
0
100
AcDbBlockEnd
  0
BLOCK
  5
1F7
330
1F6
100
AcDbEntity
  8
0
100
AcDbBlockBegin
  2
SW_CENTERMARKSYMBOL_7
 70
     0
 10
0.0
 20
0.0
 30
0.0
  3
SW_CENTERMARKSYMBOL_7
  1

  0
LINE
  5
1F9
330
1F6
100
AcDbEntity
  8
SLD-0
 62
     0
100
AcDbLine
 10
0.0
 20
0.0
 30
0.0
 11
0.0
 21
1.0
 31
0.0
  0
LINE
  5
1FA
330
1F6
100
AcDbEntity
  8
SLD-0
 62
     0
100
AcDbLine
 10
0.0
 20
0.0
 30
0.0
 11
-1.0
 21
0.0
 31
0.0
  0
LINE
  5
1FB
330
1F6
100
AcDbEntity
  8
SLD-0
 62
     0
100
AcDbLine
 10
0.0
 20
0.0
 30
0.0
 11
0.0
 21
-1.0
 31
0.0
  0
LINE
  5
1FC
330
1F6
100
AcDbEntity
  8
SLD-0
 62
     0
100
AcDbLine
 10
0.0
 20
0.0
 30
0.0
 11
1.0
 21
0.0
 31
0.0
  0
LINE
  5
1FD
330
1F6
100
AcDbEntity
  8
SLD-0
 62
     0
100
AcDbLine
 10
0.0
 20
2.0
 30
0.0
 11
0.0
 21
6.55625
 31
0.0
  0
LINE
  5
1FE
330
1F6
100
AcDbEntity
  8
SLD-0
 62
     0
100
AcDbLine
 10
-2.0
 20
0.0
 30
0.0
 11
-6.55625
 21
0.0
 31
0.0
  0
LINE
  5
1FF
330
1F6
100
AcDbEntity
  8
SLD-0
 62
     0
100
AcDbLine
 10
0.0
 20
-2.0
 30
0.0
 11
0.0
 21
-6.55625
 31
0.0
  0
LINE
  5
200
330
1F6
100
AcDbEntity
  8
SLD-0
 62
     0
100
AcDbLine
 10
2.0
 20
0.0
 30
0.0
 11
6.55625
 21
0.0
 31
0.0
  0
ENDBLK
  5
1F8
330
1F6
100
AcDbEntity
  8
0
100
AcDbBlockEnd
  0
BLOCK
  5
203
330
202
100
AcDbEntity
  8
0
100
AcDbBlockBegin
  2
SW_CENTERMARKSYMBOL_8
 70
     0
 10
0.0
 20
0.0
 30
0.0
  3
SW_CENTERMARKSYMBOL_8
  1

  0
LINE
  5
205
330
202
100
AcDbEntity
  8
SLD-0
 62
     0
100
AcDbLine
 10
0.0
 20
0.0
 30
0.0
 11
0.0
 21
1.0
 31
0.0
  0
LINE
  5
206
330
202
100
AcDbEntity
  8
SLD-0
 62
     0
100
AcDbLine
 10
0.0
 20
0.0
 30
0.0
 11
-1.0
 21
0.0
 31
0.0
  0
LINE
  5
207
330
202
100
AcDbEntity
  8
SLD-0
 62
     0
100
AcDbLine
 10
0.0
 20
0.0
 30
0.0
 11
0.0
 21
-1.0
 31
0.0
  0
LINE
  5
208
330
202
100
AcDbEntity
  8
SLD-0
 62
     0
100
AcDbLine
 10
0.0
 20
0.0
 30
0.0
 11
1.0
 21
0.0
 31
0.0
  0
LINE
  5
209
330
202
100
AcDbEntity
  8
SLD-0
 62
     0
100
AcDbLine
 10
0.0
 20
2.0
 30
0.0
 11
0.0
 21
3.5527
 31
0.0
  0
LINE
  5
20A
330
202
100
AcDbEntity
  8
SLD-0
 62
     0
100
AcDbLine
 10
-2.0
 20
0.0
 30
0.0
 11
-3.5527
 21
0.0
 31
0.0
  0
LINE
  5
20B
330
202
100
AcDbEntity
  8
SLD-0
 62
     0
100
AcDbLine
 10
0.0
 20
-2.0
 30
0.0
 11
0.0
 21
-3.5527
 31
0.0
  0
LINE
  5
20C
330
202
100
AcDbEntity
  8
SLD-0
 62
     0
100
AcDbLine
 10
2.0
 20
0.0
 30
0.0
 11
3.5527
 21
0.0
 31
0.0
  0
ENDBLK
  5
204
330
202
100
AcDbEntity
  8
0
100
AcDbBlockEnd
  0
BLOCK
  5
20F
330
20E
100
AcDbEntity
  8
0
100
AcDbBlockBegin
  2
SW_CENTERMARKSYMBOL_9
 70
     0
 10
0.0
 20
0.0
 30
0.0
  3
SW_CENTERMARKSYMBOL_9
  1

  0
LINE
  5
211
330
20E
100
AcDbEntity
  8
SLD-0
 62
     0
100
AcDbLine
 10
0.0
 20
0.0
 30
0.0
 11
0.0
 21
1.0
 31
0.0
  0
LINE
  5
212
330
20E
100
AcDbEntity
  8
SLD-0
 62
     0
100
AcDbLine
 10
0.0
 20
0.0
 30
0.0
 11
-1.0
 21
0.0
 31
0.0
  0
LINE
  5
213
330
20E
100
AcDbEntity
  8
SLD-0
 62
     0
100
AcDbLine
 10
0.0
 20
0.0
 30
0.0
 11
0.0
 21
-1.0
 31
0.0
  0
LINE
  5
214
330
20E
100
AcDbEntity
  8
SLD-0
 62
     0
100
AcDbLine
 10
0.0
 20
0.0
 30
0.0
 11
1.0
 21
0.0
 31
0.0
  0
LINE
  5
215
330
20E
100
AcDbEntity
  8
SLD-0
 62
     0
100
AcDbLine
 10
0.0
 20
2.0
 30
0.0
 11
0.0
 21
6.55625
 31
0.0
  0
LINE
  5
216
330
20E
100
AcDbEntity
  8
SLD-0
 62
     0
100
AcDbLine
 10
-2.0
 20
0.0
 30
0.0
 11
-6.55625
 21
0.0
 31
0.0
  0
LINE
  5
217
330
20E
100
AcDbEntity
  8
SLD-0
 62
     0
100
AcDbLine
 10
0.0
 20
-2.0
 30
0.0
 11
0.0
 21
-6.55625
 31
0.0
  0
LINE
  5
218
330
20E
100
AcDbEntity
  8
SLD-0
 62
     0
100
AcDbLine
 10
2.0
 20
0.0
 30
0.0
 11
6.55625
 21
0.0
 31
0.0
  0
ENDBLK
  5
210
330
20E
100
AcDbEntity
  8
0
100
AcDbBlockEnd
  0
BLOCK
  5
21B
330
21A
100
AcDbEntity
  8
0
100
AcDbBlockBegin
  2
SW_CENTERMARKSYMBOL_10
 70
     0
 10
0.0
 20
0.0
 30
0.0
  3
SW_CENTERMARKSYMBOL_10
  1

  0
LINE
  5
21D
330
21A
100
AcDbEntity
  8
SLD-0
 62
     0
100
AcDbLine
 10
0.0
 20
0.0
 30
0.0
 11
0.0
 21
1.0
 31
0.0
  0
LINE
  5
21E
330
21A
100
AcDbEntity
  8
SLD-0
 62
     0
100
AcDbLine
 10
0.0
 20
0.0
 30
0.0
 11
-1.0
 21
0.0
 31
0.0
  0
LINE
  5
21F
330
21A
100
AcDbEntity
  8
SLD-0
 62
     0
100
AcDbLine
 10
0.0
 20
0.0
 30
0.0
 11
0.0
 21
-1.0
 31
0.0
  0
LINE
  5
220
330
21A
100
AcDbEntity
  8
SLD-0
 62
     0
100
AcDbLine
 10
0.0
 20
0.0
 30
0.0
 11
1.0
 21
0.0
 31
0.0
  0
LINE
  5
221
330
21A
100
AcDbEntity
  8
SLD-0
 62
     0
100
AcDbLine
 10
0.0
 20
2.0
 30
0.0
 11
0.0
 21
3.5527
 31
0.0
  0
LINE
  5
222
330
21A
100
AcDbEntity
  8
SLD-0
 62
     0
100
AcDbLine
 10
-2.0
 20
0.0
 30
0.0
 11
-3.5527
 21
0.0
 31
0.0
  0
LINE
  5
223
330
21A
100
AcDbEntity
  8
SLD-0
 62
     0
100
AcDbLine
 10
0.0
 20
-2.0
 30
0.0
 11
0.0
 21
-3.5527
 31
0.0
  0
LINE
  5
224
330
21A
100
AcDbEntity
  8
SLD-0
 62
     0
100
AcDbLine
 10
2.0
 20
0.0
 30
0.0
 11
3.5527
 21
0.0
 31
0.0
  0
ENDBLK
  5
21C
330
21A
100
AcDbEntity
  8
0
100
AcDbBlockEnd
  0
BLOCK
  5
227
330
226
100
AcDbEntity
  8
0
100
AcDbBlockBegin
  2
SW_CENTERMARKSYMBOL_11
 70
     0
 10
0.0
 20
0.0
 30
0.0
  3
SW_CENTERMARKSYMBOL_11
  1

  0
LINE
  5
229
330
226
100
AcDbEntity
  8
SLD-0
 62
     0
100
AcDbLine
 10
0.0
 20
0.0
 30
0.0
 11
0.0
 21
1.0
 31
0.0
  0
LINE
  5
22A
330
226
100
AcDbEntity
  8
SLD-0
 62
     0
100
AcDbLine
 10
0.0
 20
0.0
 30
0.0
 11
-1.0
 21
0.0
 31
0.0
  0
LINE
  5
22B
330
226
100
AcDbEntity
  8
SLD-0
 62
     0
100
AcDbLine
 10
0.0
 20
0.0
 30
0.0
 11
0.0
 21
-1.0
 31
0.0
  0
LINE
  5
22C
330
226
100
AcDbEntity
  8
SLD-0
 62
     0
100
AcDbLine
 10
0.0
 20
0.0
 30
0.0
 11
1.0
 21
0.0
 31
0.0
  0
LINE
  5
22D
330
226
100
AcDbEntity
  8
SLD-0
 62
     0
100
AcDbLine
 10
0.0
 20
2.0
 30
0.0
 11
0.0
 21
2.7272
 31
0.0
  0
LINE
  5
22E
330
226
100
AcDbEntity
  8
SLD-0
 62
     0
100
AcDbLine
 10
-2.0
 20
0.0
 30
0.0
 11
-2.7272
 21
0.0
 31
0.0
  0
LINE
  5
22F
330
226
100
AcDbEntity
  8
SLD-0
 62
     0
100
AcDbLine
 10
0.0
 20
-2.0
 30
0.0
 11
0.0
 21
-2.7272
 31
0.0
  0
LINE
  5
230
330
226
100
AcDbEntity
  8
SLD-0
 62
     0
100
AcDbLine
 10
2.0
 20
0.0
 30
0.0
 11
2.7272
 21
0.0
 31
0.0
  0
ENDBLK
  5
228
330
226
100
AcDbEntity
  8
0
100
AcDbBlockEnd
  0
BLOCK
  5
233
330
232
100
AcDbEntity
  8
0
100
AcDbBlockBegin
  2
SW_CENTERMARKSYMBOL_12
 70
     0
 10
0.0
 20
0.0
 30
0.0
  3
SW_CENTERMARKSYMBOL_12
  1

  0
LINE
  5
235
330
232
100
AcDbEntity
  8
SLD-0
 62
     0
100
AcDbLine
 10
0.0
 20
0.0
 30
0.0
 11
0.0
 21
1.0
 31
0.0
  0
LINE
  5
236
330
232
100
AcDbEntity
  8
SLD-0
 62
     0
100
AcDbLine
 10
0.0
 20
0.0
 30
0.0
 11
-1.0
 21
0.0
 31
0.0
  0
LINE
  5
237
330
232
100
AcDbEntity
  8
SLD-0
 62
     0
100
AcDbLine
 10
0.0
 20
0.0
 30
0.0
 11
0.0
 21
-1.0
 31
0.0
  0
LINE
  5
238
330
232
100
AcDbEntity
  8
SLD-0
 62
     0
100
AcDbLine
 10
0.0
 20
0.0
 30
0.0
 11
1.0
 21
0.0
 31
0.0
  0
LINE
  5
239
330
232
100
AcDbEntity
  8
SLD-0
 62
     0
100
AcDbLine
 10
0.0
 20
2.0
 30
0.0
 11
0.0
 21
6.55625
 31
0.0
  0
LINE
  5
23A
330
232
100
AcDbEntity
  8
SLD-0
 62
     0
100
AcDbLine
 10
-2.0
 20
0.0
 30
0.0
 11
-6.55625
 21
0.0
 31
0.0
  0
LINE
  5
23B
330
232
100
AcDbEntity
  8
SLD-0
 62
     0
100
AcDbLine
 10
0.0
 20
-2.0
 30
0.0
 11
0.0
 21
-6.55625
 31
0.0
  0
LINE
  5
23C
330
232
100
AcDbEntity
  8
SLD-0
 62
     0
100
AcDbLine
 10
2.0
 20
0.0
 30
0.0
 11
6.55625
 21
0.0
 31
0.0
  0
ENDBLK
  5
234
330
232
100
AcDbEntity
  8
0
100
AcDbBlockEnd
  0
BLOCK
  5
23F
330
23E
100
AcDbEntity
  8
0
100
AcDbBlockBegin
  2
SW_CENTERMARKSYMBOL_13
 70
     0
 10
0.0
 20
0.0
 30
0.0
  3
SW_CENTERMARKSYMBOL_13
  1

  0
LINE
  5
241
330
23E
100
AcDbEntity
  8
SLD-0
 62
     0
100
AcDbLine
 10
0.0
 20
0.0
 30
0.0
 11
0.0
 21
1.0
 31
0.0
  0
LINE
  5
242
330
23E
100
AcDbEntity
  8
SLD-0
 62
     0
100
AcDbLine
 10
0.0
 20
0.0
 30
0.0
 11
-1.0
 21
0.0
 31
0.0
  0
LINE
  5
243
330
23E
100
AcDbEntity
  8
SLD-0
 62
     0
100
AcDbLine
 10
0.0
 20
0.0
 30
0.0
 11
0.0
 21
-1.0
 31
0.0
  0
LINE
  5
244
330
23E
100
AcDbEntity
  8
SLD-0
 62
     0
100
AcDbLine
 10
0.0
 20
0.0
 30
0.0
 11
1.0
 21
0.0
 31
0.0
  0
LINE
  5
245
330
23E
100
AcDbEntity
  8
SLD-0
 62
     0
100
AcDbLine
 10
0.0
 20
2.0
 30
0.0
 11
0.0
 21
2.7272
 31
0.0
  0
LINE
  5
246
330
23E
100
AcDbEntity
  8
SLD-0
 62
     0
100
AcDbLine
 10
-2.0
 20
0.0
 30
0.0
 11
-2.7272
 21
0.0
 31
0.0
  0
LINE
  5
247
330
23E
100
AcDbEntity
  8
SLD-0
 62
     0
100
AcDbLine
 10
0.0
 20
-2.0
 30
0.0
 11
0.0
 21
-2.7272
 31
0.0
  0
LINE
  5
248
330
23E
100
AcDbEntity
  8
SLD-0
 62
     0
100
AcDbLine
 10
2.0
 20
0.0
 30
0.0
 11
2.7272
 21
0.0
 31
0.0
  0
ENDBLK
  5
240
330
23E
100
AcDbEntity
  8
0
100
AcDbBlockEnd
  0
BLOCK
  5
24B
330
24A
100
AcDbEntity
  8
0
100
AcDbBlockBegin
  2
SW_CENTERMARKSYMBOL_14
 70
     0
 10
0.0
 20
0.0
 30
0.0
  3
SW_CENTERMARKSYMBOL_14
  1

  0
LINE
  5
24D
330
24A
100
AcDbEntity
  8
SLD-0
 62
     0
100
AcDbLine
 10
0.0
 20
0.0
 30
0.0
 11
0.0
 21
1.0
 31
0.0
  0
LINE
  5
24E
330
24A
100
AcDbEntity
  8
SLD-0
 62
     0
100
AcDbLine
 10
0.0
 20
0.0
 30
0.0
 11
-1.0
 21
0.0
 31
0.0
  0
LINE
  5
24F
330
24A
100
AcDbEntity
  8
SLD-0
 62
     0
100
AcDbLine
 10
0.0
 20
0.0
 30
0.0
 11
0.0
 21
-1.0
 31
0.0
  0
LINE
  5
250
330
24A
100
AcDbEntity
  8
SLD-0
 62
     0
100
AcDbLine
 10
0.0
 20
0.0
 30
0.0
 11
1.0
 21
0.0
 31
0.0
  0
LINE
  5
251
330
24A
100
AcDbEntity
  8
SLD-0
 62
     0
100
AcDbLine
 10
0.0
 20
2.0
 30
0.0
 11
0.0
 21
3.5527
 31
0.0
  0
LINE
  5
252
330
24A
100
AcDbEntity
  8
SLD-0
 62
     0
100
AcDbLine
 10
-2.0
 20
0.0
 30
0.0
 11
-3.5527
 21
0.0
 31
0.0
  0
LINE
  5
253
330
24A
100
AcDbEntity
  8
SLD-0
 62
     0
100
AcDbLine
 10
0.0
 20
-2.0
 30
0.0
 11
0.0
 21
-3.5527
 31
0.0
  0
LINE
  5
254
330
24A
100
AcDbEntity
  8
SLD-0
 62
     0
100
AcDbLine
 10
2.0
 20
0.0
 30
0.0
 11
3.5527
 21
0.0
 31
0.0
  0
ENDBLK
  5
24C
330
24A
100
AcDbEntity
  8
0
100
AcDbBlockEnd
  0
BLOCK
  5
257
330
256
100
AcDbEntity
  8
0
100
AcDbBlockBegin
  2
SW_CENTERMARKSYMBOL_15
 70
     0
 10
0.0
 20
0.0
 30
0.0
  3
SW_CENTERMARKSYMBOL_15
  1

  0
LINE
  5
259
330
256
100
AcDbEntity
  8
SLD-0
 62
     0
100
AcDbLine
 10
0.0
 20
0.0
 30
0.0
 11
0.0
 21
1.0
 31
0.0
  0
LINE
  5
25A
330
256
100
AcDbEntity
  8
SLD-0
 62
     0
100
AcDbLine
 10
0.0
 20
0.0
 30
0.0
 11
-1.0
 21
0.0
 31
0.0
  0
LINE
  5
25B
330
256
100
AcDbEntity
  8
SLD-0
 62
     0
100
AcDbLine
 10
0.0
 20
0.0
 30
0.0
 11
0.0
 21
-1.0
 31
0.0
  0
LINE
  5
25C
330
256
100
AcDbEntity
  8
SLD-0
 62
     0
100
AcDbLine
 10
0.0
 20
0.0
 30
0.0
 11
1.0
 21
0.0
 31
0.0
  0
LINE
  5
25D
330
256
100
AcDbEntity
  8
SLD-0
 62
     0
100
AcDbLine
 10
0.0
 20
2.0
 30
0.0
 11
0.0
 21
3.5527
 31
0.0
  0
LINE
  5
25E
330
256
100
AcDbEntity
  8
SLD-0
 62
     0
100
AcDbLine
 10
-2.0
 20
0.0
 30
0.0
 11
-3.5527
 21
0.0
 31
0.0
  0
LINE
  5
25F
330
256
100
AcDbEntity
  8
SLD-0
 62
     0
100
AcDbLine
 10
0.0
 20
-2.0
 30
0.0
 11
0.0
 21
-3.5527
 31
0.0
  0
LINE
  5
260
330
256
100
AcDbEntity
  8
SLD-0
 62
     0
100
AcDbLine
 10
2.0
 20
0.0
 30
0.0
 11
3.5527
 21
0.0
 31
0.0
  0
ENDBLK
  5
258
330
256
100
AcDbEntity
  8
0
100
AcDbBlockEnd
  0
BLOCK
  5
263
330
262
100
AcDbEntity
  8
0
100
AcDbBlockBegin
  2
SW_CENTERMARKSYMBOL_16
 70
     0
 10
0.0
 20
0.0
 30
0.0
  3
SW_CENTERMARKSYMBOL_16
  1

  0
LINE
  5
265
330
262
100
AcDbEntity
  8
SLD-0
 62
     0
100
AcDbLine
 10
0.0
 20
0.0
 30
0.0
 11
0.0
 21
1.0
 31
0.0
  0
LINE
  5
266
330
262
100
AcDbEntity
  8
SLD-0
 62
     0
100
AcDbLine
 10
0.0
 20
0.0
 30
0.0
 11
-1.0
 21
0.0
 31
0.0
  0
LINE
  5
267
330
262
100
AcDbEntity
  8
SLD-0
 62
     0
100
AcDbLine
 10
0.0
 20
0.0
 30
0.0
 11
0.0
 21
-1.0
 31
0.0
  0
LINE
  5
268
330
262
100
AcDbEntity
  8
SLD-0
 62
     0
100
AcDbLine
 10
0.0
 20
0.0
 30
0.0
 11
1.0
 21
0.0
 31
0.0
  0
LINE
  5
269
330
262
100
AcDbEntity
  8
SLD-0
 62
     0
100
AcDbLine
 10
0.0
 20
2.0
 30
0.0
 11
0.0
 21
3.5527
 31
0.0
  0
LINE
  5
26A
330
262
100
AcDbEntity
  8
SLD-0
 62
     0
100
AcDbLine
 10
-2.0
 20
0.0
 30
0.0
 11
-3.5527
 21
0.0
 31
0.0
  0
LINE
  5
26B
330
262
100
AcDbEntity
  8
SLD-0
 62
     0
100
AcDbLine
 10
0.0
 20
-2.0
 30
0.0
 11
0.0
 21
-3.5527
 31
0.0
  0
LINE
  5
26C
330
262
100
AcDbEntity
  8
SLD-0
 62
     0
100
AcDbLine
 10
2.0
 20
0.0
 30
0.0
 11
3.5527
 21
0.0
 31
0.0
  0
ENDBLK
  5
264
330
262
100
AcDbEntity
  8
0
100
AcDbBlockEnd
  0
BLOCK
  5
2BC
330
2BB
100
AcDbEntity
  8
0
100
AcDbBlockBegin
  2
_D_13
 70
     0
 10
0.0
 20
0.0
 30
0.0
  3
_D_13
  1

  0
SOLID
  5
2BE
330
2BB
100
AcDbEntity
  8
SLD-0
 62
     7
100
AcDbTrace
 10
135.5148892115
 20
53.1995336103
 30
0.0
 11
135.2648892115
 21
51.1995336103
 31
0.0
 12
135.7648892115
 22
51.1995336103
 32
0.0
 13
135.7648892115
 23
51.1995336103
 33
0.0
  0
SOLID
  5
2BF
330
2BB
100
AcDbEntity
  8
SLD-0
 62
     7
100
AcDbTrace
 10
135.5148892115
 20
45.1995336103
 30
0.0
 11
135.7648892115
 21
47.1995336103
 31
0.0
 12
135.2648892115
 22
47.1995336103
 32
0.0
 13
135.2648892115
 23
47.1995336103
 33
0.0
  0
LINE
  5
2C0
330
2BB
100
AcDbEntity
  8
SLD-0
 62
     7
100
AcDbLine
 10
125.4132957305
 20
53.1995336103
 30
0.0
 11
136.5148892115
 21
53.1995336103
 31
0.0
  0
LINE
  5
2C1
330
2BB
100
AcDbEntity
  8
SLD-0
 62
     7
100
AcDbLine
 10
125.4132957305
 20
45.1995336103
 30
0.0
 11
136.5148892115
 21
45.1995336103
 31
0.0
  0
LINE
  5
2C2
330
2BB
100
AcDbEntity
  8
SLD-0
 62
     7
100
AcDbLine
 10
135.5148892115
 20
53.1995336103
 30
0.0
 11
135.5148892115
 21
45.1995336103
 31
0.0
  0
MTEXT
  5
2C3
330
2BB
100
AcDbEntity
  8
SLD-0
 62
     7
100
AcDbMText
 10
132.2922200367
 20
48.2446724979
 30
0.0
 40
2.5
 41
0.0
 71
     1
 72
     1
  1
8
  7
SLDTEXTSTYLE0
 11
-7.044195017643634E-15
 21
1.0
 31
0.0
 73
     1
 44
1.0
  0
ENDBLK
  5
2BD
330
2BB
100
AcDbEntity
  8
0
100
AcDbBlockEnd
  0
ENDSEC
  0
SECTION
  2
ENTITIES
  0
HATCH
  5
75
330
1F
100
AcDbEntity
  8
DIM
 62
     7
100
AcDbHatch
 10
0.0
 20
0.0
 30
0.0
210
0.0
220
0.0
230
1.0
  2
SOLID
 70
     1
 71
     0
 91
        1
 92
        0
 93
       10
 72
     2
 10
192.1959864308272
 20
35.94109362601509
 40
3.045751395731247
 50
249.211220914341
 51
308.9221353953366
 73
     1
 72
     1
 10
194.1095213920618
 20
33.57149755986121
 11
195.0743410532789
 21
32.72421077621886
 72
     1
 10
195.0743410532789
 20
32.72421077621886
 11
191.8642010801231
 21
29.60717106345646
 72
     1
 10
191.8642010801231
 20
29.60717106345646
 11
190.9234006246292
 21
30.41716813356646
 72
     1
 10
190.9234006246292
 20
30.41716813356646
 11
191.5544525450443
 21
31.03306852403749
 72
     1
 10
191.5544525450443
 20
31.03306852403749
 11
187.5452502348487
 21
34.51767236431217
 72
     2
 10
188.5601916643894
 20
35.66523274007268
 40
1.531992467805808
 50
131.4906380929588
 51
229.7089352075141
 73
     0
 72
     1
 10
187.5694968168739
 20
36.83378938847272
 11
188.8761250717556
 21
38.09537646498024
 72
     1
 10
188.8761250717556
 20
38.09537646498024
 11
189.891318919158
 21
37.19984456416245
 72
     2
 10
191.8645892225307
 20
35.55245187676766
 40
2.570544369711283
 50
140.1430462780655
 51
253.0452525074004
 73
     1
 97
        0
 75
     0
 76
     1
 98
        1
 10
0.0
 20
0.0
  0
HATCH
  5
76
330
1F
100
AcDbEntity
  8
DIM
 62
     1
100
AcDbHatch
 10
0.0
 20
0.0
 30
0.0
210
0.0
220
0.0
230
1.0
  2
SOLID
 70
     1
 71
     0
 91
        1
 92
        0
 93
       10
 72
     2
 10
192.3291518697911
 20
35.18689398731305
 40
3.18163670452787
 50
234.1674444878508
 51
314.440707458399
 73
     0
 72
     2
 10
192.6468081605156
 20
35.72771579279122
 40
2.57756748834625
 50
317.818499299578
 51
398.0564711573081
 73
     0
 72
     1
 10
194.6763940035631
 20
34.13880564344958
 11
195.6618428965459
 21
33.28010870356009
 72
     1
 10
195.6618428965459
 20
33.28010870356009
 11
196.9035242113396
 21
34.4845416459673
 72
     2
 10
196.0101318856775
 20
35.71248837778824
 40
1.518552937418266
 50
306.0377529468126
 51
403.4396461533867
 73
     1
 72
     1
 10
197.1127517503498
 20
36.75663034982637
 11
192.9859958920065
 21
40.34580661846033
 72
     1
 10
192.9859958920065
 20
40.34580661846033
 11
193.6102471939338
 21
40.95486504929765
 72
     1
 10
193.6102471939338
 20
40.95486504929765
 11
192.6797406837497
 21
41.78505726914219
 72
     1
 10
192.6797406837497
 20
41.78505726914219
 11
189.4441552353399
 21
38.65813702252808
 72
     1
 10
189.4441552353399
 20
38.65813702252808
 11
190.4665631126884
 21
37.76634649540728
 97
        0
 75
     0
 76
     1
 98
        1
 10
0.0
 20
0.0
  0
LINE
  5
77
330
1F
100
AcDbEntity
  8
0
  6
Continuous
 62
     7
370
     0
100
AcDbLine
 10
167.8593775185
 20
17.7745192513
 30
0.0
 11
168.8593775185
 21
17.7745192513
 31
0.0
  0
LINE
  5
78
330
1F
100
AcDbEntity
  8
0
  6
Continuous
 62
     7
370
     0
100
AcDbLine
 10
164.8593775185
 20
17.7745192513
 30
0.0
 11
167.3593775185
 21
17.7745192513
 31
0.0
  0
LINE
  5
79
330
1F
100
AcDbEntity
  8
0
  6
Continuous
 62
     7
370
     0
100
AcDbLine
 10
181.3593775185
 20
15.2745192513
 30
0.0
 11
181.3593775185
 21
20.2745192513
 31
0.0
  0
LINE
  5
7A
330
1F
100
AcDbEntity
  8
0
  6
Continuous
 62
     7
370
     0
100
AcDbLine
 10
174.3593775185
 20
16.2745192513
 30
0.0
 11
181.3593775185
 21
15.2745192513
 31
0.0
  0
LINE
  5
7B
330
1F
100
AcDbEntity
  8
0
  6
Continuous
 62
     7
370
     0
100
AcDbLine
 10
168.3593775185
 20
16.7745192513
 30
0.0
 11
168.3593775185
 21
14.2745192513
 31
0.0
  0
LINE
  5
7C
330
1F
100
AcDbEntity
  8
0
  6
Continuous
 62
     7
370
     0
100
AcDbLine
 10
181.3593775185
 20
20.2745192513
 30
0.0
 11
174.3593775185
 21
19.2745192513
 31
0.0
  0
LINE
  5
7D
330
1F
100
AcDbEntity
  8
0
  6
Continuous
 62
     7
370
     0
100
AcDbLine
 10
173.3593775185
 20
17.7745192513
 30
0.0
 11
182.3593775185
 21
17.7745192513
 31
0.0
  0
LINE
  5
7E
330
1F
100
AcDbEntity
  8
0
  6
Continuous
 62
     7
370
     0
100
AcDbLine
 10
168.3593775185
 20
18.2745192513
 30
0.0
 11
168.3593775185
 21
17.2745192513
 31
0.0
  0
LINE
  5
7F
330
1F
100
AcDbEntity
  8
0
  6
Continuous
 62
     7
370
     0
100
AcDbLine
 10
169.3593775185
 20
17.7745192513
 30
0.0
 11
171.8593775185
 21
17.7745192513
 31
0.0
  0
LINE
  5
80
330
1F
100
AcDbEntity
  8
0
  6
Continuous
 62
     7
370
     0
100
AcDbLine
 10
168.3593775185
 20
21.2745192513
 30
0.0
 11
168.3593775185
 21
18.7745192513
 31
0.0
  0
LINE
  5
81
330
1F
100
AcDbEntity
  8
0
  6
Continuous
 62
     7
370
     0
100
AcDbLine
 10
174.3593775185
 20
19.2745192513
 30
0.0
 11
174.3593775185
 21
16.2745192513
 31
0.0
  0
LINE
  5
82
330
1F
100
AcDbEntity
  8
0
370
     0
100
AcDbLine
 10
195.0743410533
 20
32.7242107762
 30
0.0
 11
191.8642010801
 21
29.6071710635
 31
0.0
  0
LINE
  5
83
330
1F
100
AcDbEntity
  8
0
370
     0
100
AcDbLine
 10
191.8642010801
 20
29.6071710635
 30
0.0
 11
190.9234006246
 21
30.4171681336
 31
0.0
  0
LINE
  5
84
330
1F
100
AcDbEntity
  8
0
370
     0
100
AcDbLine
 10
190.9234006246
 20
30.4171681336
 30
0.0
 11
191.554452545
 21
31.033068524
 31
0.0
  0
LINE
  5
85
330
1F
100
AcDbEntity
  8
0
370
     0
100
AcDbLine
 10
187.5452502348
 20
34.5176723643
 30
0.0
 11
191.554452545
 21
31.033068524
 31
0.0
  0
LINE
  5
86
330
1F
100
AcDbEntity
  8
0
370
     0
100
AcDbLine
 10
188.8761250718
 20
38.095376465
 30
0.0
 11
187.5694968169
 21
36.8337893885
 31
0.0
  0
LINE
  5
87
330
1F
100
AcDbEntity
  8
0
370
     0
100
AcDbLine
 10
188.8761250718
 20
38.095376465
 30
0.0
 11
189.8913189192
 21
37.1998445642
 31
0.0
  0
LINE
  5
88
330
1F
100
AcDbEntity
  8
0
370
     0
100
AcDbLine
 10
194.1095213921
 20
33.5714975599
 30
0.0
 11
195.0743410533
 21
32.7242107762
 31
0.0
  0
LINE
  5
89
330
1F
100
AcDbEntity
  8
0
 62
     1
370
     0
100
AcDbLine
 10
190.4665631127
 20
37.7663464954
 30
0.0
 11
189.4441552353
 21
38.6581370225
 31
0.0
  0
LINE
  5
8A
330
1F
100
AcDbEntity
  8
0
 62
     1
370
     0
100
AcDbLine
 10
189.4441552353
 20
38.6581370225
 30
0.0
 11
192.6797406837
 21
41.7850572691
 31
0.0
  0
LINE
  5
8B
330
1F
100
AcDbEntity
  8
0
 62
     1
370
     0
100
AcDbLine
 10
192.6797406837
 20
41.7850572691
 30
0.0
 11
193.6102471939
 21
40.9548650493
 31
0.0
  0
LINE
  5
8C
330
1F
100
AcDbEntity
  8
0
 62
     1
370
     0
100
AcDbLine
 10
193.6102471939
 20
40.9548650493
 30
0.0
 11
192.985995892
 21
40.3458066185
 31
0.0
  0
LINE
  5
8D
330
1F
100
AcDbEntity
  8
0
 62
     1
370
     0
100
AcDbLine
 10
192.985995892
 20
40.3458066185
 30
0.0
 11
197.1127517503
 21
36.7566303498
 31
0.0
  0
LINE
  5
8E
330
1F
100
AcDbEntity
  8
0
 62
     1
370
     0
100
AcDbLine
 10
194.6763940036
 20
34.1388056434
 30
0.0
 11
195.6618428965
 21
33.2801087036
 31
0.0
  0
LINE
  5
8F
330
1F
100
AcDbEntity
  8
0
 62
     1
370
     0
100
AcDbLine
 10
195.6618428965
 20
33.2801087036
 30
0.0
 11
196.9035242113
 21
34.484541646
 31
0.0
  0
LINE
  5
90
330
1F
100
AcDbEntity
  8
0
  6
Continuous
 62
     7
370
     0
100
AcDbLine
 10
185.6907965209
 20
13.1152464079
 30
0.0
 11
285.6907965209
 21
13.1152464079
 31
0.0
  0
LINE
  5
91
330
1F
100
AcDbEntity
  8
0
  6
Continuous
 62
     7
370
     0
100
AcDbLine
 10
185.6907965209
 20
18.1152464079
 30
0.0
 11
235.6907965209
 21
18.1152464079
 31
0.0
  0
LINE
  5
92
330
1F
100
AcDbEntity
  8
0
  6
Continuous
 62
     7
370
     0
100
AcDbLine
 10
185.6907965209
 20
23.1152464079
 30
0.0
 11
235.6907965209
 21
23.1152464079
 31
0.0
  0
LINE
  5
93
330
1F
100
AcDbEntity
  8
0
  6
Continuous
 62
     7
370
     0
100
AcDbLine
 10
185.6907965209
 20
28.1152464079
 30
0.0
 11
285.6907965209
 21
28.1152464079
 31
0.0
  0
LINE
  5
94
330
1F
100
AcDbEntity
  8
0
  6
Continuous
 62
     7
370
     0
100
AcDbLine
 10
235.6907965209
 20
33.1152464079
 30
0.0
 11
285.6907965209
 21
33.1152464079
 31
0.0
  0
LINE
  5
95
330
1F
100
AcDbEntity
  8
0
  6
Continuous
 62
     7
370
    15
100
AcDbLine
 10
235.6907965209
 20
18.1152464079
 30
0.0
 11
285.6907965209
 21
18.1152464079
 31
0.0
  0
LINE
  5
96
330
1F
100
AcDbEntity
  8
0
  6
Continuous
 62
     7
370
     0
100
AcDbLine
 10
185.6907965209
 20
43.1152464079
 30
0.0
 11
285.6907965209
 21
43.1152464079
 31
0.0
  0
LINE
  5
97
330
1F
100
AcDbEntity
  8
0
  6
Continuous
 62
     7
370
     0
100
AcDbLine
 10
251.237217675
 20
8.1152464079
 30
0.0
 11
251.237217675
 21
18.1152464079
 31
0.0
  0
LINE
  5
98
330
1F
100
AcDbEntity
  8
0
  6
Continuous
 62
     7
370
     0
100
AcDbLine
 10
235.6907965209
 20
8.1152464079
 30
0.0
 11
235.6907965209
 21
43.1152464079
 31
0.0
  0
LINE
  5
99
330
1F
100
AcDbEntity
  8
0
  6
Continuous
 62
     7
370
     0
100
AcDbLine
 10
251.237217675
 20
28.1152464079
 30
0.0
 11
251.237217675
 21
33.1152464079
 31
0.0
  0
LINE
  5
9A
330
1F
100
AcDbEntity
  8
0
  6
Continuous
 62
     7
370
     0
100
AcDbLine
 10
214.4164086353
 20
8.1152464079
 30
0.0
 11
214.4164086353
 21
28.1152464079
 31
0.0
  0
LINE
  5
9B
330
1F
100
AcDbEntity
  8
0
  6
Continuous
 62
     7
370
     0
100
AcDbLine
 10
199.7785887506
 20
8.1152464079
 30
0.0
 11
199.7785887506
 21
28.1152464079
 31
0.0
  0
LINE
  5
9C
330
1F
100
AcDbEntity
  8
0
  6
Continuous
 62
     7
370
     0
100
AcDbLine
 10
185.6907965209
 20
8.1152464079
 30
0.0
 11
185.6907965209
 21
43.1152464079
 31
0.0
  0
LINE
  5
9D
330
1F
100
AcDbEntity
  8
0
  6
Continuous
 62
     7
370
    15
100
AcDbLine
 10
8.6907965209
 20
104.7436369915
 30
0.0
 11
14.6907965209
 21
104.7436369915
 31
0.0
  0
LINE
  5
9E
330
1F
100
AcDbEntity
  8
0
  6
Continuous
 62
     7
370
    15
100
AcDbLine
 10
285.6907965209
 20
104.7436369915
 30
0.0
 11
279.6907965209
 21
104.7436369915
 31
0.0
  0
LINE
  5
9F
330
1F
100
AcDbEntity
  8
0
  6
Continuous
 62
     7
370
    15
100
AcDbLine
 10
147.1907965209
 20
8.1152464079
 30
0.0
 11
147.1907965209
 21
14.1152464079
 31
0.0
  0
LINE
  5
A0
330
1F
100
AcDbEntity
  8
0
  6
Continuous
 62
     7
370
    15
100
AcDbLine
 10
147.1907965209
 20
201.3720275751
 30
0.0
 11
147.1907965209
 21
195.3720275751
 31
0.0
  0
LINE
  5
A1
330
1F
100
AcDbEntity
  8
0
  6
Continuous
 62
     7
370
    15
100
AcDbLine
 10
43.3207965209
 20
201.3720275751
 30
0.0
 11
43.3207965209
 21
202.8720275751
 31
0.0
  0
LINE
  5
A2
330
1F
100
AcDbEntity
  8
0
  6
Continuous
 62
     7
370
    15
100
AcDbLine
 10
77.9507965209
 20
201.3720275751
 30
0.0
 11
77.9507965209
 21
202.8720275751
 31
0.0
  0
LINE
  5
A3
330
1F
100
AcDbEntity
  8
0
  6
Continuous
 62
     7
370
    15
100
AcDbLine
 10
112.5807965209
 20
201.3720275751
 30
0.0
 11
112.5807965209
 21
202.8720275751
 31
0.0
  0
LINE
  5
A4
330
1F
100
AcDbEntity
  8
0
  6
Continuous
 62
     7
370
    15
100
AcDbLine
 10
147.2107965209
 20
201.3720275751
 30
0.0
 11
147.2107965209
 21
202.8720275751
 31
0.0
  0
LINE
  5
A5
330
1F
100
AcDbEntity
  8
0
  6
Continuous
 62
     7
370
    15
100
AcDbLine
 10
181.8407965209
 20
201.3720275751
 30
0.0
 11
181.8407965209
 21
202.8720275751
 31
0.0
  0
LINE
  5
A6
330
1F
100
AcDbEntity
  8
0
  6
Continuous
 62
     7
370
    15
100
AcDbLine
 10
216.4707965209
 20
201.3720275751
 30
0.0
 11
216.4707965209
 21
202.8720275751
 31
0.0
  0
LINE
  5
A7
330
1F
100
AcDbEntity
  8
0
  6
Continuous
 62
     7
370
    15
100
AcDbLine
 10
251.1007965209
 20
201.3720275751
 30
0.0
 11
251.1007965209
 21
202.8720275751
 31
0.0
  0
LINE
  5
A8
330
1F
100
AcDbEntity
  8
0
  6
Continuous
 62
     7
370
    15
100
AcDbLine
 10
43.3157965209
 20
8.1152464079
 30
0.0
 11
43.3157965209
 21
6.6152464079
 31
0.0
  0
LINE
  5
A9
330
1F
100
AcDbEntity
  8
0
  6
Continuous
 62
     7
370
    15
100
AcDbLine
 10
77.9407965209
 20
8.1152464079
 30
0.0
 11
77.9407965209
 21
6.6152464079
 31
0.0
  0
LINE
  5
AA
330
1F
100
AcDbEntity
  8
0
  6
Continuous
 62
     7
370
    15
100
AcDbLine
 10
112.5657965209
 20
8.1152464079
 30
0.0
 11
112.5657965209
 21
6.6152464079
 31
0.0
  0
LINE
  5
AB
330
1F
100
AcDbEntity
  8
0
  6
Continuous
 62
     7
370
    15
100
AcDbLine
 10
147.1907965209
 20
8.1152464079
 30
0.0
 11
147.1907965209
 21
6.6152464079
 31
0.0
  0
LINE
  5
AC
330
1F
100
AcDbEntity
  8
0
  6
Continuous
 62
     7
370
    15
100
AcDbLine
 10
181.8157965209
 20
8.1152464079
 30
0.0
 11
181.8157965209
 21
6.6152464079
 31
0.0
  0
LINE
  5
AD
330
1F
100
AcDbEntity
  8
0
  6
Continuous
 62
     7
370
    15
100
AcDbLine
 10
216.4407965209
 20
8.1152464079
 30
0.0
 11
216.4407965209
 21
6.6152464079
 31
0.0
  0
LINE
  5
AE
330
1F
100
AcDbEntity
  8
0
  6
Continuous
 62
     7
370
     0
100
AcDbLine
 10
285.6907965209
 20
201.3720275751
 30
0.0
 11
8.6907965209
 21
201.3720275751
 31
0.0
  0
LINE
  5
AF
330
1F
100
AcDbEntity
  8
0
  6
Continuous
 62
     7
370
     0
100
AcDbLine
 10
285.6907965209
 20
8.1152464079
 30
0.0
 11
285.6907965209
 21
201.3720275751
 31
0.0
  0
LINE
  5
B0
330
1F
100
AcDbEntity
  8
0
  6
Continuous
 62
     7
370
     0
100
AcDbLine
 10
8.6907965209
 20
201.3720275751
 30
0.0
 11
8.6907965209
 21
8.1152464079
 31
0.0
  0
LINE
  5
B1
330
1F
100
AcDbEntity
  8
0
  6
Continuous
 62
     7
370
     0
100
AcDbLine
 10
8.6907965209
 20
8.1152464079
 30
0.0
 11
285.6907965209
 21
8.1152464079
 31
0.0
  0
LINE
  5
B2
330
1F
100
AcDbEntity
  8
0
  6
Continuous
 62
     7
370
    15
100
AcDbLine
 10
251.0657965209
 20
8.1152464079
 30
0.0
 11
251.0657965209
 21
6.6152464079
 31
0.0
  0
LINE
  5
B3
330
1F
100
AcDbEntity
  8
0
  6
Continuous
 62
     7
370
    15
100
AcDbLine
 10
8.6907965209
 20
40.3252464079
 30
0.0
 11
7.1907965209
 21
40.3252464079
 31
0.0
  0
LINE
  5
B4
330
1F
100
AcDbEntity
  8
0
  6
Continuous
 62
     7
370
    15
100
AcDbLine
 10
8.6907965209
 20
72.5352464079
 30
0.0
 11
7.1907965209
 21
72.5352464079
 31
0.0
  0
LINE
  5
B5
330
1F
100
AcDbEntity
  8
0
  6
Continuous
 62
     7
370
    15
100
AcDbLine
 10
8.6907965209
 20
104.7452464079
 30
0.0
 11
7.1907965209
 21
104.7452464079
 31
0.0
  0
LINE
  5
B6
330
1F
100
AcDbEntity
  8
0
  6
Continuous
 62
     7
370
    15
100
AcDbLine
 10
8.6907965209
 20
136.9552464079
 30
0.0
 11
7.1907965209
 21
136.9552464079
 31
0.0
  0
LINE
  5
B7
330
1F
100
AcDbEntity
  8
0
  6
Continuous
 62
     7
370
    15
100
AcDbLine
 10
8.6907965209
 20
169.1652464079
 30
0.0
 11
7.1907965209
 21
169.1652464079
 31
0.0
  0
LINE
  5
B8
330
1F
100
AcDbEntity
  8
0
  6
Continuous
 62
     7
370
    15
100
AcDbLine
 10
285.6907965209
 20
40.3252464079
 30
0.0
 11
287.1907965209
 21
40.3252464079
 31
0.0
  0
LINE
  5
B9
330
1F
100
AcDbEntity
  8
0
  6
Continuous
 62
     7
370
    15
100
AcDbLine
 10
285.6907965209
 20
72.5352464079
 30
0.0
 11
287.1907965209
 21
72.5352464079
 31
0.0
  0
LINE
  5
BA
330
1F
100
AcDbEntity
  8
0
  6
Continuous
 62
     7
370
    15
100
AcDbLine
 10
285.6907965209
 20
104.7452464079
 30
0.0
 11
287.1907965209
 21
104.7452464079
 31
0.0
  0
LINE
  5
BB
330
1F
100
AcDbEntity
  8
0
  6
Continuous
 62
     7
370
    15
100
AcDbLine
 10
285.6907965209
 20
136.9552464079
 30
0.0
 11
287.1907965209
 21
136.9552464079
 31
0.0
  0
LINE
  5
BC
330
1F
100
AcDbEntity
  8
0
  6
Continuous
 62
     7
370
    15
100
AcDbLine
 10
285.6907965209
 20
169.1652464079
 30
0.0
 11
287.1907965209
 21
169.1652464079
 31
0.0
  0
CIRCLE
  5
BD
330
1F
100
AcDbEntity
  8
0
  6
Continuous
 62
     7
370
     0
100
AcDbCircle
 10
168.3593775185
 20
17.7745192513
 30
0.0
 40
1.5
  0
CIRCLE
  5
BE
330
1F
100
AcDbEntity
  8
0
  6
Continuous
 62
     7
370
     0
100
AcDbCircle
 10
168.3593775185
 20
17.7745192513
 30
0.0
 40
2.5
  0
ARC
  5
BF
330
1F
100
AcDbEntity
  8
0
370
     0
100
AcDbCircle
 10
188.5601916644
 20
35.6652327401
 30
0.0
 40
1.531992467805807
100
AcDbArc
 50
130.2910647925
 51
228.509361907
  0
ARC
  5
C0
330
1F
100
AcDbEntity
  8
0
370
     0
100
AcDbCircle
 10
191.8645892225
 20
35.5524518768
 30
0.0
 40
2.570544369711287
100
AcDbArc
 50
140.1430462781
 51
253.0452525074
  0
ARC
  5
C1
330
1F
100
AcDbEntity
  8
0
370
     0
100
AcDbCircle
 10
192.1959864308
 20
35.941093626
 30
0.0
 40
3.045751395731247
100
AcDbArc
 50
249.2112209143
 51
308.9221353953
  0
ARC
  5
C2
330
1F
100
AcDbEntity
  8
0
 62
     1
370
     0
100
AcDbCircle
 10
196.0101318857
 20
35.7124883778
 30
0.0
 40
1.51855293741827
100
AcDbArc
 50
306.0377529468
 51
43.4396461534
  0
ARC
  5
C3
330
1F
100
AcDbEntity
  8
0
 62
     1
370
     0
100
AcDbCircle
 10
192.3291518698
 20
35.1868939873
 30
0.0
 40
3.18163670452787
100
AcDbArc
 50
45.5592925416
 51
125.8325555121
  0
ARC
  5
C4
330
1F
100
AcDbEntity
  8
0
 62
     1
370
     0
100
AcDbCircle
 10
192.6468081605
 20
35.7277157928
 30
0.0
 40
2.57756748834625
100
AcDbArc
 50
321.9435288427
 51
42.1815007004
  0
MTEXT
  5
C6
330
1F
100
AcDbEntity
  8
0
  6
Continuous
 62
     7
370
     0
100
AcDbMText
 10
165.5426850804
 20
13.2208440369
 30
0.0
 40
2.6458333333
 41
0.0
 71
     1
 72
     1
  1
UNIT:m/m
  7
SLDTEXTSTYLE0
 73
     1
 44
1.0
  0
INSERT
  5
CD
330
1F
100
AcDbEntity
  8
0
  6
Continuous
 62
     7
370
     0
100
AcDbBlockReference
  2
SW_NOTE_0
 10
12.2315076053
 20
193.8904304251
 30
0.0
  0
MTEXT
  5
CF
330
1F
100
AcDbEntity
  8
0
  6
Continuous
 62
     7
370
     0
100
AcDbMText
 10
198.7251893935
 20
40.4406774139
 30
0.0
 40
2.38125
 41
0.0
 71
     1
 72
     1
  1
Unice E-O Services Inc.
  7
SLDTEXTSTYLE1
 73
     1
 44
1.0
  0
MTEXT
  5
D0
330
1F
100
AcDbEntity
  8
0
  6
Continuous
 62
     7
370
     0
100
AcDbMText
 10
219.1181900715
 20
21.5867148511
 30
0.0
 40
1.8520833333
 41
0.0
 71
     1
 72
     1
  1
2016/03/08
  7
SLDTEXTSTYLE0
 73
     1
 44
1.0
  0
MTEXT
  5
D1
330
1F
100
AcDbEntity
  8
0
  6
Continuous
 62
     7
370
     0
100
AcDbMText
 10
252.6088982507
 20
16.87117774
 30
0.0
 40
2.5
 41
0.0
 71
     1
 72
     1
  1
1:1
  7
SLDTEXTSTYLE0
 73
     1
 44
1.0
  0
MTEXT
  5
D2
330
1F
100
AcDbEntity
  8
0
  6
Continuous
 62
     7
370
     0
100
AcDbMText
 10
252.3075599985
 20
32.1519195438
 30
0.0
 40
2.5
 41
0.0
 71
     1
 72
     1
  1
06UAP-1
  7
SLDTEXTSTYLE0
 73
     1
 44
1.0
  0
MTEXT
  5
D3
330
1F
100
AcDbEntity
  8
0
  6
Continuous
 62
     7
370
     0
100
AcDbMText
 10
252.3075599985
 20
38.1082117879
 30
0.0
 40
2.5
 41
0.0
 71
     1
 72
     1
  1
06UAP-1
  7
SLDTEXTSTYLE0
 73
     1
 44
1.0
  0
MTEXT
  5
D4
330
1F
100
AcDbEntity
  8
0
  6
Continuous
 62
     7
370
     0
100
AcDbMText
 10
236.3921866786
 20
16.5064795728
 30
0.0
 40
2.1166666667
 41
0.0
 71
     1
 72
     1
  1
SCALE:
  7
SLDTEXTSTYLE0
 73
     1
 44
1.0
  0
MTEXT
  5
D5
330
1F
100
AcDbEntity
  8
0
  6
Continuous
 62
     7
370
     0
100
AcDbMText
 10
186.3336086789
 20
21.5867148511
 30
0.0
 40
1.8520833333
 41
0.0
 71
     1
 72
     1
  1
DRAWN
  7
SLDTEXTSTYLE0
 73
     1
 44
1.0
  0
MTEXT
  5
D6
330
1F
100
AcDbEntity
  8
0
  6
Continuous
 62
     7
370
     0
100
AcDbMText
 10
203.2228367937
 20
26.683208308
 30
0.0
 40
1.8520833333
 41
0.0
 71
     1
 72
     1
  1
NAME
  7
SLDTEXTSTYLE0
 73
     1
 44
1.0
  0
MTEXT
  5
D7
330
1F
100
AcDbEntity
  8
0
  6
Continuous
 62
     7
370
     0
100
AcDbMText
 10
220.8710155758
 20
26.683208308
 30
0.0
 40
1.8520833333
 41
0.0
 71
     1
 72
     1
  1
DATE
  7
SLDTEXTSTYLE0
 73
     1
 44
1.0
  0
MTEXT
  5
D8
330
1F
100
AcDbEntity
  8
0
  6
Continuous
 62
     7
370
     0
100
AcDbMText
 10
236.2756316645
 20
31.7872213766
 30
0.0
 40
2.1166666667
 41
0.0
 71
     1
 72
     1
  1
DWG. NO.
  7
SLDTEXTSTYLE0
 73
     1
 44
1.0
  0
MTEXT
  5
D9
330
1F
100
AcDbEntity
  8
0
  6
Continuous
 62
     7
370
     0
100
AcDbMText
 10
236.3629907088
 20
41.8840658243
 30
0.0
 40
2.1166666667
 41
0.0
 71
     1
 72
     1
  1
TITLE:
  7
SLDTEXTSTYLE0
 73
     1
 44
1.0
  0
MTEXT
  5
DA
330
1F
100
AcDbEntity
  8
0
  6
Continuous
 62
     7
370
     0
100
AcDbMText
 10
203.0314209802
 20
16.2403789724
 30
0.0
 40
1.8520833333
 41
0.0
 71
     1
 72
     1
  1
Johnny
  7
SLDTEXTSTYLE0
 73
     1
 44
1.0
  0
MTEXT
  5
DB
330
1F
100
AcDbEntity
  8
0
  6
Continuous
 62
     7
370
     0
100
AcDbMText
 10
186.3336086789
 20
16.2403789724
 30
0.0
 40
1.8520833333
 41
0.0
 71
     1
 72
     1
  1
ENG APPR.
  7
SLDTEXTSTYLE0
 73
     1
 44
1.0
  0
MTEXT
  5
DC
330
1F
100
AcDbEntity
  8
0
  6
Continuous
 62
     7
370
     0
100
AcDbMText
 10
236.3921866786
 20
11.6853389288
 30
0.0
 40
2.1166666667
 41
0.0
 71
     1
 72
     1
  1
REV
  7
SLDTEXTSTYLE0
 73
     1
 44
1.0
  0
MTEXT
  5
DD
330
1F
100
AcDbEntity
  8
0
  6
Continuous
 62
     7
370
     0
100
AcDbMText
 10
236.3629907088
 20
26.9493089085
 30
0.0
 40
2.1166666667
 41
0.0
 71
     1
 72
     1
  1
MATERIAL:
  7
SLDTEXTSTYLE0
 73
     1
 44
1.0
  0
MTEXT
  5
DE
330
1F
100
AcDbEntity
  8
0
  6
Continuous
 62
     7
370
     0
100
AcDbMText
 10
252.6088982507
 20
22.2175136187
 30
0.0
 40
2.5
 41
0.0
 71
     1
 72
     1
  1
N/A
  7
SLDTEXTSTYLE0
 73
     1
 44
1.0
  0
MTEXT
  5
DF
330
1F
100
AcDbEntity
  8
0
  6
Continuous
 62
     7
370
     0
100
AcDbMText
 10
26.6029931533
 20
204.453351657
 30
0.0
 40
2.1166666667
 41
0.0
 71
     1
 72
     1
  1
1
  7
SLDTEXTSTYLE0
 73
     1
 44
1.0
  0
MTEXT
  5
E0
330
1F
100
AcDbEntity
  8
0
  6
Continuous
 62
     7
370
     0
100
AcDbMText
 10
60.7170995724
 20
204.453351657
 30
0.0
 40
2.1166666667
 41
0.0
 71
     1
 72
     1
  1
2
  7
SLDTEXTSTYLE0
 73
     1
 44
1.0
  0
MTEXT
  5
E1
330
1F
100
AcDbEntity
  8
0
  6
Continuous
 62
     7
370
     0
100
AcDbMText
 10
94.9009943906
 20
204.453351657
 30
0.0
 40
2.1166666667
 41
0.0
 71
     1
 72
     1
  1
3
  7
SLDTEXTSTYLE0
 73
     1
 44
1.0
  0
MTEXT
  5
E2
330
1F
100
AcDbEntity
  8
0
  6
Continuous
 62
     7
370
     0
100
AcDbMText
 10
129.2533362851
 20
204.2992584364
 30
0.0
 40
2.1166666667
 41
0.0
 71
     1
 72
     1
  1
4
  7
SLDTEXTSTYLE0
 73
     1
 44
1.0
  0
MTEXT
  5
E3
330
1F
100
AcDbEntity
  8
0
  6
Continuous
 62
     7
370
     0
100
AcDbMText
 10
163.702323464
 20
204.453351657
 30
0.0
 40
2.1166666667
 41
0.0
 71
     1
 72
     1
  1
5
  7
SLDTEXTSTYLE0
 73
     1
 44
1.0
  0
MTEXT
  5
E4
330
1F
100
AcDbEntity
  8
0
  6
Continuous
 62
     7
370
     0
100
AcDbMText
 10
198.6382170415
 20
204.453351657
 30
0.0
 40
2.1166666667
 41
0.0
 71
     1
 72
     1
  1
6
  7
SLDTEXTSTYLE0
 73
     1
 44
1.0
  0
MTEXT
  5
E5
330
1F
100
AcDbEntity
  8
0
  6
Continuous
 62
     7
370
     0
100
AcDbMText
 10
234.3630657407
 20
204.453351657
 30
0.0
 40
2.1166666667
 41
0.0
 71
     1
 72
     1
  1
7
  7
SLDTEXTSTYLE0
 73
     1
 44
1.0
  0
MTEXT
  5
E6
330
1F
100
AcDbEntity
  8
0
  6
Continuous
 62
     7
370
     0
100
AcDbMText
 10
266.2787820494
 20
204.453351657
 30
0.0
 40
2.1166666667
 41
0.0
 71
     1
 72
     1
  1
8
  7
SLDTEXTSTYLE0
 73
     1
 44
1.0
  0
MTEXT
  5
E7
330
1F
100
AcDbEntity
  8
0
  6
Continuous
 62
     7
370
     0
100
AcDbMText
 10
5.3568236555
 20
185.8113022879
 30
0.0
 40
2.1166666667
 41
0.0
 71
     1
 72
     1
  1
A
  7
SLDTEXTSTYLE0
 73
     1
 44
1.0
  0
MTEXT
  5
E8
330
1F
100
AcDbEntity
  8
0
  6
Continuous
 62
     7
370
     0
100
AcDbMText
 10
5.5910431831
 20
154.2993048238
 30
0.0
 40
2.1166666667
 41
0.0
 71
     1
 72
     1
  1
B
  7
SLDTEXTSTYLE0
 73
     1
 44
1.0
  0
MTEXT
  5
E9
330
1F
100
AcDbEntity
  8
0
  6
Continuous
 62
     7
370
     0
100
AcDbMText
 10
5.5910431831
 20
121.274351423
 30
0.0
 40
2.1166666667
 41
0.0
 71
     1
 72
     1
  1
C
  7
SLDTEXTSTYLE0
 73
     1
 44
1.0
  0
MTEXT
  5
EA
330
1F
100
AcDbEntity
  8
0
  6
Continuous
 62
     7
370
     0
100
AcDbMText
 10
5.5910431831
 20
88.7453220221
 30
0.0
 40
2.1166666667
 41
0.0
 71
     1
 72
     1
  1
D
  7
SLDTEXTSTYLE0
 73
     1
 44
1.0
  0
MTEXT
  5
EB
330
1F
100
AcDbEntity
  8
0
  6
Continuous
 62
     7
370
     0
100
AcDbMText
 10
5.5910431831
 20
57.5558849197
 30
0.0
 40
2.1166666667
 41
0.0
 71
     1
 72
     1
  1
E
  7
SLDTEXTSTYLE0
 73
     1
 44
1.0
  0
MTEXT
  5
EC
330
1F
100
AcDbEntity
  8
0
  6
Continuous
 62
     7
370
     0
100
AcDbMText
 10
5.5910431831
 20
25.5694212252
 30
0.0
 40
2.1166666667
 41
0.0
 71
     1
 72
     1
  1
F
  7
SLDTEXTSTYLE0
 73
     1
 44
1.0
  0
MTEXT
  5
ED
330
1F
100
AcDbEntity
  8
0
  6
Continuous
 62
     7
370
     0
100
AcDbMText
 10
266.1858616964
 20
6.6236223963
 30
0.0
 40
2.1166666667
 41
0.0
 71
     1
 72
     1
  1
8
  7
SLDTEXTSTYLE0
 73
     1
 44
1.0
  0
MTEXT
  5
EE
330
1F
100
AcDbEntity
  8
0
  6
Continuous
 62
     7
370
     0
100
AcDbMText
 10
234.2701453876
 20
6.6236223963
 30
0.0
 40
2.1166666667
 41
0.0
 71
     1
 72
     1
  1
7
  7
SLDTEXTSTYLE0
 73
     1
 44
1.0
  0
MTEXT
  5
EF
330
1F
100
AcDbEntity
  8
0
  6
Continuous
 62
     7
370
     0
100
AcDbMText
 10
198.5452966885
 20
6.6236223963
 30
0.0
 40
2.1166666667
 41
0.0
 71
     1
 72
     1
  1
6
  7
SLDTEXTSTYLE0
 73
     1
 44
1.0
  0
MTEXT
  5
F0
330
1F
100
AcDbEntity
  8
0
  6
Continuous
 62
     7
370
     0
100
AcDbMText
 10
163.6094031109
 20
6.6236223963
 30
0.0
 40
2.1166666667
 41
0.0
 71
     1
 72
     1
  1
5
  7
SLDTEXTSTYLE0
 73
     1
 44
1.0
  0
MTEXT
  5
F1
330
1F
100
AcDbEntity
  8
0
  6
Continuous
 62
     7
370
     0
100
AcDbMText
 10
129.1604159321
 20
6.4695291758
 30
0.0
 40
2.1166666667
 41
0.0
 71
     1
 72
     1
  1
4
  7
SLDTEXTSTYLE0
 73
     1
 44
1.0
  0
MTEXT
  5
F2
330
1F
100
AcDbEntity
  8
0
  6
Continuous
 62
     7
370
     0
100
AcDbMText
 10
94.8080740376
 20
6.6236223963
 30
0.0
 40
2.1166666667
 41
0.0
 71
     1
 72
     1
  1
3
  7
SLDTEXTSTYLE0
 73
     1
 44
1.0
  0
MTEXT
  5
F3
330
1F
100
AcDbEntity
  8
0
  6
Continuous
 62
     7
370
     0
100
AcDbMText
 10
60.6241792194
 20
6.6236223963
 30
0.0
 40
2.1166666667
 41
0.0
 71
     1
 72
     1
  1
2
  7
SLDTEXTSTYLE0
 73
     1
 44
1.0
  0
MTEXT
  5
F4
330
1F
100
AcDbEntity
  8
0
  6
Continuous
 62
     7
370
     0
100
AcDbMText
 10
26.5100728003
 20
6.6236223963
 30
0.0
 40
2.1166666667
 41
0.0
 71
     1
 72
     1
  1
1
  7
SLDTEXTSTYLE0
 73
     1
 44
1.0
  0
MTEXT
  5
F5
330
1F
100
AcDbEntity
  8
0
  6
Continuous
 62
     7
370
     0
100
AcDbMText
 10
287.1023846145
 20
186.6424909092
 30
0.0
 40
2.1166666667
 41
0.0
 71
     1
 72
     1
  1
A
  7
SLDTEXTSTYLE0
 73
     1
 44
1.0
  0
MTEXT
  5
F6
330
1F
100
AcDbEntity
  8
0
  6
Continuous
 62
     7
370
     0
100
AcDbMText
 10
287.3366041421
 20
155.1304934451
 30
0.0
 40
2.1166666667
 41
0.0
 71
     1
 72
     1
  1
B
  7
SLDTEXTSTYLE0
 73
     1
 44
1.0
  0
MTEXT
  5
F7
330
1F
100
AcDbEntity
  8
0
  6
Continuous
 62
     7
370
     0
100
AcDbMText
 10
287.3366041421
 20
122.1055400442
 30
0.0
 40
2.1166666667
 41
0.0
 71
     1
 72
     1
  1
C
  7
SLDTEXTSTYLE0
 73
     1
 44
1.0
  0
MTEXT
  5
F8
330
1F
100
AcDbEntity
  8
0
  6
Continuous
 62
     7
370
     0
100
AcDbMText
 10
287.3366041421
 20
89.5765106433
 30
0.0
 40
2.1166666667
 41
0.0
 71
     1
 72
     1
  1
D
  7
SLDTEXTSTYLE0
 73
     1
 44
1.0
  0
MTEXT
  5
F9
330
1F
100
AcDbEntity
  8
0
  6
Continuous
 62
     7
370
     0
100
AcDbMText
 10
287.3366041421
 20
58.3870735409
 30
0.0
 40
2.1166666667
 41
0.0
 71
     1
 72
     1
  1
E
  7
SLDTEXTSTYLE0
 73
     1
 44
1.0
  0
MTEXT
  5
FA
330
1F
100
AcDbEntity
  8
0
  6
Continuous
 62
     7
370
     0
100
AcDbMText
 10
287.3366041421
 20
26.4006098464
 30
0.0
 40
2.1166666667
 41
0.0
 71
     1
 72
     1
  1
F
  7
SLDTEXTSTYLE0
 73
     1
 44
1.0
  0
MTEXT
  5
FB
330
1F
100
AcDbEntity
  8
0
  6
Continuous
 62
     7
370
     0
100
AcDbMText
 10
203.1553128802
 20
21.5867148511
 30
0.0
 40
1.8520833333
 41
0.0
 71
     1
 72
     1
  1
Sammy
  7
SLDTEXTSTYLE0
 73
     1
 44
1.0
  0
MTEXT
  5
FC
330
1F
100
AcDbEntity
  8
0
  6
Continuous
 62
     7
370
     0
100
AcDbMText
 10
252.8482239645
 20
12.0500370959
 30
0.0
 40
2.5
 41
0.0
 71
     1
 72
     1
  1
0
  7
SLDTEXTSTYLE0
 73
     1
 44
1.0
  0
INSERT
  5
102
330
1F
100
AcDbEntity
  8
SLD-0
 62
     7
100
AcDbBlockReference
  2
SW_NOTE_1
 10
198.7251893935
 20
32.965327525
 30
0.0
  0
MTEXT
  5
103
330
1F
100
AcDbEntity
  8
SLD-0
 62
     7
100
AcDbMText
 10
219.1181900715
 20
16.2403789724
 30
0.0
 40
1.8520833333
 41
0.0
 71
     1
 72
     1
  1
2016/03/08
  7
SLDTEXTSTYLE0
 73
     1
 44
1.0
  0
ARC
  5
104
330
1F
100
AcDbEntity
  8
0
  6
Continuous
 62
     7
370
    30
100
AcDbCircle
 10
69.4132957305
 20
144.6220809043
 30
0.0
 40
5.000000000000014
100
AcDbArc
 50
90.0
 51
180.0
  0
ARC
  5
105
330
1F
100
AcDbEntity
  8
0
  6
Continuous
 62
     7
370
    30
100
AcDbCircle
 10
119.4132957305
 20
144.6220809043
 30
0.0
 40
5.0
100
AcDbArc
 50
0.0
 51
90.0
  0
ARC
  5
106
330
1F
100
AcDbEntity
  8
0
  6
Continuous
 62
     7
370
    30
100
AcDbCircle
 10
119.4132957305
 20
94.6220809043
 30
0.0
 40
5.0
100
AcDbArc
 50
270.0
 51
0.0
  0
ARC
  5
107
330
1F
100
AcDbEntity
  8
0
  6
Continuous
 62
     7
370
    30
100
AcDbCircle
 10
69.4132957305
 20
94.6220809043
 30
0.0
 40
5.000000000000014
100
AcDbArc
 50
180.0
 51
270.0
  0
CIRCLE
  5
108
330
1F
100
AcDbEntity
  8
0
  6
Continuous
 62
     7
370
    30
100
AcDbCircle
 10
119.8132957305
 20
145.0220809043
 30
0.0
 40
2.552699999999987
  0
CIRCLE
  5
109
330
1F
100
AcDbEntity
  8
0
  6
Continuous
 62
     7
370
    30
100
AcDbCircle
 10
119.8132957305
 20
94.2220809043
 30
0.0
 40
2.552700000000016
  0
CIRCLE
  5
10A
330
1F
100
AcDbEntity
  8
0
  6
Continuous
 62
     7
370
    30
100
AcDbCircle
 10
69.0132957305
 20
94.2220809043
 30
0.0
 40
2.552700000000002
  0
CIRCLE
  5
10B
330
1F
100
AcDbEntity
  8
0
  6
Continuous
 62
     7
370
    30
100
AcDbCircle
 10
69.0132957305
 20
145.0220809043
 30
0.0
 40
2.552700000000016
  0
CIRCLE
  5
10C
330
1F
100
AcDbEntity
  8
0
  6
Continuous
 62
     7
370
    30
100
AcDbCircle
 10
81.7132957305
 20
119.6220809043
 30
0.0
 40
5.556250000000006
  0
CIRCLE
  5
10D
330
1F
100
AcDbEntity
  8
0
  6
Continuous
 62
     7
370
    30
100
AcDbCircle
 10
107.1132957305
 20
119.6220809043
 30
0.0
 40
5.556250000000006
  0
CIRCLE
  5
10E
330
1F
100
AcDbEntity
  8
0
  6
Continuous
 62
     7
370
    30
100
AcDbCircle
 10
94.4132957305
 20
132.3220809043
 30
0.0
 40
5.556250000000006
  0
CIRCLE
  5
10F
330
1F
100
AcDbEntity
  8
0
  6
Continuous
 62
     7
370
    30
100
AcDbCircle
 10
94.4132957305
 20
106.9220809043
 30
0.0
 40
5.556249999999991
  0
CIRCLE
  5
110
330
1F
100
AcDbEntity
  8
0
  6
Continuous
 62
     7
370
    30
100
AcDbCircle
 10
107.1132957305
 20
132.3220809043
 30
0.0
 40
1.727199999999982
  0
CIRCLE
  5
111
330
1F
100
AcDbEntity
  8
0
  6
Continuous
 62
     7
370
    30
100
AcDbCircle
 10
81.7132957305
 20
132.3220809043
 30
0.0
 40
1.727200000000011
  0
CIRCLE
  5
112
330
1F
100
AcDbEntity
  8
0
  6
Continuous
 62
     7
370
    30
100
AcDbCircle
 10
81.7132957305
 20
106.9220809043
 30
0.0
 40
1.727199999999996
  0
CIRCLE
  5
113
330
1F
100
AcDbEntity
  8
0
  6
Continuous
 62
     7
370
    30
100
AcDbCircle
 10
107.1132957305
 20
106.9220809043
 30
0.0
 40
1.727199999999996
  0
CIRCLE
  5
114
330
1F
100
AcDbEntity
  8
0
  6
Continuous
 62
     7
370
    30
100
AcDbCircle
 10
94.4132957305
 20
119.6220809043
 30
0.0
 40
2.552700000000002
  0
CIRCLE
  5
115
330
1F
100
AcDbEntity
  8
0
  6
Continuous
 62
     7
370
    30
100
AcDbCircle
 10
94.4132957305
 20
145.0220809043
 30
0.0
 40
2.552699999999987
  0
CIRCLE
  5
116
330
1F
100
AcDbEntity
  8
0
  6
Continuous
 62
     7
370
    30
100
AcDbCircle
 10
69.0132957305
 20
119.6220809043
 30
0.0
 40
2.552700000000002
  0
CIRCLE
  5
117
330
1F
100
AcDbEntity
  8
0
  6
Continuous
 62
     7
370
    30
100
AcDbCircle
 10
94.4132957305
 20
94.2220809043
 30
0.0
 40
2.552700000000016
  0
CIRCLE
  5
118
330
1F
100
AcDbEntity
  8
0
  6
Continuous
 62
     7
370
    30
100
AcDbCircle
 10
119.8132957305
 20
119.6220809043
 30
0.0
 40
2.552700000000002
  0
LINE
  5
119
330
1F
100
AcDbEntity
  8
0
  6
Continuous
 62
     7
370
    30
100
AcDbLine
 10
119.4132957305
 20
149.6220809043
 30
0.0
 11
69.4132957305
 21
149.6220809043
 31
0.0
  0
LINE
  5
11A
330
1F
100
AcDbEntity
  8
0
  6
Continuous
 62
     7
370
    30
100
AcDbLine
 10
124.4132957305
 20
94.6220809043
 30
0.0
 11
124.4132957305
 21
144.6220809043
 31
0.0
  0
LINE
  5
11B
330
1F
100
AcDbEntity
  8
0
  6
Continuous
 62
     7
370
    30
100
AcDbLine
 10
69.4132957305
 20
89.6220809043
 30
0.0
 11
119.4132957305
 21
89.6220809043
 31
0.0
  0
LINE
  5
11C
330
1F
100
AcDbEntity
  8
0
  6
Continuous
 62
     7
370
    30
100
AcDbLine
 10
64.4132957305
 20
144.6220809043
 30
0.0
 11
64.4132957305
 21
94.6220809043
 31
0.0
  0
CIRCLE
  5
11D
330
1F
100
AcDbEntity
  8
0
  6
Continuous
 62
     7
370
    30
100
AcDbCircle
 10
94.4132957305
 20
106.9220809043
 30
0.0
 40
3.378200000000007
  0
CIRCLE
  5
11E
330
1F
100
AcDbEntity
  8
0
  6
Continuous
 62
     7
370
    30
100
AcDbCircle
 10
94.4132957305
 20
132.3220809043
 30
0.0
 40
3.378199999999993
  0
CIRCLE
  5
11F
330
1F
100
AcDbEntity
  8
0
  6
Continuous
 62
     7
370
    30
100
AcDbCircle
 10
107.1132957305
 20
119.6220809043
 30
0.0
 40
3.378200000000007
  0
CIRCLE
  5
120
330
1F
100
AcDbEntity
  8
0
  6
Continuous
 62
     7
370
    30
100
AcDbCircle
 10
81.7132957305
 20
119.6220809043
 30
0.0
 40
3.378200000000007
  0
DIMENSION
  5
121
330
1F
100
AcDbEntity
  8
SLD-0
100
AcDbDimension
  2
_D
 10
81.7132957305
 20
155.64141052
 30
0.0
 11
88.0632957305
 21
155.64141052
 31
0.0
 70
   160
  1
<>
 71
     2
 42
-1.0
  3
SLDDIMSTYLE0
100
AcDbAlignedDimension
 13
94.4132957305
 23
145.0220809043
 33
0.0
 14
81.7132957305
 24
132.3220809043
 34
0.0
100
AcDbRotatedDimension
  0
DIMENSION
  5
12C
330
1F
100
AcDbEntity
  8
SLD-0
100
AcDbDimension
  2
_D_1
 10
69.0132957305
 20
161.5821649106
 30
0.0
 11
81.7132957305
 21
161.5821649106
 31
0.0
 70
   160
  1
<>
 71
     2
 42
-1.0
  3
SLDDIMSTYLE0
100
AcDbAlignedDimension
 13
94.4132957305
 23
145.0220809043
 33
0.0
 14
69.0132957305
 24
145.0220809043
 34
0.0
100
AcDbRotatedDimension
  0
DIMENSION
  5
136
330
1F
100
AcDbEntity
  8
SLD-0
100
AcDbDimension
  2
_D_2
 10
119.8132957305
 20
161.5821649106
 30
0.0
 11
107.1132957305
 21
161.5821649106
 31
0.0
 70
   160
  1
<>
 71
     2
 42
-1.0
  3
SLDDIMSTYLE0
100
AcDbAlignedDimension
 13
94.4132957305
 23
145.0220809043
 33
0.0
 14
119.8132957305
 24
145.0220809043
 34
0.0
100
AcDbRotatedDimension
  0
DIMENSION
  5
140
330
1F
100
AcDbEntity
  8
SLD-0
100
AcDbDimension
  2
_D_3
 10
124.4132957305
 20
167.2530726292
 30
0.0
 11
94.4132957305
 21
167.2530726292
 31
0.0
 70
   160
  1
<>
 71
     2
 42
-1.0
  3
SLDDIMSTYLE0
100
AcDbAlignedDimension
 13
64.4132957305
 23
144.6220809043
 33
0.0
 14
124.4132957305
 24
144.6220809043
 34
0.0
100
AcDbRotatedDimension
  0
DIMENSION
  5
14A
330
1F
100
AcDbEntity
  8
SLD-0
100
AcDbDimension
  2
_D_4
 10
59.018354812
 20
132.3220809043
 30
0.0
 11
59.018354812
 21
125.9720809043
 31
0.0
 70
   160
  1
<>
 71
     2
 42
-1.0
  3
SLDDIMSTYLE0
100
AcDbAlignedDimension
 13
69.0132957305
 23
119.6220809043
 33
0.0
 14
81.7132957305
 24
132.3220809043
 34
0.0
 50
90.0
100
AcDbRotatedDimension
  0
DIMENSION
  5
154
330
1F
100
AcDbEntity
  8
SLD-0
100
AcDbDimension
  2
_D_5
 10
59.018354812
 20
106.9220809043
 30
0.0
 11
59.018354812
 21
113.2720809043
 31
0.0
 70
   160
  1
<>
 71
     2
 42
-1.0
  3
SLDDIMSTYLE0
100
AcDbAlignedDimension
 13
69.0132957305
 23
119.6220809043
 33
0.0
 14
81.7132957305
 24
106.9220809043
 34
0.0
 50
90.0
100
AcDbRotatedDimension
  0
DIMENSION
  5
15E
330
1F
100
AcDbEntity
  8
SLD-0
100
AcDbDimension
  2
_D_6
 10
52.0433917253
 20
145.0220809043
 30
0.0
 11
52.0433917253
 21
132.3220809043
 31
0.0
 70
   160
  1
<>
 71
     2
 42
-1.0
  3
SLDDIMSTYLE0
100
AcDbAlignedDimension
 13
69.0132957305
 23
119.6220809043
 33
0.0
 14
69.0132957305
 24
145.0220809043
 34
0.0
 50
90.0
100
AcDbRotatedDimension
  0
DIMENSION
  5
168
330
1F
100
AcDbEntity
  8
SLD-0
100
AcDbDimension
  2
_D_7
 10
52.0433917253
 20
94.2220809043
 30
0.0
 11
52.0433917253
 21
106.9220809043
 31
0.0
 70
   160
  1
<>
 71
     2
 42
-1.0
  3
SLDDIMSTYLE0
100
AcDbAlignedDimension
 13
69.0132957305
 23
119.6220809043
 33
0.0
 14
69.0132957305
 24
94.2220809043
 34
0.0
 50
90.0
100
AcDbRotatedDimension
  0
DIMENSION
  5
172
330
1F
100
AcDbEntity
  8
SLD-0
100
AcDbDimension
  2
_D_8
 10
43.4132957305
 20
89.6220809043
 30
0.0
 11
43.4132957305
 21
119.6220809043
 31
0.0
 70
   160
  1
<>
 71
     2
 42
-1.0
  3
SLDDIMSTYLE0
100
AcDbAlignedDimension
 13
69.4132957305
 23
149.6220809043
 33
0.0
 14
69.4132957305
 24
89.6220809043
 34
0.0
 50
90.0
100
AcDbRotatedDimension
  0
DIMENSION
  5
17C
330
1F
100
AcDbEntity
  8
SLD-0
100
AcDbDimension
  2
_D_9
 10
118.977673074
 20
97.2851446934
 30
0.0
 11
133.7551851026
 21
79.8738614625
 31
0.0
 70
   163
  1
9 HOLES,\P 1/4"-20
 71
     1
 42
-1.0
  3
SLDDIMSTYLE1
100
AcDbDiametricDimension
 15
120.648918387
 25
91.1590171152
 35
0.0
 40
0.0
  0
DIMENSION
  5
186
330
1F
100
AcDbEntity
  8
SLD-0
100
AcDbDimension
  2
_D_10
 10
82.5416469009
 20
108.83307284
 30
0.0
 11
59.018354812
 21
79.1208353885
 31
0.0
 70
   163
  1
4 HOLES,\P 8-32
 71
     1
 42
-1.0
  3
SLDDIMSTYLE1
100
AcDbDiametricDimension
 15
80.8849445601
 25
105.0110889685
 35
0.0
 40
0.0
  0
DIMENSION
  5
18F
330
1F
100
AcDbEntity
  8
SLD-0
100
AcDbDimension
  2
_D_11
 10
93.9749997641
 20
112.4610167866
 30
0.0
 11
108.3367405265
 21
75.284029922
 31
0.0
 70
   163
  1
4 HOLES,\P 1/4"-20 CLR
 71
     1
 42
-1.0
  3
SLDDIMSTYLE1
100
AcDbDiametricDimension
 15
94.851591697
 25
101.383145022
 35
0.0
 40
0.0
  0
DIMENSION
  5
198
330
1F
100
AcDbEntity
  8
SLD-0
 62
     7
100
AcDbDimension
  2
_D_12
 10
107.1132957305
 20
155.24141052
 30
0.0
 11
100.7632957305
 21
155.24141052
 31
0.0
 70
   160
  1
<>
 71
     2
 42
-1.0
  3
SLDDIMSTYLE0
100
AcDbAlignedDimension
 13
94.4132957305
 23
148.5747809043
 33
0.0
 14
107.1132957305
 24
132.3220809043
 34
0.0
100
AcDbRotatedDimension
  0
INSERT
  5
1AD
330
1F
100
AcDbEntity
  8
SLD-0
100
AcDbBlockReference
  2
SW_CENTERMARKSYMBOL_0
 10
69.0132957305
 20
145.0220809043
 30
0.0
  0
INSERT
  5
1B9
330
1F
100
AcDbEntity
  8
SLD-0
100
AcDbBlockReference
  2
SW_CENTERMARKSYMBOL_1
 10
94.4132957305
 20
145.0220809043
 30
0.0
  0
INSERT
  5
1C5
330
1F
100
AcDbEntity
  8
SLD-0
100
AcDbBlockReference
  2
SW_CENTERMARKSYMBOL_2
 10
119.8132957305
 20
145.0220809043
 30
0.0
  0
INSERT
  5
1D1
330
1F
100
AcDbEntity
  8
SLD-0
100
AcDbBlockReference
  2
SW_CENTERMARKSYMBOL_3
 10
107.1132957305
 20
132.3220809043
 30
0.0
  0
INSERT
  5
1DD
330
1F
100
AcDbEntity
  8
SLD-0
100
AcDbBlockReference
  2
SW_CENTERMARKSYMBOL_4
 10
94.4132957305
 20
132.3220809043
 30
0.0
  0
INSERT
  5
1E9
330
1F
100
AcDbEntity
  8
SLD-0
100
AcDbBlockReference
  2
SW_CENTERMARKSYMBOL_5
 10
81.7132957305
 20
132.3220809043
 30
0.0
  0
INSERT
  5
1F5
330
1F
100
AcDbEntity
  8
SLD-0
100
AcDbBlockReference
  2
SW_CENTERMARKSYMBOL_6
 10
69.0132957305
 20
119.6220809043
 30
0.0
  0
INSERT
  5
201
330
1F
100
AcDbEntity
  8
SLD-0
100
AcDbBlockReference
  2
SW_CENTERMARKSYMBOL_7
 10
81.7132957305
 20
119.6220809043
 30
0.0
  0
INSERT
  5
20D
330
1F
100
AcDbEntity
  8
SLD-0
100
AcDbBlockReference
  2
SW_CENTERMARKSYMBOL_8
 10
94.4132957305
 20
119.6220809043
 30
0.0
  0
INSERT
  5
219
330
1F
100
AcDbEntity
  8
SLD-0
100
AcDbBlockReference
  2
SW_CENTERMARKSYMBOL_9
 10
107.1132957305
 20
119.6220809043
 30
0.0
  0
INSERT
  5
225
330
1F
100
AcDbEntity
  8
SLD-0
100
AcDbBlockReference
  2
SW_CENTERMARKSYMBOL_10
 10
119.8132957305
 20
119.6220809043
 30
0.0
  0
INSERT
  5
231
330
1F
100
AcDbEntity
  8
SLD-0
100
AcDbBlockReference
  2
SW_CENTERMARKSYMBOL_11
 10
107.1132957305
 20
106.9220809043
 30
0.0
  0
INSERT
  5
23D
330
1F
100
AcDbEntity
  8
SLD-0
100
AcDbBlockReference
  2
SW_CENTERMARKSYMBOL_12
 10
94.4132957305
 20
106.9220809043
 30
0.0
  0
INSERT
  5
249
330
1F
100
AcDbEntity
  8
SLD-0
100
AcDbBlockReference
  2
SW_CENTERMARKSYMBOL_13
 10
81.7132957305
 20
106.9220809043
 30
0.0
  0
INSERT
  5
255
330
1F
100
AcDbEntity
  8
SLD-0
100
AcDbBlockReference
  2
SW_CENTERMARKSYMBOL_14
 10
69.0132957305
 20
94.2220809043
 30
0.0
  0
INSERT
  5
261
330
1F
100
AcDbEntity
  8
SLD-0
100
AcDbBlockReference
  2
SW_CENTERMARKSYMBOL_15
 10
94.4132957305
 20
94.2220809043
 30
0.0
  0
INSERT
  5
26D
330
1F
100
AcDbEntity
  8
SLD-0
100
AcDbBlockReference
  2
SW_CENTERMARKSYMBOL_16
 10
119.8132957305
 20
94.2220809043
 30
0.0
  0
ARC
  5
26E
330
1F
100
AcDbEntity
  8
0
  6
Continuous
 62
     7
370
     0
100
AcDbCircle
 10
119.8132957305
 20
145.0220809043
 30
0.0
 40
3.175000000000005
100
AcDbArc
 50
255.0
 51
195.0
  0
ARC
  5
26F
330
1F
100
AcDbEntity
  8
0
  6
Continuous
 62
     7
370
     0
100
AcDbCircle
 10
119.8132957305
 20
94.2220809043
 30
0.0
 40
3.175000000000017
100
AcDbArc
 50
255.0
 51
195.0
  0
ARC
  5
270
330
1F
100
AcDbEntity
  8
0
  6
Continuous
 62
     7
370
     0
100
AcDbCircle
 10
69.0132957305
 20
94.2220809043
 30
0.0
 40
3.175000000000017
100
AcDbArc
 50
255.0
 51
195.0
  0
ARC
  5
271
330
1F
100
AcDbEntity
  8
0
  6
Continuous
 62
     7
370
     0
100
AcDbCircle
 10
69.0132957305
 20
145.0220809043
 30
0.0
 40
3.174999999999998
100
AcDbArc
 50
255.0
 51
195.0
  0
ARC
  5
272
330
1F
100
AcDbEntity
  8
0
  6
Continuous
 62
     7
370
     0
100
AcDbCircle
 10
107.1132957305
 20
132.3220809043
 30
0.0
 40
2.082800000000037
100
AcDbArc
 50
255.0
 51
195.0
  0
ARC
  5
273
330
1F
100
AcDbEntity
  8
0
  6
Continuous
 62
     7
370
     0
100
AcDbCircle
 10
81.7132957305
 20
132.3220809043
 30
0.0
 40
2.082799999999982
100
AcDbArc
 50
255.0
 51
195.0
  0
ARC
  5
274
330
1F
100
AcDbEntity
  8
0
  6
Continuous
 62
     7
370
     0
100
AcDbCircle
 10
81.7132957305
 20
106.9220809043
 30
0.0
 40
2.082799999999978
100
AcDbArc
 50
255.0
 51
195.0
  0
ARC
  5
275
330
1F
100
AcDbEntity
  8
0
  6
Continuous
 62
     7
370
     0
100
AcDbCircle
 10
107.1132957305
 20
106.9220809043
 30
0.0
 40
2.082800000000002
100
AcDbArc
 50
255.0
 51
195.0
  0
ARC
  5
276
330
1F
100
AcDbEntity
  8
0
  6
Continuous
 62
     7
370
     0
100
AcDbCircle
 10
94.4132957305
 20
119.6220809043
 30
0.0
 40
3.175000000000018
100
AcDbArc
 50
255.0
 51
195.0
  0
ARC
  5
277
330
1F
100
AcDbEntity
  8
0
  6
Continuous
 62
     7
370
     0
100
AcDbCircle
 10
94.4132957305
 20
145.0220809043
 30
0.0
 40
3.175000000000046
100
AcDbArc
 50
255.0
 51
195.0
  0
ARC
  5
278
330
1F
100
AcDbEntity
  8
0
  6
Continuous
 62
     7
370
     0
100
AcDbCircle
 10
69.0132957305
 20
119.6220809043
 30
0.0
 40
3.175000000000021
100
AcDbArc
 50
255.0
 51
195.0
  0
ARC
  5
279
330
1F
100
AcDbEntity
  8
0
  6
Continuous
 62
     7
370
     0
100
AcDbCircle
 10
94.4132957305
 20
94.2220809043
 30
0.0
 40
3.175000000000007
100
AcDbArc
 50
255.0
 51
195.0
  0
ARC
  5
27A
330
1F
100
AcDbEntity
  8
0
  6
Continuous
 62
     7
370
     0
100
AcDbCircle
 10
119.8132957305
 20
119.6220809043
 30
0.0
 40
3.175000000000059
100
AcDbArc
 50
255.0
 51
195.0
  0
LINE
  5
27B
330
1F
100
AcDbEntity
  8
0
  6
Continuous
 62
     7
370
    30
100
AcDbLine
 10
265.8975377376
 20
146.7016988099
 30
0.0
 11
265.8975377376
 21
153.234025305
 31
0.0
  0
LINE
  5
27C
330
1F
100
AcDbEntity
  8
0
  6
Continuous
 62
     7
370
    30
100
AcDbLine
 10
185.186859619
 20
153.234025305
 30
0.0
 11
185.186859619
 21
146.7016988099
 31
0.0
  0
ARC
  5
27D
330
1F
100
AcDbEntity
  8
0
  6
Continuous
 62
     7
370
    30
100
AcDbCircle
 10
225.5421986783
 20
131.0492152913
 30
0.0
 40
7.663084206650952
100
AcDbArc
 50
242.5243123925
 51
297.4756876075
  0
ARC
  5
27E
330
1F
100
AcDbEntity
  8
0
  6
Continuous
 62
     7
370
    30
100
AcDbCircle
 10
225.5421986783
 20
137.5815417864
 30
0.0
 40
7.663084206651015
100
AcDbArc
 50
242.5243123925
 51
297.4756876075
  0
ARC
  5
27F
330
1F
100
AcDbEntity
  8
0
  6
Continuous
 62
     7
370
    30
100
AcDbCircle
 10
225.5421986783
 20
168.8865088235
 30
0.0
 40
7.663084206650926
100
AcDbArc
 50
62.5243123925
 51
117.4756876075
  0
LINE
  5
280
330
1F
100
AcDbEntity
  8
0
  6
Continuous
 62
     7
370
    30
100
AcDbLine
 10
264.4330716436
 20
155.2750455845
 30
0.0
 11
229.0777325842
 21
175.6852483801
 31
0.0
  0
ARC
  5
281
330
1F
100
AcDbEntity
  8
0
  6
Continuous
 62
     7
370
    30
100
AcDbCircle
 10
263.6441106138
 20
153.234025305
 30
0.0
 40
2.188200924968379
100
AcDbArc
 50
291.1341228318
 51
68.8658771682
  0
LINE
  5
282
330
1F
100
AcDbEntity
  8
0
  6
Continuous
 62
     7
370
    30
100
AcDbLine
 10
229.0777325842
 20
130.7828022298
 30
0.0
 11
264.4330716436
 21
151.1930050254
 31
0.0
  0
LINE
  5
283
330
1F
100
AcDbEntity
  8
0
  6
Continuous
 62
     7
370
    30
100
AcDbLine
 10
186.651325713
 20
151.1930050254
 30
0.0
 11
222.0066647724
 21
130.7828022298
 31
0.0
  0
ARC
  5
284
330
1F
100
AcDbEntity
  8
0
  6
Continuous
 62
     7
370
    30
100
AcDbCircle
 10
187.4402867428
 20
153.234025305
 30
0.0
 40
2.188200924968394
100
AcDbArc
 50
111.1341228318
 51
248.8658771682
  0
LINE
  5
285
330
1F
100
AcDbEntity
  8
0
  6
Continuous
 62
     7
370
    30
100
AcDbLine
 10
222.0066647724
 20
175.6852483801
 30
0.0
 11
186.651325713
 21
155.2750455845
 31
0.0
  0
LWPOLYLINE
  5
286
330
1F
100
AcDbEntity
  8
0
  6
Continuous
 62
     7
370
    30
100
AcDbPolyline
 90
       38
 70
   128
 43
0.0
 10
259.6581916822
 20
152.1920028114
 10
259.9892072178
 20
152.0308887002
 10
260.3626275083
 20
151.9043866385
 10
260.7677099319
 20
151.8161358604
 10
261.1928010049
 20
151.7686751801
 10
261.625671631
 20
151.7633699549
 10
262.0538689104
 20
151.8003728066
 10
262.4650743871
 20
151.8786192303
 10
262.847458428
 20
151.9958582191
 10
263.1900205407
 20
152.1487170205
 10
263.4829058368
 20
152.3327981653
 10
263.7176885395
 20
152.5428059741
 10
263.8876143781
 20
152.7726989045
 10
263.9877948955
 20
153.0158633555
 10
264.0153480806
 20
153.2653039286
 10
263.9694812784
 20
153.5138446726
 10
263.8515139934
 20
153.7543355229
 10
263.6648399295
 20
153.9798579955
 10
263.4148293597
 20
154.1839242196
 10
263.1086746329
 20
154.3606635814
 10
262.7551832632
 20
154.5049916112
 10
262.3645245536
 20
154.6127562545
 10
261.9479370441
 20
154.6808573185
 10
261.5174051986
 20
154.7073356598
 10
261.0853146346
 20
154.6914295446
 10
260.664095811
 20
154.633596563
 10
260.2658664262
 20
154.5355004644
 10
259.9020828148
 20
154.3999632951
 10
259.5832103688
 20
154.2308842126
 10
259.3184224679
 20
154.0331273143
 10
259.115336578
 20
153.8123817062
 10
258.9797951104
 20
153.5749978374
 10
258.9156973462
 20
153.3278048096
 10
258.9248872615
 20
153.0779139163
 10
259.0071004792
 20
152.8325140633
 10
259.1599718746
 20
152.5986649578
 10
259.379103616
 20
152.3830940126
 10
259.6581916822
 20
152.1920028114
  0
LWPOLYLINE
  5
287
330
1F
100
AcDbEntity
  8
0
  6
Continuous
 62
     7
370
    30
100
AcDbPolyline
 90
       38
 70
   128
 43
0.0
 10
223.737167198
 20
131.4552367711
 10
224.0681827335
 20
131.2941226599
 10
224.441603024
 20
131.1676205982
 10
224.8466854477
 20
131.0793698201
 10
225.2717765206
 20
131.0319091398
 10
225.7046471467
 20
131.0266039146
 10
226.1328444261
 20
131.0636067663
 10
226.5440499028
 20
131.14185319
 10
226.9264339438
 20
131.2590921788
 10
227.2689960564
 20
131.4119509802
 10
227.5618813525
 20
131.596032125
 10
227.7966640553
 20
131.8060399338
 10
227.9665898938
 20
132.0359328642
 10
228.0667704112
 20
132.2790973152
 10
228.0943235963
 20
132.5285378883
 10
228.0484567941
 20
132.7770786323
 10
227.9304895091
 20
133.0175694826
 10
227.7438154452
 20
133.2430919552
 10
227.4938048754
 20
133.4471581793
 10
227.1876501486
 20
133.6238975411
 10
226.8341587789
 20
133.7682255709
 10
226.4435000694
 20
133.8759902142
 10
226.0269125598
 20
133.9440912782
 10
225.5963807143
 20
133.9705696195
 10
225.1642901504
 20
133.9546635043
 10
224.7430713267
 20
133.8968305227
 10
224.344841942
 20
133.7987344241
 10
223.9810583305
 20
133.6631972548
 10
223.6621858845
 20
133.4941181723
 10
223.3973979836
 20
133.296361274
 10
223.1943120937
 20
133.0756156659
 10
223.0587706261
 20
132.8382317971
 10
222.9946728619
 20
132.5910387693
 10
223.0038627772
 20
132.341147876
 10
223.0860759949
 20
132.095748023
 10
223.2389473903
 20
131.8618989175
 10
223.4580791317
 20
131.6463279723
 10
223.737167198
 20
131.4552367711
  0
LWPOLYLINE
  5
288
330
1F
100
AcDbEntity
  8
0
  6
Continuous
 62
     7
370
    30
100
AcDbPolyline
 90
       38
 70
   128
 43
0.0
 10
187.8161427137
 20
152.1920028114
 10
188.1471582492
 20
152.0308887002
 10
188.5205785397
 20
151.9043866385
 10
188.9256609634
 20
151.8161358604
 10
189.3507520363
 20
151.7686751801
 10
189.7836226624
 20
151.7633699549
 10
190.2118199419
 20
151.8003728066
 10
190.6230254185
 20
151.8786192303
 10
191.0054094595
 20
151.9958582191
 10
191.3479715722
 20
152.1487170205
 10
191.6408568682
 20
152.3327981653
 10
191.875639571
 20
152.5428059741
 10
192.0455654095
 20
152.7726989045
 10
192.1457459269
 20
153.0158633555
 10
192.173299112
 20
153.2653039286
 10
192.1274323098
 20
153.5138446726
 10
192.0094650248
 20
153.7543355229
 10
191.822790961
 20
153.9798579955
 10
191.5727803912
 20
154.1839242196
 10
191.2666256644
 20
154.3606635814
 10
190.9131342946
 20
154.5049916112
 10
190.5224755851
 20
154.6127562545
 10
190.1058880755
 20
154.6808573185
 10
189.6753562301
 20
154.7073356598
 10
189.2432656661
 20
154.6914295446
 10
188.8220468424
 20
154.633596563
 10
188.4238174577
 20
154.5355004644
 10
188.0600338462
 20
154.3999632951
 10
187.7411614002
 20
154.2308842126
 10
187.4763734994
 20
154.0331273143
 10
187.2732876095
 20
153.8123817062
 10
187.1377461418
 20
153.5749978374
 10
187.0736483776
 20
153.3278048096
 10
187.082838293
 20
153.0779139163
 10
187.1650515106
 20
152.8325140633
 10
187.317922906
 20
152.5986649578
 10
187.5370546474
 20
152.3830940126
 10
187.8161427137
 20
152.1920028114
  0
LWPOLYLINE
  5
289
330
1F
100
AcDbEntity
  8
0
  6
Continuous
 62
     7
370
    30
100
AcDbPolyline
 90
       38
 70
   128
 43
0.0
 10
223.737167198
 20
172.9287688517
 10
224.0681827335
 20
172.7676547405
 10
224.441603024
 20
172.6411526788
 10
224.8466854477
 20
172.5529019007
 10
225.2717765206
 20
172.5054412204
 10
225.7046471467
 20
172.5001359952
 10
226.1328444261
 20
172.5371388469
 10
226.5440499028
 20
172.6153852706
 10
226.9264339438
 20
172.7326242593
 10
227.2689960564
 20
172.8854830608
 10
227.5618813525
 20
173.0695642056
 10
227.7966640553
 20
173.2795720144
 10
227.9665898938
 20
173.5094649448
 10
228.0667704112
 20
173.7526293958
 10
228.0943235963
 20
174.0020699689
 10
228.0484567941
 20
174.2506107129
 10
227.9304895091
 20
174.4911015632
 10
227.7438154452
 20
174.7166240358
 10
227.4938048754
 20
174.9206902599
 10
227.1876501486
 20
175.0974296217
 10
226.8341587789
 20
175.2417576515
 10
226.4435000694
 20
175.3495222948
 10
226.0269125598
 20
175.4176233588
 10
225.5963807143
 20
175.4441017001
 10
225.1642901504
 20
175.4281955849
 10
224.7430713267
 20
175.3703626033
 10
224.344841942
 20
175.2722665047
 10
223.9810583305
 20
175.1367293354
 10
223.6621858845
 20
174.9676502529
 10
223.3973979836
 20
174.7698933546
 10
223.1943120937
 20
174.5491477465
 10
223.0587706261
 20
174.3117638777
 10
222.9946728619
 20
174.0645708499
 10
223.0038627772
 20
173.8146799565
 10
223.0860759949
 20
173.5692801036
 10
223.2389473903
 20
173.3354309981
 10
223.4580791317
 20
173.1198600529
 10
223.737167198
 20
172.9287688517
  0
LWPOLYLINE
  5
28A
330
1F
100
AcDbEntity
  8
0
  6
Continuous
 62
     7
370
    30
100
AcDbPolyline
 90
       56
 70
   128
 43
0.0
 10
212.6330805043
 20
156.1501330294
 10
213.1065463916
 20
155.9063749313
 10
213.6250586523
 20
155.6953625335
 10
214.1818576861
 20
155.5198467053
 10
214.769684766
 20
155.382115564
 10
215.3808766672
 20
155.2839646456
 10
216.0074655684
 20
155.2266734975
 10
216.6412829251
 20
155.2109889974
 10
217.2740659589
 20
155.2371156167
 10
217.897565375
 20
155.304712755
 10
218.5036529051
 20
155.4128991801
 10
219.0844272714
 20
155.5602645167
 10
219.6323171918
 20
155.7448876322
 10
220.1401800833
 20
155.9643616819
 10
220.6013951764
 20
156.215825486
 10
221.0099498271
 20
156.4960008291
 10
221.3605179007
 20
156.8012351973
 10
221.6485292062
 20
157.1275493938
 10
221.8702290758
 20
157.4706894138
 10
222.0227273127
 20
157.8261819026
 10
222.104035869
 20
158.1893924719
 10
222.1130947636
 20
158.5555861165
 10
222.0497858997
 20
158.9199889421
 10
221.9149346052
 20
159.2778504007
 10
221.7102988731
 20
159.6245052209
 10
221.438546443
 20
159.9554342269
 10
221.1032200235
 20
160.266323253
 10
220.7086911072
 20
160.5531193855
 10
220.2601029819
 20
160.812083798
 10
219.7633036798
 20
161.0398404935
 10
219.2247697397
 20
161.233420315
 10
218.651521775
 20
161.3902996536
 10
218.0510329496
 20
161.5084333472
 10
217.4311315536
 20
161.5862813425
 10
216.7998989498
 20
161.6228287717
 10
216.1655642206
 20
161.6175991832
 10
215.5363968891
 20
161.5706607527
 10
214.9205991138
 20
161.4826253944
 10
214.3261987604
 20
161.3546407839
 10
213.7609447465
 20
161.1883753963
 10
213.2322060227
 20
160.9859967552
 10
212.7468755067
 20
160.7501431756
 10
212.3112802242
 20
160.4838893697
 10
211.9310988257
 20
160.1907063631
 10
211.6112875572
 20
159.8744162444
 10
211.3560156477
 20
159.5391423393
 10
211.1686109569
 20
159.1892554557
 10
211.0515165915
 20
158.8293169043
 10
211.0062590558
 20
158.4640190345
 10
211.0334283507
 20
158.0981240627
 10
211.1326702832
 20
157.7364019895
 10
211.3026910827
 20
157.3835684153
 10
211.5412742682
 20
157.0442230652
 10
211.845309543
 20
156.7227898249
 10
212.2108333422
 20
156.4234590682
 10
212.6330805043
 20
156.1501330294
  0
LWPOLYLINE
  5
28B
330
1F
100
AcDbEntity
  8
0
  6
Continuous
 62
     7
370
    30
100
AcDbPolyline
 90
       56
 70
   128
 43
0.0
 10
230.5935927464
 20
145.7817500092
 10
231.0670586337
 20
145.5379919111
 10
231.5855708944
 20
145.3269795133
 10
232.1423699282
 20
145.1514636852
 10
232.7301970081
 20
145.0137325439
 10
233.3413889093
 20
144.9155816255
 10
233.9679778105
 20
144.8582904774
 10
234.6017951673
 20
144.8426059772
 10
235.234578201
 20
144.8687325965
 10
235.8580776171
 20
144.9363297348
 10
236.4641651473
 20
145.04451616
 10
237.0449395135
 20
145.1918814966
 10
237.5928294339
 20
145.3765046121
 10
238.1006923254
 20
145.5959786618
 10
238.5619074186
 20
145.8474424658
 10
238.9704620693
 20
146.127617809
 10
239.3210301428
 20
146.4328521772
 10
239.6090414483
 20
146.7591663736
 10
239.8307413179
 20
147.1023063937
 10
239.9832395548
 20
147.4577988825
 10
240.0645481112
 20
147.8210094518
 10
240.0736070057
 20
148.1872030963
 10
240.0102981418
 20
148.551605922
 10
239.8754468474
 20
148.9094673806
 10
239.6708111152
 20
149.2561222007
 10
239.3990586852
 20
149.5870512067
 10
239.0637322656
 20
149.8979402329
 10
238.6692033493
 20
150.1847363653
 10
238.220615224
 20
150.4437007779
 10
237.723815922
 20
150.6714574733
 10
237.1852819818
 20
150.8650372948
 10
236.6120340171
 20
151.0219166335
 10
236.0115451917
 20
151.1400503271
 10
235.3916437957
 20
151.2178983223
 10
234.760411192
 20
151.2544457515
 10
234.1260764627
 20
151.249216163
 10
233.4969091313
 20
151.2022777325
 10
232.881111356
 20
151.1142423743
 10
232.2867110026
 20
150.9862577638
 10
231.7214569887
 20
150.8199923762
 10
231.1927182648
 20
150.6176137351
 10
230.7073877489
 20
150.3817601555
 10
230.2717924663
 20
150.1155063496
 10
229.8916110678
 20
149.8223233429
 10
229.5717997993
 20
149.5060332243
 10
229.3165278898
 20
149.1707593191
 10
229.129123199
 20
148.8208724356
 10
229.0120288337
 20
148.4609338841
 10
228.9667712979
 20
148.0956360143
 10
228.9939405929
 20
147.7297410426
 10
229.0931825253
 20
147.3680189694
 10
229.2632033248
 20
147.0151853951
 10
229.5017865103
 20
146.675840045
 10
229.8058217851
 20
146.3544068047
 10
230.1713455844
 20
146.0550760481
 10
230.5935927464
 20
145.7817500092
  0
LWPOLYLINE
  5
28C
330
1F
100
AcDbEntity
  8
0
  6
Continuous
 62
     7
370
    30
100
AcDbPolyline
 90
       56
 70
   128
 43
0.0
 10
230.5935927464
 20
156.1501330294
 10
231.0670586337
 20
155.9063749313
 10
231.5855708944
 20
155.6953625335
 10
232.1423699282
 20
155.5198467053
 10
232.7301970081
 20
155.382115564
 10
233.3413889093
 20
155.2839646456
 10
233.9679778105
 20
155.2266734975
 10
234.6017951673
 20
155.2109889974
 10
235.234578201
 20
155.2371156167
 10
235.8580776171
 20
155.304712755
 10
236.4641651473
 20
155.4128991801
 10
237.0449395135
 20
155.5602645167
 10
237.5928294339
 20
155.7448876322
 10
238.1006923254
 20
155.9643616819
 10
238.5619074186
 20
156.215825486
 10
238.9704620693
 20
156.4960008291
 10
239.3210301428
 20
156.8012351973
 10
239.6090414483
 20
157.1275493938
 10
239.8307413179
 20
157.4706894138
 10
239.9832395548
 20
157.8261819026
 10
240.0645481112
 20
158.1893924719
 10
240.0736070057
 20
158.5555861165
 10
240.0102981418
 20
158.9199889421
 10
239.8754468474
 20
159.2778504007
 10
239.6708111152
 20
159.6245052209
 10
239.3990586852
 20
159.9554342269
 10
239.0637322656
 20
160.266323253
 10
238.6692033493
 20
160.5531193855
 10
238.220615224
 20
160.812083798
 10
237.723815922
 20
161.0398404935
 10
237.1852819818
 20
161.233420315
 10
236.6120340171
 20
161.3902996536
 10
236.0115451917
 20
161.5084333472
 10
235.3916437957
 20
161.5862813425
 10
234.760411192
 20
161.6228287717
 10
234.1260764627
 20
161.6175991832
 10
233.4969091313
 20
161.5706607527
 10
232.881111356
 20
161.4826253944
 10
232.2867110026
 20
161.3546407839
 10
231.7214569887
 20
161.1883753963
 10
231.1927182648
 20
160.9859967552
 10
230.7073877489
 20
160.7501431756
 10
230.2717924663
 20
160.4838893697
 10
229.8916110678
 20
160.1907063631
 10
229.5717997993
 20
159.8744162444
 10
229.3165278898
 20
159.5391423393
 10
229.129123199
 20
159.1892554557
 10
229.0120288337
 20
158.8293169043
 10
228.9667712979
 20
158.4640190345
 10
228.9939405929
 20
158.0981240627
 10
229.0931825253
 20
157.7364019895
 10
229.2632033248
 20
157.3835684153
 10
229.5017865103
 20
157.0442230652
 10
229.8058217851
 20
156.7227898249
 10
230.1713455844
 20
156.4234590682
 10
230.5935927464
 20
156.1501330294
  0
LWPOLYLINE
  5
28D
330
1F
100
AcDbEntity
  8
0
  6
Continuous
 62
     7
370
    30
100
AcDbPolyline
 90
       56
 70
   128
 43
0.0
 10
212.6330805043
 20
145.7817500092
 10
213.1065463916
 20
145.5379919111
 10
213.6250586523
 20
145.3269795133
 10
214.1818576861
 20
145.1514636852
 10
214.769684766
 20
145.0137325439
 10
215.3808766672
 20
144.9155816255
 10
216.0074655684
 20
144.8582904774
 10
216.6412829251
 20
144.8426059772
 10
217.2740659589
 20
144.8687325965
 10
217.897565375
 20
144.9363297348
 10
218.5036529051
 20
145.04451616
 10
219.0844272714
 20
145.1918814966
 10
219.6323171918
 20
145.3765046121
 10
220.1401800833
 20
145.5959786618
 10
220.6013951764
 20
145.8474424658
 10
221.0099498271
 20
146.127617809
 10
221.3605179007
 20
146.4328521772
 10
221.6485292062
 20
146.7591663736
 10
221.8702290758
 20
147.1023063937
 10
222.0227273127
 20
147.4577988825
 10
222.104035869
 20
147.8210094518
 10
222.1130947636
 20
148.1872030963
 10
222.0497858997
 20
148.551605922
 10
221.9149346052
 20
148.9094673806
 10
221.7102988731
 20
149.2561222007
 10
221.438546443
 20
149.5870512067
 10
221.1032200235
 20
149.8979402329
 10
220.7086911072
 20
150.1847363653
 10
220.2601029819
 20
150.4437007779
 10
219.7633036798
 20
150.6714574733
 10
219.2247697397
 20
150.8650372948
 10
218.651521775
 20
151.0219166335
 10
218.0510329496
 20
151.1400503271
 10
217.4311315536
 20
151.2178983223
 10
216.7998989498
 20
151.2544457515
 10
216.1655642206
 20
151.249216163
 10
215.5363968891
 20
151.2022777325
 10
214.9205991138
 20
151.1142423743
 10
214.3261987604
 20
150.9862577638
 10
213.7609447465
 20
150.8199923762
 10
213.2322060227
 20
150.6176137351
 10
212.7468755067
 20
150.3817601555
 10
212.3112802242
 20
150.1155063496
 10
211.9310988257
 20
149.8223233429
 10
211.6112875572
 20
149.5060332243
 10
211.3560156477
 20
149.1707593191
 10
211.1686109569
 20
148.8208724356
 10
211.0515165915
 20
148.4609338841
 10
211.0062590558
 20
148.0956360143
 10
211.0334283507
 20
147.7297410426
 10
211.1326702832
 20
147.3680189694
 10
211.3026910827
 20
147.0151853951
 10
211.5412742682
 20
146.675840045
 10
211.845309543
 20
146.3544068047
 10
212.2108333422
 20
146.0550760481
 10
212.6330805043
 20
145.7817500092
  0
LWPOLYLINE
  5
28E
330
1F
100
AcDbEntity
  8
0
  6
Continuous
 62
     7
370
    30
100
AcDbPolyline
 90
       32
 70
   128
 43
0.0
 10
242.281396088
 20
152.5289752596
 10
242.5522453427
 20
152.4014821447
 10
242.8620067698
 20
152.3080734446
 10
243.1979987002
 20
152.2525733225
 10
243.5464655846
 20
152.2372539599
 10
243.893141148
 20
152.2627425332
 10
244.2238324519
 20
152.3279955374
 10
244.5250009556
 20
152.4303415066
 10
244.7843167852
 20
152.565590385
 10
244.9911635201
 20
152.7282050676
 10
245.1370728307
 20
152.9115280901
 10
245.2160711726
 20
153.1080541865
 10
245.2249243445
 20
153.3097375553
 10
245.1632698965
 20
153.5083212556
 10
245.0336319689
 20
153.6956752475
 10
244.8413179537
 20
153.8641292365
 10
244.5942012092
 20
154.0067866966
 10
244.3023987241
 20
154.1178072144
 10
243.9778569264
 20
154.192645597
 10
243.6338625953
 20
154.2282379523
 10
243.2844988993
 20
154.2231271249
 10
242.944068829
 20
154.1775223528
 10
242.6265096316
 20
154.0932907008
 10
242.344822218
 20
153.9738806224
 10
242.1105389038
 20
153.8241807805
 10
241.9332512756
 20
153.650319904
 10
241.8202175096
 20
153.4594158777
 10
241.7760652216
 20
153.2592843349
 10
241.8026020113
 20
153.0581186845
 10
241.8987414596
 20
152.8641546717
 10
242.060547606
 20
152.6853332062
 10
242.281396088
 20
152.5289752596
  0
LWPOLYLINE
  5
28F
330
1F
100
AcDbEntity
  8
0
  6
Continuous
 62
     7
370
    30
100
AcDbPolyline
 90
       32
 70
   128
 43
0.0
 10
224.3208838458
 20
162.8973582797
 10
224.5917331005
 20
162.7698651649
 10
224.9014945277
 20
162.6764564648
 10
225.237486458
 20
162.6209563427
 10
225.5859533425
 20
162.60563698
 10
225.9326289058
 20
162.6311255534
 10
226.2633202098
 20
162.6963785575
 10
226.5644887135
 20
162.7987245268
 10
226.8238045431
 20
162.9339734052
 10
227.030651278
 20
163.0965880878
 10
227.1765605886
 20
163.2799111103
 10
227.2555589305
 20
163.4764372067
 10
227.2644121024
 20
163.6781205754
 10
227.2027576544
 20
163.8767042758
 10
227.0731197268
 20
164.0640582677
 10
226.8808057115
 20
164.2325122567
 10
226.6336889671
 20
164.3751697167
 10
226.341886482
 20
164.4861902345
 10
226.0173446842
 20
164.5610286172
 10
225.6733503532
 20
164.5966209724
 10
225.3239866572
 20
164.5915101451
 10
224.9835565869
 20
164.545905373
 10
224.6659973895
 20
164.4616737209
 10
224.3843099758
 20
164.3422636426
 10
224.1500266617
 20
164.1925638006
 10
223.9727390334
 20
164.0187029241
 10
223.8597052675
 20
163.8277988979
 10
223.8155529794
 20
163.6276673551
 10
223.8420897692
 20
163.4265017046
 10
223.9382292174
 20
163.2325376919
 10
224.1000353639
 20
163.0537162263
 10
224.3208838458
 20
162.8973582797
  0
LWPOLYLINE
  5
290
330
1F
100
AcDbEntity
  8
0
  6
Continuous
 62
     7
370
    30
100
AcDbPolyline
 90
       32
 70
   128
 43
0.0
 10
206.3603716037
 20
152.5289752596
 10
206.6312208584
 20
152.4014821447
 10
206.9409822855
 20
152.3080734446
 10
207.2769742159
 20
152.2525733225
 10
207.6254411003
 20
152.2372539599
 10
207.9721166637
 20
152.2627425332
 10
208.3028079676
 20
152.3279955374
 10
208.6039764714
 20
152.4303415066
 10
208.863292301
 20
152.565590385
 10
209.0701390358
 20
152.7282050676
 10
209.2160483464
 20
152.9115280901
 10
209.2950466884
 20
153.1080541865
 10
209.3038998603
 20
153.3097375553
 10
209.2422454122
 20
153.5083212556
 10
209.1126074846
 20
153.6956752475
 10
208.9202934694
 20
153.8641292365
 10
208.673176725
 20
154.0067866966
 10
208.3813742399
 20
154.1178072144
 10
208.0568324421
 20
154.192645597
 10
207.7128381111
 20
154.2282379523
 10
207.363474415
 20
154.2231271249
 10
207.0230443448
 20
154.1775223528
 10
206.7054851474
 20
154.0932907008
 10
206.4237977337
 20
153.9738806224
 10
206.1895144195
 20
153.8241807805
 10
206.0122267913
 20
153.650319904
 10
205.8991930253
 20
153.4594158777
 10
205.8550407373
 20
153.2592843349
 10
205.8815775271
 20
153.0581186845
 10
205.9777169753
 20
152.8641546717
 10
206.1395231217
 20
152.6853332062
 10
206.3603716037
 20
152.5289752596
  0
LWPOLYLINE
  5
291
330
1F
100
AcDbEntity
  8
0
  6
Continuous
 62
     7
370
    30
100
AcDbPolyline
 90
       32
 70
   128
 43
0.0
 10
224.3208838458
 20
142.1605922394
 10
224.5917331005
 20
142.0330991246
 10
224.9014945277
 20
141.9396904245
 10
225.237486458
 20
141.8841903024
 10
225.5859533425
 20
141.8688709397
 10
225.9326289058
 20
141.8943595131
 10
226.2633202098
 20
141.9596125172
 10
226.5644887135
 20
142.0619584865
 10
226.8238045431
 20
142.1972073649
 10
227.030651278
 20
142.3598220475
 10
227.1765605886
 20
142.54314507
 10
227.2555589305
 20
142.7396711664
 10
227.2644121024
 20
142.9413545351
 10
227.2027576544
 20
143.1399382355
 10
227.0731197268
 20
143.3272922274
 10
226.8808057115
 20
143.4957462164
 10
226.6336889671
 20
143.6384036764
 10
226.341886482
 20
143.7494241943
 10
226.0173446843
 20
143.8242625769
 10
225.6733503532
 20
143.8598549321
 10
225.3239866572
 20
143.8547441048
 10
224.9835565869
 20
143.8091393327
 10
224.6659973895
 20
143.7249076806
 10
224.3843099758
 20
143.6054976023
 10
224.1500266617
 20
143.4557977603
 10
223.9727390334
 20
143.2819368838
 10
223.8597052675
 20
143.0910328576
 10
223.8155529794
 20
142.8909013148
 10
223.8420897692
 20
142.6897356643
 10
223.9382292174
 20
142.4957716516
 10
224.1000353639
 20
142.316950186
 10
224.3208838458
 20
142.1605922394
  0
LWPOLYLINE
  5
292
330
1F
100
AcDbEntity
  8
0
  6
Continuous
 62
     7
370
    30
100
AcDbPolyline
 90
       38
 70
   128
 43
0.0
 10
223.737167198
 20
152.1920028114
 10
224.0681827335
 20
152.0308887002
 10
224.441603024
 20
151.9043866385
 10
224.8466854477
 20
151.8161358604
 10
225.2717765206
 20
151.7686751801
 10
225.7046471467
 20
151.7633699549
 10
226.1328444261
 20
151.8003728066
 10
226.5440499028
 20
151.8786192303
 10
226.9264339438
 20
151.9958582191
 10
227.2689960564
 20
152.1487170205
 10
227.5618813525
 20
152.3327981653
 10
227.7966640553
 20
152.5428059741
 10
227.9665898938
 20
152.7726989045
 10
228.0667704112
 20
153.0158633555
 10
228.0943235963
 20
153.2653039286
 10
228.0484567941
 20
153.5138446726
 10
227.9304895091
 20
153.7543355229
 10
227.7438154452
 20
153.9798579955
 10
227.4938048754
 20
154.1839242196
 10
227.1876501486
 20
154.3606635814
 10
226.8341587789
 20
154.5049916112
 10
226.4435000694
 20
154.6127562545
 10
226.0269125598
 20
154.6808573185
 10
225.5963807143
 20
154.7073356598
 10
225.1642901504
 20
154.6914295446
 10
224.7430713267
 20
154.633596563
 10
224.344841942
 20
154.5355004644
 10
223.9810583305
 20
154.3999632951
 10
223.6621858845
 20
154.2308842126
 10
223.3973979836
 20
154.0331273143
 10
223.1943120937
 20
153.8123817062
 10
223.0587706261
 20
153.5749978374
 10
222.9946728619
 20
153.3278048096
 10
223.0038627772
 20
153.0779139163
 10
223.0860759949
 20
152.8325140633
 10
223.2389473903
 20
152.5986649578
 10
223.4580791317
 20
152.3830940126
 10
223.737167198
 20
152.1920028114
  0
LWPOLYLINE
  5
293
330
1F
100
AcDbEntity
  8
0
  6
Continuous
 62
     7
370
    30
100
AcDbPolyline
 90
       38
 70
   128
 43
0.0
 10
241.6976794401
 20
162.5603858316
 10
242.0286949756
 20
162.3992717203
 10
242.4021152661
 20
162.2727696587
 10
242.8071976898
 20
162.1845188806
 10
243.2322887628
 20
162.1370582003
 10
243.6651593889
 20
162.1317529751
 10
244.0933566683
 20
162.1687558267
 10
244.5045621449
 20
162.2470022505
 10
244.8869461859
 20
162.3642412392
 10
245.2295082986
 20
162.5171000407
 10
245.5223935946
 20
162.7011811855
 10
245.7571762974
 20
162.9111889942
 10
245.927102136
 20
163.1410819246
 10
246.0272826533
 20
163.3842463756
 10
246.0548358384
 20
163.6336869487
 10
246.0089690363
 20
163.8822276928
 10
245.8910017512
 20
164.122718543
 10
245.7043276874
 20
164.3482410157
 10
245.4543171176
 20
164.5523072398
 10
245.1481623908
 20
164.7290466015
 10
244.7946710211
 20
164.8733746314
 10
244.4040123115
 20
164.9811392746
 10
243.9874248019
 20
165.0492403387
 10
243.5568929565
 20
165.07571868
 10
243.1248023925
 20
165.0598125648
 10
242.7035835688
 20
165.0019795831
 10
242.3053541841
 20
164.9038834845
 10
241.9415705726
 20
164.7683463152
 10
241.6226981266
 20
164.5992672328
 10
241.3579102258
 20
164.4015103345
 10
241.1548243359
 20
164.1807647263
 10
241.0192828682
 20
163.9433808575
 10
240.9551851041
 20
163.6961878298
 10
240.9643750194
 20
163.4462969364
 10
241.046588237
 20
163.2008970835
 10
241.1994596324
 20
162.9670479779
 10
241.4185913739
 20
162.7514770327
 10
241.6976794401
 20
162.5603858316
  0
LWPOLYLINE
  5
294
330
1F
100
AcDbEntity
  8
0
  6
Continuous
 62
     7
370
    30
100
AcDbPolyline
 90
       38
 70
   128
 43
0.0
 10
205.7766549558
 20
162.5603858316
 10
206.1076704913
 20
162.3992717203
 10
206.4810907819
 20
162.2727696587
 10
206.8861732055
 20
162.1845188806
 10
207.3112642785
 20
162.1370582003
 10
207.7441349046
 20
162.1317529751
 10
208.172332184
 20
162.1687558267
 10
208.5835376606
 20
162.2470022505
 10
208.9659217016
 20
162.3642412392
 10
209.3084838143
 20
162.5171000407
 10
209.6013691104
 20
162.7011811855
 10
209.8361518131
 20
162.9111889942
 10
210.0060776517
 20
163.1410819246
 10
210.1062581691
 20
163.3842463756
 10
210.1338113541
 20
163.6336869487
 10
210.087944552
 20
163.8822276928
 10
209.969977267
 20
164.122718543
 10
209.7833032031
 20
164.3482410157
 10
209.5332926333
 20
164.5523072398
 10
209.2271379065
 20
164.7290466015
 10
208.8736465368
 20
164.8733746314
 10
208.4829878272
 20
164.9811392746
 10
208.0664003176
 20
165.0492403387
 10
207.6358684722
 20
165.07571868
 10
207.2037779082
 20
165.0598125648
 10
206.7825590846
 20
165.0019795831
 10
206.3843296998
 20
164.9038834845
 10
206.0205460884
 20
164.7683463152
 10
205.7016736424
 20
164.5992672328
 10
205.4368857415
 20
164.4015103345
 10
205.2337998516
 20
164.1807647263
 10
205.0982583839
 20
163.9433808575
 10
205.0341606198
 20
163.6961878298
 10
205.0433505351
 20
163.4462969364
 10
205.1255637527
 20
163.2008970835
 10
205.2784351481
 20
162.9670479779
 10
205.4975668896
 20
162.7514770327
 10
205.7766549558
 20
162.5603858316
  0
LWPOLYLINE
  5
295
330
1F
100
AcDbEntity
  8
0
  6
Continuous
 62
     7
370
    30
100
AcDbPolyline
 90
       38
 70
   128
 43
0.0
 10
205.7766549558
 20
141.8236197913
 10
206.1076704913
 20
141.66250568
 10
206.4810907819
 20
141.5360036184
 10
206.8861732055
 20
141.4477528403
 10
207.3112642785
 20
141.40029216
 10
207.7441349046
 20
141.3949869348
 10
208.172332184
 20
141.4319897864
 10
208.5835376606
 20
141.5102362102
 10
208.9659217016
 20
141.6274751989
 10
209.3084838143
 20
141.7803340004
 10
209.6013691104
 20
141.9644151452
 10
209.8361518131
 20
142.1744229539
 10
210.0060776517
 20
142.4043158843
 10
210.1062581691
 20
142.6474803353
 10
210.1338113541
 20
142.8969209084
 10
210.087944552
 20
143.1454616525
 10
209.969977267
 20
143.3859525027
 10
209.7833032031
 20
143.6114749754
 10
209.5332926333
 20
143.8155411995
 10
209.2271379065
 20
143.9922805612
 10
208.8736465368
 20
144.1366085911
 10
208.4829878272
 20
144.2443732343
 10
208.0664003176
 20
144.3124742984
 10
207.6358684722
 20
144.3389526397
 10
207.2037779082
 20
144.3230465245
 10
206.7825590846
 20
144.2652135428
 10
206.3843296998
 20
144.1671174442
 10
206.0205460884
 20
144.0315802749
 10
205.7016736424
 20
143.8625011925
 10
205.4368857415
 20
143.6647442942
 10
205.2337998516
 20
143.443998686
 10
205.0982583839
 20
143.2066148172
 10
205.0341606198
 20
142.9594217895
 10
205.0433505351
 20
142.7095308961
 10
205.1255637527
 20
142.4641310432
 10
205.2784351481
 20
142.2302819376
 10
205.4975668896
 20
142.0147109924
 10
205.7766549558
 20
141.8236197913
  0
LWPOLYLINE
  5
296
330
1F
100
AcDbEntity
  8
0
  6
Continuous
 62
     7
370
    30
100
AcDbPolyline
 90
       38
 70
   128
 43
0.0
 10
241.6976794401
 20
141.8236197913
 10
242.0286949756
 20
141.66250568
 10
242.4021152661
 20
141.5360036184
 10
242.8071976898
 20
141.4477528403
 10
243.2322887628
 20
141.40029216
 10
243.6651593889
 20
141.3949869348
 10
244.0933566683
 20
141.4319897864
 10
244.5045621449
 20
141.5102362102
 10
244.8869461859
 20
141.6274751989
 10
245.2295082986
 20
141.7803340004
 10
245.5223935946
 20
141.9644151452
 10
245.7571762974
 20
142.1744229539
 10
245.927102136
 20
142.4043158843
 10
246.0272826533
 20
142.6474803353
 10
246.0548358384
 20
142.8969209084
 10
246.0089690363
 20
143.1454616525
 10
245.8910017512
 20
143.3859525027
 10
245.7043276874
 20
143.6114749754
 10
245.4543171176
 20
143.8155411995
 10
245.1481623908
 20
143.9922805612
 10
244.7946710211
 20
144.1366085911
 10
244.4040123115
 20
144.2443732343
 10
243.9874248019
 20
144.3124742984
 10
243.5568929565
 20
144.3389526397
 10
243.1248023925
 20
144.3230465245
 10
242.7035835688
 20
144.2652135428
 10
242.3053541841
 20
144.1671174442
 10
241.9415705726
 20
144.0315802749
 10
241.6226981266
 20
143.8625011925
 10
241.3579102258
 20
143.6647442942
 10
241.1548243359
 20
143.443998686
 10
241.0192828682
 20
143.2066148172
 10
240.9551851041
 20
142.9594217895
 10
240.9643750194
 20
142.7095308961
 10
241.046588237
 20
142.4641310432
 10
241.1994596324
 20
142.2302819376
 10
241.4185913739
 20
142.0147109924
 10
241.6976794401
 20
141.8236197913
  0
LINE
  5
297
330
1F
100
AcDbEntity
  8
0
  6
Continuous
 62
     7
370
    30
100
AcDbLine
 10
186.651325713
 20
144.6606785303
 30
0.0
 11
222.0066647724
 21
124.2504757347
 31
0.0
  0
LINE
  5
298
330
1F
100
AcDbEntity
  8
0
  6
Continuous
 62
     7
370
    30
100
AcDbLine
 10
229.0777325842
 20
124.2504757347
 30
0.0
 11
264.4330716436
 21
144.6606785303
 31
0.0
  0
ARC
  5
299
330
1F
100
AcDbEntity
  8
0
  6
Continuous
 62
     7
370
    30
100
AcDbCircle
 10
234.5224547994
 20
137.1900704637
 30
0.0
 40
8.891089363616716
100
AcDbArc
 50
68.4091121691
 51
111.5908878309
  0
ARC
  5
29A
330
1F
100
AcDbEntity
  8
0
  6
Continuous
 62
     7
370
    30
100
AcDbCircle
 10
216.5619425572
 20
137.1900704637
 30
0.0
 40
8.891089363616558
100
AcDbArc
 50
68.4091121691
 51
111.5908878309
  0
ARC
  5
29B
330
1F
100
AcDbEntity
  8
0
  6
Continuous
 62
     7
370
    30
100
AcDbCircle
 10
263.355367864
 20
146.9798485323
 30
0.0
 40
2.557341380101117
100
AcDbArc
 50
294.9239981559
 51
353.7558608865
  0
ARC
  5
29C
330
1F
100
AcDbEntity
  8
0
  6
Continuous
 62
     7
370
    30
100
AcDbCircle
 10
187.6040354959
 20
146.8901632548
 30
0.0
 40
2.42451192342239
100
AcDbArc
 50
184.4582669999
 51
246.8618739577
  0
ARC
  5
29D
330
1F
100
AcDbEntity
  8
0
  6
Continuous
 62
     7
370
    30
100
AcDbCircle
 10
234.5224547994
 20
147.5584534839
 30
0.0
 40
8.891089363616306
100
AcDbArc
 50
68.4091121691
 51
111.5908878309
  0
ARC
  5
29E
330
1F
100
AcDbEntity
  8
0
  6
Continuous
 62
     7
370
    30
100
AcDbCircle
 10
216.5619425572
 20
147.5584534839
 30
0.0
 40
8.891089363616373
100
AcDbArc
 50
68.4091121691
 51
111.5908878309
  0
LINE
  5
29F
330
1F
100
AcDbEntity
  8
0
  6
PHANTOM
 62
     8
370
     0
100
AcDbLine
 10
229.0777325842
 20
130.7828022298
 30
0.0
 11
229.0777325842
 21
124.2504757347
 31
0.0
  0
LINE
  5
2A0
330
1F
100
AcDbEntity
  8
0
  6
PHANTOM
 62
     8
370
     0
100
AcDbLine
 10
222.0066647724
 20
124.2504757347
 30
0.0
 11
222.0066647724
 21
130.7828022298
 31
0.0
  0
LINE
  5
2A1
330
1F
100
AcDbEntity
  8
0
  6
PHANTOM
 62
     8
370
     0
100
AcDbLine
 10
186.651325713
 20
151.1930050254
 30
0.0
 11
186.651325713
 21
144.6606785303
 31
0.0
  0
LINE
  5
2A2
330
1F
100
AcDbEntity
  8
0
  6
PHANTOM
 62
     8
370
     0
100
AcDbLine
 10
264.4330716436
 20
144.6606785303
 30
0.0
 11
264.4330716436
 21
151.1930050254
 31
0.0
  0
LWPOLYLINE
  5
2A3
330
1F
100
AcDbEntity
  8
0
  6
Continuous
 62
     7
370
     0
100
AcDbPolyline
 90
       39
 70
   128
 43
0.0
 10
263.708114624
 20
151.9379774274
 10
263.3081420515
 20
151.7423313618
 10
262.8576723322
 20
151.5873748184
 10
262.3691656746
 20
151.4773346078
 10
261.8559472669
 20
151.4152123401
 10
261.3320163693
 20
151.4027025487
 10
260.8116644511
 20
151.4401464682
 10
260.309085356
 20
151.5265227261
 10
259.8379881317
 20
151.6594752032
 10
259.4112230824
 20
151.8353773026
 10
259.040431246
 20
152.0494308734
 10
258.7357268575
 20
152.2957970924
 10
258.505421458
 20
152.5677557312
 10
258.3557971787
 20
152.8578884671
 10
258.2909353797
 20
153.1582812355
 10
258.3126053219
 20
153.4607401046
 10
258.4202159058
 20
153.757014785
 10
258.6108317951
 20
154.0390236757
 10
258.8792534852
 20
154.2990743093
 10
259.2181591323
 20
154.5300731825
 10
259.6183042737
 20
154.7257192481
 10
260.068773993
 20
154.8806757915
 10
260.5572806506
 20
154.9907160021
 10
261.0704990583
 20
155.0528382698
 10
261.5944299558
 20
155.0653480612
 10
262.114781874
 20
155.0279041417
 10
262.6173609691
 20
154.9415278838
 10
263.0884581934
 20
154.8085754067
 10
263.5152232428
 20
154.6326733073
 10
263.8860150791
 20
154.4186197365
 10
264.1907194677
 20
154.1722535175
 10
264.4210248671
 20
153.9002948787
 10
264.5706491465
 20
153.6101621428
 10
264.6355109455
 20
153.3097693744
 10
264.6138410032
 20
153.0073105053
 10
264.5062304194
 20
152.7110358249
 10
264.3156145301
 20
152.4290269342
 10
264.0471928399
 20
152.1689763006
 10
263.7082871928
 20
151.9379774274
  0
LWPOLYLINE
  5
2A4
330
1F
100
AcDbEntity
  8
0
  6
Continuous
 62
     7
370
     0
100
AcDbPolyline
 90
       39
 70
   128
 43
0.0
 10
227.7872562408
 20
131.2012113871
 10
227.3871175672
 20
131.0055653215
 10
226.9366478479
 20
130.8506087781
 10
226.4481411903
 20
130.7405685675
 10
225.9349227826
 20
130.6784462998
 10
225.4109918851
 20
130.6659365084
 10
224.8906399668
 20
130.7033804279
 10
224.3880608718
 20
130.7897566858
 10
223.9169636474
 20
130.9227091629
 10
223.4901985981
 20
131.0986112623
 10
223.1194067618
 20
131.3126648332
 10
222.8147023732
 20
131.5590310521
 10
222.5843969737
 20
131.8309896909
 10
222.4347726944
 20
132.1211224268
 10
222.3699108954
 20
132.4215151952
 10
222.3915808376
 20
132.7239740643
 10
222.4991914215
 20
133.0202487447
 10
222.6898073108
 20
133.3022576354
 10
222.958229001
 20
133.562308269
 10
223.297134648
 20
133.7933071422
 10
223.6972797894
 20
133.9889532078
 10
224.1477495087
 20
134.1439097512
 10
224.6362561663
 20
134.2539499618
 10
225.149474574
 20
134.3160722295
 10
225.6734054715
 20
134.3285820209
 10
226.1937573898
 20
134.2911381014
 10
226.6963364848
 20
134.2047618435
 10
227.1674337092
 20
134.0718093664
 10
227.5941987585
 20
133.895907267
 10
227.9649905948
 20
133.6818536962
 10
228.2696949834
 20
133.4354874772
 10
228.5000003829
 20
133.1635288384
 10
228.6496246622
 20
132.8733961025
 10
228.7144864612
 20
132.5730033341
 10
228.692816519
 20
132.270544465
 10
228.5852059351
 20
131.9742697846
 10
228.3945900458
 20
131.6922608939
 10
228.1261683556
 20
131.4322102603
 10
227.7872627086
 20
131.2012113871
  0
LWPOLYLINE
  5
2A5
330
1F
100
AcDbEntity
  8
0
  6
Continuous
 62
     7
370
     0
100
AcDbPolyline
 90
       39
 70
   128
 43
0.0
 10
191.8661594391
 20
151.9379774274
 10
191.4660930829
 20
151.7423313618
 10
191.0156233636
 20
151.5873748184
 10
190.527116706
 20
151.4773346078
 10
190.0138982983
 20
151.4152123401
 10
189.4899674008
 20
151.4027025487
 10
188.9696154826
 20
151.4401464682
 10
188.4670363875
 20
151.5265227261
 10
187.9959391632
 20
151.6594752032
 10
187.5691741138
 20
151.8353773026
 10
187.1983822775
 20
152.0494308734
 10
186.8936778889
 20
152.2957970924
 10
186.6633724895
 20
152.5677557312
 10
186.5137482101
 20
152.8578884671
 10
186.4488864111
 20
153.1582812355
 10
186.4705563534
 20
153.4607401046
 10
186.5781669372
 20
153.757014785
 10
186.7687828265
 20
154.0390236757
 10
187.0372045167
 20
154.2990743093
 10
187.3761101638
 20
154.5300731825
 10
187.7762553051
 20
154.7257192481
 10
188.2267250244
 20
154.8806757915
 10
188.715231682
 20
154.9907160021
 10
189.2284500897
 20
155.0528382698
 10
189.7523809873
 20
155.0653480612
 10
190.2727329055
 20
155.0279041417
 10
190.7753120006
 20
154.9415278838
 10
191.2464092249
 20
154.8085754067
 10
191.6731742742
 20
154.6326733073
 10
192.0439661106
 20
154.4186197365
 10
192.3486704991
 20
154.1722535175
 10
192.5789758986
 20
153.9002948787
 10
192.7286001779
 20
153.6101621428
 10
192.7934619769
 20
153.3097693744
 10
192.7717920347
 20
153.0073105053
 10
192.6641814508
 20
152.7110358249
 10
192.4735655615
 20
152.4290269342
 10
192.2051438714
 20
152.1689763006
 10
191.8662382243
 20
151.9379774274
  0
LWPOLYLINE
  5
2A6
330
1F
100
AcDbEntity
  8
0
  6
Continuous
 62
     7
370
     0
100
AcDbPolyline
 90
       39
 70
   128
 43
0.0
 10
227.7872562408
 20
172.6747434677
 10
227.3871175672
 20
172.4790974021
 10
226.9366478479
 20
172.3241408587
 10
226.4481411903
 20
172.2141006481
 10
225.9349227826
 20
172.1519783804
 10
225.4109918851
 20
172.139468589
 10
224.8906399668
 20
172.1769125085
 10
224.3880608718
 20
172.2632887664
 10
223.9169636474
 20
172.3962412435
 10
223.4901985981
 20
172.5721433429
 10
223.1194067618
 20
172.7861969137
 10
222.8147023732
 20
173.0325631327
 10
222.5843969737
 20
173.3045217715
 10
222.4347726944
 20
173.5946545074
 10
222.3699108954
 20
173.8950472758
 10
222.3915808376
 20
174.1975061449
 10
222.4991914215
 20
174.4937808253
 10
222.6898073108
 20
174.775789716
 10
222.958229001
 20
175.0358403496
 10
223.297134648
 20
175.2668392228
 10
223.6972797894
 20
175.4624852884
 10
224.1477495087
 20
175.6174418318
 10
224.6362561663
 20
175.7274820424
 10
225.149474574
 20
175.7896043101
 10
225.6734054715
 20
175.8021141015
 10
226.1937573898
 20
175.764670182
 10
226.6963364848
 20
175.6782939241
 10
227.1674337092
 20
175.545341447
 10
227.5941987585
 20
175.3694393476
 10
227.9649905948
 20
175.1553857768
 10
228.2696949834
 20
174.9090195578
 10
228.5000003829
 20
174.637060919
 10
228.6496246622
 20
174.3469281831
 10
228.7144864612
 20
174.0465354147
 10
228.692816519
 20
173.7440765456
 10
228.5852059351
 20
173.4478018652
 10
228.3945900458
 20
173.1657929745
 10
228.1261683556
 20
172.9057423409
 10
227.7872627086
 20
172.6747434677
  0
LWPOLYLINE
  5
2A7
330
1F
100
AcDbEntity
  8
0
  6
Continuous
 62
     7
370
     0
100
AcDbPolyline
 90
       32
 70
   128
 43
0.0
 10
244.9754476547
 20
152.3838178973
 10
244.6488605877
 20
152.2300762
 10
244.2753247491
 20
152.1174362969
 10
243.8701580096
 20
152.0505096791
 10
243.4499479431
 20
152.03203633
 10
243.031897999
 20
152.0627725508
 10
242.6331231913
 20
152.141459997
 10
242.2699494074
 20
152.2648771952
 10
241.9572450247
 20
152.4279714309
 10
241.7078121973
 20
152.624065607
 10
241.5318627345
 20
152.8451316047
 10
241.4366000281
 20
153.0821189562
 10
241.4259241443
 20
153.3253253715
 10
241.5002721552
 20
153.5647939514
 10
241.6566002444
 20
153.7907208239
 10
241.8885083215
 20
153.9938565166
 10
242.1865020428
 20
154.1658846301
 10
242.5383815101
 20
154.2997623134
 10
242.9297407368
 20
154.3900085983
 10
243.3445574301
 20
154.4329287914
 10
243.7658489459
 20
154.4267657349
 10
244.1763675601
 20
154.3717717451
 10
244.5593065922
 20
154.2701982823
 10
244.8989884734
 20
154.126203776
 10
245.1815065876
 20
153.9456833784
 10
245.3952946098
 20
153.7360276156
 10
245.5316000335
 20
153.5058198192
 10
245.5848424985
 20
153.2644847234
 10
245.552842252
 20
153.0219026155
 10
245.4369093879
 20
152.7880048355
 10
245.2417902114
 20
152.5723671858
 10
244.9754729243
 20
152.3838178973
  0
LWPOLYLINE
  5
2A8
330
1F
100
AcDbEntity
  8
0
  6
Continuous
 62
     7
370
     0
100
AcDbPolyline
 90
       32
 70
   128
 43
0.0
 10
227.0148992538
 20
162.7522009174
 10
226.6883483456
 20
162.5984592201
 10
226.314812507
 20
162.4858193171
 10
225.9096457675
 20
162.4188926992
 10
225.4894357009
 20
162.4004193502
 10
225.0713857569
 20
162.431155571
 10
224.6726109492
 20
162.5098430171
 10
224.3094371653
 20
162.6332602154
 10
223.9967327825
 20
162.7963544511
 10
223.7472999552
 20
162.9924486271
 10
223.5713504924
 20
163.2135146249
 10
223.4760877859
 20
163.4505019764
 10
223.4654119022
 20
163.6937083917
 10
223.539759913
 20
163.9331769715
 10
223.6960880022
 20
164.1591038441
 10
223.9279960794
 20
164.3622395367
 10
224.2259898006
 20
164.5342676503
 10
224.577869268
 20
164.6681453336
 10
224.9692284947
 20
164.7583916185
 10
225.384045188
 20
164.8013118116
 10
225.8053367038
 20
164.7951487551
 10
226.2158553179
 20
164.7401547652
 10
226.5987943501
 20
164.6385813024
 10
226.9384762313
 20
164.4945867962
 10
227.2209943454
 20
164.3140663985
 10
227.4347823677
 20
164.1044106357
 10
227.5710877913
 20
163.8742028393
 10
227.6243302563
 20
163.6328677436
 10
227.5923300099
 20
163.3902856357
 10
227.4763971458
 20
163.1563878556
 10
227.2812779692
 20
162.940750206
 10
227.0149606822
 20
162.7522009174
  0
LWPOLYLINE
  5
2A9
330
1F
100
AcDbEntity
  8
0
  6
Continuous
 62
     7
370
     0
100
AcDbPolyline
 90
       32
 70
   128
 43
0.0
 10
209.054350853
 20
152.3838178973
 10
208.7278361035
 20
152.2300762
 10
208.3543002649
 20
152.1174362969
 10
207.9491335253
 20
152.0505096791
 10
207.5289234588
 20
152.03203633
 10
207.1108735148
 20
152.0627725508
 10
206.712098707
 20
152.141459997
 10
206.3489249231
 20
152.2648771952
 10
206.0362205404
 20
152.4279714309
 10
205.786787713
 20
152.624065607
 10
205.6108382503
 20
152.8451316047
 10
205.5155755438
 20
153.0821189562
 10
205.50489966
 20
153.3253253715
 10
205.5792476709
 20
153.5647939514
 10
205.7355757601
 20
153.7907208239
 10
205.9674838373
 20
153.9938565166
 10
206.2654775585
 20
154.1658846301
 10
206.6173570258
 20
154.2997623134
 10
207.0087162525
 20
154.3900085983
 10
207.4235329459
 20
154.4329287914
 10
207.8448244617
 20
154.4267657349
 10
208.2553430758
 20
154.3717717451
 10
208.6382821079
 20
154.2701982823
 10
208.9779639892
 20
154.126203776
 10
209.2604821033
 20
153.9456833784
 10
209.4742701256
 20
153.7360276156
 10
209.6105755492
 20
153.5058198192
 10
209.6638180142
 20
153.2644847234
 10
209.6318177677
 20
153.0219026155
 10
209.5158849037
 20
152.7880048355
 10
209.3207657271
 20
152.5723671858
 10
209.05444844
 20
152.3838178973
  0
LWPOLYLINE
  5
2AA
330
1F
100
AcDbEntity
  8
0
  6
Continuous
 62
     7
370
     0
100
AcDbPolyline
 90
       32
 70
   128
 43
0.0
 10
227.0148992538
 20
142.0154348772
 10
226.6883483456
 20
141.8616931798
 10
226.314812507
 20
141.7490532768
 10
225.9096457675
 20
141.6821266589
 10
225.4894357009
 20
141.6636533099
 10
225.0713857569
 20
141.6943895307
 10
224.6726109492
 20
141.7730769768
 10
224.3094371653
 20
141.8964941751
 10
223.9967327825
 20
142.0595884108
 10
223.7472999552
 20
142.2556825868
 10
223.5713504924
 20
142.4767485846
 10
223.4760877859
 20
142.7137359361
 10
223.4654119022
 20
142.9569423514
 10
223.539759913
 20
143.1964109312
 10
223.6960880022
 20
143.4223378038
 10
223.9279960794
 20
143.6254734964
 10
224.2259898006
 20
143.79750161
 10
224.577869268
 20
143.9313792933
 10
224.9692284947
 20
144.0216255782
 10
225.384045188
 20
144.0645457713
 10
225.8053367038
 20
144.0583827148
 10
226.2158553179
 20
144.0033887249
 10
226.5987943501
 20
143.9018152621
 10
226.9384762313
 20
143.7578207559
 10
227.2209943454
 20
143.5773003582
 10
227.4347823677
 20
143.3676445954
 10
227.5710877913
 20
143.137436799
 10
227.6243302563
 20
142.8961017033
 10
227.5923300099
 20
142.6535195954
 10
227.4763971458
 20
142.4196218153
 10
227.2812779692
 20
142.2039841657
 10
227.0149606822
 20
142.0154348772
  0
LWPOLYLINE
  5
2AB
330
1F
100
AcDbEntity
  8
0
  6
Continuous
 62
     7
370
     0
100
AcDbPolyline
 90
       39
 70
   128
 43
0.0
 10
227.7872562408
 20
151.9379774274
 10
227.3871175672
 20
151.7423313618
 10
226.9366478479
 20
151.5873748184
 10
226.4481411903
 20
151.4773346078
 10
225.9349227826
 20
151.4152123401
 10
225.4109918851
 20
151.4027025487
 10
224.8906399668
 20
151.4401464682
 10
224.3880608718
 20
151.5265227261
 10
223.9169636474
 20
151.6594752032
 10
223.4901985981
 20
151.8353773026
 10
223.1194067618
 20
152.0494308734
 10
222.8147023732
 20
152.2957970924
 10
222.5843969737
 20
152.5677557312
 10
222.4347726944
 20
152.8578884671
 10
222.3699108954
 20
153.1582812355
 10
222.3915808376
 20
153.4607401046
 10
222.4991914215
 20
153.757014785
 10
222.6898073108
 20
154.0390236757
 10
222.958229001
 20
154.2990743093
 10
223.297134648
 20
154.5300731825
 10
223.6972797894
 20
154.7257192481
 10
224.1477495087
 20
154.8806757915
 10
224.6362561663
 20
154.9907160021
 10
225.149474574
 20
155.0528382698
 10
225.6734054715
 20
155.0653480612
 10
226.1937573898
 20
155.0279041417
 10
226.6963364848
 20
154.9415278838
 10
227.1674337092
 20
154.8085754067
 10
227.5941987585
 20
154.6326733073
 10
227.9649905948
 20
154.4186197365
 10
228.2696949834
 20
154.1722535175
 10
228.5000003829
 20
153.9002948787
 10
228.6496246622
 20
153.6101621428
 10
228.7144864612
 20
153.3097693744
 10
228.692816519
 20
153.0073105053
 10
228.5852059351
 20
152.7110358249
 10
228.3945900458
 20
152.4290269342
 10
228.1261683556
 20
152.1689763006
 10
227.7872627086
 20
151.9379774274
  0
LWPOLYLINE
  5
2AC
330
1F
100
AcDbEntity
  8
0
  6
Continuous
 62
     7
370
     0
100
AcDbPolyline
 90
       39
 70
   128
 43
0.0
 10
245.7476854324
 20
162.3063604476
 10
245.3476298093
 20
162.110714382
 10
244.89716009
 20
161.9557578386
 10
244.4086534324
 20
161.845717628
 10
243.8954350247
 20
161.7835953602
 10
243.3715041272
 20
161.7710855688
 10
242.851152209
 20
161.8085294884
 10
242.3485731139
 20
161.8949057463
 10
241.8774758896
 20
162.0278582234
 10
241.4507108402
 20
162.2037603227
 10
241.0799190039
 20
162.4178138936
 10
240.7752146153
 20
162.6641801125
 10
240.5449092159
 20
162.9361387513
 10
240.3952849365
 20
163.2262714873
 10
240.3304231376
 20
163.5266642556
 10
240.3520930798
 20
163.8291231247
 10
240.4597036636
 20
164.1253978051
 10
240.6503195529
 20
164.4074066958
 10
240.9187412431
 20
164.6674573295
 10
241.2576468902
 20
164.8984562026
 10
241.6577920315
 20
165.0941022682
 10
242.1082617508
 20
165.2490588116
 10
242.5967684084
 20
165.3590990222
 10
243.1099868162
 20
165.42122129
 10
243.6339177137
 20
165.4337310814
 10
244.1542696319
 20
165.3962871618
 10
244.656848727
 20
165.3099109039
 10
245.1279459513
 20
165.1769584268
 10
245.5547110006
 20
165.0010563275
 10
245.925502837
 20
164.7870027566
 10
246.2302072256
 20
164.5406365377
 10
246.460512625
 20
164.2686778989
 10
246.6101369044
 20
163.9785451629
 10
246.6749987033
 20
163.6781523946
 10
246.6533287611
 20
163.3756935255
 10
246.5457181772
 20
163.0794188451
 10
246.3551022879
 20
162.7974099544
 10
246.0866805978
 20
162.5373593207
 10
245.7477749507
 20
162.3063604476
  0
LWPOLYLINE
  5
2AD
330
1F
100
AcDbEntity
  8
0
  6
Continuous
 62
     7
370
     0
100
AcDbPolyline
 90
       39
 70
   128
 43
0.0
 10
209.82670784
 20
162.3063604476
 10
209.4266053251
 20
162.110714382
 10
208.9761356058
 20
161.9557578386
 10
208.4876289482
 20
161.845717628
 10
207.9744105404
 20
161.7835953602
 10
207.4504796429
 20
161.7710855688
 10
206.9301277247
 20
161.8085294884
 10
206.4275486296
 20
161.8949057463
 10
205.9564514053
 20
162.0278582234
 10
205.529686356
 20
162.2037603227
 10
205.1588945196
 20
162.4178138936
 10
204.854190131
 20
162.6641801125
 10
204.6238847316
 20
162.9361387513
 10
204.4742604522
 20
163.2262714873
 10
204.4093986533
 20
163.5266642556
 10
204.4310685955
 20
163.8291231247
 10
204.5386791794
 20
164.1253978051
 10
204.7292950687
 20
164.4074066958
 10
204.9977167588
 20
164.6674573295
 10
205.3366224059
 20
164.8984562026
 10
205.7367675473
 20
165.0941022682
 10
206.1872372666
 20
165.2490588116
 10
206.6757439242
 20
165.3590990222
 10
207.1889623319
 20
165.42122129
 10
207.7128932294
 20
165.4337310814
 10
208.2332451476
 20
165.3962871618
 10
208.7358242427
 20
165.3099109039
 10
209.206921467
 20
165.1769584268
 10
209.6336865164
 20
165.0010563275
 10
210.0044783527
 20
164.7870027566
 10
210.3091827413
 20
164.5406365377
 10
210.5394881407
 20
164.2686778989
 10
210.6891124201
 20
163.9785451629
 10
210.753974219
 20
163.6781523946
 10
210.7323042768
 20
163.3756935255
 10
210.624693693
 20
163.0794188451
 10
210.4340778037
 20
162.7974099544
 10
210.1656561135
 20
162.5373593207
 10
209.8267504664
 20
162.3063604476
  0
LWPOLYLINE
  5
2AE
330
1F
100
AcDbEntity
  8
0
  6
Continuous
 62
     7
370
     0
100
AcDbPolyline
 90
       39
 70
   128
 43
0.0
 10
209.82670784
 20
141.5695944073
 10
209.4266053251
 20
141.3739483417
 10
208.9761356058
 20
141.2189917983
 10
208.4876289482
 20
141.1089515877
 10
207.9744105404
 20
141.0468293199
 10
207.4504796429
 20
141.0343195285
 10
206.9301277247
 20
141.0717634481
 10
206.4275486296
 20
141.158139706
 10
205.9564514053
 20
141.2910921831
 10
205.529686356
 20
141.4669942824
 10
205.1588945196
 20
141.6810478533
 10
204.854190131
 20
141.9274140722
 10
204.6238847316
 20
142.199372711
 10
204.4742604522
 20
142.489505447
 10
204.4093986533
 20
142.7898982153
 10
204.4310685955
 20
143.0923570844
 10
204.5386791794
 20
143.3886317648
 10
204.7292950687
 20
143.6706406555
 10
204.9977167588
 20
143.9306912892
 10
205.3366224059
 20
144.1616901623
 10
205.7367675473
 20
144.3573362279
 10
206.1872372666
 20
144.5122927713
 10
206.6757439242
 20
144.6223329819
 10
207.1889623319
 20
144.6844552497
 10
207.7128932294
 20
144.6969650411
 10
208.2332451476
 20
144.6595211215
 10
208.7358242427
 20
144.5731448636
 10
209.206921467
 20
144.4401923865
 10
209.6336865164
 20
144.2642902872
 10
210.0044783527
 20
144.0502367163
 10
210.3091827413
 20
143.8038704974
 10
210.5394881407
 20
143.5319118586
 10
210.6891124201
 20
143.2417791226
 10
210.753974219
 20
142.9413863543
 10
210.7323042768
 20
142.6389274852
 10
210.624693693
 20
142.3426528048
 10
210.4340778037
 20
142.0606439141
 10
210.1656561135
 20
141.8005932804
 10
209.8267504664
 20
141.5695944073
  0
LWPOLYLINE
  5
2AF
330
1F
100
AcDbEntity
  8
0
  6
Continuous
 62
     7
370
     0
100
AcDbPolyline
 90
       39
 70
   128
 43
0.0
 10
245.7476854324
 20
141.5695944073
 10
245.3476298093
 20
141.3739483417
 10
244.89716009
 20
141.2189917983
 10
244.4086534324
 20
141.1089515877
 10
243.8954350247
 20
141.0468293199
 10
243.3715041272
 20
141.0343195285
 10
242.851152209
 20
141.0717634481
 10
242.3485731139
 20
141.158139706
 10
241.8774758896
 20
141.2910921831
 10
241.4507108402
 20
141.4669942824
 10
241.0799190039
 20
141.6810478533
 10
240.7752146153
 20
141.9274140722
 10
240.5449092159
 20
142.199372711
 10
240.3952849365
 20
142.489505447
 10
240.3304231376
 20
142.7898982153
 10
240.3520930798
 20
143.0923570844
 10
240.4597036636
 20
143.3886317648
 10
240.6503195529
 20
143.6706406555
 10
240.9187412431
 20
143.9306912892
 10
241.2576468902
 20
144.1616901623
 10
241.6577920315
 20
144.3573362279
 10
242.1082617508
 20
144.5122927713
 10
242.5967684084
 20
144.6223329819
 10
243.1099868162
 20
144.6844552497
 10
243.6339177137
 20
144.6969650411
 10
244.1542696319
 20
144.6595211215
 10
244.656848727
 20
144.5731448636
 10
245.1279459513
 20
144.4401923865
 10
245.5547110006
 20
144.2642902872
 10
245.925502837
 20
144.0502367163
 10
246.2302072256
 20
143.8038704974
 10
246.460512625
 20
143.5319118586
 10
246.6101369044
 20
143.2417791226
 10
246.6749987033
 20
142.9413863543
 10
246.6533287611
 20
142.6389274852
 10
246.5457181772
 20
142.3426528048
 10
246.3551022879
 20
142.0606439141
 10
246.0866805978
 20
141.8005932804
 10
245.7477749507
 20
141.5695944073
  0
LINE
  5
2B0
330
1F
100
AcDbEntity
  8
0
  6
Continuous
 62
     7
370
    30
100
AcDbLine
 10
69.4132957305
 20
45.1995336103
 30
0.0
 11
119.4132957305
 21
45.1995336103
 31
0.0
  0
LINE
  5
2B1
330
1F
100
AcDbEntity
  8
0
  6
Continuous
 62
     7
370
    30
100
AcDbLine
 10
69.4132957305
 20
53.1995336103
 30
0.0
 11
119.4132957305
 21
53.1995336103
 31
0.0
  0
LINE
  5
2B2
330
1F
100
AcDbEntity
  8
0
  6
Continuous
 62
     7
370
    30
100
AcDbLine
 10
69.4132957305
 20
45.1995336103
 30
0.0
 11
64.4132957305
 21
45.1995336103
 31
0.0
  0
LINE
  5
2B3
330
1F
100
AcDbEntity
  8
0
  6
Continuous
 62
     7
370
    30
100
AcDbLine
 10
64.4132957305
 20
45.1995336103
 30
0.0
 11
64.4132957305
 21
53.1995336103
 31
0.0
  0
LINE
  5
2B4
330
1F
100
AcDbEntity
  8
0
  6
Continuous
 62
     7
370
    30
100
AcDbLine
 10
64.4132957305
 20
53.1995336103
 30
0.0
 11
69.4132957305
 21
53.1995336103
 31
0.0
  0
LINE
  5
2B5
330
1F
100
AcDbEntity
  8
0
  6
Continuous
 62
     7
370
    30
100
AcDbLine
 10
124.4132957305
 20
53.1995336103
 30
0.0
 11
124.4132957305
 21
45.1995336103
 31
0.0
  0
LINE
  5
2B6
330
1F
100
AcDbEntity
  8
0
  6
Continuous
 62
     7
370
    30
100
AcDbLine
 10
124.4132957305
 20
45.1995336103
 30
0.0
 11
119.4132957305
 21
45.1995336103
 31
0.0
  0
LINE
  5
2B7
330
1F
100
AcDbEntity
  8
0
  6
Continuous
 62
     7
370
    30
100
AcDbLine
 10
119.4132957305
 20
53.1995336103
 30
0.0
 11
124.4132957305
 21
53.1995336103
 31
0.0
  0
LINE
  5
2B8
330
1F
100
AcDbEntity
  8
0
  6
PHANTOM
 62
     8
370
     0
100
AcDbLine
 10
119.4132957305
 20
45.1995336103
 30
0.0
 11
119.4132957305
 21
53.1995336103
 31
0.0
  0
LINE
  5
2B9
330
1F
100
AcDbEntity
  8
0
  6
PHANTOM
 62
     8
370
     0
100
AcDbLine
 10
69.4132957305
 20
53.1995336103
 30
0.0
 11
69.4132957305
 21
45.1995336103
 31
0.0
  0
DIMENSION
  5
2BA
330
1F
100
AcDbEntity
  8
SLD-0
 62
     7
100
AcDbDimension
  2
_D_13
 10
135.5148892115
 20
45.1995336103
 30
0.0
 11
135.5148892115
 21
49.1995336103
 31
0.0
 70
   160
  1
<>
 71
     2
 42
-1.0
  3
SLDDIMSTYLE0
100
AcDbAlignedDimension
 13
124.4132957305
 23
53.1995336103
 33
0.0
 14
124.4132957305
 24
45.1995336103
 34
0.0
 50
90.0
100
AcDbRotatedDimension
  0
ENDSEC
  0
SECTION
  2
OBJECTS
  0
DICTIONARY
  5
C
330
0
100
AcDbDictionary
281
     1
  3
ACAD_GROUP
350
D
  3
ACAD_LAYOUT
350
1A
  3
ACAD_MLINESTYLE
350
17
  3
ACAD_PLOTSETTINGS
350
19
  3
ACAD_PLOTSTYLENAME
350
E
  3
ACAD_SCALELIST
350
47
  0
DICTIONARY
  5
D
102
{ACAD_REACTORS
330
C
102
}
330
C
100
AcDbDictionary
281
     1
  0
DICTIONARY
  5
1A
102
{ACAD_REACTORS
330
C
102
}
330
C
100
AcDbDictionary
281
     1
  3
Layout1
350
1E
  3
Layout2
350
26
  3
Model
350
22
  0
DICTIONARY
  5
17
102
{ACAD_REACTORS
330
C
102
}
330
C
100
AcDbDictionary
281
     1
  3
Standard
350
18
  0
DICTIONARY
  5
19
102
{ACAD_REACTORS
330
C
102
}
330
C
100
AcDbDictionary
281
     1
  0
ACDBDICTIONARYWDFLT
  5
E
102
{ACAD_REACTORS
330
C
102
}
330
C
100
AcDbDictionary
281
     1
  3
Normal
350
F
100
AcDbDictionaryWithDefault
340
F
  0
DICTIONARY
  5
47
102
{ACAD_REACTORS
330
C
102
}
330
C
100
AcDbDictionary
281
     1
  3
A0
350
48
  3
A1
350
49
  3
A2
350
4A
  3
A3
350
4B
  3
A4
350
4C
  3
A5
350
4D
  3
A6
350
4E
  3
A7
350
4F
  3
A8
350
50
  3
A9
350
51
  3
B0
350
52
  3
B1
350
53
  3
B2
350
54
  3
B3
350
55
  3
B4
350
56
  3
B5
350
57
  3
B6
350
58
  3
B7
350
59
  3
B8
350
5A
  3
B9
350
5B
  3
C0
350
5C
  3
C1
350
5D
  3
C2
350
5E
  3
C3
350
5F
  3
C4
350
60
  3
C5
350
61
  3
C6
350
62
  3
C7
350
63
  3
C8
350
64
  3
C9
350
65
  3
D0
350
66
  3
D1
350
67
  3
D2
350
68
  0
LAYOUT
  5
1E
102
{ACAD_REACTORS
330
1A
102
}
330
1A
100
AcDbPlotSettings
  1

  2
none_device
  4

  6

 40
0.0
 41
0.0
 42
0.0
 43
0.0
 44
0.0
 45
0.0
 46
0.0
 47
0.0
 48
0.0
 49
0.0
140
0.0
141
0.0
142
1.0
143
1.0
 70
   688
 72
     1
 73
     0
 74
     5
  7

 75
    16
147
1.0
148
0.0
149
0.0
100
AcDbLayout
  1
Layout1
 70
     1
 71
     1
 10
0.0
 20
0.0
 11
420.0
 21
297.0
 12
0.0
 22
0.0
 32
0.0
 14
1.0000000000E+20
 24
1.0000000000E+20
 34
1.0000000000E+20
 15
-1.0000000000E+20
 25
-1.0000000000E+20
 35
-1.0000000000E+20
146
0.0
 13
0.0
 23
0.0
 33
0.0
 16
1.0
 26
0.0
 36
0.0
 17
0.0
 27
1.0
 37
0.0
 76
     0
330
1B
  0
LAYOUT
  5
26
102
{ACAD_REACTORS
330
1A
102
}
330
1A
100
AcDbPlotSettings
  1

  2
none_device
  4

  6

 40
0.0
 41
0.0
 42
0.0
 43
0.0
 44
0.0
 45
0.0
 46
0.0
 47
0.0
 48
0.0
 49
0.0
140
0.0
141
0.0
142
1.0
143
1.0
 70
   688
 72
     1
 73
     0
 74
     5
  7

 75
    16
147
1.0
148
0.0
149
0.0
100
AcDbLayout
  1
Layout2
 70
     1
 71
     2
 10
0.0
 20
0.0
 11
0.0
 21
0.0
 12
0.0
 22
0.0
 32
0.0
 14
0.0
 24
0.0
 34
0.0
 15
0.0
 25
0.0
 35
0.0
146
0.0
 13
0.0
 23
0.0
 33
0.0
 16
1.0
 26
0.0
 36
0.0
 17
0.0
 27
1.0
 37
0.0
 76
     0
330
23
  0
LAYOUT
  5
22
102
{ACAD_REACTORS
330
1A
102
}
330
1A
100
AcDbPlotSettings
  1

  2
none_device
  4
Letter_(8.50_x_11.00_Inches)
  6

 40
6.35
 41
6.35
 42
6.35000508
 43
6.35000508
 44
215.9
 45
279.4
 46
0.0
 47
0.0
 48
0.0
 49
0.0
140
0.0
141
0.0
142
1.0
143
1.0
 70
  1712
 72
     1
 73
     0
 74
     0
  7

 75
     0
147
1.0
148
0.0
149
0.0
100
AcDbLayout
  1
Model
 70
     1
 71
     0
 10
0.0
 20
0.0
 11
297.0
 21
210.0
 12
0.0
 22
0.0
 32
0.0
 14
0.0
 24
0.0
 34
0.0
 15
297.0
 25
210.0
 35
0.0
146
0.0
 13
0.0
 23
0.0
 33
0.0
 16
1.0
 26
0.0
 36
0.0
 17
0.0
 27
1.0
 37
0.0
 76
     0
330
1F
331
29
  0
MLINESTYLE
  5
18
102
{ACAD_REACTORS
330
17
102
}
330
17
100
AcDbMlineStyle
  2
Standard
 70
     0
  3

 62
   256
 51
90.0
 52
90.0
 71
     2
 49
0.5
 62
   256
  6
BYLAYER
 49
-0.5
 62
   256
  6
BYLAYER
  0
ACDBPLACEHOLDER
  5
F
102
{ACAD_REACTORS
330
E
102
}
330
E
  0
SCALE
  5
48
102
{ACAD_REACTORS
330
47
102
}
330
47
100
AcDbScale
 70
     0
300
1:1
140
1.0
141
1.0
290
     1
  0
SCALE
  5
49
102
{ACAD_REACTORS
330
47
102
}
330
47
100
AcDbScale
 70
     0
300
1:2
140
1.0
141
2.0
290
     0
  0
SCALE
  5
4A
102
{ACAD_REACTORS
330
47
102
}
330
47
100
AcDbScale
 70
     0
300
1:4
140
1.0
141
4.0
290
     0
  0
SCALE
  5
4B
102
{ACAD_REACTORS
330
47
102
}
330
47
100
AcDbScale
 70
     0
300
1:5
140
1.0
141
5.0
290
     0
  0
SCALE
  5
4C
102
{ACAD_REACTORS
330
47
102
}
330
47
100
AcDbScale
 70
     0
300
1:8
140
1.0
141
8.0
290
     0
  0
SCALE
  5
4D
102
{ACAD_REACTORS
330
47
102
}
330
47
100
AcDbScale
 70
     0
300
1:10
140
1.0
141
10.0
290
     0
  0
SCALE
  5
4E
102
{ACAD_REACTORS
330
47
102
}
330
47
100
AcDbScale
 70
     0
300
1:16
140
1.0
141
16.0
290
     0
  0
SCALE
  5
4F
102
{ACAD_REACTORS
330
47
102
}
330
47
100
AcDbScale
 70
     0
300
1:20
140
1.0
141
20.0
290
     0
  0
SCALE
  5
50
102
{ACAD_REACTORS
330
47
102
}
330
47
100
AcDbScale
 70
     0
300
1:30
140
1.0
141
30.0
290
     0
  0
SCALE
  5
51
102
{ACAD_REACTORS
330
47
102
}
330
47
100
AcDbScale
 70
     0
300
1:40
140
1.0
141
40.0
290
     0
  0
SCALE
  5
52
102
{ACAD_REACTORS
330
47
102
}
330
47
100
AcDbScale
 70
     0
300
1:50
140
1.0
141
50.0
290
     0
  0
SCALE
  5
53
102
{ACAD_REACTORS
330
47
102
}
330
47
100
AcDbScale
 70
     0
300
1:100
140
1.0
141
100.0
290
     0
  0
SCALE
  5
54
102
{ACAD_REACTORS
330
47
102
}
330
47
100
AcDbScale
 70
     0
300
2:1
140
2.0
141
1.0
290
     0
  0
SCALE
  5
55
102
{ACAD_REACTORS
330
47
102
}
330
47
100
AcDbScale
 70
     0
300
4:1
140
4.0
141
1.0
290
     0
  0
SCALE
  5
56
102
{ACAD_REACTORS
330
47
102
}
330
47
100
AcDbScale
 70
     0
300
8:1
140
8.0
141
1.0
290
     0
  0
SCALE
  5
57
102
{ACAD_REACTORS
330
47
102
}
330
47
100
AcDbScale
 70
     0
300
10:1
140
10.0
141
1.0
290
     0
  0
SCALE
  5
58
102
{ACAD_REACTORS
330
47
102
}
330
47
100
AcDbScale
 70
     0
300
100:1
140
100.0
141
1.0
290
     0
  0
SCALE
  5
59
102
{ACAD_REACTORS
330
47
102
}
330
47
100
AcDbScale
 70
     0
300
1/128" = 1'-0"
140
0.0078125
141
12.0
290
     0
  0
SCALE
  5
5A
102
{ACAD_REACTORS
330
47
102
}
330
47
100
AcDbScale
 70
     0
300
1/64" = 1'-0"
140
0.015625
141
12.0
290
     0
  0
SCALE
  5
5B
102
{ACAD_REACTORS
330
47
102
}
330
47
100
AcDbScale
 70
     0
300
1/32" = 1'-0"
140
0.03125
141
12.0
290
     0
  0
SCALE
  5
5C
102
{ACAD_REACTORS
330
47
102
}
330
47
100
AcDbScale
 70
     0
300
1/16" = 1'-0"
140
0.0625
141
12.0
290
     0
  0
SCALE
  5
5D
102
{ACAD_REACTORS
330
47
102
}
330
47
100
AcDbScale
 70
     0
300
3/32" = 1'-0"
140
0.09375
141
12.0
290
     0
  0
SCALE
  5
5E
102
{ACAD_REACTORS
330
47
102
}
330
47
100
AcDbScale
 70
     0
300
1/8" = 1'-0"
140
0.125
141
12.0
290
     0
  0
SCALE
  5
5F
102
{ACAD_REACTORS
330
47
102
}
330
47
100
AcDbScale
 70
     0
300
3/16" = 1'-0"
140
0.1875
141
12.0
290
     0
  0
SCALE
  5
60
102
{ACAD_REACTORS
330
47
102
}
330
47
100
AcDbScale
 70
     0
300
1/4" = 1'-0"
140
0.25
141
12.0
290
     0
  0
SCALE
  5
61
102
{ACAD_REACTORS
330
47
102
}
330
47
100
AcDbScale
 70
     0
300
3/8" = 1'-0"
140
0.375
141
12.0
290
     0
  0
SCALE
  5
62
102
{ACAD_REACTORS
330
47
102
}
330
47
100
AcDbScale
 70
     0
300
1/2" = 1'-0"
140
0.5
141
12.0
290
     0
  0
SCALE
  5
63
102
{ACAD_REACTORS
330
47
102
}
330
47
100
AcDbScale
 70
     0
300
3/4" = 1'-0"
140
0.75
141
12.0
290
     0
  0
SCALE
  5
64
102
{ACAD_REACTORS
330
47
102
}
330
47
100
AcDbScale
 70
     0
300
1" = 1'-0"
140
1.0
141
12.0
290
     0
  0
SCALE
  5
65
102
{ACAD_REACTORS
330
47
102
}
330
47
100
AcDbScale
 70
     0
300
1-1/2" = 1'-0"
140
1.5
141
12.0
290
     0
  0
SCALE
  5
66
102
{ACAD_REACTORS
330
47
102
}
330
47
100
AcDbScale
 70
     0
300
3" = 1'-0"
140
3.0
141
12.0
290
     0
  0
SCALE
  5
67
102
{ACAD_REACTORS
330
47
102
}
330
47
100
AcDbScale
 70
     0
300
6" = 1'-0"
140
6.0
141
12.0
290
     0
  0
SCALE
  5
68
102
{ACAD_REACTORS
330
47
102
}
330
47
100
AcDbScale
 70
     0
300
1'-0" = 1'-0"
140
12.0
141
12.0
290
     0
  0
ENDSEC
  0
EOF
