  0
SECTION
  2
HEADER
  9
$ACADVER
  1
AC1015
  9
$ACADMAINTVER
 70
     6
  9
$DWGCODEPAGE
  3
ANSI_950
  9
$INSBASE
 10
0.0
 20
0.0
 30
0.0
  9
$EXTMIN
 10
0.0
 20
0.0
 30
0.0
  9
$EXTMAX
 10
594.0
 20
420.0
 30
0.0
  9
$LIMMIN
 10
0.0
 20
0.0
  9
$LIMMAX
 10
594.0
 20
420.0
  9
$ORTHOMODE
 70
     0
  9
$REGENMODE
 70
     1
  9
$FILLMODE
 70
     1
  9
$QTEXTMODE
 70
     0
  9
$MIRRTEXT
 70
     1
  9
$LTSCALE
 40
2.0
  9
$ATTMODE
 70
     1
  9
$TEXTSIZE
 40
5.0
  9
$TRACEWID
 40
1.0
  9
$TEXTSTYLE
  7
Standard
  9
$CLAYER
  8
0
  9
$CELTYPE
  6
ByLayer
  9
$CECOLOR
 62
   256
  9
$CELTSCALE
 40
1.0
  9
$DISPSILH
 70
     0
  9
$DIMSCALE
 40
1.0
  9
$DIMASZ
 40
4.0
  9
$DIMEXO
 40
2.0
  9
$DIMDLI
 40
3.75
  9
$DIMRND
 40
0.0
  9
$DIMDLE
 40
0.0
  9
$DIMEXE
 40
2.0
  9
$DIMTP
 40
0.0
  9
$DIMTM
 40
0.0
  9
$DIMTXT
 40
5.0
  9
$DIMCEN
 40
2.5
  9
$DIMTSZ
 40
0.0
  9
$DIMTOL
 70
     0
  9
$DIMLIM
 70
     0
  9
$DIMTIH
 70
     1
  9
$DIMTOH
 70
     1
  9
$DIMSE1
 70
     0
  9
$DIMSE2
 70
     0
  9
$DIMTAD
 70
     1
  9
$DIMZIN
 70
     0
  9
$DIMBLK
  1

  9
$DIMASO
 70
     1
  9
$DIMSHO
 70
     1
  9
$DIMPOST
  1

  9
$DIMAPOST
  1

  9
$DIMALT
 70
     0
  9
$DIMALTD
 70
     3
  9
$DIMALTF
 40
0.0393700787
  9
$DIMLFAC
 40
1.0
  9
$DIMTOFL
 70
     1
  9
$DIMTVP
 40
0.0
  9
$DIMTIX
 70
     0
  9
$DIMSOXD
 70
     0
  9
$DIMSAH
 70
     0
  9
$DIMBLK1
  1

  9
$DIMBLK2
  1

  9
$DIMSTYLE
  2
ISO-25
  9
$DIMCLRD
 70
     0
  9
$DIMCLRE
 70
     0
  9
$DIMCLRT
 70
     0
  9
$DIMTFAC
 40
1.0
  9
$DIMGAP
 40
2.0
  9
$DIMJUST
 70
     0
  9
$DIMSD1
 70
     0
  9
$DIMSD2
 70
     0
  9
$DIMTOLJ
 70
     0
  9
$DIMTZIN
 70
     0
  9
$DIMALTZ
 70
     0
  9
$DIMALTTZ
 70
     0
  9
$DIMUPT
 70
     0
  9
$DIMDEC
 70
     2
  9
$DIMTDEC
 70
     2
  9
$DIMALTU
 70
     2
  9
$DIMALTTD
 70
     3
  9
$DIMTXSTY
  7
Standard
  9
$DIMAUNIT
 70
     0
  9
$DIMADEC
 70
     1
  9
$DIMALTRND
 40
0.0
  9
$DIMAZIN
 70
     0
  9
$DIMDSEP
 70
    44
  9
$DIMATFIT
 70
     3
  9
$DIMFRAC
 70
     0
  9
$DIMLDRBLK
  1

  9
$DIMLUNIT
 70
     2
  9
$DIMLWD
 70
    -2
  9
$DIMLWE
 70
    -2
  9
$DIMTMOVE
 70
     0
  9
$LUNITS
 70
     2
  9
$LUPREC
 70
     2
  9
$SKETCHINC
 40
1.0
  9
$FILLETRAD
 40
10.0
  9
$AUNITS
 70
     0
  9
$AUPREC
 70
     1
  9
$MENU
  1
.
  9
$ELEVATION
 40
0.0
  9
$PELEVATION
 40
0.0
  9
$THICKNESS
 40
0.0
  9
$LIMCHECK
 70
     0
  9
$CHAMFERA
 40
0.0
  9
$CHAMFERB
 40
0.0
  9
$CHAMFERC
 40
0.0
  9
$CHAMFERD
 40
0.0
  9
$SKPOLY
 70
     0
  9
$TDCREATE
 40
2458222.443845984
  9
$TDUCREATE
 40
2458222.110512651
  9
$TDUPDATE
 40
2458222.443852593
  9
$TDUUPDATE
 40
2458222.110519259
  9
$TDINDWG
 40
0.0000000116
  9
$TDUSRTIMER
 40
0.0000000116
  9
$USRTIMER
 70
     1
  9
$ANGBASE
 50
0.0
  9
$ANGDIR
 70
     0
  9
$PDMODE
 70
     0
  9
$PDSIZE
 40
-1.0
  9
$PLINEWID
 40
0.0
  9
$SPLFRAME
 70
     0
  9
$SPLINETYPE
 70
     6
  9
$SPLINESEGS
 70
     8
  9
$HANDSEED
  5
409
  9
$SURFTAB1
 70
     6
  9
$SURFTAB2
 70
     6
  9
$SURFTYPE
 70
     6
  9
$SURFU
 70
     6
  9
$SURFV
 70
     6
  9
$UCSBASE
  2

  9
$UCSNAME
  2

  9
$UCSORG
 10
0.0
 20
0.0
 30
0.0
  9
$UCSXDIR
 10
1.0
 20
0.0
 30
0.0
  9
$UCSYDIR
 10
0.0
 20
1.0
 30
0.0
  9
$UCSORTHOREF
  2

  9
$UCSORTHOVIEW
 70
     0
  9
$UCSORGTOP
 10
0.0
 20
0.0
 30
0.0
  9
$UCSORGBOTTOM
 10
0.0
 20
0.0
 30
0.0
  9
$UCSORGLEFT
 10
0.0
 20
0.0
 30
0.0
  9
$UCSORGRIGHT
 10
0.0
 20
0.0
 30
0.0
  9
$UCSORGFRONT
 10
0.0
 20
0.0
 30
0.0
  9
$UCSORGBACK
 10
0.0
 20
0.0
 30
0.0
  9
$PUCSBASE
  2

  9
$PUCSNAME
  2

  9
$PUCSORG
 10
0.0
 20
0.0
 30
0.0
  9
$PUCSXDIR
 10
1.0
 20
0.0
 30
0.0
  9
$PUCSYDIR
 10
0.0
 20
1.0
 30
0.0
  9
$PUCSORTHOREF
  2

  9
$PUCSORTHOVIEW
 70
     0
  9
$PUCSORGTOP
 10
0.0
 20
0.0
 30
0.0
  9
$PUCSORGBOTTOM
 10
0.0
 20
0.0
 30
0.0
  9
$PUCSORGLEFT
 10
0.0
 20
0.0
 30
0.0
  9
$PUCSORGRIGHT
 10
0.0
 20
0.0
 30
0.0
  9
$PUCSORGFRONT
 10
0.0
 20
0.0
 30
0.0
  9
$PUCSORGBACK
 10
0.0
 20
0.0
 30
0.0
  9
$USERI1
 70
     0
  9
$USERI2
 70
     0
  9
$USERI3
 70
     0
  9
$USERI4
 70
     0
  9
$USERI5
 70
     0
  9
$USERR1
 40
0.0
  9
$USERR2
 40
0.0
  9
$USERR3
 40
0.0
  9
$USERR4
 40
0.0
  9
$USERR5
 40
0.0
  9
$WORLDVIEW
 70
     1
  9
$SHADEDGE
 70
     3
  9
$SHADEDIF
 70
    70
  9
$TILEMODE
 70
     1
  9
$MAXACTVP
 70
    64
  9
$PINSBASE
 10
0.0
 20
0.0
 30
0.0
  9
$PLIMCHECK
 70
     0
  9
$PEXTMIN
 10
1.0000000000E+20
 20
1.0000000000E+20
 30
1.0000000000E+20
  9
$PEXTMAX
 10
-1.0000000000E+20
 20
-1.0000000000E+20
 30
-1.0000000000E+20
  9
$PLIMMIN
 10
0.0
 20
0.0
  9
$PLIMMAX
 10
420.0
 20
297.0
  9
$UNITMODE
 70
     0
  9
$VISRETAIN
 70
     1
  9
$PLINEGEN
 70
     0
  9
$PSLTSCALE
 70
     1
  9
$TREEDEPTH
 70
  3020
  9
$CMLSTYLE
  2
Standard
  9
$CMLJUST
 70
     0
  9
$CMLSCALE
 40
20.0
  9
$PROXYGRAPHICS
 70
     1
  9
$MEASUREMENT
 70
     1
  9
$CELWEIGHT
370
    -1
  9
$ENDCAPS
280
     0
  9
$JOINSTYLE
280
     0
  9
$LWDISPLAY
290
     1
  9
$INSUNITS
 70
     4
  9
$HYPERLINKBASE
  1

  9
$STYLESHEET
  1

  9
$XEDIT
290
     1
  9
$CEPSNTYPE
380
     0
  9
$PSTYLEMODE
290
     1
  9
$FINGERPRINTGUID
  2
{73F4E2BA-6F7E-4C49-851F-D455DE59D421}
  9
$VERSIONGUID
  2
{FAEB1C32-E019-11D5-929B-00C0DF256EC4}
  9
$EXTNAMES
290
     1
  9
$PSVPSCALE
 40
0.0
  9
$OLESTARTUP
290
     0
  0
ENDSEC
  0
SECTION
  2
CLASSES
  0
CLASS
  1
ACDBDICTIONARYWDFLT
  2
AcDbDictionaryWithDefault
  3
ObjectDBX Classes
 90
        0
280
     0
281
     0
  0
CLASS
  1
VISUALSTYLE
  2
AcDbVisualStyle
  3
ObjectDBX Classes
 90
     4095
280
     0
281
     0
  0
CLASS
  1
MATERIAL
  2
AcDbMaterial
  3
ObjectDBX Classes
 90
     1153
280
     0
281
     0
  0
CLASS
  1
SCALE
  2
AcDbScale
  3
ObjectDBX Classes
 90
     1153
280
     0
281
     0
  0
CLASS
  1
TABLESTYLE
  2
AcDbTableStyle
  3
ObjectDBX Classes
 90
     4095
280
     0
281
     0
  0
CLASS
  1
MLEADERSTYLE
  2
AcDbMLeaderStyle
  3
ACDB_MLEADERSTYLE_CLASS
 90
     4095
280
     0
281
     0
  0
CLASS
  1
SUN
  2
AcDbSun
  3
SCENEOE
 90
     1153
280
     0
281
     0
  0
CLASS
  1
ACDBPLACEHOLDER
  2
AcDbPlaceHolder
  3
ObjectDBX Classes
 90
        0
280
     0
281
     0
  0
CLASS
  1
LAYOUT
  2
AcDbLayout
  3
ObjectDBX Classes
 90
        0
280
     0
281
     0
  0
ENDSEC
  0
SECTION
  2
TABLES
  0
TABLE
  2
VPORT
  5
8
330
0
100
AcDbSymbolTable
 70
     1
  0
VPORT
  5
29
330
8
100
AcDbSymbolTableRecord
100
AcDbViewportTableRecord
  2
*Active
 70
     0
 10
0.0
 20
0.0
 11
1.0
 21
1.0
 12
297.0
 22
210.0
 13
0.0
 23
0.0
 14
10.0
 24
10.0
 15
10.0
 25
10.0
 16
0.0
 26
0.0
 36
1.0
 17
0.0
 27
0.0
 37
0.0
 40
420.0
 41
1.4142857143
 42
50.0
 43
0.0
 44
0.0
 50
0.0
 51
0.0
 71
     0
 72
  2000
 73
     1
 74
     3
 75
     0
 76
     0
 77
     0
 78
     0
281
     0
 65
     1
110
0.0
120
0.0
130
0.0
111
1.0
121
0.0
131
0.0
112
0.0
122
1.0
132
0.0
 79
     0
146
0.0
  0
ENDTAB
  0
TABLE
  2
LTYPE
  5
5
330
0
100
AcDbSymbolTable
 70
     6
  0
LTYPE
  5
14
330
5
100
AcDbSymbolTableRecord
100
AcDbLinetypeTableRecord
  2
ByBlock
 70
     0
  3

 72
    65
 73
     0
 40
0.0
  0
LTYPE
  5
15
330
5
100
AcDbSymbolTableRecord
100
AcDbLinetypeTableRecord
  2
ByLayer
 70
     0
  3

 72
    65
 73
     0
 40
0.0
  0
LTYPE
  5
16
330
5
100
AcDbSymbolTableRecord
100
AcDbLinetypeTableRecord
  2
Continuous
 70
     0
  3
Solid line
 72
    65
 73
     0
 40
0.0
  0
LTYPE
  5
6E
330
5
100
AcDbSymbolTableRecord
100
AcDbLinetypeTableRecord
  2
HIDDEN
 70
     0
  3
Hidden __ __ __ __ __ __ __ __ __ __ __ __ __ __
 72
    65
 73
     2
 40
1.905
 49
1.27
 74
     0
 49
-0.635
 74
     0
  0
LTYPE
  5
6F
330
5
100
AcDbSymbolTableRecord
100
AcDbLinetypeTableRecord
  2
PHANTOM
 70
     0
  3
Phantom ______  __  __  ______  __  __  ______
 72
    65
 73
     6
 40
12.7
 49
6.35
 74
     0
 49
-1.27
 74
     0
 49
1.27
 74
     0
 49
-1.27
 74
     0
 49
1.27
 74
     0
 49
-1.27
 74
     0
  0
LTYPE
  5
70
330
5
100
AcDbSymbolTableRecord
100
AcDbLinetypeTableRecord
  2
CENTER
 70
     0
  3
Center ____ _ ____ _ ____ _ ____ _ ____ _ ____
 72
    65
 73
     4
 40
10.16
 49
6.35
 74
     0
 49
-1.27
 74
     0
 49
1.27
 74
     0
 49
-1.27
 74
     0
  0
LTYPE
  5
71
330
5
100
AcDbSymbolTableRecord
100
AcDbLinetypeTableRecord
  2
CENTERX2
 70
     0
  3
Center (2x) ________  __  ________  __  _____
 72
    65
 73
     4
 40
20.32
 49
12.7
 74
     0
 49
-2.54
 74
     0
 49
2.54
 74
     0
 49
-2.54
 74
     0
  0
LTYPE
  5
72
330
5
100
AcDbSymbolTableRecord
100
AcDbLinetypeTableRecord
  2
DOT2
 70
     0
  3
Dot (.5x) ........................................
 72
    65
 73
     2
 40
0.635
 49
0.0
 74
     0
 49
-0.635
 74
     0
  0
ENDTAB
  0
TABLE
  2
LAYER
  5
2
330
0
100
AcDbSymbolTable
 70
     4
  0
LAYER
  5
10
330
2
100
AcDbSymbolTableRecord
100
AcDbLayerTableRecord
  2
0
 70
     0
 62
     7
  6
Continuous
370
    -3
390
F
  0
LAYER
  5
73
330
2
100
AcDbSymbolTableRecord
100
AcDbLayerTableRecord
  2
SLD-0
 70
     0
 62
     7
  6
Continuous
370
    15
390
F
  0
LAYER
  5
74
330
2
100
AcDbSymbolTableRecord
100
AcDbLayerTableRecord
  2
工作區域參考線
 70
     0
 62
   179
  6
Continuous
370
    -3
390
F
  0
LAYER
  5
75
330
2
100
AcDbSymbolTableRecord
100
AcDbLayerTableRecord
  2
DIM
 70
     0
 62
     7
  6
Continuous
370
    -3
390
F
  0
ENDTAB
  0
TABLE
  2
STYLE
  5
3
330
0
100
AcDbSymbolTable
 70
     2
  0
STYLE
  5
11
330
3
100
AcDbSymbolTableRecord
100
AcDbTextStyleTableRecord
  2
Standard
 70
     0
 40
0.0
 41
1.0
 50
0.0
 71
     0
 42
5.0
  3
txt
  4

  0
STYLE
  5
C6
330
3
100
AcDbSymbolTableRecord
100
AcDbTextStyleTableRecord
  2
SLDTEXTSTYLE0
 70
     0
 40
0.0
 41
0.605
 50
0.0
 71
     0
 42
5.0
  3
TXT
  4

  0
ENDTAB
  0
TABLE
  2
VIEW
  5
6
330
0
100
AcDbSymbolTable
 70
     0
  0
ENDTAB
  0
TABLE
  2
UCS
  5
7
330
0
100
AcDbSymbolTable
 70
     0
  0
ENDTAB
  0
TABLE
  2
APPID
  5
9
330
0
100
AcDbSymbolTable
 70
     1
  0
APPID
  5
12
330
9
100
AcDbSymbolTableRecord
100
AcDbRegAppTableRecord
  2
ACAD
 70
     0
  0
ENDTAB
  0
TABLE
  2
DIMSTYLE
  5
A
330
0
100
AcDbSymbolTable
 70
     6
100
AcDbDimStyleTable
  0
DIMSTYLE
105
27
330
A
100
AcDbSymbolTableRecord
100
AcDbDimStyleTableRecord
  2
ISO-25
 70
     0
 41
2.5
 42
0.625
 43
3.75
 44
1.25
 73
     0
 74
     0
 77
     1
 78
     8
140
2.5
141
2.5
143
0.0393700787
147
0.625
171
     3
172
     1
178
     0
271
     2
272
     2
274
     3
278
    44
283
     0
284
     8
340
11
  0
DIMSTYLE
105
19E
102
{ACAD_REACTORS
330
19D
330
1A8
330
1B2
330
1BC
330
1C6
330
2B2
330
2BC
330
2E3
330
2ED
330
2F7
330
301
330
30B
330
315
330
31F
330
329
330
3F5
330
3FF
102
}
330
A
100
AcDbSymbolTableRecord
100
AcDbDimStyleTableRecord
  2
SLDDIMSTYLE0
 70
     0
 41
4.0
 44
0.0
 45
0.000000001
 73
     0
 74
     0
 77
     1
 78
    12
 79
     3
140
5.0
147
1.25
173
     1
178
     0
271
     2
272
     2
276
     2
284
    12
340
C6
  0
DIMSTYLE
105
1D1
102
{ACAD_REACTORS
330
1D0
330
1DD
330
2D1
330
2DA
102
}
330
A
100
AcDbSymbolTableRecord
100
AcDbDimStyleTableRecord
  2
SLDDIMSTYLE1
 70
     0
  3
<>
 41
4.0
 44
0.0
 45
0.000000001
 78
    12
 79
     3
140
5.0
141
0.0
147
1.25
173
     1
178
     0
271
     2
272
     2
276
     2
284
    12
340
C6
  0
DIMSTYLE
105
1E7
102
{ACAD_REACTORS
330
1E6
330
2C6
102
}
330
A
100
AcDbSymbolTableRecord
100
AcDbDimStyleTableRecord
  2
SLDDIMSTYLE2
 70
     0
 41
4.0
 44
0.0
 45
0.000000001
 78
    12
 79
     3
140
5.0
141
0.0
147
1.25
173
     1
178
     0
271
     2
272
     2
276
     2
284
    12
340
C6
  0
DIMSTYLE
105
1F3
102
{ACAD_REACTORS
330
1F2
102
}
330
A
100
AcDbSymbolTableRecord
100
AcDbDimStyleTableRecord
  2
SLDDIMSTYLE3
 70
     0
 41
4.0
 44
0.0
 45
0.000000001
 78
    12
 79
     3
140
5.0
141
0.0
147
1.25
172
     1
173
     1
178
     0
271
     2
272
     2
276
     2
284
    12
340
C6
  0
DIMSTYLE
105
3DD
102
{ACAD_REACTORS
330
3DC
330
3E9
102
}
330
A
100
AcDbSymbolTableRecord
100
AcDbDimStyleTableRecord
  2
SLDDIMSTYLE4
 70
     0
 41
4.0
 44
0.0
 45
0.000000001
 73
     0
 74
     0
 77
     1
 78
    12
 79
     3
140
5.0
147
1.25
172
     1
173
     1
178
     0
271
     2
272
     2
276
     2
284
    12
289
     0
340
C6
  0
ENDTAB
  0
TABLE
  2
BLOCK_RECORD
  5
1
330
0
100
AcDbSymbolTable
 70
    51
  0
BLOCK_RECORD
  5
1F
330
1
100
AcDbSymbolTableRecord
100
AcDbBlockTableRecord
  2
*Model_Space
340
22
  0
BLOCK_RECORD
  5
1B
330
1
100
AcDbSymbolTableRecord
100
AcDbBlockTableRecord
  2
*Paper_Space
340
1E
  0
BLOCK_RECORD
  5
23
330
1
100
AcDbSymbolTableRecord
100
AcDbBlockTableRecord
  2
*Paper_Space0
340
26
  0
BLOCK_RECORD
  5
C8
330
1
100
AcDbSymbolTableRecord
100
AcDbBlockTableRecord
  2
SW_NOTE_0
340
0
102
{BLKREFS
331
CE
102
}
  0
BLOCK_RECORD
  5
FD
330
1
100
AcDbSymbolTableRecord
100
AcDbBlockTableRecord
  2
SW_NOTE_1
340
0
102
{BLKREFS
331
102
102
}
  0
BLOCK_RECORD
  5
19F
330
1
100
AcDbSymbolTableRecord
100
AcDbBlockTableRecord
  2
_D
340
0
  0
BLOCK_RECORD
  5
1A9
330
1
100
AcDbSymbolTableRecord
100
AcDbBlockTableRecord
  2
_D_1
340
0
  0
BLOCK_RECORD
  5
1B3
330
1
100
AcDbSymbolTableRecord
100
AcDbBlockTableRecord
  2
_D_2
340
0
  0
BLOCK_RECORD
  5
1BD
330
1
100
AcDbSymbolTableRecord
100
AcDbBlockTableRecord
  2
_D_3
340
0
  0
BLOCK_RECORD
  5
1C7
330
1
100
AcDbSymbolTableRecord
100
AcDbBlockTableRecord
  2
_D_4
340
0
  0
BLOCK_RECORD
  5
1D2
330
1
100
AcDbSymbolTableRecord
100
AcDbBlockTableRecord
  2
_D_5
340
0
  0
BLOCK_RECORD
  5
1DE
330
1
100
AcDbSymbolTableRecord
100
AcDbBlockTableRecord
  2
_D_6
340
0
  0
BLOCK_RECORD
  5
1E8
330
1
100
AcDbSymbolTableRecord
100
AcDbBlockTableRecord
  2
_D_7
340
0
  0
BLOCK_RECORD
  5
1F4
330
1
100
AcDbSymbolTableRecord
100
AcDbBlockTableRecord
  2
_D_8
340
0
  0
BLOCK_RECORD
  5
1FF
330
1
100
AcDbSymbolTableRecord
100
AcDbBlockTableRecord
  2
SW_CENTERMARKSYMBOL_0
340
0
102
{BLKREFS
331
20A
102
}
  0
BLOCK_RECORD
  5
20B
330
1
100
AcDbSymbolTableRecord
100
AcDbBlockTableRecord
  2
SW_CENTERMARKSYMBOL_1
340
0
102
{BLKREFS
331
216
102
}
  0
BLOCK_RECORD
  5
217
330
1
100
AcDbSymbolTableRecord
100
AcDbBlockTableRecord
  2
SW_CENTERMARKSYMBOL_2
340
0
102
{BLKREFS
331
222
102
}
  0
BLOCK_RECORD
  5
223
330
1
100
AcDbSymbolTableRecord
100
AcDbBlockTableRecord
  2
SW_CENTERMARKSYMBOL_3
340
0
102
{BLKREFS
331
22E
102
}
  0
BLOCK_RECORD
  5
22F
330
1
100
AcDbSymbolTableRecord
100
AcDbBlockTableRecord
  2
SW_CENTERMARKSYMBOL_4
340
0
102
{BLKREFS
331
23A
102
}
  0
BLOCK_RECORD
  5
23B
330
1
100
AcDbSymbolTableRecord
100
AcDbBlockTableRecord
  2
SW_CENTERMARKSYMBOL_5
340
0
102
{BLKREFS
331
246
102
}
  0
BLOCK_RECORD
  5
247
330
1
100
AcDbSymbolTableRecord
100
AcDbBlockTableRecord
  2
SW_CENTERMARKSYMBOL_6
340
0
102
{BLKREFS
331
252
102
}
  0
BLOCK_RECORD
  5
253
330
1
100
AcDbSymbolTableRecord
100
AcDbBlockTableRecord
  2
SW_CENTERMARKSYMBOL_7
340
0
102
{BLKREFS
331
25E
102
}
  0
BLOCK_RECORD
  5
25F
330
1
100
AcDbSymbolTableRecord
100
AcDbBlockTableRecord
  2
SW_CENTERMARKSYMBOL_8
340
0
102
{BLKREFS
331
26A
102
}
  0
BLOCK_RECORD
  5
2B3
330
1
100
AcDbSymbolTableRecord
100
AcDbBlockTableRecord
  2
_D_9
340
0
  0
BLOCK_RECORD
  5
2BD
330
1
100
AcDbSymbolTableRecord
100
AcDbBlockTableRecord
  2
_D_10
340
0
  0
BLOCK_RECORD
  5
2C7
330
1
100
AcDbSymbolTableRecord
100
AcDbBlockTableRecord
  2
_D_11
340
0
  0
BLOCK_RECORD
  5
2D2
330
1
100
AcDbSymbolTableRecord
100
AcDbBlockTableRecord
  2
_D_12
340
0
  0
BLOCK_RECORD
  5
2DB
330
1
100
AcDbSymbolTableRecord
100
AcDbBlockTableRecord
  2
_D_13
340
0
  0
BLOCK_RECORD
  5
2E4
330
1
100
AcDbSymbolTableRecord
100
AcDbBlockTableRecord
  2
_D_14
340
0
  0
BLOCK_RECORD
  5
2EE
330
1
100
AcDbSymbolTableRecord
100
AcDbBlockTableRecord
  2
_D_15
340
0
  0
BLOCK_RECORD
  5
2F8
330
1
100
AcDbSymbolTableRecord
100
AcDbBlockTableRecord
  2
_D_16
340
0
  0
BLOCK_RECORD
  5
302
330
1
100
AcDbSymbolTableRecord
100
AcDbBlockTableRecord
  2
_D_17
340
0
  0
BLOCK_RECORD
  5
30C
330
1
100
AcDbSymbolTableRecord
100
AcDbBlockTableRecord
  2
_D_18
340
0
  0
BLOCK_RECORD
  5
316
330
1
100
AcDbSymbolTableRecord
100
AcDbBlockTableRecord
  2
_D_19
340
0
  0
BLOCK_RECORD
  5
320
330
1
100
AcDbSymbolTableRecord
100
AcDbBlockTableRecord
  2
_D_20
340
0
  0
BLOCK_RECORD
  5
32A
330
1
100
AcDbSymbolTableRecord
100
AcDbBlockTableRecord
  2
_D_21
340
0
  0
BLOCK_RECORD
  5
333
330
1
100
AcDbSymbolTableRecord
100
AcDbBlockTableRecord
  2
SW_CENTERMARKSYMBOL_9
340
0
102
{BLKREFS
331
33E
102
}
  0
BLOCK_RECORD
  5
33F
330
1
100
AcDbSymbolTableRecord
100
AcDbBlockTableRecord
  2
SW_CENTERMARKSYMBOL_10
340
0
102
{BLKREFS
331
34A
102
}
  0
BLOCK_RECORD
  5
34B
330
1
100
AcDbSymbolTableRecord
100
AcDbBlockTableRecord
  2
SW_CENTERMARKSYMBOL_11
340
0
102
{BLKREFS
331
356
102
}
  0
BLOCK_RECORD
  5
357
330
1
100
AcDbSymbolTableRecord
100
AcDbBlockTableRecord
  2
SW_CENTERMARKSYMBOL_12
340
0
102
{BLKREFS
331
362
102
}
  0
BLOCK_RECORD
  5
363
330
1
100
AcDbSymbolTableRecord
100
AcDbBlockTableRecord
  2
SW_CENTERMARKSYMBOL_13
340
0
102
{BLKREFS
331
36E
102
}
  0
BLOCK_RECORD
  5
36F
330
1
100
AcDbSymbolTableRecord
100
AcDbBlockTableRecord
  2
SW_CENTERMARKSYMBOL_14
340
0
102
{BLKREFS
331
37A
102
}
  0
BLOCK_RECORD
  5
37B
330
1
100
AcDbSymbolTableRecord
100
AcDbBlockTableRecord
  2
SW_CENTERMARKSYMBOL_15
340
0
102
{BLKREFS
331
386
102
}
  0
BLOCK_RECORD
  5
387
330
1
100
AcDbSymbolTableRecord
100
AcDbBlockTableRecord
  2
SW_CENTERMARKSYMBOL_16
340
0
102
{BLKREFS
331
392
102
}
  0
BLOCK_RECORD
  5
393
330
1
100
AcDbSymbolTableRecord
100
AcDbBlockTableRecord
  2
SW_CENTERMARKSYMBOL_17
340
0
102
{BLKREFS
331
39E
102
}
  0
BLOCK_RECORD
  5
39F
330
1
100
AcDbSymbolTableRecord
100
AcDbBlockTableRecord
  2
SW_CENTERMARKSYMBOL_18
340
0
102
{BLKREFS
331
3AA
102
}
  0
BLOCK_RECORD
  5
3AB
330
1
100
AcDbSymbolTableRecord
100
AcDbBlockTableRecord
  2
SW_CENTERMARKSYMBOL_19
340
0
102
{BLKREFS
331
3B6
102
}
  0
BLOCK_RECORD
  5
3B7
330
1
100
AcDbSymbolTableRecord
100
AcDbBlockTableRecord
  2
SW_CENTERMARKSYMBOL_20
340
0
102
{BLKREFS
331
3C2
102
}
  0
BLOCK_RECORD
  5
3C3
330
1
100
AcDbSymbolTableRecord
100
AcDbBlockTableRecord
  2
SW_CENTERMARKSYMBOL_21
340
0
102
{BLKREFS
331
3CE
102
}
  0
BLOCK_RECORD
  5
3DE
330
1
100
AcDbSymbolTableRecord
100
AcDbBlockTableRecord
  2
_D_22
340
0
  0
BLOCK_RECORD
  5
3EA
330
1
100
AcDbSymbolTableRecord
100
AcDbBlockTableRecord
  2
_D_23
340
0
  0
BLOCK_RECORD
  5
3F6
330
1
100
AcDbSymbolTableRecord
100
AcDbBlockTableRecord
  2
_D_24
340
0
  0
BLOCK_RECORD
  5
400
330
1
100
AcDbSymbolTableRecord
100
AcDbBlockTableRecord
  2
_D_25
340
0
  0
ENDTAB
  0
ENDSEC
  0
SECTION
  2
BLOCKS
  0
BLOCK
  5
20
330
1F
100
AcDbEntity
  8
0
100
AcDbBlockBegin
  2
*Model_Space
 70
     0
 10
0.0
 20
0.0
 30
0.0
  3
*Model_Space
  1

  0
ENDBLK
  5
21
330
1F
100
AcDbEntity
  8
0
100
AcDbBlockEnd
  0
BLOCK
  5
1C
330
1B
100
AcDbEntity
 67
     1
  8
0
100
AcDbBlockBegin
  2
*Paper_Space
 70
     0
 10
0.0
 20
0.0
 30
0.0
  3
*Paper_Space
  1

  0
ENDBLK
  5
1D
330
1B
100
AcDbEntity
 67
     1
  8
0
100
AcDbBlockEnd
  0
BLOCK
  5
24
330
23
100
AcDbEntity
  8
0
100
AcDbBlockBegin
  2
*Paper_Space0
 70
     0
 10
0.0
 20
0.0
 30
0.0
  3
*Paper_Space0
  1

  0
ENDBLK
  5
25
330
23
100
AcDbEntity
  8
0
100
AcDbBlockEnd
  0
BLOCK
  5
C9
330
C8
100
AcDbEntity
  8
0
100
AcDbBlockBegin
  2
SW_NOTE_0
 70
     0
 10
0.0
 20
0.0
 30
0.0
  3
SW_NOTE_0
  1

  0
MTEXT
  5
CB
330
C8
100
AcDbEntity
  8
0
  6
Continuous
 62
     0
370
     0
100
AcDbMText
 10
0.0
 20
6.8213167896
 30
0.0
 40
5.2916666667
 41
0.0
 71
     1
 72
     1
  1
PROPRIETARY AND CONFIDENTIAL
  7
SLDTEXTSTYLE0
 73
     1
 44
1.0
  0
MTEXT
  5
CC
330
C8
100
AcDbEntity
  8
0
  6
Continuous
 62
     0
370
     0
100
AcDbMText
 10
0.0
 20
-0.16396696
 30
0.0
 40
3.7041666667
 41
0.0
 71
     1
 72
     1
  1
THE INFORMATION CONTAINED IN THIS DRAWING IS THE SOLE PROPERTY OF UNICE E-O SERVICES INC. ANY REPRODUCTION IN PART OR AS A WHOLE WITHOUT THE WRITTEN PERMISSION OF UNICE E-O SERVICES INC IS
  7
SLDTEXTSTYLE0
 73
     1
 44
1.0
  0
MTEXT
  5
CD
330
C8
100
AcDbEntity
  8
0
  6
Continuous
 62
     0
370
     0
100
AcDbMText
 10
0.0
 20
-5.1028557892
 30
0.0
 40
3.7041666667
 41
0.0
 71
     1
 72
     1
  1
PROHIBITED.
  7
SLDTEXTSTYLE0
 73
     1
 44
1.0
  0
ENDBLK
  5
CA
330
C8
100
AcDbEntity
  8
0
100
AcDbBlockEnd
  0
BLOCK
  5
FE
330
FD
100
AcDbEntity
  8
0
100
AcDbBlockBegin
  2
SW_NOTE_1
 70
     0
 10
0.0
 20
0.0
 30
0.0
  3
SW_NOTE_1
  1

  0
MTEXT
  5
100
330
FD
100
AcDbEntity
  8
SLD-0
 62
     0
100
AcDbMText
 10
0.0
 20
4.0927900738
 30
0.0
 40
3.175
 41
0.0
 71
     1
 72
     1
  1
No.5, Andong Rd., Chung Li District,
  7
SLDTEXTSTYLE0
 73
     1
 44
1.0
  0
MTEXT
  5
101
330
FD
100
AcDbEntity
  8
SLD-0
 62
     0
100
AcDbMText
 10
0.0
 20
-0.1405432084
 30
0.0
 40
3.175
 41
0.0
 71
     1
 72
     1
  1
Taoyuan City 32063, Taiwan, R.O.C.
  7
SLDTEXTSTYLE0
 73
     1
 44
1.0
  0
ENDBLK
  5
FF
330
FD
100
AcDbEntity
  8
0
100
AcDbBlockEnd
  0
BLOCK
  5
1A0
330
19F
100
AcDbEntity
  8
0
100
AcDbBlockBegin
  2
_D
 70
     0
 10
0.0
 20
0.0
 30
0.0
  3
_D
  1

  0
SOLID
  5
1A2
330
19F
100
AcDbEntity
  8
SLD-0
100
AcDbTrace
 10
85.4048935084
 20
283.1589440651
 30
0.0
 11
85.9048935084
 21
287.1589440651
 31
0.0
 12
84.9048935084
 22
287.1589440651
 32
0.0
 13
84.9048935084
 23
287.1589440651
 33
0.0
  0
SOLID
  5
1A3
330
19F
100
AcDbEntity
  8
SLD-0
100
AcDbTrace
 10
85.4048935084
 20
326.1589440651
 30
0.0
 11
84.9048935084
 21
322.1589440651
 31
0.0
 12
85.9048935084
 22
322.1589440651
 32
0.0
 13
85.9048935084
 23
322.1589440651
 33
0.0
  0
LINE
  5
1A4
330
19F
100
AcDbEntity
  8
SLD-0
100
AcDbLine
 10
134.7387797357
 20
283.1589440651
 30
0.0
 11
83.4048935084
 21
283.1589440651
 31
0.0
  0
LINE
  5
1A5
330
19F
100
AcDbEntity
  8
SLD-0
100
AcDbLine
 10
108.7387797357
 20
326.1589440651
 30
0.0
 11
83.4048935084
 21
326.1589440651
 31
0.0
  0
LINE
  5
1A6
330
19F
100
AcDbEntity
  8
SLD-0
100
AcDbLine
 10
85.4048935084
 20
283.1589440651
 30
0.0
 11
85.4048935084
 21
326.1589440651
 31
0.0
  0
MTEXT
  5
1A7
330
19F
100
AcDbEntity
  8
SLD-0
100
AcDbMText
 10
78.9595551588
 20
300.8394996155
 30
0.0
 40
5.0
 41
0.0
 71
     1
 72
     1
  1
43
  7
SLDTEXTSTYLE0
 11
-7.044195017643634E-15
 21
1.0
 31
0.0
 73
     1
 44
1.0
  0
ENDBLK
  5
1A1
330
19F
100
AcDbEntity
  8
0
100
AcDbBlockEnd
  0
BLOCK
  5
1AA
330
1A9
100
AcDbEntity
  8
0
100
AcDbBlockBegin
  2
_D_1
 70
     0
 10
0.0
 20
0.0
 30
0.0
  3
_D_1
  1

  0
SOLID
  5
1AC
330
1A9
100
AcDbEntity
  8
SLD-0
100
AcDbTrace
 10
99.0332433287
 20
283.1589440651
 30
0.0
 11
99.5332433287
 21
287.1589440651
 31
0.0
 12
98.5332433287
 22
287.1589440651
 32
0.0
 13
98.5332433287
 23
287.1589440651
 33
0.0
  0
SOLID
  5
1AD
330
1A9
100
AcDbEntity
  8
SLD-0
100
AcDbTrace
 10
99.0332433287
 20
308.1589440651
 30
0.0
 11
98.5332433287
 21
304.1589440651
 31
0.0
 12
99.5332433287
 22
304.1589440651
 32
0.0
 13
99.5332433287
 23
304.1589440651
 33
0.0
  0
LINE
  5
1AE
330
1A9
100
AcDbEntity
  8
SLD-0
100
AcDbLine
 10
134.7387797357
 20
283.1589440651
 30
0.0
 11
97.0332433287
 21
283.1589440651
 31
0.0
  0
LINE
  5
1AF
330
1A9
100
AcDbEntity
  8
SLD-0
100
AcDbLine
 10
117.2387797357
 20
308.1589440651
 30
0.0
 11
97.0332433287
 21
308.1589440651
 31
0.0
  0
LINE
  5
1B0
330
1A9
100
AcDbEntity
  8
SLD-0
100
AcDbLine
 10
99.0332433287
 20
283.1589440651
 30
0.0
 11
99.0332433287
 21
308.1589440651
 31
0.0
  0
MTEXT
  5
1B1
330
1A9
100
AcDbEntity
  8
SLD-0
100
AcDbMText
 10
92.5879049791
 20
291.8394996155
 30
0.0
 40
5.0
 41
0.0
 71
     1
 72
     1
  1
25
  7
SLDTEXTSTYLE0
 11
6.123233995736766E-17
 21
1.0
 31
0.0
 73
     1
 44
1.0
  0
ENDBLK
  5
1AB
330
1A9
100
AcDbEntity
  8
0
100
AcDbBlockEnd
  0
BLOCK
  5
1B4
330
1B3
100
AcDbEntity
  8
0
100
AcDbBlockBegin
  2
_D_2
 70
     0
 10
0.0
 20
0.0
 30
0.0
  3
_D_2
  1

  0
SOLID
  5
1B6
330
1B3
100
AcDbEntity
  8
SLD-0
100
AcDbTrace
 10
99.0332433287
 20
283.1589440651
 30
0.0
 11
98.5332433287
 21
279.1589440651
 31
0.0
 12
99.5332433287
 22
279.1589440651
 32
0.0
 13
99.5332433287
 23
279.1589440651
 33
0.0
  0
SOLID
  5
1B7
330
1B3
100
AcDbEntity
  8
SLD-0
100
AcDbTrace
 10
99.0332433287
 20
258.1589440651
 30
0.0
 11
99.5332433287
 21
262.1589440651
 31
0.0
 12
98.5332433287
 22
262.1589440651
 32
0.0
 13
98.5332433287
 23
262.1589440651
 33
0.0
  0
LINE
  5
1B8
330
1B3
100
AcDbEntity
  8
SLD-0
100
AcDbLine
 10
134.7387797357
 20
283.1589440651
 30
0.0
 11
97.0332433287
 21
283.1589440651
 31
0.0
  0
LINE
  5
1B9
330
1B3
100
AcDbEntity
  8
SLD-0
100
AcDbLine
 10
117.2387797357
 20
258.1589440651
 30
0.0
 11
97.0332433287
 21
258.1589440651
 31
0.0
  0
LINE
  5
1BA
330
1B3
100
AcDbEntity
  8
SLD-0
100
AcDbLine
 10
99.0332433287
 20
283.1589440651
 30
0.0
 11
99.0332433287
 21
258.1589440651
 31
0.0
  0
MTEXT
  5
1BB
330
1B3
100
AcDbEntity
  8
SLD-0
100
AcDbMText
 10
92.5879049791
 20
266.8394996155
 30
0.0
 40
5.0
 41
0.0
 71
     1
 72
     1
  1
25
  7
SLDTEXTSTYLE0
 11
-7.044195017643634E-15
 21
1.0
 31
0.0
 73
     1
 44
1.0
  0
ENDBLK
  5
1B5
330
1B3
100
AcDbEntity
  8
0
100
AcDbBlockEnd
  0
BLOCK
  5
1BE
330
1BD
100
AcDbEntity
  8
0
100
AcDbBlockBegin
  2
_D_3
 70
     0
 10
0.0
 20
0.0
 30
0.0
  3
_D_3
  1

  0
SOLID
  5
1C0
330
1BD
100
AcDbEntity
  8
SLD-0
100
AcDbTrace
 10
148.7387797357
 20
337.0612101648
 30
0.0
 11
144.7387797357
 21
337.5612101648
 31
0.0
 12
144.7387797357
 22
336.5612101648
 32
0.0
 13
144.7387797357
 23
336.5612101648
 33
0.0
  0
SOLID
  5
1C1
330
1BD
100
AcDbEntity
  8
SLD-0
100
AcDbTrace
 10
123.7387797357
 20
337.0612101648
 30
0.0
 11
127.7387797357
 21
336.5612101648
 31
0.0
 12
127.7387797357
 22
337.5612101648
 32
0.0
 13
127.7387797357
 23
337.5612101648
 33
0.0
  0
LINE
  5
1C2
330
1BD
100
AcDbEntity
  8
SLD-0
100
AcDbLine
 10
148.7387797357
 20
297.1589440651
 30
0.0
 11
148.7387797357
 21
339.0612101648
 31
0.0
  0
LINE
  5
1C3
330
1BD
100
AcDbEntity
  8
SLD-0
100
AcDbLine
 10
123.7387797357
 20
314.6589440651
 30
0.0
 11
123.7387797357
 21
339.0612101648
 31
0.0
  0
LINE
  5
1C4
330
1BD
100
AcDbEntity
  8
SLD-0
100
AcDbLine
 10
148.7387797357
 20
337.0612101648
 30
0.0
 11
123.7387797357
 21
337.0612101648
 31
0.0
  0
MTEXT
  5
1C5
330
1BD
100
AcDbEntity
  8
SLD-0
100
AcDbMText
 10
132.4193352861
 20
343.5065485144
 30
0.0
 40
5.0
 41
0.0
 71
     1
 72
     1
  1
25
  7
SLDTEXTSTYLE0
 73
     1
 44
1.0
  0
ENDBLK
  5
1BF
330
1BD
100
AcDbEntity
  8
0
100
AcDbBlockEnd
  0
BLOCK
  5
1C8
330
1C7
100
AcDbEntity
  8
0
100
AcDbBlockBegin
  2
_D_4
 70
     0
 10
0.0
 20
0.0
 30
0.0
  3
_D_4
  1

  0
SOLID
  5
1CA
330
1C7
100
AcDbEntity
  8
SLD-0
100
AcDbTrace
 10
148.7387797357
 20
337.0612101648
 30
0.0
 11
152.7387797357
 21
336.5612101648
 31
0.0
 12
152.7387797357
 22
337.5612101648
 32
0.0
 13
152.7387797357
 23
337.5612101648
 33
0.0
  0
SOLID
  5
1CB
330
1C7
100
AcDbEntity
  8
SLD-0
100
AcDbTrace
 10
173.7387797357
 20
337.0612101648
 30
0.0
 11
169.7387797357
 21
337.5612101648
 31
0.0
 12
169.7387797357
 22
336.5612101648
 32
0.0
 13
169.7387797357
 23
336.5612101648
 33
0.0
  0
LINE
  5
1CC
330
1C7
100
AcDbEntity
  8
SLD-0
100
AcDbLine
 10
148.7387797357
 20
297.1589440651
 30
0.0
 11
148.7387797357
 21
339.0612101648
 31
0.0
  0
LINE
  5
1CD
330
1C7
100
AcDbEntity
  8
SLD-0
100
AcDbLine
 10
173.7387797357
 20
314.6589440651
 30
0.0
 11
173.7387797357
 21
339.0612101648
 31
0.0
  0
LINE
  5
1CE
330
1C7
100
AcDbEntity
  8
SLD-0
100
AcDbLine
 10
148.7387797357
 20
337.0612101648
 30
0.0
 11
173.7387797357
 21
337.0612101648
 31
0.0
  0
MTEXT
  5
1CF
330
1C7
100
AcDbEntity
  8
SLD-0
100
AcDbMText
 10
157.4193352861
 20
343.5065485144
 30
0.0
 40
5.0
 41
0.0
 71
     1
 72
     1
  1
25
  7
SLDTEXTSTYLE0
 73
     1
 44
1.0
  0
ENDBLK
  5
1C9
330
1C7
100
AcDbEntity
  8
0
100
AcDbBlockEnd
  0
BLOCK
  5
1D3
330
1D2
100
AcDbEntity
  8
0
100
AcDbBlockBegin
  2
_D_5
 70
     0
 10
0.0
 20
0.0
 30
0.0
  3
_D_5
  1

  0
SOLID
  5
1D5
330
1D2
100
AcDbEntity
  8
SLD-0
100
AcDbTrace
 10
155.9489772403
 20
291.4663535256
 30
0.0
 11
158.9484767629
 21
294.1594934429
 31
0.0
 12
158.193257721
 22
294.8149659433
 32
0.0
 13
158.193257721
 23
294.8149659433
 33
0.0
  0
LINE
  5
1D6
330
1D2
100
AcDbEntity
  8
SLD-0
100
AcDbLine
 10
155.9489772403
 20
291.4663535256
 30
0.0
 11
195.5218336312
 21
337.0612101648
 31
0.0
  0
LINE
  5
1D7
330
1D2
100
AcDbEntity
  8
SLD-0
100
AcDbLine
 10
195.5218336312
 20
337.0612101648
 30
0.0
 11
240.9575961856
 21
337.0612101648
 31
0.0
  0
MTEXT
  5
1D8
330
1D2
100
AcDbEntity
  8
SLD-0
100
AcDbMText
 10
203.2674931315
 20
358.8676591943
 30
0.0
 40
5.0
 41
0.0
 71
     1
 72
     1
  1
ACCEPTS
  7
SLDTEXTSTYLE0
 73
     1
 44
1.0
  0
MTEXT
  5
1D9
330
1D2
100
AcDbEntity
  8
SLD-0
100
AcDbMText
 10
199.8968336312
 20
351.1940482611
 30
0.0
 40
5.0
 41
0.0
 71
     1
 72
     1
  1

  7
SLDTEXTSTYLE0
 73
     1
 44
1.0
  0
MTEXT
  5
1DA
330
1D2
100
AcDbEntity
  8
SLD-0
100
AcDbMText
 10
199.931555856
 20
351.1801593312
 30
0.0
 40
5.0
 41
0.0
 71
     1
 72
     1
  1
%%c
  7
SLDTEXTSTYLE0
 73
     1
 44
1.0
  0
MTEXT
  5
1DB
330
1D2
100
AcDbEntity
  8
SLD-0
100
AcDbMText
 10
207.221486452
 20
351.1940482611
 30
0.0
 40
5.0
 41
0.0
 71
     1
 72
     1
  1
1" OPTICS
  7
SLDTEXTSTYLE0
 73
     1
 44
1.0
  0
MTEXT
  5
1DC
330
1D2
100
AcDbEntity
  8
SLD-0
100
AcDbMText
 10
202.3126323101
 20
343.5065480488
 30
0.0
 40
5.0
 41
0.0
 71
     1
 72
     1
  1
Max.THK 6
  7
SLDTEXTSTYLE0
 73
     1
 44
1.0
  0
ENDBLK
  5
1D4
330
1D2
100
AcDbEntity
  8
0
100
AcDbBlockEnd
  0
BLOCK
  5
1DF
330
1DE
100
AcDbEntity
  8
0
100
AcDbBlockBegin
  2
_D_6
 70
     0
 10
0.0
 20
0.0
 30
0.0
  3
_D_6
  1

  0
SOLID
  5
1E1
330
1DE
100
AcDbEntity
  8
SLD-0
100
AcDbTrace
 10
176.0187403165
 20
284.1845072031
 30
0.0
 11
179.8717898733
 21
285.3694161078
 31
0.0
 12
179.4615646181
 22
286.2814003402
 32
0.0
 13
179.4615646181
 23
286.2814003402
 33
0.0
  0
LINE
  5
1E2
330
1DE
100
AcDbEntity
  8
SLD-0
100
AcDbLine
 10
176.0187403165
 20
284.1845072031
 30
0.0
 11
201.5279096318
 21
295.6589440651
 31
0.0
  0
LINE
  5
1E3
330
1DE
100
AcDbEntity
  8
SLD-0
100
AcDbLine
 10
201.5279096318
 20
295.6589440651
 30
0.0
 11
234.9515201849
 21
295.6589440651
 31
0.0
  0
MTEXT
  5
1E4
330
1DE
100
AcDbEntity
  8
SLD-0
100
AcDbMText
 10
204.0279096318
 20
309.7778933478
 30
0.0
 40
5.0
 41
0.0
 71
     1
 72
     1
  1
4 HOLES,
  7
SLDTEXTSTYLE0
 73
     1
 44
1.0
  0
MTEXT
  5
1E5
330
1DE
100
AcDbEntity
  8
SLD-0
100
AcDbMText
 10
205.9029096318
 20
302.1042824147
 30
0.0
 40
5.0
 41
0.0
 71
     1
 72
     1
  1
M6
  7
SLDTEXTSTYLE0
 73
     1
 44
1.0
  0
ENDBLK
  5
1E0
330
1DE
100
AcDbEntity
  8
0
100
AcDbBlockEnd
  0
BLOCK
  5
1E9
330
1E8
100
AcDbEntity
  8
0
100
AcDbBlockBegin
  2
_D_7
 70
     0
 10
0.0
 20
0.0
 30
0.0
  3
_D_7
  1

  0
SOLID
  5
1EB
330
1E8
100
AcDbEntity
  8
SLD-0
100
AcDbTrace
 10
121.8136667686
 20
255.2359421725
 30
0.0
 11
119.1959659644
 21
252.1703847192
 31
0.0
 12
120.0311093623
 22
251.6203524429
 32
0.0
 13
120.0311093623
 23
251.6203524429
 33
0.0
  0
LINE
  5
1EC
330
1E8
100
AcDbEntity
  8
SLD-0
100
AcDbLine
 10
121.8136667686
 20
255.2359421725
 30
0.0
 11
110.0637472181
 21
237.3954114242
 31
0.0
  0
LINE
  5
1ED
330
1E8
100
AcDbEntity
  8
SLD-0
100
AcDbLine
 10
110.0637472181
 20
237.3954114242
 30
0.0
 11
63.2460397987
 21
237.3954114242
 31
0.0
  0
MTEXT
  5
1EE
330
1E8
100
AcDbEntity
  8
SLD-0
100
AcDbMText
 10
63.2460397987
 20
243.8546385874
 30
0.0
 40
5.0
 41
0.0
 71
     1
 72
     1
  1
4-
  7
SLDTEXTSTYLE0
 73
     1
 44
1.0
  0
MTEXT
  5
1EF
330
1E8
100
AcDbEntity
  8
SLD-0
100
AcDbMText
 10
69.3502064182
 20
243.8407496574
 30
0.0
 40
5.0
 41
0.0
 71
     1
 72
     1
  1
%%c
  7
SLDTEXTSTYLE0
 73
     1
 44
1.0
  0
MTEXT
  5
1F0
330
1E8
100
AcDbEntity
  8
SLD-0
100
AcDbMText
 10
76.640136665
 20
243.8546385874
 30
0.0
 40
5.0
 41
0.0
 71
     1
 72
     1
  1
7
  7
SLDTEXTSTYLE0
 73
     1
 44
1.0
  0
MTEXT
  5
1F1
330
1E8
100
AcDbEntity
  8
SLD-0
100
AcDbMText
 10
82.3345818131
 20
243.8546385874
 30
0.0
 40
5.0
 41
0.0
 71
     1
 72
     1
  1
HOLES.
  7
SLDTEXTSTYLE0
 73
     1
 44
1.0
  0
ENDBLK
  5
1EA
330
1E8
100
AcDbEntity
  8
0
100
AcDbBlockEnd
  0
BLOCK
  5
1F5
330
1F4
100
AcDbEntity
  8
0
100
AcDbBlockBegin
  2
_D_8
 70
     0
 10
0.0
 20
0.0
 30
0.0
  3
_D_8
  1

  0
SOLID
  5
1F7
330
1F4
100
AcDbEntity
  8
SLD-0
100
AcDbTrace
 10
155.9426961344
 20
274.8460872445
 30
0.0
 11
153.7009472995
 21
278.1963950155
 31
0.0
 12
152.9452330431
 22
277.5414935248
 32
0.0
 13
152.9452330431
 23
277.5414935248
 33
0.0
  0
SOLID
  5
1F8
330
1F4
100
AcDbEntity
  8
SLD-0
100
AcDbTrace
 10
141.534863337
 20
291.4718008857
 30
0.0
 11
143.7766121719
 21
288.1214931146
 31
0.0
 12
144.5323264284
 22
288.7763946054
 32
0.0
 13
144.5323264284
 23
288.7763946054
 33
0.0
  0
LINE
  5
1F9
330
1F4
100
AcDbEntity
  8
SLD-0
100
AcDbLine
 10
141.534863337
 20
291.4718008857
 30
0.0
 11
104.0096146659
 21
334.7735276263
 31
0.0
  0
LINE
  5
1FA
330
1F4
100
AcDbEntity
  8
SLD-0
100
AcDbLine
 10
155.9426961344
 20
274.8460872445
 30
0.0
 11
141.534863337
 21
291.4718008857
 31
0.0
  0
LINE
  5
1FB
330
1F4
100
AcDbEntity
  8
SLD-0
100
AcDbLine
 10
104.0096146659
 20
334.7735276263
 30
0.0
 11
73.2196819083
 21
334.7735276263
 31
0.0
  0
MTEXT
  5
1FC
330
1F4
100
AcDbEntity
  8
SLD-0
100
AcDbMText
 10
73.2196819083
 20
341.2327547895
 30
0.0
 40
5.0
 41
0.0
 71
     1
 72
     1
  1
C.A.
  7
SLDTEXTSTYLE0
 73
     1
 44
1.0
  0
MTEXT
  5
1FD
330
1F4
100
AcDbEntity
  8
SLD-0
100
AcDbMText
 10
86.5807931916
 20
341.2188658595
 30
0.0
 40
5.0
 41
0.0
 71
     1
 72
     1
  1
%%c
  7
SLDTEXTSTYLE0
 73
     1
 44
1.0
  0
MTEXT
  5
1FE
330
1F4
100
AcDbEntity
  8
SLD-0
100
AcDbMText
 10
93.8707243697
 20
341.2327547895
 30
0.0
 40
5.0
 41
0.0
 71
     1
 72
     1
  1
22
  7
SLDTEXTSTYLE0
 73
     1
 44
1.0
  0
ENDBLK
  5
1F6
330
1F4
100
AcDbEntity
  8
0
100
AcDbBlockEnd
  0
BLOCK
  5
200
330
1FF
100
AcDbEntity
  8
0
100
AcDbBlockBegin
  2
SW_CENTERMARKSYMBOL_0
 70
     0
 10
0.0
 20
0.0
 30
0.0
  3
SW_CENTERMARKSYMBOL_0
  1

  0
LINE
  5
202
330
1FF
100
AcDbEntity
  8
SLD-0
 62
     0
100
AcDbLine
 10
0.0
 20
0.0
 30
0.0
 11
0.0
 21
1.0
 31
0.0
  0
LINE
  5
203
330
1FF
100
AcDbEntity
  8
SLD-0
 62
     0
100
AcDbLine
 10
0.0
 20
0.0
 30
0.0
 11
-1.0
 21
0.0
 31
0.0
  0
LINE
  5
204
330
1FF
100
AcDbEntity
  8
SLD-0
 62
     0
100
AcDbLine
 10
0.0
 20
0.0
 30
0.0
 11
0.0
 21
-1.0
 31
0.0
  0
LINE
  5
205
330
1FF
100
AcDbEntity
  8
SLD-0
 62
     0
100
AcDbLine
 10
0.0
 20
0.0
 30
0.0
 11
1.0
 21
0.0
 31
0.0
  0
LINE
  5
206
330
1FF
100
AcDbEntity
  8
SLD-0
 62
     0
100
AcDbLine
 10
0.0
 20
2.0
 30
0.0
 11
0.0
 21
4.5
 31
0.0
  0
LINE
  5
207
330
1FF
100
AcDbEntity
  8
SLD-0
 62
     0
100
AcDbLine
 10
-2.0
 20
0.0
 30
0.0
 11
-4.5
 21
0.0
 31
0.0
  0
LINE
  5
208
330
1FF
100
AcDbEntity
  8
SLD-0
 62
     0
100
AcDbLine
 10
0.0
 20
-2.0
 30
0.0
 11
0.0
 21
-4.5
 31
0.0
  0
LINE
  5
209
330
1FF
100
AcDbEntity
  8
SLD-0
 62
     0
100
AcDbLine
 10
2.0
 20
0.0
 30
0.0
 11
4.5
 21
0.0
 31
0.0
  0
ENDBLK
  5
201
330
1FF
100
AcDbEntity
  8
0
100
AcDbBlockEnd
  0
BLOCK
  5
20C
330
20B
100
AcDbEntity
  8
0
100
AcDbBlockBegin
  2
SW_CENTERMARKSYMBOL_1
 70
     0
 10
0.0
 20
0.0
 30
0.0
  3
SW_CENTERMARKSYMBOL_1
  1

  0
LINE
  5
20E
330
20B
100
AcDbEntity
  8
SLD-0
 62
     0
100
AcDbLine
 10
0.0
 20
0.0
 30
0.0
 11
0.0
 21
1.0
 31
0.0
  0
LINE
  5
20F
330
20B
100
AcDbEntity
  8
SLD-0
 62
     0
100
AcDbLine
 10
0.0
 20
0.0
 30
0.0
 11
-1.0
 21
0.0
 31
0.0
  0
LINE
  5
210
330
20B
100
AcDbEntity
  8
SLD-0
 62
     0
100
AcDbLine
 10
0.0
 20
0.0
 30
0.0
 11
0.0
 21
-1.0
 31
0.0
  0
LINE
  5
211
330
20B
100
AcDbEntity
  8
SLD-0
 62
     0
100
AcDbLine
 10
0.0
 20
0.0
 30
0.0
 11
1.0
 21
0.0
 31
0.0
  0
LINE
  5
212
330
20B
100
AcDbEntity
  8
SLD-0
 62
     0
100
AcDbLine
 10
0.0
 20
2.0
 30
0.0
 11
0.0
 21
3.5
 31
0.0
  0
LINE
  5
213
330
20B
100
AcDbEntity
  8
SLD-0
 62
     0
100
AcDbLine
 10
-2.0
 20
0.0
 30
0.0
 11
-3.5
 21
0.0
 31
0.0
  0
LINE
  5
214
330
20B
100
AcDbEntity
  8
SLD-0
 62
     0
100
AcDbLine
 10
0.0
 20
-2.0
 30
0.0
 11
0.0
 21
-3.5
 31
0.0
  0
LINE
  5
215
330
20B
100
AcDbEntity
  8
SLD-0
 62
     0
100
AcDbLine
 10
2.0
 20
0.0
 30
0.0
 11
3.5
 21
0.0
 31
0.0
  0
ENDBLK
  5
20D
330
20B
100
AcDbEntity
  8
0
100
AcDbBlockEnd
  0
BLOCK
  5
218
330
217
100
AcDbEntity
  8
0
100
AcDbBlockBegin
  2
SW_CENTERMARKSYMBOL_2
 70
     0
 10
0.0
 20
0.0
 30
0.0
  3
SW_CENTERMARKSYMBOL_2
  1

  0
LINE
  5
21A
330
217
100
AcDbEntity
  8
SLD-0
 62
     0
100
AcDbLine
 10
0.0
 20
0.0
 30
0.0
 11
0.0
 21
1.0
 31
0.0
  0
LINE
  5
21B
330
217
100
AcDbEntity
  8
SLD-0
 62
     0
100
AcDbLine
 10
0.0
 20
0.0
 30
0.0
 11
-1.0
 21
0.0
 31
0.0
  0
LINE
  5
21C
330
217
100
AcDbEntity
  8
SLD-0
 62
     0
100
AcDbLine
 10
0.0
 20
0.0
 30
0.0
 11
0.0
 21
-1.0
 31
0.0
  0
LINE
  5
21D
330
217
100
AcDbEntity
  8
SLD-0
 62
     0
100
AcDbLine
 10
0.0
 20
0.0
 30
0.0
 11
1.0
 21
0.0
 31
0.0
  0
LINE
  5
21E
330
217
100
AcDbEntity
  8
SLD-0
 62
     0
100
AcDbLine
 10
0.0
 20
2.0
 30
0.0
 11
0.0
 21
12.0
 31
0.0
  0
LINE
  5
21F
330
217
100
AcDbEntity
  8
SLD-0
 62
     0
100
AcDbLine
 10
-2.0
 20
0.0
 30
0.0
 11
-12.0
 21
0.0
 31
0.0
  0
LINE
  5
220
330
217
100
AcDbEntity
  8
SLD-0
 62
     0
100
AcDbLine
 10
0.0
 20
-2.0
 30
0.0
 11
0.0
 21
-12.0
 31
0.0
  0
LINE
  5
221
330
217
100
AcDbEntity
  8
SLD-0
 62
     0
100
AcDbLine
 10
2.0
 20
0.0
 30
0.0
 11
12.0
 21
0.0
 31
0.0
  0
ENDBLK
  5
219
330
217
100
AcDbEntity
  8
0
100
AcDbBlockEnd
  0
BLOCK
  5
224
330
223
100
AcDbEntity
  8
0
100
AcDbBlockBegin
  2
SW_CENTERMARKSYMBOL_3
 70
     0
 10
0.0
 20
0.0
 30
0.0
  3
SW_CENTERMARKSYMBOL_3
  1

  0
LINE
  5
226
330
223
100
AcDbEntity
  8
SLD-0
 62
     0
100
AcDbLine
 10
0.0
 20
0.0
 30
0.0
 11
0.0
 21
1.0
 31
0.0
  0
LINE
  5
227
330
223
100
AcDbEntity
  8
SLD-0
 62
     0
100
AcDbLine
 10
0.0
 20
0.0
 30
0.0
 11
-1.0
 21
0.0
 31
0.0
  0
LINE
  5
228
330
223
100
AcDbEntity
  8
SLD-0
 62
     0
100
AcDbLine
 10
0.0
 20
0.0
 30
0.0
 11
0.0
 21
-1.0
 31
0.0
  0
LINE
  5
229
330
223
100
AcDbEntity
  8
SLD-0
 62
     0
100
AcDbLine
 10
0.0
 20
0.0
 30
0.0
 11
1.0
 21
0.0
 31
0.0
  0
LINE
  5
22A
330
223
100
AcDbEntity
  8
SLD-0
 62
     0
100
AcDbLine
 10
0.0
 20
2.0
 30
0.0
 11
0.0
 21
3.5
 31
0.0
  0
LINE
  5
22B
330
223
100
AcDbEntity
  8
SLD-0
 62
     0
100
AcDbLine
 10
-2.0
 20
0.0
 30
0.0
 11
-3.5
 21
0.0
 31
0.0
  0
LINE
  5
22C
330
223
100
AcDbEntity
  8
SLD-0
 62
     0
100
AcDbLine
 10
0.0
 20
-2.0
 30
0.0
 11
0.0
 21
-3.5
 31
0.0
  0
LINE
  5
22D
330
223
100
AcDbEntity
  8
SLD-0
 62
     0
100
AcDbLine
 10
2.0
 20
0.0
 30
0.0
 11
3.5
 21
0.0
 31
0.0
  0
ENDBLK
  5
225
330
223
100
AcDbEntity
  8
0
100
AcDbBlockEnd
  0
BLOCK
  5
230
330
22F
100
AcDbEntity
  8
0
100
AcDbBlockBegin
  2
SW_CENTERMARKSYMBOL_4
 70
     0
 10
0.0
 20
0.0
 30
0.0
  3
SW_CENTERMARKSYMBOL_4
  1

  0
LINE
  5
232
330
22F
100
AcDbEntity
  8
SLD-0
 62
     0
100
AcDbLine
 10
0.0
 20
0.0
 30
0.0
 11
0.0
 21
1.0
 31
0.0
  0
LINE
  5
233
330
22F
100
AcDbEntity
  8
SLD-0
 62
     0
100
AcDbLine
 10
0.0
 20
0.0
 30
0.0
 11
-1.0
 21
0.0
 31
0.0
  0
LINE
  5
234
330
22F
100
AcDbEntity
  8
SLD-0
 62
     0
100
AcDbLine
 10
0.0
 20
0.0
 30
0.0
 11
0.0
 21
-1.0
 31
0.0
  0
LINE
  5
235
330
22F
100
AcDbEntity
  8
SLD-0
 62
     0
100
AcDbLine
 10
0.0
 20
0.0
 30
0.0
 11
1.0
 21
0.0
 31
0.0
  0
LINE
  5
236
330
22F
100
AcDbEntity
  8
SLD-0
 62
     0
100
AcDbLine
 10
0.0
 20
2.0
 30
0.0
 11
0.0
 21
4.5
 31
0.0
  0
LINE
  5
237
330
22F
100
AcDbEntity
  8
SLD-0
 62
     0
100
AcDbLine
 10
-2.0
 20
0.0
 30
0.0
 11
-4.5
 21
0.0
 31
0.0
  0
LINE
  5
238
330
22F
100
AcDbEntity
  8
SLD-0
 62
     0
100
AcDbLine
 10
0.0
 20
-2.0
 30
0.0
 11
0.0
 21
-4.5
 31
0.0
  0
LINE
  5
239
330
22F
100
AcDbEntity
  8
SLD-0
 62
     0
100
AcDbLine
 10
2.0
 20
0.0
 30
0.0
 11
4.5
 21
0.0
 31
0.0
  0
ENDBLK
  5
231
330
22F
100
AcDbEntity
  8
0
100
AcDbBlockEnd
  0
BLOCK
  5
23C
330
23B
100
AcDbEntity
  8
0
100
AcDbBlockBegin
  2
SW_CENTERMARKSYMBOL_5
 70
     0
 10
0.0
 20
0.0
 30
0.0
  3
SW_CENTERMARKSYMBOL_5
  1

  0
LINE
  5
23E
330
23B
100
AcDbEntity
  8
SLD-0
 62
     0
100
AcDbLine
 10
0.0
 20
0.0
 30
0.0
 11
0.0
 21
1.0
 31
0.0
  0
LINE
  5
23F
330
23B
100
AcDbEntity
  8
SLD-0
 62
     0
100
AcDbLine
 10
0.0
 20
0.0
 30
0.0
 11
-1.0
 21
0.0
 31
0.0
  0
LINE
  5
240
330
23B
100
AcDbEntity
  8
SLD-0
 62
     0
100
AcDbLine
 10
0.0
 20
0.0
 30
0.0
 11
0.0
 21
-1.0
 31
0.0
  0
LINE
  5
241
330
23B
100
AcDbEntity
  8
SLD-0
 62
     0
100
AcDbLine
 10
0.0
 20
0.0
 30
0.0
 11
1.0
 21
0.0
 31
0.0
  0
LINE
  5
242
330
23B
100
AcDbEntity
  8
SLD-0
 62
     0
100
AcDbLine
 10
0.0
 20
2.0
 30
0.0
 11
0.0
 21
3.5
 31
0.0
  0
LINE
  5
243
330
23B
100
AcDbEntity
  8
SLD-0
 62
     0
100
AcDbLine
 10
-2.0
 20
0.0
 30
0.0
 11
-3.5
 21
0.0
 31
0.0
  0
LINE
  5
244
330
23B
100
AcDbEntity
  8
SLD-0
 62
     0
100
AcDbLine
 10
0.0
 20
-2.0
 30
0.0
 11
0.0
 21
-3.5
 31
0.0
  0
LINE
  5
245
330
23B
100
AcDbEntity
  8
SLD-0
 62
     0
100
AcDbLine
 10
2.0
 20
0.0
 30
0.0
 11
3.5
 21
0.0
 31
0.0
  0
ENDBLK
  5
23D
330
23B
100
AcDbEntity
  8
0
100
AcDbBlockEnd
  0
BLOCK
  5
248
330
247
100
AcDbEntity
  8
0
100
AcDbBlockBegin
  2
SW_CENTERMARKSYMBOL_6
 70
     0
 10
0.0
 20
0.0
 30
0.0
  3
SW_CENTERMARKSYMBOL_6
  1

  0
LINE
  5
24A
330
247
100
AcDbEntity
  8
SLD-0
 62
     0
100
AcDbLine
 10
0.0
 20
0.0
 30
0.0
 11
0.0
 21
1.0
 31
0.0
  0
LINE
  5
24B
330
247
100
AcDbEntity
  8
SLD-0
 62
     0
100
AcDbLine
 10
0.0
 20
0.0
 30
0.0
 11
-1.0
 21
0.0
 31
0.0
  0
LINE
  5
24C
330
247
100
AcDbEntity
  8
SLD-0
 62
     0
100
AcDbLine
 10
0.0
 20
0.0
 30
0.0
 11
0.0
 21
-1.0
 31
0.0
  0
LINE
  5
24D
330
247
100
AcDbEntity
  8
SLD-0
 62
     0
100
AcDbLine
 10
0.0
 20
0.0
 30
0.0
 11
1.0
 21
0.0
 31
0.0
  0
LINE
  5
24E
330
247
100
AcDbEntity
  8
SLD-0
 62
     0
100
AcDbLine
 10
0.0
 20
2.0
 30
0.0
 11
0.0
 21
4.5
 31
0.0
  0
LINE
  5
24F
330
247
100
AcDbEntity
  8
SLD-0
 62
     0
100
AcDbLine
 10
-2.0
 20
0.0
 30
0.0
 11
-4.5
 21
0.0
 31
0.0
  0
LINE
  5
250
330
247
100
AcDbEntity
  8
SLD-0
 62
     0
100
AcDbLine
 10
0.0
 20
-2.0
 30
0.0
 11
0.0
 21
-4.5
 31
0.0
  0
LINE
  5
251
330
247
100
AcDbEntity
  8
SLD-0
 62
     0
100
AcDbLine
 10
2.0
 20
0.0
 30
0.0
 11
4.5
 21
0.0
 31
0.0
  0
ENDBLK
  5
249
330
247
100
AcDbEntity
  8
0
100
AcDbBlockEnd
  0
BLOCK
  5
254
330
253
100
AcDbEntity
  8
0
100
AcDbBlockBegin
  2
SW_CENTERMARKSYMBOL_7
 70
     0
 10
0.0
 20
0.0
 30
0.0
  3
SW_CENTERMARKSYMBOL_7
  1

  0
LINE
  5
256
330
253
100
AcDbEntity
  8
SLD-0
 62
     0
100
AcDbLine
 10
0.0
 20
0.0
 30
0.0
 11
0.0
 21
1.0
 31
0.0
  0
LINE
  5
257
330
253
100
AcDbEntity
  8
SLD-0
 62
     0
100
AcDbLine
 10
0.0
 20
0.0
 30
0.0
 11
-1.0
 21
0.0
 31
0.0
  0
LINE
  5
258
330
253
100
AcDbEntity
  8
SLD-0
 62
     0
100
AcDbLine
 10
0.0
 20
0.0
 30
0.0
 11
0.0
 21
-1.0
 31
0.0
  0
LINE
  5
259
330
253
100
AcDbEntity
  8
SLD-0
 62
     0
100
AcDbLine
 10
0.0
 20
0.0
 30
0.0
 11
1.0
 21
0.0
 31
0.0
  0
LINE
  5
25A
330
253
100
AcDbEntity
  8
SLD-0
 62
     0
100
AcDbLine
 10
0.0
 20
2.0
 30
0.0
 11
0.0
 21
3.5
 31
0.0
  0
LINE
  5
25B
330
253
100
AcDbEntity
  8
SLD-0
 62
     0
100
AcDbLine
 10
-2.0
 20
0.0
 30
0.0
 11
-3.5
 21
0.0
 31
0.0
  0
LINE
  5
25C
330
253
100
AcDbEntity
  8
SLD-0
 62
     0
100
AcDbLine
 10
0.0
 20
-2.0
 30
0.0
 11
0.0
 21
-3.5
 31
0.0
  0
LINE
  5
25D
330
253
100
AcDbEntity
  8
SLD-0
 62
     0
100
AcDbLine
 10
2.0
 20
0.0
 30
0.0
 11
3.5
 21
0.0
 31
0.0
  0
ENDBLK
  5
255
330
253
100
AcDbEntity
  8
0
100
AcDbBlockEnd
  0
BLOCK
  5
260
330
25F
100
AcDbEntity
  8
0
100
AcDbBlockBegin
  2
SW_CENTERMARKSYMBOL_8
 70
     0
 10
0.0
 20
0.0
 30
0.0
  3
SW_CENTERMARKSYMBOL_8
  1

  0
LINE
  5
262
330
25F
100
AcDbEntity
  8
SLD-0
 62
     0
100
AcDbLine
 10
0.0
 20
0.0
 30
0.0
 11
0.0
 21
1.0
 31
0.0
  0
LINE
  5
263
330
25F
100
AcDbEntity
  8
SLD-0
 62
     0
100
AcDbLine
 10
0.0
 20
0.0
 30
0.0
 11
-1.0
 21
0.0
 31
0.0
  0
LINE
  5
264
330
25F
100
AcDbEntity
  8
SLD-0
 62
     0
100
AcDbLine
 10
0.0
 20
0.0
 30
0.0
 11
0.0
 21
-1.0
 31
0.0
  0
LINE
  5
265
330
25F
100
AcDbEntity
  8
SLD-0
 62
     0
100
AcDbLine
 10
0.0
 20
0.0
 30
0.0
 11
1.0
 21
0.0
 31
0.0
  0
LINE
  5
266
330
25F
100
AcDbEntity
  8
SLD-0
 62
     0
100
AcDbLine
 10
0.0
 20
2.0
 30
0.0
 11
0.0
 21
4.5
 31
0.0
  0
LINE
  5
267
330
25F
100
AcDbEntity
  8
SLD-0
 62
     0
100
AcDbLine
 10
-2.0
 20
0.0
 30
0.0
 11
-4.5
 21
0.0
 31
0.0
  0
LINE
  5
268
330
25F
100
AcDbEntity
  8
SLD-0
 62
     0
100
AcDbLine
 10
0.0
 20
-2.0
 30
0.0
 11
0.0
 21
-4.5
 31
0.0
  0
LINE
  5
269
330
25F
100
AcDbEntity
  8
SLD-0
 62
     0
100
AcDbLine
 10
2.0
 20
0.0
 30
0.0
 11
4.5
 21
0.0
 31
0.0
  0
ENDBLK
  5
261
330
25F
100
AcDbEntity
  8
0
100
AcDbBlockEnd
  0
BLOCK
  5
2B4
330
2B3
100
AcDbEntity
  8
0
100
AcDbBlockBegin
  2
_D_9
 70
     0
 10
0.0
 20
0.0
 30
0.0
  3
_D_9
  1

  0
SOLID
  5
2B6
330
2B3
100
AcDbEntity
  8
SLD-0
100
AcDbTrace
 10
110.7387797357
 20
213.3399337817
 30
0.0
 11
114.7387797357
 21
212.8399337817
 31
0.0
 12
114.7387797357
 22
213.8399337817
 32
0.0
 13
114.7387797357
 23
213.8399337817
 33
0.0
  0
SOLID
  5
2B7
330
2B3
100
AcDbEntity
  8
SLD-0
100
AcDbTrace
 10
186.7387797357
 20
213.3399337817
 30
0.0
 11
182.7387797357
 21
213.8399337817
 31
0.0
 12
182.7387797357
 22
212.8399337817
 32
0.0
 13
182.7387797357
 23
212.8399337817
 33
0.0
  0
LINE
  5
2B8
330
2B3
100
AcDbEntity
  8
SLD-0
100
AcDbLine
 10
110.7387797357
 20
173.3399337817
 30
0.0
 11
110.7387797357
 21
215.3399337817
 31
0.0
  0
LINE
  5
2B9
330
2B3
100
AcDbEntity
  8
SLD-0
100
AcDbLine
 10
186.7387797357
 20
173.3399337817
 30
0.0
 11
186.7387797357
 21
215.3399337817
 31
0.0
  0
LINE
  5
2BA
330
2B3
100
AcDbEntity
  8
SLD-0
100
AcDbLine
 10
110.7387797357
 20
213.3399337817
 30
0.0
 11
186.7387797357
 21
213.3399337817
 31
0.0
  0
MTEXT
  5
2BB
330
2B3
100
AcDbEntity
  8
SLD-0
100
AcDbMText
 10
144.9193352861
 20
219.7852721313
 30
0.0
 40
5.0
 41
0.0
 71
     1
 72
     1
  1
76
  7
SLDTEXTSTYLE0
 73
     1
 44
1.0
  0
ENDBLK
  5
2B5
330
2B3
100
AcDbEntity
  8
0
100
AcDbBlockEnd
  0
BLOCK
  5
2BE
330
2BD
100
AcDbEntity
  8
0
100
AcDbBlockBegin
  2
_D_10
 70
     0
 10
0.0
 20
0.0
 30
0.0
  3
_D_10
  1

  0
SOLID
  5
2C0
330
2BD
100
AcDbEntity
  8
SLD-0
100
AcDbTrace
 10
68.7387797357
 20
171.3399337817
 30
0.0
 11
68.2387797357
 21
167.3399337817
 31
0.0
 12
69.2387797357
 22
167.3399337817
 32
0.0
 13
69.2387797357
 23
167.3399337817
 33
0.0
  0
SOLID
  5
2C1
330
2BD
100
AcDbEntity
  8
SLD-0
100
AcDbTrace
 10
68.7387797357
 20
75.3399337817
 30
0.0
 11
69.2387797357
 21
79.3399337817
 31
0.0
 12
68.2387797357
 22
79.3399337817
 32
0.0
 13
68.2387797357
 23
79.3399337817
 33
0.0
  0
LINE
  5
2C2
330
2BD
100
AcDbEntity
  8
SLD-0
100
AcDbLine
 10
108.7387797357
 20
171.3399337817
 30
0.0
 11
66.7387797357
 21
171.3399337817
 31
0.0
  0
LINE
  5
2C3
330
2BD
100
AcDbEntity
  8
SLD-0
100
AcDbLine
 10
108.7387797357
 20
75.3399337817
 30
0.0
 11
66.7387797357
 21
75.3399337817
 31
0.0
  0
LINE
  5
2C4
330
2BD
100
AcDbEntity
  8
SLD-0
100
AcDbLine
 10
68.7387797357
 20
171.3399337817
 30
0.0
 11
68.7387797357
 21
75.3399337817
 31
0.0
  0
MTEXT
  5
2C5
330
2BD
100
AcDbEntity
  8
SLD-0
100
AcDbMText
 10
62.2934413861
 20
119.520489332
 30
0.0
 40
5.0
 41
0.0
 71
     1
 72
     1
  1
96
  7
SLDTEXTSTYLE0
 11
-7.044195017643634E-15
 21
1.0
 31
0.0
 73
     1
 44
1.0
  0
ENDBLK
  5
2BF
330
2BD
100
AcDbEntity
  8
0
100
AcDbBlockEnd
  0
BLOCK
  5
2C8
330
2C7
100
AcDbEntity
  8
0
100
AcDbBlockBegin
  2
_D_11
 70
     0
 10
0.0
 20
0.0
 30
0.0
  3
_D_11
  1

  0
SOLID
  5
2CA
330
2C7
100
AcDbEntity
  8
SLD-0
100
AcDbTrace
 10
176.3311155501
 20
145.6914854025
 30
0.0
 11
179.6297209981
 21
148.0086392813
 31
0.0
 12
178.9578491065
 22
148.7493066569
 32
0.0
 13
178.9578491065
 23
148.7493066569
 33
0.0
  0
LINE
  5
2CB
330
2C7
100
AcDbEntity
  8
SLD-0
100
AcDbLine
 10
176.3311155501
 20
145.6914854025
 30
0.0
 11
198.4487432857
 21
165.7547592501
 31
0.0
  0
LINE
  5
2CC
330
2C7
100
AcDbEntity
  8
SLD-0
100
AcDbLine
 10
198.4487432857
 20
165.7547592501
 30
0.0
 11
245.2664507051
 21
165.7547592501
 31
0.0
  0
MTEXT
  5
2CD
330
2C7
100
AcDbEntity
  8
SLD-0
100
AcDbMText
 10
200.9487432857
 20
172.2139864133
 30
0.0
 40
5.0
 41
0.0
 71
     1
 72
     1
  1
4-
  7
SLDTEXTSTYLE0
 73
     1
 44
1.0
  0
MTEXT
  5
2CE
330
2C7
100
AcDbEntity
  8
SLD-0
100
AcDbMText
 10
207.0529099052
 20
172.2000974833
 30
0.0
 40
5.0
 41
0.0
 71
     1
 72
     1
  1
%%c
  7
SLDTEXTSTYLE0
 73
     1
 44
1.0
  0
MTEXT
  5
2CF
330
2C7
100
AcDbEntity
  8
SLD-0
100
AcDbMText
 10
214.342840152
 20
172.2139864133
 30
0.0
 40
5.0
 41
0.0
 71
     1
 72
     1
  1
7
  7
SLDTEXTSTYLE0
 73
     1
 44
1.0
  0
MTEXT
  5
2D0
330
2C7
100
AcDbEntity
  8
SLD-0
100
AcDbMText
 10
220.0372853001
 20
172.2139864133
 30
0.0
 40
5.0
 41
0.0
 71
     1
 72
     1
  1
HOLES.
  7
SLDTEXTSTYLE0
 73
     1
 44
1.0
  0
ENDBLK
  5
2C9
330
2C7
100
AcDbEntity
  8
0
100
AcDbBlockEnd
  0
BLOCK
  5
2D3
330
2D2
100
AcDbEntity
  8
0
100
AcDbBlockBegin
  2
_D_12
 70
     0
 10
0.0
 20
0.0
 30
0.0
  3
_D_12
  1

  0
SOLID
  5
2D5
330
2D2
100
AcDbEntity
  8
SLD-0
100
AcDbTrace
 10
175.9738412105
 20
119.4599785146
 30
0.0
 11
179.7739485169
 21
120.8050377922
 31
0.0
 12
179.3259306237
 22
121.6990623822
 32
0.0
 13
179.3259306237
 23
121.6990623822
 33
0.0
  0
LINE
  5
2D6
330
2D2
100
AcDbEntity
  8
SLD-0
100
AcDbLine
 10
175.9738412105
 20
119.4599785146
 30
0.0
 11
200.3486103484
 21
131.6747798057
 31
0.0
  0
LINE
  5
2D7
330
2D2
100
AcDbEntity
  8
SLD-0
100
AcDbLine
 10
200.3486103484
 20
131.6747798057
 30
0.0
 11
233.7722209015
 21
131.6747798057
 31
0.0
  0
MTEXT
  5
2D8
330
2D2
100
AcDbEntity
  8
SLD-0
100
AcDbMText
 10
202.8486103484
 20
145.7937290884
 30
0.0
 40
5.0
 41
0.0
 71
     1
 72
     1
  1
5 HOLES,
  7
SLDTEXTSTYLE0
 73
     1
 44
1.0
  0
MTEXT
  5
2D9
330
2D2
100
AcDbEntity
  8
SLD-0
100
AcDbMText
 10
202.8486103484
 20
138.1201181553
 30
0.0
 40
5.0
 41
0.0
 71
     1
 72
     1
  1
M6
  7
SLDTEXTSTYLE0
 73
     1
 44
1.0
  0
ENDBLK
  5
2D4
330
2D2
100
AcDbEntity
  8
0
100
AcDbBlockEnd
  0
BLOCK
  5
2DC
330
2DB
100
AcDbEntity
  8
0
100
AcDbBlockBegin
  2
_D_13
 70
     0
 10
0.0
 20
0.0
 30
0.0
  3
_D_13
  1

  0
SOLID
  5
2DE
330
2DB
100
AcDbEntity
  8
SLD-0
100
AcDbTrace
 10
162.7212601664
 20
105.1155362578
 30
0.0
 11
166.0956377184
 21
102.9101845542
 31
0.0
 12
166.5346665208
 22
103.8086575425
 32
0.0
 13
166.5346665208
 23
103.8086575425
 33
0.0
  0
LINE
  5
2DF
330
2DB
100
AcDbEntity
  8
SLD-0
100
AcDbLine
 10
162.7212601664
 20
105.1155362578
 30
0.0
 11
205.1457917188
 21
84.3852622036
 31
0.0
  0
LINE
  5
2E0
330
2DB
100
AcDbEntity
  8
SLD-0
100
AcDbLine
 10
205.1457917188
 20
84.3852622036
 30
0.0
 11
238.569402272
 21
84.3852622036
 31
0.0
  0
MTEXT
  5
2E1
330
2DB
100
AcDbEntity
  8
SLD-0
100
AcDbMText
 10
207.6457917188
 20
98.5042114863
 30
0.0
 40
5.0
 41
0.0
 71
     1
 72
     1
  1
4 HOLES,
  7
SLDTEXTSTYLE0
 73
     1
 44
1.0
  0
MTEXT
  5
2E2
330
2DB
100
AcDbEntity
  8
SLD-0
100
AcDbMText
 10
209.5207917188
 20
90.8306005532
 30
0.0
 40
5.0
 41
0.0
 71
     1
 72
     1
  1
M4
  7
SLDTEXTSTYLE0
 73
     1
 44
1.0
  0
ENDBLK
  5
2DD
330
2DB
100
AcDbEntity
  8
0
100
AcDbBlockEnd
  0
BLOCK
  5
2E5
330
2E4
100
AcDbEntity
  8
0
100
AcDbBlockBegin
  2
_D_14
 70
     0
 10
0.0
 20
0.0
 30
0.0
  3
_D_14
  1

  0
SOLID
  5
2E7
330
2E4
100
AcDbEntity
  8
SLD-0
100
AcDbTrace
 10
148.7387797357
 20
199.3399337817
 30
0.0
 11
144.7387797357
 21
199.8399337817
 31
0.0
 12
144.7387797357
 22
198.8399337817
 32
0.0
 13
144.7387797357
 23
198.8399337817
 33
0.0
  0
SOLID
  5
2E8
330
2E4
100
AcDbEntity
  8
SLD-0
100
AcDbTrace
 10
123.7387797357
 20
199.3399337817
 30
0.0
 11
127.7387797357
 21
198.8399337817
 31
0.0
 12
127.7387797357
 22
199.8399337817
 32
0.0
 13
127.7387797357
 23
199.8399337817
 33
0.0
  0
LINE
  5
2E9
330
2E4
100
AcDbEntity
  8
SLD-0
100
AcDbLine
 10
148.7387797357
 20
148.8399337817
 30
0.0
 11
148.7387797357
 21
201.3399337817
 31
0.0
  0
LINE
  5
2EA
330
2E4
100
AcDbEntity
  8
SLD-0
100
AcDbLine
 10
123.7387797357
 20
149.8399337817
 30
0.0
 11
123.7387797357
 21
201.3399337817
 31
0.0
  0
LINE
  5
2EB
330
2E4
100
AcDbEntity
  8
SLD-0
100
AcDbLine
 10
148.7387797357
 20
199.3399337817
 30
0.0
 11
123.7387797357
 21
199.3399337817
 31
0.0
  0
MTEXT
  5
2EC
330
2E4
100
AcDbEntity
  8
SLD-0
100
AcDbMText
 10
132.4193352861
 20
205.7852721313
 30
0.0
 40
5.0
 41
0.0
 71
     1
 72
     1
  1
25
  7
SLDTEXTSTYLE0
 73
     1
 44
1.0
  0
ENDBLK
  5
2E6
330
2E4
100
AcDbEntity
  8
0
100
AcDbBlockEnd
  0
BLOCK
  5
2EF
330
2EE
100
AcDbEntity
  8
0
100
AcDbBlockBegin
  2
_D_15
 70
     0
 10
0.0
 20
0.0
 30
0.0
  3
_D_15
  1

  0
SOLID
  5
2F1
330
2EE
100
AcDbEntity
  8
SLD-0
100
AcDbTrace
 10
148.7387797357
 20
199.3399337817
 30
0.0
 11
152.7387797357
 21
198.8399337817
 31
0.0
 12
152.7387797357
 22
199.8399337817
 32
0.0
 13
152.7387797357
 23
199.8399337817
 33
0.0
  0
SOLID
  5
2F2
330
2EE
100
AcDbEntity
  8
SLD-0
100
AcDbTrace
 10
173.7387797357
 20
199.3399337817
 30
0.0
 11
169.7387797357
 21
199.8399337817
 31
0.0
 12
169.7387797357
 22
198.8399337817
 32
0.0
 13
169.7387797357
 23
198.8399337817
 33
0.0
  0
LINE
  5
2F3
330
2EE
100
AcDbEntity
  8
SLD-0
100
AcDbLine
 10
148.7387797357
 20
148.8399337817
 30
0.0
 11
148.7387797357
 21
201.3399337817
 31
0.0
  0
LINE
  5
2F4
330
2EE
100
AcDbEntity
  8
SLD-0
100
AcDbLine
 10
173.7387797357
 20
149.8399337817
 30
0.0
 11
173.7387797357
 21
201.3399337817
 31
0.0
  0
LINE
  5
2F5
330
2EE
100
AcDbEntity
  8
SLD-0
100
AcDbLine
 10
148.7387797357
 20
199.3399337817
 30
0.0
 11
173.7387797357
 21
199.3399337817
 31
0.0
  0
MTEXT
  5
2F6
330
2EE
100
AcDbEntity
  8
SLD-0
100
AcDbMText
 10
157.4193352861
 20
205.7852721313
 30
0.0
 40
5.0
 41
0.0
 71
     1
 72
     1
  1
25
  7
SLDTEXTSTYLE0
 73
     1
 44
1.0
  0
ENDBLK
  5
2F0
330
2EE
100
AcDbEntity
  8
0
100
AcDbBlockEnd
  0
BLOCK
  5
2F9
330
2F8
100
AcDbEntity
  8
0
100
AcDbBlockBegin
  2
_D_16
 70
     0
 10
0.0
 20
0.0
 30
0.0
  3
_D_16
  1

  0
SOLID
  5
2FB
330
2F8
100
AcDbEntity
  8
SLD-0
100
AcDbTrace
 10
136.2387797357
 20
185.3399337817
 30
0.0
 11
140.2387797357
 21
184.8399337817
 31
0.0
 12
140.2387797357
 22
185.8399337817
 32
0.0
 13
140.2387797357
 23
185.8399337817
 33
0.0
  0
SOLID
  5
2FC
330
2F8
100
AcDbEntity
  8
SLD-0
100
AcDbTrace
 10
148.7387797357
 20
185.3399337817
 30
0.0
 11
144.7387797357
 21
185.8399337817
 31
0.0
 12
144.7387797357
 22
184.8399337817
 32
0.0
 13
144.7387797357
 23
184.8399337817
 33
0.0
  0
LINE
  5
2FD
330
2F8
100
AcDbEntity
  8
SLD-0
100
AcDbLine
 10
136.2387797357
 20
135.4899337817
 30
0.0
 11
136.2387797357
 21
187.3399337817
 31
0.0
  0
LINE
  5
2FE
330
2F8
100
AcDbEntity
  8
SLD-0
100
AcDbLine
 10
148.7387797357
 20
148.8399337817
 30
0.0
 11
148.7387797357
 21
187.3399337817
 31
0.0
  0
LINE
  5
2FF
330
2F8
100
AcDbEntity
  8
SLD-0
100
AcDbLine
 10
136.2387797357
 20
185.3399337817
 30
0.0
 11
148.7387797357
 21
185.3399337817
 31
0.0
  0
MTEXT
  5
300
330
2F8
100
AcDbEntity
  8
SLD-0
100
AcDbMText
 10
135.8047521235
 20
191.7852721313
 30
0.0
 40
5.0
 41
0.0
 71
     1
 72
     1
  1
12.5
  7
SLDTEXTSTYLE0
 73
     1
 44
1.0
  0
ENDBLK
  5
2FA
330
2F8
100
AcDbEntity
  8
0
100
AcDbBlockEnd
  0
BLOCK
  5
303
330
302
100
AcDbEntity
  8
0
100
AcDbBlockBegin
  2
_D_17
 70
     0
 10
0.0
 20
0.0
 30
0.0
  3
_D_17
  1

  0
SOLID
  5
305
330
302
100
AcDbEntity
  8
SLD-0
100
AcDbTrace
 10
148.7387797357
 20
185.3399337817
 30
0.0
 11
152.7387797357
 21
184.8399337817
 31
0.0
 12
152.7387797357
 22
185.8399337817
 32
0.0
 13
152.7387797357
 23
185.8399337817
 33
0.0
  0
SOLID
  5
306
330
302
100
AcDbEntity
  8
SLD-0
100
AcDbTrace
 10
161.2387797357
 20
185.3399337817
 30
0.0
 11
157.2387797357
 21
185.8399337817
 31
0.0
 12
157.2387797357
 22
184.8399337817
 32
0.0
 13
157.2387797357
 23
184.8399337817
 33
0.0
  0
LINE
  5
307
330
302
100
AcDbEntity
  8
SLD-0
100
AcDbLine
 10
148.7387797357
 20
148.8399337817
 30
0.0
 11
148.7387797357
 21
187.3399337817
 31
0.0
  0
LINE
  5
308
330
302
100
AcDbEntity
  8
SLD-0
100
AcDbLine
 10
161.2387797357
 20
135.4899337817
 30
0.0
 11
161.2387797357
 21
187.3399337817
 31
0.0
  0
LINE
  5
309
330
302
100
AcDbEntity
  8
SLD-0
100
AcDbLine
 10
148.7387797357
 20
185.3399337817
 30
0.0
 11
161.2387797357
 21
185.3399337817
 31
0.0
  0
MTEXT
  5
30A
330
302
100
AcDbEntity
  8
SLD-0
100
AcDbMText
 10
148.3047521235
 20
191.7852721313
 30
0.0
 40
5.0
 41
0.0
 71
     1
 72
     1
  1
12.5
  7
SLDTEXTSTYLE0
 73
     1
 44
1.0
  0
ENDBLK
  5
304
330
302
100
AcDbEntity
  8
0
100
AcDbBlockEnd
  0
BLOCK
  5
30D
330
30C
100
AcDbEntity
  8
0
100
AcDbBlockBegin
  2
_D_18
 70
     0
 10
0.0
 20
0.0
 30
0.0
  3
_D_18
  1

  0
SOLID
  5
30F
330
30C
100
AcDbEntity
  8
SLD-0
100
AcDbTrace
 10
96.7387797357
 20
130.8399337817
 30
0.0
 11
96.2387797357
 21
126.8399337817
 31
0.0
 12
97.2387797357
 22
126.8399337817
 32
0.0
 13
97.2387797357
 23
126.8399337817
 33
0.0
  0
SOLID
  5
310
330
30C
100
AcDbEntity
  8
SLD-0
100
AcDbTrace
 10
96.7387797357
 20
118.3399337817
 30
0.0
 11
97.2387797357
 21
122.3399337817
 31
0.0
 12
96.2387797357
 22
122.3399337817
 32
0.0
 13
96.2387797357
 23
122.3399337817
 33
0.0
  0
LINE
  5
311
330
30C
100
AcDbEntity
  8
SLD-0
100
AcDbLine
 10
131.5887797357
 20
130.8399337817
 30
0.0
 11
94.7387797357
 21
130.8399337817
 31
0.0
  0
LINE
  5
312
330
30C
100
AcDbEntity
  8
SLD-0
100
AcDbLine
 10
118.2387797357
 20
118.3399337817
 30
0.0
 11
94.7387797357
 21
118.3399337817
 31
0.0
  0
LINE
  5
313
330
30C
100
AcDbEntity
  8
SLD-0
100
AcDbLine
 10
96.7387797357
 20
130.8399337817
 30
0.0
 11
96.7387797357
 21
118.3399337817
 31
0.0
  0
MTEXT
  5
314
330
30C
100
AcDbEntity
  8
SLD-0
100
AcDbMText
 10
90.2934413861
 20
117.9059061694
 30
0.0
 40
5.0
 41
0.0
 71
     1
 72
     1
  1
12.5
  7
SLDTEXTSTYLE0
 11
-7.044195017643634E-15
 21
1.0
 31
0.0
 73
     1
 44
1.0
  0
ENDBLK
  5
30E
330
30C
100
AcDbEntity
  8
0
100
AcDbBlockEnd
  0
BLOCK
  5
317
330
316
100
AcDbEntity
  8
0
100
AcDbBlockBegin
  2
_D_19
 70
     0
 10
0.0
 20
0.0
 30
0.0
  3
_D_19
  1

  0
SOLID
  5
319
330
316
100
AcDbEntity
  8
SLD-0
100
AcDbTrace
 10
96.7387797357
 20
118.3399337817
 30
0.0
 11
96.2387797357
 21
114.3399337817
 31
0.0
 12
97.2387797357
 22
114.3399337817
 32
0.0
 13
97.2387797357
 23
114.3399337817
 33
0.0
  0
SOLID
  5
31A
330
316
100
AcDbEntity
  8
SLD-0
100
AcDbTrace
 10
96.7387797357
 20
105.8399337817
 30
0.0
 11
97.2387797357
 21
109.8399337817
 31
0.0
 12
96.2387797357
 22
109.8399337817
 32
0.0
 13
96.2387797357
 23
109.8399337817
 33
0.0
  0
LINE
  5
31B
330
316
100
AcDbEntity
  8
SLD-0
100
AcDbLine
 10
118.2387797357
 20
118.3399337817
 30
0.0
 11
94.7387797357
 21
118.3399337817
 31
0.0
  0
LINE
  5
31C
330
316
100
AcDbEntity
  8
SLD-0
100
AcDbLine
 10
131.5887797357
 20
105.8399337817
 30
0.0
 11
94.7387797357
 21
105.8399337817
 31
0.0
  0
LINE
  5
31D
330
316
100
AcDbEntity
  8
SLD-0
100
AcDbLine
 10
96.7387797357
 20
118.3399337817
 30
0.0
 11
96.7387797357
 21
105.8399337817
 31
0.0
  0
MTEXT
  5
31E
330
316
100
AcDbEntity
  8
SLD-0
100
AcDbMText
 10
90.2934413861
 20
105.4059061694
 30
0.0
 40
5.0
 41
0.0
 71
     1
 72
     1
  1
12.5
  7
SLDTEXTSTYLE0
 11
-7.044195017643634E-15
 21
1.0
 31
0.0
 73
     1
 44
1.0
  0
ENDBLK
  5
318
330
316
100
AcDbEntity
  8
0
100
AcDbBlockEnd
  0
BLOCK
  5
321
330
320
100
AcDbEntity
  8
0
100
AcDbBlockBegin
  2
_D_20
 70
     0
 10
0.0
 20
0.0
 30
0.0
  3
_D_20
  1

  0
SOLID
  5
323
330
320
100
AcDbEntity
  8
SLD-0
100
AcDbTrace
 10
82.7387797357
 20
118.3399337817
 30
0.0
 11
82.2387797357
 21
114.3399337817
 31
0.0
 12
83.2387797357
 22
114.3399337817
 32
0.0
 13
83.2387797357
 23
114.3399337817
 33
0.0
  0
SOLID
  5
324
330
320
100
AcDbEntity
  8
SLD-0
100
AcDbTrace
 10
82.7387797357
 20
93.3399337817
 30
0.0
 11
83.2387797357
 21
97.3399337817
 31
0.0
 12
82.2387797357
 22
97.3399337817
 32
0.0
 13
82.2387797357
 23
97.3399337817
 33
0.0
  0
LINE
  5
325
330
320
100
AcDbEntity
  8
SLD-0
100
AcDbLine
 10
118.2387797357
 20
118.3399337817
 30
0.0
 11
80.7387797357
 21
118.3399337817
 31
0.0
  0
LINE
  5
326
330
320
100
AcDbEntity
  8
SLD-0
100
AcDbLine
 10
117.2387797357
 20
93.3399337817
 30
0.0
 11
80.7387797357
 21
93.3399337817
 31
0.0
  0
LINE
  5
327
330
320
100
AcDbEntity
  8
SLD-0
100
AcDbLine
 10
82.7387797357
 20
118.3399337817
 30
0.0
 11
82.7387797357
 21
93.3399337817
 31
0.0
  0
MTEXT
  5
328
330
320
100
AcDbEntity
  8
SLD-0
100
AcDbMText
 10
76.2934413861
 20
102.020489332
 30
0.0
 40
5.0
 41
0.0
 71
     1
 72
     1
  1
25
  7
SLDTEXTSTYLE0
 11
-7.044195017643634E-15
 21
1.0
 31
0.0
 73
     1
 44
1.0
  0
ENDBLK
  5
322
330
320
100
AcDbEntity
  8
0
100
AcDbBlockEnd
  0
BLOCK
  5
32B
330
32A
100
AcDbEntity
  8
0
100
AcDbBlockBegin
  2
_D_21
 70
     0
 10
0.0
 20
0.0
 30
0.0
  3
_D_21
  1

  0
SOLID
  5
32D
330
32A
100
AcDbEntity
  8
SLD-0
100
AcDbTrace
 10
82.7387797357
 20
118.3399337817
 30
0.0
 11
83.2387797357
 21
122.3399337817
 31
0.0
 12
82.2387797357
 22
122.3399337817
 32
0.0
 13
82.2387797357
 23
122.3399337817
 33
0.0
  0
SOLID
  5
32E
330
32A
100
AcDbEntity
  8
SLD-0
100
AcDbTrace
 10
82.7387797357
 20
143.3399337817
 30
0.0
 11
82.2387797357
 21
139.3399337817
 31
0.0
 12
83.2387797357
 22
139.3399337817
 32
0.0
 13
83.2387797357
 23
139.3399337817
 33
0.0
  0
LINE
  5
32F
330
32A
100
AcDbEntity
  8
SLD-0
100
AcDbLine
 10
118.2387797357
 20
118.3399337817
 30
0.0
 11
80.7387797357
 21
118.3399337817
 31
0.0
  0
LINE
  5
330
330
32A
100
AcDbEntity
  8
SLD-0
100
AcDbLine
 10
117.2387797357
 20
143.3399337817
 30
0.0
 11
80.7387797357
 21
143.3399337817
 31
0.0
  0
LINE
  5
331
330
32A
100
AcDbEntity
  8
SLD-0
100
AcDbLine
 10
82.7387797357
 20
118.3399337817
 30
0.0
 11
82.7387797357
 21
143.3399337817
 31
0.0
  0
MTEXT
  5
332
330
32A
100
AcDbEntity
  8
SLD-0
100
AcDbMText
 10
76.2934413861
 20
127.020489332
 30
0.0
 40
5.0
 41
0.0
 71
     1
 72
     1
  1
25
  7
SLDTEXTSTYLE0
 11
6.123233995736766E-17
 21
1.0
 31
0.0
 73
     1
 44
1.0
  0
ENDBLK
  5
32C
330
32A
100
AcDbEntity
  8
0
100
AcDbBlockEnd
  0
BLOCK
  5
334
330
333
100
AcDbEntity
  8
0
100
AcDbBlockBegin
  2
SW_CENTERMARKSYMBOL_9
 70
     0
 10
0.0
 20
0.0
 30
0.0
  3
SW_CENTERMARKSYMBOL_9
  1

  0
LINE
  5
336
330
333
100
AcDbEntity
  8
SLD-0
 62
     0
100
AcDbLine
 10
0.0
 20
0.0
 30
0.0
 11
0.0
 21
1.0
 31
0.0
  0
LINE
  5
337
330
333
100
AcDbEntity
  8
SLD-0
 62
     0
100
AcDbLine
 10
0.0
 20
0.0
 30
0.0
 11
-1.0
 21
0.0
 31
0.0
  0
LINE
  5
338
330
333
100
AcDbEntity
  8
SLD-0
 62
     0
100
AcDbLine
 10
0.0
 20
0.0
 30
0.0
 11
0.0
 21
-1.0
 31
0.0
  0
LINE
  5
339
330
333
100
AcDbEntity
  8
SLD-0
 62
     0
100
AcDbLine
 10
0.0
 20
0.0
 30
0.0
 11
1.0
 21
0.0
 31
0.0
  0
LINE
  5
33A
330
333
100
AcDbEntity
  8
SLD-0
 62
     0
100
AcDbLine
 10
0.0
 20
2.0
 30
0.0
 11
0.0
 21
4.5
 31
0.0
  0
LINE
  5
33B
330
333
100
AcDbEntity
  8
SLD-0
 62
     0
100
AcDbLine
 10
-2.0
 20
0.0
 30
0.0
 11
-4.5
 21
0.0
 31
0.0
  0
LINE
  5
33C
330
333
100
AcDbEntity
  8
SLD-0
 62
     0
100
AcDbLine
 10
0.0
 20
-2.0
 30
0.0
 11
0.0
 21
-4.5
 31
0.0
  0
LINE
  5
33D
330
333
100
AcDbEntity
  8
SLD-0
 62
     0
100
AcDbLine
 10
2.0
 20
0.0
 30
0.0
 11
4.5
 21
0.0
 31
0.0
  0
ENDBLK
  5
335
330
333
100
AcDbEntity
  8
0
100
AcDbBlockEnd
  0
BLOCK
  5
340
330
33F
100
AcDbEntity
  8
0
100
AcDbBlockBegin
  2
SW_CENTERMARKSYMBOL_10
 70
     0
 10
0.0
 20
0.0
 30
0.0
  3
SW_CENTERMARKSYMBOL_10
  1

  0
LINE
  5
342
330
33F
100
AcDbEntity
  8
SLD-0
 62
     0
100
AcDbLine
 10
0.0
 20
0.0
 30
0.0
 11
0.0
 21
1.0
 31
0.0
  0
LINE
  5
343
330
33F
100
AcDbEntity
  8
SLD-0
 62
     0
100
AcDbLine
 10
0.0
 20
0.0
 30
0.0
 11
-1.0
 21
0.0
 31
0.0
  0
LINE
  5
344
330
33F
100
AcDbEntity
  8
SLD-0
 62
     0
100
AcDbLine
 10
0.0
 20
0.0
 30
0.0
 11
0.0
 21
-1.0
 31
0.0
  0
LINE
  5
345
330
33F
100
AcDbEntity
  8
SLD-0
 62
     0
100
AcDbLine
 10
0.0
 20
0.0
 30
0.0
 11
1.0
 21
0.0
 31
0.0
  0
LINE
  5
346
330
33F
100
AcDbEntity
  8
SLD-0
 62
     0
100
AcDbLine
 10
0.0
 20
2.0
 30
0.0
 11
0.0
 21
4.5
 31
0.0
  0
LINE
  5
347
330
33F
100
AcDbEntity
  8
SLD-0
 62
     0
100
AcDbLine
 10
-2.0
 20
0.0
 30
0.0
 11
-4.5
 21
0.0
 31
0.0
  0
LINE
  5
348
330
33F
100
AcDbEntity
  8
SLD-0
 62
     0
100
AcDbLine
 10
0.0
 20
-2.0
 30
0.0
 11
0.0
 21
-4.5
 31
0.0
  0
LINE
  5
349
330
33F
100
AcDbEntity
  8
SLD-0
 62
     0
100
AcDbLine
 10
2.0
 20
0.0
 30
0.0
 11
4.5
 21
0.0
 31
0.0
  0
ENDBLK
  5
341
330
33F
100
AcDbEntity
  8
0
100
AcDbBlockEnd
  0
BLOCK
  5
34C
330
34B
100
AcDbEntity
  8
0
100
AcDbBlockBegin
  2
SW_CENTERMARKSYMBOL_11
 70
     0
 10
0.0
 20
0.0
 30
0.0
  3
SW_CENTERMARKSYMBOL_11
  1

  0
LINE
  5
34E
330
34B
100
AcDbEntity
  8
SLD-0
 62
     0
100
AcDbLine
 10
0.0
 20
0.0
 30
0.0
 11
0.0
 21
1.0
 31
0.0
  0
LINE
  5
34F
330
34B
100
AcDbEntity
  8
SLD-0
 62
     0
100
AcDbLine
 10
0.0
 20
0.0
 30
0.0
 11
-1.0
 21
0.0
 31
0.0
  0
LINE
  5
350
330
34B
100
AcDbEntity
  8
SLD-0
 62
     0
100
AcDbLine
 10
0.0
 20
0.0
 30
0.0
 11
0.0
 21
-1.0
 31
0.0
  0
LINE
  5
351
330
34B
100
AcDbEntity
  8
SLD-0
 62
     0
100
AcDbLine
 10
0.0
 20
0.0
 30
0.0
 11
1.0
 21
0.0
 31
0.0
  0
LINE
  5
352
330
34B
100
AcDbEntity
  8
SLD-0
 62
     0
100
AcDbLine
 10
0.0
 20
2.0
 30
0.0
 11
0.0
 21
2.65
 31
0.0
  0
LINE
  5
353
330
34B
100
AcDbEntity
  8
SLD-0
 62
     0
100
AcDbLine
 10
-2.0
 20
0.0
 30
0.0
 11
-2.65
 21
0.0
 31
0.0
  0
LINE
  5
354
330
34B
100
AcDbEntity
  8
SLD-0
 62
     0
100
AcDbLine
 10
0.0
 20
-2.0
 30
0.0
 11
0.0
 21
-2.65
 31
0.0
  0
LINE
  5
355
330
34B
100
AcDbEntity
  8
SLD-0
 62
     0
100
AcDbLine
 10
2.0
 20
0.0
 30
0.0
 11
2.65
 21
0.0
 31
0.0
  0
ENDBLK
  5
34D
330
34B
100
AcDbEntity
  8
0
100
AcDbBlockEnd
  0
BLOCK
  5
358
330
357
100
AcDbEntity
  8
0
100
AcDbBlockBegin
  2
SW_CENTERMARKSYMBOL_12
 70
     0
 10
0.0
 20
0.0
 30
0.0
  3
SW_CENTERMARKSYMBOL_12
  1

  0
LINE
  5
35A
330
357
100
AcDbEntity
  8
SLD-0
 62
     0
100
AcDbLine
 10
0.0
 20
0.0
 30
0.0
 11
0.0
 21
1.0
 31
0.0
  0
LINE
  5
35B
330
357
100
AcDbEntity
  8
SLD-0
 62
     0
100
AcDbLine
 10
0.0
 20
0.0
 30
0.0
 11
-1.0
 21
0.0
 31
0.0
  0
LINE
  5
35C
330
357
100
AcDbEntity
  8
SLD-0
 62
     0
100
AcDbLine
 10
0.0
 20
0.0
 30
0.0
 11
0.0
 21
-1.0
 31
0.0
  0
LINE
  5
35D
330
357
100
AcDbEntity
  8
SLD-0
 62
     0
100
AcDbLine
 10
0.0
 20
0.0
 30
0.0
 11
1.0
 21
0.0
 31
0.0
  0
LINE
  5
35E
330
357
100
AcDbEntity
  8
SLD-0
 62
     0
100
AcDbLine
 10
0.0
 20
2.0
 30
0.0
 11
0.0
 21
2.65
 31
0.0
  0
LINE
  5
35F
330
357
100
AcDbEntity
  8
SLD-0
 62
     0
100
AcDbLine
 10
-2.0
 20
0.0
 30
0.0
 11
-2.65
 21
0.0
 31
0.0
  0
LINE
  5
360
330
357
100
AcDbEntity
  8
SLD-0
 62
     0
100
AcDbLine
 10
0.0
 20
-2.0
 30
0.0
 11
0.0
 21
-2.65
 31
0.0
  0
LINE
  5
361
330
357
100
AcDbEntity
  8
SLD-0
 62
     0
100
AcDbLine
 10
2.0
 20
0.0
 30
0.0
 11
2.65
 21
0.0
 31
0.0
  0
ENDBLK
  5
359
330
357
100
AcDbEntity
  8
0
100
AcDbBlockEnd
  0
BLOCK
  5
364
330
363
100
AcDbEntity
  8
0
100
AcDbBlockBegin
  2
SW_CENTERMARKSYMBOL_13
 70
     0
 10
0.0
 20
0.0
 30
0.0
  3
SW_CENTERMARKSYMBOL_13
  1

  0
LINE
  5
366
330
363
100
AcDbEntity
  8
SLD-0
 62
     0
100
AcDbLine
 10
0.0
 20
0.0
 30
0.0
 11
0.0
 21
1.0
 31
0.0
  0
LINE
  5
367
330
363
100
AcDbEntity
  8
SLD-0
 62
     0
100
AcDbLine
 10
0.0
 20
0.0
 30
0.0
 11
-1.0
 21
0.0
 31
0.0
  0
LINE
  5
368
330
363
100
AcDbEntity
  8
SLD-0
 62
     0
100
AcDbLine
 10
0.0
 20
0.0
 30
0.0
 11
0.0
 21
-1.0
 31
0.0
  0
LINE
  5
369
330
363
100
AcDbEntity
  8
SLD-0
 62
     0
100
AcDbLine
 10
0.0
 20
0.0
 30
0.0
 11
1.0
 21
0.0
 31
0.0
  0
LINE
  5
36A
330
363
100
AcDbEntity
  8
SLD-0
 62
     0
100
AcDbLine
 10
0.0
 20
2.0
 30
0.0
 11
0.0
 21
3.5
 31
0.0
  0
LINE
  5
36B
330
363
100
AcDbEntity
  8
SLD-0
 62
     0
100
AcDbLine
 10
-2.0
 20
0.0
 30
0.0
 11
-3.5
 21
0.0
 31
0.0
  0
LINE
  5
36C
330
363
100
AcDbEntity
  8
SLD-0
 62
     0
100
AcDbLine
 10
0.0
 20
-2.0
 30
0.0
 11
0.0
 21
-3.5
 31
0.0
  0
LINE
  5
36D
330
363
100
AcDbEntity
  8
SLD-0
 62
     0
100
AcDbLine
 10
2.0
 20
0.0
 30
0.0
 11
3.5
 21
0.0
 31
0.0
  0
ENDBLK
  5
365
330
363
100
AcDbEntity
  8
0
100
AcDbBlockEnd
  0
BLOCK
  5
370
330
36F
100
AcDbEntity
  8
0
100
AcDbBlockBegin
  2
SW_CENTERMARKSYMBOL_14
 70
     0
 10
0.0
 20
0.0
 30
0.0
  3
SW_CENTERMARKSYMBOL_14
  1

  0
LINE
  5
372
330
36F
100
AcDbEntity
  8
SLD-0
 62
     0
100
AcDbLine
 10
0.0
 20
0.0
 30
0.0
 11
0.0
 21
1.0
 31
0.0
  0
LINE
  5
373
330
36F
100
AcDbEntity
  8
SLD-0
 62
     0
100
AcDbLine
 10
0.0
 20
0.0
 30
0.0
 11
-1.0
 21
0.0
 31
0.0
  0
LINE
  5
374
330
36F
100
AcDbEntity
  8
SLD-0
 62
     0
100
AcDbLine
 10
0.0
 20
0.0
 30
0.0
 11
0.0
 21
-1.0
 31
0.0
  0
LINE
  5
375
330
36F
100
AcDbEntity
  8
SLD-0
 62
     0
100
AcDbLine
 10
0.0
 20
0.0
 30
0.0
 11
1.0
 21
0.0
 31
0.0
  0
LINE
  5
376
330
36F
100
AcDbEntity
  8
SLD-0
 62
     0
100
AcDbLine
 10
0.0
 20
2.0
 30
0.0
 11
0.0
 21
4.5
 31
0.0
  0
LINE
  5
377
330
36F
100
AcDbEntity
  8
SLD-0
 62
     0
100
AcDbLine
 10
-2.0
 20
0.0
 30
0.0
 11
-4.5
 21
0.0
 31
0.0
  0
LINE
  5
378
330
36F
100
AcDbEntity
  8
SLD-0
 62
     0
100
AcDbLine
 10
0.0
 20
-2.0
 30
0.0
 11
0.0
 21
-4.5
 31
0.0
  0
LINE
  5
379
330
36F
100
AcDbEntity
  8
SLD-0
 62
     0
100
AcDbLine
 10
2.0
 20
0.0
 30
0.0
 11
4.5
 21
0.0
 31
0.0
  0
ENDBLK
  5
371
330
36F
100
AcDbEntity
  8
0
100
AcDbBlockEnd
  0
BLOCK
  5
37C
330
37B
100
AcDbEntity
  8
0
100
AcDbBlockBegin
  2
SW_CENTERMARKSYMBOL_15
 70
     0
 10
0.0
 20
0.0
 30
0.0
  3
SW_CENTERMARKSYMBOL_15
  1

  0
LINE
  5
37E
330
37B
100
AcDbEntity
  8
SLD-0
 62
     0
100
AcDbLine
 10
0.0
 20
0.0
 30
0.0
 11
0.0
 21
1.0
 31
0.0
  0
LINE
  5
37F
330
37B
100
AcDbEntity
  8
SLD-0
 62
     0
100
AcDbLine
 10
0.0
 20
0.0
 30
0.0
 11
-1.0
 21
0.0
 31
0.0
  0
LINE
  5
380
330
37B
100
AcDbEntity
  8
SLD-0
 62
     0
100
AcDbLine
 10
0.0
 20
0.0
 30
0.0
 11
0.0
 21
-1.0
 31
0.0
  0
LINE
  5
381
330
37B
100
AcDbEntity
  8
SLD-0
 62
     0
100
AcDbLine
 10
0.0
 20
0.0
 30
0.0
 11
1.0
 21
0.0
 31
0.0
  0
LINE
  5
382
330
37B
100
AcDbEntity
  8
SLD-0
 62
     0
100
AcDbLine
 10
0.0
 20
2.0
 30
0.0
 11
0.0
 21
2.65
 31
0.0
  0
LINE
  5
383
330
37B
100
AcDbEntity
  8
SLD-0
 62
     0
100
AcDbLine
 10
-2.0
 20
0.0
 30
0.0
 11
-2.65
 21
0.0
 31
0.0
  0
LINE
  5
384
330
37B
100
AcDbEntity
  8
SLD-0
 62
     0
100
AcDbLine
 10
0.0
 20
-2.0
 30
0.0
 11
0.0
 21
-2.65
 31
0.0
  0
LINE
  5
385
330
37B
100
AcDbEntity
  8
SLD-0
 62
     0
100
AcDbLine
 10
2.0
 20
0.0
 30
0.0
 11
2.65
 21
0.0
 31
0.0
  0
ENDBLK
  5
37D
330
37B
100
AcDbEntity
  8
0
100
AcDbBlockEnd
  0
BLOCK
  5
388
330
387
100
AcDbEntity
  8
0
100
AcDbBlockBegin
  2
SW_CENTERMARKSYMBOL_16
 70
     0
 10
0.0
 20
0.0
 30
0.0
  3
SW_CENTERMARKSYMBOL_16
  1

  0
LINE
  5
38A
330
387
100
AcDbEntity
  8
SLD-0
 62
     0
100
AcDbLine
 10
0.0
 20
0.0
 30
0.0
 11
0.0
 21
1.0
 31
0.0
  0
LINE
  5
38B
330
387
100
AcDbEntity
  8
SLD-0
 62
     0
100
AcDbLine
 10
0.0
 20
0.0
 30
0.0
 11
-1.0
 21
0.0
 31
0.0
  0
LINE
  5
38C
330
387
100
AcDbEntity
  8
SLD-0
 62
     0
100
AcDbLine
 10
0.0
 20
0.0
 30
0.0
 11
0.0
 21
-1.0
 31
0.0
  0
LINE
  5
38D
330
387
100
AcDbEntity
  8
SLD-0
 62
     0
100
AcDbLine
 10
0.0
 20
0.0
 30
0.0
 11
1.0
 21
0.0
 31
0.0
  0
LINE
  5
38E
330
387
100
AcDbEntity
  8
SLD-0
 62
     0
100
AcDbLine
 10
0.0
 20
2.0
 30
0.0
 11
0.0
 21
2.65
 31
0.0
  0
LINE
  5
38F
330
387
100
AcDbEntity
  8
SLD-0
 62
     0
100
AcDbLine
 10
-2.0
 20
0.0
 30
0.0
 11
-2.65
 21
0.0
 31
0.0
  0
LINE
  5
390
330
387
100
AcDbEntity
  8
SLD-0
 62
     0
100
AcDbLine
 10
0.0
 20
-2.0
 30
0.0
 11
0.0
 21
-2.65
 31
0.0
  0
LINE
  5
391
330
387
100
AcDbEntity
  8
SLD-0
 62
     0
100
AcDbLine
 10
2.0
 20
0.0
 30
0.0
 11
2.65
 21
0.0
 31
0.0
  0
ENDBLK
  5
389
330
387
100
AcDbEntity
  8
0
100
AcDbBlockEnd
  0
BLOCK
  5
394
330
393
100
AcDbEntity
  8
0
100
AcDbBlockBegin
  2
SW_CENTERMARKSYMBOL_17
 70
     0
 10
0.0
 20
0.0
 30
0.0
  3
SW_CENTERMARKSYMBOL_17
  1

  0
LINE
  5
396
330
393
100
AcDbEntity
  8
SLD-0
 62
     0
100
AcDbLine
 10
0.0
 20
0.0
 30
0.0
 11
0.0
 21
1.0
 31
0.0
  0
LINE
  5
397
330
393
100
AcDbEntity
  8
SLD-0
 62
     0
100
AcDbLine
 10
0.0
 20
0.0
 30
0.0
 11
-1.0
 21
0.0
 31
0.0
  0
LINE
  5
398
330
393
100
AcDbEntity
  8
SLD-0
 62
     0
100
AcDbLine
 10
0.0
 20
0.0
 30
0.0
 11
0.0
 21
-1.0
 31
0.0
  0
LINE
  5
399
330
393
100
AcDbEntity
  8
SLD-0
 62
     0
100
AcDbLine
 10
0.0
 20
0.0
 30
0.0
 11
1.0
 21
0.0
 31
0.0
  0
LINE
  5
39A
330
393
100
AcDbEntity
  8
SLD-0
 62
     0
100
AcDbLine
 10
0.0
 20
2.0
 30
0.0
 11
0.0
 21
4.5
 31
0.0
  0
LINE
  5
39B
330
393
100
AcDbEntity
  8
SLD-0
 62
     0
100
AcDbLine
 10
-2.0
 20
0.0
 30
0.0
 11
-4.5
 21
0.0
 31
0.0
  0
LINE
  5
39C
330
393
100
AcDbEntity
  8
SLD-0
 62
     0
100
AcDbLine
 10
0.0
 20
-2.0
 30
0.0
 11
0.0
 21
-4.5
 31
0.0
  0
LINE
  5
39D
330
393
100
AcDbEntity
  8
SLD-0
 62
     0
100
AcDbLine
 10
2.0
 20
0.0
 30
0.0
 11
4.5
 21
0.0
 31
0.0
  0
ENDBLK
  5
395
330
393
100
AcDbEntity
  8
0
100
AcDbBlockEnd
  0
BLOCK
  5
3A0
330
39F
100
AcDbEntity
  8
0
100
AcDbBlockBegin
  2
SW_CENTERMARKSYMBOL_18
 70
     0
 10
0.0
 20
0.0
 30
0.0
  3
SW_CENTERMARKSYMBOL_18
  1

  0
LINE
  5
3A2
330
39F
100
AcDbEntity
  8
SLD-0
 62
     0
100
AcDbLine
 10
0.0
 20
0.0
 30
0.0
 11
0.0
 21
1.0
 31
0.0
  0
LINE
  5
3A3
330
39F
100
AcDbEntity
  8
SLD-0
 62
     0
100
AcDbLine
 10
0.0
 20
0.0
 30
0.0
 11
-1.0
 21
0.0
 31
0.0
  0
LINE
  5
3A4
330
39F
100
AcDbEntity
  8
SLD-0
 62
     0
100
AcDbLine
 10
0.0
 20
0.0
 30
0.0
 11
0.0
 21
-1.0
 31
0.0
  0
LINE
  5
3A5
330
39F
100
AcDbEntity
  8
SLD-0
 62
     0
100
AcDbLine
 10
0.0
 20
0.0
 30
0.0
 11
1.0
 21
0.0
 31
0.0
  0
LINE
  5
3A6
330
39F
100
AcDbEntity
  8
SLD-0
 62
     0
100
AcDbLine
 10
0.0
 20
2.0
 30
0.0
 11
0.0
 21
3.5
 31
0.0
  0
LINE
  5
3A7
330
39F
100
AcDbEntity
  8
SLD-0
 62
     0
100
AcDbLine
 10
-2.0
 20
0.0
 30
0.0
 11
-3.5
 21
0.0
 31
0.0
  0
LINE
  5
3A8
330
39F
100
AcDbEntity
  8
SLD-0
 62
     0
100
AcDbLine
 10
0.0
 20
-2.0
 30
0.0
 11
0.0
 21
-3.5
 31
0.0
  0
LINE
  5
3A9
330
39F
100
AcDbEntity
  8
SLD-0
 62
     0
100
AcDbLine
 10
2.0
 20
0.0
 30
0.0
 11
3.5
 21
0.0
 31
0.0
  0
ENDBLK
  5
3A1
330
39F
100
AcDbEntity
  8
0
100
AcDbBlockEnd
  0
BLOCK
  5
3AC
330
3AB
100
AcDbEntity
  8
0
100
AcDbBlockBegin
  2
SW_CENTERMARKSYMBOL_19
 70
     0
 10
0.0
 20
0.0
 30
0.0
  3
SW_CENTERMARKSYMBOL_19
  1

  0
LINE
  5
3AE
330
3AB
100
AcDbEntity
  8
SLD-0
 62
     0
100
AcDbLine
 10
0.0
 20
0.0
 30
0.0
 11
0.0
 21
1.0
 31
0.0
  0
LINE
  5
3AF
330
3AB
100
AcDbEntity
  8
SLD-0
 62
     0
100
AcDbLine
 10
0.0
 20
0.0
 30
0.0
 11
-1.0
 21
0.0
 31
0.0
  0
LINE
  5
3B0
330
3AB
100
AcDbEntity
  8
SLD-0
 62
     0
100
AcDbLine
 10
0.0
 20
0.0
 30
0.0
 11
0.0
 21
-1.0
 31
0.0
  0
LINE
  5
3B1
330
3AB
100
AcDbEntity
  8
SLD-0
 62
     0
100
AcDbLine
 10
0.0
 20
0.0
 30
0.0
 11
1.0
 21
0.0
 31
0.0
  0
LINE
  5
3B2
330
3AB
100
AcDbEntity
  8
SLD-0
 62
     0
100
AcDbLine
 10
0.0
 20
2.0
 30
0.0
 11
0.0
 21
3.5
 31
0.0
  0
LINE
  5
3B3
330
3AB
100
AcDbEntity
  8
SLD-0
 62
     0
100
AcDbLine
 10
-2.0
 20
0.0
 30
0.0
 11
-3.5
 21
0.0
 31
0.0
  0
LINE
  5
3B4
330
3AB
100
AcDbEntity
  8
SLD-0
 62
     0
100
AcDbLine
 10
0.0
 20
-2.0
 30
0.0
 11
0.0
 21
-3.5
 31
0.0
  0
LINE
  5
3B5
330
3AB
100
AcDbEntity
  8
SLD-0
 62
     0
100
AcDbLine
 10
2.0
 20
0.0
 30
0.0
 11
3.5
 21
0.0
 31
0.0
  0
ENDBLK
  5
3AD
330
3AB
100
AcDbEntity
  8
0
100
AcDbBlockEnd
  0
BLOCK
  5
3B8
330
3B7
100
AcDbEntity
  8
0
100
AcDbBlockBegin
  2
SW_CENTERMARKSYMBOL_20
 70
     0
 10
0.0
 20
0.0
 30
0.0
  3
SW_CENTERMARKSYMBOL_20
  1

  0
LINE
  5
3BA
330
3B7
100
AcDbEntity
  8
SLD-0
 62
     0
100
AcDbLine
 10
0.0
 20
0.0
 30
0.0
 11
0.0
 21
1.0
 31
0.0
  0
LINE
  5
3BB
330
3B7
100
AcDbEntity
  8
SLD-0
 62
     0
100
AcDbLine
 10
0.0
 20
0.0
 30
0.0
 11
-1.0
 21
0.0
 31
0.0
  0
LINE
  5
3BC
330
3B7
100
AcDbEntity
  8
SLD-0
 62
     0
100
AcDbLine
 10
0.0
 20
0.0
 30
0.0
 11
0.0
 21
-1.0
 31
0.0
  0
LINE
  5
3BD
330
3B7
100
AcDbEntity
  8
SLD-0
 62
     0
100
AcDbLine
 10
0.0
 20
0.0
 30
0.0
 11
1.0
 21
0.0
 31
0.0
  0
LINE
  5
3BE
330
3B7
100
AcDbEntity
  8
SLD-0
 62
     0
100
AcDbLine
 10
0.0
 20
2.0
 30
0.0
 11
0.0
 21
3.5
 31
0.0
  0
LINE
  5
3BF
330
3B7
100
AcDbEntity
  8
SLD-0
 62
     0
100
AcDbLine
 10
-2.0
 20
0.0
 30
0.0
 11
-3.5
 21
0.0
 31
0.0
  0
LINE
  5
3C0
330
3B7
100
AcDbEntity
  8
SLD-0
 62
     0
100
AcDbLine
 10
0.0
 20
-2.0
 30
0.0
 11
0.0
 21
-3.5
 31
0.0
  0
LINE
  5
3C1
330
3B7
100
AcDbEntity
  8
SLD-0
 62
     0
100
AcDbLine
 10
2.0
 20
0.0
 30
0.0
 11
3.5
 21
0.0
 31
0.0
  0
ENDBLK
  5
3B9
330
3B7
100
AcDbEntity
  8
0
100
AcDbBlockEnd
  0
BLOCK
  5
3C4
330
3C3
100
AcDbEntity
  8
0
100
AcDbBlockBegin
  2
SW_CENTERMARKSYMBOL_21
 70
     0
 10
0.0
 20
0.0
 30
0.0
  3
SW_CENTERMARKSYMBOL_21
  1

  0
LINE
  5
3C6
330
3C3
100
AcDbEntity
  8
SLD-0
 62
     0
100
AcDbLine
 10
0.0
 20
0.0
 30
0.0
 11
0.0
 21
1.0
 31
0.0
  0
LINE
  5
3C7
330
3C3
100
AcDbEntity
  8
SLD-0
 62
     0
100
AcDbLine
 10
0.0
 20
0.0
 30
0.0
 11
-1.0
 21
0.0
 31
0.0
  0
LINE
  5
3C8
330
3C3
100
AcDbEntity
  8
SLD-0
 62
     0
100
AcDbLine
 10
0.0
 20
0.0
 30
0.0
 11
0.0
 21
-1.0
 31
0.0
  0
LINE
  5
3C9
330
3C3
100
AcDbEntity
  8
SLD-0
 62
     0
100
AcDbLine
 10
0.0
 20
0.0
 30
0.0
 11
1.0
 21
0.0
 31
0.0
  0
LINE
  5
3CA
330
3C3
100
AcDbEntity
  8
SLD-0
 62
     0
100
AcDbLine
 10
0.0
 20
2.0
 30
0.0
 11
0.0
 21
3.5
 31
0.0
  0
LINE
  5
3CB
330
3C3
100
AcDbEntity
  8
SLD-0
 62
     0
100
AcDbLine
 10
-2.0
 20
0.0
 30
0.0
 11
-3.5
 21
0.0
 31
0.0
  0
LINE
  5
3CC
330
3C3
100
AcDbEntity
  8
SLD-0
 62
     0
100
AcDbLine
 10
0.0
 20
-2.0
 30
0.0
 11
0.0
 21
-3.5
 31
0.0
  0
LINE
  5
3CD
330
3C3
100
AcDbEntity
  8
SLD-0
 62
     0
100
AcDbLine
 10
2.0
 20
0.0
 30
0.0
 11
3.5
 21
0.0
 31
0.0
  0
ENDBLK
  5
3C5
330
3C3
100
AcDbEntity
  8
0
100
AcDbBlockEnd
  0
BLOCK
  5
3DF
330
3DE
100
AcDbEntity
  8
0
100
AcDbBlockBegin
  2
_D_22
 70
     0
 10
0.0
 20
0.0
 30
0.0
  3
_D_22
  1

  0
SOLID
  5
3E1
330
3DE
100
AcDbEntity
  8
SLD-0
100
AcDbTrace
 10
276.6138246236
 20
339.8247371345
 30
0.0
 11
272.6138246236
 21
340.3247371345
 31
0.0
 12
272.6138246236
 22
339.3247371345
 32
0.0
 13
272.6138246236
 23
339.3247371345
 33
0.0
  0
SOLID
  5
3E2
330
3DE
100
AcDbEntity
  8
SLD-0
100
AcDbTrace
 10
286.6138246236
 20
339.8247371345
 30
0.0
 11
290.6138246236
 21
339.3247371345
 31
0.0
 12
290.6138246236
 22
340.3247371345
 32
0.0
 13
290.6138246236
 23
340.3247371345
 33
0.0
  0
LINE
  5
3E3
330
3DE
100
AcDbEntity
  8
SLD-0
100
AcDbLine
 10
276.6138246236
 20
328.1589440651
 30
0.0
 11
276.6138246236
 21
341.8247371345
 31
0.0
  0
LINE
  5
3E4
330
3DE
100
AcDbEntity
  8
SLD-0
100
AcDbLine
 10
286.6138246236
 20
328.1589440651
 30
0.0
 11
286.6138246236
 21
341.8247371345
 31
0.0
  0
LINE
  5
3E5
330
3DE
100
AcDbEntity
  8
SLD-0
100
AcDbLine
 10
276.6138246236
 20
339.8247371345
 30
0.0
 11
270.6138246236
 21
339.8247371345
 31
0.0
  0
LINE
  5
3E6
330
3DE
100
AcDbEntity
  8
SLD-0
100
AcDbLine
 10
276.6138246236
 20
339.8247371345
 30
0.0
 11
286.6138246236
 21
339.8247371345
 31
0.0
  0
LINE
  5
3E7
330
3DE
100
AcDbEntity
  8
SLD-0
100
AcDbLine
 10
286.6138246236
 20
339.8247371345
 30
0.0
 11
292.6138246236
 21
339.8247371345
 31
0.0
  0
MTEXT
  5
3E8
330
3DE
100
AcDbEntity
  8
SLD-0
100
AcDbMText
 10
277.794380174
 20
346.2700754841
 30
0.0
 40
5.0
 41
0.0
 71
     1
 72
     1
  1
10
  7
SLDTEXTSTYLE0
 73
     1
 44
1.0
  0
ENDBLK
  5
3E0
330
3DE
100
AcDbEntity
  8
0
100
AcDbBlockEnd
  0
BLOCK
  5
3EB
330
3EA
100
AcDbEntity
  8
0
100
AcDbBlockBegin
  2
_D_23
 70
     0
 10
0.0
 20
0.0
 30
0.0
  3
_D_23
  1

  0
SOLID
  5
3ED
330
3EA
100
AcDbEntity
  8
SLD-0
100
AcDbTrace
 10
388.7345852393
 20
240.1589440651
 30
0.0
 11
389.2345852393
 21
244.1589440651
 31
0.0
 12
388.2345852393
 22
244.1589440651
 32
0.0
 13
388.2345852393
 23
244.1589440651
 33
0.0
  0
SOLID
  5
3EE
330
3EA
100
AcDbEntity
  8
SLD-0
100
AcDbTrace
 10
388.7345852393
 20
232.1589440651
 30
0.0
 11
388.2345852393
 21
228.1589440651
 31
0.0
 12
389.2345852393
 22
228.1589440651
 32
0.0
 13
389.2345852393
 23
228.1589440651
 33
0.0
  0
LINE
  5
3EF
330
3EA
100
AcDbEntity
  8
SLD-0
100
AcDbLine
 10
374.6138246236
 20
240.1589440651
 30
0.0
 11
390.7345852393
 21
240.1589440651
 31
0.0
  0
LINE
  5
3F0
330
3EA
100
AcDbEntity
  8
SLD-0
100
AcDbLine
 10
374.6138246236
 20
232.1589440651
 30
0.0
 11
390.7345852393
 21
232.1589440651
 31
0.0
  0
LINE
  5
3F1
330
3EA
100
AcDbEntity
  8
SLD-0
100
AcDbLine
 10
388.7345852393
 20
240.1589440651
 30
0.0
 11
388.7345852393
 21
246.1589440651
 31
0.0
  0
LINE
  5
3F2
330
3EA
100
AcDbEntity
  8
SLD-0
100
AcDbLine
 10
388.7345852393
 20
240.1589440651
 30
0.0
 11
388.7345852393
 21
232.1589440651
 31
0.0
  0
LINE
  5
3F3
330
3EA
100
AcDbEntity
  8
SLD-0
100
AcDbLine
 10
388.7345852393
 20
232.1589440651
 30
0.0
 11
388.7345852393
 21
226.1589440651
 31
0.0
  0
MTEXT
  5
3F4
330
3EA
100
AcDbEntity
  8
SLD-0
100
AcDbMText
 10
382.2892468897
 20
234.2492218403
 30
0.0
 40
5.0
 41
0.0
 71
     1
 72
     1
  1
8
  7
SLDTEXTSTYLE0
 11
-7.044195017643634E-15
 21
1.0
 31
0.0
 73
     1
 44
1.0
  0
ENDBLK
  5
3EC
330
3EA
100
AcDbEntity
  8
0
100
AcDbBlockEnd
  0
BLOCK
  5
3F7
330
3F6
100
AcDbEntity
  8
0
100
AcDbBlockBegin
  2
_D_24
 70
     0
 10
0.0
 20
0.0
 30
0.0
  3
_D_24
  1

  0
SOLID
  5
3F9
330
3F6
100
AcDbEntity
  8
SLD-0
100
AcDbTrace
 10
259.0349204736
 20
326.1589440651
 30
0.0
 11
258.5349204736
 21
322.1589440651
 31
0.0
 12
259.5349204736
 22
322.1589440651
 32
0.0
 13
259.5349204736
 23
322.1589440651
 33
0.0
  0
SOLID
  5
3FA
330
3F6
100
AcDbEntity
  8
SLD-0
100
AcDbTrace
 10
259.0349204736
 20
232.1589440651
 30
0.0
 11
259.5349204736
 21
236.1589440651
 31
0.0
 12
258.5349204736
 22
236.1589440651
 32
0.0
 13
258.5349204736
 23
236.1589440651
 33
0.0
  0
LINE
  5
3FB
330
3F6
100
AcDbEntity
  8
SLD-0
100
AcDbLine
 10
274.6138246236
 20
326.1589440651
 30
0.0
 11
257.0349204736
 21
326.1589440651
 31
0.0
  0
LINE
  5
3FC
330
3F6
100
AcDbEntity
  8
SLD-0
100
AcDbLine
 10
274.6138246236
 20
232.1589440651
 30
0.0
 11
257.0349204736
 21
232.1589440651
 31
0.0
  0
LINE
  5
3FD
330
3F6
100
AcDbEntity
  8
SLD-0
100
AcDbLine
 10
259.0349204736
 20
326.1589440651
 30
0.0
 11
259.0349204736
 21
232.1589440651
 31
0.0
  0
MTEXT
  5
3FE
330
3F6
100
AcDbEntity
  8
SLD-0
100
AcDbMText
 10
252.589582124
 20
275.3394996155
 30
0.0
 40
5.0
 41
0.0
 71
     1
 72
     1
  1
94
  7
SLDTEXTSTYLE0
 11
-7.044195017643634E-15
 21
1.0
 31
0.0
 73
     1
 44
1.0
  0
ENDBLK
  5
3F8
330
3F6
100
AcDbEntity
  8
0
100
AcDbBlockEnd
  0
BLOCK
  5
401
330
400
100
AcDbEntity
  8
0
100
AcDbBlockBegin
  2
_D_25
 70
     0
 10
0.0
 20
0.0
 30
0.0
  3
_D_25
  1

  0
SOLID
  5
403
330
400
100
AcDbEntity
  8
SLD-0
100
AcDbTrace
 10
276.6138246236
 20
214.0481423512
 30
0.0
 11
280.6138246236
 21
213.5481423512
 31
0.0
 12
280.6138246236
 22
214.5481423512
 32
0.0
 13
280.6138246236
 23
214.5481423512
 33
0.0
  0
SOLID
  5
404
330
400
100
AcDbEntity
  8
SLD-0
100
AcDbTrace
 10
372.6138246236
 20
214.0481423512
 30
0.0
 11
368.6138246236
 21
214.5481423512
 31
0.0
 12
368.6138246236
 22
213.5481423512
 32
0.0
 13
368.6138246236
 23
213.5481423512
 33
0.0
  0
LINE
  5
405
330
400
100
AcDbEntity
  8
SLD-0
100
AcDbLine
 10
276.6138246236
 20
238.1589440651
 30
0.0
 11
276.6138246236
 21
212.0481423512
 31
0.0
  0
LINE
  5
406
330
400
100
AcDbEntity
  8
SLD-0
100
AcDbLine
 10
372.6138246236
 20
230.1589440651
 30
0.0
 11
372.6138246236
 21
212.0481423512
 31
0.0
  0
LINE
  5
407
330
400
100
AcDbEntity
  8
SLD-0
100
AcDbLine
 10
276.6138246236
 20
214.0481423512
 30
0.0
 11
372.6138246236
 21
214.0481423512
 31
0.0
  0
MTEXT
  5
408
330
400
100
AcDbEntity
  8
SLD-0
100
AcDbMText
 10
320.794380174
 20
220.4934807008
 30
0.0
 40
5.0
 41
0.0
 71
     1
 72
     1
  1
96
  7
SLDTEXTSTYLE0
 73
     1
 44
1.0
  0
ENDBLK
  5
402
330
400
100
AcDbEntity
  8
0
100
AcDbBlockEnd
  0
ENDSEC
  0
SECTION
  2
ENTITIES
  0
HATCH
  5
76
330
1F
100
AcDbEntity
  8
DIM
 62
     7
100
AcDbHatch
 10
0.0
 20
0.0
 30
0.0
210
0.0
220
0.0
230
1.0
  2
SOLID
 70
     1
 71
     0
 91
        1
 92
        0
 93
       10
 72
     2
 10
384.4631085683091
 20
71.19484001518221
 40
6.091502791462495
 50
249.2112209143416
 51
308.9221353953371
 73
     1
 72
     1
 10
388.2901784907782
 20
66.45564788287446
 11
390.2198178132124
 21
64.76107431558977
 72
     1
 10
390.2198178132124
 20
64.76107431558977
 11
383.7995378669008
 21
58.52699489006495
 72
     1
 10
383.7995378669008
 20
58.52699489006495
 11
381.9179369559129
 21
60.14698903028496
 72
     1
 10
381.9179369559129
 20
60.14698903028496
 11
383.1800407967432
 21
61.37878981122701
 72
     1
 10
383.1800407967432
 20
61.37878981122701
 11
375.161636176352
 21
68.34799749177638
 72
     2
 10
377.1915190354334
 20
70.6431182432974
 40
3.063984935611617
 50
131.4906380929589
 51
229.7089352075135
 73
     0
 72
     1
 10
375.2101293404023
 20
72.98023154009749
 11
377.8233858501657
 21
75.50340569311253
 72
     1
 10
377.8233858501657
 20
75.50340569311253
 11
379.8537735449706
 21
73.71234189147695
 72
     2
 10
383.800314151716
 20
70.41755651668737
 40
5.141088739422567
 50
140.1430462780655
 51
253.045252507401
 73
     1
 97
        0
 75
     0
 76
     1
 98
        1
 10
0.0
 20
0.0
  0
HATCH
  5
77
330
1F
100
AcDbEntity
  8
DIM
 62
     1
100
AcDbHatch
 10
0.0
 20
0.0
 30
0.0
210
0.0
220
0.0
230
1.0
  2
SOLID
 70
     1
 71
     0
 91
        1
 92
        0
 93
       10
 72
     2
 10
384.7294394462368
 20
69.68644073777813
 40
6.363273409055741
 50
234.1674444878509
 51
314.440707458399
 73
     0
 72
     2
 10
385.3647520276858
 20
70.76808434873448
 40
5.1551349766925
 50
317.818499299578
 51
398.0564711573081
 73
     0
 72
     1
 10
389.4239237137807
 20
67.59026405005119
 11
391.3948214997463
 21
65.87287017027221
 72
     1
 10
391.3948214997463
 20
65.87287017027221
 11
393.8781841293338
 21
68.28173605508665
 72
     2
 10
392.0913994780096
 20
70.73762951872851
 40
3.037105874836531
 50
306.0377529468128
 51
403.4396461533869
 73
     1
 72
     1
 10
394.2966392073542
 20
72.82591346280479
 11
386.0431274906676
 21
80.00426600007269
 72
     1
 10
386.0431274906676
 20
80.00426600007269
 11
387.2916300945222
 21
81.22238286174733
 72
     1
 10
387.2916300945222
 20
81.22238286174733
 11
385.430617074154
 21
82.88276730143642
 72
     1
 10
385.430617074154
 20
82.88276730143642
 11
378.9594461773344
 21
76.62892680820819
 72
     1
 10
378.9594461773344
 20
76.62892680820819
 11
381.0042619320315
 21
74.8453457539666
 97
        0
 75
     0
 76
     1
 98
        1
 10
0.0
 20
0.0
  0
LINE
  5
78
330
1F
100
AcDbEntity
  8
0
  6
Continuous
 62
     7
370
     0
100
AcDbLine
 10
335.718755037
 20
35.5490385025
 30
0.0
 11
337.718755037
 21
35.5490385025
 31
0.0
  0
LINE
  5
79
330
1F
100
AcDbEntity
  8
0
  6
Continuous
 62
     7
370
     0
100
AcDbLine
 10
329.718755037
 20
35.5490385025
 30
0.0
 11
334.718755037
 21
35.5490385025
 31
0.0
  0
LINE
  5
7A
330
1F
100
AcDbEntity
  8
0
  6
Continuous
 62
     7
370
     0
100
AcDbLine
 10
362.718755037
 20
30.5490385025
 30
0.0
 11
362.718755037
 21
40.5490385025
 31
0.0
  0
LINE
  5
7B
330
1F
100
AcDbEntity
  8
0
  6
Continuous
 62
     7
370
     0
100
AcDbLine
 10
348.718755037
 20
32.5490385025
 30
0.0
 11
362.718755037
 21
30.5490385025
 31
0.0
  0
LINE
  5
7C
330
1F
100
AcDbEntity
  8
0
  6
Continuous
 62
     7
370
     0
100
AcDbLine
 10
336.718755037
 20
33.5490385025
 30
0.0
 11
336.718755037
 21
28.5490385025
 31
0.0
  0
LINE
  5
7D
330
1F
100
AcDbEntity
  8
0
  6
Continuous
 62
     7
370
     0
100
AcDbLine
 10
362.718755037
 20
40.5490385025
 30
0.0
 11
348.718755037
 21
38.5490385025
 31
0.0
  0
LINE
  5
7E
330
1F
100
AcDbEntity
  8
0
  6
Continuous
 62
     7
370
     0
100
AcDbLine
 10
346.718755037
 20
35.5490385025
 30
0.0
 11
364.718755037
 21
35.5490385025
 31
0.0
  0
LINE
  5
7F
330
1F
100
AcDbEntity
  8
0
  6
Continuous
 62
     7
370
     0
100
AcDbLine
 10
336.718755037
 20
36.5490385025
 30
0.0
 11
336.718755037
 21
34.5490385025
 31
0.0
  0
LINE
  5
80
330
1F
100
AcDbEntity
  8
0
  6
Continuous
 62
     7
370
     0
100
AcDbLine
 10
338.718755037
 20
35.5490385025
 30
0.0
 11
343.718755037
 21
35.5490385025
 31
0.0
  0
LINE
  5
81
330
1F
100
AcDbEntity
  8
0
  6
Continuous
 62
     7
370
     0
100
AcDbLine
 10
336.718755037
 20
42.5490385025
 30
0.0
 11
336.718755037
 21
37.5490385025
 31
0.0
  0
LINE
  5
82
330
1F
100
AcDbEntity
  8
0
  6
Continuous
 62
     7
370
     0
100
AcDbLine
 10
348.718755037
 20
38.5490385025
 30
0.0
 11
348.718755037
 21
32.5490385025
 31
0.0
  0
LINE
  5
83
330
1F
100
AcDbEntity
  8
0
370
     0
100
AcDbLine
 10
390.2198178132
 20
64.7610743156
 30
0.0
 11
383.7995378669
 21
58.5269948901
 31
0.0
  0
LINE
  5
84
330
1F
100
AcDbEntity
  8
0
370
     0
100
AcDbLine
 10
383.7995378669
 20
58.5269948901
 30
0.0
 11
381.9179369559
 21
60.1469890303
 31
0.0
  0
LINE
  5
85
330
1F
100
AcDbEntity
  8
0
370
     0
100
AcDbLine
 10
381.9179369559
 20
60.1469890303
 30
0.0
 11
383.1800407967
 21
61.3787898112
 31
0.0
  0
LINE
  5
86
330
1F
100
AcDbEntity
  8
0
370
     0
100
AcDbLine
 10
375.1616361764
 20
68.3479974918
 30
0.0
 11
383.1800407967
 21
61.3787898112
 31
0.0
  0
LINE
  5
87
330
1F
100
AcDbEntity
  8
0
370
     0
100
AcDbLine
 10
377.8233858502
 20
75.5034056931
 30
0.0
 11
375.2101293404
 21
72.9802315401
 31
0.0
  0
LINE
  5
88
330
1F
100
AcDbEntity
  8
0
370
     0
100
AcDbLine
 10
377.8233858502
 20
75.5034056931
 30
0.0
 11
379.853773545
 21
73.7123418915
 31
0.0
  0
LINE
  5
89
330
1F
100
AcDbEntity
  8
0
370
     0
100
AcDbLine
 10
388.2901784908
 20
66.4556478829
 30
0.0
 11
390.2198178132
 21
64.7610743156
 31
0.0
  0
LINE
  5
8A
330
1F
100
AcDbEntity
  8
0
 62
     1
370
     0
100
AcDbLine
 10
381.004261932
 20
74.845345754
 30
0.0
 11
378.9594461773
 21
76.6289268082
 31
0.0
  0
LINE
  5
8B
330
1F
100
AcDbEntity
  8
0
 62
     1
370
     0
100
AcDbLine
 10
378.9594461773
 20
76.6289268082
 30
0.0
 11
385.4306170742
 21
82.8827673014
 31
0.0
  0
LINE
  5
8C
330
1F
100
AcDbEntity
  8
0
 62
     1
370
     0
100
AcDbLine
 10
385.4306170742
 20
82.8827673014
 30
0.0
 11
387.2916300945
 21
81.2223828617
 31
0.0
  0
LINE
  5
8D
330
1F
100
AcDbEntity
  8
0
 62
     1
370
     0
100
AcDbLine
 10
387.2916300945
 20
81.2223828617
 30
0.0
 11
386.0431274907
 21
80.0042660001
 31
0.0
  0
LINE
  5
8E
330
1F
100
AcDbEntity
  8
0
 62
     1
370
     0
100
AcDbLine
 10
386.0431274907
 20
80.0042660001
 30
0.0
 11
394.2966392074
 21
72.8259134628
 31
0.0
  0
LINE
  5
8F
330
1F
100
AcDbEntity
  8
0
 62
     1
370
     0
100
AcDbLine
 10
389.4239237138
 20
67.5902640501
 30
0.0
 11
391.3948214997
 21
65.8728701703
 31
0.0
  0
LINE
  5
90
330
1F
100
AcDbEntity
  8
0
 62
     1
370
     0
100
AcDbLine
 10
391.3948214997
 20
65.8728701703
 30
0.0
 11
393.8781841293
 21
68.2817360551
 31
0.0
  0
LINE
  5
91
330
1F
100
AcDbEntity
  8
0
  6
Continuous
 62
     7
370
     0
100
AcDbLine
 10
371.3815930419
 20
26.2304928158
 30
0.0
 11
571.3815930419
 21
26.2304928158
 31
0.0
  0
LINE
  5
92
330
1F
100
AcDbEntity
  8
0
  6
Continuous
 62
     7
370
     0
100
AcDbLine
 10
371.3815930419
 20
36.2304928158
 30
0.0
 11
471.3815930419
 21
36.2304928158
 31
0.0
  0
LINE
  5
93
330
1F
100
AcDbEntity
  8
0
  6
Continuous
 62
     7
370
     0
100
AcDbLine
 10
371.3815930419
 20
46.2304928158
 30
0.0
 11
471.3815930419
 21
46.2304928158
 31
0.0
  0
LINE
  5
94
330
1F
100
AcDbEntity
  8
0
  6
Continuous
 62
     7
370
     0
100
AcDbLine
 10
371.3815930419
 20
56.2304928158
 30
0.0
 11
571.3815930419
 21
56.2304928158
 31
0.0
  0
LINE
  5
95
330
1F
100
AcDbEntity
  8
0
  6
Continuous
 62
     7
370
     0
100
AcDbLine
 10
471.3815930419
 20
66.2304928158
 30
0.0
 11
571.3815930419
 21
66.2304928158
 31
0.0
  0
LINE
  5
96
330
1F
100
AcDbEntity
  8
0
  6
Continuous
 62
     7
370
    15
100
AcDbLine
 10
471.3815930419
 20
36.2304928158
 30
0.0
 11
571.3815930419
 21
36.2304928158
 31
0.0
  0
LINE
  5
97
330
1F
100
AcDbEntity
  8
0
  6
Continuous
 62
     7
370
     0
100
AcDbLine
 10
371.3815930419
 20
86.2304928158
 30
0.0
 11
571.3815930419
 21
86.2304928158
 31
0.0
  0
LINE
  5
98
330
1F
100
AcDbEntity
  8
0
  6
Continuous
 62
     7
370
     0
100
AcDbLine
 10
502.4744353501
 20
16.2304928158
 30
0.0
 11
502.4744353501
 21
36.2304928158
 31
0.0
  0
LINE
  5
99
330
1F
100
AcDbEntity
  8
0
  6
Continuous
 62
     7
370
     0
100
AcDbLine
 10
471.3815930419
 20
16.2304928158
 30
0.0
 11
471.3815930419
 21
86.2304928158
 31
0.0
  0
LINE
  5
9A
330
1F
100
AcDbEntity
  8
0
  6
Continuous
 62
     7
370
     0
100
AcDbLine
 10
502.4744353501
 20
56.2304928158
 30
0.0
 11
502.4744353501
 21
66.2304928158
 31
0.0
  0
LINE
  5
9B
330
1F
100
AcDbEntity
  8
0
  6
Continuous
 62
     7
370
     0
100
AcDbLine
 10
428.8328172706
 20
16.2304928158
 30
0.0
 11
428.8328172706
 21
56.2304928158
 31
0.0
  0
LINE
  5
9C
330
1F
100
AcDbEntity
  8
0
  6
Continuous
 62
     7
370
     0
100
AcDbLine
 10
399.5571775011
 20
16.2304928158
 30
0.0
 11
399.5571775011
 21
56.2304928158
 31
0.0
  0
LINE
  5
9D
330
1F
100
AcDbEntity
  8
0
  6
Continuous
 62
     7
370
     0
100
AcDbLine
 10
371.3815930419
 20
16.2304928158
 30
0.0
 11
371.3815930419
 21
86.2304928158
 31
0.0
  0
LINE
  5
9E
330
1F
100
AcDbEntity
  8
0
  6
Continuous
 62
     7
370
    15
100
AcDbLine
 10
17.3815930419
 20
209.487273983
 30
0.0
 11
29.3815930419
 21
209.487273983
 31
0.0
  0
LINE
  5
9F
330
1F
100
AcDbEntity
  8
0
  6
Continuous
 62
     7
370
    15
100
AcDbLine
 10
571.3815930419
 20
209.487273983
 30
0.0
 11
559.3815930419
 21
209.487273983
 31
0.0
  0
LINE
  5
A0
330
1F
100
AcDbEntity
  8
0
  6
Continuous
 62
     7
370
    15
100
AcDbLine
 10
294.3815930419
 20
16.2304928158
 30
0.0
 11
294.3815930419
 21
28.2304928158
 31
0.0
  0
LINE
  5
A1
330
1F
100
AcDbEntity
  8
0
  6
Continuous
 62
     7
370
    15
100
AcDbLine
 10
294.3815930419
 20
402.7440551501
 30
0.0
 11
294.3815930419
 21
390.7440551501
 31
0.0
  0
LINE
  5
A2
330
1F
100
AcDbEntity
  8
0
  6
Continuous
 62
     7
370
    15
100
AcDbLine
 10
86.6415930419
 20
402.7440551501
 30
0.0
 11
86.6415930419
 21
405.7440551501
 31
0.0
  0
LINE
  5
A3
330
1F
100
AcDbEntity
  8
0
  6
Continuous
 62
     7
370
    15
100
AcDbLine
 10
155.9015930419
 20
402.7440551501
 30
0.0
 11
155.9015930419
 21
405.7440551501
 31
0.0
  0
LINE
  5
A4
330
1F
100
AcDbEntity
  8
0
  6
Continuous
 62
     7
370
    15
100
AcDbLine
 10
225.1615930419
 20
402.7440551501
 30
0.0
 11
225.1615930419
 21
405.7440551501
 31
0.0
  0
LINE
  5
A5
330
1F
100
AcDbEntity
  8
0
  6
Continuous
 62
     7
370
    15
100
AcDbLine
 10
294.4215930419
 20
402.7440551501
 30
0.0
 11
294.4215930419
 21
405.7440551501
 31
0.0
  0
LINE
  5
A6
330
1F
100
AcDbEntity
  8
0
  6
Continuous
 62
     7
370
    15
100
AcDbLine
 10
363.6815930419
 20
402.7440551501
 30
0.0
 11
363.6815930419
 21
405.7440551501
 31
0.0
  0
LINE
  5
A7
330
1F
100
AcDbEntity
  8
0
  6
Continuous
 62
     7
370
    15
100
AcDbLine
 10
432.9415930419
 20
402.7440551501
 30
0.0
 11
432.9415930419
 21
405.7440551501
 31
0.0
  0
LINE
  5
A8
330
1F
100
AcDbEntity
  8
0
  6
Continuous
 62
     7
370
    15
100
AcDbLine
 10
502.2015930419
 20
402.7440551501
 30
0.0
 11
502.2015930419
 21
405.7440551501
 31
0.0
  0
LINE
  5
A9
330
1F
100
AcDbEntity
  8
0
  6
Continuous
 62
     7
370
    15
100
AcDbLine
 10
86.6315930419
 20
16.2304928158
 30
0.0
 11
86.6315930419
 21
13.2304928158
 31
0.0
  0
LINE
  5
AA
330
1F
100
AcDbEntity
  8
0
  6
Continuous
 62
     7
370
    15
100
AcDbLine
 10
155.8815930419
 20
16.2304928158
 30
0.0
 11
155.8815930419
 21
13.2304928158
 31
0.0
  0
LINE
  5
AB
330
1F
100
AcDbEntity
  8
0
  6
Continuous
 62
     7
370
    15
100
AcDbLine
 10
225.1315930419
 20
16.2304928158
 30
0.0
 11
225.1315930419
 21
13.2304928158
 31
0.0
  0
LINE
  5
AC
330
1F
100
AcDbEntity
  8
0
  6
Continuous
 62
     7
370
    15
100
AcDbLine
 10
294.3815930419
 20
16.2304928158
 30
0.0
 11
294.3815930419
 21
13.2304928158
 31
0.0
  0
LINE
  5
AD
330
1F
100
AcDbEntity
  8
0
  6
Continuous
 62
     7
370
    15
100
AcDbLine
 10
363.6315930419
 20
16.2304928158
 30
0.0
 11
363.6315930419
 21
13.2304928158
 31
0.0
  0
LINE
  5
AE
330
1F
100
AcDbEntity
  8
0
  6
Continuous
 62
     7
370
    15
100
AcDbLine
 10
432.8815930419
 20
16.2304928158
 30
0.0
 11
432.8815930419
 21
13.2304928158
 31
0.0
  0
LINE
  5
AF
330
1F
100
AcDbEntity
  8
0
  6
Continuous
 62
     7
370
     0
100
AcDbLine
 10
571.3815930419
 20
402.7440551501
 30
0.0
 11
17.3815930419
 21
402.7440551501
 31
0.0
  0
LINE
  5
B0
330
1F
100
AcDbEntity
  8
0
  6
Continuous
 62
     7
370
     0
100
AcDbLine
 10
571.3815930419
 20
16.2304928158
 30
0.0
 11
571.3815930419
 21
402.7440551501
 31
0.0
  0
LINE
  5
B1
330
1F
100
AcDbEntity
  8
0
  6
Continuous
 62
     7
370
     0
100
AcDbLine
 10
17.3815930419
 20
402.7440551501
 30
0.0
 11
17.3815930419
 21
16.2304928158
 31
0.0
  0
LINE
  5
B2
330
1F
100
AcDbEntity
  8
0
  6
Continuous
 62
     7
370
     0
100
AcDbLine
 10
17.3815930419
 20
16.2304928158
 30
0.0
 11
571.3815930419
 21
16.2304928158
 31
0.0
  0
LINE
  5
B3
330
1F
100
AcDbEntity
  8
0
  6
Continuous
 62
     7
370
    15
100
AcDbLine
 10
502.1315930419
 20
16.2304928158
 30
0.0
 11
502.1315930419
 21
13.2304928158
 31
0.0
  0
LINE
  5
B4
330
1F
100
AcDbEntity
  8
0
  6
Continuous
 62
     7
370
    15
100
AcDbLine
 10
17.3815930419
 20
80.6504928158
 30
0.0
 11
14.3815930419
 21
80.6504928158
 31
0.0
  0
LINE
  5
B5
330
1F
100
AcDbEntity
  8
0
  6
Continuous
 62
     7
370
    15
100
AcDbLine
 10
17.3815930419
 20
145.0704928158
 30
0.0
 11
14.3815930419
 21
145.0704928158
 31
0.0
  0
LINE
  5
B6
330
1F
100
AcDbEntity
  8
0
  6
Continuous
 62
     7
370
    15
100
AcDbLine
 10
17.3815930419
 20
209.4904928158
 30
0.0
 11
14.3815930419
 21
209.4904928158
 31
0.0
  0
LINE
  5
B7
330
1F
100
AcDbEntity
  8
0
  6
Continuous
 62
     7
370
    15
100
AcDbLine
 10
17.3815930419
 20
273.9104928158
 30
0.0
 11
14.3815930419
 21
273.9104928158
 31
0.0
  0
LINE
  5
B8
330
1F
100
AcDbEntity
  8
0
  6
Continuous
 62
     7
370
    15
100
AcDbLine
 10
17.3815930419
 20
338.3304928158
 30
0.0
 11
14.3815930419
 21
338.3304928158
 31
0.0
  0
LINE
  5
B9
330
1F
100
AcDbEntity
  8
0
  6
Continuous
 62
     7
370
    15
100
AcDbLine
 10
571.3815930419
 20
80.6504928158
 30
0.0
 11
574.3815930419
 21
80.6504928158
 31
0.0
  0
LINE
  5
BA
330
1F
100
AcDbEntity
  8
0
  6
Continuous
 62
     7
370
    15
100
AcDbLine
 10
571.3815930419
 20
145.0704928158
 30
0.0
 11
574.3815930419
 21
145.0704928158
 31
0.0
  0
LINE
  5
BB
330
1F
100
AcDbEntity
  8
0
  6
Continuous
 62
     7
370
    15
100
AcDbLine
 10
571.3815930419
 20
209.4904928158
 30
0.0
 11
574.3815930419
 21
209.4904928158
 31
0.0
  0
LINE
  5
BC
330
1F
100
AcDbEntity
  8
0
  6
Continuous
 62
     7
370
    15
100
AcDbLine
 10
571.3815930419
 20
273.9104928158
 30
0.0
 11
574.3815930419
 21
273.9104928158
 31
0.0
  0
LINE
  5
BD
330
1F
100
AcDbEntity
  8
0
  6
Continuous
 62
     7
370
    15
100
AcDbLine
 10
571.3815930419
 20
338.3304928158
 30
0.0
 11
574.3815930419
 21
338.3304928158
 31
0.0
  0
CIRCLE
  5
BE
330
1F
100
AcDbEntity
  8
0
  6
Continuous
 62
     7
370
     0
100
AcDbCircle
 10
336.718755037
 20
35.5490385025
 30
0.0
 40
3.0
  0
CIRCLE
  5
BF
330
1F
100
AcDbEntity
  8
0
  6
Continuous
 62
     7
370
     0
100
AcDbCircle
 10
336.718755037
 20
35.5490385025
 30
0.0
 40
5.0
  0
ARC
  5
C0
330
1F
100
AcDbEntity
  8
0
370
     0
100
AcDbCircle
 10
377.1915190354
 20
70.6431182433
 30
0.0
 40
3.063984935611642
100
AcDbArc
 50
130.2910647925
 51
228.509361907
  0
ARC
  5
C1
330
1F
100
AcDbEntity
  8
0
370
     0
100
AcDbCircle
 10
383.8003141517
 20
70.4175565167
 30
0.0
 40
5.141088739422572
100
AcDbArc
 50
140.1430462781
 51
253.0452525074
  0
ARC
  5
C2
330
1F
100
AcDbEntity
  8
0
370
     0
100
AcDbCircle
 10
384.4631085683
 20
71.1948400152
 30
0.0
 40
6.091502791462521
100
AcDbArc
 50
249.2112209143
 51
308.9221353953
  0
ARC
  5
C3
330
1F
100
AcDbEntity
  8
0
 62
     1
370
     0
100
AcDbCircle
 10
392.091399478
 20
70.7376295187
 30
0.0
 40
3.03710587483655
100
AcDbArc
 50
306.0377529468
 51
43.4396461534
  0
ARC
  5
C4
330
1F
100
AcDbEntity
  8
0
 62
     1
370
     0
100
AcDbCircle
 10
384.7294394462
 20
69.6864407378
 30
0.0
 40
6.363273409055741
100
AcDbArc
 50
45.5592925416
 51
125.8325555121
  0
ARC
  5
C5
330
1F
100
AcDbEntity
  8
0
 62
     1
370
     0
100
AcDbCircle
 10
385.3647520277
 20
70.7680843487
 30
0.0
 40
5.155134976692501
100
AcDbArc
 50
321.9435288427
 51
42.1815007004
  0
MTEXT
  5
C7
330
1F
100
AcDbEntity
  8
0
  6
Continuous
 62
     7
370
     0
100
AcDbMText
 10
331.0853701609
 20
26.4416880738
 30
0.0
 40
5.2916666667
 41
0.0
 71
     1
 72
     1
  1
UNIT:m/m
  7
SLDTEXTSTYLE0
 73
     1
 44
1.0
  0
INSERT
  5
CE
330
1F
100
AcDbEntity
  8
0
  6
Continuous
 62
     7
370
     0
100
AcDbBlockReference
  2
SW_NOTE_0
 10
24.4630152107
 20
387.7808608502
 30
0.0
  0
MTEXT
  5
CF
330
1F
100
AcDbEntity
  8
0
  6
Continuous
 62
     7
370
     0
100
AcDbMText
 10
397.450378787
 20
80.8813548277
 30
0.0
 40
4.7625
 41
0.0
 71
     1
 72
     1
  1
Unice E-O Services Inc.
  7
SLDTEXTSTYLE0
 73
     1
 44
1.0
  0
MTEXT
  5
D0
330
1F
100
AcDbEntity
  8
0
  6
Continuous
 62
     7
370
     0
100
AcDbMText
 10
435.1181076299
 20
43.1734297022
 30
0.0
 40
3.7041666667
 41
0.0
 71
     1
 72
     1
  1
2018/4/13
  7
SLDTEXTSTYLE0
 73
     1
 44
1.0
  0
MTEXT
  5
D1
330
1F
100
AcDbEntity
  8
0
  6
Continuous
 62
     7
370
     0
100
AcDbMText
 10
505.2177965014
 20
33.74235548
 30
0.0
 40
5.0
 41
0.0
 71
     1
 72
     1
  1
1:2
  7
SLDTEXTSTYLE0
 73
     1
 44
1.0
  0
MTEXT
  5
D2
330
1F
100
AcDbEntity
  8
0
  6
Continuous
 62
     7
370
     0
100
AcDbMText
 10
504.6151199969
 20
64.3038390875
 30
0.0
 40
5.0
 41
0.0
 71
     1
 72
     1
  1
06ABK-2M
  7
SLDTEXTSTYLE0
 73
     1
 44
1.0
  0
MTEXT
  5
D3
330
1F
100
AcDbEntity
  8
0
  6
Continuous
 62
     7
370
     0
100
AcDbMText
 10
504.6151199969
 20
76.2164235757
 30
0.0
 40
5.0
 41
0.0
 71
     1
 72
     1
  1
06ABK-2M
  7
SLDTEXTSTYLE0
 73
     1
 44
1.0
  0
MTEXT
  5
D4
330
1F
100
AcDbEntity
  8
0
  6
Continuous
 62
     7
370
     0
100
AcDbMText
 10
472.7843733573
 20
33.0129591457
 30
0.0
 40
4.2333333333
 41
0.0
 71
     1
 72
     1
  1
SCALE:
  7
SLDTEXTSTYLE0
 73
     1
 44
1.0
  0
MTEXT
  5
D5
330
1F
100
AcDbEntity
  8
0
  6
Continuous
 62
     7
370
     0
100
AcDbMText
 10
372.6672173579
 20
43.1734297022
 30
0.0
 40
3.7041666667
 41
0.0
 71
     1
 72
     1
  1
DRAWN
  7
SLDTEXTSTYLE0
 73
     1
 44
1.0
  0
MTEXT
  5
D6
330
1F
100
AcDbEntity
  8
0
  6
Continuous
 62
     7
370
     0
100
AcDbMText
 10
406.4456735874
 20
53.366416616
 30
0.0
 40
3.7041666667
 41
0.0
 71
     1
 72
     1
  1
NAME
  7
SLDTEXTSTYLE0
 73
     1
 44
1.0
  0
MTEXT
  5
D7
330
1F
100
AcDbEntity
  8
0
  6
Continuous
 62
     7
370
     0
100
AcDbMText
 10
441.7420311515
 20
53.366416616
 30
0.0
 40
3.7041666667
 41
0.0
 71
     1
 72
     1
  1
DATE
  7
SLDTEXTSTYLE0
 73
     1
 44
1.0
  0
MTEXT
  5
D8
330
1F
100
AcDbEntity
  8
0
  6
Continuous
 62
     7
370
     0
100
AcDbMText
 10
472.551263329
 20
63.5744427532
 30
0.0
 40
4.2333333333
 41
0.0
 71
     1
 72
     1
  1
DWG. NO.
  7
SLDTEXTSTYLE0
 73
     1
 44
1.0
  0
MTEXT
  5
D9
330
1F
100
AcDbEntity
  8
0
  6
Continuous
 62
     7
370
     0
100
AcDbMText
 10
472.7259814177
 20
83.7681316486
 30
0.0
 40
4.2333333333
 41
0.0
 71
     1
 72
     1
  1
TITLE:
  7
SLDTEXTSTYLE0
 73
     1
 44
1.0
  0
MTEXT
  5
DA
330
1F
100
AcDbEntity
  8
0
  6
Continuous
 62
     7
370
     0
100
AcDbMText
 10
406.0628419604
 20
32.4807579448
 30
0.0
 40
3.7041666667
 41
0.0
 71
     1
 72
     1
  1
Johnny
  7
SLDTEXTSTYLE0
 73
     1
 44
1.0
  0
MTEXT
  5
DB
330
1F
100
AcDbEntity
  8
0
  6
Continuous
 62
     7
370
     0
100
AcDbMText
 10
372.6672173579
 20
32.4807579448
 30
0.0
 40
3.7041666667
 41
0.0
 71
     1
 72
     1
  1
ENG APPR.
  7
SLDTEXTSTYLE0
 73
     1
 44
1.0
  0
MTEXT
  5
DC
330
1F
100
AcDbEntity
  8
0
  6
Continuous
 62
     7
370
     0
100
AcDbMText
 10
472.7843733573
 20
23.3706778575
 30
0.0
 40
4.2333333333
 41
0.0
 71
     1
 72
     1
  1
REV
  7
SLDTEXTSTYLE0
 73
     1
 44
1.0
  0
MTEXT
  5
DD
330
1F
100
AcDbEntity
  8
0
  6
Continuous
 62
     7
370
     0
100
AcDbMText
 10
472.7259814177
 20
53.8986178169
 30
0.0
 40
4.2333333333
 41
0.0
 71
     1
 72
     1
  1
MATERIAL:
  7
SLDTEXTSTYLE0
 73
     1
 44
1.0
  0
MTEXT
  5
DE
330
1F
100
AcDbEntity
  8
0
  6
Continuous
 62
     7
370
     0
100
AcDbMText
 10
505.2177965014
 20
44.4350272373
 30
0.0
 40
5.0
 41
0.0
 71
     1
 72
     1
  1
N/A
  7
SLDTEXTSTYLE0
 73
     1
 44
1.0
  0
MTEXT
  5
DF
330
1F
100
AcDbEntity
  8
0
  6
Continuous
 62
     7
370
     0
100
AcDbMText
 10
53.2059863066
 20
408.9067033139
 30
0.0
 40
4.2333333333
 41
0.0
 71
     1
 72
     1
  1
1
  7
SLDTEXTSTYLE0
 73
     1
 44
1.0
  0
MTEXT
  5
E0
330
1F
100
AcDbEntity
  8
0
  6
Continuous
 62
     7
370
     0
100
AcDbMText
 10
121.4341991448
 20
408.9067033139
 30
0.0
 40
4.2333333333
 41
0.0
 71
     1
 72
     1
  1
2
  7
SLDTEXTSTYLE0
 73
     1
 44
1.0
  0
MTEXT
  5
E1
330
1F
100
AcDbEntity
  8
0
  6
Continuous
 62
     7
370
     0
100
AcDbMText
 10
189.8019887812
 20
408.9067033139
 30
0.0
 40
4.2333333333
 41
0.0
 71
     1
 72
     1
  1
3
  7
SLDTEXTSTYLE0
 73
     1
 44
1.0
  0
MTEXT
  5
E2
330
1F
100
AcDbEntity
  8
0
  6
Continuous
 62
     7
370
     0
100
AcDbMText
 10
258.5066725702
 20
408.5985168729
 30
0.0
 40
4.2333333333
 41
0.0
 71
     1
 72
     1
  1
4
  7
SLDTEXTSTYLE0
 73
     1
 44
1.0
  0
MTEXT
  5
E3
330
1F
100
AcDbEntity
  8
0
  6
Continuous
 62
     7
370
     0
100
AcDbMText
 10
327.4046469279
 20
408.9067033139
 30
0.0
 40
4.2333333333
 41
0.0
 71
     1
 72
     1
  1
5
  7
SLDTEXTSTYLE0
 73
     1
 44
1.0
  0
MTEXT
  5
E4
330
1F
100
AcDbEntity
  8
0
  6
Continuous
 62
     7
370
     0
100
AcDbMText
 10
397.276434083
 20
408.9067033139
 30
0.0
 40
4.2333333333
 41
0.0
 71
     1
 72
     1
  1
6
  7
SLDTEXTSTYLE0
 73
     1
 44
1.0
  0
MTEXT
  5
E5
330
1F
100
AcDbEntity
  8
0
  6
Continuous
 62
     7
370
     0
100
AcDbMText
 10
468.7261314813
 20
408.9067033139
 30
0.0
 40
4.2333333333
 41
0.0
 71
     1
 72
     1
  1
7
  7
SLDTEXTSTYLE0
 73
     1
 44
1.0
  0
MTEXT
  5
E6
330
1F
100
AcDbEntity
  8
0
  6
Continuous
 62
     7
370
     0
100
AcDbMText
 10
532.5575640988
 20
408.9067033139
 30
0.0
 40
4.2333333333
 41
0.0
 71
     1
 72
     1
  1
8
  7
SLDTEXTSTYLE0
 73
     1
 44
1.0
  0
MTEXT
  5
E7
330
1F
100
AcDbEntity
  8
0
  6
Continuous
 62
     7
370
     0
100
AcDbMText
 10
10.7136473109
 20
371.6226045758
 30
0.0
 40
4.2333333333
 41
0.0
 71
     1
 72
     1
  1
A
  7
SLDTEXTSTYLE0
 73
     1
 44
1.0
  0
MTEXT
  5
E8
330
1F
100
AcDbEntity
  8
0
  6
Continuous
 62
     7
370
     0
100
AcDbMText
 10
11.1820863662
 20
308.5986096476
 30
0.0
 40
4.2333333333
 41
0.0
 71
     1
 72
     1
  1
B
  7
SLDTEXTSTYLE0
 73
     1
 44
1.0
  0
MTEXT
  5
E9
330
1F
100
AcDbEntity
  8
0
  6
Continuous
 62
     7
370
     0
100
AcDbMText
 10
11.1820863662
 20
242.548702846
 30
0.0
 40
4.2333333333
 41
0.0
 71
     1
 72
     1
  1
C
  7
SLDTEXTSTYLE0
 73
     1
 44
1.0
  0
MTEXT
  5
EA
330
1F
100
AcDbEntity
  8
0
  6
Continuous
 62
     7
370
     0
100
AcDbMText
 10
11.1820863662
 20
177.4906440442
 30
0.0
 40
4.2333333333
 41
0.0
 71
     1
 72
     1
  1
D
  7
SLDTEXTSTYLE0
 73
     1
 44
1.0
  0
MTEXT
  5
EB
330
1F
100
AcDbEntity
  8
0
  6
Continuous
 62
     7
370
     0
100
AcDbMText
 10
11.1820863662
 20
115.1117698394
 30
0.0
 40
4.2333333333
 41
0.0
 71
     1
 72
     1
  1
E
  7
SLDTEXTSTYLE0
 73
     1
 44
1.0
  0
MTEXT
  5
EC
330
1F
100
AcDbEntity
  8
0
  6
Continuous
 62
     7
370
     0
100
AcDbMText
 10
11.1820863662
 20
51.1388424504
 30
0.0
 40
4.2333333333
 41
0.0
 71
     1
 72
     1
  1
F
  7
SLDTEXTSTYLE0
 73
     1
 44
1.0
  0
MTEXT
  5
ED
330
1F
100
AcDbEntity
  8
0
  6
Continuous
 62
     7
370
     0
100
AcDbMText
 10
532.3717233927
 20
13.2472447927
 30
0.0
 40
4.2333333333
 41
0.0
 71
     1
 72
     1
  1
8
  7
SLDTEXTSTYLE0
 73
     1
 44
1.0
  0
MTEXT
  5
EE
330
1F
100
AcDbEntity
  8
0
  6
Continuous
 62
     7
370
     0
100
AcDbMText
 10
468.5402907753
 20
13.2472447927
 30
0.0
 40
4.2333333333
 41
0.0
 71
     1
 72
     1
  1
7
  7
SLDTEXTSTYLE0
 73
     1
 44
1.0
  0
MTEXT
  5
EF
330
1F
100
AcDbEntity
  8
0
  6
Continuous
 62
     7
370
     0
100
AcDbMText
 10
397.090593377
 20
13.2472447927
 30
0.0
 40
4.2333333333
 41
0.0
 71
     1
 72
     1
  1
6
  7
SLDTEXTSTYLE0
 73
     1
 44
1.0
  0
MTEXT
  5
F0
330
1F
100
AcDbEntity
  8
0
  6
Continuous
 62
     7
370
     0
100
AcDbMText
 10
327.2188062219
 20
13.2472447927
 30
0.0
 40
4.2333333333
 41
0.0
 71
     1
 72
     1
  1
5
  7
SLDTEXTSTYLE0
 73
     1
 44
1.0
  0
MTEXT
  5
F1
330
1F
100
AcDbEntity
  8
0
  6
Continuous
 62
     7
370
     0
100
AcDbMText
 10
258.3208318642
 20
12.9390583516
 30
0.0
 40
4.2333333333
 41
0.0
 71
     1
 72
     1
  1
4
  7
SLDTEXTSTYLE0
 73
     1
 44
1.0
  0
MTEXT
  5
F2
330
1F
100
AcDbEntity
  8
0
  6
Continuous
 62
     7
370
     0
100
AcDbMText
 10
189.6161480752
 20
13.2472447927
 30
0.0
 40
4.2333333333
 41
0.0
 71
     1
 72
     1
  1
3
  7
SLDTEXTSTYLE0
 73
     1
 44
1.0
  0
MTEXT
  5
F3
330
1F
100
AcDbEntity
  8
0
  6
Continuous
 62
     7
370
     0
100
AcDbMText
 10
121.2483584388
 20
13.2472447927
 30
0.0
 40
4.2333333333
 41
0.0
 71
     1
 72
     1
  1
2
  7
SLDTEXTSTYLE0
 73
     1
 44
1.0
  0
MTEXT
  5
F4
330
1F
100
AcDbEntity
  8
0
  6
Continuous
 62
     7
370
     0
100
AcDbMText
 10
53.0201456006
 20
13.2472447927
 30
0.0
 40
4.2333333333
 41
0.0
 71
     1
 72
     1
  1
1
  7
SLDTEXTSTYLE0
 73
     1
 44
1.0
  0
MTEXT
  5
F5
330
1F
100
AcDbEntity
  8
0
  6
Continuous
 62
     7
370
     0
100
AcDbMText
 10
574.2047692289
 20
373.2849818183
 30
0.0
 40
4.2333333333
 41
0.0
 71
     1
 72
     1
  1
A
  7
SLDTEXTSTYLE0
 73
     1
 44
1.0
  0
MTEXT
  5
F6
330
1F
100
AcDbEntity
  8
0
  6
Continuous
 62
     7
370
     0
100
AcDbMText
 10
574.6732082842
 20
310.2609868901
 30
0.0
 40
4.2333333333
 41
0.0
 71
     1
 72
     1
  1
B
  7
SLDTEXTSTYLE0
 73
     1
 44
1.0
  0
MTEXT
  5
F7
330
1F
100
AcDbEntity
  8
0
  6
Continuous
 62
     7
370
     0
100
AcDbMText
 10
574.6732082842
 20
244.2110800885
 30
0.0
 40
4.2333333333
 41
0.0
 71
     1
 72
     1
  1
C
  7
SLDTEXTSTYLE0
 73
     1
 44
1.0
  0
MTEXT
  5
F8
330
1F
100
AcDbEntity
  8
0
  6
Continuous
 62
     7
370
     0
100
AcDbMText
 10
574.6732082842
 20
179.1530212866
 30
0.0
 40
4.2333333333
 41
0.0
 71
     1
 72
     1
  1
D
  7
SLDTEXTSTYLE0
 73
     1
 44
1.0
  0
MTEXT
  5
F9
330
1F
100
AcDbEntity
  8
0
  6
Continuous
 62
     7
370
     0
100
AcDbMText
 10
574.6732082842
 20
116.7741470819
 30
0.0
 40
4.2333333333
 41
0.0
 71
     1
 72
     1
  1
E
  7
SLDTEXTSTYLE0
 73
     1
 44
1.0
  0
MTEXT
  5
FA
330
1F
100
AcDbEntity
  8
0
  6
Continuous
 62
     7
370
     0
100
AcDbMText
 10
574.6732082842
 20
52.8012196929
 30
0.0
 40
4.2333333333
 41
0.0
 71
     1
 72
     1
  1
F
  7
SLDTEXTSTYLE0
 73
     1
 44
1.0
  0
MTEXT
  5
FB
330
1F
100
AcDbEntity
  8
0
  6
Continuous
 62
     7
370
     0
100
AcDbMText
 10
406.3106257604
 20
43.1734297022
 30
0.0
 40
3.7041666667
 41
0.0
 71
     1
 72
     1
  1
Sky
  7
SLDTEXTSTYLE0
 73
     1
 44
1.0
  0
MTEXT
  5
FC
330
1F
100
AcDbEntity
  8
0
  6
Continuous
 62
     7
370
     0
100
AcDbMText
 10
505.696447929
 20
24.1000741918
 30
0.0
 40
5.0
 41
0.0
 71
     1
 72
     1
  1
0
  7
SLDTEXTSTYLE0
 73
     1
 44
1.0
  0
INSERT
  5
102
330
1F
100
AcDbEntity
  8
SLD-0
 62
     7
100
AcDbBlockReference
  2
SW_NOTE_1
 10
397.7467384211
 20
67.3530161719
 30
0.0
  0
MTEXT
  5
103
330
1F
100
AcDbEntity
  8
SLD-0
 62
     7
100
AcDbMText
 10
435.1181076299
 20
32.4807579448
 30
0.0
 40
3.7041666667
 41
0.0
 71
     1
 72
     1
  1
2018/4/13
  7
SLDTEXTSTYLE0
 73
     1
 44
1.0
  0
SPLINE
  5
104
330
1F
100
AcDbEntity
  8
0
  6
Continuous
 62
     7
370
    30
100
AcDbSpline
210
0.0
220
0.0
230
1.0
 70
     8
 71
     3
 72
    21
 73
    17
 74
     0
 42
0.000000001
 43
0.00000001
 40
0.0
 40
0.0
 40
0.0
 40
0.0
 40
0.0237655635888477
 40
0.1041278842262707
 40
0.1869585948347493
 40
0.2762803868806296
 40
0.2944191387492214
 40
0.3441167557030149
 40
0.4366313545028265
 40
0.5288770529869878
 40
0.6213625847409368
 40
0.7146842161858675
 40
0.8096760033597108
 40
0.8953188846894778
 40
0.9755366014250644
 40
1.0
 40
1.0
 40
1.0
 40
1.0
 10
475.1050076608457
 20
305.7059817138771
 30
0.0
 10
475.0668254726885
 20
305.6797168102065
 30
0.0
 10
474.8995317136713
 20
305.5646381654936
 30
0.0
 10
474.7189345318894
 20
305.2247465783845
 30
0.0
 10
474.576901450983
 20
304.7290277771309
 30
0.0
 10
474.5735371522801
 20
304.303770850727
 30
0.0
 10
474.6149838885755
 20
303.943644483088
 30
0.0
 10
474.6863611194445
 20
303.5692736259852
 30
0.0
 10
474.8760658991353
 20
303.012692454797
 30
0.0
 10
475.2146915991558
 20
302.3837447835315
 30
0.0
 10
475.6463233275937
 20
301.8230140228274
 30
0.0
 10
476.1478222702992
 20
301.3673039358463
 30
0.0
 10
476.6781625359353
 20
301.0570568703409
 30
0.0
 10
477.1956972562992
 20
300.9241640229995
 30
0.0
 10
477.5859384135281
 20
300.9131491841282
 30
0.0
 10
477.7714392055985
 20
300.9983705367212
 30
0.0
 10
477.8147897163275
 20
301.0182862962102
 30
0.0
  0
SPLINE
  5
105
330
1F
100
AcDbEntity
  8
0
  6
Continuous
 62
     7
370
    30
100
AcDbSpline
210
0.0
220
0.0
230
1.0
 70
     8
 71
     3
 72
    19
 73
    15
 74
     0
 42
0.000000001
 43
0.00000001
 40
0.0
 40
0.0
 40
0.0
 40
0.0
 40
0.0329268506708929
 40
0.1133230802189281
 40
0.1968028294882906
 40
0.286023776512721
 40
0.3784957156350488
 40
0.4709690950169543
 40
0.5633080912158203
 40
0.6561148240655723
 40
0.7500380070663524
 40
0.8458809959426158
 40
0.9293170647671837
 40
1.0
 40
1.0
 40
1.0
 40
1.0
 10
427.0252836757775
 20
304.0675918839585
 30
0.0
 10
426.973582841585
 20
304.0294564179472
 30
0.0
 10
426.7956460616866
 20
303.8982070459017
 30
0.0
 10
426.6141608252101
 20
303.5378143254281
 30
0.0
 10
426.4872479288643
 20
303.0324582887351
 30
0.0
 10
426.4955291127619
 20
302.4375103388612
 30
0.0
 10
426.636120060892
 20
301.7915369246653
 30
0.0
 10
426.9043802549428
 20
301.1397628700837
 30
0.0
 10
427.2795694060164
 20
300.5313279632829
 30
0.0
 10
427.7393081477493
 20
300.0052038409722
 30
0.0
 10
428.2617463004632
 20
299.5937670069583
 30
0.0
 10
428.796995624853
 20
299.3487451004444
 30
0.0
 10
429.3027938426304
 20
299.2608191886947
 30
0.0
 10
429.5957521345825
 20
299.3353928222085
 30
0.0
 10
429.7301103346151
 20
299.3695942066514
 30
0.0
  0
SPLINE
  5
106
330
1F
100
AcDbEntity
  8
0
  6
Continuous
 62
     7
370
    30
100
AcDbSpline
210
0.0
220
0.0
230
1.0
 70
     8
 71
     3
 72
    19
 73
    15
 74
     0
 42
0.000000001
 43
0.00000001
 40
0.0
 40
0.0
 40
0.0
 40
0.0
 40
0.0716149492124219
 40
0.1529248839614715
 40
0.2393990594552777
 40
0.3307874149539053
 40
0.423441928446274
 40
0.5158464117156792
 40
0.6084007173323115
 40
0.7017111560559984
 40
0.7965858497308272
 40
0.8830925289604566
 40
0.9641117156932625
 40
1.0
 40
1.0
 40
1.0
 40
1.0
 10
427.009668435372
 20
333.46657696233
 30
0.0
 10
426.9117538807477
 20
333.3659235785201
 30
0.0
 10
426.7026694358276
 20
333.1509907019527
 30
0.0
 10
426.5351434413335
 20
332.6888272233762
 30
0.0
 10
426.4747383594332
 20
332.1373616621976
 30
0.0
 10
426.5495989690575
 20
331.5116668076026
 30
0.0
 10
426.7563206841363
 20
330.8564368702679
 30
0.0
 10
427.0810876290655
 20
330.2212619222965
 30
0.0
 10
427.5017336324508
 20
329.6494992186902
 30
0.0
 10
427.9953122337823
 20
329.1780435646778
 30
0.0
 10
428.5219698070404
 20
328.848257579245
 30
0.0
 10
429.0412074846325
 20
328.6908621212805
 30
0.0
 10
429.4562158883875
 20
328.6658300092813
 30
0.0
 10
429.6671475019988
 20
328.7524674099287
 30
0.0
 10
429.7318993407928
 20
328.7790633805573
 30
0.0
  0
SPLINE
  5
107
330
1F
100
AcDbEntity
  8
0
  6
Continuous
 62
     7
370
    30
100
AcDbSpline
210
0.0
220
0.0
230
1.0
 70
     8
 71
     3
 72
    19
 73
    15
 74
     0
 42
0.000000001
 43
0.00000001
 40
0.0
 40
0.0
 40
0.0
 40
0.0
 40
0.067050397855121
 40
0.1481373195591839
 40
0.2342062596354681
 40
0.3253516659447759
 40
0.4179774851643786
 40
0.510357106079738
 40
0.6028457955741546
 40
0.6960528533036289
 40
0.7907705726212312
 40
0.8775635200851947
 40
0.958890047581348
 40
0.9999999999999999
 40
0.9999999999999999
 40
0.9999999999999999
 40
0.9999999999999999
 10
475.097195235863
 20
276.3122714930528
 30
0.0
 10
475.0036382172038
 20
276.2199587648446
 30
0.0
 10
474.796938683518
 20
276.0160082954155
 30
0.0
 10
474.6263533315526
 20
275.5668152489714
 30
0.0
 10
474.5577687727624
 20
275.0207571036904
 30
0.0
 10
474.6243532745384
 20
274.3984148313468
 30
0.0
 10
474.8231227906605
 20
273.7436082095064
 30
0.0
 10
475.1412264342177
 20
273.1057954892601
 30
0.0
 10
475.5565796883796
 20
272.5290289298345
 30
0.0
 10
476.0462941773715
 20
272.0503770910751
 30
0.0
 10
476.5711050427836
 20
271.7115158128548
 30
0.0
 10
477.0909263456071
 20
271.5428669265447
 30
0.0
 10
477.5173867862066
 20
271.5103580324804
 30
0.0
 10
477.7403158545642
 20
271.5967634692477
 30
0.0
 10
477.8151677565406
 20
271.6257754385292
 30
0.0
  0
LINE
  5
108
330
1F
100
AcDbEntity
  8
0
  6
Continuous
 62
     7
370
    30
100
AcDbLine
 10
475.3610064388
 20
304.2436639626
 30
0.0
 11
475.5320887639
 21
302.9830011069
 31
0.0
  0
LINE
  5
109
330
1F
100
AcDbEntity
  8
0
  6
Continuous
 62
     7
370
    30
100
AcDbLine
 10
475.5320887639
 20
302.9830011069
 30
0.0
 11
476.4890070713
 21
302.0207259537
 31
0.0
  0
LINE
  5
10A
330
1F
100
AcDbEntity
  8
0
  6
Continuous
 62
     7
370
    30
100
AcDbLine
 10
476.4890070713
 20
302.0207259537
 30
0.0
 11
477.2748430536
 21
302.3191136562
 31
0.0
  0
LINE
  5
10B
330
1F
100
AcDbEntity
  8
0
  6
Continuous
 62
     7
370
    30
100
AcDbLine
 10
477.2748430536
 20
302.3191136562
 30
0.0
 11
477.1037607284
 21
303.5797765119
 31
0.0
  0
LINE
  5
10C
330
1F
100
AcDbEntity
  8
0
  6
Continuous
 62
     7
370
    30
100
AcDbLine
 10
477.1037607284
 20
303.5797765119
 30
0.0
 11
476.146842421
 21
304.5420516651
 31
0.0
  0
LINE
  5
10D
330
1F
100
AcDbEntity
  8
0
  6
Continuous
 62
     7
370
    30
100
AcDbLine
 10
476.146842421
 20
304.5420516651
 30
0.0
 11
475.3610064388
 21
304.2436639626
 31
0.0
  0
LINE
  5
10E
330
1F
100
AcDbEntity
  8
0
  6
Continuous
 62
     7
370
    30
100
AcDbLine
 10
477.2553030309
 20
302.4630991949
 30
0.0
 11
476.4890070713
 21
302.0207259537
 31
0.0
  0
LINE
  5
10F
330
1F
100
AcDbEntity
  8
0
  6
Continuous
 62
     7
370
    30
100
AcDbLine
 10
476.9075801061
 20
303.7770553568
 30
0.0
 11
475.5320887639
 21
302.9830011069
 31
0.0
  0
LINE
  5
110
330
1F
100
AcDbEntity
  8
0
  6
Continuous
 62
     7
370
    30
100
AcDbLine
 10
429.0337177985
 20
301.9157440498
 30
0.0
 11
428.0842958844
 21
302.8963147027
 31
0.0
  0
LINE
  5
111
330
1F
100
AcDbEntity
  8
0
  6
Continuous
 62
     7
370
    30
100
AcDbLine
 10
428.0842958844
 20
302.8963147027
 30
0.0
 11
427.2852417114
 21
302.6243660363
 31
0.0
  0
LINE
  5
112
330
1F
100
AcDbEntity
  8
0
  6
Continuous
 62
     7
370
    30
100
AcDbLine
 10
427.2852417114
 20
302.6243660363
 30
0.0
 11
427.4356094524
 21
301.3718467171
 31
0.0
  0
LINE
  5
113
330
1F
100
AcDbEntity
  8
0
  6
Continuous
 62
     7
370
    30
100
AcDbLine
 10
427.4356094524
 20
301.3718467171
 30
0.0
 11
428.3850313665
 21
300.3912760643
 31
0.0
  0
LINE
  5
114
330
1F
100
AcDbEntity
  8
0
  6
Continuous
 62
     7
370
    30
100
AcDbLine
 10
428.3850313665
 20
300.3912760643
 30
0.0
 11
429.1840855396
 21
300.6632247306
 31
0.0
  0
LINE
  5
115
330
1F
100
AcDbEntity
  8
0
  6
Continuous
 62
     7
370
    30
100
AcDbLine
 10
429.1840855396
 20
300.6632247306
 30
0.0
 11
429.0337177985
 21
301.9157440498
 31
0.0
  0
LINE
  5
116
330
1F
100
AcDbEntity
  8
0
  6
Continuous
 62
     7
370
    30
100
AcDbLine
 10
429.1628285969
 20
300.8402888479
 30
0.0
 11
428.3850313665
 21
300.3912760643
 31
0.0
  0
LINE
  5
117
330
1F
100
AcDbEntity
  8
0
  6
Continuous
 62
     7
370
    30
100
AcDbLine
 10
428.7985324307
 20
302.158645405
 30
0.0
 11
427.4356094524
 21
301.3718467171
 31
0.0
  0
LINE
  5
118
330
1F
100
AcDbEntity
  8
0
  6
Continuous
 62
     7
370
    30
100
AcDbLine
 10
429.0884184369
 20
329.900592079
 30
0.0
 11
429.1458725721
 21
331.0441307588
 31
0.0
  0
LINE
  5
119
330
1F
100
AcDbEntity
  8
0
  6
Continuous
 62
     7
370
    30
100
AcDbLine
 10
429.1458725721
 20
331.0441307588
 30
0.0
 11
428.2921177607
 21
332.1828032911
 31
0.0
  0
LINE
  5
11A
330
1F
100
AcDbEntity
  8
0
  6
Continuous
 62
     7
370
    30
100
AcDbLine
 10
428.2921177607
 20
332.1828032911
 30
0.0
 11
427.3809088141
 21
332.1779371437
 31
0.0
  0
LINE
  5
11B
330
1F
100
AcDbEntity
  8
0
  6
Continuous
 62
     7
370
    30
100
AcDbLine
 10
427.3809088141
 20
332.1779371437
 30
0.0
 11
427.3234546789
 21
331.0343984639
 31
0.0
  0
LINE
  5
11C
330
1F
100
AcDbEntity
  8
0
  6
Continuous
 62
     7
370
    30
100
AcDbLine
 10
427.3234546789
 20
331.0343984639
 30
0.0
 11
428.1772094903
 21
329.8957259316
 31
0.0
  0
LINE
  5
11D
330
1F
100
AcDbEntity
  8
0
  6
Continuous
 62
     7
370
    30
100
AcDbLine
 10
428.1772094903
 20
329.8957259316
 30
0.0
 11
429.0884184369
 21
329.900592079
 31
0.0
  0
LINE
  5
11E
330
1F
100
AcDbEntity
  8
0
  6
Continuous
 62
     7
370
    30
100
AcDbLine
 10
429.1153850992
 20
330.4373231824
 30
0.0
 11
428.1772094903
 21
329.8957259316
 31
0.0
  0
LINE
  5
11F
330
1F
100
AcDbEntity
  8
0
  6
Continuous
 62
     7
370
    30
100
AcDbLine
 10
428.6004402058
 20
331.7715865171
 30
0.0
 11
427.3234546789
 21
331.0343984639
 31
0.0
  0
LINE
  5
120
330
1F
100
AcDbEntity
  8
0
  6
Continuous
 62
     7
370
    30
100
AcDbLine
 10
477.337589963
 20
273.2462928009
 30
0.0
 11
476.8659952185
 21
274.5637523959
 31
0.0
  0
LINE
  5
121
330
1F
100
AcDbEntity
  8
0
  6
Continuous
 62
     7
370
    30
100
AcDbLine
 10
476.8659952185
 20
274.5637523959
 30
0.0
 11
475.8463300017
 21
275.2033791765
 31
0.0
  0
LINE
  5
122
330
1F
100
AcDbEntity
  8
0
  6
Continuous
 62
     7
370
    30
100
AcDbLine
 10
475.8463300017
 20
275.2033791765
 30
0.0
 11
475.2982595294
 21
274.5255463621
 31
0.0
  0
LINE
  5
123
330
1F
100
AcDbEntity
  8
0
  6
Continuous
 62
     7
370
    30
100
AcDbLine
 10
475.2982595294
 20
274.5255463621
 30
0.0
 11
475.7698542738
 21
273.2080867671
 31
0.0
  0
LINE
  5
124
330
1F
100
AcDbEntity
  8
0
  6
Continuous
 62
     7
370
    30
100
AcDbLine
 10
475.7698542738
 20
273.2080867671
 30
0.0
 11
476.7895194906
 21
272.5684599865
 31
0.0
  0
LINE
  5
125
330
1F
100
AcDbEntity
  8
0
  6
Continuous
 62
     7
370
    30
100
AcDbLine
 10
476.7895194906
 20
272.5684599865
 30
0.0
 11
477.337589963
 21
273.2462928009
 31
0.0
  0
LINE
  5
126
330
1F
100
AcDbEntity
  8
0
  6
Continuous
 62
     7
370
    30
100
AcDbLine
 10
476.1463838475
 20
275.0151581093
 30
0.0
 11
475.2982595294
 21
274.5255463621
 31
0.0
  0
LINE
  5
127
330
1F
100
AcDbEntity
  8
0
  6
Continuous
 62
     7
370
    30
100
AcDbLine
 10
477.0804405815
 20
273.9646721381
 30
0.0
 11
475.7698542738
 21
273.2080867671
 31
0.0
  0
LWPOLYLINE
  5
128
330
1F
100
AcDbEntity
  8
0
  6
Continuous
 62
     7
370
    30
100
AcDbPolyline
 90
       16
 70
   128
 43
0.0
 10
452.983400967
 20
293.4805768157
 10
451.8995477021
 20
294.1900563304
 10
450.8350358245
 20
295.054443853
 10
449.8088615736
 20
296.0583143675
 10
448.8393370535
 20
297.1837537808
 10
447.9437634521
 20
298.4106786
 10
447.1381223015
 20
299.7171943226
 10
446.4367902872
 20
301.0799861445
 10
445.8522826956
 20
302.4747350135
 10
445.3950300784
 20
303.8765516028
 10
445.0731921195
 20
305.2604204623
 10
444.8925120249
 20
306.6016464194
 10
444.8562140352
 20
307.8762952651
 10
444.9649458888
 20
309.0616208606
 10
445.2167672632
 20
310.1364710424
 10
445.3899706325
 20
310.6140990702
  0
ARC
  5
129
330
1F
100
AcDbEntity
  8
0
  6
Continuous
 62
     7
370
    30
100
AcDbCircle
 10
457.1128931254
 20
300.3070456312
 30
0.0
 40
7.978306961724708
100
AcDbArc
 50
238.8292659747
 51
261.1947478317
  0
LWPOLYLINE
  5
12A
330
1F
100
AcDbEntity
  8
0
  6
Continuous
 62
     7
370
    30
100
AcDbPolyline
 90
       17
 70
   128
 43
0.0
 10
459.0061319787
 20
295.1299293359
 10
458.8457679031
 20
295.1829170755
 10
457.7691811831
 20
295.6372228747
 10
456.6829021252
 20
296.2643184266
 10
455.6063154051
 20
297.0530131965
 10
454.5586327383
 20
297.9892329072
 10
453.5585500468
 20
299.056270696
 10
452.6239138299
 20
300.2350852483
 10
451.7714026931
 20
301.5046405903
 10
451.0162297177
 20
302.8422814771
 10
450.3718709834
 20
304.2241376751
 10
449.8498250872
 20
305.6255499279
 10
449.4594079503
 20
307.0215100007
 10
449.2075865759
 20
308.3871069527
 10
449.0988547223
 20
309.6979716741
 10
449.1351527121
 20
310.9307117529
 10
449.2918318181
 20
311.957414067
  0
LINE
  5
12B
330
1F
100
AcDbEntity
  8
0
  6
Continuous
 62
     7
370
    30
100
AcDbLine
 10
450.5162168119
 20
311.2346065491
 30
0.0
 11
449.9505313869
 21
310.9080433043
 31
0.0
  0
ARC
  5
12C
330
1F
100
AcDbEntity
  8
0
  6
Continuous
 62
     7
370
    30
100
AcDbCircle
 10
460.7837568991
 20
310.4997728984
 30
0.0
 40
10.84091600015953
100
AcDbArc
 50
177.8417225853
 51
182.1582774147
  0
LINE
  5
12D
330
1F
100
AcDbEntity
  8
0
  6
Continuous
 62
     7
370
    30
100
AcDbLine
 10
449.9505313869
 20
310.0915024925
 30
0.0
 11
450.5162168119
 21
310.4180657372
 31
0.0
  0
ARC
  5
12E
330
1F
100
AcDbEntity
  8
0
  6
Continuous
 62
     7
370
    30
100
AcDbCircle
 10
467.8637204785
 20
311.5211335111
 30
0.0
 40
17.38253842157085
100
AcDbArc
 50
183.6383422038
 51
240.4007550658
  0
LINE
  5
12F
330
1F
100
AcDbEntity
  8
0
  6
Continuous
 62
     7
370
    30
100
AcDbLine
 10
450.5162168119
 20
311.2346065491
 30
0.0
 11
450.5336742278
 21
311.5541731961
 31
0.0
  0
LINE
  5
130
330
1F
100
AcDbEntity
  8
0
  6
Continuous
 62
     7
370
    30
100
AcDbLine
 10
450.5162168119
 20
310.4180657372
 30
0.0
 11
449.9456068199
 21
310.747471874
 31
0.0
  0
LINE
  5
131
330
1F
100
AcDbEntity
  8
0
  6
Continuous
 62
     7
370
    30
100
AcDbLine
 10
492.5813807135
 20
329.8179699452
 30
0.0
 11
487.2780798546
 21
332.8795003645
 31
0.0
  0
LINE
  5
132
330
1F
100
AcDbEntity
  8
0
  6
Continuous
 62
     7
370
    30
100
AcDbLine
 10
492.5813807135
 20
329.8179699452
 30
0.0
 11
485.5103129016
 21
325.7359293861
 31
0.0
  0
LINE
  5
133
330
1F
100
AcDbEntity
  8
0
  6
Continuous
 62
     7
370
    30
100
AcDbLine
 10
485.5103129016
 20
325.7359293861
 30
0.0
 11
480.2070120427
 21
328.7974598054
 31
0.0
  0
LINE
  5
134
330
1F
100
AcDbEntity
  8
0
  6
Continuous
 62
     7
370
    30
100
AcDbLine
 10
487.2780798546
 20
332.8795003645
 30
0.0
 11
480.2070120427
 21
328.7974598054
 31
0.0
  0
LINE
  5
135
330
1F
100
AcDbEntity
  8
0
  6
Continuous
 62
     7
370
    30
100
AcDbLine
 10
504.3726652732
 20
288.183972126
 30
0.0
 11
492.5813807135
 21
329.8179699452
 31
0.0
  0
LINE
  5
136
330
1F
100
AcDbEntity
  8
0
  6
Continuous
 62
     7
370
    30
100
AcDbLine
 10
546.3214960836
 20
298.7843764911
 30
0.0
 11
504.3726652732
 21
288.183972126
 31
0.0
  0
LINE
  5
137
330
1F
100
AcDbEntity
  8
0
  6
Continuous
 62
     7
370
    30
100
AcDbLine
 10
546.3214960836
 20
290.6189683723
 30
0.0
 11
546.3214960836
 21
298.7843764911
 31
0.0
  0
LINE
  5
138
330
1F
100
AcDbEntity
  8
0
  6
Continuous
 62
     7
370
    30
100
AcDbLine
 10
485.5103129016
 20
255.5134195639
 30
0.0
 11
546.3214960836
 21
290.6189683723
 31
0.0
  0
LINE
  5
139
330
1F
100
AcDbEntity
  8
0
  6
Continuous
 62
     7
370
    30
100
AcDbLine
 10
485.5103129016
 20
325.7359293861
 30
0.0
 11
485.5103129016
 21
255.5134195639
 31
0.0
  0
LINE
  5
13A
330
1F
100
AcDbEntity
  8
0
  6
Continuous
 62
     7
370
    30
100
AcDbLine
 10
546.3214960836
 20
298.7843764911
 30
0.0
 11
541.0181952247
 21
301.8459069105
 31
0.0
  0
LINE
  5
13B
330
1F
100
AcDbEntity
  8
0
  6
Continuous
 62
     7
370
    30
100
AcDbLine
 10
541.0181952247
 20
301.8459069105
 30
0.0
 11
503.2093147078
 21
292.2916615518
 31
0.0
  0
LINE
  5
13C
330
1F
100
AcDbEntity
  8
0
  6
Continuous
 62
     7
370
    30
100
AcDbLine
 10
437.0734983903
 20
353.697907216
 30
0.0
 11
444.1445662022
 21
357.7799477751
 31
0.0
  0
LINE
  5
13D
330
1F
100
AcDbEntity
  8
0
  6
Continuous
 62
     7
370
    30
100
AcDbLine
 10
444.1445662022
 20
357.7799477751
 30
0.0
 11
446.9086546763
 21
348.0201923457
 31
0.0
  0
LINE
  5
13E
330
1F
100
AcDbEntity
  8
0
  6
Continuous
 62
     7
370
    30
100
AcDbLine
 10
493.7473967759
 20
325.7008688816
 30
0.0
 11
497.8846815724
 21
326.7463543211
 31
0.0
  0
LINE
  5
13F
330
1F
100
AcDbEntity
  8
0
  6
Continuous
 62
     7
370
    30
100
AcDbLine
 10
497.8846815724
 20
326.7463543211
 30
0.0
 11
497.8846815724
 21
318.5809462022
 31
0.0
  0
LINE
  5
140
330
1F
100
AcDbEntity
  8
0
  6
Continuous
 62
     7
370
    30
100
AcDbLine
 10
497.8846815724
 20
318.5809462022
 30
0.0
 11
496.0618715147
 21
317.5286603544
 31
0.0
  0
LINE
  5
141
330
1F
100
AcDbEntity
  8
0
  6
Continuous
 62
     7
370
    30
100
AcDbLine
 10
431.7701975314
 20
356.7594376353
 30
0.0
 11
437.0734983903
 21
353.697907216
 31
0.0
  0
LINE
  5
142
330
1F
100
AcDbEntity
  8
0
  6
Continuous
 62
     7
370
    30
100
AcDbLine
 10
431.7701975314
 20
356.7594376353
 30
0.0
 11
438.8412653433
 21
360.8414781945
 31
0.0
  0
LINE
  5
143
330
1F
100
AcDbEntity
  8
0
  6
Continuous
 62
     7
370
    30
100
AcDbLine
 10
438.8412653433
 20
360.8414781945
 30
0.0
 11
444.1445662022
 21
357.7799477751
 31
0.0
  0
LINE
  5
144
330
1F
100
AcDbEntity
  8
0
  6
Continuous
 62
     7
370
    30
100
AcDbLine
 10
492.584795231
 20
329.8059135814
 30
0.0
 11
497.8846815724
 21
326.7463543211
 31
0.0
  0
LINE
  5
145
330
1F
100
AcDbEntity
  8
0
  6
Continuous
 62
     7
370
    30
100
AcDbLine
 10
478.4392450897
 20
321.653888827
 30
0.0
 11
485.5103129016
 21
325.7359293861
 31
0.0
  0
LINE
  5
146
330
1F
100
AcDbEntity
  8
0
  6
Continuous
 62
     7
370
    30
100
AcDbLine
 10
478.4392450897
 20
321.653888827
 30
0.0
 11
424.6991297195
 21
352.6773970762
 31
0.0
  0
LINE
  5
147
330
1F
100
AcDbEntity
  8
0
  6
Continuous
 62
     7
370
    30
100
AcDbLine
 10
424.6991297195
 20
352.6773970762
 30
0.0
 11
431.7701975314
 21
356.7594376353
 31
0.0
  0
LINE
  5
148
330
1F
100
AcDbEntity
  8
0
  6
Continuous
 62
     7
370
    30
100
AcDbLine
 10
485.5103129016
 20
325.7359293861
 30
0.0
 11
431.7701975314
 21
356.7594376353
 31
0.0
  0
LINE
  5
149
330
1F
100
AcDbEntity
  8
0
  6
Continuous
 62
     7
370
    30
100
AcDbLine
 10
478.4392450897
 20
251.4313790048
 30
0.0
 11
485.5103129016
 21
255.5134195639
 31
0.0
  0
LINE
  5
14A
330
1F
100
AcDbEntity
  8
0
  6
Continuous
 62
     7
370
    30
100
AcDbLine
 10
478.4392450897
 20
251.4313790048
 30
0.0
 11
478.4392450897
 21
321.653888827
 31
0.0
  0
LWPOLYLINE
  5
14B
330
1F
100
AcDbEntity
  8
0
  6
Continuous
 62
     7
370
    30
100
AcDbPolyline
 90
       47
 70
   128
 43
0.0
 10
443.7910128116
 20
306.5446326555
 10
443.8634591495
 20
305.2797683866
 10
444.079448625
 20
303.9548213845
 10
444.4349577628
 20
302.594472905
 10
444.9233641004
 20
301.2240636663
 10
445.5355695517
 20
299.8691217997
 10
446.2601698876
 20
298.5548873084
 10
447.0836671748
 20
297.3058418945
 10
447.990721217
 20
296.1452529107
 10
448.9644353135
 20
295.0947399338
 10
449.9866710131
 20
294.1738720331
 10
451.0383859988
 20
293.399803235
 10
452.0999888104
 20
292.7869529767
 10
453.1517037962
 20
292.346737499
 10
454.1739394958
 20
292.0873571834
 10
455.1476535923
 20
292.0136437942
 10
456.0547076344
 20
292.1269704726
 10
456.8782049216
 20
292.4252261568
 10
457.6028052575
 20
292.9028549079
 10
458.2150107089
 20
293.5509594058
 10
458.7034170465
 20
294.3574666901
 10
459.0589261843
 20
295.3073530561
 10
459.2749156598
 20
296.3829239179
 10
459.3473619977
 20
297.5641434255
 10
459.2749156598
 20
298.8290076944
 10
459.0589261843
 20
300.1539546965
 10
458.7034170465
 20
301.514303176
 10
458.2150107089
 20
302.8847124147
 10
457.6028052575
 20
304.2396542814
 10
456.8782049216
 20
305.5538887726
 10
456.0547076344
 20
306.8029341865
 10
455.1476535923
 20
307.9635231703
 10
454.1739394958
 20
309.0140361472
 10
453.1517037962
 20
309.934904048
 10
452.0999888104
 20
310.7089728461
 10
451.0383859988
 20
311.3218231043
 10
449.9866710131
 20
311.762038582
 10
448.9644353135
 20
312.0214188977
 10
447.990721217
 20
312.0951322868
 10
447.0836671748
 20
311.9818056085
 10
446.2601698876
 20
311.6835499242
 10
445.5355695517
 20
311.2059211732
 10
444.9233641004
 20
310.5578166752
 10
444.4349577628
 20
309.7513093909
 10
444.079448625
 20
308.801423025
 10
443.8634591495
 20
307.7258521631
 10
443.7910128116
 20
306.5446326555
  0
LINE
  5
14C
330
1F
100
AcDbEntity
  8
0
  6
Continuous
 62
     7
370
    30
100
AcDbLine
 10
424.6991297195
 20
282.4548872541
 30
0.0
 11
478.4392450897
 21
251.4313790048
 31
0.0
  0
LINE
  5
14D
330
1F
100
AcDbEntity
  8
0
  6
Continuous
 62
     7
370
    30
100
AcDbLine
 10
424.6991297195
 20
352.6773970762
 30
0.0
 11
424.6991297195
 21
282.4548872541
 31
0.0
  0
LWPOLYLINE
  5
14E
330
1F
100
AcDbEntity
  8
0
  6
Continuous
 62
     7
370
    30
100
AcDbPolyline
 90
       26
 70
   128
 43
0.0
 10
425.2294598054
 20
331.9577237372
 10
425.3016587498
 20
331.256081486
 10
425.5137190578
 20
330.5151668712
 10
425.8523162002
 20
329.7815342827
 10
426.2961748734
 20
329.1012805543
 10
426.8174058046
 20
328.5171485295
 10
427.3832581373
 20
328.0658413717
 10
427.9581772885
 20
327.7757163695
 10
428.5060389734
 20
327.6650031437
 10
428.9924190276
 20
327.7406582134
 10
429.3867564035
 20
327.9979278925
 10
429.6642734333
 20
328.4206469807
 10
429.8075327016
 20
328.9822544832
 10
429.8075327016
 20
329.6474625351
 10
429.6642734333
 20
330.374473668
 10
429.3867564035
 20
331.1176070988
 10
428.9924190276
 20
331.8301690208
 10
428.5060389734
 20
332.4673865479
 10
427.9581772885
 20
332.9892209594
 10
427.3832581373
 20
333.36288348
 10
426.8174058046
 20
333.5648955193
 10
426.2961748734
 20
333.5825639179
 10
425.8523162002
 20
333.4147785054
 10
425.5137190578
 20
333.0720818563
 10
425.3016587498
 20
332.5760068615
 10
425.2294598054
 20
331.9577237372
  0
LWPOLYLINE
  5
14F
330
1F
100
AcDbEntity
  8
0
  6
Continuous
 62
     7
370
    30
100
AcDbPolyline
 90
       26
 70
   128
 43
0.0
 10
425.2294598054
 20
302.5622545093
 10
425.3016587498
 20
301.8606122581
 10
425.5137190578
 20
301.1196976433
 10
425.8523162002
 20
300.3860650548
 10
426.2961748734
 20
299.7058113264
 10
426.8174058046
 20
299.1216793016
 10
427.3832581373
 20
298.6703721439
 10
427.9581772885
 20
298.3802471416
 10
428.5060389734
 20
298.2695339158
 10
428.9924190276
 20
298.3451889855
 10
429.3867564035
 20
298.6024586646
 10
429.6642734333
 20
299.0251777529
 10
429.8075327016
 20
299.5867852553
 10
429.8075327016
 20
300.2519933072
 10
429.6642734333
 20
300.9790044402
 10
429.3867564035
 20
301.7221378709
 10
428.9924190276
 20
302.4346997929
 10
428.5060389734
 20
303.07191732
 10
427.9581772885
 20
303.5937517315
 10
427.3832581373
 20
303.9674142521
 10
426.8174058046
 20
304.1694262914
 10
426.2961748734
 20
304.18709469
 10
425.8523162002
 20
304.0193092775
 10
425.5137190578
 20
303.6766126284
 10
425.3016587498
 20
303.1805376336
 10
425.2294598054
 20
302.5622545093
  0
LWPOLYLINE
  5
150
330
1F
100
AcDbEntity
  8
0
  6
Continuous
 62
     7
370
    30
100
AcDbPolyline
 90
       26
 70
   128
 43
0.0
 10
473.3127209261
 20
304.1998479352
 10
473.3849198705
 20
303.4982056841
 10
473.5969801784
 20
302.7572910692
 10
473.9355773209
 20
302.0236584807
 10
474.3794359941
 20
301.3434047523
 10
474.9006669252
 20
300.7592727275
 10
475.466519258
 20
300.3079655698
 10
476.0414384092
 20
300.0178405675
 10
476.5893000941
 20
299.9071273417
 10
477.0756801483
 20
299.9827824115
 10
477.4700175241
 20
300.2400520905
 10
477.747534554
 20
300.6627711788
 10
477.8907938223
 20
301.2243786813
 10
477.8907938223
 20
301.8895867331
 10
477.747534554
 20
302.6165978661
 10
477.4700175241
 20
303.3597312968
 10
477.0756801483
 20
304.0722932188
 10
476.5893000941
 20
304.7095107459
 10
476.0414384092
 20
305.2313451574
 10
475.466519258
 20
305.605007678
 10
474.9006669252
 20
305.8070197173
 10
474.3794359941
 20
305.824688116
 10
473.9355773209
 20
305.6569027035
 10
473.5969801784
 20
305.3142060544
 10
473.3849198705
 20
304.8181310595
 10
473.3127209261
 20
304.1998479352
  0
LWPOLYLINE
  5
151
330
1F
100
AcDbEntity
  8
0
  6
Continuous
 62
     7
370
    30
100
AcDbPolyline
 90
       26
 70
   128
 43
0.0
 10
473.3127209261
 20
274.8043787073
 10
473.3849198705
 20
274.1027364562
 10
473.5969801784
 20
273.3618218413
 10
473.9355773209
 20
272.6281892528
 10
474.3794359941
 20
271.9479355244
 10
474.9006669252
 20
271.3638034997
 10
475.466519258
 20
270.9124963419
 10
476.0414384092
 20
270.6223713396
 10
476.5893000941
 20
270.5116581138
 10
477.0756801483
 20
270.5873131836
 10
477.4700175241
 20
270.8445828626
 10
477.747534554
 20
271.2673019509
 10
477.8907938223
 20
271.8289094534
 10
477.8907938223
 20
272.4941175053
 10
477.747534554
 20
273.2211286382
 10
477.4700175241
 20
273.9642620689
 10
477.0756801483
 20
274.6768239909
 10
476.5893000941
 20
275.314041518
 10
476.0414384092
 20
275.8358759295
 10
475.466519258
 20
276.2095384501
 10
474.9006669252
 20
276.4115504894
 10
474.3794359941
 20
276.4292188881
 10
473.9355773209
 20
276.2614334756
 10
473.5969801784
 20
275.9187368265
 10
473.3849198705
 20
275.4226618316
 10
473.3127209261
 20
274.8043787073
  0
LWPOLYLINE
  5
152
330
1F
100
AcDbEntity
  8
0
  6
Continuous
 62
     7
370
    30
100
AcDbPolyline
 90
       23
 70
   128
 43
0.0
 10
432.123750922
 20
313.2799995781
 10
432.1953579046
 20
312.6635464202
 10
432.4043776806
 20
312.0143589686
 10
432.7338767107
 20
311.3850305299
 10
433.1571609432
 20
310.8265455513
 10
433.639938407
 20
310.3841491644
 10
434.143097343
 20
310.0936816934
 10
434.6258748067
 20
309.9786750853
 10
435.0491590392
 20
310.0484464916
 10
435.3786580694
 20
310.2973434479
 10
435.5876778453
 20
310.7052018029
 10
435.6592848279
 20
311.2389792985
 10
435.5876778453
 20
311.8554324564
 10
435.3786580694
 20
312.504619908
 10
435.0491590392
 20
313.1339483467
 10
434.6258748067
 20
313.6924333253
 10
434.143097343
 20
314.1348297122
 10
433.639938407
 20
314.4252971832
 10
433.1571609432
 20
314.5403037913
 10
432.7338767107
 20
314.470532385
 10
432.4043776806
 20
314.2216354287
 10
432.1953579046
 20
313.8137770737
 10
432.123750922
 20
313.2799995781
  0
LWPOLYLINE
  5
153
330
1F
100
AcDbEntity
  8
0
  6
Continuous
 62
     7
370
    30
100
AcDbPolyline
 90
       23
 70
   128
 43
0.0
 10
467.4790899813
 20
292.8697967825
 10
467.5506969639
 20
292.2533436246
 10
467.7597167399
 20
291.604156173
 10
468.08921577
 20
290.9748277343
 10
468.5125000025
 20
290.4163427557
 10
468.9952774663
 20
289.9739463688
 10
469.4984364023
 20
289.6834788978
 10
469.9812138661
 20
289.5684722897
 10
470.4044980986
 20
289.638243696
 10
470.7339971287
 20
289.8871406523
 10
470.9430169047
 20
290.2949990074
 10
471.0146238873
 20
290.828776503
 10
470.9430169047
 20
291.4452296609
 10
470.7339971287
 20
292.0944171124
 10
470.4044980986
 20
292.7237455512
 10
469.9812138661
 20
293.2822305298
 10
469.4984364023
 20
293.7246269167
 10
468.9952774663
 20
294.0150943877
 10
468.5125000025
 20
294.1301009957
 10
468.08921577
 20
294.0603295894
 10
467.7597167399
 20
293.8114326332
 10
467.5506969639
 20
293.4035742781
 10
467.4790899813
 20
292.8697967825
  0
LWPOLYLINE
  5
154
330
1F
100
AcDbEntity
  8
0
  6
Continuous
 62
     7
370
    30
100
AcDbPolyline
 90
       23
 70
   128
 43
0.0
 10
449.8014204517
 20
323.4884184774
 10
449.8730274343
 20
322.8719653195
 10
450.0820472102
 20
322.222777868
 10
450.4115462404
 20
321.5934494292
 10
450.8348304729
 20
321.0349644506
 10
451.3176079366
 20
320.5925680637
 10
451.8207668727
 20
320.3021005927
 10
452.3035443364
 20
320.1870939847
 10
452.7268285689
 20
320.256865391
 10
453.056327599
 20
320.5057623472
 10
453.265347375
 20
320.9136207023
 10
453.3369543576
 20
321.4473981979
 10
453.265347375
 20
322.0638513558
 10
453.056327599
 20
322.7130388073
 10
452.7268285689
 20
323.3423672461
 10
452.3035443364
 20
323.9008522247
 10
451.8207668727
 20
324.3432486116
 10
451.3176079366
 20
324.6337160826
 10
450.8348304729
 20
324.7487226907
 10
450.4115462404
 20
324.6789512844
 10
450.0820472102
 20
324.4300543281
 10
449.8730274343
 20
324.022195973
 10
449.8014204517
 20
323.4884184774
  0
LWPOLYLINE
  5
155
330
1F
100
AcDbEntity
  8
0
  6
Continuous
 62
     7
370
    30
100
AcDbPolyline
 90
       23
 70
   128
 43
0.0
 10
449.8014204517
 20
282.6613778831
 10
449.8730274343
 20
282.0449247252
 10
450.0820472102
 20
281.3957372737
 10
450.4115462404
 20
280.7664088349
 10
450.8348304729
 20
280.2079238563
 10
451.3176079366
 20
279.7655274694
 10
451.8207668727
 20
279.4750599984
 10
452.3035443364
 20
279.3600533904
 10
452.7268285689
 20
279.4298247967
 10
453.056327599
 20
279.6787217529
 10
453.265347375
 20
280.086580108
 10
453.3369543576
 20
280.6203576036
 10
453.265347375
 20
281.2368107615
 10
453.056327599
 20
281.8859982131
 10
452.7268285689
 20
282.5153266518
 10
452.3035443364
 20
283.0738116304
 10
451.8207668727
 20
283.5162080173
 10
451.3176079366
 20
283.8066754883
 10
450.8348304729
 20
283.9216820964
 10
450.4115462404
 20
283.8519106901
 10
450.0820472102
 20
283.6030137338
 10
449.8730274343
 20
283.1951553787
 10
449.8014204517
 20
282.6613778831
  0
LWPOLYLINE
  5
156
330
1F
100
AcDbEntity
  8
0
  6
Continuous
 62
     7
370
    30
100
AcDbPolyline
 90
       27
 70
   128
 43
0.0
 10
431.4166441408
 20
334.1017239311
 10
431.4885594736
 20
333.3762695693
 10
431.7001260143
 20
332.6099443022
 10
432.0390482846
 20
331.8472841689
 10
432.485629354
 20
331.1326122041
 10
433.013915554
 20
330.5074625447
 10
433.593204811
 20
330.0081666165
 10
434.1898309389
 20
329.6637416842
 10
434.7691201959
 20
329.4942044727
 10
435.297406396
 20
329.5094078686
 10
435.7439874654
 20
329.7084683058
 10
436.0829097356
 20
330.0798171152
 10
436.2944762763
 20
330.6018728538
 10
436.3663916091
 20
331.2442955398
 10
436.2944762763
 20
331.9697499015
 10
436.0829097356
 20
332.7360751686
 10
435.7439874654
 20
333.498735302
 10
435.297406396
 20
334.2134072668
 10
434.7691201959
 20
334.8385569262
 10
434.1898309389
 20
335.3378528543
 10
433.593204811
 20
335.6822777867
 10
433.013915554
 20
335.8518149982
 10
432.485629354
 20
335.8366116023
 10
432.0390482846
 20
335.6375511651
 10
431.7001260143
 20
335.2662023557
 10
431.4885594736
 20
334.744146617
 10
431.4166441408
 20
334.1017239311
  0
LWPOLYLINE
  5
157
330
1F
100
AcDbEntity
  8
0
  6
Continuous
 62
     7
370
    30
100
AcDbPolyline
 90
       27
 70
   128
 43
0.0
 10
466.7719832001
 20
313.6915211356
 10
466.843898533
 20
312.9660667738
 10
467.0554650737
 20
312.1997415067
 10
467.3943873439
 20
311.4370813733
 10
467.8409684133
 20
310.7224094085
 10
468.3692546134
 20
310.0972597491
 10
468.9485438703
 20
309.597963821
 10
469.5451699983
 20
309.2535388886
 10
470.1244592552
 20
309.0840016771
 10
470.6527454553
 20
309.0992050731
 10
471.0993265247
 20
309.2982655102
 10
471.4382487949
 20
309.6696143197
 10
471.6498153356
 20
310.1916700583
 10
471.7217306685
 20
310.8340927442
 10
471.6498153356
 20
311.559547106
 10
471.4382487949
 20
312.3258723731
 10
471.0993265247
 20
313.0885325064
 10
470.6527454553
 20
313.8032044712
 10
470.1244592552
 20
314.4283541306
 10
469.5451699983
 20
314.9276500588
 10
468.9485438703
 20
315.2720749911
 10
468.3692546134
 20
315.4416122026
 10
467.8409684133
 20
315.4264088067
 10
467.3943873439
 20
315.2273483695
 10
467.0554650737
 20
314.8559995601
 10
466.843898533
 20
314.3339438215
 10
466.7719832001
 20
313.6915211356
  0
LWPOLYLINE
  5
158
330
1F
100
AcDbEntity
  8
0
  6
Continuous
 62
     7
370
    30
100
AcDbPolyline
 90
       27
 70
   128
 43
0.0
 10
431.4166441408
 20
293.2746833368
 10
431.4885594736
 20
292.549228975
 10
431.7001260143
 20
291.782903708
 10
432.0390482846
 20
291.0202435746
 10
432.485629354
 20
290.3055716098
 10
433.013915554
 20
289.6804219504
 10
433.593204811
 20
289.1811260223
 10
434.1898309389
 20
288.8367010899
 10
434.7691201959
 20
288.6671638784
 10
435.297406396
 20
288.6823672743
 10
435.7439874654
 20
288.8814277115
 10
436.0829097356
 20
289.2527765209
 10
436.2944762763
 20
289.7748322596
 10
436.3663916091
 20
290.4172549455
 10
436.2944762763
 20
291.1427093073
 10
436.0829097356
 20
291.9090345744
 10
435.7439874654
 20
292.6716947077
 10
435.297406396
 20
293.3863666725
 10
434.7691201959
 20
294.0115163319
 10
434.1898309389
 20
294.51081226
 10
433.593204811
 20
294.8552371924
 10
433.013915554
 20
295.0247744039
 10
432.485629354
 20
295.009571008
 10
432.0390482846
 20
294.8105105708
 10
431.7001260143
 20
294.4391617614
 10
431.4885594736
 20
293.9171060227
 10
431.4166441408
 20
293.2746833368
  0
LWPOLYLINE
  5
159
330
1F
100
AcDbEntity
  8
0
  6
Continuous
 62
     7
370
    30
100
AcDbPolyline
 90
       27
 70
   128
 43
0.0
 10
466.7719832001
 20
272.8644805413
 10
466.843898533
 20
272.1390261795
 10
467.0554650737
 20
271.3727009124
 10
467.3943873439
 20
270.610040779
 10
467.8409684133
 20
269.8953688142
 10
468.3692546134
 20
269.2702191548
 10
468.9485438703
 20
268.7709232267
 10
469.5451699983
 20
268.4264982943
 10
470.1244592552
 20
268.2569610829
 10
470.6527454553
 20
268.2721644788
 10
471.0993265247
 20
268.471224916
 10
471.4382487949
 20
268.8425737254
 10
471.6498153356
 20
269.364629464
 10
471.7217306685
 20
270.0070521499
 10
471.6498153356
 20
270.7325065117
 10
471.4382487949
 20
271.4988317788
 10
471.0993265247
 20
272.2614919121
 10
470.6527454553
 20
272.976163877
 10
470.1244592552
 20
273.6013135364
 10
469.5451699983
 20
274.1006094645
 10
468.9485438703
 20
274.4450343968
 10
468.3692546134
 20
274.6145716083
 10
467.8409684133
 20
274.5993682124
 10
467.3943873439
 20
274.4003077752
 10
467.0554650737
 20
274.0289589658
 10
466.843898533
 20
273.5069032272
 10
466.7719832001
 20
272.8644805413
  0
LWPOLYLINE
  5
15A
330
1F
100
AcDbEntity
  8
0
  6
Continuous
 62
     7
370
    30
100
AcDbPolyline
 90
       18
 70
   128
 43
0.0
 10
444.4981195928
 20
306.9528367115
 10
444.5705659307
 20
305.6879724425
 10
444.7865554062
 20
304.3630254404
 10
445.142064544
 20
303.0026769609
 10
445.6304708816
 20
301.6322677222
 10
446.2426763329
 20
300.2773258556
 10
446.9672766688
 20
298.9630913643
 10
447.790773956
 20
297.7140459504
 10
448.6978279982
 20
296.5534569666
 10
449.6715420947
 20
295.5029439898
 10
450.6937777943
 20
294.582076089
 10
451.74549278
 20
293.8080072909
 10
452.8070955916
 20
293.1951570326
 10
453.8588105774
 20
292.754941555
 10
454.8810462769
 20
292.4955612393
 10
455.8547603735
 20
292.4218478501
 10
456.7618144156
 20
292.5351745285
 10
457.4109211995
 20
292.7516526816
  0
ARC
  5
15B
330
1F
100
AcDbEntity
  8
0
  6
Continuous
 62
     7
370
    30
100
AcDbCircle
 10
450.1613319981
 20
307.469920202
 30
0.0
 40
5.686769740714181
100
AcDbArc
 50
130.9454879424
 51
185.2169650388
  0
LINE
  5
15C
330
1F
100
AcDbEntity
  8
0
  6
Continuous
 62
     7
370
    30
100
AcDbLine
 10
546.3214960836
 20
284.0866418772
 30
0.0
 11
546.3214960836
 21
290.6189683723
 31
0.0
  0
LINE
  5
15D
330
1F
100
AcDbEntity
  8
0
  6
Continuous
 62
     7
370
    30
100
AcDbLine
 10
546.3214960836
 20
284.0866418772
 30
0.0
 11
478.4392450897
 21
244.8990525097
 31
0.0
  0
LINE
  5
15E
330
1F
100
AcDbEntity
  8
0
  6
Continuous
 62
     7
370
    30
100
AcDbLine
 10
478.4392450897
 20
244.8990525097
 30
0.0
 11
478.4392450897
 21
251.4313790048
 31
0.0
  0
LINE
  5
15F
330
1F
100
AcDbEntity
  8
0
  6
Continuous
 62
     7
370
    30
100
AcDbLine
 10
546.3214960836
 20
290.6189683723
 30
0.0
 11
478.4392450897
 21
251.4313790048
 31
0.0
  0
LINE
  5
160
330
1F
100
AcDbEntity
  8
0
  6
Continuous
 62
     7
370
    30
100
AcDbLine
 10
497.8846815724
 20
318.5809462022
 30
0.0
 11
531.1801900514
 21
299.3598582896
 31
0.0
  0
LWPOLYLINE
  5
161
330
1F
100
AcDbEntity
  8
0
  6
Continuous
 62
     7
370
    30
100
AcDbPolyline
 90
       23
 70
   128
 43
0.0
 10
504.9557493842
 20
299.8035596303
 10
505.5253938704
 20
300.0497327301
 10
506.1921031133
 20
300.1932866871
 10
506.9018642952
 20
300.2225916134
 10
507.5971767862
 20
300.1352733982
 10
508.2217105035
 20
299.938406044
 10
508.7248694395
 20
299.647938573
 10
509.0658906497
 20
299.2874029323
 10
509.2171466237
 20
298.8860075751
 10
509.1663835021
 20
298.4762711663
 10
508.9177138111
 20
298.0913881129
 10
508.4912832902
 20
297.7625393507
 10
507.921638804
 20
297.5163662509
 10
507.2549295611
 20
297.3728122939
 10
506.5451683792
 20
297.3435073676
 10
505.8498558882
 20
297.4308255828
 10
505.2253221709
 20
297.627692937
 10
504.7221632349
 20
297.918160408
 10
504.3811420247
 20
298.2786960488
 10
504.2298860507
 20
298.6800914059
 10
504.2806491723
 20
299.0898278147
 10
504.5293188633
 20
299.4747108682
 10
504.9557493842
 20
299.8035596303
  0
LINE
  5
162
330
1F
100
AcDbEntity
  8
0
  6
Continuous
 62
     7
370
    30
100
AcDbLine
 10
478.4392450897
 20
244.8990525097
 30
0.0
 11
424.6991297195
 21
275.922560759
 31
0.0
  0
LINE
  5
163
330
1F
100
AcDbEntity
  8
0
  6
Continuous
 62
     7
370
    30
100
AcDbLine
 10
424.6991297195
 20
275.922560759
 30
0.0
 11
424.6991297195
 21
282.4548872541
 31
0.0
  0
LWPOLYLINE
  5
164
330
1F
100
AcDbEntity
  8
0
  6
Continuous
 62
     8
370
    30
100
AcDbPolyline
 90
       10
 70
   128
 43
0.0
 10
474.7494458855
 20
303.878887515
 10
474.9086247413
 20
303.242370168
 10
475.2057557008
 20
302.6096722375
 10
475.6117535153
 20
302.0427266052
 10
476.0868762901
 20
301.5970298597
 10
476.5846156977
 20
301.3162099038
 10
477.0562495367
 20
301.2277553514
 10
477.455611001
 20
301.3403247503
 10
477.743607808
 20
301.6428990236
 10
477.8762349204
 20
302.0113353264
  0
LWPOLYLINE
  5
165
330
1F
100
AcDbEntity
  8
0
  6
Continuous
 62
     8
370
    30
100
AcDbPolyline
 90
        6
 70
   128
 43
0.0
 10
475.9973674821
 20
305.2659818379
 10
475.5795999556
 20
305.3350222674
 10
475.1802384913
 20
305.2224528684
 10
474.8922416844
 20
304.9198785952
 10
474.7438006688
 20
304.4569175257
 10
474.7494458855
 20
303.878887515
  0
LWPOLYLINE
  5
166
330
1F
100
AcDbEntity
  8
0
  6
Continuous
 62
     8
370
    30
100
AcDbPolyline
 90
       16
 70
   128
 43
0.0
 10
427.9141063614
 20
303.628388412
 10
427.8370586166
 20
303.6522479087
 10
427.3804761044
 20
303.6868789029
 10
427.0075074182
 20
303.5215186472
 10
426.7546613317
 20
303.1723537555
 10
426.6466881815
 20
302.6735629203
 10
426.6941571319
 20
302.0739712638
 10
426.8924215911
 20
301.4322709949
 10
427.2220740526
 20
300.811276207
 10
427.6508458367
 20
300.2717741965
 10
428.1367657736
 20
299.8665751793
 10
428.6322686344
 20
299.6353428582
 10
429.0888511466
 20
299.6007118641
 10
429.4618198327
 20
299.7660721198
 10
429.7146659192
 20
300.1152370114
 10
429.7929737997
 20
300.3737419005
  0
LWPOLYLINE
  5
167
330
1F
100
AcDbEntity
  8
0
  6
Continuous
 62
     8
370
    30
100
AcDbPolyline
 90
       16
 70
   128
 43
0.0
 10
427.9141063614
 20
333.0238576399
 10
427.8289788597
 20
333.04994722
 10
427.3734432122
 20
333.0812098213
 10
427.0022098193
 20
332.9125925984
 10
426.7516175919
 20
332.5606009798
 10
426.6461962433
 20
332.0596903578
 10
426.6962651495
 20
331.4588933539
 10
426.8969232173
 20
330.8170201651
 10
427.2285286367
 20
330.196901811
 10
427.6586215591
 20
329.659239797
 10
428.1451014924
 20
329.256664227
 10
428.6403483913
 20
329.0285820027
 10
429.0958840387
 20
328.9973194014
 10
429.4671174317
 20
329.1659366244
 10
429.7177096591
 20
329.5179282429
 10
429.7929737997
 20
329.7692111284
  0
LWPOLYLINE
  5
168
330
1F
100
AcDbEntity
  8
0
  6
Continuous
 62
     8
370
    30
100
AcDbPolyline
 90
       15
 70
   128
 43
0.0
 10
475.9973674821
 20
275.8705126101
 10
475.582781294
 20
275.9396358415
 10
475.182750502
 20
275.8284941308
 10
474.8938384742
 20
275.5271996885
 10
474.744325933
 20
275.0652453139
 10
474.7488482074
 20
274.4878503197
 10
474.9069626259
 20
273.851534151
 10
475.2031918475
 20
273.2185838678
 10
475.608538892
 20
272.6509570539
 10
476.0833255664
 20
272.2042169766
 10
476.5810764432
 20
271.9220936675
 10
477.0530681983
 20
271.8322033215
 10
477.4530989903
 20
271.9433450322
 10
477.7420110181
 20
272.2446394745
 10
477.8762349204
 20
272.6158660985
  0
LINE
  5
169
330
1F
100
AcDbEntity
  8
0
  6
Continuous
 62
     7
370
    30
100
AcDbLine
 10
181.3854928873
 20
301.6608883242
 30
0.0
 11
181.6274398318
 21
300.2379354053
 31
0.0
  0
LINE
  5
16A
330
1F
100
AcDbEntity
  8
0
  6
Continuous
 62
     7
370
    30
100
AcDbLine
 10
181.6274398318
 20
300.2379354053
 30
0.0
 11
182.9807266802
 21
299.7359911462
 31
0.0
  0
LINE
  5
16B
330
1F
100
AcDbEntity
  8
0
  6
Continuous
 62
     7
370
    30
100
AcDbLine
 10
182.9807266802
 20
299.7359911462
 30
0.0
 11
184.0920665841
 21
300.656999806
 31
0.0
  0
LINE
  5
16C
330
1F
100
AcDbEntity
  8
0
  6
Continuous
 62
     7
370
    30
100
AcDbLine
 10
184.0920665841
 20
300.656999806
 30
0.0
 11
183.8501196396
 21
302.0799527248
 31
0.0
  0
LINE
  5
16D
330
1F
100
AcDbEntity
  8
0
  6
Continuous
 62
     7
370
    30
100
AcDbLine
 10
183.8501196396
 20
302.0799527248
 30
0.0
 11
182.4968327912
 21
302.581896984
 31
0.0
  0
LINE
  5
16E
330
1F
100
AcDbEntity
  8
0
  6
Continuous
 62
     7
370
    30
100
AcDbLine
 10
182.4968327912
 20
302.581896984
 30
0.0
 11
181.3854928873
 21
301.6608883242
 31
0.0
  0
CIRCLE
  5
16F
330
1F
100
AcDbEntity
  8
0
  6
Continuous
 62
     7
370
    30
100
AcDbCircle
 10
182.7387797357
 20
301.1589440651
 30
0.0
 40
2.250000000000034
  0
CIRCLE
  5
170
330
1F
100
AcDbEntity
  8
0
  6
Continuous
 62
     7
370
    30
100
AcDbCircle
 10
182.7387797357
 20
301.1589440651
 30
0.0
 40
2.750000000000018
  0
LINE
  5
171
330
1F
100
AcDbEntity
  8
0
  6
Continuous
 62
     7
370
    30
100
AcDbLine
 10
115.8688129843
 20
266.0569185583
 30
0.0
 11
114.5261276369
 21
266.5865688121
 31
0.0
  0
LINE
  5
172
330
1F
100
AcDbEntity
  8
0
  6
Continuous
 62
     7
370
    30
100
AcDbLine
 10
114.5261276369
 20
266.5865688121
 30
0.0
 11
113.3960943884
 21
265.6885943189
 31
0.0
  0
LINE
  5
173
330
1F
100
AcDbEntity
  8
0
  6
Continuous
 62
     7
370
    30
100
AcDbLine
 10
113.3960943884
 20
265.6885943189
 30
0.0
 11
113.6087464871
 21
264.2609695719
 31
0.0
  0
LINE
  5
174
330
1F
100
AcDbEntity
  8
0
  6
Continuous
 62
     7
370
    30
100
AcDbLine
 10
113.6087464871
 20
264.2609695719
 30
0.0
 11
114.9514318345
 21
263.7313193181
 31
0.0
  0
LINE
  5
175
330
1F
100
AcDbEntity
  8
0
  6
Continuous
 62
     7
370
    30
100
AcDbLine
 10
114.9514318345
 20
263.7313193181
 30
0.0
 11
116.0814650831
 21
264.6292938113
 31
0.0
  0
LINE
  5
176
330
1F
100
AcDbEntity
  8
0
  6
Continuous
 62
     7
370
    30
100
AcDbLine
 10
116.0814650831
 20
264.6292938113
 30
0.0
 11
115.8688129843
 21
266.0569185583
 31
0.0
  0
CIRCLE
  5
177
330
1F
100
AcDbEntity
  8
0
  6
Continuous
 62
     7
370
    30
100
AcDbCircle
 10
114.7387797357
 20
265.1589440651
 30
0.0
 40
2.250000000000003
  0
CIRCLE
  5
178
330
1F
100
AcDbEntity
  8
0
  6
Continuous
 62
     7
370
    30
100
AcDbCircle
 10
114.7387797357
 20
265.1589440651
 30
0.0
 40
2.750000000000031
  0
LINE
  5
179
330
1F
100
AcDbEntity
  8
0
  6
Continuous
 62
     7
370
    30
100
AcDbLine
 10
115.9461713689
 20
300.3680339707
 30
0.0
 11
116.0274237861
 21
301.8091208446
 31
0.0
  0
LINE
  5
17A
330
1F
100
AcDbEntity
  8
0
  6
Continuous
 62
     7
370
    30
100
AcDbLine
 10
116.0274237861
 20
301.8091208446
 30
0.0
 11
114.8200321529
 21
302.600030939
 31
0.0
  0
LINE
  5
17B
330
1F
100
AcDbEntity
  8
0
  6
Continuous
 62
     7
370
    30
100
AcDbLine
 10
114.8200321529
 20
302.600030939
 30
0.0
 11
113.5313881025
 21
301.9498541594
 31
0.0
  0
LINE
  5
17C
330
1F
100
AcDbEntity
  8
0
  6
Continuous
 62
     7
370
    30
100
AcDbLine
 10
113.5313881025
 20
301.9498541594
 30
0.0
 11
113.4501356853
 21
300.5087672856
 31
0.0
  0
LINE
  5
17D
330
1F
100
AcDbEntity
  8
0
  6
Continuous
 62
     7
370
    30
100
AcDbLine
 10
113.4501356853
 20
300.5087672856
 30
0.0
 11
114.6575273185
 21
299.7178571912
 31
0.0
  0
LINE
  5
17E
330
1F
100
AcDbEntity
  8
0
  6
Continuous
 62
     7
370
    30
100
AcDbLine
 10
114.6575273185
 20
299.7178571912
 30
0.0
 11
115.9461713689
 21
300.3680339707
 31
0.0
  0
CIRCLE
  5
17F
330
1F
100
AcDbEntity
  8
0
  6
Continuous
 62
     7
370
    30
100
AcDbCircle
 10
114.7387797357
 20
301.1589440651
 30
0.0
 40
2.250000000000009
  0
CIRCLE
  5
180
330
1F
100
AcDbEntity
  8
0
  6
Continuous
 62
     7
370
    30
100
AcDbCircle
 10
114.7387797357
 20
301.1589440651
 30
0.0
 40
2.749999999999996
  0
LINE
  5
181
330
1F
100
AcDbEntity
  8
0
  6
Continuous
 62
     7
370
    30
100
AcDbLine
 10
184.1808041144
 20
265.0965018947
 30
0.0
 11
183.5138684309
 21
266.3765527247
 31
0.0
  0
LINE
  5
182
330
1F
100
AcDbEntity
  8
0
  6
Continuous
 62
     7
370
    30
100
AcDbLine
 10
183.5138684309
 20
266.3765527247
 30
0.0
 11
182.0718440522
 21
266.4389948951
 31
0.0
  0
LINE
  5
183
330
1F
100
AcDbEntity
  8
0
  6
Continuous
 62
     7
370
    30
100
AcDbLine
 10
182.0718440522
 20
266.4389948951
 30
0.0
 11
181.296755357
 21
265.2213862355
 31
0.0
  0
LINE
  5
184
330
1F
100
AcDbEntity
  8
0
  6
Continuous
 62
     7
370
    30
100
AcDbLine
 10
181.296755357
 20
265.2213862355
 30
0.0
 11
181.9636910406
 21
263.9413354055
 31
0.0
  0
LINE
  5
185
330
1F
100
AcDbEntity
  8
0
  6
Continuous
 62
     7
370
    30
100
AcDbLine
 10
181.9636910406
 20
263.9413354055
 30
0.0
 11
183.4057154192
 21
263.8788932351
 31
0.0
  0
LINE
  5
186
330
1F
100
AcDbEntity
  8
0
  6
Continuous
 62
     7
370
    30
100
AcDbLine
 10
183.4057154192
 20
263.8788932351
 30
0.0
 11
184.1808041144
 21
265.0965018947
 31
0.0
  0
CIRCLE
  5
187
330
1F
100
AcDbEntity
  8
0
  6
Continuous
 62
     7
370
    30
100
AcDbCircle
 10
182.7387797357
 20
265.1589440651
 30
0.0
 40
2.249999999999984
  0
CIRCLE
  5
188
330
1F
100
AcDbEntity
  8
0
  6
Continuous
 62
     7
370
    30
100
AcDbCircle
 10
182.7387797357
 20
265.1589440651
 30
0.0
 40
2.750000000000018
  0
CIRCLE
  5
189
330
1F
100
AcDbEntity
  8
0
  6
Continuous
 62
     7
370
    30
100
AcDbCircle
 10
148.7387797357
 20
283.1589440651
 30
0.0
 40
11.00000000000003
  0
LINE
  5
18A
330
1F
100
AcDbEntity
  8
0
  6
Continuous
 62
     7
370
    30
100
AcDbLine
 10
110.7387797357
 20
240.1589440651
 30
0.0
 11
186.7387797357
 21
240.1589440651
 31
0.0
  0
LINE
  5
18B
330
1F
100
AcDbEntity
  8
0
  6
Continuous
 62
     7
370
    30
100
AcDbLine
 10
110.7387797357
 20
326.1589440651
 30
0.0
 11
110.7387797357
 21
240.1589440651
 31
0.0
  0
LINE
  5
18C
330
1F
100
AcDbEntity
  8
0
  6
Continuous
 62
     7
370
    30
100
AcDbLine
 10
186.7387797357
 20
326.1589440651
 30
0.0
 11
110.7387797357
 21
326.1589440651
 31
0.0
  0
LINE
  5
18D
330
1F
100
AcDbEntity
  8
0
  6
Continuous
 62
     7
370
    30
100
AcDbLine
 10
186.7387797357
 20
240.1589440651
 30
0.0
 11
186.7387797357
 21
326.1589440651
 31
0.0
  0
CIRCLE
  5
18E
330
1F
100
AcDbEntity
  8
0
  6
Continuous
 62
     7
370
    30
100
AcDbCircle
 10
114.7387797357
 20
301.1589440651
 30
0.0
 40
3.25
  0
CIRCLE
  5
18F
330
1F
100
AcDbEntity
  8
0
  6
Continuous
 62
     7
370
    30
100
AcDbCircle
 10
114.7387797357
 20
265.1589440651
 30
0.0
 40
3.25
  0
CIRCLE
  5
190
330
1F
100
AcDbEntity
  8
0
  6
Continuous
 62
     7
370
    30
100
AcDbCircle
 10
182.7387797357
 20
301.1589440651
 30
0.0
 40
3.250000000000028
  0
CIRCLE
  5
191
330
1F
100
AcDbEntity
  8
0
  6
Continuous
 62
     7
370
    30
100
AcDbCircle
 10
182.7387797357
 20
265.1589440651
 30
0.0
 40
3.250000000000028
  0
CIRCLE
  5
192
330
1F
100
AcDbEntity
  8
0
  6
Continuous
 62
     7
370
    30
100
AcDbCircle
 10
123.7387797357
 20
283.1589440651
 30
0.0
 40
2.499999999999986
  0
CIRCLE
  5
193
330
1F
100
AcDbEntity
  8
0
  6
Continuous
 62
     7
370
    30
100
AcDbCircle
 10
173.7387797357
 20
283.1589440651
 30
0.0
 40
2.499999999999972
  0
CIRCLE
  5
194
330
1F
100
AcDbEntity
  8
0
  6
Continuous
 62
     7
370
    30
100
AcDbCircle
 10
148.7387797357
 20
308.1589440651
 30
0.0
 40
2.500000000000028
  0
CIRCLE
  5
195
330
1F
100
AcDbEntity
  8
0
  6
Continuous
 62
     7
370
    30
100
AcDbCircle
 10
148.7387797357
 20
258.1589440651
 30
0.0
 40
2.500000000000028
  0
CIRCLE
  5
196
330
1F
100
AcDbEntity
  8
0
  6
Continuous
 62
     7
370
    30
100
AcDbCircle
 10
123.7387797357
 20
308.1589440651
 30
0.0
 40
3.499999999999986
  0
CIRCLE
  5
197
330
1F
100
AcDbEntity
  8
0
  6
Continuous
 62
     7
370
    30
100
AcDbCircle
 10
173.7387797357
 20
308.1589440651
 30
0.0
 40
3.499999999999972
  0
CIRCLE
  5
198
330
1F
100
AcDbEntity
  8
0
  6
Continuous
 62
     7
370
    30
100
AcDbCircle
 10
123.7387797357
 20
258.1589440651
 30
0.0
 40
3.499999999999986
  0
CIRCLE
  5
199
330
1F
100
AcDbEntity
  8
0
  6
Continuous
 62
     7
370
    30
100
AcDbCircle
 10
173.7387797357
 20
258.1589440651
 30
0.0
 40
3.499999999999972
  0
LINE
  5
19A
330
1F
100
AcDbEntity
  8
0
  6
Continuous
 62
     7
370
    30
100
AcDbLine
 10
186.7387797357
 20
232.1589440651
 30
0.0
 11
186.7387797357
 21
240.1589440651
 31
0.0
  0
LINE
  5
19B
330
1F
100
AcDbEntity
  8
0
  6
Continuous
 62
     7
370
    30
100
AcDbLine
 10
186.7387797357
 20
232.1589440651
 30
0.0
 11
110.7387797357
 21
232.1589440651
 31
0.0
  0
LINE
  5
19C
330
1F
100
AcDbEntity
  8
0
  6
Continuous
 62
     7
370
    30
100
AcDbLine
 10
110.7387797357
 20
232.1589440651
 30
0.0
 11
110.7387797357
 21
240.1589440651
 31
0.0
  0
DIMENSION
  5
19D
330
1F
100
AcDbEntity
  8
SLD-0
100
AcDbDimension
  2
_D
 10
85.4048935084
 20
326.1589440651
 30
0.0
 11
85.4048935084
 21
304.6589440651
 31
0.0
 70
   160
  1
<>
 71
     2
 42
-1.0
  3
SLDDIMSTYLE0
100
AcDbAlignedDimension
 13
136.7387797357
 23
283.1589440651
 33
0.0
 14
110.7387797357
 24
326.1589440651
 34
0.0
 50
90.0
100
AcDbRotatedDimension
  0
DIMENSION
  5
1A8
330
1F
100
AcDbEntity
  8
SLD-0
100
AcDbDimension
  2
_D_1
 10
99.0332433287
 20
308.1589440651
 30
0.0
 11
99.0332433287
 21
295.6589440651
 31
0.0
 70
   160
  1
<>
 71
     2
 42
-1.0
  3
SLDDIMSTYLE0
100
AcDbAlignedDimension
 13
136.7387797357
 23
283.1589440651
 33
0.0
 14
119.2387797357
 24
308.1589440651
 34
0.0
 50
90.0
100
AcDbRotatedDimension
  0
DIMENSION
  5
1B2
330
1F
100
AcDbEntity
  8
SLD-0
100
AcDbDimension
  2
_D_2
 10
99.0332433287
 20
258.1589440651
 30
0.0
 11
99.0332433287
 21
270.6589440651
 31
0.0
 70
   160
  1
<>
 71
     2
 42
-1.0
  3
SLDDIMSTYLE0
100
AcDbAlignedDimension
 13
136.7387797357
 23
283.1589440651
 33
0.0
 14
119.2387797357
 24
258.1589440651
 34
0.0
 50
90.0
100
AcDbRotatedDimension
  0
DIMENSION
  5
1BC
330
1F
100
AcDbEntity
  8
SLD-0
100
AcDbDimension
  2
_D_3
 10
123.7387797357
 20
337.0612101648
 30
0.0
 11
136.2387797357
 21
337.0612101648
 31
0.0
 70
   160
  1
<>
 71
     2
 42
-1.0
  3
SLDDIMSTYLE0
100
AcDbAlignedDimension
 13
148.7387797357
 23
295.1589440651
 33
0.0
 14
123.7387797357
 24
312.6589440651
 34
0.0
100
AcDbRotatedDimension
  0
DIMENSION
  5
1C6
330
1F
100
AcDbEntity
  8
SLD-0
100
AcDbDimension
  2
_D_4
 10
173.7387797357
 20
337.0612101648
 30
0.0
 11
161.2387797357
 21
337.0612101648
 31
0.0
 70
   160
  1
<>
 71
     2
 42
-1.0
  3
SLDDIMSTYLE0
100
AcDbAlignedDimension
 13
148.7387797357
 23
295.1589440651
 33
0.0
 14
173.7387797357
 24
312.6589440651
 34
0.0
100
AcDbRotatedDimension
  0
DIMENSION
  5
1D0
330
1F
100
AcDbEntity
  8
SLD-0
100
AcDbDimension
  2
_D_5
 10
141.5285822311
 20
274.8515346046
 30
0.0
 11
219.4897149084
 21
348.5785709713
 31
0.0
 70
   163
  1
ACCEPTS\P %%c1" OPTICS\PMax.THK 6
 71
     1
 42
-1.0
  3
SLDDIMSTYLE1
100
AcDbDiametricDimension
 15
155.9489772403
 25
291.4663535256
 35
0.0
 40
0.0
  0
DIMENSION
  5
1DD
330
1F
100
AcDbEntity
  8
SLD-0
100
AcDbDimension
  2
_D_6
 10
171.4588191549
 20
282.133380927
 30
0.0
 11
219.4897149084
 21
303.3325549982
 31
0.0
 70
   163
  1
4 HOLES,\P M6
 71
     1
 42
-1.0
  3
SLDDIMSTYLE1
100
AcDbDiametricDimension
 15
176.0187403165
 25
284.1845072031
 35
0.0
 40
0.0
  0
DIMENSION
  5
1E6
330
1F
100
AcDbEntity
  8
SLD-0
100
AcDbDimension
  2
_D_7
 10
125.6638927028
 20
261.0819459576
 30
0.0
 11
85.4048935084
 21
241.6245779692
 31
0.0
 70
   163
  1
4-<> HOLES.
 71
     1
 42
-1.0
  3
SLDDIMSTYLE2
100
AcDbDiametricDimension
 15
121.8136667686
 25
255.2359421725
 35
0.0
 40
0.0
  0
DIMENSION
  5
1F2
330
1F
100
AcDbEntity
  8
SLD-0
100
AcDbDimension
  2
_D_8
 10
141.534863337
 20
291.4718008857
 30
0.0
 11
87.3646482871
 21
339.0026941713
 31
0.0
 70
   163
  1
C.A.<>
 71
     1
 42
-1.0
  3
SLDDIMSTYLE3
100
AcDbDiametricDimension
 15
155.9426961344
 25
274.8460872445
 35
0.0
 40
0.0
  0
INSERT
  5
20A
330
1F
100
AcDbEntity
  8
SLD-0
100
AcDbBlockReference
  2
SW_CENTERMARKSYMBOL_0
 10
123.7387797357
 20
308.1589440651
 30
0.0
  0
INSERT
  5
216
330
1F
100
AcDbEntity
  8
SLD-0
100
AcDbBlockReference
  2
SW_CENTERMARKSYMBOL_1
 10
123.7387797357
 20
283.1589440651
 30
0.0
  0
INSERT
  5
222
330
1F
100
AcDbEntity
  8
SLD-0
100
AcDbBlockReference
  2
SW_CENTERMARKSYMBOL_2
 10
148.7387797357
 20
283.1589440651
 30
0.0
  0
INSERT
  5
22E
330
1F
100
AcDbEntity
  8
SLD-0
100
AcDbBlockReference
  2
SW_CENTERMARKSYMBOL_3
 10
148.7387797357
 20
308.1589440651
 30
0.0
  0
INSERT
  5
23A
330
1F
100
AcDbEntity
  8
SLD-0
100
AcDbBlockReference
  2
SW_CENTERMARKSYMBOL_4
 10
173.7387797357
 20
308.1589440651
 30
0.0
  0
INSERT
  5
246
330
1F
100
AcDbEntity
  8
SLD-0
100
AcDbBlockReference
  2
SW_CENTERMARKSYMBOL_5
 10
173.7387797357
 20
283.1589440651
 30
0.0
  0
INSERT
  5
252
330
1F
100
AcDbEntity
  8
SLD-0
100
AcDbBlockReference
  2
SW_CENTERMARKSYMBOL_6
 10
173.7387797357
 20
258.1589440651
 30
0.0
  0
INSERT
  5
25E
330
1F
100
AcDbEntity
  8
SLD-0
100
AcDbBlockReference
  2
SW_CENTERMARKSYMBOL_7
 10
148.7387797357
 20
258.1589440651
 30
0.0
  0
INSERT
  5
26A
330
1F
100
AcDbEntity
  8
SLD-0
100
AcDbBlockReference
  2
SW_CENTERMARKSYMBOL_8
 10
123.7387797357
 20
258.1589440651
 30
0.0
  0
LINE
  5
26B
330
1F
100
AcDbEntity
  8
0
  6
Continuous
 62
     7
370
    30
100
AcDbLine
 10
131.0438576402
 20
167.7506998167
 30
0.0
 11
129.6695594629
 21
167.3095220146
 31
0.0
  0
LINE
  5
26C
330
1F
100
AcDbEntity
  8
0
  6
Continuous
 62
     7
370
    30
100
AcDbLine
 10
129.6695594629
 20
167.3095220146
 30
0.0
 11
129.3644815583
 21
165.8987559796
 31
0.0
  0
LINE
  5
26D
330
1F
100
AcDbEntity
  8
0
  6
Continuous
 62
     7
370
    30
100
AcDbLine
 10
129.3644815583
 20
165.8987559796
 30
0.0
 11
130.4337018312
 21
164.9291677467
 31
0.0
  0
LINE
  5
26E
330
1F
100
AcDbEntity
  8
0
  6
Continuous
 62
     7
370
    30
100
AcDbLine
 10
130.4337018312
 20
164.9291677467
 30
0.0
 11
131.8080000086
 21
165.3703455487
 31
0.0
  0
LINE
  5
26F
330
1F
100
AcDbEntity
  8
0
  6
Continuous
 62
     7
370
    30
100
AcDbLine
 10
131.8080000086
 20
165.3703455487
 30
0.0
 11
132.1130779131
 21
166.7811115837
 31
0.0
  0
LINE
  5
270
330
1F
100
AcDbEntity
  8
0
  6
Continuous
 62
     7
370
    30
100
AcDbLine
 10
132.1130779131
 20
166.7811115837
 30
0.0
 11
131.0438576402
 21
167.7506998167
 31
0.0
  0
CIRCLE
  5
271
330
1F
100
AcDbEntity
  8
0
  6
Continuous
 62
     7
370
    30
100
AcDbCircle
 10
130.7387797357
 20
166.3399337817
 30
0.0
 40
2.250000000000002
  0
CIRCLE
  5
272
330
1F
100
AcDbEntity
  8
0
  6
Continuous
 62
     7
370
    30
100
AcDbCircle
 10
130.7387797357
 20
166.3399337817
 30
0.0
 40
2.750000000000008
  0
CIRCLE
  5
273
330
1F
100
AcDbEntity
  8
0
  6
Continuous
 62
     7
370
    30
100
AcDbCircle
 10
166.7387797357
 20
166.3399337817
 30
0.0
 40
2.750000000000004
  0
CIRCLE
  5
274
330
1F
100
AcDbEntity
  8
0
  6
Continuous
 62
     7
370
    30
100
AcDbCircle
 10
166.7387797357
 20
166.3399337817
 30
0.0
 40
2.25000000000005
  0
LINE
  5
275
330
1F
100
AcDbEntity
  8
0
  6
Continuous
 62
     7
370
    30
100
AcDbLine
 10
165.3627712394
 20
165.9041196567
 30
0.0
 11
166.4282015912
 21
164.9303684056
 31
0.0
  0
LINE
  5
276
330
1F
100
AcDbEntity
  8
0
  6
Continuous
 62
     7
370
    30
100
AcDbLine
 10
166.4282015912
 20
164.9303684056
 30
0.0
 11
167.8042100874
 21
165.3661825306
 31
0.0
  0
LINE
  5
277
330
1F
100
AcDbEntity
  8
0
  6
Continuous
 62
     7
370
    30
100
AcDbLine
 10
167.8042100874
 20
165.3661825306
 30
0.0
 11
168.114788232
 21
166.7757479067
 31
0.0
  0
LINE
  5
278
330
1F
100
AcDbEntity
  8
0
  6
Continuous
 62
     7
370
    30
100
AcDbLine
 10
168.114788232
 20
166.7757479067
 30
0.0
 11
167.0493578803
 21
167.7494991577
 31
0.0
  0
LINE
  5
279
330
1F
100
AcDbEntity
  8
0
  6
Continuous
 62
     7
370
    30
100
AcDbLine
 10
167.0493578803
 20
167.7494991577
 30
0.0
 11
165.673349384
 21
167.3136850327
 31
0.0
  0
LINE
  5
27A
330
1F
100
AcDbEntity
  8
0
  6
Continuous
 62
     7
370
    30
100
AcDbLine
 10
165.673349384
 20
167.3136850327
 30
0.0
 11
165.3627712394
 21
165.9041196567
 31
0.0
  0
CIRCLE
  5
27B
330
1F
100
AcDbEntity
  8
0
  6
Continuous
 62
     7
370
    30
100
AcDbCircle
 10
182.7387797357
 20
136.3399337817
 30
0.0
 40
2.750000000000059
  0
CIRCLE
  5
27C
330
1F
100
AcDbEntity
  8
0
  6
Continuous
 62
     7
370
    30
100
AcDbCircle
 10
182.7387797357
 20
136.3399337817
 30
0.0
 40
2.250000000000039
  0
LINE
  5
27D
330
1F
100
AcDbEntity
  8
0
  6
Continuous
 62
     7
370
    30
100
AcDbLine
 10
181.5641164196
 20
135.5011850546
 30
0.0
 11
182.8778257826
 21
134.9032711455
 31
0.0
  0
LINE
  5
27E
330
1F
100
AcDbEntity
  8
0
  6
Continuous
 62
     7
370
    30
100
AcDbLine
 10
182.8778257826
 20
134.9032711455
 30
0.0
 11
184.0524890988
 21
135.7420198725
 31
0.0
  0
LINE
  5
27F
330
1F
100
AcDbEntity
  8
0
  6
Continuous
 62
     7
370
    30
100
AcDbLine
 10
184.0524890988
 20
135.7420198725
 30
0.0
 11
183.9134430518
 21
137.1786825087
 31
0.0
  0
LINE
  5
280
330
1F
100
AcDbEntity
  8
0
  6
Continuous
 62
     7
370
    30
100
AcDbLine
 10
183.9134430518
 20
137.1786825087
 30
0.0
 11
182.5997336888
 21
137.7765964178
 31
0.0
  0
LINE
  5
281
330
1F
100
AcDbEntity
  8
0
  6
Continuous
 62
     7
370
    30
100
AcDbLine
 10
182.5997336888
 20
137.7765964178
 30
0.0
 11
181.4250703726
 21
136.9378476908
 31
0.0
  0
LINE
  5
282
330
1F
100
AcDbEntity
  8
0
  6
Continuous
 62
     7
370
    30
100
AcDbLine
 10
181.4250703726
 20
136.9378476908
 30
0.0
 11
181.5641164196
 21
135.5011850546
 31
0.0
  0
CIRCLE
  5
283
330
1F
100
AcDbEntity
  8
0
  6
Continuous
 62
     7
370
    30
100
AcDbCircle
 10
182.7387797357
 20
100.3399337817
 30
0.0
 40
2.750000000000031
  0
CIRCLE
  5
284
330
1F
100
AcDbEntity
  8
0
  6
Continuous
 62
     7
370
    30
100
AcDbCircle
 10
182.7387797357
 20
100.3399337817
 30
0.0
 40
2.250000000000021
  0
LINE
  5
285
330
1F
100
AcDbEntity
  8
0
  6
Continuous
 62
     7
370
    30
100
AcDbLine
 10
181.3422766561
 20
100.7047796149
 30
0.0
 11
181.7245624358
 21
99.3129495549
 31
0.0
  0
LINE
  5
286
330
1F
100
AcDbEntity
  8
0
  6
Continuous
 62
     7
370
    30
100
AcDbLine
 10
181.7245624358
 20
99.3129495549
 30
0.0
 11
183.1210655154
 21
98.9481037216
 31
0.0
  0
LINE
  5
287
330
1F
100
AcDbEntity
  8
0
  6
Continuous
 62
     7
370
    30
100
AcDbLine
 10
183.1210655154
 20
98.9481037216
 30
0.0
 11
184.1352828153
 21
99.9750879484
 31
0.0
  0
LINE
  5
288
330
1F
100
AcDbEntity
  8
0
  6
Continuous
 62
     7
370
    30
100
AcDbLine
 10
184.1352828153
 20
99.9750879484
 30
0.0
 11
183.7529970356
 21
101.3669180084
 31
0.0
  0
LINE
  5
289
330
1F
100
AcDbEntity
  8
0
  6
Continuous
 62
     7
370
    30
100
AcDbLine
 10
183.7529970356
 20
101.3669180084
 30
0.0
 11
182.356493956
 21
101.7317638417
 31
0.0
  0
LINE
  5
28A
330
1F
100
AcDbEntity
  8
0
  6
Continuous
 62
     7
370
    30
100
AcDbLine
 10
182.356493956
 20
101.7317638417
 30
0.0
 11
181.3422766561
 21
100.7047796149
 31
0.0
  0
LINE
  5
28B
330
1F
100
AcDbEntity
  8
0
  6
Continuous
 62
     7
370
    30
100
AcDbLine
 10
113.3076778991
 20
136.5277657988
 30
0.0
 11
113.8605615189
 21
135.1944792443
 31
0.0
  0
LINE
  5
28C
330
1F
100
AcDbEntity
  8
0
  6
Continuous
 62
     7
370
    30
100
AcDbLine
 10
113.8605615189
 20
135.1944792443
 30
0.0
 11
115.2916633555
 21
135.0066472272
 31
0.0
  0
LINE
  5
28D
330
1F
100
AcDbEntity
  8
0
  6
Continuous
 62
     7
370
    30
100
AcDbLine
 10
115.2916633555
 20
135.0066472272
 30
0.0
 11
116.1698815723
 21
136.1521017645
 31
0.0
  0
LINE
  5
28E
330
1F
100
AcDbEntity
  8
0
  6
Continuous
 62
     7
370
    30
100
AcDbLine
 10
116.1698815723
 20
136.1521017645
 30
0.0
 11
115.6169979525
 21
137.485388319
 31
0.0
  0
LINE
  5
28F
330
1F
100
AcDbEntity
  8
0
  6
Continuous
 62
     7
370
    30
100
AcDbLine
 10
115.6169979525
 20
137.485388319
 30
0.0
 11
114.1858961159
 21
137.6732203361
 31
0.0
  0
LINE
  5
290
330
1F
100
AcDbEntity
  8
0
  6
Continuous
 62
     7
370
    30
100
AcDbLine
 10
114.1858961159
 20
137.6732203361
 30
0.0
 11
113.3076778991
 21
136.5277657988
 31
0.0
  0
CIRCLE
  5
291
330
1F
100
AcDbEntity
  8
0
  6
Continuous
 62
     7
370
    30
100
AcDbCircle
 10
114.7387797357
 20
136.3399337817
 30
0.0
 40
2.250000000000013
  0
CIRCLE
  5
292
330
1F
100
AcDbEntity
  8
0
  6
Continuous
 62
     7
370
    30
100
AcDbCircle
 10
114.7387797357
 20
136.3399337817
 30
0.0
 40
2.750000000000024
  0
CIRCLE
  5
293
330
1F
100
AcDbEntity
  8
0
  6
Continuous
 62
     7
370
    30
100
AcDbCircle
 10
114.7387797357
 20
100.3399337817
 30
0.0
 40
2.750000000000019
  0
CIRCLE
  5
294
330
1F
100
AcDbEntity
  8
0
  6
Continuous
 62
     7
370
    30
100
AcDbCircle
 10
114.7387797357
 20
100.3399337817
 30
0.0
 40
2.250000000000003
  0
LINE
  5
295
330
1F
100
AcDbEntity
  8
0
  6
Continuous
 62
     7
370
    30
100
AcDbLine
 10
113.3076778991
 20
100.5277657988
 30
0.0
 11
113.8605615189
 21
99.1944792443
 31
0.0
  0
LINE
  5
296
330
1F
100
AcDbEntity
  8
0
  6
Continuous
 62
     7
370
    30
100
AcDbLine
 10
113.8605615189
 20
99.1944792443
 30
0.0
 11
115.2916633555
 21
99.0066472272
 31
0.0
  0
LINE
  5
297
330
1F
100
AcDbEntity
  8
0
  6
Continuous
 62
     7
370
    30
100
AcDbLine
 10
115.2916633555
 20
99.0066472272
 30
0.0
 11
116.1698815723
 21
100.1521017645
 31
0.0
  0
LINE
  5
298
330
1F
100
AcDbEntity
  8
0
  6
Continuous
 62
     7
370
    30
100
AcDbLine
 10
116.1698815723
 20
100.1521017645
 30
0.0
 11
115.6169979525
 21
101.485388319
 31
0.0
  0
LINE
  5
299
330
1F
100
AcDbEntity
  8
0
  6
Continuous
 62
     7
370
    30
100
AcDbLine
 10
115.6169979525
 20
101.485388319
 30
0.0
 11
114.1858961159
 21
101.6732203361
 31
0.0
  0
LINE
  5
29A
330
1F
100
AcDbEntity
  8
0
  6
Continuous
 62
     7
370
    30
100
AcDbLine
 10
114.1858961159
 20
101.6732203361
 30
0.0
 11
113.3076778991
 21
100.5277657988
 31
0.0
  0
LINE
  5
29B
330
1F
100
AcDbEntity
  8
0
  6
Continuous
 62
     7
370
    30
100
AcDbLine
 10
110.7387797357
 20
75.3399337817
 30
0.0
 11
186.7387797357
 21
75.3399337817
 31
0.0
  0
LINE
  5
29C
330
1F
100
AcDbEntity
  8
0
  6
Continuous
 62
     7
370
    30
100
AcDbLine
 10
110.7387797357
 20
171.3399337817
 30
0.0
 11
110.7387797357
 21
75.3399337817
 31
0.0
  0
LINE
  5
29D
330
1F
100
AcDbEntity
  8
0
  6
Continuous
 62
     7
370
    30
100
AcDbLine
 10
186.7387797357
 20
171.3399337817
 30
0.0
 11
110.7387797357
 21
171.3399337817
 31
0.0
  0
LINE
  5
29E
330
1F
100
AcDbEntity
  8
0
  6
Continuous
 62
     7
370
    30
100
AcDbLine
 10
186.7387797357
 20
75.3399337817
 30
0.0
 11
186.7387797357
 21
171.3399337817
 31
0.0
  0
CIRCLE
  5
29F
330
1F
100
AcDbEntity
  8
0
  6
Continuous
 62
     7
370
    30
100
AcDbCircle
 10
130.7387797357
 20
166.3399337817
 30
0.0
 40
3.25
  0
CIRCLE
  5
2A0
330
1F
100
AcDbEntity
  8
0
  6
Continuous
 62
     7
370
    30
100
AcDbCircle
 10
114.7387797357
 20
100.3399337817
 30
0.0
 40
3.25
  0
CIRCLE
  5
2A1
330
1F
100
AcDbEntity
  8
0
  6
Continuous
 62
     7
370
    30
100
AcDbCircle
 10
114.7387797357
 20
136.3399337817
 30
0.0
 40
3.25
  0
CIRCLE
  5
2A2
330
1F
100
AcDbEntity
  8
0
  6
Continuous
 62
     7
370
    30
100
AcDbCircle
 10
182.7387797357
 20
136.3399337817
 30
0.0
 40
3.250000000000028
  0
CIRCLE
  5
2A3
330
1F
100
AcDbEntity
  8
0
  6
Continuous
 62
     7
370
    30
100
AcDbCircle
 10
182.7387797357
 20
100.3399337817
 30
0.0
 40
3.250000000000028
  0
CIRCLE
  5
2A4
330
1F
100
AcDbEntity
  8
0
  6
Continuous
 62
     7
370
    30
100
AcDbCircle
 10
166.7387797357
 20
166.3399337817
 30
0.0
 40
3.25
  0
CIRCLE
  5
2A5
330
1F
100
AcDbEntity
  8
0
  6
Continuous
 62
     7
370
    30
100
AcDbCircle
 10
136.2387797357
 20
105.8399337817
 30
0.0
 40
1.649999999999977
  0
CIRCLE
  5
2A6
330
1F
100
AcDbEntity
  8
0
  6
Continuous
 62
     7
370
    30
100
AcDbCircle
 10
136.2387797357
 20
130.8399337817
 30
0.0
 40
1.649999999999977
  0
CIRCLE
  5
2A7
330
1F
100
AcDbEntity
  8
0
  6
Continuous
 62
     7
370
    30
100
AcDbCircle
 10
161.2387797357
 20
130.8399337817
 30
0.0
 40
1.650000000000006
  0
CIRCLE
  5
2A8
330
1F
100
AcDbEntity
  8
0
  6
Continuous
 62
     7
370
    30
100
AcDbCircle
 10
161.2387797357
 20
105.8399337817
 30
0.0
 40
1.650000000000006
  0
CIRCLE
  5
2A9
330
1F
100
AcDbEntity
  8
0
  6
Continuous
 62
     7
370
    30
100
AcDbCircle
 10
148.7387797357
 20
143.3399337817
 30
0.0
 40
2.500000000000028
  0
CIRCLE
  5
2AA
330
1F
100
AcDbEntity
  8
0
  6
Continuous
 62
     7
370
    30
100
AcDbCircle
 10
148.7387797357
 20
118.3399337817
 30
0.0
 40
2.500000000000028
  0
CIRCLE
  5
2AB
330
1F
100
AcDbEntity
  8
0
  6
Continuous
 62
     7
370
    30
100
AcDbCircle
 10
148.7387797357
 20
93.3399337817
 30
0.0
 40
2.500000000000028
  0
CIRCLE
  5
2AC
330
1F
100
AcDbEntity
  8
0
  6
Continuous
 62
     7
370
    30
100
AcDbCircle
 10
123.7387797357
 20
118.3399337817
 30
0.0
 40
2.499999999999986
  0
CIRCLE
  5
2AD
330
1F
100
AcDbEntity
  8
0
  6
Continuous
 62
     7
370
    30
100
AcDbCircle
 10
173.7387797357
 20
118.3399337817
 30
0.0
 40
2.5
  0
CIRCLE
  5
2AE
330
1F
100
AcDbEntity
  8
0
  6
Continuous
 62
     7
370
    30
100
AcDbCircle
 10
173.7387797357
 20
93.3399337817
 30
0.0
 40
3.5
  0
CIRCLE
  5
2AF
330
1F
100
AcDbEntity
  8
0
  6
Continuous
 62
     7
370
    30
100
AcDbCircle
 10
123.7387797357
 20
93.3399337817
 30
0.0
 40
3.5
  0
CIRCLE
  5
2B0
330
1F
100
AcDbEntity
  8
0
  6
Continuous
 62
     7
370
    30
100
AcDbCircle
 10
123.7387797357
 20
143.3399337817
 30
0.0
 40
3.5
  0
CIRCLE
  5
2B1
330
1F
100
AcDbEntity
  8
0
  6
Continuous
 62
     7
370
    30
100
AcDbCircle
 10
173.7387797357
 20
143.3399337817
 30
0.0
 40
3.5
  0
DIMENSION
  5
2B2
330
1F
100
AcDbEntity
  8
SLD-0
100
AcDbDimension
  2
_D_9
 10
186.7387797357
 20
213.3399337817
 30
0.0
 11
148.7387797357
 21
213.3399337817
 31
0.0
 70
   160
  1
<>
 71
     2
 42
-1.0
  3
SLDDIMSTYLE0
100
AcDbAlignedDimension
 13
110.7387797357
 23
171.3399337817
 33
0.0
 14
186.7387797357
 24
171.3399337817
 34
0.0
100
AcDbRotatedDimension
  0
DIMENSION
  5
2BC
330
1F
100
AcDbEntity
  8
SLD-0
100
AcDbDimension
  2
_D_10
 10
68.7387797357
 20
75.3399337817
 30
0.0
 11
68.7387797357
 21
123.3399337817
 31
0.0
 70
   160
  1
<>
 71
     2
 42
-1.0
  3
SLDDIMSTYLE0
100
AcDbAlignedDimension
 13
110.7387797357
 23
171.3399337817
 33
0.0
 14
110.7387797357
 24
75.3399337817
 34
0.0
 50
90.0
100
AcDbRotatedDimension
  0
DIMENSION
  5
2C6
330
1F
100
AcDbEntity
  8
SLD-0
100
AcDbDimension
  2
_D_11
 10
171.1464439213
 20
140.9883821609
 30
0.0
 11
223.1075969954
 21
169.9839257951
 31
0.0
 70
   163
  1
4-<> HOLES.
 71
     1
 42
-1.0
  3
SLDDIMSTYLE2
100
AcDbDiametricDimension
 15
176.3311155501
 25
145.6914854025
 35
0.0
 40
0.0
  0
DIMENSION
  5
2D1
330
1F
100
AcDbEntity
  8
SLD-0
100
AcDbDimension
  2
_D_12
 10
171.5037182609
 20
117.2198890488
 30
0.0
 11
218.310415625
 21
139.3483907388
 31
0.0
 70
   163
  1
5 HOLES,\PM6
 71
     1
 42
-1.0
  3
SLDDIMSTYLE1
100
AcDbDiametricDimension
 15
175.9738412105
 25
119.4599785146
 35
0.0
 40
0.0
  0
DIMENSION
  5
2DA
330
1F
100
AcDbEntity
  8
SLD-0
100
AcDbDimension
  2
_D_13
 10
159.756299305
 20
106.5643313055
 30
0.0
 11
223.1075969954
 21
92.0588731367
 31
0.0
 70
   163
  1
4 HOLES,\P M4
 71
     1
 42
-1.0
  3
SLDDIMSTYLE1
100
AcDbDiametricDimension
 15
162.7212601664
 25
105.1155362578
 35
0.0
 40
0.0
  0
DIMENSION
  5
2E3
330
1F
100
AcDbEntity
  8
SLD-0
100
AcDbDimension
  2
_D_14
 10
123.7387797357
 20
199.3399337817
 30
0.0
 11
136.2387797357
 21
199.3399337817
 31
0.0
 70
   160
  1
<>
 71
     2
 42
-1.0
  3
SLDDIMSTYLE0
100
AcDbAlignedDimension
 13
148.7387797357
 23
146.8399337817
 33
0.0
 14
123.7387797357
 24
147.8399337817
 34
0.0
100
AcDbRotatedDimension
  0
DIMENSION
  5
2ED
330
1F
100
AcDbEntity
  8
SLD-0
100
AcDbDimension
  2
_D_15
 10
173.7387797357
 20
199.3399337817
 30
0.0
 11
161.2387797357
 21
199.3399337817
 31
0.0
 70
   160
  1
<>
 71
     2
 42
-1.0
  3
SLDDIMSTYLE0
100
AcDbAlignedDimension
 13
148.7387797357
 23
146.8399337817
 33
0.0
 14
173.7387797357
 24
147.8399337817
 34
0.0
100
AcDbRotatedDimension
  0
DIMENSION
  5
2F7
330
1F
100
AcDbEntity
  8
SLD-0
100
AcDbDimension
  2
_D_16
 10
148.7387797357
 20
185.3399337817
 30
0.0
 11
142.4887797357
 21
185.3399337817
 31
0.0
 70
   160
  1
<>
 71
     2
 42
-1.0
  3
SLDDIMSTYLE0
100
AcDbAlignedDimension
 13
136.2387797357
 23
133.4899337817
 33
0.0
 14
148.7387797357
 24
146.8399337817
 34
0.0
100
AcDbRotatedDimension
  0
DIMENSION
  5
301
330
1F
100
AcDbEntity
  8
SLD-0
100
AcDbDimension
  2
_D_17
 10
161.2387797357
 20
185.3399337817
 30
0.0
 11
154.9887797357
 21
185.3399337817
 31
0.0
 70
   160
  1
<>
 71
     2
 42
-1.0
  3
SLDDIMSTYLE0
100
AcDbAlignedDimension
 13
148.7387797357
 23
146.8399337817
 33
0.0
 14
161.2387797357
 24
133.4899337817
 34
0.0
100
AcDbRotatedDimension
  0
DIMENSION
  5
30B
330
1F
100
AcDbEntity
  8
SLD-0
100
AcDbDimension
  2
_D_18
 10
96.7387797357
 20
118.3399337817
 30
0.0
 11
96.7387797357
 21
124.5899337817
 31
0.0
 70
   160
  1
<>
 71
     2
 42
-1.0
  3
SLDDIMSTYLE0
100
AcDbAlignedDimension
 13
133.5887797357
 23
130.8399337817
 33
0.0
 14
120.2387797357
 24
118.3399337817
 34
0.0
 50
90.0
100
AcDbRotatedDimension
  0
DIMENSION
  5
315
330
1F
100
AcDbEntity
  8
SLD-0
100
AcDbDimension
  2
_D_19
 10
96.7387797357
 20
105.8399337817
 30
0.0
 11
96.7387797357
 21
112.0899337817
 31
0.0
 70
   160
  1
<>
 71
     2
 42
-1.0
  3
SLDDIMSTYLE0
100
AcDbAlignedDimension
 13
120.2387797357
 23
118.3399337817
 33
0.0
 14
133.5887797357
 24
105.8399337817
 34
0.0
 50
90.0
100
AcDbRotatedDimension
  0
DIMENSION
  5
31F
330
1F
100
AcDbEntity
  8
SLD-0
100
AcDbDimension
  2
_D_20
 10
82.7387797357
 20
93.3399337817
 30
0.0
 11
82.7387797357
 21
105.8399337817
 31
0.0
 70
   160
  1
<>
 71
     2
 42
-1.0
  3
SLDDIMSTYLE0
100
AcDbAlignedDimension
 13
120.2387797357
 23
118.3399337817
 33
0.0
 14
119.2387797357
 24
93.3399337817
 34
0.0
 50
90.0
100
AcDbRotatedDimension
  0
DIMENSION
  5
329
330
1F
100
AcDbEntity
  8
SLD-0
100
AcDbDimension
  2
_D_21
 10
82.7387797357
 20
143.3399337817
 30
0.0
 11
82.7387797357
 21
130.8399337817
 31
0.0
 70
   160
  1
<>
 71
     2
 42
-1.0
  3
SLDDIMSTYLE0
100
AcDbAlignedDimension
 13
120.2387797357
 23
118.3399337817
 33
0.0
 14
119.2387797357
 24
143.3399337817
 34
0.0
 50
90.0
100
AcDbRotatedDimension
  0
INSERT
  5
33E
330
1F
100
AcDbEntity
  8
SLD-0
100
AcDbBlockReference
  2
SW_CENTERMARKSYMBOL_9
 10
123.7387797357
 20
143.3399337817
 30
0.0
  0
INSERT
  5
34A
330
1F
100
AcDbEntity
  8
SLD-0
100
AcDbBlockReference
  2
SW_CENTERMARKSYMBOL_10
 10
173.7387797357
 20
143.3399337817
 30
0.0
  0
INSERT
  5
356
330
1F
100
AcDbEntity
  8
SLD-0
100
AcDbBlockReference
  2
SW_CENTERMARKSYMBOL_11
 10
161.2387797357
 20
130.8399337817
 30
0.0
  0
INSERT
  5
362
330
1F
100
AcDbEntity
  8
SLD-0
100
AcDbBlockReference
  2
SW_CENTERMARKSYMBOL_12
 10
136.2387797357
 20
130.8399337817
 30
0.0
  0
INSERT
  5
36E
330
1F
100
AcDbEntity
  8
SLD-0
100
AcDbBlockReference
  2
SW_CENTERMARKSYMBOL_13
 10
123.7387797357
 20
118.3399337817
 30
0.0
  0
INSERT
  5
37A
330
1F
100
AcDbEntity
  8
SLD-0
100
AcDbBlockReference
  2
SW_CENTERMARKSYMBOL_14
 10
123.7387797357
 20
93.3399337817
 30
0.0
  0
INSERT
  5
386
330
1F
100
AcDbEntity
  8
SLD-0
100
AcDbBlockReference
  2
SW_CENTERMARKSYMBOL_15
 10
136.2387797357
 20
105.8399337817
 30
0.0
  0
INSERT
  5
392
330
1F
100
AcDbEntity
  8
SLD-0
100
AcDbBlockReference
  2
SW_CENTERMARKSYMBOL_16
 10
161.2387797357
 20
105.8399337817
 30
0.0
  0
INSERT
  5
39E
330
1F
100
AcDbEntity
  8
SLD-0
100
AcDbBlockReference
  2
SW_CENTERMARKSYMBOL_17
 10
173.7387797357
 20
93.3399337817
 30
0.0
  0
INSERT
  5
3AA
330
1F
100
AcDbEntity
  8
SLD-0
100
AcDbBlockReference
  2
SW_CENTERMARKSYMBOL_18
 10
173.7387797357
 20
118.3399337817
 30
0.0
  0
INSERT
  5
3B6
330
1F
100
AcDbEntity
  8
SLD-0
100
AcDbBlockReference
  2
SW_CENTERMARKSYMBOL_19
 10
148.7387797357
 20
143.3399337817
 30
0.0
  0
INSERT
  5
3C2
330
1F
100
AcDbEntity
  8
SLD-0
100
AcDbBlockReference
  2
SW_CENTERMARKSYMBOL_20
 10
148.7387797357
 20
118.3399337817
 30
0.0
  0
INSERT
  5
3CE
330
1F
100
AcDbEntity
  8
SLD-0
100
AcDbBlockReference
  2
SW_CENTERMARKSYMBOL_21
 10
148.7387797357
 20
93.3399337817
 30
0.0
  0
LINE
  5
3CF
330
1F
100
AcDbEntity
  8
0
  6
Continuous
 62
     7
370
    30
100
AcDbLine
 10
296.6138246236
 20
326.1589440651
 30
0.0
 11
286.6138246236
 21
326.1589440651
 31
0.0
  0
LINE
  5
3D0
330
1F
100
AcDbEntity
  8
0
  6
Continuous
 62
     7
370
    30
100
AcDbLine
 10
313.2892191658
 20
266.8343386073
 30
0.0
 11
296.6138246236
 21
326.1589440651
 31
0.0
  0
LINE
  5
3D1
330
1F
100
AcDbEntity
  8
0
  6
Continuous
 62
     7
370
    30
100
AcDbLine
 10
372.6138246236
 20
250.1589440651
 30
0.0
 11
313.2892191658
 21
266.8343386073
 31
0.0
  0
LINE
  5
3D2
330
1F
100
AcDbEntity
  8
0
  6
Continuous
 62
     7
370
    30
100
AcDbLine
 10
372.6138246236
 20
240.1589440651
 30
0.0
 11
372.6138246236
 21
250.1589440651
 31
0.0
  0
LINE
  5
3D3
330
1F
100
AcDbEntity
  8
0
  6
Continuous
 62
     7
370
    30
100
AcDbLine
 10
286.6138246236
 20
240.1589440651
 30
0.0
 11
372.6138246236
 21
240.1589440651
 31
0.0
  0
LINE
  5
3D4
330
1F
100
AcDbEntity
  8
0
  6
Continuous
 62
     7
370
    30
100
AcDbLine
 10
286.6138246236
 20
326.1589440651
 30
0.0
 11
286.6138246236
 21
240.1589440651
 31
0.0
  0
LINE
  5
3D5
330
1F
100
AcDbEntity
  8
0
  6
Continuous
 62
     7
370
    30
100
AcDbLine
 10
276.6138246236
 20
240.1589440651
 30
0.0
 11
276.6138246236
 21
326.1589440651
 31
0.0
  0
LINE
  5
3D6
330
1F
100
AcDbEntity
  8
0
  6
Continuous
 62
     7
370
    30
100
AcDbLine
 10
276.6138246236
 20
326.1589440651
 30
0.0
 11
286.6138246236
 21
326.1589440651
 31
0.0
  0
LINE
  5
3D7
330
1F
100
AcDbEntity
  8
0
  6
Continuous
 62
     7
370
    30
100
AcDbLine
 10
276.6138246236
 20
240.1589440651
 30
0.0
 11
286.6138246236
 21
240.1589440651
 31
0.0
  0
LINE
  5
3D8
330
1F
100
AcDbEntity
  8
0
  6
Continuous
 62
     7
370
    30
100
AcDbLine
 10
276.6138246236
 20
232.1589440651
 30
0.0
 11
276.6138246236
 21
240.1589440651
 31
0.0
  0
LINE
  5
3D9
330
1F
100
AcDbEntity
  8
0
  6
Continuous
 62
     7
370
    30
100
AcDbLine
 10
372.6138246236
 20
240.1589440651
 30
0.0
 11
276.6138246236
 21
240.1589440651
 31
0.0
  0
LINE
  5
3DA
330
1F
100
AcDbEntity
  8
0
  6
Continuous
 62
     7
370
    30
100
AcDbLine
 10
372.6138246236
 20
232.1589440651
 30
0.0
 11
372.6138246236
 21
240.1589440651
 31
0.0
  0
LINE
  5
3DB
330
1F
100
AcDbEntity
  8
0
  6
Continuous
 62
     7
370
    30
100
AcDbLine
 10
372.6138246236
 20
232.1589440651
 30
0.0
 11
276.6138246236
 21
232.1589440651
 31
0.0
  0
DIMENSION
  5
3DC
330
1F
100
AcDbEntity
  8
SLD-0
100
AcDbDimension
  2
_D_22
 10
286.6138246236
 20
339.8247371345
 30
0.0
 11
281.6138246236
 21
339.8247371345
 31
0.0
 70
   160
  1
<>
 71
     2
 42
-1.0
  3
SLDDIMSTYLE4
100
AcDbAlignedDimension
 13
276.6138246236
 23
326.1589440651
 33
0.0
 14
286.6138246236
 24
326.1589440651
 34
0.0
100
AcDbRotatedDimension
  0
DIMENSION
  5
3E9
330
1F
100
AcDbEntity
  8
SLD-0
100
AcDbDimension
  2
_D_23
 10
388.7345852393
 20
232.1589440651
 30
0.0
 11
388.7345852393
 21
236.1589440651
 31
0.0
 70
   160
  1
<>
 71
     2
 42
-1.0
  3
SLDDIMSTYLE4
100
AcDbAlignedDimension
 13
372.6138246236
 23
240.1589440651
 33
0.0
 14
372.6138246236
 24
232.1589440651
 34
0.0
 50
90.0
100
AcDbRotatedDimension
  0
DIMENSION
  5
3F5
330
1F
100
AcDbEntity
  8
SLD-0
100
AcDbDimension
  2
_D_24
 10
259.0349204736
 20
232.1589440651
 30
0.0
 11
259.0349204736
 21
279.1589440651
 31
0.0
 70
   160
  1
<>
 71
     2
 42
-1.0
  3
SLDDIMSTYLE0
100
AcDbAlignedDimension
 13
276.6138246236
 23
326.1589440651
 33
0.0
 14
276.6138246236
 24
232.1589440651
 34
0.0
 50
90.0
100
AcDbRotatedDimension
  0
DIMENSION
  5
3FF
330
1F
100
AcDbEntity
  8
SLD-0
100
AcDbDimension
  2
_D_25
 10
372.6138246236
 20
214.0481423512
 30
0.0
 11
324.6138246236
 21
214.0481423512
 31
0.0
 70
   160
  1
<>
 71
     2
 42
-1.0
  3
SLDDIMSTYLE0
100
AcDbAlignedDimension
 13
276.6138246236
 23
240.1589440651
 33
0.0
 14
372.6138246236
 24
232.1589440651
 34
0.0
 50
0.0
100
AcDbRotatedDimension
  0
ENDSEC
  0
SECTION
  2
OBJECTS
  0
DICTIONARY
  5
C
330
0
100
AcDbDictionary
281
     1
  3
ACAD_GROUP
350
D
  3
ACAD_LAYOUT
350
1A
  3
ACAD_MLINESTYLE
350
17
  3
ACAD_PLOTSETTINGS
350
19
  3
ACAD_PLOTSTYLENAME
350
E
  3
ACAD_SCALELIST
350
47
  0
DICTIONARY
  5
D
102
{ACAD_REACTORS
330
C
102
}
330
C
100
AcDbDictionary
281
     1
  0
DICTIONARY
  5
1A
102
{ACAD_REACTORS
330
C
102
}
330
C
100
AcDbDictionary
281
     1
  3
Layout1
350
1E
  3
Layout2
350
26
  3
Model
350
22
  0
DICTIONARY
  5
17
102
{ACAD_REACTORS
330
C
102
}
330
C
100
AcDbDictionary
281
     1
  3
Standard
350
18
  0
DICTIONARY
  5
19
102
{ACAD_REACTORS
330
C
102
}
330
C
100
AcDbDictionary
281
     1
  0
ACDBDICTIONARYWDFLT
  5
E
102
{ACAD_REACTORS
330
C
102
}
330
C
100
AcDbDictionary
281
     1
  3
Normal
350
F
100
AcDbDictionaryWithDefault
340
F
  0
DICTIONARY
  5
47
102
{ACAD_REACTORS
330
C
102
}
330
C
100
AcDbDictionary
281
     1
  3
A0
350
48
  3
A1
350
49
  3
A2
350
4A
  3
A3
350
4B
  3
A4
350
4C
  3
A5
350
4D
  3
A6
350
4E
  3
A7
350
4F
  3
A8
350
50
  3
A9
350
51
  3
B0
350
52
  3
B1
350
53
  3
B2
350
54
  3
B3
350
55
  3
B4
350
56
  3
B5
350
57
  3
B6
350
58
  3
B7
350
59
  3
B8
350
5A
  3
B9
350
5B
  3
C0
350
5C
  3
C1
350
5D
  3
C2
350
5E
  3
C3
350
5F
  3
C4
350
60
  3
C5
350
61
  3
C6
350
62
  3
C7
350
63
  3
C8
350
64
  3
C9
350
65
  3
D0
350
66
  3
D1
350
67
  3
D2
350
68
  0
LAYOUT
  5
1E
102
{ACAD_REACTORS
330
1A
102
}
330
1A
100
AcDbPlotSettings
  1

  2
none_device
  4

  6

 40
0.0
 41
0.0
 42
0.0
 43
0.0
 44
0.0
 45
0.0
 46
0.0
 47
0.0
 48
0.0
 49
0.0
140
0.0
141
0.0
142
1.0
143
1.0
 70
   688
 72
     1
 73
     0
 74
     5
  7

 75
    16
147
1.0
148
0.0
149
0.0
100
AcDbLayout
  1
Layout1
 70
     1
 71
     1
 10
0.0
 20
0.0
 11
420.0
 21
297.0
 12
0.0
 22
0.0
 32
0.0
 14
1.0000000000E+20
 24
1.0000000000E+20
 34
1.0000000000E+20
 15
-1.0000000000E+20
 25
-1.0000000000E+20
 35
-1.0000000000E+20
146
0.0
 13
0.0
 23
0.0
 33
0.0
 16
1.0
 26
0.0
 36
0.0
 17
0.0
 27
1.0
 37
0.0
 76
     0
330
1B
  0
LAYOUT
  5
26
102
{ACAD_REACTORS
330
1A
102
}
330
1A
100
AcDbPlotSettings
  1

  2
none_device
  4

  6

 40
0.0
 41
0.0
 42
0.0
 43
0.0
 44
0.0
 45
0.0
 46
0.0
 47
0.0
 48
0.0
 49
0.0
140
0.0
141
0.0
142
1.0
143
1.0
 70
   688
 72
     1
 73
     0
 74
     5
  7

 75
    16
147
1.0
148
0.0
149
0.0
100
AcDbLayout
  1
Layout2
 70
     1
 71
     2
 10
0.0
 20
0.0
 11
0.0
 21
0.0
 12
0.0
 22
0.0
 32
0.0
 14
0.0
 24
0.0
 34
0.0
 15
0.0
 25
0.0
 35
0.0
146
0.0
 13
0.0
 23
0.0
 33
0.0
 16
1.0
 26
0.0
 36
0.0
 17
0.0
 27
1.0
 37
0.0
 76
     0
330
23
  0
LAYOUT
  5
22
102
{ACAD_REACTORS
330
1A
102
}
330
1A
100
AcDbPlotSettings
  1

  2
none_device
  4
Letter_(8.50_x_11.00_Inches)
  6

 40
6.35
 41
6.35
 42
6.35000508
 43
6.35000508
 44
215.9
 45
279.4
 46
0.0
 47
0.0
 48
0.0
 49
0.0
140
0.0
141
0.0
142
1.0
143
1.0
 70
  1712
 72
     1
 73
     0
 74
     0
  7

 75
     0
147
1.0
148
0.0
149
0.0
100
AcDbLayout
  1
Model
 70
     1
 71
     0
 10
0.0
 20
0.0
 11
594.0
 21
420.0
 12
0.0
 22
0.0
 32
0.0
 14
0.0
 24
0.0
 34
0.0
 15
594.0
 25
420.0
 35
0.0
146
0.0
 13
0.0
 23
0.0
 33
0.0
 16
1.0
 26
0.0
 36
0.0
 17
0.0
 27
1.0
 37
0.0
 76
     0
330
1F
331
29
  0
MLINESTYLE
  5
18
102
{ACAD_REACTORS
330
17
102
}
330
17
100
AcDbMlineStyle
  2
Standard
 70
     0
  3

 62
   256
 51
90.0
 52
90.0
 71
     2
 49
0.5
 62
   256
  6
BYLAYER
 49
-0.5
 62
   256
  6
BYLAYER
  0
ACDBPLACEHOLDER
  5
F
102
{ACAD_REACTORS
330
E
102
}
330
E
  0
SCALE
  5
48
102
{ACAD_REACTORS
330
47
102
}
330
47
100
AcDbScale
 70
     0
300
1:1
140
1.0
141
1.0
290
     1
  0
SCALE
  5
49
102
{ACAD_REACTORS
330
47
102
}
330
47
100
AcDbScale
 70
     0
300
1:2
140
1.0
141
2.0
290
     0
  0
SCALE
  5
4A
102
{ACAD_REACTORS
330
47
102
}
330
47
100
AcDbScale
 70
     0
300
1:4
140
1.0
141
4.0
290
     0
  0
SCALE
  5
4B
102
{ACAD_REACTORS
330
47
102
}
330
47
100
AcDbScale
 70
     0
300
1:5
140
1.0
141
5.0
290
     0
  0
SCALE
  5
4C
102
{ACAD_REACTORS
330
47
102
}
330
47
100
AcDbScale
 70
     0
300
1:8
140
1.0
141
8.0
290
     0
  0
SCALE
  5
4D
102
{ACAD_REACTORS
330
47
102
}
330
47
100
AcDbScale
 70
     0
300
1:10
140
1.0
141
10.0
290
     0
  0
SCALE
  5
4E
102
{ACAD_REACTORS
330
47
102
}
330
47
100
AcDbScale
 70
     0
300
1:16
140
1.0
141
16.0
290
     0
  0
SCALE
  5
4F
102
{ACAD_REACTORS
330
47
102
}
330
47
100
AcDbScale
 70
     0
300
1:20
140
1.0
141
20.0
290
     0
  0
SCALE
  5
50
102
{ACAD_REACTORS
330
47
102
}
330
47
100
AcDbScale
 70
     0
300
1:30
140
1.0
141
30.0
290
     0
  0
SCALE
  5
51
102
{ACAD_REACTORS
330
47
102
}
330
47
100
AcDbScale
 70
     0
300
1:40
140
1.0
141
40.0
290
     0
  0
SCALE
  5
52
102
{ACAD_REACTORS
330
47
102
}
330
47
100
AcDbScale
 70
     0
300
1:50
140
1.0
141
50.0
290
     0
  0
SCALE
  5
53
102
{ACAD_REACTORS
330
47
102
}
330
47
100
AcDbScale
 70
     0
300
1:100
140
1.0
141
100.0
290
     0
  0
SCALE
  5
54
102
{ACAD_REACTORS
330
47
102
}
330
47
100
AcDbScale
 70
     0
300
2:1
140
2.0
141
1.0
290
     0
  0
SCALE
  5
55
102
{ACAD_REACTORS
330
47
102
}
330
47
100
AcDbScale
 70
     0
300
4:1
140
4.0
141
1.0
290
     0
  0
SCALE
  5
56
102
{ACAD_REACTORS
330
47
102
}
330
47
100
AcDbScale
 70
     0
300
8:1
140
8.0
141
1.0
290
     0
  0
SCALE
  5
57
102
{ACAD_REACTORS
330
47
102
}
330
47
100
AcDbScale
 70
     0
300
10:1
140
10.0
141
1.0
290
     0
  0
SCALE
  5
58
102
{ACAD_REACTORS
330
47
102
}
330
47
100
AcDbScale
 70
     0
300
100:1
140
100.0
141
1.0
290
     0
  0
SCALE
  5
59
102
{ACAD_REACTORS
330
47
102
}
330
47
100
AcDbScale
 70
     0
300
1/128" = 1'-0"
140
0.0078125
141
12.0
290
     0
  0
SCALE
  5
5A
102
{ACAD_REACTORS
330
47
102
}
330
47
100
AcDbScale
 70
     0
300
1/64" = 1'-0"
140
0.015625
141
12.0
290
     0
  0
SCALE
  5
5B
102
{ACAD_REACTORS
330
47
102
}
330
47
100
AcDbScale
 70
     0
300
1/32" = 1'-0"
140
0.03125
141
12.0
290
     0
  0
SCALE
  5
5C
102
{ACAD_REACTORS
330
47
102
}
330
47
100
AcDbScale
 70
     0
300
1/16" = 1'-0"
140
0.0625
141
12.0
290
     0
  0
SCALE
  5
5D
102
{ACAD_REACTORS
330
47
102
}
330
47
100
AcDbScale
 70
     0
300
3/32" = 1'-0"
140
0.09375
141
12.0
290
     0
  0
SCALE
  5
5E
102
{ACAD_REACTORS
330
47
102
}
330
47
100
AcDbScale
 70
     0
300
1/8" = 1'-0"
140
0.125
141
12.0
290
     0
  0
SCALE
  5
5F
102
{ACAD_REACTORS
330
47
102
}
330
47
100
AcDbScale
 70
     0
300
3/16" = 1'-0"
140
0.1875
141
12.0
290
     0
  0
SCALE
  5
60
102
{ACAD_REACTORS
330
47
102
}
330
47
100
AcDbScale
 70
     0
300
1/4" = 1'-0"
140
0.25
141
12.0
290
     0
  0
SCALE
  5
61
102
{ACAD_REACTORS
330
47
102
}
330
47
100
AcDbScale
 70
     0
300
3/8" = 1'-0"
140
0.375
141
12.0
290
     0
  0
SCALE
  5
62
102
{ACAD_REACTORS
330
47
102
}
330
47
100
AcDbScale
 70
     0
300
1/2" = 1'-0"
140
0.5
141
12.0
290
     0
  0
SCALE
  5
63
102
{ACAD_REACTORS
330
47
102
}
330
47
100
AcDbScale
 70
     0
300
3/4" = 1'-0"
140
0.75
141
12.0
290
     0
  0
SCALE
  5
64
102
{ACAD_REACTORS
330
47
102
}
330
47
100
AcDbScale
 70
     0
300
1" = 1'-0"
140
1.0
141
12.0
290
     0
  0
SCALE
  5
65
102
{ACAD_REACTORS
330
47
102
}
330
47
100
AcDbScale
 70
     0
300
1-1/2" = 1'-0"
140
1.5
141
12.0
290
     0
  0
SCALE
  5
66
102
{ACAD_REACTORS
330
47
102
}
330
47
100
AcDbScale
 70
     0
300
3" = 1'-0"
140
3.0
141
12.0
290
     0
  0
SCALE
  5
67
102
{ACAD_REACTORS
330
47
102
}
330
47
100
AcDbScale
 70
     0
300
6" = 1'-0"
140
6.0
141
12.0
290
     0
  0
SCALE
  5
68
102
{ACAD_REACTORS
330
47
102
}
330
47
100
AcDbScale
 70
     0
300
1'-0" = 1'-0"
140
12.0
141
12.0
290
     0
  0
ENDSEC
  0
EOF
