  0
SECTION
  2
HEADER
  9
$ACADVER
  1
AC1015
  9
$ACADMAINTVER
 70
     6
  9
$DWGCODEPAGE
  3
ANSI_950
  9
$INSBASE
 10
0.0
 20
0.0
 30
0.0
  9
$EXTMIN
 10
0.0
 20
0.0
 30
0.0
  9
$EXTMAX
 10
594.0
 20
420.0
 30
0.0
  9
$LIMMIN
 10
0.0
 20
0.0
  9
$LIMMAX
 10
594.0
 20
420.0
  9
$ORTHOMODE
 70
     0
  9
$REGENMODE
 70
     1
  9
$FILLMODE
 70
     1
  9
$QTEXTMODE
 70
     0
  9
$MIRRTEXT
 70
     1
  9
$LTSCALE
 40
2.0
  9
$ATTMODE
 70
     1
  9
$TEXTSIZE
 40
5.0
  9
$TRACEWID
 40
1.0
  9
$TEXTSTYLE
  7
Standard
  9
$CLAYER
  8
0
  9
$CELTYPE
  6
ByLayer
  9
$CECOLOR
 62
   256
  9
$CELTSCALE
 40
1.0
  9
$DISPSILH
 70
     0
  9
$DIMSCALE
 40
1.0
  9
$DIMASZ
 40
4.0
  9
$DIMEXO
 40
2.0
  9
$DIMDLI
 40
3.75
  9
$DIMRND
 40
0.0
  9
$DIMDLE
 40
0.0
  9
$DIMEXE
 40
2.0
  9
$DIMTP
 40
0.0
  9
$DIMTM
 40
0.0
  9
$DIMTXT
 40
5.0
  9
$DIMCEN
 40
2.5
  9
$DIMTSZ
 40
0.0
  9
$DIMTOL
 70
     0
  9
$DIMLIM
 70
     0
  9
$DIMTIH
 70
     1
  9
$DIMTOH
 70
     1
  9
$DIMSE1
 70
     0
  9
$DIMSE2
 70
     0
  9
$DIMTAD
 70
     1
  9
$DIMZIN
 70
     0
  9
$DIMBLK
  1

  9
$DIMASO
 70
     1
  9
$DIMSHO
 70
     1
  9
$DIMPOST
  1

  9
$DIMAPOST
  1

  9
$DIMALT
 70
     0
  9
$DIMALTD
 70
     3
  9
$DIMALTF
 40
0.0393700787
  9
$DIMLFAC
 40
1.0
  9
$DIMTOFL
 70
     1
  9
$DIMTVP
 40
0.0
  9
$DIMTIX
 70
     0
  9
$DIMSOXD
 70
     0
  9
$DIMSAH
 70
     0
  9
$DIMBLK1
  1

  9
$DIMBLK2
  1

  9
$DIMSTYLE
  2
ISO-25
  9
$DIMCLRD
 70
     0
  9
$DIMCLRE
 70
     0
  9
$DIMCLRT
 70
     0
  9
$DIMTFAC
 40
1.0
  9
$DIMGAP
 40
2.0
  9
$DIMJUST
 70
     0
  9
$DIMSD1
 70
     0
  9
$DIMSD2
 70
     0
  9
$DIMTOLJ
 70
     0
  9
$DIMTZIN
 70
     0
  9
$DIMALTZ
 70
     0
  9
$DIMALTTZ
 70
     0
  9
$DIMUPT
 70
     0
  9
$DIMDEC
 70
     2
  9
$DIMTDEC
 70
     2
  9
$DIMALTU
 70
     2
  9
$DIMALTTD
 70
     3
  9
$DIMTXSTY
  7
Standard
  9
$DIMAUNIT
 70
     0
  9
$DIMADEC
 70
     1
  9
$DIMALTRND
 40
0.0
  9
$DIMAZIN
 70
     0
  9
$DIMDSEP
 70
    44
  9
$DIMATFIT
 70
     3
  9
$DIMFRAC
 70
     0
  9
$DIMLDRBLK
  1

  9
$DIMLUNIT
 70
     2
  9
$DIMLWD
 70
    -2
  9
$DIMLWE
 70
    -2
  9
$DIMTMOVE
 70
     0
  9
$LUNITS
 70
     2
  9
$LUPREC
 70
     2
  9
$SKETCHINC
 40
1.0
  9
$FILLETRAD
 40
10.0
  9
$AUNITS
 70
     0
  9
$AUPREC
 70
     1
  9
$MENU
  1
.
  9
$ELEVATION
 40
0.0
  9
$PELEVATION
 40
0.0
  9
$THICKNESS
 40
0.0
  9
$LIMCHECK
 70
     0
  9
$CHAMFERA
 40
0.0
  9
$CHAMFERB
 40
0.0
  9
$CHAMFERC
 40
0.0
  9
$CHAMFERD
 40
0.0
  9
$SKPOLY
 70
     0
  9
$TDCREATE
 40
2458222.443499861
  9
$TDUCREATE
 40
2458222.110166528
  9
$TDUPDATE
 40
2458222.443507083
  9
$TDUUPDATE
 40
2458222.11017375
  9
$TDINDWG
 40
0.0000000116
  9
$TDUSRTIMER
 40
0.0000000116
  9
$USRTIMER
 70
     1
  9
$ANGBASE
 50
0.0
  9
$ANGDIR
 70
     0
  9
$PDMODE
 70
     0
  9
$PDSIZE
 40
-1.0
  9
$PLINEWID
 40
0.0
  9
$SPLFRAME
 70
     0
  9
$SPLINETYPE
 70
     6
  9
$SPLINESEGS
 70
     8
  9
$HANDSEED
  5
413
  9
$SURFTAB1
 70
     6
  9
$SURFTAB2
 70
     6
  9
$SURFTYPE
 70
     6
  9
$SURFU
 70
     6
  9
$SURFV
 70
     6
  9
$UCSBASE
  2

  9
$UCSNAME
  2

  9
$UCSORG
 10
0.0
 20
0.0
 30
0.0
  9
$UCSXDIR
 10
1.0
 20
0.0
 30
0.0
  9
$UCSYDIR
 10
0.0
 20
1.0
 30
0.0
  9
$UCSORTHOREF
  2

  9
$UCSORTHOVIEW
 70
     0
  9
$UCSORGTOP
 10
0.0
 20
0.0
 30
0.0
  9
$UCSORGBOTTOM
 10
0.0
 20
0.0
 30
0.0
  9
$UCSORGLEFT
 10
0.0
 20
0.0
 30
0.0
  9
$UCSORGRIGHT
 10
0.0
 20
0.0
 30
0.0
  9
$UCSORGFRONT
 10
0.0
 20
0.0
 30
0.0
  9
$UCSORGBACK
 10
0.0
 20
0.0
 30
0.0
  9
$PUCSBASE
  2

  9
$PUCSNAME
  2

  9
$PUCSORG
 10
0.0
 20
0.0
 30
0.0
  9
$PUCSXDIR
 10
1.0
 20
0.0
 30
0.0
  9
$PUCSYDIR
 10
0.0
 20
1.0
 30
0.0
  9
$PUCSORTHOREF
  2

  9
$PUCSORTHOVIEW
 70
     0
  9
$PUCSORGTOP
 10
0.0
 20
0.0
 30
0.0
  9
$PUCSORGBOTTOM
 10
0.0
 20
0.0
 30
0.0
  9
$PUCSORGLEFT
 10
0.0
 20
0.0
 30
0.0
  9
$PUCSORGRIGHT
 10
0.0
 20
0.0
 30
0.0
  9
$PUCSORGFRONT
 10
0.0
 20
0.0
 30
0.0
  9
$PUCSORGBACK
 10
0.0
 20
0.0
 30
0.0
  9
$USERI1
 70
     0
  9
$USERI2
 70
     0
  9
$USERI3
 70
     0
  9
$USERI4
 70
     0
  9
$USERI5
 70
     0
  9
$USERR1
 40
0.0
  9
$USERR2
 40
0.0
  9
$USERR3
 40
0.0
  9
$USERR4
 40
0.0
  9
$USERR5
 40
0.0
  9
$WORLDVIEW
 70
     1
  9
$SHADEDGE
 70
     3
  9
$SHADEDIF
 70
    70
  9
$TILEMODE
 70
     1
  9
$MAXACTVP
 70
    64
  9
$PINSBASE
 10
0.0
 20
0.0
 30
0.0
  9
$PLIMCHECK
 70
     0
  9
$PEXTMIN
 10
1.0000000000E+20
 20
1.0000000000E+20
 30
1.0000000000E+20
  9
$PEXTMAX
 10
-1.0000000000E+20
 20
-1.0000000000E+20
 30
-1.0000000000E+20
  9
$PLIMMIN
 10
0.0
 20
0.0
  9
$PLIMMAX
 10
420.0
 20
297.0
  9
$UNITMODE
 70
     0
  9
$VISRETAIN
 70
     1
  9
$PLINEGEN
 70
     0
  9
$PSLTSCALE
 70
     1
  9
$TREEDEPTH
 70
  3020
  9
$CMLSTYLE
  2
Standard
  9
$CMLJUST
 70
     0
  9
$CMLSCALE
 40
20.0
  9
$PROXYGRAPHICS
 70
     1
  9
$MEASUREMENT
 70
     1
  9
$CELWEIGHT
370
    -1
  9
$ENDCAPS
280
     0
  9
$JOINSTYLE
280
     0
  9
$LWDISPLAY
290
     1
  9
$INSUNITS
 70
     4
  9
$HYPERLINKBASE
  1

  9
$STYLESHEET
  1

  9
$XEDIT
290
     1
  9
$CEPSNTYPE
380
     0
  9
$PSTYLEMODE
290
     1
  9
$FINGERPRINTGUID
  2
{52E81FF7-41B2-4768-812A-D3D7C79DF884}
  9
$VERSIONGUID
  2
{FAEB1C32-E019-11D5-929B-00C0DF256EC4}
  9
$EXTNAMES
290
     1
  9
$PSVPSCALE
 40
0.0
  9
$OLESTARTUP
290
     0
  0
ENDSEC
  0
SECTION
  2
CLASSES
  0
CLASS
  1
ACDBDICTIONARYWDFLT
  2
AcDbDictionaryWithDefault
  3
ObjectDBX Classes
 90
        0
280
     0
281
     0
  0
CLASS
  1
VISUALSTYLE
  2
AcDbVisualStyle
  3
ObjectDBX Classes
 90
     4095
280
     0
281
     0
  0
CLASS
  1
MATERIAL
  2
AcDbMaterial
  3
ObjectDBX Classes
 90
     1153
280
     0
281
     0
  0
CLASS
  1
SCALE
  2
AcDbScale
  3
ObjectDBX Classes
 90
     1153
280
     0
281
     0
  0
CLASS
  1
TABLESTYLE
  2
AcDbTableStyle
  3
ObjectDBX Classes
 90
     4095
280
     0
281
     0
  0
CLASS
  1
MLEADERSTYLE
  2
AcDbMLeaderStyle
  3
ACDB_MLEADERSTYLE_CLASS
 90
     4095
280
     0
281
     0
  0
CLASS
  1
SUN
  2
AcDbSun
  3
SCENEOE
 90
     1153
280
     0
281
     0
  0
CLASS
  1
ACDBPLACEHOLDER
  2
AcDbPlaceHolder
  3
ObjectDBX Classes
 90
        0
280
     0
281
     0
  0
CLASS
  1
LAYOUT
  2
AcDbLayout
  3
ObjectDBX Classes
 90
        0
280
     0
281
     0
  0
ENDSEC
  0
SECTION
  2
TABLES
  0
TABLE
  2
VPORT
  5
8
330
0
100
AcDbSymbolTable
 70
     1
  0
VPORT
  5
29
330
8
100
AcDbSymbolTableRecord
100
AcDbViewportTableRecord
  2
*Active
 70
     0
 10
0.0
 20
0.0
 11
1.0
 21
1.0
 12
297.0
 22
210.0
 13
0.0
 23
0.0
 14
10.0
 24
10.0
 15
10.0
 25
10.0
 16
0.0
 26
0.0
 36
1.0
 17
0.0
 27
0.0
 37
0.0
 40
420.0
 41
1.4142857143
 42
50.0
 43
0.0
 44
0.0
 50
0.0
 51
0.0
 71
     0
 72
  2000
 73
     1
 74
     3
 75
     0
 76
     0
 77
     0
 78
     0
281
     0
 65
     1
110
0.0
120
0.0
130
0.0
111
1.0
121
0.0
131
0.0
112
0.0
122
1.0
132
0.0
 79
     0
146
0.0
  0
ENDTAB
  0
TABLE
  2
LTYPE
  5
5
330
0
100
AcDbSymbolTable
 70
     6
  0
LTYPE
  5
14
330
5
100
AcDbSymbolTableRecord
100
AcDbLinetypeTableRecord
  2
ByBlock
 70
     0
  3

 72
    65
 73
     0
 40
0.0
  0
LTYPE
  5
15
330
5
100
AcDbSymbolTableRecord
100
AcDbLinetypeTableRecord
  2
ByLayer
 70
     0
  3

 72
    65
 73
     0
 40
0.0
  0
LTYPE
  5
16
330
5
100
AcDbSymbolTableRecord
100
AcDbLinetypeTableRecord
  2
Continuous
 70
     0
  3
Solid line
 72
    65
 73
     0
 40
0.0
  0
LTYPE
  5
6E
330
5
100
AcDbSymbolTableRecord
100
AcDbLinetypeTableRecord
  2
HIDDEN
 70
     0
  3
Hidden __ __ __ __ __ __ __ __ __ __ __ __ __ __
 72
    65
 73
     2
 40
1.905
 49
1.27
 74
     0
 49
-0.635
 74
     0
  0
LTYPE
  5
6F
330
5
100
AcDbSymbolTableRecord
100
AcDbLinetypeTableRecord
  2
PHANTOM
 70
     0
  3
Phantom ______  __  __  ______  __  __  ______
 72
    65
 73
     6
 40
12.7
 49
6.35
 74
     0
 49
-1.27
 74
     0
 49
1.27
 74
     0
 49
-1.27
 74
     0
 49
1.27
 74
     0
 49
-1.27
 74
     0
  0
LTYPE
  5
70
330
5
100
AcDbSymbolTableRecord
100
AcDbLinetypeTableRecord
  2
CENTER
 70
     0
  3
Center ____ _ ____ _ ____ _ ____ _ ____ _ ____
 72
    65
 73
     4
 40
10.16
 49
6.35
 74
     0
 49
-1.27
 74
     0
 49
1.27
 74
     0
 49
-1.27
 74
     0
  0
LTYPE
  5
71
330
5
100
AcDbSymbolTableRecord
100
AcDbLinetypeTableRecord
  2
CENTERX2
 70
     0
  3
Center (2x) ________  __  ________  __  _____
 72
    65
 73
     4
 40
20.32
 49
12.7
 74
     0
 49
-2.54
 74
     0
 49
2.54
 74
     0
 49
-2.54
 74
     0
  0
LTYPE
  5
72
330
5
100
AcDbSymbolTableRecord
100
AcDbLinetypeTableRecord
  2
DOT2
 70
     0
  3
Dot (.5x) ........................................
 72
    65
 73
     2
 40
0.635
 49
0.0
 74
     0
 49
-0.635
 74
     0
  0
ENDTAB
  0
TABLE
  2
LAYER
  5
2
330
0
100
AcDbSymbolTable
 70
     4
  0
LAYER
  5
10
330
2
100
AcDbSymbolTableRecord
100
AcDbLayerTableRecord
  2
0
 70
     0
 62
     7
  6
Continuous
370
    -3
390
F
  0
LAYER
  5
73
330
2
100
AcDbSymbolTableRecord
100
AcDbLayerTableRecord
  2
SLD-0
 70
     0
 62
     7
  6
Continuous
370
    15
390
F
  0
LAYER
  5
74
330
2
100
AcDbSymbolTableRecord
100
AcDbLayerTableRecord
  2
工作區域參考線
 70
     0
 62
   179
  6
Continuous
370
    -3
390
F
  0
LAYER
  5
75
330
2
100
AcDbSymbolTableRecord
100
AcDbLayerTableRecord
  2
DIM
 70
     0
 62
     7
  6
Continuous
370
    -3
390
F
  0
ENDTAB
  0
TABLE
  2
STYLE
  5
3
330
0
100
AcDbSymbolTable
 70
     2
  0
STYLE
  5
11
330
3
100
AcDbSymbolTableRecord
100
AcDbTextStyleTableRecord
  2
Standard
 70
     0
 40
0.0
 41
1.0
 50
0.0
 71
     0
 42
5.0
  3
txt
  4

  0
STYLE
  5
C6
330
3
100
AcDbSymbolTableRecord
100
AcDbTextStyleTableRecord
  2
SLDTEXTSTYLE0
 70
     0
 40
0.0
 41
0.605
 50
0.0
 71
     0
 42
5.0
  3
TXT
  4

  0
ENDTAB
  0
TABLE
  2
VIEW
  5
6
330
0
100
AcDbSymbolTable
 70
     0
  0
ENDTAB
  0
TABLE
  2
UCS
  5
7
330
0
100
AcDbSymbolTable
 70
     0
  0
ENDTAB
  0
TABLE
  2
APPID
  5
9
330
0
100
AcDbSymbolTable
 70
     1
  0
APPID
  5
12
330
9
100
AcDbSymbolTableRecord
100
AcDbRegAppTableRecord
  2
ACAD
 70
     0
  0
ENDTAB
  0
TABLE
  2
DIMSTYLE
  5
A
330
0
100
AcDbSymbolTable
 70
     7
100
AcDbDimStyleTable
  0
DIMSTYLE
105
27
330
A
100
AcDbSymbolTableRecord
100
AcDbDimStyleTableRecord
  2
ISO-25
 70
     0
 41
2.5
 42
0.625
 43
3.75
 44
1.25
 73
     0
 74
     0
 77
     1
 78
     8
140
2.5
141
2.5
143
0.0393700787
147
0.625
171
     3
172
     1
178
     0
271
     2
272
     2
274
     3
278
    44
283
     0
284
     8
340
11
  0
DIMSTYLE
105
19D
102
{ACAD_REACTORS
330
19C
330
1B4
330
1BE
330
1D1
330
1DB
330
2B1
330
2BB
330
2ED
330
2F7
330
301
330
30B
330
315
330
31F
330
329
330
333
330
3FF
330
409
102
}
330
A
100
AcDbSymbolTableRecord
100
AcDbDimStyleTableRecord
  2
SLDDIMSTYLE0
 70
     0
 41
4.0
 44
0.0
 45
0.000000001
 73
     0
 74
     0
 77
     1
 78
    12
 79
     3
140
5.0
147
1.25
173
     1
178
     0
271
     2
272
     2
276
     2
284
    12
340
C6
  0
DIMSTYLE
105
1A8
102
{ACAD_REACTORS
330
1A7
330
1C8
330
2D0
330
2D9
102
}
330
A
100
AcDbSymbolTableRecord
100
AcDbDimStyleTableRecord
  2
SLDDIMSTYLE1
 70
     0
  3
<>
 41
4.0
 44
0.0
 45
0.000000001
 78
    12
 79
     3
140
5.0
141
0.0
147
1.25
173
     1
178
     0
271
     2
272
     2
276
     2
284
    12
340
C6
  0
DIMSTYLE
105
1E6
102
{ACAD_REACTORS
330
1E5
330
2E2
102
}
330
A
100
AcDbSymbolTableRecord
100
AcDbDimStyleTableRecord
  2
SLDDIMSTYLE2
 70
     0
 41
4.0
 44
0.0
 45
0.000000001
 78
    12
 79
     3
140
5.0
141
0.0
147
1.25
173
     1
178
     0
271
     2
272
     2
276
     2
284
    12
340
C6
  0
DIMSTYLE
105
1F2
102
{ACAD_REACTORS
330
1F1
102
}
330
A
100
AcDbSymbolTableRecord
100
AcDbDimStyleTableRecord
  2
SLDDIMSTYLE3
 70
     0
 41
4.0
 44
0.0
 45
0.000000001
 78
    12
 79
     3
140
5.0
141
0.0
147
1.25
172
     1
173
     1
178
     0
271
     2
272
     2
276
     2
284
    12
340
C6
  0
DIMSTYLE
105
2C6
102
{ACAD_REACTORS
330
2C5
102
}
330
A
100
AcDbSymbolTableRecord
100
AcDbDimStyleTableRecord
  2
SLDDIMSTYLE4
 70
     0
 41
4.0
 44
0.0
 45
0.000000001
 73
     0
 74
     0
 77
     1
 78
    12
 79
     3
140
4.0
147
1.0
173
     1
178
     0
271
     2
272
     2
276
     2
284
    12
340
C6
  0
DIMSTYLE
105
3E7
102
{ACAD_REACTORS
330
3E6
330
3F3
102
}
330
A
100
AcDbSymbolTableRecord
100
AcDbDimStyleTableRecord
  2
SLDDIMSTYLE5
 70
     0
 41
4.0
 44
0.0
 45
0.000000001
 73
     0
 74
     0
 77
     1
 78
    12
 79
     3
140
5.0
147
1.25
172
     1
173
     1
178
     0
271
     2
272
     2
276
     2
284
    12
289
     0
340
C6
  0
ENDTAB
  0
TABLE
  2
BLOCK_RECORD
  5
1
330
0
100
AcDbSymbolTable
 70
    52
  0
BLOCK_RECORD
  5
1F
330
1
100
AcDbSymbolTableRecord
100
AcDbBlockTableRecord
  2
*Model_Space
340
22
  0
BLOCK_RECORD
  5
1B
330
1
100
AcDbSymbolTableRecord
100
AcDbBlockTableRecord
  2
*Paper_Space
340
1E
  0
BLOCK_RECORD
  5
23
330
1
100
AcDbSymbolTableRecord
100
AcDbBlockTableRecord
  2
*Paper_Space0
340
26
  0
BLOCK_RECORD
  5
C8
330
1
100
AcDbSymbolTableRecord
100
AcDbBlockTableRecord
  2
SW_NOTE_0
340
0
102
{BLKREFS
331
CE
102
}
  0
BLOCK_RECORD
  5
FD
330
1
100
AcDbSymbolTableRecord
100
AcDbBlockTableRecord
  2
SW_NOTE_1
340
0
102
{BLKREFS
331
102
102
}
  0
BLOCK_RECORD
  5
19E
330
1
100
AcDbSymbolTableRecord
100
AcDbBlockTableRecord
  2
_D
340
0
  0
BLOCK_RECORD
  5
1A9
330
1
100
AcDbSymbolTableRecord
100
AcDbBlockTableRecord
  2
_D_1
340
0
  0
BLOCK_RECORD
  5
1B5
330
1
100
AcDbSymbolTableRecord
100
AcDbBlockTableRecord
  2
_D_2
340
0
  0
BLOCK_RECORD
  5
1BF
330
1
100
AcDbSymbolTableRecord
100
AcDbBlockTableRecord
  2
_D_3
340
0
  0
BLOCK_RECORD
  5
1C9
330
1
100
AcDbSymbolTableRecord
100
AcDbBlockTableRecord
  2
_D_4
340
0
  0
BLOCK_RECORD
  5
1D2
330
1
100
AcDbSymbolTableRecord
100
AcDbBlockTableRecord
  2
_D_5
340
0
  0
BLOCK_RECORD
  5
1DC
330
1
100
AcDbSymbolTableRecord
100
AcDbBlockTableRecord
  2
_D_6
340
0
  0
BLOCK_RECORD
  5
1E7
330
1
100
AcDbSymbolTableRecord
100
AcDbBlockTableRecord
  2
_D_7
340
0
  0
BLOCK_RECORD
  5
1F3
330
1
100
AcDbSymbolTableRecord
100
AcDbBlockTableRecord
  2
_D_8
340
0
  0
BLOCK_RECORD
  5
1FE
330
1
100
AcDbSymbolTableRecord
100
AcDbBlockTableRecord
  2
SW_CENTERMARKSYMBOL_0
340
0
102
{BLKREFS
331
209
102
}
  0
BLOCK_RECORD
  5
20A
330
1
100
AcDbSymbolTableRecord
100
AcDbBlockTableRecord
  2
SW_CENTERMARKSYMBOL_1
340
0
102
{BLKREFS
331
215
102
}
  0
BLOCK_RECORD
  5
216
330
1
100
AcDbSymbolTableRecord
100
AcDbBlockTableRecord
  2
SW_CENTERMARKSYMBOL_2
340
0
102
{BLKREFS
331
221
102
}
  0
BLOCK_RECORD
  5
222
330
1
100
AcDbSymbolTableRecord
100
AcDbBlockTableRecord
  2
SW_CENTERMARKSYMBOL_3
340
0
102
{BLKREFS
331
22D
102
}
  0
BLOCK_RECORD
  5
22E
330
1
100
AcDbSymbolTableRecord
100
AcDbBlockTableRecord
  2
SW_CENTERMARKSYMBOL_4
340
0
102
{BLKREFS
331
239
102
}
  0
BLOCK_RECORD
  5
23A
330
1
100
AcDbSymbolTableRecord
100
AcDbBlockTableRecord
  2
SW_CENTERMARKSYMBOL_5
340
0
102
{BLKREFS
331
245
102
}
  0
BLOCK_RECORD
  5
246
330
1
100
AcDbSymbolTableRecord
100
AcDbBlockTableRecord
  2
SW_CENTERMARKSYMBOL_6
340
0
102
{BLKREFS
331
251
102
}
  0
BLOCK_RECORD
  5
252
330
1
100
AcDbSymbolTableRecord
100
AcDbBlockTableRecord
  2
SW_CENTERMARKSYMBOL_7
340
0
102
{BLKREFS
331
25D
102
}
  0
BLOCK_RECORD
  5
25E
330
1
100
AcDbSymbolTableRecord
100
AcDbBlockTableRecord
  2
SW_CENTERMARKSYMBOL_8
340
0
102
{BLKREFS
331
269
102
}
  0
BLOCK_RECORD
  5
2B2
330
1
100
AcDbSymbolTableRecord
100
AcDbBlockTableRecord
  2
_D_9
340
0
  0
BLOCK_RECORD
  5
2BC
330
1
100
AcDbSymbolTableRecord
100
AcDbBlockTableRecord
  2
_D_10
340
0
  0
BLOCK_RECORD
  5
2C7
330
1
100
AcDbSymbolTableRecord
100
AcDbBlockTableRecord
  2
_D_11
340
0
  0
BLOCK_RECORD
  5
2D1
330
1
100
AcDbSymbolTableRecord
100
AcDbBlockTableRecord
  2
_D_12
340
0
  0
BLOCK_RECORD
  5
2DA
330
1
100
AcDbSymbolTableRecord
100
AcDbBlockTableRecord
  2
_D_13
340
0
  0
BLOCK_RECORD
  5
2E3
330
1
100
AcDbSymbolTableRecord
100
AcDbBlockTableRecord
  2
_D_14
340
0
  0
BLOCK_RECORD
  5
2EE
330
1
100
AcDbSymbolTableRecord
100
AcDbBlockTableRecord
  2
_D_15
340
0
  0
BLOCK_RECORD
  5
2F8
330
1
100
AcDbSymbolTableRecord
100
AcDbBlockTableRecord
  2
_D_16
340
0
  0
BLOCK_RECORD
  5
302
330
1
100
AcDbSymbolTableRecord
100
AcDbBlockTableRecord
  2
_D_17
340
0
  0
BLOCK_RECORD
  5
30C
330
1
100
AcDbSymbolTableRecord
100
AcDbBlockTableRecord
  2
_D_18
340
0
  0
BLOCK_RECORD
  5
316
330
1
100
AcDbSymbolTableRecord
100
AcDbBlockTableRecord
  2
_D_19
340
0
  0
BLOCK_RECORD
  5
320
330
1
100
AcDbSymbolTableRecord
100
AcDbBlockTableRecord
  2
_D_20
340
0
  0
BLOCK_RECORD
  5
32A
330
1
100
AcDbSymbolTableRecord
100
AcDbBlockTableRecord
  2
_D_21
340
0
  0
BLOCK_RECORD
  5
334
330
1
100
AcDbSymbolTableRecord
100
AcDbBlockTableRecord
  2
_D_22
340
0
  0
BLOCK_RECORD
  5
33D
330
1
100
AcDbSymbolTableRecord
100
AcDbBlockTableRecord
  2
SW_CENTERMARKSYMBOL_9
340
0
102
{BLKREFS
331
348
102
}
  0
BLOCK_RECORD
  5
349
330
1
100
AcDbSymbolTableRecord
100
AcDbBlockTableRecord
  2
SW_CENTERMARKSYMBOL_10
340
0
102
{BLKREFS
331
354
102
}
  0
BLOCK_RECORD
  5
355
330
1
100
AcDbSymbolTableRecord
100
AcDbBlockTableRecord
  2
SW_CENTERMARKSYMBOL_11
340
0
102
{BLKREFS
331
360
102
}
  0
BLOCK_RECORD
  5
361
330
1
100
AcDbSymbolTableRecord
100
AcDbBlockTableRecord
  2
SW_CENTERMARKSYMBOL_12
340
0
102
{BLKREFS
331
36C
102
}
  0
BLOCK_RECORD
  5
36D
330
1
100
AcDbSymbolTableRecord
100
AcDbBlockTableRecord
  2
SW_CENTERMARKSYMBOL_13
340
0
102
{BLKREFS
331
378
102
}
  0
BLOCK_RECORD
  5
379
330
1
100
AcDbSymbolTableRecord
100
AcDbBlockTableRecord
  2
SW_CENTERMARKSYMBOL_14
340
0
102
{BLKREFS
331
384
102
}
  0
BLOCK_RECORD
  5
385
330
1
100
AcDbSymbolTableRecord
100
AcDbBlockTableRecord
  2
SW_CENTERMARKSYMBOL_15
340
0
102
{BLKREFS
331
390
102
}
  0
BLOCK_RECORD
  5
391
330
1
100
AcDbSymbolTableRecord
100
AcDbBlockTableRecord
  2
SW_CENTERMARKSYMBOL_16
340
0
102
{BLKREFS
331
39C
102
}
  0
BLOCK_RECORD
  5
39D
330
1
100
AcDbSymbolTableRecord
100
AcDbBlockTableRecord
  2
SW_CENTERMARKSYMBOL_17
340
0
102
{BLKREFS
331
3A8
102
}
  0
BLOCK_RECORD
  5
3A9
330
1
100
AcDbSymbolTableRecord
100
AcDbBlockTableRecord
  2
SW_CENTERMARKSYMBOL_18
340
0
102
{BLKREFS
331
3B4
102
}
  0
BLOCK_RECORD
  5
3B5
330
1
100
AcDbSymbolTableRecord
100
AcDbBlockTableRecord
  2
SW_CENTERMARKSYMBOL_19
340
0
102
{BLKREFS
331
3C0
102
}
  0
BLOCK_RECORD
  5
3C1
330
1
100
AcDbSymbolTableRecord
100
AcDbBlockTableRecord
  2
SW_CENTERMARKSYMBOL_20
340
0
102
{BLKREFS
331
3CC
102
}
  0
BLOCK_RECORD
  5
3CD
330
1
100
AcDbSymbolTableRecord
100
AcDbBlockTableRecord
  2
SW_CENTERMARKSYMBOL_21
340
0
102
{BLKREFS
331
3D8
102
}
  0
BLOCK_RECORD
  5
3E8
330
1
100
AcDbSymbolTableRecord
100
AcDbBlockTableRecord
  2
_D_23
340
0
  0
BLOCK_RECORD
  5
3F4
330
1
100
AcDbSymbolTableRecord
100
AcDbBlockTableRecord
  2
_D_24
340
0
  0
BLOCK_RECORD
  5
400
330
1
100
AcDbSymbolTableRecord
100
AcDbBlockTableRecord
  2
_D_25
340
0
  0
BLOCK_RECORD
  5
40A
330
1
100
AcDbSymbolTableRecord
100
AcDbBlockTableRecord
  2
_D_26
340
0
  0
ENDTAB
  0
ENDSEC
  0
SECTION
  2
BLOCKS
  0
BLOCK
  5
20
330
1F
100
AcDbEntity
  8
0
100
AcDbBlockBegin
  2
*Model_Space
 70
     0
 10
0.0
 20
0.0
 30
0.0
  3
*Model_Space
  1

  0
ENDBLK
  5
21
330
1F
100
AcDbEntity
  8
0
100
AcDbBlockEnd
  0
BLOCK
  5
1C
330
1B
100
AcDbEntity
 67
     1
  8
0
100
AcDbBlockBegin
  2
*Paper_Space
 70
     0
 10
0.0
 20
0.0
 30
0.0
  3
*Paper_Space
  1

  0
ENDBLK
  5
1D
330
1B
100
AcDbEntity
 67
     1
  8
0
100
AcDbBlockEnd
  0
BLOCK
  5
24
330
23
100
AcDbEntity
  8
0
100
AcDbBlockBegin
  2
*Paper_Space0
 70
     0
 10
0.0
 20
0.0
 30
0.0
  3
*Paper_Space0
  1

  0
ENDBLK
  5
25
330
23
100
AcDbEntity
  8
0
100
AcDbBlockEnd
  0
BLOCK
  5
C9
330
C8
100
AcDbEntity
  8
0
100
AcDbBlockBegin
  2
SW_NOTE_0
 70
     0
 10
0.0
 20
0.0
 30
0.0
  3
SW_NOTE_0
  1

  0
MTEXT
  5
CB
330
C8
100
AcDbEntity
  8
0
  6
Continuous
 62
     0
370
     0
100
AcDbMText
 10
0.0
 20
6.8213167896
 30
0.0
 40
5.2916666667
 41
0.0
 71
     1
 72
     1
  1
PROPRIETARY AND CONFIDENTIAL
  7
SLDTEXTSTYLE0
 73
     1
 44
1.0
  0
MTEXT
  5
CC
330
C8
100
AcDbEntity
  8
0
  6
Continuous
 62
     0
370
     0
100
AcDbMText
 10
0.0
 20
-0.16396696
 30
0.0
 40
3.7041666667
 41
0.0
 71
     1
 72
     1
  1
THE INFORMATION CONTAINED IN THIS DRAWING IS THE SOLE PROPERTY OF UNICE E-O SERVICES INC. ANY REPRODUCTION IN PART OR AS A WHOLE WITHOUT THE WRITTEN PERMISSION OF UNICE E-O SERVICES INC IS
  7
SLDTEXTSTYLE0
 73
     1
 44
1.0
  0
MTEXT
  5
CD
330
C8
100
AcDbEntity
  8
0
  6
Continuous
 62
     0
370
     0
100
AcDbMText
 10
0.0
 20
-5.1028557892
 30
0.0
 40
3.7041666667
 41
0.0
 71
     1
 72
     1
  1
PROHIBITED.
  7
SLDTEXTSTYLE0
 73
     1
 44
1.0
  0
ENDBLK
  5
CA
330
C8
100
AcDbEntity
  8
0
100
AcDbBlockEnd
  0
BLOCK
  5
FE
330
FD
100
AcDbEntity
  8
0
100
AcDbBlockBegin
  2
SW_NOTE_1
 70
     0
 10
0.0
 20
0.0
 30
0.0
  3
SW_NOTE_1
  1

  0
MTEXT
  5
100
330
FD
100
AcDbEntity
  8
SLD-0
 62
     0
100
AcDbMText
 10
0.0
 20
4.0927900738
 30
0.0
 40
3.175
 41
0.0
 71
     1
 72
     1
  1
No.5, Andong Rd., Chung Li District,
  7
SLDTEXTSTYLE0
 73
     1
 44
1.0
  0
MTEXT
  5
101
330
FD
100
AcDbEntity
  8
SLD-0
 62
     0
100
AcDbMText
 10
0.0
 20
-0.1405432084
 30
0.0
 40
3.175
 41
0.0
 71
     1
 72
     1
  1
Taoyuan City 32063, Taiwan, R.O.C.
  7
SLDTEXTSTYLE0
 73
     1
 44
1.0
  0
ENDBLK
  5
FF
330
FD
100
AcDbEntity
  8
0
100
AcDbBlockEnd
  0
BLOCK
  5
19F
330
19E
100
AcDbEntity
  8
0
100
AcDbBlockBegin
  2
_D
 70
     0
 10
0.0
 20
0.0
 30
0.0
  3
_D
  1

  0
SOLID
  5
1A1
330
19E
100
AcDbEntity
  8
SLD-0
100
AcDbTrace
 10
76.8662054123
 20
292.033377104
 30
0.0
 11
77.3662054123
 21
296.033377104
 31
0.0
 12
76.3662054123
 22
296.033377104
 32
0.0
 13
76.3662054123
 23
296.033377104
 33
0.0
  0
SOLID
  5
1A2
330
19E
100
AcDbEntity
  8
SLD-0
100
AcDbTrace
 10
76.8662054123
 20
335.033377104
 30
0.0
 11
76.3662054123
 21
331.033377104
 31
0.0
 12
77.3662054123
 22
331.033377104
 32
0.0
 13
77.3662054123
 23
331.033377104
 33
0.0
  0
LINE
  5
1A3
330
19E
100
AcDbEntity
  8
SLD-0
100
AcDbLine
 10
130.0477164677
 20
292.033377104
 30
0.0
 11
74.8662054123
 21
292.033377104
 31
0.0
  0
LINE
  5
1A4
330
19E
100
AcDbEntity
  8
SLD-0
100
AcDbLine
 10
104.0477164677
 20
335.033377104
 30
0.0
 11
74.8662054123
 21
335.033377104
 31
0.0
  0
LINE
  5
1A5
330
19E
100
AcDbEntity
  8
SLD-0
100
AcDbLine
 10
76.8662054123
 20
292.033377104
 30
0.0
 11
76.8662054123
 21
335.033377104
 31
0.0
  0
MTEXT
  5
1A6
330
19E
100
AcDbEntity
  8
SLD-0
100
AcDbMText
 10
70.4208670627
 20
309.7139326543
 30
0.0
 40
5.0
 41
0.0
 71
     1
 72
     1
  1
43
  7
SLDTEXTSTYLE0
 11
-7.044195017643634E-15
 21
1.0
 31
0.0
 73
     1
 44
1.0
  0
ENDBLK
  5
1A0
330
19E
100
AcDbEntity
  8
0
100
AcDbBlockEnd
  0
BLOCK
  5
1AA
330
1A9
100
AcDbEntity
  8
0
100
AcDbBlockBegin
  2
_D_1
 70
     0
 10
0.0
 20
0.0
 30
0.0
  3
_D_1
  1

  0
SOLID
  5
1AC
330
1A9
100
AcDbEntity
  8
SLD-0
100
AcDbTrace
 10
151.0562110881
 20
300.5116436223
 30
0.0
 11
153.9901303373
 21
303.2760816916
 31
0.0
 12
153.2193788356
 22
303.9132175662
 32
0.0
 13
153.2193788356
 23
303.9132175662
 33
0.0
  0
LINE
  5
1AD
330
1A9
100
AcDbEntity
  8
SLD-0
100
AcDbLine
 10
151.0562110881
 20
300.5116436223
 30
0.0
 11
187.0331215001
 21
344.033377104
 31
0.0
  0
LINE
  5
1AE
330
1A9
100
AcDbEntity
  8
SLD-0
100
AcDbLine
 10
187.0331215001
 20
344.033377104
 30
0.0
 11
232.4688840545
 21
344.033377104
 31
0.0
  0
MTEXT
  5
1AF
330
1A9
100
AcDbEntity
  8
SLD-0
100
AcDbMText
 10
194.7787810005
 20
365.8398261334
 30
0.0
 40
5.0
 41
0.0
 71
     1
 72
     1
  1
ACCEPTS
  7
SLDTEXTSTYLE0
 73
     1
 44
1.0
  0
MTEXT
  5
1B0
330
1A9
100
AcDbEntity
  8
SLD-0
100
AcDbMText
 10
191.4081215001
 20
358.1662152003
 30
0.0
 40
5.0
 41
0.0
 71
     1
 72
     1
  1

  7
SLDTEXTSTYLE0
 73
     1
 44
1.0
  0
MTEXT
  5
1B1
330
1A9
100
AcDbEntity
  8
SLD-0
100
AcDbMText
 10
191.4428437249
 20
358.1523262703
 30
0.0
 40
5.0
 41
0.0
 71
     1
 72
     1
  1
%%c
  7
SLDTEXTSTYLE0
 73
     1
 44
1.0
  0
MTEXT
  5
1B2
330
1A9
100
AcDbEntity
  8
SLD-0
100
AcDbMText
 10
198.732774321
 20
358.1662152003
 30
0.0
 40
5.0
 41
0.0
 71
     1
 72
     1
  1
1" OPTICS
  7
SLDTEXTSTYLE0
 73
     1
 44
1.0
  0
MTEXT
  5
1B3
330
1A9
100
AcDbEntity
  8
SLD-0
100
AcDbMText
 10
193.8239201791
 20
350.4787149879
 30
0.0
 40
5.0
 41
0.0
 71
     1
 72
     1
  1
Max.THK 6
  7
SLDTEXTSTYLE0
 73
     1
 44
1.0
  0
ENDBLK
  5
1AB
330
1A9
100
AcDbEntity
  8
0
100
AcDbBlockEnd
  0
BLOCK
  5
1B6
330
1B5
100
AcDbEntity
  8
0
100
AcDbBlockBegin
  2
_D_2
 70
     0
 10
0.0
 20
0.0
 30
0.0
  3
_D_2
  1

  0
SOLID
  5
1B8
330
1B5
100
AcDbEntity
  8
SLD-0
100
AcDbTrace
 10
118.6477164677
 20
345.9356432037
 30
0.0
 11
122.6477164677
 21
345.4356432037
 31
0.0
 12
122.6477164677
 22
346.4356432037
 32
0.0
 13
122.6477164677
 23
346.4356432037
 33
0.0
  0
SOLID
  5
1B9
330
1B5
100
AcDbEntity
  8
SLD-0
100
AcDbTrace
 10
144.0477164677
 20
345.9356432037
 30
0.0
 11
140.0477164677
 21
346.4356432037
 31
0.0
 12
140.0477164677
 22
345.4356432037
 32
0.0
 13
140.0477164677
 23
345.4356432037
 33
0.0
  0
LINE
  5
1BA
330
1B5
100
AcDbEntity
  8
SLD-0
100
AcDbLine
 10
118.6477164677
 20
319.433377104
 30
0.0
 11
118.6477164677
 21
347.9356432037
 31
0.0
  0
LINE
  5
1BB
330
1B5
100
AcDbEntity
  8
SLD-0
100
AcDbLine
 10
144.0477164677
 20
306.033377104
 30
0.0
 11
144.0477164677
 21
347.9356432037
 31
0.0
  0
LINE
  5
1BC
330
1B5
100
AcDbEntity
  8
SLD-0
100
AcDbLine
 10
118.6477164677
 20
345.9356432037
 30
0.0
 11
144.0477164677
 21
345.9356432037
 31
0.0
  0
MTEXT
  5
1BD
330
1B5
100
AcDbEntity
  8
SLD-0
100
AcDbMText
 10
124.6636888554
 20
352.3809815533
 30
0.0
 40
5.0
 41
0.0
 71
     1
 72
     1
  1
25.4
  7
SLDTEXTSTYLE0
 73
     1
 44
1.0
  0
ENDBLK
  5
1B7
330
1B5
100
AcDbEntity
  8
0
100
AcDbBlockEnd
  0
BLOCK
  5
1C0
330
1BF
100
AcDbEntity
  8
0
100
AcDbBlockBegin
  2
_D_3
 70
     0
 10
0.0
 20
0.0
 30
0.0
  3
_D_3
  1

  0
SOLID
  5
1C2
330
1BF
100
AcDbEntity
  8
SLD-0
100
AcDbTrace
 10
144.0477164677
 20
345.9356432037
 30
0.0
 11
148.0477164677
 21
345.4356432037
 31
0.0
 12
148.0477164677
 22
346.4356432037
 32
0.0
 13
148.0477164677
 23
346.4356432037
 33
0.0
  0
SOLID
  5
1C3
330
1BF
100
AcDbEntity
  8
SLD-0
100
AcDbTrace
 10
169.4477164677
 20
345.9356432037
 30
0.0
 11
165.4477164677
 21
346.4356432037
 31
0.0
 12
165.4477164677
 22
345.4356432037
 32
0.0
 13
165.4477164677
 23
345.4356432037
 33
0.0
  0
LINE
  5
1C4
330
1BF
100
AcDbEntity
  8
SLD-0
100
AcDbLine
 10
144.0477164677
 20
306.033377104
 30
0.0
 11
144.0477164677
 21
347.9356432037
 31
0.0
  0
LINE
  5
1C5
330
1BF
100
AcDbEntity
  8
SLD-0
100
AcDbLine
 10
169.4477164677
 20
319.433377104
 30
0.0
 11
169.4477164677
 21
347.9356432037
 31
0.0
  0
LINE
  5
1C6
330
1BF
100
AcDbEntity
  8
SLD-0
100
AcDbLine
 10
144.0477164677
 20
345.9356432037
 30
0.0
 11
169.4477164677
 21
345.9356432037
 31
0.0
  0
MTEXT
  5
1C7
330
1BF
100
AcDbEntity
  8
SLD-0
100
AcDbMText
 10
150.0636888554
 20
352.3809815533
 30
0.0
 40
5.0
 41
0.0
 71
     1
 72
     1
  1
25.4
  7
SLDTEXTSTYLE0
 73
     1
 44
1.0
  0
ENDBLK
  5
1C1
330
1BF
100
AcDbEntity
  8
0
100
AcDbBlockEnd
  0
BLOCK
  5
1CA
330
1C9
100
AcDbEntity
  8
0
100
AcDbBlockBegin
  2
_D_4
 70
     0
 10
0.0
 20
0.0
 30
0.0
  3
_D_4
  1

  0
SOLID
  5
1CC
330
1C9
100
AcDbEntity
  8
SLD-0
100
AcDbTrace
 10
171.7959983402
 20
293.0343014454
 30
0.0
 11
175.671733703
 21
294.1427577582
 31
0.0
 12
175.2796295225
 22
295.0626785763
 32
0.0
 13
175.2796295225
 23
295.0626785763
 33
0.0
  0
LINE
  5
1CD
330
1C9
100
AcDbEntity
  8
SLD-0
100
AcDbLine
 10
171.7959983402
 20
293.0343014454
 30
0.0
 11
193.0391975008
 21
302.0889364019
 31
0.0
  0
LINE
  5
1CE
330
1C9
100
AcDbEntity
  8
SLD-0
100
AcDbLine
 10
193.0391975008
 20
302.0889364019
 30
0.0
 11
226.4628080539
 21
302.0889364019
 31
0.0
  0
MTEXT
  5
1CF
330
1C9
100
AcDbEntity
  8
SLD-0
100
AcDbMText
 10
195.5391975008
 20
316.2078856847
 30
0.0
 40
5.0
 41
0.0
 71
     1
 72
     1
  1
4 HOLES,
  7
SLDTEXTSTYLE0
 73
     1
 44
1.0
  0
MTEXT
  5
1D0
330
1C9
100
AcDbEntity
  8
SLD-0
100
AcDbMText
 10
197.4141975008
 20
308.5342747515
 30
0.0
 40
5.0
 41
0.0
 71
     1
 72
     1
  1
1/4"-20
  7
SLDTEXTSTYLE0
 73
     1
 44
1.0
  0
ENDBLK
  5
1CB
330
1C9
100
AcDbEntity
  8
0
100
AcDbBlockEnd
  0
BLOCK
  5
1D3
330
1D2
100
AcDbEntity
  8
0
100
AcDbBlockBegin
  2
_D_5
 70
     0
 10
0.0
 20
0.0
 30
0.0
  3
_D_5
  1

  0
SOLID
  5
1D5
330
1D2
100
AcDbEntity
  8
SLD-0
100
AcDbTrace
 10
94.3421800606
 20
317.433377104
 30
0.0
 11
93.8421800606
 21
313.433377104
 31
0.0
 12
94.8421800606
 22
313.433377104
 32
0.0
 13
94.8421800606
 23
313.433377104
 33
0.0
  0
SOLID
  5
1D6
330
1D2
100
AcDbEntity
  8
SLD-0
100
AcDbTrace
 10
94.3421800606
 20
292.033377104
 30
0.0
 11
94.8421800606
 21
296.033377104
 31
0.0
 12
93.8421800606
 22
296.033377104
 32
0.0
 13
93.8421800606
 23
296.033377104
 33
0.0
  0
LINE
  5
1D7
330
1D2
100
AcDbEntity
  8
SLD-0
100
AcDbLine
 10
112.1477164677
 20
317.433377104
 30
0.0
 11
92.3421800606
 21
317.433377104
 31
0.0
  0
LINE
  5
1D8
330
1D2
100
AcDbEntity
  8
SLD-0
100
AcDbLine
 10
130.0477164677
 20
292.033377104
 30
0.0
 11
92.3421800606
 21
292.033377104
 31
0.0
  0
LINE
  5
1D9
330
1D2
100
AcDbEntity
  8
SLD-0
100
AcDbLine
 10
94.3421800606
 20
317.433377104
 30
0.0
 11
94.3421800606
 21
292.033377104
 31
0.0
  0
MTEXT
  5
1DA
330
1D2
100
AcDbEntity
  8
SLD-0
100
AcDbMText
 10
87.896841711
 20
298.0493494918
 30
0.0
 40
5.0
 41
0.0
 71
     1
 72
     1
  1
25.4
  7
SLDTEXTSTYLE0
 11
-7.044195017643634E-15
 21
1.0
 31
0.0
 73
     1
 44
1.0
  0
ENDBLK
  5
1D4
330
1D2
100
AcDbEntity
  8
0
100
AcDbBlockEnd
  0
BLOCK
  5
1DD
330
1DC
100
AcDbEntity
  8
0
100
AcDbBlockBegin
  2
_D_6
 70
     0
 10
0.0
 20
0.0
 30
0.0
  3
_D_6
  1

  0
SOLID
  5
1DF
330
1DC
100
AcDbEntity
  8
SLD-0
100
AcDbTrace
 10
94.3421800606
 20
266.633377104
 30
0.0
 11
94.8421800606
 21
270.633377104
 31
0.0
 12
93.8421800606
 22
270.633377104
 32
0.0
 13
93.8421800606
 23
270.633377104
 33
0.0
  0
SOLID
  5
1E0
330
1DC
100
AcDbEntity
  8
SLD-0
100
AcDbTrace
 10
94.3421800606
 20
292.033377104
 30
0.0
 11
93.8421800606
 21
288.033377104
 31
0.0
 12
94.8421800606
 22
288.033377104
 32
0.0
 13
94.8421800606
 23
288.033377104
 33
0.0
  0
LINE
  5
1E1
330
1DC
100
AcDbEntity
  8
SLD-0
100
AcDbLine
 10
112.1477164677
 20
266.633377104
 30
0.0
 11
92.3421800606
 21
266.633377104
 31
0.0
  0
LINE
  5
1E2
330
1DC
100
AcDbEntity
  8
SLD-0
100
AcDbLine
 10
130.0477164677
 20
292.033377104
 30
0.0
 11
92.3421800606
 21
292.033377104
 31
0.0
  0
LINE
  5
1E3
330
1DC
100
AcDbEntity
  8
SLD-0
100
AcDbLine
 10
94.3421800606
 20
266.633377104
 30
0.0
 11
94.3421800606
 21
292.033377104
 31
0.0
  0
MTEXT
  5
1E4
330
1DC
100
AcDbEntity
  8
SLD-0
100
AcDbMText
 10
87.896841711
 20
272.6493494918
 30
0.0
 40
5.0
 41
0.0
 71
     1
 72
     1
  1
25.4
  7
SLDTEXTSTYLE0
 11
6.123233995736766E-17
 21
1.0
 31
0.0
 73
     1
 44
1.0
  0
ENDBLK
  5
1DE
330
1DC
100
AcDbEntity
  8
0
100
AcDbBlockEnd
  0
BLOCK
  5
1E8
330
1E7
100
AcDbEntity
  8
0
100
AcDbBlockBegin
  2
_D_7
 70
     0
 10
0.0
 20
0.0
 30
0.0
  3
_D_7
  1

  0
SOLID
  5
1EA
330
1E7
100
AcDbEntity
  8
SLD-0
100
AcDbTrace
 10
116.0603569316
 20
264.276351302
 30
0.0
 11
112.7666566329
 21
261.9522303193
 31
0.0
 12
113.4400925763
 22
261.2129847375
 32
0.0
 13
113.4400925763
 23
261.2129847375
 33
0.0
  0
LINE
  5
1EB
330
1E7
100
AcDbEntity
  8
SLD-0
100
AcDbLine
 10
116.0603569316
 20
264.276351302
 30
0.0
 11
101.525059122
 21
251.0350249622
 31
0.0
  0
LINE
  5
1EC
330
1E7
100
AcDbEntity
  8
SLD-0
100
AcDbLine
 10
101.525059122
 20
251.0350249622
 30
0.0
 11
54.7073517026
 21
251.0350249622
 31
0.0
  0
MTEXT
  5
1ED
330
1E7
100
AcDbEntity
  8
SLD-0
100
AcDbMText
 10
54.7073517026
 20
257.4942521254
 30
0.0
 40
5.0
 41
0.0
 71
     1
 72
     1
  1
4-
  7
SLDTEXTSTYLE0
 73
     1
 44
1.0
  0
MTEXT
  5
1EE
330
1E7
100
AcDbEntity
  8
SLD-0
100
AcDbMText
 10
60.8115183221
 20
257.4803631954
 30
0.0
 40
5.0
 41
0.0
 71
     1
 72
     1
  1
%%c
  7
SLDTEXTSTYLE0
 73
     1
 44
1.0
  0
MTEXT
  5
1EF
330
1E7
100
AcDbEntity
  8
SLD-0
100
AcDbMText
 10
68.1014485688
 20
257.4942521254
 30
0.0
 40
5.0
 41
0.0
 71
     1
 72
     1
  1
7
  7
SLDTEXTSTYLE0
 73
     1
 44
1.0
  0
MTEXT
  5
1F0
330
1E7
100
AcDbEntity
  8
SLD-0
100
AcDbMText
 10
73.7958937169
 20
257.4942521254
 30
0.0
 40
5.0
 41
0.0
 71
     1
 72
     1
  1
HOLES.
  7
SLDTEXTSTYLE0
 73
     1
 44
1.0
  0
ENDBLK
  5
1E9
330
1E7
100
AcDbEntity
  8
0
100
AcDbBlockEnd
  0
BLOCK
  5
1F4
330
1F3
100
AcDbEntity
  8
0
100
AcDbBlockBegin
  2
_D_8
 70
     0
 10
0.0
 20
0.0
 30
0.0
  3
_D_8
  1

  0
SOLID
  5
1F6
330
1F3
100
AcDbEntity
  8
SLD-0
100
AcDbTrace
 10
151.2516328664
 20
283.7205202834
 30
0.0
 11
149.0098840314
 21
287.0708280544
 31
0.0
 12
148.254169775
 22
286.4159265636
 32
0.0
 13
148.254169775
 23
286.4159265636
 33
0.0
  0
SOLID
  5
1F7
330
1F3
100
AcDbEntity
  8
SLD-0
100
AcDbTrace
 10
136.8438000689
 20
300.3462339246
 30
0.0
 11
139.0855489039
 21
296.9959261535
 31
0.0
 12
139.8412631603
 22
297.6508276443
 32
0.0
 13
139.8412631603
 23
297.6508276443
 33
0.0
  0
LINE
  5
1F8
330
1F3
100
AcDbEntity
  8
SLD-0
100
AcDbLine
 10
136.8438000689
 20
300.3462339246
 30
0.0
 11
99.3185513979
 21
343.6479606652
 31
0.0
  0
LINE
  5
1F9
330
1F3
100
AcDbEntity
  8
SLD-0
100
AcDbLine
 10
151.2516328664
 20
283.7205202834
 30
0.0
 11
136.8438000689
 21
300.3462339246
 31
0.0
  0
LINE
  5
1FA
330
1F3
100
AcDbEntity
  8
SLD-0
100
AcDbLine
 10
99.3185513979
 20
343.6479606652
 30
0.0
 11
68.5286186403
 21
343.6479606652
 31
0.0
  0
MTEXT
  5
1FB
330
1F3
100
AcDbEntity
  8
SLD-0
100
AcDbMText
 10
68.5286186403
 20
350.1071878283
 30
0.0
 40
5.0
 41
0.0
 71
     1
 72
     1
  1
C.A.
  7
SLDTEXTSTYLE0
 73
     1
 44
1.0
  0
MTEXT
  5
1FC
330
1F3
100
AcDbEntity
  8
SLD-0
100
AcDbMText
 10
81.8897299236
 20
350.0932988984
 30
0.0
 40
5.0
 41
0.0
 71
     1
 72
     1
  1
%%c
  7
SLDTEXTSTYLE0
 73
     1
 44
1.0
  0
MTEXT
  5
1FD
330
1F3
100
AcDbEntity
  8
SLD-0
100
AcDbMText
 10
89.1796611017
 20
350.1071878283
 30
0.0
 40
5.0
 41
0.0
 71
     1
 72
     1
  1
22
  7
SLDTEXTSTYLE0
 73
     1
 44
1.0
  0
ENDBLK
  5
1F5
330
1F3
100
AcDbEntity
  8
0
100
AcDbBlockEnd
  0
BLOCK
  5
1FF
330
1FE
100
AcDbEntity
  8
0
100
AcDbBlockBegin
  2
SW_CENTERMARKSYMBOL_0
 70
     0
 10
0.0
 20
0.0
 30
0.0
  3
SW_CENTERMARKSYMBOL_0
  1

  0
LINE
  5
201
330
1FE
100
AcDbEntity
  8
SLD-0
 62
     0
100
AcDbLine
 10
0.0
 20
0.0
 30
0.0
 11
0.0
 21
1.0
 31
0.0
  0
LINE
  5
202
330
1FE
100
AcDbEntity
  8
SLD-0
 62
     0
100
AcDbLine
 10
0.0
 20
0.0
 30
0.0
 11
-1.0
 21
0.0
 31
0.0
  0
LINE
  5
203
330
1FE
100
AcDbEntity
  8
SLD-0
 62
     0
100
AcDbLine
 10
0.0
 20
0.0
 30
0.0
 11
0.0
 21
-1.0
 31
0.0
  0
LINE
  5
204
330
1FE
100
AcDbEntity
  8
SLD-0
 62
     0
100
AcDbLine
 10
0.0
 20
0.0
 30
0.0
 11
1.0
 21
0.0
 31
0.0
  0
LINE
  5
205
330
1FE
100
AcDbEntity
  8
SLD-0
 62
     0
100
AcDbLine
 10
0.0
 20
2.0
 30
0.0
 11
0.0
 21
12.0
 31
0.0
  0
LINE
  5
206
330
1FE
100
AcDbEntity
  8
SLD-0
 62
     0
100
AcDbLine
 10
-2.0
 20
0.0
 30
0.0
 11
-12.0
 21
0.0
 31
0.0
  0
LINE
  5
207
330
1FE
100
AcDbEntity
  8
SLD-0
 62
     0
100
AcDbLine
 10
0.0
 20
-2.0
 30
0.0
 11
0.0
 21
-12.0
 31
0.0
  0
LINE
  5
208
330
1FE
100
AcDbEntity
  8
SLD-0
 62
     0
100
AcDbLine
 10
2.0
 20
0.0
 30
0.0
 11
12.0
 21
0.0
 31
0.0
  0
ENDBLK
  5
200
330
1FE
100
AcDbEntity
  8
0
100
AcDbBlockEnd
  0
BLOCK
  5
20B
330
20A
100
AcDbEntity
  8
0
100
AcDbBlockBegin
  2
SW_CENTERMARKSYMBOL_1
 70
     0
 10
0.0
 20
0.0
 30
0.0
  3
SW_CENTERMARKSYMBOL_1
  1

  0
LINE
  5
20D
330
20A
100
AcDbEntity
  8
SLD-0
 62
     0
100
AcDbLine
 10
0.0
 20
0.0
 30
0.0
 11
0.0
 21
1.0
 31
0.0
  0
LINE
  5
20E
330
20A
100
AcDbEntity
  8
SLD-0
 62
     0
100
AcDbLine
 10
0.0
 20
0.0
 30
0.0
 11
-1.0
 21
0.0
 31
0.0
  0
LINE
  5
20F
330
20A
100
AcDbEntity
  8
SLD-0
 62
     0
100
AcDbLine
 10
0.0
 20
0.0
 30
0.0
 11
0.0
 21
-1.0
 31
0.0
  0
LINE
  5
210
330
20A
100
AcDbEntity
  8
SLD-0
 62
     0
100
AcDbLine
 10
0.0
 20
0.0
 30
0.0
 11
1.0
 21
0.0
 31
0.0
  0
LINE
  5
211
330
20A
100
AcDbEntity
  8
SLD-0
 62
     0
100
AcDbLine
 10
0.0
 20
2.0
 30
0.0
 11
0.0
 21
4.5
 31
0.0
  0
LINE
  5
212
330
20A
100
AcDbEntity
  8
SLD-0
 62
     0
100
AcDbLine
 10
-2.0
 20
0.0
 30
0.0
 11
-4.5
 21
0.0
 31
0.0
  0
LINE
  5
213
330
20A
100
AcDbEntity
  8
SLD-0
 62
     0
100
AcDbLine
 10
0.0
 20
-2.0
 30
0.0
 11
0.0
 21
-4.5
 31
0.0
  0
LINE
  5
214
330
20A
100
AcDbEntity
  8
SLD-0
 62
     0
100
AcDbLine
 10
2.0
 20
0.0
 30
0.0
 11
4.5
 21
0.0
 31
0.0
  0
ENDBLK
  5
20C
330
20A
100
AcDbEntity
  8
0
100
AcDbBlockEnd
  0
BLOCK
  5
217
330
216
100
AcDbEntity
  8
0
100
AcDbBlockBegin
  2
SW_CENTERMARKSYMBOL_2
 70
     0
 10
0.0
 20
0.0
 30
0.0
  3
SW_CENTERMARKSYMBOL_2
  1

  0
LINE
  5
219
330
216
100
AcDbEntity
  8
SLD-0
 62
     0
100
AcDbLine
 10
0.0
 20
0.0
 30
0.0
 11
0.0
 21
1.0
 31
0.0
  0
LINE
  5
21A
330
216
100
AcDbEntity
  8
SLD-0
 62
     0
100
AcDbLine
 10
0.0
 20
0.0
 30
0.0
 11
-1.0
 21
0.0
 31
0.0
  0
LINE
  5
21B
330
216
100
AcDbEntity
  8
SLD-0
 62
     0
100
AcDbLine
 10
0.0
 20
0.0
 30
0.0
 11
0.0
 21
-1.0
 31
0.0
  0
LINE
  5
21C
330
216
100
AcDbEntity
  8
SLD-0
 62
     0
100
AcDbLine
 10
0.0
 20
0.0
 30
0.0
 11
1.0
 21
0.0
 31
0.0
  0
LINE
  5
21D
330
216
100
AcDbEntity
  8
SLD-0
 62
     0
100
AcDbLine
 10
0.0
 20
2.0
 30
0.0
 11
0.0
 21
4.5
 31
0.0
  0
LINE
  5
21E
330
216
100
AcDbEntity
  8
SLD-0
 62
     0
100
AcDbLine
 10
-2.0
 20
0.0
 30
0.0
 11
-4.5
 21
0.0
 31
0.0
  0
LINE
  5
21F
330
216
100
AcDbEntity
  8
SLD-0
 62
     0
100
AcDbLine
 10
0.0
 20
-2.0
 30
0.0
 11
0.0
 21
-4.5
 31
0.0
  0
LINE
  5
220
330
216
100
AcDbEntity
  8
SLD-0
 62
     0
100
AcDbLine
 10
2.0
 20
0.0
 30
0.0
 11
4.5
 21
0.0
 31
0.0
  0
ENDBLK
  5
218
330
216
100
AcDbEntity
  8
0
100
AcDbBlockEnd
  0
BLOCK
  5
223
330
222
100
AcDbEntity
  8
0
100
AcDbBlockBegin
  2
SW_CENTERMARKSYMBOL_3
 70
     0
 10
0.0
 20
0.0
 30
0.0
  3
SW_CENTERMARKSYMBOL_3
  1

  0
LINE
  5
225
330
222
100
AcDbEntity
  8
SLD-0
 62
     0
100
AcDbLine
 10
0.0
 20
0.0
 30
0.0
 11
0.0
 21
1.0
 31
0.0
  0
LINE
  5
226
330
222
100
AcDbEntity
  8
SLD-0
 62
     0
100
AcDbLine
 10
0.0
 20
0.0
 30
0.0
 11
-1.0
 21
0.0
 31
0.0
  0
LINE
  5
227
330
222
100
AcDbEntity
  8
SLD-0
 62
     0
100
AcDbLine
 10
0.0
 20
0.0
 30
0.0
 11
0.0
 21
-1.0
 31
0.0
  0
LINE
  5
228
330
222
100
AcDbEntity
  8
SLD-0
 62
     0
100
AcDbLine
 10
0.0
 20
0.0
 30
0.0
 11
1.0
 21
0.0
 31
0.0
  0
LINE
  5
229
330
222
100
AcDbEntity
  8
SLD-0
 62
     0
100
AcDbLine
 10
0.0
 20
2.0
 30
0.0
 11
0.0
 21
3.5527
 31
0.0
  0
LINE
  5
22A
330
222
100
AcDbEntity
  8
SLD-0
 62
     0
100
AcDbLine
 10
-2.0
 20
0.0
 30
0.0
 11
-3.5527
 21
0.0
 31
0.0
  0
LINE
  5
22B
330
222
100
AcDbEntity
  8
SLD-0
 62
     0
100
AcDbLine
 10
0.0
 20
-2.0
 30
0.0
 11
0.0
 21
-3.5527
 31
0.0
  0
LINE
  5
22C
330
222
100
AcDbEntity
  8
SLD-0
 62
     0
100
AcDbLine
 10
2.0
 20
0.0
 30
0.0
 11
3.5527
 21
0.0
 31
0.0
  0
ENDBLK
  5
224
330
222
100
AcDbEntity
  8
0
100
AcDbBlockEnd
  0
BLOCK
  5
22F
330
22E
100
AcDbEntity
  8
0
100
AcDbBlockBegin
  2
SW_CENTERMARKSYMBOL_4
 70
     0
 10
0.0
 20
0.0
 30
0.0
  3
SW_CENTERMARKSYMBOL_4
  1

  0
LINE
  5
231
330
22E
100
AcDbEntity
  8
SLD-0
 62
     0
100
AcDbLine
 10
0.0
 20
0.0
 30
0.0
 11
0.0
 21
1.0
 31
0.0
  0
LINE
  5
232
330
22E
100
AcDbEntity
  8
SLD-0
 62
     0
100
AcDbLine
 10
0.0
 20
0.0
 30
0.0
 11
-1.0
 21
0.0
 31
0.0
  0
LINE
  5
233
330
22E
100
AcDbEntity
  8
SLD-0
 62
     0
100
AcDbLine
 10
0.0
 20
0.0
 30
0.0
 11
0.0
 21
-1.0
 31
0.0
  0
LINE
  5
234
330
22E
100
AcDbEntity
  8
SLD-0
 62
     0
100
AcDbLine
 10
0.0
 20
0.0
 30
0.0
 11
1.0
 21
0.0
 31
0.0
  0
LINE
  5
235
330
22E
100
AcDbEntity
  8
SLD-0
 62
     0
100
AcDbLine
 10
0.0
 20
2.0
 30
0.0
 11
0.0
 21
3.5527
 31
0.0
  0
LINE
  5
236
330
22E
100
AcDbEntity
  8
SLD-0
 62
     0
100
AcDbLine
 10
-2.0
 20
0.0
 30
0.0
 11
-3.5527
 21
0.0
 31
0.0
  0
LINE
  5
237
330
22E
100
AcDbEntity
  8
SLD-0
 62
     0
100
AcDbLine
 10
0.0
 20
-2.0
 30
0.0
 11
0.0
 21
-3.5527
 31
0.0
  0
LINE
  5
238
330
22E
100
AcDbEntity
  8
SLD-0
 62
     0
100
AcDbLine
 10
2.0
 20
0.0
 30
0.0
 11
3.5527
 21
0.0
 31
0.0
  0
ENDBLK
  5
230
330
22E
100
AcDbEntity
  8
0
100
AcDbBlockEnd
  0
BLOCK
  5
23B
330
23A
100
AcDbEntity
  8
0
100
AcDbBlockBegin
  2
SW_CENTERMARKSYMBOL_5
 70
     0
 10
0.0
 20
0.0
 30
0.0
  3
SW_CENTERMARKSYMBOL_5
  1

  0
LINE
  5
23D
330
23A
100
AcDbEntity
  8
SLD-0
 62
     0
100
AcDbLine
 10
0.0
 20
0.0
 30
0.0
 11
0.0
 21
1.0
 31
0.0
  0
LINE
  5
23E
330
23A
100
AcDbEntity
  8
SLD-0
 62
     0
100
AcDbLine
 10
0.0
 20
0.0
 30
0.0
 11
-1.0
 21
0.0
 31
0.0
  0
LINE
  5
23F
330
23A
100
AcDbEntity
  8
SLD-0
 62
     0
100
AcDbLine
 10
0.0
 20
0.0
 30
0.0
 11
0.0
 21
-1.0
 31
0.0
  0
LINE
  5
240
330
23A
100
AcDbEntity
  8
SLD-0
 62
     0
100
AcDbLine
 10
0.0
 20
0.0
 30
0.0
 11
1.0
 21
0.0
 31
0.0
  0
LINE
  5
241
330
23A
100
AcDbEntity
  8
SLD-0
 62
     0
100
AcDbLine
 10
0.0
 20
2.0
 30
0.0
 11
0.0
 21
4.5
 31
0.0
  0
LINE
  5
242
330
23A
100
AcDbEntity
  8
SLD-0
 62
     0
100
AcDbLine
 10
-2.0
 20
0.0
 30
0.0
 11
-4.5
 21
0.0
 31
0.0
  0
LINE
  5
243
330
23A
100
AcDbEntity
  8
SLD-0
 62
     0
100
AcDbLine
 10
0.0
 20
-2.0
 30
0.0
 11
0.0
 21
-4.5
 31
0.0
  0
LINE
  5
244
330
23A
100
AcDbEntity
  8
SLD-0
 62
     0
100
AcDbLine
 10
2.0
 20
0.0
 30
0.0
 11
4.5
 21
0.0
 31
0.0
  0
ENDBLK
  5
23C
330
23A
100
AcDbEntity
  8
0
100
AcDbBlockEnd
  0
BLOCK
  5
247
330
246
100
AcDbEntity
  8
0
100
AcDbBlockBegin
  2
SW_CENTERMARKSYMBOL_6
 70
     0
 10
0.0
 20
0.0
 30
0.0
  3
SW_CENTERMARKSYMBOL_6
  1

  0
LINE
  5
249
330
246
100
AcDbEntity
  8
SLD-0
 62
     0
100
AcDbLine
 10
0.0
 20
0.0
 30
0.0
 11
0.0
 21
1.0
 31
0.0
  0
LINE
  5
24A
330
246
100
AcDbEntity
  8
SLD-0
 62
     0
100
AcDbLine
 10
0.0
 20
0.0
 30
0.0
 11
-1.0
 21
0.0
 31
0.0
  0
LINE
  5
24B
330
246
100
AcDbEntity
  8
SLD-0
 62
     0
100
AcDbLine
 10
0.0
 20
0.0
 30
0.0
 11
0.0
 21
-1.0
 31
0.0
  0
LINE
  5
24C
330
246
100
AcDbEntity
  8
SLD-0
 62
     0
100
AcDbLine
 10
0.0
 20
0.0
 30
0.0
 11
1.0
 21
0.0
 31
0.0
  0
LINE
  5
24D
330
246
100
AcDbEntity
  8
SLD-0
 62
     0
100
AcDbLine
 10
0.0
 20
2.0
 30
0.0
 11
0.0
 21
3.5527
 31
0.0
  0
LINE
  5
24E
330
246
100
AcDbEntity
  8
SLD-0
 62
     0
100
AcDbLine
 10
-2.0
 20
0.0
 30
0.0
 11
-3.5527
 21
0.0
 31
0.0
  0
LINE
  5
24F
330
246
100
AcDbEntity
  8
SLD-0
 62
     0
100
AcDbLine
 10
0.0
 20
-2.0
 30
0.0
 11
0.0
 21
-3.5527
 31
0.0
  0
LINE
  5
250
330
246
100
AcDbEntity
  8
SLD-0
 62
     0
100
AcDbLine
 10
2.0
 20
0.0
 30
0.0
 11
3.5527
 21
0.0
 31
0.0
  0
ENDBLK
  5
248
330
246
100
AcDbEntity
  8
0
100
AcDbBlockEnd
  0
BLOCK
  5
253
330
252
100
AcDbEntity
  8
0
100
AcDbBlockBegin
  2
SW_CENTERMARKSYMBOL_7
 70
     0
 10
0.0
 20
0.0
 30
0.0
  3
SW_CENTERMARKSYMBOL_7
  1

  0
LINE
  5
255
330
252
100
AcDbEntity
  8
SLD-0
 62
     0
100
AcDbLine
 10
0.0
 20
0.0
 30
0.0
 11
0.0
 21
1.0
 31
0.0
  0
LINE
  5
256
330
252
100
AcDbEntity
  8
SLD-0
 62
     0
100
AcDbLine
 10
0.0
 20
0.0
 30
0.0
 11
-1.0
 21
0.0
 31
0.0
  0
LINE
  5
257
330
252
100
AcDbEntity
  8
SLD-0
 62
     0
100
AcDbLine
 10
0.0
 20
0.0
 30
0.0
 11
0.0
 21
-1.0
 31
0.0
  0
LINE
  5
258
330
252
100
AcDbEntity
  8
SLD-0
 62
     0
100
AcDbLine
 10
0.0
 20
0.0
 30
0.0
 11
1.0
 21
0.0
 31
0.0
  0
LINE
  5
259
330
252
100
AcDbEntity
  8
SLD-0
 62
     0
100
AcDbLine
 10
0.0
 20
2.0
 30
0.0
 11
0.0
 21
4.5
 31
0.0
  0
LINE
  5
25A
330
252
100
AcDbEntity
  8
SLD-0
 62
     0
100
AcDbLine
 10
-2.0
 20
0.0
 30
0.0
 11
-4.5
 21
0.0
 31
0.0
  0
LINE
  5
25B
330
252
100
AcDbEntity
  8
SLD-0
 62
     0
100
AcDbLine
 10
0.0
 20
-2.0
 30
0.0
 11
0.0
 21
-4.5
 31
0.0
  0
LINE
  5
25C
330
252
100
AcDbEntity
  8
SLD-0
 62
     0
100
AcDbLine
 10
2.0
 20
0.0
 30
0.0
 11
4.5
 21
0.0
 31
0.0
  0
ENDBLK
  5
254
330
252
100
AcDbEntity
  8
0
100
AcDbBlockEnd
  0
BLOCK
  5
25F
330
25E
100
AcDbEntity
  8
0
100
AcDbBlockBegin
  2
SW_CENTERMARKSYMBOL_8
 70
     0
 10
0.0
 20
0.0
 30
0.0
  3
SW_CENTERMARKSYMBOL_8
  1

  0
LINE
  5
261
330
25E
100
AcDbEntity
  8
SLD-0
 62
     0
100
AcDbLine
 10
0.0
 20
0.0
 30
0.0
 11
0.0
 21
1.0
 31
0.0
  0
LINE
  5
262
330
25E
100
AcDbEntity
  8
SLD-0
 62
     0
100
AcDbLine
 10
0.0
 20
0.0
 30
0.0
 11
-1.0
 21
0.0
 31
0.0
  0
LINE
  5
263
330
25E
100
AcDbEntity
  8
SLD-0
 62
     0
100
AcDbLine
 10
0.0
 20
0.0
 30
0.0
 11
0.0
 21
-1.0
 31
0.0
  0
LINE
  5
264
330
25E
100
AcDbEntity
  8
SLD-0
 62
     0
100
AcDbLine
 10
0.0
 20
0.0
 30
0.0
 11
1.0
 21
0.0
 31
0.0
  0
LINE
  5
265
330
25E
100
AcDbEntity
  8
SLD-0
 62
     0
100
AcDbLine
 10
0.0
 20
2.0
 30
0.0
 11
0.0
 21
3.5527
 31
0.0
  0
LINE
  5
266
330
25E
100
AcDbEntity
  8
SLD-0
 62
     0
100
AcDbLine
 10
-2.0
 20
0.0
 30
0.0
 11
-3.5527
 21
0.0
 31
0.0
  0
LINE
  5
267
330
25E
100
AcDbEntity
  8
SLD-0
 62
     0
100
AcDbLine
 10
0.0
 20
-2.0
 30
0.0
 11
0.0
 21
-3.5527
 31
0.0
  0
LINE
  5
268
330
25E
100
AcDbEntity
  8
SLD-0
 62
     0
100
AcDbLine
 10
2.0
 20
0.0
 30
0.0
 11
3.5527
 21
0.0
 31
0.0
  0
ENDBLK
  5
260
330
25E
100
AcDbEntity
  8
0
100
AcDbBlockEnd
  0
BLOCK
  5
2B3
330
2B2
100
AcDbEntity
  8
0
100
AcDbBlockBegin
  2
_D_9
 70
     0
 10
0.0
 20
0.0
 30
0.0
  3
_D_9
  1

  0
SOLID
  5
2B5
330
2B2
100
AcDbEntity
  8
SLD-0
100
AcDbTrace
 10
106.0477164677
 20
217.7355369964
 30
0.0
 11
110.0477164677
 21
217.2355369964
 31
0.0
 12
110.0477164677
 22
218.2355369964
 32
0.0
 13
110.0477164677
 23
218.2355369964
 33
0.0
  0
SOLID
  5
2B6
330
2B2
100
AcDbEntity
  8
SLD-0
100
AcDbTrace
 10
182.0477164677
 20
217.7355369964
 30
0.0
 11
178.0477164677
 21
218.2355369964
 31
0.0
 12
178.0477164677
 22
217.2355369964
 32
0.0
 13
178.0477164677
 23
217.2355369964
 33
0.0
  0
LINE
  5
2B7
330
2B2
100
AcDbEntity
  8
SLD-0
100
AcDbLine
 10
106.0477164677
 20
177.7355369964
 30
0.0
 11
106.0477164677
 21
219.7355369964
 31
0.0
  0
LINE
  5
2B8
330
2B2
100
AcDbEntity
  8
SLD-0
100
AcDbLine
 10
182.0477164677
 20
177.7355369964
 30
0.0
 11
182.0477164677
 21
219.7355369964
 31
0.0
  0
LINE
  5
2B9
330
2B2
100
AcDbEntity
  8
SLD-0
100
AcDbLine
 10
106.0477164677
 20
217.7355369964
 30
0.0
 11
182.0477164677
 21
217.7355369964
 31
0.0
  0
MTEXT
  5
2BA
330
2B2
100
AcDbEntity
  8
SLD-0
100
AcDbMText
 10
140.228272018
 20
224.180875346
 30
0.0
 40
5.0
 41
0.0
 71
     1
 72
     1
  1
76
  7
SLDTEXTSTYLE0
 73
     1
 44
1.0
  0
ENDBLK
  5
2B4
330
2B2
100
AcDbEntity
  8
0
100
AcDbBlockEnd
  0
BLOCK
  5
2BD
330
2BC
100
AcDbEntity
  8
0
100
AcDbBlockBegin
  2
_D_10
 70
     0
 10
0.0
 20
0.0
 30
0.0
  3
_D_10
  1

  0
SOLID
  5
2BF
330
2BC
100
AcDbEntity
  8
SLD-0
100
AcDbTrace
 10
53.7591873056
 20
175.7355369964
 30
0.0
 11
53.2591873056
 21
171.7355369964
 31
0.0
 12
54.2591873056
 22
171.7355369964
 32
0.0
 13
54.2591873056
 23
171.7355369964
 33
0.0
  0
SOLID
  5
2C0
330
2BC
100
AcDbEntity
  8
SLD-0
100
AcDbTrace
 10
53.7591873056
 20
79.7355369964
 30
0.0
 11
54.2591873056
 21
83.7355369964
 31
0.0
 12
53.2591873056
 22
83.7355369964
 32
0.0
 13
53.2591873056
 23
83.7355369964
 33
0.0
  0
LINE
  5
2C1
330
2BC
100
AcDbEntity
  8
SLD-0
100
AcDbLine
 10
104.0477164677
 20
175.7355369964
 30
0.0
 11
51.7591873056
 21
175.7355369964
 31
0.0
  0
LINE
  5
2C2
330
2BC
100
AcDbEntity
  8
SLD-0
100
AcDbLine
 10
104.0477164677
 20
79.7355369964
 30
0.0
 11
51.7591873056
 21
79.7355369964
 31
0.0
  0
LINE
  5
2C3
330
2BC
100
AcDbEntity
  8
SLD-0
100
AcDbLine
 10
53.7591873056
 20
175.7355369964
 30
0.0
 11
53.7591873056
 21
79.7355369964
 31
0.0
  0
MTEXT
  5
2C4
330
2BC
100
AcDbEntity
  8
SLD-0
100
AcDbMText
 10
47.313848956
 20
123.9160925468
 30
0.0
 40
5.0
 41
0.0
 71
     1
 72
     1
  1
96
  7
SLDTEXTSTYLE0
 11
-7.044195017643634E-15
 21
1.0
 31
0.0
 73
     1
 44
1.0
  0
ENDBLK
  5
2BE
330
2BC
100
AcDbEntity
  8
0
100
AcDbBlockEnd
  0
BLOCK
  5
2C8
330
2C7
100
AcDbEntity
  8
0
100
AcDbBlockBegin
  2
_D_11
 70
     0
 10
0.0
 20
0.0
 30
0.0
  3
_D_11
  1

  0
SOLID
  5
2CA
330
2C7
100
AcDbEntity
  8
SLD-0
100
AcDbTrace
 10
92.0477164677
 20
122.7355369964
 30
0.0
 11
92.5477164677
 21
126.7355369964
 31
0.0
 12
91.5477164677
 22
126.7355369964
 32
0.0
 13
91.5477164677
 23
126.7355369964
 33
0.0
  0
SOLID
  5
2CB
330
2C7
100
AcDbEntity
  8
SLD-0
100
AcDbTrace
 10
92.0477164677
 20
135.4355369964
 30
0.0
 11
91.5477164677
 21
131.4355369964
 31
0.0
 12
92.5477164677
 22
131.4355369964
 32
0.0
 13
92.5477164677
 23
131.4355369964
 33
0.0
  0
LINE
  5
2CC
330
2C7
100
AcDbEntity
  8
SLD-0
100
AcDbLine
 10
113.0950164677
 20
122.7355369964
 30
0.0
 11
90.0477164677
 21
122.7355369964
 31
0.0
  0
LINE
  5
2CD
330
2C7
100
AcDbEntity
  8
SLD-0
100
AcDbLine
 10
126.6205164677
 20
135.4355369964
 30
0.0
 11
90.0477164677
 21
135.4355369964
 31
0.0
  0
LINE
  5
2CE
330
2C7
100
AcDbEntity
  8
SLD-0
100
AcDbLine
 10
92.0477164677
 20
122.7355369964
 30
0.0
 11
92.0477164677
 21
135.4355369964
 31
0.0
  0
MTEXT
  5
2CF
330
2C7
100
AcDbEntity
  8
SLD-0
100
AcDbMText
 10
86.8914453922
 20
123.7383149066
 30
0.0
 40
4.0
 41
0.0
 71
     1
 72
     1
  1
12.7
  7
SLDTEXTSTYLE0
 11
6.123233995736766E-17
 21
1.0
 31
0.0
 73
     1
 44
1.0
  0
ENDBLK
  5
2C9
330
2C7
100
AcDbEntity
  8
0
100
AcDbBlockEnd
  0
BLOCK
  5
2D2
330
2D1
100
AcDbEntity
  8
0
100
AcDbBlockBegin
  2
_D_12
 70
     0
 10
0.0
 20
0.0
 30
0.0
  3
_D_12
  1

  0
SOLID
  5
2D4
330
2D1
100
AcDbEntity
  8
SLD-0
100
AcDbTrace
 10
171.6584195159
 20
124.0118869964
 30
0.0
 11
175.372521131
 21
125.5788742945
 31
0.0
 12
174.872521131
 22
126.4448996983
 32
0.0
 13
174.872521131
 23
126.4448996983
 33
0.0
  0
LINE
  5
2D5
330
2D1
100
AcDbEntity
  8
SLD-0
100
AcDbLine
 10
171.6584195159
 20
124.0118869964
 30
0.0
 11
191.4447617238
 21
135.4355369964
 31
0.0
  0
LINE
  5
2D6
330
2D1
100
AcDbEntity
  8
SLD-0
100
AcDbLine
 10
191.4447617238
 20
135.4355369964
 30
0.0
 11
224.8683722769
 21
135.4355369964
 31
0.0
  0
MTEXT
  5
2D7
330
2D1
100
AcDbEntity
  8
SLD-0
100
AcDbMText
 10
193.9447617238
 20
149.5544862791
 30
0.0
 40
5.0
 41
0.0
 71
     1
 72
     1
  1
5 HOLES,
  7
SLDTEXTSTYLE0
 73
     1
 44
1.0
  0
MTEXT
  5
2D8
330
2D1
100
AcDbEntity
  8
SLD-0
100
AcDbMText
 10
195.8197617238
 20
141.880875346
 30
0.0
 40
5.0
 41
0.0
 71
     1
 72
     1
  1
1/4"-20
  7
SLDTEXTSTYLE0
 73
     1
 44
1.0
  0
ENDBLK
  5
2D3
330
2D1
100
AcDbEntity
  8
0
100
AcDbBlockEnd
  0
BLOCK
  5
2DB
330
2DA
100
AcDbEntity
  8
0
100
AcDbBlockBegin
  2
_D_13
 70
     0
 10
0.0
 20
0.0
 30
0.0
  3
_D_13
  1

  0
SOLID
  5
2DD
330
2DA
100
AcDbEntity
  8
SLD-0
100
AcDbTrace
 10
158.2435155451
 20
109.1719369964
 30
0.0
 11
161.4576171602
 21
106.7389242945
 31
0.0
 12
161.9576171602
 22
107.6049496983
 32
0.0
 13
161.9576171602
 23
107.6049496983
 33
0.0
  0
LINE
  5
2DE
330
2DA
100
AcDbEntity
  8
SLD-0
100
AcDbLine
 10
158.2435155451
 20
109.1719369964
 30
0.0
 11
199.6062953512
 21
85.2911249409
 31
0.0
  0
LINE
  5
2DF
330
2DA
100
AcDbEntity
  8
SLD-0
100
AcDbLine
 10
199.6062953512
 20
85.2911249409
 30
0.0
 11
233.0299059044
 21
85.2911249409
 31
0.0
  0
MTEXT
  5
2E0
330
2DA
100
AcDbEntity
  8
SLD-0
100
AcDbMText
 10
202.1062953512
 20
99.4100742236
 30
0.0
 40
5.0
 41
0.0
 71
     1
 72
     1
  1
4 HOLES,
  7
SLDTEXTSTYLE0
 73
     1
 44
1.0
  0
MTEXT
  5
2E1
330
2DA
100
AcDbEntity
  8
SLD-0
100
AcDbMText
 10
203.9812953512
 20
91.7364632905
 30
0.0
 40
5.0
 41
0.0
 71
     1
 72
     1
  1
8-32
  7
SLDTEXTSTYLE0
 73
     1
 44
1.0
  0
ENDBLK
  5
2DC
330
2DA
100
AcDbEntity
  8
0
100
AcDbBlockEnd
  0
BLOCK
  5
2E4
330
2E3
100
AcDbEntity
  8
0
100
AcDbBlockBegin
  2
_D_14
 70
     0
 10
0.0
 20
0.0
 30
0.0
  3
_D_14
  1

  0
SOLID
  5
2E6
330
2E3
100
AcDbEntity
  8
SLD-0
100
AcDbTrace
 10
172.0323843246
 20
150.4955141296
 30
0.0
 11
175.3234300372
 21
152.8233925881
 31
0.0
 12
174.6491508563
 22
153.5618691186
 32
0.0
 13
174.6491508563
 23
153.5618691186
 33
0.0
  0
LINE
  5
2E7
330
2E3
100
AcDbEntity
  8
SLD-0
100
AcDbLine
 10
172.0323843246
 20
150.4955141296
 30
0.0
 11
195.8492052752
 21
172.2418877224
 31
0.0
  0
LINE
  5
2E8
330
2E3
100
AcDbEntity
  8
SLD-0
100
AcDbLine
 10
195.8492052752
 20
172.2418877224
 30
0.0
 11
242.6669126946
 21
172.2418877224
 31
0.0
  0
MTEXT
  5
2E9
330
2E3
100
AcDbEntity
  8
SLD-0
100
AcDbMText
 10
198.3492052752
 20
178.7011148856
 30
0.0
 40
5.0
 41
0.0
 71
     1
 72
     1
  1
4-
  7
SLDTEXTSTYLE0
 73
     1
 44
1.0
  0
MTEXT
  5
2EA
330
2E3
100
AcDbEntity
  8
SLD-0
100
AcDbMText
 10
204.4533718947
 20
178.6872259556
 30
0.0
 40
5.0
 41
0.0
 71
     1
 72
     1
  1
%%c
  7
SLDTEXTSTYLE0
 73
     1
 44
1.0
  0
MTEXT
  5
2EB
330
2E3
100
AcDbEntity
  8
SLD-0
100
AcDbMText
 10
211.7433021415
 20
178.7011148856
 30
0.0
 40
5.0
 41
0.0
 71
     1
 72
     1
  1
7
  7
SLDTEXTSTYLE0
 73
     1
 44
1.0
  0
MTEXT
  5
2EC
330
2E3
100
AcDbEntity
  8
SLD-0
100
AcDbMText
 10
217.4377472896
 20
178.7011148856
 30
0.0
 40
5.0
 41
0.0
 71
     1
 72
     1
  1
HOLES.
  7
SLDTEXTSTYLE0
 73
     1
 44
1.0
  0
ENDBLK
  5
2E5
330
2E3
100
AcDbEntity
  8
0
100
AcDbBlockEnd
  0
BLOCK
  5
2EF
330
2EE
100
AcDbEntity
  8
0
100
AcDbBlockBegin
  2
_D_15
 70
     0
 10
0.0
 20
0.0
 30
0.0
  3
_D_15
  1

  0
SOLID
  5
2F1
330
2EE
100
AcDbEntity
  8
SLD-0
100
AcDbTrace
 10
144.0477164677
 20
189.7355369964
 30
0.0
 11
140.0477164677
 21
190.2355369964
 31
0.0
 12
140.0477164677
 22
189.2355369964
 32
0.0
 13
140.0477164677
 23
189.2355369964
 33
0.0
  0
SOLID
  5
2F2
330
2EE
100
AcDbEntity
  8
SLD-0
100
AcDbTrace
 10
131.3477164677
 20
189.7355369964
 30
0.0
 11
135.3477164677
 21
189.2355369964
 31
0.0
 12
135.3477164677
 22
190.2355369964
 32
0.0
 13
135.3477164677
 23
190.2355369964
 33
0.0
  0
LINE
  5
2F3
330
2EE
100
AcDbEntity
  8
SLD-0
100
AcDbLine
 10
144.0477164677
 20
153.6882369964
 30
0.0
 11
144.0477164677
 21
191.7355369964
 31
0.0
  0
LINE
  5
2F4
330
2EE
100
AcDbEntity
  8
SLD-0
100
AcDbLine
 10
131.3477164677
 20
140.1627369964
 30
0.0
 11
131.3477164677
 21
191.7355369964
 31
0.0
  0
LINE
  5
2F5
330
2EE
100
AcDbEntity
  8
SLD-0
100
AcDbLine
 10
144.0477164677
 20
189.7355369964
 30
0.0
 11
131.3477164677
 21
189.7355369964
 31
0.0
  0
MTEXT
  5
2F6
330
2EE
100
AcDbEntity
  8
SLD-0
100
AcDbMText
 10
131.0136888555
 20
196.180875346
 30
0.0
 40
5.0
 41
0.0
 71
     1
 72
     1
  1
12.7
  7
SLDTEXTSTYLE0
 73
     1
 44
1.0
  0
ENDBLK
  5
2F0
330
2EE
100
AcDbEntity
  8
0
100
AcDbBlockEnd
  0
BLOCK
  5
2F9
330
2F8
100
AcDbEntity
  8
0
100
AcDbBlockBegin
  2
_D_16
 70
     0
 10
0.0
 20
0.0
 30
0.0
  3
_D_16
  1

  0
SOLID
  5
2FB
330
2F8
100
AcDbEntity
  8
SLD-0
100
AcDbTrace
 10
144.0477164677
 20
189.7355369964
 30
0.0
 11
148.0477164677
 21
189.2355369964
 31
0.0
 12
148.0477164677
 22
190.2355369964
 32
0.0
 13
148.0477164677
 23
190.2355369964
 33
0.0
  0
SOLID
  5
2FC
330
2F8
100
AcDbEntity
  8
SLD-0
100
AcDbTrace
 10
156.7477164677
 20
189.7355369964
 30
0.0
 11
152.7477164677
 21
190.2355369964
 31
0.0
 12
152.7477164677
 22
189.2355369964
 32
0.0
 13
152.7477164677
 23
189.2355369964
 33
0.0
  0
LINE
  5
2FD
330
2F8
100
AcDbEntity
  8
SLD-0
100
AcDbLine
 10
144.0477164677
 20
153.6882369964
 30
0.0
 11
144.0477164677
 21
191.7355369964
 31
0.0
  0
LINE
  5
2FE
330
2F8
100
AcDbEntity
  8
SLD-0
100
AcDbLine
 10
156.7477164677
 20
140.1627369964
 30
0.0
 11
156.7477164677
 21
191.7355369964
 31
0.0
  0
LINE
  5
2FF
330
2F8
100
AcDbEntity
  8
SLD-0
100
AcDbLine
 10
144.0477164677
 20
189.7355369964
 30
0.0
 11
156.7477164677
 21
189.7355369964
 31
0.0
  0
MTEXT
  5
300
330
2F8
100
AcDbEntity
  8
SLD-0
100
AcDbMText
 10
143.7136888555
 20
196.180875346
 30
0.0
 40
5.0
 41
0.0
 71
     1
 72
     1
  1
12.7
  7
SLDTEXTSTYLE0
 73
     1
 44
1.0
  0
ENDBLK
  5
2FA
330
2F8
100
AcDbEntity
  8
0
100
AcDbBlockEnd
  0
BLOCK
  5
303
330
302
100
AcDbEntity
  8
0
100
AcDbBlockBegin
  2
_D_17
 70
     0
 10
0.0
 20
0.0
 30
0.0
  3
_D_17
  1

  0
SOLID
  5
305
330
302
100
AcDbEntity
  8
SLD-0
100
AcDbTrace
 10
144.0477164677
 20
203.7355369964
 30
0.0
 11
148.0477164677
 21
203.2355369964
 31
0.0
 12
148.0477164677
 22
204.2355369964
 32
0.0
 13
148.0477164677
 23
204.2355369964
 33
0.0
  0
SOLID
  5
306
330
302
100
AcDbEntity
  8
SLD-0
100
AcDbTrace
 10
169.4477164677
 20
203.7355369964
 30
0.0
 11
165.4477164677
 21
204.2355369964
 31
0.0
 12
165.4477164677
 22
203.2355369964
 32
0.0
 13
165.4477164677
 23
203.2355369964
 33
0.0
  0
LINE
  5
307
330
302
100
AcDbEntity
  8
SLD-0
100
AcDbLine
 10
144.0477164677
 20
153.6882369964
 30
0.0
 11
144.0477164677
 21
205.7355369964
 31
0.0
  0
LINE
  5
308
330
302
100
AcDbEntity
  8
SLD-0
100
AcDbLine
 10
169.4477164677
 20
154.6355369964
 30
0.0
 11
169.4477164677
 21
205.7355369964
 31
0.0
  0
LINE
  5
309
330
302
100
AcDbEntity
  8
SLD-0
100
AcDbLine
 10
144.0477164677
 20
203.7355369964
 30
0.0
 11
169.4477164677
 21
203.7355369964
 31
0.0
  0
MTEXT
  5
30A
330
302
100
AcDbEntity
  8
SLD-0
100
AcDbMText
 10
150.0636888555
 20
210.180875346
 30
0.0
 40
5.0
 41
0.0
 71
     1
 72
     1
  1
25.4
  7
SLDTEXTSTYLE0
 73
     1
 44
1.0
  0
ENDBLK
  5
304
330
302
100
AcDbEntity
  8
0
100
AcDbBlockEnd
  0
BLOCK
  5
30D
330
30C
100
AcDbEntity
  8
0
100
AcDbBlockBegin
  2
_D_18
 70
     0
 10
0.0
 20
0.0
 30
0.0
  3
_D_18
  1

  0
SOLID
  5
30F
330
30C
100
AcDbEntity
  8
SLD-0
100
AcDbTrace
 10
144.0477164677
 20
203.7355369964
 30
0.0
 11
140.0477164677
 21
204.2355369964
 31
0.0
 12
140.0477164677
 22
203.2355369964
 32
0.0
 13
140.0477164677
 23
203.2355369964
 33
0.0
  0
SOLID
  5
310
330
30C
100
AcDbEntity
  8
SLD-0
100
AcDbTrace
 10
118.6477164677
 20
203.7355369964
 30
0.0
 11
122.6477164677
 21
203.2355369964
 31
0.0
 12
122.6477164677
 22
204.2355369964
 32
0.0
 13
122.6477164677
 23
204.2355369964
 33
0.0
  0
LINE
  5
311
330
30C
100
AcDbEntity
  8
SLD-0
100
AcDbLine
 10
144.0477164677
 20
153.6882369964
 30
0.0
 11
144.0477164677
 21
205.7355369964
 31
0.0
  0
LINE
  5
312
330
30C
100
AcDbEntity
  8
SLD-0
100
AcDbLine
 10
118.6477164677
 20
154.6355369964
 30
0.0
 11
118.6477164677
 21
205.7355369964
 31
0.0
  0
LINE
  5
313
330
30C
100
AcDbEntity
  8
SLD-0
100
AcDbLine
 10
144.0477164677
 20
203.7355369964
 30
0.0
 11
118.6477164677
 21
203.7355369964
 31
0.0
  0
MTEXT
  5
314
330
30C
100
AcDbEntity
  8
SLD-0
100
AcDbMText
 10
124.6636888555
 20
210.180875346
 30
0.0
 40
5.0
 41
0.0
 71
     1
 72
     1
  1
25.4
  7
SLDTEXTSTYLE0
 73
     1
 44
1.0
  0
ENDBLK
  5
30E
330
30C
100
AcDbEntity
  8
0
100
AcDbBlockEnd
  0
BLOCK
  5
317
330
316
100
AcDbEntity
  8
0
100
AcDbBlockBegin
  2
_D_19
 70
     0
 10
0.0
 20
0.0
 30
0.0
  3
_D_19
  1

  0
SOLID
  5
319
330
316
100
AcDbEntity
  8
SLD-0
100
AcDbTrace
 10
92.0477164677
 20
122.7355369964
 30
0.0
 11
91.5477164677
 21
118.7355369964
 31
0.0
 12
92.5477164677
 22
118.7355369964
 32
0.0
 13
92.5477164677
 23
118.7355369964
 33
0.0
  0
SOLID
  5
31A
330
316
100
AcDbEntity
  8
SLD-0
100
AcDbTrace
 10
92.0477164677
 20
110.0355369964
 30
0.0
 11
92.5477164677
 21
114.0355369964
 31
0.0
 12
91.5477164677
 22
114.0355369964
 32
0.0
 13
91.5477164677
 23
114.0355369964
 33
0.0
  0
LINE
  5
31B
330
316
100
AcDbEntity
  8
SLD-0
100
AcDbLine
 10
113.0950164677
 20
122.7355369964
 30
0.0
 11
90.0477164677
 21
122.7355369964
 31
0.0
  0
LINE
  5
31C
330
316
100
AcDbEntity
  8
SLD-0
100
AcDbLine
 10
126.6205164677
 20
110.0355369964
 30
0.0
 11
90.0477164677
 21
110.0355369964
 31
0.0
  0
LINE
  5
31D
330
316
100
AcDbEntity
  8
SLD-0
100
AcDbLine
 10
92.0477164677
 20
122.7355369964
 30
0.0
 11
92.0477164677
 21
110.0355369964
 31
0.0
  0
MTEXT
  5
31E
330
316
100
AcDbEntity
  8
SLD-0
100
AcDbMText
 10
85.602378118
 20
109.7015093842
 30
0.0
 40
5.0
 41
0.0
 71
     1
 72
     1
  1
12.7
  7
SLDTEXTSTYLE0
 11
-7.044195017643634E-15
 21
1.0
 31
0.0
 73
     1
 44
1.0
  0
ENDBLK
  5
318
330
316
100
AcDbEntity
  8
0
100
AcDbBlockEnd
  0
BLOCK
  5
321
330
320
100
AcDbEntity
  8
0
100
AcDbBlockBegin
  2
_D_20
 70
     0
 10
0.0
 20
0.0
 30
0.0
  3
_D_20
  1

  0
SOLID
  5
323
330
320
100
AcDbEntity
  8
SLD-0
100
AcDbTrace
 10
78.0477164677
 20
122.7355369964
 30
0.0
 11
77.5477164677
 21
118.7355369964
 31
0.0
 12
78.5477164677
 22
118.7355369964
 32
0.0
 13
78.5477164677
 23
118.7355369964
 33
0.0
  0
SOLID
  5
324
330
320
100
AcDbEntity
  8
SLD-0
100
AcDbTrace
 10
78.0477164677
 20
97.3355369964
 30
0.0
 11
78.5477164677
 21
101.3355369964
 31
0.0
 12
77.5477164677
 22
101.3355369964
 32
0.0
 13
77.5477164677
 23
101.3355369964
 33
0.0
  0
LINE
  5
325
330
320
100
AcDbEntity
  8
SLD-0
100
AcDbLine
 10
113.0950164677
 20
122.7355369964
 30
0.0
 11
76.0477164677
 21
122.7355369964
 31
0.0
  0
LINE
  5
326
330
320
100
AcDbEntity
  8
SLD-0
100
AcDbLine
 10
112.1477164677
 20
97.3355369964
 30
0.0
 11
76.0477164677
 21
97.3355369964
 31
0.0
  0
LINE
  5
327
330
320
100
AcDbEntity
  8
SLD-0
100
AcDbLine
 10
78.0477164677
 20
122.7355369964
 30
0.0
 11
78.0477164677
 21
97.3355369964
 31
0.0
  0
MTEXT
  5
328
330
320
100
AcDbEntity
  8
SLD-0
100
AcDbMText
 10
71.602378118
 20
103.3515093842
 30
0.0
 40
5.0
 41
0.0
 71
     1
 72
     1
  1
25.4
  7
SLDTEXTSTYLE0
 11
-7.044195017643634E-15
 21
1.0
 31
0.0
 73
     1
 44
1.0
  0
ENDBLK
  5
322
330
320
100
AcDbEntity
  8
0
100
AcDbBlockEnd
  0
BLOCK
  5
32B
330
32A
100
AcDbEntity
  8
0
100
AcDbBlockBegin
  2
_D_21
 70
     0
 10
0.0
 20
0.0
 30
0.0
  3
_D_21
  1

  0
SOLID
  5
32D
330
32A
100
AcDbEntity
  8
SLD-0
100
AcDbTrace
 10
78.0477164677
 20
122.7355369964
 30
0.0
 11
78.5477164677
 21
126.7355369964
 31
0.0
 12
77.5477164677
 22
126.7355369964
 32
0.0
 13
77.5477164677
 23
126.7355369964
 33
0.0
  0
SOLID
  5
32E
330
32A
100
AcDbEntity
  8
SLD-0
100
AcDbTrace
 10
78.0477164677
 20
148.1355369964
 30
0.0
 11
77.5477164677
 21
144.1355369964
 31
0.0
 12
78.5477164677
 22
144.1355369964
 32
0.0
 13
78.5477164677
 23
144.1355369964
 33
0.0
  0
LINE
  5
32F
330
32A
100
AcDbEntity
  8
SLD-0
100
AcDbLine
 10
113.0950164677
 20
122.7355369964
 30
0.0
 11
76.0477164677
 21
122.7355369964
 31
0.0
  0
LINE
  5
330
330
32A
100
AcDbEntity
  8
SLD-0
100
AcDbLine
 10
138.4950164677
 20
148.1355369964
 30
0.0
 11
76.0477164677
 21
148.1355369964
 31
0.0
  0
LINE
  5
331
330
32A
100
AcDbEntity
  8
SLD-0
100
AcDbLine
 10
78.0477164677
 20
122.7355369964
 30
0.0
 11
78.0477164677
 21
148.1355369964
 31
0.0
  0
MTEXT
  5
332
330
32A
100
AcDbEntity
  8
SLD-0
100
AcDbMText
 10
71.602378118
 20
128.7515093842
 30
0.0
 40
5.0
 41
0.0
 71
     1
 72
     1
  1
25.4
  7
SLDTEXTSTYLE0
 11
6.123233995736766E-17
 21
1.0
 31
0.0
 73
     1
 44
1.0
  0
ENDBLK
  5
32C
330
32A
100
AcDbEntity
  8
0
100
AcDbBlockEnd
  0
BLOCK
  5
335
330
334
100
AcDbEntity
  8
0
100
AcDbBlockBegin
  2
_D_22
 70
     0
 10
0.0
 20
0.0
 30
0.0
  3
_D_22
  1

  0
SOLID
  5
337
330
334
100
AcDbEntity
  8
SLD-0
100
AcDbTrace
 10
64.0477164677
 20
122.7355369964
 30
0.0
 11
63.5477164677
 21
118.7355369964
 31
0.0
 12
64.5477164677
 22
118.7355369964
 32
0.0
 13
64.5477164677
 23
118.7355369964
 33
0.0
  0
SOLID
  5
338
330
334
100
AcDbEntity
  8
SLD-0
100
AcDbTrace
 10
64.0477164677
 20
79.7355369964
 30
0.0
 11
64.5477164677
 21
83.7355369964
 31
0.0
 12
63.5477164677
 22
83.7355369964
 32
0.0
 13
63.5477164677
 23
83.7355369964
 33
0.0
  0
LINE
  5
339
330
334
100
AcDbEntity
  8
SLD-0
100
AcDbLine
 10
113.0950164677
 20
122.7355369964
 30
0.0
 11
62.0477164677
 21
122.7355369964
 31
0.0
  0
LINE
  5
33A
330
334
100
AcDbEntity
  8
SLD-0
100
AcDbLine
 10
104.0477164677
 20
79.7355369964
 30
0.0
 11
62.0477164677
 21
79.7355369964
 31
0.0
  0
LINE
  5
33B
330
334
100
AcDbEntity
  8
SLD-0
100
AcDbLine
 10
64.0477164677
 20
122.7355369964
 30
0.0
 11
64.0477164677
 21
79.7355369964
 31
0.0
  0
MTEXT
  5
33C
330
334
100
AcDbEntity
  8
SLD-0
100
AcDbMText
 10
57.602378118
 20
97.4160925468
 30
0.0
 40
5.0
 41
0.0
 71
     1
 72
     1
  1
43
  7
SLDTEXTSTYLE0
 11
-7.044195017643634E-15
 21
1.0
 31
0.0
 73
     1
 44
1.0
  0
ENDBLK
  5
336
330
334
100
AcDbEntity
  8
0
100
AcDbBlockEnd
  0
BLOCK
  5
33E
330
33D
100
AcDbEntity
  8
0
100
AcDbBlockBegin
  2
SW_CENTERMARKSYMBOL_9
 70
     0
 10
0.0
 20
0.0
 30
0.0
  3
SW_CENTERMARKSYMBOL_9
  1

  0
LINE
  5
340
330
33D
100
AcDbEntity
  8
SLD-0
 62
     0
100
AcDbLine
 10
0.0
 20
0.0
 30
0.0
 11
0.0
 21
1.0
 31
0.0
  0
LINE
  5
341
330
33D
100
AcDbEntity
  8
SLD-0
 62
     0
100
AcDbLine
 10
0.0
 20
0.0
 30
0.0
 11
-1.0
 21
0.0
 31
0.0
  0
LINE
  5
342
330
33D
100
AcDbEntity
  8
SLD-0
 62
     0
100
AcDbLine
 10
0.0
 20
0.0
 30
0.0
 11
0.0
 21
-1.0
 31
0.0
  0
LINE
  5
343
330
33D
100
AcDbEntity
  8
SLD-0
 62
     0
100
AcDbLine
 10
0.0
 20
0.0
 30
0.0
 11
1.0
 21
0.0
 31
0.0
  0
LINE
  5
344
330
33D
100
AcDbEntity
  8
SLD-0
 62
     0
100
AcDbLine
 10
0.0
 20
2.0
 30
0.0
 11
0.0
 21
4.5
 31
0.0
  0
LINE
  5
345
330
33D
100
AcDbEntity
  8
SLD-0
 62
     0
100
AcDbLine
 10
-2.0
 20
0.0
 30
0.0
 11
-4.5
 21
0.0
 31
0.0
  0
LINE
  5
346
330
33D
100
AcDbEntity
  8
SLD-0
 62
     0
100
AcDbLine
 10
0.0
 20
-2.0
 30
0.0
 11
0.0
 21
-4.5
 31
0.0
  0
LINE
  5
347
330
33D
100
AcDbEntity
  8
SLD-0
 62
     0
100
AcDbLine
 10
2.0
 20
0.0
 30
0.0
 11
4.5
 21
0.0
 31
0.0
  0
ENDBLK
  5
33F
330
33D
100
AcDbEntity
  8
0
100
AcDbBlockEnd
  0
BLOCK
  5
34A
330
349
100
AcDbEntity
  8
0
100
AcDbBlockBegin
  2
SW_CENTERMARKSYMBOL_10
 70
     0
 10
0.0
 20
0.0
 30
0.0
  3
SW_CENTERMARKSYMBOL_10
  1

  0
LINE
  5
34C
330
349
100
AcDbEntity
  8
SLD-0
 62
     0
100
AcDbLine
 10
0.0
 20
0.0
 30
0.0
 11
0.0
 21
1.0
 31
0.0
  0
LINE
  5
34D
330
349
100
AcDbEntity
  8
SLD-0
 62
     0
100
AcDbLine
 10
0.0
 20
0.0
 30
0.0
 11
-1.0
 21
0.0
 31
0.0
  0
LINE
  5
34E
330
349
100
AcDbEntity
  8
SLD-0
 62
     0
100
AcDbLine
 10
0.0
 20
0.0
 30
0.0
 11
0.0
 21
-1.0
 31
0.0
  0
LINE
  5
34F
330
349
100
AcDbEntity
  8
SLD-0
 62
     0
100
AcDbLine
 10
0.0
 20
0.0
 30
0.0
 11
1.0
 21
0.0
 31
0.0
  0
LINE
  5
350
330
349
100
AcDbEntity
  8
SLD-0
 62
     0
100
AcDbLine
 10
0.0
 20
2.0
 30
0.0
 11
0.0
 21
4.5
 31
0.0
  0
LINE
  5
351
330
349
100
AcDbEntity
  8
SLD-0
 62
     0
100
AcDbLine
 10
-2.0
 20
0.0
 30
0.0
 11
-4.5
 21
0.0
 31
0.0
  0
LINE
  5
352
330
349
100
AcDbEntity
  8
SLD-0
 62
     0
100
AcDbLine
 10
0.0
 20
-2.0
 30
0.0
 11
0.0
 21
-4.5
 31
0.0
  0
LINE
  5
353
330
349
100
AcDbEntity
  8
SLD-0
 62
     0
100
AcDbLine
 10
2.0
 20
0.0
 30
0.0
 11
4.5
 21
0.0
 31
0.0
  0
ENDBLK
  5
34B
330
349
100
AcDbEntity
  8
0
100
AcDbBlockEnd
  0
BLOCK
  5
356
330
355
100
AcDbEntity
  8
0
100
AcDbBlockBegin
  2
SW_CENTERMARKSYMBOL_11
 70
     0
 10
0.0
 20
0.0
 30
0.0
  3
SW_CENTERMARKSYMBOL_11
  1

  0
LINE
  5
358
330
355
100
AcDbEntity
  8
SLD-0
 62
     0
100
AcDbLine
 10
0.0
 20
0.0
 30
0.0
 11
0.0
 21
1.0
 31
0.0
  0
LINE
  5
359
330
355
100
AcDbEntity
  8
SLD-0
 62
     0
100
AcDbLine
 10
0.0
 20
0.0
 30
0.0
 11
-1.0
 21
0.0
 31
0.0
  0
LINE
  5
35A
330
355
100
AcDbEntity
  8
SLD-0
 62
     0
100
AcDbLine
 10
0.0
 20
0.0
 30
0.0
 11
0.0
 21
-1.0
 31
0.0
  0
LINE
  5
35B
330
355
100
AcDbEntity
  8
SLD-0
 62
     0
100
AcDbLine
 10
0.0
 20
0.0
 30
0.0
 11
1.0
 21
0.0
 31
0.0
  0
LINE
  5
35C
330
355
100
AcDbEntity
  8
SLD-0
 62
     0
100
AcDbLine
 10
0.0
 20
2.0
 30
0.0
 11
0.0
 21
2.7272
 31
0.0
  0
LINE
  5
35D
330
355
100
AcDbEntity
  8
SLD-0
 62
     0
100
AcDbLine
 10
-2.0
 20
0.0
 30
0.0
 11
-2.7272
 21
0.0
 31
0.0
  0
LINE
  5
35E
330
355
100
AcDbEntity
  8
SLD-0
 62
     0
100
AcDbLine
 10
0.0
 20
-2.0
 30
0.0
 11
0.0
 21
-2.7272
 31
0.0
  0
LINE
  5
35F
330
355
100
AcDbEntity
  8
SLD-0
 62
     0
100
AcDbLine
 10
2.0
 20
0.0
 30
0.0
 11
2.7272
 21
0.0
 31
0.0
  0
ENDBLK
  5
357
330
355
100
AcDbEntity
  8
0
100
AcDbBlockEnd
  0
BLOCK
  5
362
330
361
100
AcDbEntity
  8
0
100
AcDbBlockBegin
  2
SW_CENTERMARKSYMBOL_12
 70
     0
 10
0.0
 20
0.0
 30
0.0
  3
SW_CENTERMARKSYMBOL_12
  1

  0
LINE
  5
364
330
361
100
AcDbEntity
  8
SLD-0
 62
     0
100
AcDbLine
 10
0.0
 20
0.0
 30
0.0
 11
0.0
 21
1.0
 31
0.0
  0
LINE
  5
365
330
361
100
AcDbEntity
  8
SLD-0
 62
     0
100
AcDbLine
 10
0.0
 20
0.0
 30
0.0
 11
-1.0
 21
0.0
 31
0.0
  0
LINE
  5
366
330
361
100
AcDbEntity
  8
SLD-0
 62
     0
100
AcDbLine
 10
0.0
 20
0.0
 30
0.0
 11
0.0
 21
-1.0
 31
0.0
  0
LINE
  5
367
330
361
100
AcDbEntity
  8
SLD-0
 62
     0
100
AcDbLine
 10
0.0
 20
0.0
 30
0.0
 11
1.0
 21
0.0
 31
0.0
  0
LINE
  5
368
330
361
100
AcDbEntity
  8
SLD-0
 62
     0
100
AcDbLine
 10
0.0
 20
2.0
 30
0.0
 11
0.0
 21
2.7272
 31
0.0
  0
LINE
  5
369
330
361
100
AcDbEntity
  8
SLD-0
 62
     0
100
AcDbLine
 10
-2.0
 20
0.0
 30
0.0
 11
-2.7272
 21
0.0
 31
0.0
  0
LINE
  5
36A
330
361
100
AcDbEntity
  8
SLD-0
 62
     0
100
AcDbLine
 10
0.0
 20
-2.0
 30
0.0
 11
0.0
 21
-2.7272
 31
0.0
  0
LINE
  5
36B
330
361
100
AcDbEntity
  8
SLD-0
 62
     0
100
AcDbLine
 10
2.0
 20
0.0
 30
0.0
 11
2.7272
 21
0.0
 31
0.0
  0
ENDBLK
  5
363
330
361
100
AcDbEntity
  8
0
100
AcDbBlockEnd
  0
BLOCK
  5
36E
330
36D
100
AcDbEntity
  8
0
100
AcDbBlockBegin
  2
SW_CENTERMARKSYMBOL_13
 70
     0
 10
0.0
 20
0.0
 30
0.0
  3
SW_CENTERMARKSYMBOL_13
  1

  0
LINE
  5
370
330
36D
100
AcDbEntity
  8
SLD-0
 62
     0
100
AcDbLine
 10
0.0
 20
0.0
 30
0.0
 11
0.0
 21
1.0
 31
0.0
  0
LINE
  5
371
330
36D
100
AcDbEntity
  8
SLD-0
 62
     0
100
AcDbLine
 10
0.0
 20
0.0
 30
0.0
 11
-1.0
 21
0.0
 31
0.0
  0
LINE
  5
372
330
36D
100
AcDbEntity
  8
SLD-0
 62
     0
100
AcDbLine
 10
0.0
 20
0.0
 30
0.0
 11
0.0
 21
-1.0
 31
0.0
  0
LINE
  5
373
330
36D
100
AcDbEntity
  8
SLD-0
 62
     0
100
AcDbLine
 10
0.0
 20
0.0
 30
0.0
 11
1.0
 21
0.0
 31
0.0
  0
LINE
  5
374
330
36D
100
AcDbEntity
  8
SLD-0
 62
     0
100
AcDbLine
 10
0.0
 20
2.0
 30
0.0
 11
0.0
 21
3.5527
 31
0.0
  0
LINE
  5
375
330
36D
100
AcDbEntity
  8
SLD-0
 62
     0
100
AcDbLine
 10
-2.0
 20
0.0
 30
0.0
 11
-3.5527
 21
0.0
 31
0.0
  0
LINE
  5
376
330
36D
100
AcDbEntity
  8
SLD-0
 62
     0
100
AcDbLine
 10
0.0
 20
-2.0
 30
0.0
 11
0.0
 21
-3.5527
 31
0.0
  0
LINE
  5
377
330
36D
100
AcDbEntity
  8
SLD-0
 62
     0
100
AcDbLine
 10
2.0
 20
0.0
 30
0.0
 11
3.5527
 21
0.0
 31
0.0
  0
ENDBLK
  5
36F
330
36D
100
AcDbEntity
  8
0
100
AcDbBlockEnd
  0
BLOCK
  5
37A
330
379
100
AcDbEntity
  8
0
100
AcDbBlockBegin
  2
SW_CENTERMARKSYMBOL_14
 70
     0
 10
0.0
 20
0.0
 30
0.0
  3
SW_CENTERMARKSYMBOL_14
  1

  0
LINE
  5
37C
330
379
100
AcDbEntity
  8
SLD-0
 62
     0
100
AcDbLine
 10
0.0
 20
0.0
 30
0.0
 11
0.0
 21
1.0
 31
0.0
  0
LINE
  5
37D
330
379
100
AcDbEntity
  8
SLD-0
 62
     0
100
AcDbLine
 10
0.0
 20
0.0
 30
0.0
 11
-1.0
 21
0.0
 31
0.0
  0
LINE
  5
37E
330
379
100
AcDbEntity
  8
SLD-0
 62
     0
100
AcDbLine
 10
0.0
 20
0.0
 30
0.0
 11
0.0
 21
-1.0
 31
0.0
  0
LINE
  5
37F
330
379
100
AcDbEntity
  8
SLD-0
 62
     0
100
AcDbLine
 10
0.0
 20
0.0
 30
0.0
 11
1.0
 21
0.0
 31
0.0
  0
LINE
  5
380
330
379
100
AcDbEntity
  8
SLD-0
 62
     0
100
AcDbLine
 10
0.0
 20
2.0
 30
0.0
 11
0.0
 21
2.7272
 31
0.0
  0
LINE
  5
381
330
379
100
AcDbEntity
  8
SLD-0
 62
     0
100
AcDbLine
 10
-2.0
 20
0.0
 30
0.0
 11
-2.7272
 21
0.0
 31
0.0
  0
LINE
  5
382
330
379
100
AcDbEntity
  8
SLD-0
 62
     0
100
AcDbLine
 10
0.0
 20
-2.0
 30
0.0
 11
0.0
 21
-2.7272
 31
0.0
  0
LINE
  5
383
330
379
100
AcDbEntity
  8
SLD-0
 62
     0
100
AcDbLine
 10
2.0
 20
0.0
 30
0.0
 11
2.7272
 21
0.0
 31
0.0
  0
ENDBLK
  5
37B
330
379
100
AcDbEntity
  8
0
100
AcDbBlockEnd
  0
BLOCK
  5
386
330
385
100
AcDbEntity
  8
0
100
AcDbBlockBegin
  2
SW_CENTERMARKSYMBOL_15
 70
     0
 10
0.0
 20
0.0
 30
0.0
  3
SW_CENTERMARKSYMBOL_15
  1

  0
LINE
  5
388
330
385
100
AcDbEntity
  8
SLD-0
 62
     0
100
AcDbLine
 10
0.0
 20
0.0
 30
0.0
 11
0.0
 21
1.0
 31
0.0
  0
LINE
  5
389
330
385
100
AcDbEntity
  8
SLD-0
 62
     0
100
AcDbLine
 10
0.0
 20
0.0
 30
0.0
 11
-1.0
 21
0.0
 31
0.0
  0
LINE
  5
38A
330
385
100
AcDbEntity
  8
SLD-0
 62
     0
100
AcDbLine
 10
0.0
 20
0.0
 30
0.0
 11
0.0
 21
-1.0
 31
0.0
  0
LINE
  5
38B
330
385
100
AcDbEntity
  8
SLD-0
 62
     0
100
AcDbLine
 10
0.0
 20
0.0
 30
0.0
 11
1.0
 21
0.0
 31
0.0
  0
LINE
  5
38C
330
385
100
AcDbEntity
  8
SLD-0
 62
     0
100
AcDbLine
 10
0.0
 20
2.0
 30
0.0
 11
0.0
 21
4.5
 31
0.0
  0
LINE
  5
38D
330
385
100
AcDbEntity
  8
SLD-0
 62
     0
100
AcDbLine
 10
-2.0
 20
0.0
 30
0.0
 11
-4.5
 21
0.0
 31
0.0
  0
LINE
  5
38E
330
385
100
AcDbEntity
  8
SLD-0
 62
     0
100
AcDbLine
 10
0.0
 20
-2.0
 30
0.0
 11
0.0
 21
-4.5
 31
0.0
  0
LINE
  5
38F
330
385
100
AcDbEntity
  8
SLD-0
 62
     0
100
AcDbLine
 10
2.0
 20
0.0
 30
0.0
 11
4.5
 21
0.0
 31
0.0
  0
ENDBLK
  5
387
330
385
100
AcDbEntity
  8
0
100
AcDbBlockEnd
  0
BLOCK
  5
392
330
391
100
AcDbEntity
  8
0
100
AcDbBlockBegin
  2
SW_CENTERMARKSYMBOL_16
 70
     0
 10
0.0
 20
0.0
 30
0.0
  3
SW_CENTERMARKSYMBOL_16
  1

  0
LINE
  5
394
330
391
100
AcDbEntity
  8
SLD-0
 62
     0
100
AcDbLine
 10
0.0
 20
0.0
 30
0.0
 11
0.0
 21
1.0
 31
0.0
  0
LINE
  5
395
330
391
100
AcDbEntity
  8
SLD-0
 62
     0
100
AcDbLine
 10
0.0
 20
0.0
 30
0.0
 11
-1.0
 21
0.0
 31
0.0
  0
LINE
  5
396
330
391
100
AcDbEntity
  8
SLD-0
 62
     0
100
AcDbLine
 10
0.0
 20
0.0
 30
0.0
 11
0.0
 21
-1.0
 31
0.0
  0
LINE
  5
397
330
391
100
AcDbEntity
  8
SLD-0
 62
     0
100
AcDbLine
 10
0.0
 20
0.0
 30
0.0
 11
1.0
 21
0.0
 31
0.0
  0
LINE
  5
398
330
391
100
AcDbEntity
  8
SLD-0
 62
     0
100
AcDbLine
 10
0.0
 20
2.0
 30
0.0
 11
0.0
 21
4.5
 31
0.0
  0
LINE
  5
399
330
391
100
AcDbEntity
  8
SLD-0
 62
     0
100
AcDbLine
 10
-2.0
 20
0.0
 30
0.0
 11
-4.5
 21
0.0
 31
0.0
  0
LINE
  5
39A
330
391
100
AcDbEntity
  8
SLD-0
 62
     0
100
AcDbLine
 10
0.0
 20
-2.0
 30
0.0
 11
0.0
 21
-4.5
 31
0.0
  0
LINE
  5
39B
330
391
100
AcDbEntity
  8
SLD-0
 62
     0
100
AcDbLine
 10
2.0
 20
0.0
 30
0.0
 11
4.5
 21
0.0
 31
0.0
  0
ENDBLK
  5
393
330
391
100
AcDbEntity
  8
0
100
AcDbBlockEnd
  0
BLOCK
  5
39E
330
39D
100
AcDbEntity
  8
0
100
AcDbBlockBegin
  2
SW_CENTERMARKSYMBOL_17
 70
     0
 10
0.0
 20
0.0
 30
0.0
  3
SW_CENTERMARKSYMBOL_17
  1

  0
LINE
  5
3A0
330
39D
100
AcDbEntity
  8
SLD-0
 62
     0
100
AcDbLine
 10
0.0
 20
0.0
 30
0.0
 11
0.0
 21
1.0
 31
0.0
  0
LINE
  5
3A1
330
39D
100
AcDbEntity
  8
SLD-0
 62
     0
100
AcDbLine
 10
0.0
 20
0.0
 30
0.0
 11
-1.0
 21
0.0
 31
0.0
  0
LINE
  5
3A2
330
39D
100
AcDbEntity
  8
SLD-0
 62
     0
100
AcDbLine
 10
0.0
 20
0.0
 30
0.0
 11
0.0
 21
-1.0
 31
0.0
  0
LINE
  5
3A3
330
39D
100
AcDbEntity
  8
SLD-0
 62
     0
100
AcDbLine
 10
0.0
 20
0.0
 30
0.0
 11
1.0
 21
0.0
 31
0.0
  0
LINE
  5
3A4
330
39D
100
AcDbEntity
  8
SLD-0
 62
     0
100
AcDbLine
 10
0.0
 20
2.0
 30
0.0
 11
0.0
 21
3.5527
 31
0.0
  0
LINE
  5
3A5
330
39D
100
AcDbEntity
  8
SLD-0
 62
     0
100
AcDbLine
 10
-2.0
 20
0.0
 30
0.0
 11
-3.5527
 21
0.0
 31
0.0
  0
LINE
  5
3A6
330
39D
100
AcDbEntity
  8
SLD-0
 62
     0
100
AcDbLine
 10
0.0
 20
-2.0
 30
0.0
 11
0.0
 21
-3.5527
 31
0.0
  0
LINE
  5
3A7
330
39D
100
AcDbEntity
  8
SLD-0
 62
     0
100
AcDbLine
 10
2.0
 20
0.0
 30
0.0
 11
3.5527
 21
0.0
 31
0.0
  0
ENDBLK
  5
39F
330
39D
100
AcDbEntity
  8
0
100
AcDbBlockEnd
  0
BLOCK
  5
3AA
330
3A9
100
AcDbEntity
  8
0
100
AcDbBlockBegin
  2
SW_CENTERMARKSYMBOL_18
 70
     0
 10
0.0
 20
0.0
 30
0.0
  3
SW_CENTERMARKSYMBOL_18
  1

  0
LINE
  5
3AC
330
3A9
100
AcDbEntity
  8
SLD-0
 62
     0
100
AcDbLine
 10
0.0
 20
0.0
 30
0.0
 11
0.0
 21
1.0
 31
0.0
  0
LINE
  5
3AD
330
3A9
100
AcDbEntity
  8
SLD-0
 62
     0
100
AcDbLine
 10
0.0
 20
0.0
 30
0.0
 11
-1.0
 21
0.0
 31
0.0
  0
LINE
  5
3AE
330
3A9
100
AcDbEntity
  8
SLD-0
 62
     0
100
AcDbLine
 10
0.0
 20
0.0
 30
0.0
 11
0.0
 21
-1.0
 31
0.0
  0
LINE
  5
3AF
330
3A9
100
AcDbEntity
  8
SLD-0
 62
     0
100
AcDbLine
 10
0.0
 20
0.0
 30
0.0
 11
1.0
 21
0.0
 31
0.0
  0
LINE
  5
3B0
330
3A9
100
AcDbEntity
  8
SLD-0
 62
     0
100
AcDbLine
 10
0.0
 20
2.0
 30
0.0
 11
0.0
 21
2.7272
 31
0.0
  0
LINE
  5
3B1
330
3A9
100
AcDbEntity
  8
SLD-0
 62
     0
100
AcDbLine
 10
-2.0
 20
0.0
 30
0.0
 11
-2.7272
 21
0.0
 31
0.0
  0
LINE
  5
3B2
330
3A9
100
AcDbEntity
  8
SLD-0
 62
     0
100
AcDbLine
 10
0.0
 20
-2.0
 30
0.0
 11
0.0
 21
-2.7272
 31
0.0
  0
LINE
  5
3B3
330
3A9
100
AcDbEntity
  8
SLD-0
 62
     0
100
AcDbLine
 10
2.0
 20
0.0
 30
0.0
 11
2.7272
 21
0.0
 31
0.0
  0
ENDBLK
  5
3AB
330
3A9
100
AcDbEntity
  8
0
100
AcDbBlockEnd
  0
BLOCK
  5
3B6
330
3B5
100
AcDbEntity
  8
0
100
AcDbBlockBegin
  2
SW_CENTERMARKSYMBOL_19
 70
     0
 10
0.0
 20
0.0
 30
0.0
  3
SW_CENTERMARKSYMBOL_19
  1

  0
LINE
  5
3B8
330
3B5
100
AcDbEntity
  8
SLD-0
 62
     0
100
AcDbLine
 10
0.0
 20
0.0
 30
0.0
 11
0.0
 21
1.0
 31
0.0
  0
LINE
  5
3B9
330
3B5
100
AcDbEntity
  8
SLD-0
 62
     0
100
AcDbLine
 10
0.0
 20
0.0
 30
0.0
 11
-1.0
 21
0.0
 31
0.0
  0
LINE
  5
3BA
330
3B5
100
AcDbEntity
  8
SLD-0
 62
     0
100
AcDbLine
 10
0.0
 20
0.0
 30
0.0
 11
0.0
 21
-1.0
 31
0.0
  0
LINE
  5
3BB
330
3B5
100
AcDbEntity
  8
SLD-0
 62
     0
100
AcDbLine
 10
0.0
 20
0.0
 30
0.0
 11
1.0
 21
0.0
 31
0.0
  0
LINE
  5
3BC
330
3B5
100
AcDbEntity
  8
SLD-0
 62
     0
100
AcDbLine
 10
0.0
 20
2.0
 30
0.0
 11
0.0
 21
3.5527
 31
0.0
  0
LINE
  5
3BD
330
3B5
100
AcDbEntity
  8
SLD-0
 62
     0
100
AcDbLine
 10
-2.0
 20
0.0
 30
0.0
 11
-3.5527
 21
0.0
 31
0.0
  0
LINE
  5
3BE
330
3B5
100
AcDbEntity
  8
SLD-0
 62
     0
100
AcDbLine
 10
0.0
 20
-2.0
 30
0.0
 11
0.0
 21
-3.5527
 31
0.0
  0
LINE
  5
3BF
330
3B5
100
AcDbEntity
  8
SLD-0
 62
     0
100
AcDbLine
 10
2.0
 20
0.0
 30
0.0
 11
3.5527
 21
0.0
 31
0.0
  0
ENDBLK
  5
3B7
330
3B5
100
AcDbEntity
  8
0
100
AcDbBlockEnd
  0
BLOCK
  5
3C2
330
3C1
100
AcDbEntity
  8
0
100
AcDbBlockBegin
  2
SW_CENTERMARKSYMBOL_20
 70
     0
 10
0.0
 20
0.0
 30
0.0
  3
SW_CENTERMARKSYMBOL_20
  1

  0
LINE
  5
3C4
330
3C1
100
AcDbEntity
  8
SLD-0
 62
     0
100
AcDbLine
 10
0.0
 20
0.0
 30
0.0
 11
0.0
 21
1.0
 31
0.0
  0
LINE
  5
3C5
330
3C1
100
AcDbEntity
  8
SLD-0
 62
     0
100
AcDbLine
 10
0.0
 20
0.0
 30
0.0
 11
-1.0
 21
0.0
 31
0.0
  0
LINE
  5
3C6
330
3C1
100
AcDbEntity
  8
SLD-0
 62
     0
100
AcDbLine
 10
0.0
 20
0.0
 30
0.0
 11
0.0
 21
-1.0
 31
0.0
  0
LINE
  5
3C7
330
3C1
100
AcDbEntity
  8
SLD-0
 62
     0
100
AcDbLine
 10
0.0
 20
0.0
 30
0.0
 11
1.0
 21
0.0
 31
0.0
  0
LINE
  5
3C8
330
3C1
100
AcDbEntity
  8
SLD-0
 62
     0
100
AcDbLine
 10
0.0
 20
2.0
 30
0.0
 11
0.0
 21
3.5527
 31
0.0
  0
LINE
  5
3C9
330
3C1
100
AcDbEntity
  8
SLD-0
 62
     0
100
AcDbLine
 10
-2.0
 20
0.0
 30
0.0
 11
-3.5527
 21
0.0
 31
0.0
  0
LINE
  5
3CA
330
3C1
100
AcDbEntity
  8
SLD-0
 62
     0
100
AcDbLine
 10
0.0
 20
-2.0
 30
0.0
 11
0.0
 21
-3.5527
 31
0.0
  0
LINE
  5
3CB
330
3C1
100
AcDbEntity
  8
SLD-0
 62
     0
100
AcDbLine
 10
2.0
 20
0.0
 30
0.0
 11
3.5527
 21
0.0
 31
0.0
  0
ENDBLK
  5
3C3
330
3C1
100
AcDbEntity
  8
0
100
AcDbBlockEnd
  0
BLOCK
  5
3CE
330
3CD
100
AcDbEntity
  8
0
100
AcDbBlockBegin
  2
SW_CENTERMARKSYMBOL_21
 70
     0
 10
0.0
 20
0.0
 30
0.0
  3
SW_CENTERMARKSYMBOL_21
  1

  0
LINE
  5
3D0
330
3CD
100
AcDbEntity
  8
SLD-0
 62
     0
100
AcDbLine
 10
0.0
 20
0.0
 30
0.0
 11
0.0
 21
1.0
 31
0.0
  0
LINE
  5
3D1
330
3CD
100
AcDbEntity
  8
SLD-0
 62
     0
100
AcDbLine
 10
0.0
 20
0.0
 30
0.0
 11
-1.0
 21
0.0
 31
0.0
  0
LINE
  5
3D2
330
3CD
100
AcDbEntity
  8
SLD-0
 62
     0
100
AcDbLine
 10
0.0
 20
0.0
 30
0.0
 11
0.0
 21
-1.0
 31
0.0
  0
LINE
  5
3D3
330
3CD
100
AcDbEntity
  8
SLD-0
 62
     0
100
AcDbLine
 10
0.0
 20
0.0
 30
0.0
 11
1.0
 21
0.0
 31
0.0
  0
LINE
  5
3D4
330
3CD
100
AcDbEntity
  8
SLD-0
 62
     0
100
AcDbLine
 10
0.0
 20
2.0
 30
0.0
 11
0.0
 21
3.5527
 31
0.0
  0
LINE
  5
3D5
330
3CD
100
AcDbEntity
  8
SLD-0
 62
     0
100
AcDbLine
 10
-2.0
 20
0.0
 30
0.0
 11
-3.5527
 21
0.0
 31
0.0
  0
LINE
  5
3D6
330
3CD
100
AcDbEntity
  8
SLD-0
 62
     0
100
AcDbLine
 10
0.0
 20
-2.0
 30
0.0
 11
0.0
 21
-3.5527
 31
0.0
  0
LINE
  5
3D7
330
3CD
100
AcDbEntity
  8
SLD-0
 62
     0
100
AcDbLine
 10
2.0
 20
0.0
 30
0.0
 11
3.5527
 21
0.0
 31
0.0
  0
ENDBLK
  5
3CF
330
3CD
100
AcDbEntity
  8
0
100
AcDbBlockEnd
  0
BLOCK
  5
3E9
330
3E8
100
AcDbEntity
  8
0
100
AcDbBlockBegin
  2
_D_23
 70
     0
 10
0.0
 20
0.0
 30
0.0
  3
_D_23
  1

  0
SOLID
  5
3EB
330
3E8
100
AcDbEntity
  8
SLD-0
100
AcDbTrace
 10
277.8025306424
 20
348.6991701734
 30
0.0
 11
273.8025306424
 21
349.1991701734
 31
0.0
 12
273.8025306424
 22
348.1991701734
 32
0.0
 13
273.8025306424
 23
348.1991701734
 33
0.0
  0
SOLID
  5
3EC
330
3E8
100
AcDbEntity
  8
SLD-0
100
AcDbTrace
 10
287.8025306424
 20
348.6991701734
 30
0.0
 11
291.8025306424
 21
348.1991701734
 31
0.0
 12
291.8025306424
 22
349.1991701734
 32
0.0
 13
291.8025306424
 23
349.1991701734
 33
0.0
  0
LINE
  5
3ED
330
3E8
100
AcDbEntity
  8
SLD-0
100
AcDbLine
 10
277.8025306424
 20
337.033377104
 30
0.0
 11
277.8025306424
 21
350.6991701734
 31
0.0
  0
LINE
  5
3EE
330
3E8
100
AcDbEntity
  8
SLD-0
100
AcDbLine
 10
287.8025306424
 20
337.033377104
 30
0.0
 11
287.8025306424
 21
350.6991701734
 31
0.0
  0
LINE
  5
3EF
330
3E8
100
AcDbEntity
  8
SLD-0
100
AcDbLine
 10
277.8025306424
 20
348.6991701734
 30
0.0
 11
271.8025306424
 21
348.6991701734
 31
0.0
  0
LINE
  5
3F0
330
3E8
100
AcDbEntity
  8
SLD-0
100
AcDbLine
 10
277.8025306424
 20
348.6991701734
 30
0.0
 11
287.8025306424
 21
348.6991701734
 31
0.0
  0
LINE
  5
3F1
330
3E8
100
AcDbEntity
  8
SLD-0
100
AcDbLine
 10
287.8025306424
 20
348.6991701734
 30
0.0
 11
293.8025306424
 21
348.6991701734
 31
0.0
  0
MTEXT
  5
3F2
330
3E8
100
AcDbEntity
  8
SLD-0
100
AcDbMText
 10
278.9830861927
 20
355.144508523
 30
0.0
 40
5.0
 41
0.0
 71
     1
 72
     1
  1
10
  7
SLDTEXTSTYLE0
 73
     1
 44
1.0
  0
ENDBLK
  5
3EA
330
3E8
100
AcDbEntity
  8
0
100
AcDbBlockEnd
  0
BLOCK
  5
3F5
330
3F4
100
AcDbEntity
  8
0
100
AcDbBlockBegin
  2
_D_24
 70
     0
 10
0.0
 20
0.0
 30
0.0
  3
_D_24
  1

  0
SOLID
  5
3F7
330
3F4
100
AcDbEntity
  8
SLD-0
100
AcDbTrace
 10
389.9232912581
 20
249.033377104
 30
0.0
 11
390.4232912581
 21
253.033377104
 31
0.0
 12
389.4232912581
 22
253.033377104
 32
0.0
 13
389.4232912581
 23
253.033377104
 33
0.0
  0
SOLID
  5
3F8
330
3F4
100
AcDbEntity
  8
SLD-0
100
AcDbTrace
 10
389.9232912581
 20
241.033377104
 30
0.0
 11
389.4232912581
 21
237.033377104
 31
0.0
 12
390.4232912581
 22
237.033377104
 32
0.0
 13
390.4232912581
 23
237.033377104
 33
0.0
  0
LINE
  5
3F9
330
3F4
100
AcDbEntity
  8
SLD-0
100
AcDbLine
 10
375.8025306424
 20
249.033377104
 30
0.0
 11
391.9232912581
 21
249.033377104
 31
0.0
  0
LINE
  5
3FA
330
3F4
100
AcDbEntity
  8
SLD-0
100
AcDbLine
 10
375.8025306424
 20
241.033377104
 30
0.0
 11
391.9232912581
 21
241.033377104
 31
0.0
  0
LINE
  5
3FB
330
3F4
100
AcDbEntity
  8
SLD-0
100
AcDbLine
 10
389.9232912581
 20
249.033377104
 30
0.0
 11
389.9232912581
 21
255.033377104
 31
0.0
  0
LINE
  5
3FC
330
3F4
100
AcDbEntity
  8
SLD-0
100
AcDbLine
 10
389.9232912581
 20
249.033377104
 30
0.0
 11
389.9232912581
 21
241.033377104
 31
0.0
  0
LINE
  5
3FD
330
3F4
100
AcDbEntity
  8
SLD-0
100
AcDbLine
 10
389.9232912581
 20
241.033377104
 30
0.0
 11
389.9232912581
 21
235.033377104
 31
0.0
  0
MTEXT
  5
3FE
330
3F4
100
AcDbEntity
  8
SLD-0
100
AcDbMText
 10
383.4779529084
 20
243.1236548792
 30
0.0
 40
5.0
 41
0.0
 71
     1
 72
     1
  1
8
  7
SLDTEXTSTYLE0
 11
-7.044195017643634E-15
 21
1.0
 31
0.0
 73
     1
 44
1.0
  0
ENDBLK
  5
3F6
330
3F4
100
AcDbEntity
  8
0
100
AcDbBlockEnd
  0
BLOCK
  5
401
330
400
100
AcDbEntity
  8
0
100
AcDbBlockBegin
  2
_D_25
 70
     0
 10
0.0
 20
0.0
 30
0.0
  3
_D_25
  1

  0
SOLID
  5
403
330
400
100
AcDbEntity
  8
SLD-0
100
AcDbTrace
 10
260.2236264923
 20
335.033377104
 30
0.0
 11
259.7236264923
 21
331.033377104
 31
0.0
 12
260.7236264923
 22
331.033377104
 32
0.0
 13
260.7236264923
 23
331.033377104
 33
0.0
  0
SOLID
  5
404
330
400
100
AcDbEntity
  8
SLD-0
100
AcDbTrace
 10
260.2236264923
 20
241.033377104
 30
0.0
 11
260.7236264923
 21
245.033377104
 31
0.0
 12
259.7236264923
 22
245.033377104
 32
0.0
 13
259.7236264923
 23
245.033377104
 33
0.0
  0
LINE
  5
405
330
400
100
AcDbEntity
  8
SLD-0
100
AcDbLine
 10
275.8025306424
 20
335.033377104
 30
0.0
 11
258.2236264923
 21
335.033377104
 31
0.0
  0
LINE
  5
406
330
400
100
AcDbEntity
  8
SLD-0
100
AcDbLine
 10
275.8025306424
 20
241.033377104
 30
0.0
 11
258.2236264923
 21
241.033377104
 31
0.0
  0
LINE
  5
407
330
400
100
AcDbEntity
  8
SLD-0
100
AcDbLine
 10
260.2236264923
 20
335.033377104
 30
0.0
 11
260.2236264923
 21
241.033377104
 31
0.0
  0
MTEXT
  5
408
330
400
100
AcDbEntity
  8
SLD-0
100
AcDbMText
 10
253.7782881427
 20
284.2139326544
 30
0.0
 40
5.0
 41
0.0
 71
     1
 72
     1
  1
94
  7
SLDTEXTSTYLE0
 11
-7.044195017643634E-15
 21
1.0
 31
0.0
 73
     1
 44
1.0
  0
ENDBLK
  5
402
330
400
100
AcDbEntity
  8
0
100
AcDbBlockEnd
  0
BLOCK
  5
40B
330
40A
100
AcDbEntity
  8
0
100
AcDbBlockBegin
  2
_D_26
 70
     0
 10
0.0
 20
0.0
 30
0.0
  3
_D_26
  1

  0
SOLID
  5
40D
330
40A
100
AcDbEntity
  8
SLD-0
100
AcDbTrace
 10
277.8025306424
 20
222.9225753901
 30
0.0
 11
281.8025306424
 21
222.4225753901
 31
0.0
 12
281.8025306424
 22
223.4225753901
 32
0.0
 13
281.8025306424
 23
223.4225753901
 33
0.0
  0
SOLID
  5
40E
330
40A
100
AcDbEntity
  8
SLD-0
100
AcDbTrace
 10
373.8025306424
 20
222.9225753901
 30
0.0
 11
369.8025306424
 21
223.4225753901
 31
0.0
 12
369.8025306424
 22
222.4225753901
 32
0.0
 13
369.8025306424
 23
222.4225753901
 33
0.0
  0
LINE
  5
40F
330
40A
100
AcDbEntity
  8
SLD-0
100
AcDbLine
 10
277.8025306424
 20
247.033377104
 30
0.0
 11
277.8025306424
 21
220.9225753901
 31
0.0
  0
LINE
  5
410
330
40A
100
AcDbEntity
  8
SLD-0
100
AcDbLine
 10
373.8025306424
 20
239.033377104
 30
0.0
 11
373.8025306424
 21
220.9225753901
 31
0.0
  0
LINE
  5
411
330
40A
100
AcDbEntity
  8
SLD-0
100
AcDbLine
 10
277.8025306424
 20
222.9225753901
 30
0.0
 11
373.8025306424
 21
222.9225753901
 31
0.0
  0
MTEXT
  5
412
330
40A
100
AcDbEntity
  8
SLD-0
100
AcDbMText
 10
321.9830861927
 20
229.3679137397
 30
0.0
 40
5.0
 41
0.0
 71
     1
 72
     1
  1
96
  7
SLDTEXTSTYLE0
 73
     1
 44
1.0
  0
ENDBLK
  5
40C
330
40A
100
AcDbEntity
  8
0
100
AcDbBlockEnd
  0
ENDSEC
  0
SECTION
  2
ENTITIES
  0
HATCH
  5
76
330
1F
100
AcDbEntity
  8
DIM
 62
     7
100
AcDbHatch
 10
0.0
 20
0.0
 30
0.0
210
0.0
220
0.0
230
1.0
  2
SOLID
 70
     1
 71
     0
 91
        1
 92
        0
 93
       10
 72
     2
 10
384.4631085683091
 20
71.19484001518221
 40
6.091502791462495
 50
249.2112209143416
 51
308.9221353953371
 73
     1
 72
     1
 10
388.2901784907782
 20
66.45564788287446
 11
390.2198178132124
 21
64.76107431558977
 72
     1
 10
390.2198178132124
 20
64.76107431558977
 11
383.7995378669008
 21
58.52699489006495
 72
     1
 10
383.7995378669008
 20
58.52699489006495
 11
381.9179369559129
 21
60.14698903028496
 72
     1
 10
381.9179369559129
 20
60.14698903028496
 11
383.1800407967432
 21
61.37878981122701
 72
     1
 10
383.1800407967432
 20
61.37878981122701
 11
375.161636176352
 21
68.34799749177638
 72
     2
 10
377.1915190354334
 20
70.6431182432974
 40
3.063984935611617
 50
131.4906380929589
 51
229.7089352075135
 73
     0
 72
     1
 10
375.2101293404023
 20
72.98023154009749
 11
377.8233858501657
 21
75.50340569311253
 72
     1
 10
377.8233858501657
 20
75.50340569311253
 11
379.8537735449706
 21
73.71234189147695
 72
     2
 10
383.800314151716
 20
70.41755651668737
 40
5.141088739422567
 50
140.1430462780655
 51
253.045252507401
 73
     1
 97
        0
 75
     0
 76
     1
 98
        1
 10
0.0
 20
0.0
  0
HATCH
  5
77
330
1F
100
AcDbEntity
  8
DIM
 62
     1
100
AcDbHatch
 10
0.0
 20
0.0
 30
0.0
210
0.0
220
0.0
230
1.0
  2
SOLID
 70
     1
 71
     0
 91
        1
 92
        0
 93
       10
 72
     2
 10
384.7294394462368
 20
69.68644073777813
 40
6.363273409055741
 50
234.1674444878509
 51
314.440707458399
 73
     0
 72
     2
 10
385.3647520276858
 20
70.76808434873448
 40
5.1551349766925
 50
317.818499299578
 51
398.0564711573081
 73
     0
 72
     1
 10
389.4239237137807
 20
67.59026405005119
 11
391.3948214997463
 21
65.87287017027221
 72
     1
 10
391.3948214997463
 20
65.87287017027221
 11
393.8781841293338
 21
68.28173605508665
 72
     2
 10
392.0913994780096
 20
70.73762951872851
 40
3.037105874836531
 50
306.0377529468128
 51
403.4396461533869
 73
     1
 72
     1
 10
394.2966392073542
 20
72.82591346280479
 11
386.0431274906676
 21
80.00426600007269
 72
     1
 10
386.0431274906676
 20
80.00426600007269
 11
387.2916300945222
 21
81.22238286174733
 72
     1
 10
387.2916300945222
 20
81.22238286174733
 11
385.430617074154
 21
82.88276730143642
 72
     1
 10
385.430617074154
 20
82.88276730143642
 11
378.9594461773344
 21
76.62892680820819
 72
     1
 10
378.9594461773344
 20
76.62892680820819
 11
381.0042619320315
 21
74.8453457539666
 97
        0
 75
     0
 76
     1
 98
        1
 10
0.0
 20
0.0
  0
LINE
  5
78
330
1F
100
AcDbEntity
  8
0
  6
Continuous
 62
     7
370
     0
100
AcDbLine
 10
335.718755037
 20
35.5490385025
 30
0.0
 11
337.718755037
 21
35.5490385025
 31
0.0
  0
LINE
  5
79
330
1F
100
AcDbEntity
  8
0
  6
Continuous
 62
     7
370
     0
100
AcDbLine
 10
329.718755037
 20
35.5490385025
 30
0.0
 11
334.718755037
 21
35.5490385025
 31
0.0
  0
LINE
  5
7A
330
1F
100
AcDbEntity
  8
0
  6
Continuous
 62
     7
370
     0
100
AcDbLine
 10
362.718755037
 20
30.5490385025
 30
0.0
 11
362.718755037
 21
40.5490385025
 31
0.0
  0
LINE
  5
7B
330
1F
100
AcDbEntity
  8
0
  6
Continuous
 62
     7
370
     0
100
AcDbLine
 10
348.718755037
 20
32.5490385025
 30
0.0
 11
362.718755037
 21
30.5490385025
 31
0.0
  0
LINE
  5
7C
330
1F
100
AcDbEntity
  8
0
  6
Continuous
 62
     7
370
     0
100
AcDbLine
 10
336.718755037
 20
33.5490385025
 30
0.0
 11
336.718755037
 21
28.5490385025
 31
0.0
  0
LINE
  5
7D
330
1F
100
AcDbEntity
  8
0
  6
Continuous
 62
     7
370
     0
100
AcDbLine
 10
362.718755037
 20
40.5490385025
 30
0.0
 11
348.718755037
 21
38.5490385025
 31
0.0
  0
LINE
  5
7E
330
1F
100
AcDbEntity
  8
0
  6
Continuous
 62
     7
370
     0
100
AcDbLine
 10
346.718755037
 20
35.5490385025
 30
0.0
 11
364.718755037
 21
35.5490385025
 31
0.0
  0
LINE
  5
7F
330
1F
100
AcDbEntity
  8
0
  6
Continuous
 62
     7
370
     0
100
AcDbLine
 10
336.718755037
 20
36.5490385025
 30
0.0
 11
336.718755037
 21
34.5490385025
 31
0.0
  0
LINE
  5
80
330
1F
100
AcDbEntity
  8
0
  6
Continuous
 62
     7
370
     0
100
AcDbLine
 10
338.718755037
 20
35.5490385025
 30
0.0
 11
343.718755037
 21
35.5490385025
 31
0.0
  0
LINE
  5
81
330
1F
100
AcDbEntity
  8
0
  6
Continuous
 62
     7
370
     0
100
AcDbLine
 10
336.718755037
 20
42.5490385025
 30
0.0
 11
336.718755037
 21
37.5490385025
 31
0.0
  0
LINE
  5
82
330
1F
100
AcDbEntity
  8
0
  6
Continuous
 62
     7
370
     0
100
AcDbLine
 10
348.718755037
 20
38.5490385025
 30
0.0
 11
348.718755037
 21
32.5490385025
 31
0.0
  0
LINE
  5
83
330
1F
100
AcDbEntity
  8
0
370
     0
100
AcDbLine
 10
390.2198178132
 20
64.7610743156
 30
0.0
 11
383.7995378669
 21
58.5269948901
 31
0.0
  0
LINE
  5
84
330
1F
100
AcDbEntity
  8
0
370
     0
100
AcDbLine
 10
383.7995378669
 20
58.5269948901
 30
0.0
 11
381.9179369559
 21
60.1469890303
 31
0.0
  0
LINE
  5
85
330
1F
100
AcDbEntity
  8
0
370
     0
100
AcDbLine
 10
381.9179369559
 20
60.1469890303
 30
0.0
 11
383.1800407967
 21
61.3787898112
 31
0.0
  0
LINE
  5
86
330
1F
100
AcDbEntity
  8
0
370
     0
100
AcDbLine
 10
375.1616361764
 20
68.3479974918
 30
0.0
 11
383.1800407967
 21
61.3787898112
 31
0.0
  0
LINE
  5
87
330
1F
100
AcDbEntity
  8
0
370
     0
100
AcDbLine
 10
377.8233858502
 20
75.5034056931
 30
0.0
 11
375.2101293404
 21
72.9802315401
 31
0.0
  0
LINE
  5
88
330
1F
100
AcDbEntity
  8
0
370
     0
100
AcDbLine
 10
377.8233858502
 20
75.5034056931
 30
0.0
 11
379.853773545
 21
73.7123418915
 31
0.0
  0
LINE
  5
89
330
1F
100
AcDbEntity
  8
0
370
     0
100
AcDbLine
 10
388.2901784908
 20
66.4556478829
 30
0.0
 11
390.2198178132
 21
64.7610743156
 31
0.0
  0
LINE
  5
8A
330
1F
100
AcDbEntity
  8
0
 62
     1
370
     0
100
AcDbLine
 10
381.004261932
 20
74.845345754
 30
0.0
 11
378.9594461773
 21
76.6289268082
 31
0.0
  0
LINE
  5
8B
330
1F
100
AcDbEntity
  8
0
 62
     1
370
     0
100
AcDbLine
 10
378.9594461773
 20
76.6289268082
 30
0.0
 11
385.4306170742
 21
82.8827673014
 31
0.0
  0
LINE
  5
8C
330
1F
100
AcDbEntity
  8
0
 62
     1
370
     0
100
AcDbLine
 10
385.4306170742
 20
82.8827673014
 30
0.0
 11
387.2916300945
 21
81.2223828617
 31
0.0
  0
LINE
  5
8D
330
1F
100
AcDbEntity
  8
0
 62
     1
370
     0
100
AcDbLine
 10
387.2916300945
 20
81.2223828617
 30
0.0
 11
386.0431274907
 21
80.0042660001
 31
0.0
  0
LINE
  5
8E
330
1F
100
AcDbEntity
  8
0
 62
     1
370
     0
100
AcDbLine
 10
386.0431274907
 20
80.0042660001
 30
0.0
 11
394.2966392074
 21
72.8259134628
 31
0.0
  0
LINE
  5
8F
330
1F
100
AcDbEntity
  8
0
 62
     1
370
     0
100
AcDbLine
 10
389.4239237138
 20
67.5902640501
 30
0.0
 11
391.3948214997
 21
65.8728701703
 31
0.0
  0
LINE
  5
90
330
1F
100
AcDbEntity
  8
0
 62
     1
370
     0
100
AcDbLine
 10
391.3948214997
 20
65.8728701703
 30
0.0
 11
393.8781841293
 21
68.2817360551
 31
0.0
  0
LINE
  5
91
330
1F
100
AcDbEntity
  8
0
  6
Continuous
 62
     7
370
     0
100
AcDbLine
 10
371.3815930419
 20
26.2304928158
 30
0.0
 11
571.3815930419
 21
26.2304928158
 31
0.0
  0
LINE
  5
92
330
1F
100
AcDbEntity
  8
0
  6
Continuous
 62
     7
370
     0
100
AcDbLine
 10
371.3815930419
 20
36.2304928158
 30
0.0
 11
471.3815930419
 21
36.2304928158
 31
0.0
  0
LINE
  5
93
330
1F
100
AcDbEntity
  8
0
  6
Continuous
 62
     7
370
     0
100
AcDbLine
 10
371.3815930419
 20
46.2304928158
 30
0.0
 11
471.3815930419
 21
46.2304928158
 31
0.0
  0
LINE
  5
94
330
1F
100
AcDbEntity
  8
0
  6
Continuous
 62
     7
370
     0
100
AcDbLine
 10
371.3815930419
 20
56.2304928158
 30
0.0
 11
571.3815930419
 21
56.2304928158
 31
0.0
  0
LINE
  5
95
330
1F
100
AcDbEntity
  8
0
  6
Continuous
 62
     7
370
     0
100
AcDbLine
 10
471.3815930419
 20
66.2304928158
 30
0.0
 11
571.3815930419
 21
66.2304928158
 31
0.0
  0
LINE
  5
96
330
1F
100
AcDbEntity
  8
0
  6
Continuous
 62
     7
370
    15
100
AcDbLine
 10
471.3815930419
 20
36.2304928158
 30
0.0
 11
571.3815930419
 21
36.2304928158
 31
0.0
  0
LINE
  5
97
330
1F
100
AcDbEntity
  8
0
  6
Continuous
 62
     7
370
     0
100
AcDbLine
 10
371.3815930419
 20
86.2304928158
 30
0.0
 11
571.3815930419
 21
86.2304928158
 31
0.0
  0
LINE
  5
98
330
1F
100
AcDbEntity
  8
0
  6
Continuous
 62
     7
370
     0
100
AcDbLine
 10
502.4744353501
 20
16.2304928158
 30
0.0
 11
502.4744353501
 21
36.2304928158
 31
0.0
  0
LINE
  5
99
330
1F
100
AcDbEntity
  8
0
  6
Continuous
 62
     7
370
     0
100
AcDbLine
 10
471.3815930419
 20
16.2304928158
 30
0.0
 11
471.3815930419
 21
86.2304928158
 31
0.0
  0
LINE
  5
9A
330
1F
100
AcDbEntity
  8
0
  6
Continuous
 62
     7
370
     0
100
AcDbLine
 10
502.4744353501
 20
56.2304928158
 30
0.0
 11
502.4744353501
 21
66.2304928158
 31
0.0
  0
LINE
  5
9B
330
1F
100
AcDbEntity
  8
0
  6
Continuous
 62
     7
370
     0
100
AcDbLine
 10
428.8328172706
 20
16.2304928158
 30
0.0
 11
428.8328172706
 21
56.2304928158
 31
0.0
  0
LINE
  5
9C
330
1F
100
AcDbEntity
  8
0
  6
Continuous
 62
     7
370
     0
100
AcDbLine
 10
399.5571775011
 20
16.2304928158
 30
0.0
 11
399.5571775011
 21
56.2304928158
 31
0.0
  0
LINE
  5
9D
330
1F
100
AcDbEntity
  8
0
  6
Continuous
 62
     7
370
     0
100
AcDbLine
 10
371.3815930419
 20
16.2304928158
 30
0.0
 11
371.3815930419
 21
86.2304928158
 31
0.0
  0
LINE
  5
9E
330
1F
100
AcDbEntity
  8
0
  6
Continuous
 62
     7
370
    15
100
AcDbLine
 10
17.3815930419
 20
209.487273983
 30
0.0
 11
29.3815930419
 21
209.487273983
 31
0.0
  0
LINE
  5
9F
330
1F
100
AcDbEntity
  8
0
  6
Continuous
 62
     7
370
    15
100
AcDbLine
 10
571.3815930419
 20
209.487273983
 30
0.0
 11
559.3815930419
 21
209.487273983
 31
0.0
  0
LINE
  5
A0
330
1F
100
AcDbEntity
  8
0
  6
Continuous
 62
     7
370
    15
100
AcDbLine
 10
294.3815930419
 20
16.2304928158
 30
0.0
 11
294.3815930419
 21
28.2304928158
 31
0.0
  0
LINE
  5
A1
330
1F
100
AcDbEntity
  8
0
  6
Continuous
 62
     7
370
    15
100
AcDbLine
 10
294.3815930419
 20
402.7440551501
 30
0.0
 11
294.3815930419
 21
390.7440551501
 31
0.0
  0
LINE
  5
A2
330
1F
100
AcDbEntity
  8
0
  6
Continuous
 62
     7
370
    15
100
AcDbLine
 10
86.6415930419
 20
402.7440551501
 30
0.0
 11
86.6415930419
 21
405.7440551501
 31
0.0
  0
LINE
  5
A3
330
1F
100
AcDbEntity
  8
0
  6
Continuous
 62
     7
370
    15
100
AcDbLine
 10
155.9015930419
 20
402.7440551501
 30
0.0
 11
155.9015930419
 21
405.7440551501
 31
0.0
  0
LINE
  5
A4
330
1F
100
AcDbEntity
  8
0
  6
Continuous
 62
     7
370
    15
100
AcDbLine
 10
225.1615930419
 20
402.7440551501
 30
0.0
 11
225.1615930419
 21
405.7440551501
 31
0.0
  0
LINE
  5
A5
330
1F
100
AcDbEntity
  8
0
  6
Continuous
 62
     7
370
    15
100
AcDbLine
 10
294.4215930419
 20
402.7440551501
 30
0.0
 11
294.4215930419
 21
405.7440551501
 31
0.0
  0
LINE
  5
A6
330
1F
100
AcDbEntity
  8
0
  6
Continuous
 62
     7
370
    15
100
AcDbLine
 10
363.6815930419
 20
402.7440551501
 30
0.0
 11
363.6815930419
 21
405.7440551501
 31
0.0
  0
LINE
  5
A7
330
1F
100
AcDbEntity
  8
0
  6
Continuous
 62
     7
370
    15
100
AcDbLine
 10
432.9415930419
 20
402.7440551501
 30
0.0
 11
432.9415930419
 21
405.7440551501
 31
0.0
  0
LINE
  5
A8
330
1F
100
AcDbEntity
  8
0
  6
Continuous
 62
     7
370
    15
100
AcDbLine
 10
502.2015930419
 20
402.7440551501
 30
0.0
 11
502.2015930419
 21
405.7440551501
 31
0.0
  0
LINE
  5
A9
330
1F
100
AcDbEntity
  8
0
  6
Continuous
 62
     7
370
    15
100
AcDbLine
 10
86.6315930419
 20
16.2304928158
 30
0.0
 11
86.6315930419
 21
13.2304928158
 31
0.0
  0
LINE
  5
AA
330
1F
100
AcDbEntity
  8
0
  6
Continuous
 62
     7
370
    15
100
AcDbLine
 10
155.8815930419
 20
16.2304928158
 30
0.0
 11
155.8815930419
 21
13.2304928158
 31
0.0
  0
LINE
  5
AB
330
1F
100
AcDbEntity
  8
0
  6
Continuous
 62
     7
370
    15
100
AcDbLine
 10
225.1315930419
 20
16.2304928158
 30
0.0
 11
225.1315930419
 21
13.2304928158
 31
0.0
  0
LINE
  5
AC
330
1F
100
AcDbEntity
  8
0
  6
Continuous
 62
     7
370
    15
100
AcDbLine
 10
294.3815930419
 20
16.2304928158
 30
0.0
 11
294.3815930419
 21
13.2304928158
 31
0.0
  0
LINE
  5
AD
330
1F
100
AcDbEntity
  8
0
  6
Continuous
 62
     7
370
    15
100
AcDbLine
 10
363.6315930419
 20
16.2304928158
 30
0.0
 11
363.6315930419
 21
13.2304928158
 31
0.0
  0
LINE
  5
AE
330
1F
100
AcDbEntity
  8
0
  6
Continuous
 62
     7
370
    15
100
AcDbLine
 10
432.8815930419
 20
16.2304928158
 30
0.0
 11
432.8815930419
 21
13.2304928158
 31
0.0
  0
LINE
  5
AF
330
1F
100
AcDbEntity
  8
0
  6
Continuous
 62
     7
370
     0
100
AcDbLine
 10
571.3815930419
 20
402.7440551501
 30
0.0
 11
17.3815930419
 21
402.7440551501
 31
0.0
  0
LINE
  5
B0
330
1F
100
AcDbEntity
  8
0
  6
Continuous
 62
     7
370
     0
100
AcDbLine
 10
571.3815930419
 20
16.2304928158
 30
0.0
 11
571.3815930419
 21
402.7440551501
 31
0.0
  0
LINE
  5
B1
330
1F
100
AcDbEntity
  8
0
  6
Continuous
 62
     7
370
     0
100
AcDbLine
 10
17.3815930419
 20
402.7440551501
 30
0.0
 11
17.3815930419
 21
16.2304928158
 31
0.0
  0
LINE
  5
B2
330
1F
100
AcDbEntity
  8
0
  6
Continuous
 62
     7
370
     0
100
AcDbLine
 10
17.3815930419
 20
16.2304928158
 30
0.0
 11
571.3815930419
 21
16.2304928158
 31
0.0
  0
LINE
  5
B3
330
1F
100
AcDbEntity
  8
0
  6
Continuous
 62
     7
370
    15
100
AcDbLine
 10
502.1315930419
 20
16.2304928158
 30
0.0
 11
502.1315930419
 21
13.2304928158
 31
0.0
  0
LINE
  5
B4
330
1F
100
AcDbEntity
  8
0
  6
Continuous
 62
     7
370
    15
100
AcDbLine
 10
17.3815930419
 20
80.6504928158
 30
0.0
 11
14.3815930419
 21
80.6504928158
 31
0.0
  0
LINE
  5
B5
330
1F
100
AcDbEntity
  8
0
  6
Continuous
 62
     7
370
    15
100
AcDbLine
 10
17.3815930419
 20
145.0704928158
 30
0.0
 11
14.3815930419
 21
145.0704928158
 31
0.0
  0
LINE
  5
B6
330
1F
100
AcDbEntity
  8
0
  6
Continuous
 62
     7
370
    15
100
AcDbLine
 10
17.3815930419
 20
209.4904928158
 30
0.0
 11
14.3815930419
 21
209.4904928158
 31
0.0
  0
LINE
  5
B7
330
1F
100
AcDbEntity
  8
0
  6
Continuous
 62
     7
370
    15
100
AcDbLine
 10
17.3815930419
 20
273.9104928158
 30
0.0
 11
14.3815930419
 21
273.9104928158
 31
0.0
  0
LINE
  5
B8
330
1F
100
AcDbEntity
  8
0
  6
Continuous
 62
     7
370
    15
100
AcDbLine
 10
17.3815930419
 20
338.3304928158
 30
0.0
 11
14.3815930419
 21
338.3304928158
 31
0.0
  0
LINE
  5
B9
330
1F
100
AcDbEntity
  8
0
  6
Continuous
 62
     7
370
    15
100
AcDbLine
 10
571.3815930419
 20
80.6504928158
 30
0.0
 11
574.3815930419
 21
80.6504928158
 31
0.0
  0
LINE
  5
BA
330
1F
100
AcDbEntity
  8
0
  6
Continuous
 62
     7
370
    15
100
AcDbLine
 10
571.3815930419
 20
145.0704928158
 30
0.0
 11
574.3815930419
 21
145.0704928158
 31
0.0
  0
LINE
  5
BB
330
1F
100
AcDbEntity
  8
0
  6
Continuous
 62
     7
370
    15
100
AcDbLine
 10
571.3815930419
 20
209.4904928158
 30
0.0
 11
574.3815930419
 21
209.4904928158
 31
0.0
  0
LINE
  5
BC
330
1F
100
AcDbEntity
  8
0
  6
Continuous
 62
     7
370
    15
100
AcDbLine
 10
571.3815930419
 20
273.9104928158
 30
0.0
 11
574.3815930419
 21
273.9104928158
 31
0.0
  0
LINE
  5
BD
330
1F
100
AcDbEntity
  8
0
  6
Continuous
 62
     7
370
    15
100
AcDbLine
 10
571.3815930419
 20
338.3304928158
 30
0.0
 11
574.3815930419
 21
338.3304928158
 31
0.0
  0
CIRCLE
  5
BE
330
1F
100
AcDbEntity
  8
0
  6
Continuous
 62
     7
370
     0
100
AcDbCircle
 10
336.718755037
 20
35.5490385025
 30
0.0
 40
3.0
  0
CIRCLE
  5
BF
330
1F
100
AcDbEntity
  8
0
  6
Continuous
 62
     7
370
     0
100
AcDbCircle
 10
336.718755037
 20
35.5490385025
 30
0.0
 40
5.0
  0
ARC
  5
C0
330
1F
100
AcDbEntity
  8
0
370
     0
100
AcDbCircle
 10
377.1915190354
 20
70.6431182433
 30
0.0
 40
3.063984935611642
100
AcDbArc
 50
130.2910647925
 51
228.509361907
  0
ARC
  5
C1
330
1F
100
AcDbEntity
  8
0
370
     0
100
AcDbCircle
 10
383.8003141517
 20
70.4175565167
 30
0.0
 40
5.141088739422572
100
AcDbArc
 50
140.1430462781
 51
253.0452525074
  0
ARC
  5
C2
330
1F
100
AcDbEntity
  8
0
370
     0
100
AcDbCircle
 10
384.4631085683
 20
71.1948400152
 30
0.0
 40
6.091502791462521
100
AcDbArc
 50
249.2112209143
 51
308.9221353953
  0
ARC
  5
C3
330
1F
100
AcDbEntity
  8
0
 62
     1
370
     0
100
AcDbCircle
 10
392.091399478
 20
70.7376295187
 30
0.0
 40
3.03710587483655
100
AcDbArc
 50
306.0377529468
 51
43.4396461534
  0
ARC
  5
C4
330
1F
100
AcDbEntity
  8
0
 62
     1
370
     0
100
AcDbCircle
 10
384.7294394462
 20
69.6864407378
 30
0.0
 40
6.363273409055741
100
AcDbArc
 50
45.5592925416
 51
125.8325555121
  0
ARC
  5
C5
330
1F
100
AcDbEntity
  8
0
 62
     1
370
     0
100
AcDbCircle
 10
385.3647520277
 20
70.7680843487
 30
0.0
 40
5.155134976692501
100
AcDbArc
 50
321.9435288427
 51
42.1815007004
  0
MTEXT
  5
C7
330
1F
100
AcDbEntity
  8
0
  6
Continuous
 62
     7
370
     0
100
AcDbMText
 10
331.0853701609
 20
26.4416880738
 30
0.0
 40
5.2916666667
 41
0.0
 71
     1
 72
     1
  1
UNIT:m/m
  7
SLDTEXTSTYLE0
 73
     1
 44
1.0
  0
INSERT
  5
CE
330
1F
100
AcDbEntity
  8
0
  6
Continuous
 62
     7
370
     0
100
AcDbBlockReference
  2
SW_NOTE_0
 10
24.4630152107
 20
387.7808608502
 30
0.0
  0
MTEXT
  5
CF
330
1F
100
AcDbEntity
  8
0
  6
Continuous
 62
     7
370
     0
100
AcDbMText
 10
397.450378787
 20
80.8813548277
 30
0.0
 40
4.7625
 41
0.0
 71
     1
 72
     1
  1
Unice E-O Services Inc.
  7
SLDTEXTSTYLE0
 73
     1
 44
1.0
  0
MTEXT
  5
D0
330
1F
100
AcDbEntity
  8
0
  6
Continuous
 62
     7
370
     0
100
AcDbMText
 10
435.1181076299
 20
43.1734297022
 30
0.0
 40
3.7041666667
 41
0.0
 71
     1
 72
     1
  1
2018/4/13
  7
SLDTEXTSTYLE0
 73
     1
 44
1.0
  0
MTEXT
  5
D1
330
1F
100
AcDbEntity
  8
0
  6
Continuous
 62
     7
370
     0
100
AcDbMText
 10
505.2177965014
 20
33.74235548
 30
0.0
 40
5.0
 41
0.0
 71
     1
 72
     1
  1
1:2
  7
SLDTEXTSTYLE0
 73
     1
 44
1.0
  0
MTEXT
  5
D2
330
1F
100
AcDbEntity
  8
0
  6
Continuous
 62
     7
370
     0
100
AcDbMText
 10
504.6151199969
 20
64.3038390875
 30
0.0
 40
5.0
 41
0.0
 71
     1
 72
     1
  1
06ABK-2
  7
SLDTEXTSTYLE0
 73
     1
 44
1.0
  0
MTEXT
  5
D3
330
1F
100
AcDbEntity
  8
0
  6
Continuous
 62
     7
370
     0
100
AcDbMText
 10
504.6151199969
 20
76.2164235757
 30
0.0
 40
5.0
 41
0.0
 71
     1
 72
     1
  1
06ABK-2
  7
SLDTEXTSTYLE0
 73
     1
 44
1.0
  0
MTEXT
  5
D4
330
1F
100
AcDbEntity
  8
0
  6
Continuous
 62
     7
370
     0
100
AcDbMText
 10
472.7843733573
 20
33.0129591457
 30
0.0
 40
4.2333333333
 41
0.0
 71
     1
 72
     1
  1
SCALE:
  7
SLDTEXTSTYLE0
 73
     1
 44
1.0
  0
MTEXT
  5
D5
330
1F
100
AcDbEntity
  8
0
  6
Continuous
 62
     7
370
     0
100
AcDbMText
 10
372.6672173579
 20
43.1734297022
 30
0.0
 40
3.7041666667
 41
0.0
 71
     1
 72
     1
  1
DRAWN
  7
SLDTEXTSTYLE0
 73
     1
 44
1.0
  0
MTEXT
  5
D6
330
1F
100
AcDbEntity
  8
0
  6
Continuous
 62
     7
370
     0
100
AcDbMText
 10
406.4456735874
 20
53.366416616
 30
0.0
 40
3.7041666667
 41
0.0
 71
     1
 72
     1
  1
NAME
  7
SLDTEXTSTYLE0
 73
     1
 44
1.0
  0
MTEXT
  5
D7
330
1F
100
AcDbEntity
  8
0
  6
Continuous
 62
     7
370
     0
100
AcDbMText
 10
441.7420311515
 20
53.366416616
 30
0.0
 40
3.7041666667
 41
0.0
 71
     1
 72
     1
  1
DATE
  7
SLDTEXTSTYLE0
 73
     1
 44
1.0
  0
MTEXT
  5
D8
330
1F
100
AcDbEntity
  8
0
  6
Continuous
 62
     7
370
     0
100
AcDbMText
 10
472.551263329
 20
63.5744427532
 30
0.0
 40
4.2333333333
 41
0.0
 71
     1
 72
     1
  1
DWG. NO.
  7
SLDTEXTSTYLE0
 73
     1
 44
1.0
  0
MTEXT
  5
D9
330
1F
100
AcDbEntity
  8
0
  6
Continuous
 62
     7
370
     0
100
AcDbMText
 10
472.7259814177
 20
83.7681316486
 30
0.0
 40
4.2333333333
 41
0.0
 71
     1
 72
     1
  1
TITLE:
  7
SLDTEXTSTYLE0
 73
     1
 44
1.0
  0
MTEXT
  5
DA
330
1F
100
AcDbEntity
  8
0
  6
Continuous
 62
     7
370
     0
100
AcDbMText
 10
406.0628419604
 20
32.4807579448
 30
0.0
 40
3.7041666667
 41
0.0
 71
     1
 72
     1
  1
Johnny
  7
SLDTEXTSTYLE0
 73
     1
 44
1.0
  0
MTEXT
  5
DB
330
1F
100
AcDbEntity
  8
0
  6
Continuous
 62
     7
370
     0
100
AcDbMText
 10
372.6672173579
 20
32.4807579448
 30
0.0
 40
3.7041666667
 41
0.0
 71
     1
 72
     1
  1
ENG APPR.
  7
SLDTEXTSTYLE0
 73
     1
 44
1.0
  0
MTEXT
  5
DC
330
1F
100
AcDbEntity
  8
0
  6
Continuous
 62
     7
370
     0
100
AcDbMText
 10
472.7843733573
 20
23.3706778575
 30
0.0
 40
4.2333333333
 41
0.0
 71
     1
 72
     1
  1
REV
  7
SLDTEXTSTYLE0
 73
     1
 44
1.0
  0
MTEXT
  5
DD
330
1F
100
AcDbEntity
  8
0
  6
Continuous
 62
     7
370
     0
100
AcDbMText
 10
472.7259814177
 20
53.8986178169
 30
0.0
 40
4.2333333333
 41
0.0
 71
     1
 72
     1
  1
MATERIAL:
  7
SLDTEXTSTYLE0
 73
     1
 44
1.0
  0
MTEXT
  5
DE
330
1F
100
AcDbEntity
  8
0
  6
Continuous
 62
     7
370
     0
100
AcDbMText
 10
505.2177965014
 20
44.4350272373
 30
0.0
 40
5.0
 41
0.0
 71
     1
 72
     1
  1
N/A
  7
SLDTEXTSTYLE0
 73
     1
 44
1.0
  0
MTEXT
  5
DF
330
1F
100
AcDbEntity
  8
0
  6
Continuous
 62
     7
370
     0
100
AcDbMText
 10
53.2059863066
 20
408.9067033139
 30
0.0
 40
4.2333333333
 41
0.0
 71
     1
 72
     1
  1
1
  7
SLDTEXTSTYLE0
 73
     1
 44
1.0
  0
MTEXT
  5
E0
330
1F
100
AcDbEntity
  8
0
  6
Continuous
 62
     7
370
     0
100
AcDbMText
 10
121.4341991448
 20
408.9067033139
 30
0.0
 40
4.2333333333
 41
0.0
 71
     1
 72
     1
  1
2
  7
SLDTEXTSTYLE0
 73
     1
 44
1.0
  0
MTEXT
  5
E1
330
1F
100
AcDbEntity
  8
0
  6
Continuous
 62
     7
370
     0
100
AcDbMText
 10
189.8019887812
 20
408.9067033139
 30
0.0
 40
4.2333333333
 41
0.0
 71
     1
 72
     1
  1
3
  7
SLDTEXTSTYLE0
 73
     1
 44
1.0
  0
MTEXT
  5
E2
330
1F
100
AcDbEntity
  8
0
  6
Continuous
 62
     7
370
     0
100
AcDbMText
 10
258.5066725702
 20
408.5985168729
 30
0.0
 40
4.2333333333
 41
0.0
 71
     1
 72
     1
  1
4
  7
SLDTEXTSTYLE0
 73
     1
 44
1.0
  0
MTEXT
  5
E3
330
1F
100
AcDbEntity
  8
0
  6
Continuous
 62
     7
370
     0
100
AcDbMText
 10
327.4046469279
 20
408.9067033139
 30
0.0
 40
4.2333333333
 41
0.0
 71
     1
 72
     1
  1
5
  7
SLDTEXTSTYLE0
 73
     1
 44
1.0
  0
MTEXT
  5
E4
330
1F
100
AcDbEntity
  8
0
  6
Continuous
 62
     7
370
     0
100
AcDbMText
 10
397.276434083
 20
408.9067033139
 30
0.0
 40
4.2333333333
 41
0.0
 71
     1
 72
     1
  1
6
  7
SLDTEXTSTYLE0
 73
     1
 44
1.0
  0
MTEXT
  5
E5
330
1F
100
AcDbEntity
  8
0
  6
Continuous
 62
     7
370
     0
100
AcDbMText
 10
468.7261314813
 20
408.9067033139
 30
0.0
 40
4.2333333333
 41
0.0
 71
     1
 72
     1
  1
7
  7
SLDTEXTSTYLE0
 73
     1
 44
1.0
  0
MTEXT
  5
E6
330
1F
100
AcDbEntity
  8
0
  6
Continuous
 62
     7
370
     0
100
AcDbMText
 10
532.5575640988
 20
408.9067033139
 30
0.0
 40
4.2333333333
 41
0.0
 71
     1
 72
     1
  1
8
  7
SLDTEXTSTYLE0
 73
     1
 44
1.0
  0
MTEXT
  5
E7
330
1F
100
AcDbEntity
  8
0
  6
Continuous
 62
     7
370
     0
100
AcDbMText
 10
10.7136473109
 20
371.6226045758
 30
0.0
 40
4.2333333333
 41
0.0
 71
     1
 72
     1
  1
A
  7
SLDTEXTSTYLE0
 73
     1
 44
1.0
  0
MTEXT
  5
E8
330
1F
100
AcDbEntity
  8
0
  6
Continuous
 62
     7
370
     0
100
AcDbMText
 10
11.1820863662
 20
308.5986096476
 30
0.0
 40
4.2333333333
 41
0.0
 71
     1
 72
     1
  1
B
  7
SLDTEXTSTYLE0
 73
     1
 44
1.0
  0
MTEXT
  5
E9
330
1F
100
AcDbEntity
  8
0
  6
Continuous
 62
     7
370
     0
100
AcDbMText
 10
11.1820863662
 20
242.548702846
 30
0.0
 40
4.2333333333
 41
0.0
 71
     1
 72
     1
  1
C
  7
SLDTEXTSTYLE0
 73
     1
 44
1.0
  0
MTEXT
  5
EA
330
1F
100
AcDbEntity
  8
0
  6
Continuous
 62
     7
370
     0
100
AcDbMText
 10
11.1820863662
 20
177.4906440442
 30
0.0
 40
4.2333333333
 41
0.0
 71
     1
 72
     1
  1
D
  7
SLDTEXTSTYLE0
 73
     1
 44
1.0
  0
MTEXT
  5
EB
330
1F
100
AcDbEntity
  8
0
  6
Continuous
 62
     7
370
     0
100
AcDbMText
 10
11.1820863662
 20
115.1117698394
 30
0.0
 40
4.2333333333
 41
0.0
 71
     1
 72
     1
  1
E
  7
SLDTEXTSTYLE0
 73
     1
 44
1.0
  0
MTEXT
  5
EC
330
1F
100
AcDbEntity
  8
0
  6
Continuous
 62
     7
370
     0
100
AcDbMText
 10
11.1820863662
 20
51.1388424504
 30
0.0
 40
4.2333333333
 41
0.0
 71
     1
 72
     1
  1
F
  7
SLDTEXTSTYLE0
 73
     1
 44
1.0
  0
MTEXT
  5
ED
330
1F
100
AcDbEntity
  8
0
  6
Continuous
 62
     7
370
     0
100
AcDbMText
 10
532.3717233927
 20
13.2472447927
 30
0.0
 40
4.2333333333
 41
0.0
 71
     1
 72
     1
  1
8
  7
SLDTEXTSTYLE0
 73
     1
 44
1.0
  0
MTEXT
  5
EE
330
1F
100
AcDbEntity
  8
0
  6
Continuous
 62
     7
370
     0
100
AcDbMText
 10
468.5402907753
 20
13.2472447927
 30
0.0
 40
4.2333333333
 41
0.0
 71
     1
 72
     1
  1
7
  7
SLDTEXTSTYLE0
 73
     1
 44
1.0
  0
MTEXT
  5
EF
330
1F
100
AcDbEntity
  8
0
  6
Continuous
 62
     7
370
     0
100
AcDbMText
 10
397.090593377
 20
13.2472447927
 30
0.0
 40
4.2333333333
 41
0.0
 71
     1
 72
     1
  1
6
  7
SLDTEXTSTYLE0
 73
     1
 44
1.0
  0
MTEXT
  5
F0
330
1F
100
AcDbEntity
  8
0
  6
Continuous
 62
     7
370
     0
100
AcDbMText
 10
327.2188062219
 20
13.2472447927
 30
0.0
 40
4.2333333333
 41
0.0
 71
     1
 72
     1
  1
5
  7
SLDTEXTSTYLE0
 73
     1
 44
1.0
  0
MTEXT
  5
F1
330
1F
100
AcDbEntity
  8
0
  6
Continuous
 62
     7
370
     0
100
AcDbMText
 10
258.3208318642
 20
12.9390583516
 30
0.0
 40
4.2333333333
 41
0.0
 71
     1
 72
     1
  1
4
  7
SLDTEXTSTYLE0
 73
     1
 44
1.0
  0
MTEXT
  5
F2
330
1F
100
AcDbEntity
  8
0
  6
Continuous
 62
     7
370
     0
100
AcDbMText
 10
189.6161480752
 20
13.2472447927
 30
0.0
 40
4.2333333333
 41
0.0
 71
     1
 72
     1
  1
3
  7
SLDTEXTSTYLE0
 73
     1
 44
1.0
  0
MTEXT
  5
F3
330
1F
100
AcDbEntity
  8
0
  6
Continuous
 62
     7
370
     0
100
AcDbMText
 10
121.2483584388
 20
13.2472447927
 30
0.0
 40
4.2333333333
 41
0.0
 71
     1
 72
     1
  1
2
  7
SLDTEXTSTYLE0
 73
     1
 44
1.0
  0
MTEXT
  5
F4
330
1F
100
AcDbEntity
  8
0
  6
Continuous
 62
     7
370
     0
100
AcDbMText
 10
53.0201456006
 20
13.2472447927
 30
0.0
 40
4.2333333333
 41
0.0
 71
     1
 72
     1
  1
1
  7
SLDTEXTSTYLE0
 73
     1
 44
1.0
  0
MTEXT
  5
F5
330
1F
100
AcDbEntity
  8
0
  6
Continuous
 62
     7
370
     0
100
AcDbMText
 10
574.2047692289
 20
373.2849818183
 30
0.0
 40
4.2333333333
 41
0.0
 71
     1
 72
     1
  1
A
  7
SLDTEXTSTYLE0
 73
     1
 44
1.0
  0
MTEXT
  5
F6
330
1F
100
AcDbEntity
  8
0
  6
Continuous
 62
     7
370
     0
100
AcDbMText
 10
574.6732082842
 20
310.2609868901
 30
0.0
 40
4.2333333333
 41
0.0
 71
     1
 72
     1
  1
B
  7
SLDTEXTSTYLE0
 73
     1
 44
1.0
  0
MTEXT
  5
F7
330
1F
100
AcDbEntity
  8
0
  6
Continuous
 62
     7
370
     0
100
AcDbMText
 10
574.6732082842
 20
244.2110800885
 30
0.0
 40
4.2333333333
 41
0.0
 71
     1
 72
     1
  1
C
  7
SLDTEXTSTYLE0
 73
     1
 44
1.0
  0
MTEXT
  5
F8
330
1F
100
AcDbEntity
  8
0
  6
Continuous
 62
     7
370
     0
100
AcDbMText
 10
574.6732082842
 20
179.1530212866
 30
0.0
 40
4.2333333333
 41
0.0
 71
     1
 72
     1
  1
D
  7
SLDTEXTSTYLE0
 73
     1
 44
1.0
  0
MTEXT
  5
F9
330
1F
100
AcDbEntity
  8
0
  6
Continuous
 62
     7
370
     0
100
AcDbMText
 10
574.6732082842
 20
116.7741470819
 30
0.0
 40
4.2333333333
 41
0.0
 71
     1
 72
     1
  1
E
  7
SLDTEXTSTYLE0
 73
     1
 44
1.0
  0
MTEXT
  5
FA
330
1F
100
AcDbEntity
  8
0
  6
Continuous
 62
     7
370
     0
100
AcDbMText
 10
574.6732082842
 20
52.8012196929
 30
0.0
 40
4.2333333333
 41
0.0
 71
     1
 72
     1
  1
F
  7
SLDTEXTSTYLE0
 73
     1
 44
1.0
  0
MTEXT
  5
FB
330
1F
100
AcDbEntity
  8
0
  6
Continuous
 62
     7
370
     0
100
AcDbMText
 10
406.3106257604
 20
43.1734297022
 30
0.0
 40
3.7041666667
 41
0.0
 71
     1
 72
     1
  1
Sky
  7
SLDTEXTSTYLE0
 73
     1
 44
1.0
  0
MTEXT
  5
FC
330
1F
100
AcDbEntity
  8
0
  6
Continuous
 62
     7
370
     0
100
AcDbMText
 10
505.696447929
 20
24.1000741918
 30
0.0
 40
5.0
 41
0.0
 71
     1
 72
     1
  1
0
  7
SLDTEXTSTYLE0
 73
     1
 44
1.0
  0
INSERT
  5
102
330
1F
100
AcDbEntity
  8
SLD-0
 62
     7
100
AcDbBlockReference
  2
SW_NOTE_1
 10
397.7467384211
 20
67.3530161719
 30
0.0
  0
MTEXT
  5
103
330
1F
100
AcDbEntity
  8
SLD-0
 62
     7
100
AcDbMText
 10
435.1181076299
 20
32.4807579448
 30
0.0
 40
3.7041666667
 41
0.0
 71
     1
 72
     1
  1
2018/4/13
  7
SLDTEXTSTYLE0
 73
     1
 44
1.0
  0
SPLINE
  5
104
330
1F
100
AcDbEntity
  8
0
  6
Continuous
 62
     7
370
    30
100
AcDbSpline
210
0.0
220
0.0
230
1.0
 70
     8
 71
     3
 72
    19
 73
    15
 74
     0
 42
0.000000001
 43
0.00000001
 40
0.0
 40
0.0
 40
0.0
 40
0.0
 40
0.0329268506708922
 40
0.1133230802189276
 40
0.1968028294882902
 40
0.2860237765127208
 40
0.3784957156350488
 40
0.4709690950169544
 40
0.5633080912158206
 40
0.6561148240655729
 40
0.750038007066353
 40
0.8458809959426166
 40
0.9293170647671847
 40
1.0
 40
1.0
 40
1.0
 40
1.0
 10
421.1662791657403
 20
303.7340514574402
 30
0.0
 10
421.1145783315479
 20
303.6959159914289
 30
0.0
 10
420.9366415516495
 20
303.5646666193834
 30
0.0
 10
420.755156315173
 20
303.2042738989098
 30
0.0
 10
420.6282434188271
 20
302.6989178622168
 30
0.0
 10
420.6365246027247
 20
302.1039699123428
 30
0.0
 10
420.7771155508548
 20
301.4579964981469
 30
0.0
 10
421.0453757449057
 20
300.8062224435654
 30
0.0
 10
421.4205648959793
 20
300.1977875367645
 30
0.0
 10
421.8803036377122
 20
299.6716634144539
 30
0.0
 10
422.4027417904261
 20
299.2602265804399
 30
0.0
 10
422.9379911148158
 20
299.0152046739261
 30
0.0
 10
423.4437893325933
 20
298.9272787621764
 30
0.0
 10
423.7367476245454
 20
299.0018523956902
 30
0.0
 10
423.871105824578
 20
299.0360537801331
 30
0.0
  0
SPLINE
  5
105
330
1F
100
AcDbEntity
  8
0
  6
Continuous
 62
     7
370
    30
100
AcDbSpline
210
0.0
220
0.0
230
1.0
 70
     8
 71
     3
 72
    19
 73
    15
 74
     0
 42
0.000000001
 43
0.00000001
 40
0.0
 40
0.0
 40
0.0
 40
0.0
 40
0.0716149492124212
 40
0.152924883961471
 40
0.2393990594552774
 40
0.3307874149539051
 40
0.423441928446274
 40
0.5158464117156795
 40
0.6084007173323118
 40
0.701711156055999
 40
0.796585849730828
 40
0.8830925289604576
 40
0.9641117156932636
 40
1.0
 40
1.0
 40
1.0
 40
1.0
 10
421.1506639253349
 20
333.1330365358116
 30
0.0
 10
421.0527493707106
 20
333.0323831520017
 30
0.0
 10
420.8436649257904
 20
332.8174502754343
 30
0.0
 10
420.6761389312964
 20
332.3552867968579
 30
0.0
 10
420.6157338493961
 20
331.8038212356793
 30
0.0
 10
420.6905944590204
 20
331.1781263810842
 30
0.0
 10
420.8973161740991
 20
330.5228964437496
 30
0.0
 10
421.2220831190283
 20
329.8877214957782
 30
0.0
 10
421.6427291224137
 20
329.3159587921718
 30
0.0
 10
422.1363077237452
 20
328.8445031381594
 30
0.0
 10
422.6629652970033
 20
328.5147171527267
 30
0.0
 10
423.1822029745954
 20
328.3573216947622
 30
0.0
 10
423.5972113783504
 20
328.3322895827629
 30
0.0
 10
423.8081429919617
 20
328.4189269834104
 30
0.0
 10
423.8728948307556
 20
328.445522954039
 30
0.0
  0
SPLINE
  5
106
330
1F
100
AcDbEntity
  8
0
  6
Continuous
 62
     7
370
    30
100
AcDbSpline
210
0.0
220
0.0
230
1.0
 70
     8
 71
     3
 72
    21
 73
    17
 74
     0
 42
0.000000001
 43
0.00000001
 40
0.0
 40
0.0
 40
0.0
 40
0.0
 40
0.023765563588847
 40
0.1041278842262701
 40
0.1869585948347489
 40
0.2762803868806293
 40
0.2944191387492212
 40
0.3441167557030147
 40
0.4366313545028266
 40
0.5288770529869881
 40
0.6213625847409371
 40
0.7146842161858682
 40
0.8096760033597116
 40
0.8953188846894788
 40
0.9755366014250655
 40
0.9999999999999999
 40
0.9999999999999999
 40
0.9999999999999999
 40
0.9999999999999999
 10
469.2460031508086
 20
305.3724412873588
 30
0.0
 10
469.2078209626514
 20
305.3461763836881
 30
0.0
 10
469.0405272036342
 20
305.2310977389753
 30
0.0
 10
468.8599300218522
 20
304.8912061518661
 30
0.0
 10
468.7178969409459
 20
304.3954873506125
 30
0.0
 10
468.7145326422431
 20
303.9702304242087
 30
0.0
 10
468.7559793785384
 20
303.6101040565697
 30
0.0
 10
468.8273566094074
 20
303.2357331994668
 30
0.0
 10
469.0170613890982
 20
302.6791520282787
 30
0.0
 10
469.3556870891187
 20
302.0502043570132
 30
0.0
 10
469.7873188175566
 20
301.489473596309
 30
0.0
 10
470.288817760262
 20
301.033763509328
 30
0.0
 10
470.8191580258981
 20
300.7235164438226
 30
0.0
 10
471.3366927462621
 20
300.5906235964811
 30
0.0
 10
471.726933903491
 20
300.5796087576099
 30
0.0
 10
471.9124346955614
 20
300.6648301102028
 30
0.0
 10
471.9557852062903
 20
300.6847458696919
 30
0.0
  0
SPLINE
  5
107
330
1F
100
AcDbEntity
  8
0
  6
Continuous
 62
     7
370
    30
100
AcDbSpline
210
0.0
220
0.0
230
1.0
 70
     8
 71
     3
 72
    19
 73
    15
 74
     0
 42
0.000000001
 43
0.00000001
 40
0.0
 40
0.0
 40
0.0
 40
0.0
 40
0.0670503978551207
 40
0.1481373195591837
 40
0.2342062596354681
 40
0.325351665944776
 40
0.4179774851643789
 40
0.5103571060797386
 40
0.6028457955741553
 40
0.6960528533036298
 40
0.7907705726212322
 40
0.8775635200851959
 40
0.9588900475813493
 40
1.0
 40
1.0
 40
1.0
 40
1.0
 10
469.2381907258259
 20
275.9787310665345
 30
0.0
 10
469.1446337071667
 20
275.8864183383263
 30
0.0
 10
468.9379341734809
 20
275.6824678688972
 30
0.0
 10
468.7673488215155
 20
275.2332748224531
 30
0.0
 10
468.6987642627252
 20
274.687216677172
 30
0.0
 10
468.7653487645012
 20
274.0648744048284
 30
0.0
 10
468.9641182806234
 20
273.4100677829881
 30
0.0
 10
469.2822219241806
 20
272.7722550627417
 30
0.0
 10
469.6975751783425
 20
272.1954885033161
 30
0.0
 10
470.1872896673344
 20
271.7168366645568
 30
0.0
 10
470.7121005327465
 20
271.3779753863364
 30
0.0
 10
471.23192183557
 20
271.2093265000264
 30
0.0
 10
471.6583822761694
 20
271.176817605962
 30
0.0
 10
471.8813113445271
 20
271.2632230427294
 30
0.0
 10
471.9561632465035
 20
271.2922350120109
 30
0.0
  0
LINE
  5
108
330
1F
100
AcDbEntity
  8
0
  6
Continuous
 62
     7
370
    30
100
AcDbLine
 10
423.1747132885
 20
301.5822036233
 30
0.0
 11
422.2252913744
 21
302.5627742761
 31
0.0
  0
LINE
  5
109
330
1F
100
AcDbEntity
  8
0
  6
Continuous
 62
     7
370
    30
100
AcDbLine
 10
422.2252913744
 20
302.5627742761
 30
0.0
 11
421.4262372013
 21
302.2908256098
 31
0.0
  0
LINE
  5
10A
330
1F
100
AcDbEntity
  8
0
  6
Continuous
 62
     7
370
    30
100
AcDbLine
 10
421.4262372013
 20
302.2908256098
 30
0.0
 11
421.5766049424
 21
301.0383062906
 31
0.0
  0
LINE
  5
10B
330
1F
100
AcDbEntity
  8
0
  6
Continuous
 62
     7
370
    30
100
AcDbLine
 10
421.5766049424
 20
301.0383062906
 30
0.0
 11
422.5260268565
 21
300.0577356378
 31
0.0
  0
LINE
  5
10C
330
1F
100
AcDbEntity
  8
0
  6
Continuous
 62
     7
370
    30
100
AcDbLine
 10
422.5260268565
 20
300.0577356378
 30
0.0
 11
423.3250810296
 21
300.3296843041
 31
0.0
  0
LINE
  5
10D
330
1F
100
AcDbEntity
  8
0
  6
Continuous
 62
     7
370
    30
100
AcDbLine
 10
423.3250810296
 20
300.3296843041
 30
0.0
 11
423.1747132885
 21
301.5822036233
 31
0.0
  0
LINE
  5
10E
330
1F
100
AcDbEntity
  8
0
  6
Continuous
 62
     7
370
    30
100
AcDbLine
 10
423.3038240869
 20
300.5067484214
 30
0.0
 11
422.5260268565
 21
300.0577356378
 31
0.0
  0
LINE
  5
10F
330
1F
100
AcDbEntity
  8
0
  6
Continuous
 62
     7
370
    30
100
AcDbLine
 10
422.9395279207
 20
301.8251049785
 30
0.0
 11
421.5766049424
 21
301.0383062906
 31
0.0
  0
LINE
  5
110
330
1F
100
AcDbEntity
  8
0
  6
Continuous
 62
     7
370
    30
100
AcDbLine
 10
423.2294139269
 20
329.5670516525
 30
0.0
 11
423.286868062
 21
330.7105903323
 31
0.0
  0
LINE
  5
111
330
1F
100
AcDbEntity
  8
0
  6
Continuous
 62
     7
370
    30
100
AcDbLine
 10
423.286868062
 20
330.7105903323
 30
0.0
 11
422.4331132506
 21
331.8492628646
 31
0.0
  0
LINE
  5
112
330
1F
100
AcDbEntity
  8
0
  6
Continuous
 62
     7
370
    30
100
AcDbLine
 10
422.4331132506
 20
331.8492628646
 30
0.0
 11
421.521904304
 21
331.8443967172
 31
0.0
  0
LINE
  5
113
330
1F
100
AcDbEntity
  8
0
  6
Continuous
 62
     7
370
    30
100
AcDbLine
 10
421.521904304
 20
331.8443967172
 30
0.0
 11
421.4644501689
 21
330.7008580374
 31
0.0
  0
LINE
  5
114
330
1F
100
AcDbEntity
  8
0
  6
Continuous
 62
     7
370
    30
100
AcDbLine
 10
421.4644501689
 20
330.7008580374
 30
0.0
 11
422.3182049803
 21
329.5621855051
 31
0.0
  0
LINE
  5
115
330
1F
100
AcDbEntity
  8
0
  6
Continuous
 62
     7
370
    30
100
AcDbLine
 10
422.3182049803
 20
329.5621855051
 30
0.0
 11
423.2294139269
 21
329.5670516525
 31
0.0
  0
LINE
  5
116
330
1F
100
AcDbEntity
  8
0
  6
Continuous
 62
     7
370
    30
100
AcDbLine
 10
423.2563805891
 20
330.1037827559
 30
0.0
 11
422.3182049803
 21
329.5621855051
 31
0.0
  0
LINE
  5
117
330
1F
100
AcDbEntity
  8
0
  6
Continuous
 62
     7
370
    30
100
AcDbLine
 10
422.7414356957
 20
331.4380460906
 30
0.0
 11
421.4644501689
 21
330.7008580374
 31
0.0
  0
LINE
  5
118
330
1F
100
AcDbEntity
  8
0
  6
Continuous
 62
     7
370
    30
100
AcDbLine
 10
469.5020019287
 20
303.9101235361
 30
0.0
 11
469.6730842539
 21
302.6494606803
 31
0.0
  0
LINE
  5
119
330
1F
100
AcDbEntity
  8
0
  6
Continuous
 62
     7
370
    30
100
AcDbLine
 10
469.6730842539
 20
302.6494606803
 30
0.0
 11
470.6300025613
 21
301.6871855271
 31
0.0
  0
LINE
  5
11A
330
1F
100
AcDbEntity
  8
0
  6
Continuous
 62
     7
370
    30
100
AcDbLine
 10
470.6300025613
 20
301.6871855271
 30
0.0
 11
471.4158385435
 21
301.9855732297
 31
0.0
  0
LINE
  5
11B
330
1F
100
AcDbEntity
  8
0
  6
Continuous
 62
     7
370
    30
100
AcDbLine
 10
471.4158385435
 20
301.9855732297
 30
0.0
 11
471.2447562184
 21
303.2462360854
 31
0.0
  0
LINE
  5
11C
330
1F
100
AcDbEntity
  8
0
  6
Continuous
 62
     7
370
    30
100
AcDbLine
 10
471.2447562184
 20
303.2462360854
 30
0.0
 11
470.287837911
 21
304.2085112386
 31
0.0
  0
LINE
  5
11D
330
1F
100
AcDbEntity
  8
0
  6
Continuous
 62
     7
370
    30
100
AcDbLine
 10
470.287837911
 20
304.2085112386
 30
0.0
 11
469.5020019287
 21
303.9101235361
 31
0.0
  0
LINE
  5
11E
330
1F
100
AcDbEntity
  8
0
  6
Continuous
 62
     7
370
    30
100
AcDbLine
 10
471.3962985209
 20
302.1295587684
 30
0.0
 11
470.6300025613
 21
301.6871855271
 31
0.0
  0
LINE
  5
11F
330
1F
100
AcDbEntity
  8
0
  6
Continuous
 62
     7
370
    30
100
AcDbLine
 10
471.0485755961
 20
303.4435149303
 30
0.0
 11
469.6730842539
 21
302.6494606803
 31
0.0
  0
LINE
  5
120
330
1F
100
AcDbEntity
  8
0
  6
Continuous
 62
     7
370
    30
100
AcDbLine
 10
471.4785854529
 20
272.9127523744
 30
0.0
 11
471.0069907085
 21
274.2302119694
 31
0.0
  0
LINE
  5
121
330
1F
100
AcDbEntity
  8
0
  6
Continuous
 62
     7
370
    30
100
AcDbLine
 10
471.0069907085
 20
274.2302119694
 30
0.0
 11
469.9873254917
 21
274.86983875
 31
0.0
  0
LINE
  5
122
330
1F
100
AcDbEntity
  8
0
  6
Continuous
 62
     7
370
    30
100
AcDbLine
 10
469.9873254917
 20
274.86983875
 30
0.0
 11
469.4392550193
 21
274.1920059356
 31
0.0
  0
LINE
  5
123
330
1F
100
AcDbEntity
  8
0
  6
Continuous
 62
     7
370
    30
100
AcDbLine
 10
469.4392550193
 20
274.1920059356
 30
0.0
 11
469.9108497638
 21
272.8745463405
 31
0.0
  0
LINE
  5
124
330
1F
100
AcDbEntity
  8
0
  6
Continuous
 62
     7
370
    30
100
AcDbLine
 10
469.9108497638
 20
272.8745463405
 30
0.0
 11
470.9305149806
 21
272.23491956
 31
0.0
  0
LINE
  5
125
330
1F
100
AcDbEntity
  8
0
  6
Continuous
 62
     7
370
    30
100
AcDbLine
 10
470.9305149806
 20
272.23491956
 30
0.0
 11
471.4785854529
 21
272.9127523744
 31
0.0
  0
LINE
  5
126
330
1F
100
AcDbEntity
  8
0
  6
Continuous
 62
     7
370
    30
100
AcDbLine
 10
470.2873793374
 20
274.6816176827
 30
0.0
 11
469.4392550193
 21
274.1920059356
 31
0.0
  0
LINE
  5
127
330
1F
100
AcDbEntity
  8
0
  6
Continuous
 62
     7
370
    30
100
AcDbLine
 10
471.2214360715
 20
273.6311317116
 30
0.0
 11
469.9108497638
 21
272.8745463405
 31
0.0
  0
LWPOLYLINE
  5
128
330
1F
100
AcDbEntity
  8
0
  6
Continuous
 62
     7
370
    30
100
AcDbPolyline
 90
       16
 70
   128
 43
0.0
 10
447.124396457
 20
293.1470363891
 10
446.0405431921
 20
293.8565159039
 10
444.9760313144
 20
294.7209034265
 10
443.9498570636
 20
295.724773941
 10
442.9803325435
 20
296.8502133543
 10
442.0847589421
 20
298.0771381735
 10
441.2791177915
 20
299.3836538961
 10
440.5777857772
 20
300.746445718
 10
439.9932781855
 20
302.1411945869
 10
439.5360255684
 20
303.5430111763
 10
439.2141876095
 20
304.9268800358
 10
439.0335075149
 20
306.2681059929
 10
438.9972095252
 20
307.5427548386
 10
439.1059413788
 20
308.728080434
 10
439.3577627532
 20
309.8029306159
 10
439.5309661224
 20
310.2805586437
  0
ARC
  5
129
330
1F
100
AcDbEntity
  8
0
  6
Continuous
 62
     7
370
    30
100
AcDbCircle
 10
451.2538886153
 20
299.9735052047
 30
0.0
 40
7.978306961723188
100
AcDbArc
 50
238.8292659747
 51
261.1947478317
  0
LWPOLYLINE
  5
12A
330
1F
100
AcDbEntity
  8
0
  6
Continuous
 62
     7
370
    30
100
AcDbPolyline
 90
       17
 70
   128
 43
0.0
 10
453.1471274686
 20
294.7963889094
 10
452.9867633931
 20
294.8493766489
 10
451.910176673
 20
295.3036824481
 10
450.8238976152
 20
295.9307780001
 10
449.7473108951
 20
296.7194727699
 10
448.6996282283
 20
297.6556924807
 10
447.6995455368
 20
298.7227302695
 10
446.7649093199
 20
299.9015448218
 10
445.912398183
 20
301.1711001638
 10
445.1572252077
 20
302.5087410505
 10
444.5128664734
 20
303.8905972486
 10
443.9908205772
 20
305.2920095014
 10
443.6004034403
 20
306.6879695741
 10
443.3485820659
 20
308.0535665262
 10
443.2398502123
 20
309.3644312476
 10
443.276148202
 20
310.5971713264
 10
443.4328273081
 20
311.6238736405
  0
LINE
  5
12B
330
1F
100
AcDbEntity
  8
0
  6
Continuous
 62
     7
370
    30
100
AcDbLine
 10
444.6572123018
 20
310.9010661226
 30
0.0
 11
444.0915268769
 21
310.5745028778
 31
0.0
  0
ARC
  5
12C
330
1F
100
AcDbEntity
  8
0
  6
Continuous
 62
     7
370
    30
100
AcDbCircle
 10
454.924752389
 20
310.1662324719
 30
0.0
 40
10.84091600007635
100
AcDbArc
 50
177.8417225853
 51
182.1582774147
  0
LINE
  5
12D
330
1F
100
AcDbEntity
  8
0
  6
Continuous
 62
     7
370
    30
100
AcDbLine
 10
444.0915268769
 20
309.7579620659
 30
0.0
 11
444.6572123018
 21
310.0845253107
 31
0.0
  0
ARC
  5
12E
330
1F
100
AcDbEntity
  8
0
  6
Continuous
 62
     7
370
    30
100
AcDbCircle
 10
462.0047159685
 20
311.1875930846
 30
0.0
 40
17.38253842157054
100
AcDbArc
 50
183.6383422038
 51
240.4007550658
  0
LINE
  5
12F
330
1F
100
AcDbEntity
  8
0
  6
Continuous
 62
     7
370
    30
100
AcDbLine
 10
444.6572123018
 20
310.9010661226
 30
0.0
 11
444.6746697177
 21
311.2206327695
 31
0.0
  0
LINE
  5
130
330
1F
100
AcDbEntity
  8
0
  6
Continuous
 62
     7
370
    30
100
AcDbLine
 10
444.6572123018
 20
310.0845253107
 30
0.0
 11
444.0866023098
 21
310.4139314475
 31
0.0
  0
LINE
  5
131
330
1F
100
AcDbEntity
  8
0
  6
Continuous
 62
     7
370
    30
100
AcDbLine
 10
431.2144938803
 20
353.3643667895
 30
0.0
 11
438.2855616921
 21
357.4464073486
 31
0.0
  0
LINE
  5
132
330
1F
100
AcDbEntity
  8
0
  6
Continuous
 62
     7
370
    30
100
AcDbLine
 10
438.2855616921
 20
357.4464073486
 30
0.0
 11
441.0496501662
 21
347.6866519192
 31
0.0
  0
LINE
  5
133
330
1F
100
AcDbEntity
  8
0
  6
Continuous
 62
     7
370
    30
100
AcDbLine
 10
487.8883922659
 20
325.3673284551
 30
0.0
 11
492.0256770623
 21
326.4128138946
 31
0.0
  0
LINE
  5
134
330
1F
100
AcDbEntity
  8
0
  6
Continuous
 62
     7
370
    30
100
AcDbLine
 10
492.0256770623
 20
326.4128138946
 30
0.0
 11
492.0256770623
 21
318.2474057757
 31
0.0
  0
LINE
  5
135
330
1F
100
AcDbEntity
  8
0
  6
Continuous
 62
     7
370
    30
100
AcDbLine
 10
492.0256770623
 20
318.2474057757
 30
0.0
 11
490.2028670046
 21
317.1951199279
 31
0.0
  0
LINE
  5
136
330
1F
100
AcDbEntity
  8
0
  6
Continuous
 62
     7
370
    30
100
AcDbLine
 10
425.9111930214
 20
356.4258972088
 30
0.0
 11
431.2144938803
 21
353.3643667895
 31
0.0
  0
LINE
  5
137
330
1F
100
AcDbEntity
  8
0
  6
Continuous
 62
     7
370
    30
100
AcDbLine
 10
425.9111930214
 20
356.4258972088
 30
0.0
 11
432.9822608332
 21
360.5079377679
 31
0.0
  0
LINE
  5
138
330
1F
100
AcDbEntity
  8
0
  6
Continuous
 62
     7
370
    30
100
AcDbLine
 10
432.9822608332
 20
360.5079377679
 30
0.0
 11
438.2855616921
 21
357.4464073486
 31
0.0
  0
LINE
  5
139
330
1F
100
AcDbEntity
  8
0
  6
Continuous
 62
     7
370
    30
100
AcDbLine
 10
486.725790721
 20
329.4723731549
 30
0.0
 11
492.0256770623
 21
326.4128138946
 31
0.0
  0
LINE
  5
13A
330
1F
100
AcDbEntity
  8
0
  6
Continuous
 62
     7
370
    30
100
AcDbLine
 10
486.7223762034
 20
329.4844295187
 30
0.0
 11
481.4190753445
 21
332.545959938
 31
0.0
  0
LINE
  5
13B
330
1F
100
AcDbEntity
  8
0
  6
Continuous
 62
     7
370
    30
100
AcDbLine
 10
486.7223762034
 20
329.4844295187
 30
0.0
 11
479.6513083916
 21
325.4023889596
 31
0.0
  0
LINE
  5
13C
330
1F
100
AcDbEntity
  8
0
  6
Continuous
 62
     7
370
    30
100
AcDbLine
 10
479.6513083916
 20
325.4023889596
 30
0.0
 11
474.3480075327
 21
328.4639193789
 31
0.0
  0
LINE
  5
13D
330
1F
100
AcDbEntity
  8
0
  6
Continuous
 62
     7
370
    30
100
AcDbLine
 10
481.4190753445
 20
332.545959938
 30
0.0
 11
474.3480075327
 21
328.4639193789
 31
0.0
  0
LINE
  5
13E
330
1F
100
AcDbEntity
  8
0
  6
Continuous
 62
     7
370
    30
100
AcDbLine
 10
498.5136607632
 20
287.8504316995
 30
0.0
 11
486.7223762034
 21
329.4844295187
 31
0.0
  0
LINE
  5
13F
330
1F
100
AcDbEntity
  8
0
  6
Continuous
 62
     7
370
    30
100
AcDbLine
 10
540.4624915736
 20
298.4508360646
 30
0.0
 11
498.5136607632
 21
287.8504316995
 31
0.0
  0
LINE
  5
140
330
1F
100
AcDbEntity
  8
0
  6
Continuous
 62
     7
370
    30
100
AcDbLine
 10
540.4624915736
 20
290.2854279458
 30
0.0
 11
540.4624915736
 21
298.4508360646
 31
0.0
  0
LINE
  5
141
330
1F
100
AcDbEntity
  8
0
  6
Continuous
 62
     7
370
    30
100
AcDbLine
 10
479.6513083916
 20
255.1798791374
 30
0.0
 11
540.4624915736
 21
290.2854279458
 31
0.0
  0
LINE
  5
142
330
1F
100
AcDbEntity
  8
0
  6
Continuous
 62
     7
370
    30
100
AcDbLine
 10
479.6513083916
 20
325.4023889596
 30
0.0
 11
479.6513083916
 21
255.1798791374
 31
0.0
  0
LINE
  5
143
330
1F
100
AcDbEntity
  8
0
  6
Continuous
 62
     7
370
    30
100
AcDbLine
 10
540.4624915736
 20
298.4508360646
 30
0.0
 11
535.1591907147
 21
301.512366484
 31
0.0
  0
LINE
  5
144
330
1F
100
AcDbEntity
  8
0
  6
Continuous
 62
     7
370
    30
100
AcDbLine
 10
535.1591907147
 20
301.512366484
 30
0.0
 11
497.3503101978
 21
291.9581211253
 31
0.0
  0
LWPOLYLINE
  5
145
330
1F
100
AcDbEntity
  8
0
  6
Continuous
 62
     7
370
    30
100
AcDbPolyline
 90
       47
 70
   128
 43
0.0
 10
437.9320083015
 20
306.211092229
 10
438.0044546394
 20
304.9462279601
 10
438.2204441149
 20
303.621280958
 10
438.5759532528
 20
302.2609324785
 10
439.0643595903
 20
300.8905232398
 10
439.6765650417
 20
299.5355813732
 10
440.4011653776
 20
298.2213468819
 10
441.2246626648
 20
296.972301468
 10
442.131716707
 20
295.8117124842
 10
443.1054308035
 20
294.7611995073
 10
444.1276665031
 20
293.8403316065
 10
445.1793814888
 20
293.0662628085
 10
446.2409843004
 20
292.4534125502
 10
447.2926992861
 20
292.0131970725
 10
448.3149349857
 20
291.7538167569
 10
449.2886490822
 20
291.6801033677
 10
450.1957031244
 20
291.7934300461
 10
451.0192004116
 20
292.0916857303
 10
451.7438007475
 20
292.5693144814
 10
452.3560061989
 20
293.2174189793
 10
452.8444125364
 20
294.0239262636
 10
453.1999216743
 20
294.9738126296
 10
453.4159111498
 20
296.0493834914
 10
453.4883574877
 20
297.230602999
 10
453.4159111498
 20
298.4954672679
 10
453.1999216743
 20
299.82041427
 10
452.8444125364
 20
301.1807627495
 10
452.3560061989
 20
302.5511719882
 10
451.7438007475
 20
303.9061138548
 10
451.0192004116
 20
305.2203483461
 10
450.1957031244
 20
306.46939376
 10
449.2886490822
 20
307.6299827438
 10
448.3149349857
 20
308.6804957207
 10
447.2926992861
 20
309.6013636215
 10
446.2409843004
 20
310.3754324195
 10
445.1793814888
 20
310.9882826778
 10
444.1276665031
 20
311.4284981555
 10
443.1054308035
 20
311.6878784711
 10
442.131716707
 20
311.7615918603
 10
441.2246626648
 20
311.6482651819
 10
440.4011653776
 20
311.3500094977
 10
439.6765650417
 20
310.8723807466
 10
439.0643595903
 20
310.2242762487
 10
438.5759532528
 20
309.4177689644
 10
438.2204441149
 20
308.4678825984
 10
438.0044546394
 20
307.3923117366
 10
437.9320083015
 20
306.211092229
  0
LINE
  5
146
330
1F
100
AcDbEntity
  8
0
  6
Continuous
 62
     7
370
    30
100
AcDbLine
 10
418.8401252095
 20
282.1213468275
 30
0.0
 11
472.5802405797
 21
251.0978385783
 31
0.0
  0
LINE
  5
147
330
1F
100
AcDbEntity
  8
0
  6
Continuous
 62
     7
370
    30
100
AcDbLine
 10
418.8401252095
 20
352.3438566497
 30
0.0
 11
418.8401252095
 21
282.1213468275
 31
0.0
  0
LINE
  5
148
330
1F
100
AcDbEntity
  8
0
  6
Continuous
 62
     7
370
    30
100
AcDbLine
 10
472.5802405797
 20
321.3203484005
 30
0.0
 11
418.8401252095
 21
352.3438566497
 31
0.0
  0
LINE
  5
149
330
1F
100
AcDbEntity
  8
0
  6
Continuous
 62
     7
370
    30
100
AcDbLine
 10
472.5802405797
 20
251.0978385783
 30
0.0
 11
472.5802405797
 21
321.3203484005
 31
0.0
  0
LWPOLYLINE
  5
14A
330
1F
100
AcDbEntity
  8
0
  6
Continuous
 62
     7
370
    30
100
AcDbPolyline
 90
       26
 70
   128
 43
0.0
 10
419.3704552954
 20
331.6241833106
 10
419.4426542398
 20
330.9225410595
 10
419.6547145477
 20
330.1816264446
 10
419.9933116902
 20
329.4479938562
 10
420.4371703634
 20
328.7677401278
 10
420.9584012945
 20
328.183608103
 10
421.5242536273
 20
327.7323009452
 10
422.0991727784
 20
327.442175943
 10
422.6470344634
 20
327.3314627172
 10
423.1334145176
 20
327.4071177869
 10
423.5277518934
 20
327.664387466
 10
423.8052689233
 20
328.0871065542
 10
423.9485281916
 20
328.6487140567
 10
423.9485281916
 20
329.3139221086
 10
423.8052689233
 20
330.0409332415
 10
423.5277518934
 20
330.7840666723
 10
423.1334145176
 20
331.4966285943
 10
422.6470344634
 20
332.1338461214
 10
422.0991727784
 20
332.6556805329
 10
421.5242536273
 20
333.0293430535
 10
420.9584012945
 20
333.2313550928
 10
420.4371703634
 20
333.2490234914
 10
419.9933116902
 20
333.0812380789
 10
419.6547145477
 20
332.7385414298
 10
419.4426542398
 20
332.2424664349
 10
419.3704552954
 20
331.6241833106
  0
LWPOLYLINE
  5
14B
330
1F
100
AcDbEntity
  8
0
  6
Continuous
 62
     7
370
    30
100
AcDbPolyline
 90
       26
 70
   128
 43
0.0
 10
419.3704552954
 20
302.2287140827
 10
419.4426542398
 20
301.5270718316
 10
419.6547145477
 20
300.7861572168
 10
419.9933116902
 20
300.0525246283
 10
420.4371703634
 20
299.3722708999
 10
420.9584012945
 20
298.7881388751
 10
421.5242536273
 20
298.3368317173
 10
422.0991727784
 20
298.0467067151
 10
422.6470344634
 20
297.9359934893
 10
423.1334145176
 20
298.011648559
 10
423.5277518934
 20
298.2689182381
 10
423.8052689233
 20
298.6916373263
 10
423.9485281916
 20
299.2532448288
 10
423.9485281916
 20
299.9184528807
 10
423.8052689233
 20
300.6454640136
 10
423.5277518934
 20
301.3885974444
 10
423.1334145176
 20
302.1011593664
 10
422.6470344634
 20
302.7383768935
 10
422.0991727784
 20
303.260211305
 10
421.5242536273
 20
303.6338738256
 10
420.9584012945
 20
303.8358858649
 10
420.4371703634
 20
303.8535542635
 10
419.9933116902
 20
303.685768851
 10
419.6547145477
 20
303.3430722019
 10
419.4426542398
 20
302.846997207
 10
419.3704552954
 20
302.2287140827
  0
LWPOLYLINE
  5
14C
330
1F
100
AcDbEntity
  8
0
  6
Continuous
 62
     7
370
    30
100
AcDbPolyline
 90
       26
 70
   128
 43
0.0
 10
467.4537164161
 20
303.8663075087
 10
467.5259153605
 20
303.1646652575
 10
467.7379756684
 20
302.4237506427
 10
468.0765728108
 20
301.6901180542
 10
468.5204314841
 20
301.0098643258
 10
469.0416624152
 20
300.425732301
 10
469.6075147479
 20
299.9744251433
 10
470.1824338991
 20
299.684300141
 10
470.7302955841
 20
299.5735869152
 10
471.2166756383
 20
299.6492419849
 10
471.6110130141
 20
299.906511664
 10
471.888530044
 20
300.3292307523
 10
472.0317893122
 20
300.8908382547
 10
472.0317893122
 20
301.5560463066
 10
471.888530044
 20
302.2830574396
 10
471.6110130141
 20
303.0261908703
 10
471.2166756383
 20
303.7387527923
 10
470.7302955841
 20
304.3759703194
 10
470.1824338991
 20
304.8978047309
 10
469.6075147479
 20
305.2714672515
 10
469.0416624152
 20
305.4734792908
 10
468.5204314841
 20
305.4911476894
 10
468.0765728108
 20
305.3233622769
 10
467.7379756684
 20
304.9806656278
 10
467.5259153605
 20
304.484590633
 10
467.4537164161
 20
303.8663075087
  0
LWPOLYLINE
  5
14D
330
1F
100
AcDbEntity
  8
0
  6
Continuous
 62
     7
370
    30
100
AcDbPolyline
 90
       26
 70
   128
 43
0.0
 10
467.4537164161
 20
274.4708382808
 10
467.5259153605
 20
273.7691960296
 10
467.7379756684
 20
273.0282814148
 10
468.0765728108
 20
272.2946488263
 10
468.5204314841
 20
271.6143950979
 10
469.0416624152
 20
271.0302630731
 10
469.6075147479
 20
270.5789559154
 10
470.1824338991
 20
270.2888309131
 10
470.7302955841
 20
270.1781176873
 10
471.2166756383
 20
270.253772757
 10
471.6110130141
 20
270.5110424361
 10
471.888530044
 20
270.9337615244
 10
472.0317893122
 20
271.4953690269
 10
472.0317893122
 20
272.1605770787
 10
471.888530044
 20
272.8875882117
 10
471.6110130141
 20
273.6307216424
 10
471.2166756383
 20
274.3432835644
 10
470.7302955841
 20
274.9805010915
 10
470.1824338991
 20
275.502335503
 10
469.6075147479
 20
275.8759980236
 10
469.0416624152
 20
276.0780100629
 10
468.5204314841
 20
276.0956784615
 10
468.0765728108
 20
275.927893049
 10
467.7379756684
 20
275.5851964
 10
467.5259153605
 20
275.0891214051
 10
467.4537164161
 20
274.4708382808
  0
LWPOLYLINE
  5
14E
330
1F
100
AcDbEntity
  8
0
  6
Continuous
 62
     7
370
    30
100
AcDbPolyline
 90
       23
 70
   128
 43
0.0
 10
447.5152143749
 20
321.4189617424
 10
447.4420979171
 20
320.8739322172
 10
447.2286720043
 20
320.457476208
 10
446.8922271346
 20
320.2033325039
 10
446.4600200705
 20
320.1320903163
 10
445.9670656578
 20
320.2495212637
 10
445.4533001314
 20
320.546111789
 10
444.9603457187
 20
320.9978338917
 10
444.5281386546
 20
321.5680917337
 10
444.1916937849
 20
322.2106864159
 10
443.9782678721
 20
322.8735587389
 10
443.9051514143
 20
323.5030067294
 10
443.9782678721
 20
324.0480362546
 10
444.1916937849
 20
324.4644922638
 10
444.5281386546
 20
324.7186359679
 10
444.9603457187
 20
324.7898781554
 10
445.4533001314
 20
324.6724472081
 10
445.9670656578
 20
324.3758566828
 10
446.4600200705
 20
323.9241345801
 10
446.8922271346
 20
323.3538767381
 10
447.2286720043
 20
322.7112820559
 10
447.4420979171
 20
322.0484097328
 10
447.5152143749
 20
321.4189617424
  0
LWPOLYLINE
  5
14F
330
1F
100
AcDbEntity
  8
0
  6
Continuous
 62
     7
370
    30
100
AcDbPolyline
 90
       23
 70
   128
 43
0.0
 10
465.4757266171
 20
290.3104421003
 10
465.4026101593
 20
289.7654125751
 10
465.1891842464
 20
289.3489565659
 10
464.8527393767
 20
289.0948128618
 10
464.4205323126
 20
289.0235706743
 10
463.9275778999
 20
289.1410016216
 10
463.4138123735
 20
289.4375921469
 10
462.9208579609
 20
289.8893142497
 10
462.4886508967
 20
290.4595720916
 10
462.152206027
 20
291.1021667739
 10
461.9387801142
 20
291.7650390969
 10
461.8656636564
 20
292.3944870874
 10
461.9387801142
 20
292.9395166126
 10
462.152206027
 20
293.3559726218
 10
462.4886508967
 20
293.6101163259
 10
462.9208579609
 20
293.6813585134
 10
463.4138123735
 20
293.563927566
 10
463.9275778999
 20
293.2673370408
 10
464.4205323126
 20
292.815614938
 10
464.8527393767
 20
292.2453570961
 10
465.1891842464
 20
291.6027624138
 10
465.4026101593
 20
290.9398900908
 10
465.4757266171
 20
290.3104421003
  0
LWPOLYLINE
  5
150
330
1F
100
AcDbEntity
  8
0
  6
Continuous
 62
     7
370
    30
100
AcDbPolyline
 90
       23
 70
   128
 43
0.0
 10
447.5152143749
 20
279.9386884986
 10
447.4420979171
 20
279.3936589734
 10
447.2286720043
 20
278.9772029642
 10
446.8922271346
 20
278.7230592601
 10
446.4600200705
 20
278.6518170725
 10
445.9670656578
 20
278.7692480199
 10
445.4533001314
 20
279.0658385452
 10
444.9603457187
 20
279.5175606479
 10
444.5281386546
 20
280.0878184899
 10
444.1916937849
 20
280.7304131721
 10
443.9782678721
 20
281.3932854952
 10
443.9051514143
 20
282.0227334856
 10
443.9782678721
 20
282.5677630108
 10
444.1916937849
 20
282.98421902
 10
444.5281386546
 20
283.2383627241
 10
444.9603457187
 20
283.3096049117
 10
445.4533001314
 20
283.1921739643
 10
445.9670656578
 20
282.895583439
 10
446.4600200705
 20
282.4438613363
 10
446.8922271346
 20
281.8736034943
 10
447.2286720043
 20
281.2310088121
 10
447.4420979171
 20
280.568136489
 10
447.5152143749
 20
279.9386884986
  0
LWPOLYLINE
  5
151
330
1F
100
AcDbEntity
  8
0
  6
Continuous
 62
     7
370
    30
100
AcDbPolyline
 90
       23
 70
   128
 43
0.0
 10
429.5547021328
 20
311.0472081406
 10
429.481585675
 20
310.5021786154
 10
429.2681597622
 20
310.0857226062
 10
428.9317148925
 20
309.8315789021
 10
428.4995078283
 20
309.7603367146
 10
428.0065534157
 20
309.8777676619
 10
427.4927878893
 20
310.1743581872
 10
426.9998334766
 20
310.62608029
 10
426.5676264125
 20
311.1963381319
 10
426.2311815428
 20
311.8389328142
 10
426.0177556299
 20
312.5018051372
 10
425.9446391721
 20
313.1312531277
 10
426.0177556299
 20
313.6762826529
 10
426.2311815428
 20
314.0927386621
 10
426.5676264125
 20
314.3468823662
 10
426.9998334766
 20
314.4181245537
 10
427.4927878893
 20
314.3006936063
 10
428.0065534157
 20
314.0041030811
 10
428.4995078283
 20
313.5523809783
 10
428.9317148925
 20
312.9821231364
 10
429.2681597622
 20
312.3395284541
 10
429.481585675
 20
311.6766561311
 10
429.5547021328
 20
311.0472081406
  0
LWPOLYLINE
  5
152
330
1F
100
AcDbEntity
  8
0
  6
Continuous
 62
     7
370
    30
100
AcDbPolyline
 90
       27
 70
   128
 43
0.0
 10
461.1958214026
 20
313.5213154114
 10
461.2677367354
 20
312.7958610496
 10
461.4793032761
 20
312.0295357825
 10
461.8182255464
 20
311.2668756492
 10
462.2648066158
 20
310.5522036844
 10
462.7930928158
 20
309.927054025
 10
463.3723820728
 20
309.4277580968
 10
463.9690082007
 20
309.0833331645
 10
464.5482974577
 20
308.913795953
 10
465.0765836577
 20
308.9289993489
 10
465.5231647271
 20
309.1280597861
 10
465.8620869974
 20
309.4994085955
 10
466.0736535381
 20
310.0214643341
 10
466.1455688709
 20
310.6638870201
 10
466.0736535381
 20
311.3893413819
 10
465.8620869974
 20
312.1556666489
 10
465.5231647271
 20
312.9183267823
 10
465.0765836577
 20
313.6329987471
 10
464.5482974577
 20
314.2581484065
 10
463.9690082007
 20
314.7574443346
 10
463.3723820728
 20
315.101869267
 10
462.7930928158
 20
315.2714064785
 10
462.2648066158
 20
315.2562030826
 10
461.8182255464
 20
315.0571426454
 10
461.4793032761
 20
314.685793836
 10
461.2677367354
 20
314.1637380973
 10
461.1958214026
 20
313.5213154114
  0
LWPOLYLINE
  5
153
330
1F
100
AcDbEntity
  8
0
  6
Continuous
 62
     7
370
    30
100
AcDbPolyline
 90
       27
 70
   128
 43
0.0
 10
425.2747969183
 20
334.2580814517
 10
425.3467122511
 20
333.5326270899
 10
425.5582787918
 20
332.7663018228
 10
425.8972010621
 20
332.0036416895
 10
426.3437821315
 20
331.2889697247
 10
426.8720683315
 20
330.6638200653
 10
427.4513575885
 20
330.1645241371
 10
428.0479837164
 20
329.8200992048
 10
428.6272729734
 20
329.6505619933
 10
429.1555591734
 20
329.6657653892
 10
429.6021402428
 20
329.8648258264
 10
429.9410625131
 20
330.2361746358
 10
430.1526290538
 20
330.7582303744
 10
430.2245443866
 20
331.4006530604
 10
430.1526290538
 20
332.1261074221
 10
429.9410625131
 20
332.8924326892
 10
429.6021402428
 20
333.6550928226
 10
429.1555591734
 20
334.3697647874
 10
428.6272729734
 20
334.9949144468
 10
428.0479837164
 20
335.4942103749
 10
427.4513575885
 20
335.8386353073
 10
426.8720683315
 20
336.0081725188
 10
426.3437821315
 20
335.9929691229
 10
425.8972010621
 20
335.7939086857
 10
425.5582787918
 20
335.4225598763
 10
425.3467122511
 20
334.9005041376
 10
425.2747969183
 20
334.2580814517
  0
LWPOLYLINE
  5
154
330
1F
100
AcDbEntity
  8
0
  6
Continuous
 62
     7
370
    30
100
AcDbPolyline
 90
       27
 70
   128
 43
0.0
 10
425.2747969183
 20
292.7778082079
 10
425.3467122511
 20
292.0523538461
 10
425.5582787918
 20
291.286028579
 10
425.8972010621
 20
290.5233684457
 10
426.3437821315
 20
289.8086964809
 10
426.8720683315
 20
289.1835468215
 10
427.4513575885
 20
288.6842508934
 10
428.0479837164
 20
288.339825961
 10
428.6272729734
 20
288.1702887495
 10
429.1555591734
 20
288.1854921454
 10
429.6021402428
 20
288.3845525826
 10
429.9410625131
 20
288.755901392
 10
430.1526290538
 20
289.2779571307
 10
430.2245443866
 20
289.9203798166
 10
430.1526290538
 20
290.6458341784
 10
429.9410625131
 20
291.4121594454
 10
429.6021402428
 20
292.1748195788
 10
429.1555591734
 20
292.8894915436
 10
428.6272729734
 20
293.514641203
 10
428.0479837164
 20
294.0139371311
 10
427.4513575885
 20
294.3583620635
 10
426.8720683315
 20
294.527899275
 10
426.3437821315
 20
294.5126958791
 10
425.8972010621
 20
294.3136354419
 10
425.5582787918
 20
293.9422866325
 10
425.3467122511
 20
293.4202308938
 10
425.2747969183
 20
292.7778082079
  0
LWPOLYLINE
  5
155
330
1F
100
AcDbEntity
  8
0
  6
Continuous
 62
     7
370
    30
100
AcDbPolyline
 90
       27
 70
   128
 43
0.0
 10
461.1958214026
 20
272.0410421676
 10
461.2677367354
 20
271.3155878058
 10
461.4793032761
 20
270.5492625387
 10
461.8182255464
 20
269.7866024054
 10
462.2648066158
 20
269.0719304406
 10
462.7930928158
 20
268.4467807812
 10
463.3723820728
 20
267.9474848531
 10
463.9690082007
 20
267.6030599207
 10
464.5482974577
 20
267.4335227092
 10
465.0765836577
 20
267.4487261051
 10
465.5231647271
 20
267.6477865423
 10
465.8620869974
 20
268.0191353517
 10
466.0736535381
 20
268.5411910904
 10
466.1455688709
 20
269.1836137763
 10
466.0736535381
 20
269.9090681381
 10
465.8620869974
 20
270.6753934051
 10
465.5231647271
 20
271.4380535385
 10
465.0765836577
 20
272.1527255033
 10
464.5482974577
 20
272.7778751627
 10
463.9690082007
 20
273.2771710908
 10
463.3723820728
 20
273.6215960232
 10
462.7930928158
 20
273.7911332347
 10
462.2648066158
 20
273.7759298388
 10
461.8182255464
 20
273.5768694016
 10
461.4793032761
 20
273.2055205922
 10
461.2677367354
 20
272.6834648535
 10
461.1958214026
 20
272.0410421676
  0
LINE
  5
156
330
1F
100
AcDbEntity
  8
0
  6
Continuous
 62
     7
370
    30
100
AcDbLine
 10
472.5802405797
 20
321.3203484005
 30
0.0
 11
479.6513083916
 21
325.4023889596
 31
0.0
  0
LINE
  5
157
330
1F
100
AcDbEntity
  8
0
  6
Continuous
 62
     7
370
    30
100
AcDbLine
 10
418.8401252095
 20
352.3438566497
 30
0.0
 11
425.9111930214
 21
356.4258972088
 31
0.0
  0
LINE
  5
158
330
1F
100
AcDbEntity
  8
0
  6
Continuous
 62
     7
370
    30
100
AcDbLine
 10
479.6513083916
 20
325.4023889596
 30
0.0
 11
425.9111930214
 21
356.4258972088
 31
0.0
  0
LINE
  5
159
330
1F
100
AcDbEntity
  8
0
  6
Continuous
 62
     7
370
    30
100
AcDbLine
 10
472.5802405797
 20
251.0978385783
 30
0.0
 11
479.6513083916
 21
255.1798791374
 31
0.0
  0
LWPOLYLINE
  5
15A
330
1F
100
AcDbEntity
  8
0
  6
Continuous
 62
     7
370
    30
100
AcDbPolyline
 90
       24
 70
   128
 43
0.0
 10
451.5519166895
 20
292.418112255
 10
450.9028099056
 20
292.201634102
 10
449.9957558634
 20
292.0883074236
 10
449.0220417669
 20
292.1620208128
 10
447.9998060673
 20
292.4214011284
 10
446.9480910816
 20
292.8616166061
 10
445.88648827
 20
293.4744668644
 10
444.8347732843
 20
294.2485356624
 10
443.8125375847
 20
295.1694035632
 10
442.8388234882
 20
296.2199165401
 10
441.931769446
 20
297.3805055239
 10
441.1082721588
 20
298.6295509378
 10
440.3836718229
 20
299.9437854291
 10
439.7714663715
 20
301.2987272957
 10
439.283060034
 20
302.6691365344
 10
438.9275508961
 20
304.0294850139
 10
438.7115614206
 20
305.354432016
 10
438.6391150827
 20
306.6192962849
 10
438.7115614206
 20
307.8005157925
 10
438.9275508961
 20
308.8760866543
 10
439.283060034
 20
309.8259730203
 10
439.7714663715
 20
310.6324803046
 10
440.3836718229
 20
311.2805848026
 10
440.5755558809
 20
311.4317870289
  0
LINE
  5
15B
330
1F
100
AcDbEntity
  8
0
  6
Continuous
 62
     7
370
    30
100
AcDbLine
 10
492.0256770623
 20
318.2474057757
 30
0.0
 11
525.3211855414
 21
299.0263178631
 31
0.0
  0
LINE
  5
15C
330
1F
100
AcDbEntity
  8
0
  6
Continuous
 62
     7
370
    30
100
AcDbLine
 10
540.4624915736
 20
290.2854279458
 30
0.0
 11
472.5802405797
 21
251.0978385783
 31
0.0
  0
LWPOLYLINE
  5
15D
330
1F
100
AcDbEntity
  8
0
  6
Continuous
 62
     7
370
    30
100
AcDbPolyline
 90
       23
 70
   128
 43
0.0
 10
499.3423230593
 20
299.6548131799
 10
499.9239756512
 20
299.9061756086
 10
500.604739125
 20
300.052755683
 10
501.3294620726
 20
300.0826783572
 10
502.0394317509
 20
299.993519474
 10
502.6771306389
 20
299.792502156
 10
503.1908961653
 20
299.4959116307
 10
503.5391061026
 20
299.1277758987
 10
503.6935505526
 20
298.7179191274
 10
503.6417173444
 20
298.2995454751
 10
503.3878056963
 20
297.9065490869
 10
502.95238602
 20
297.5707681928
 10
502.370733428
 20
297.3194057641
 10
501.6899699543
 20
297.1728256897
 10
500.9652470067
 20
297.1429030155
 10
500.2552773284
 20
297.2320618987
 10
499.6175784403
 20
297.4330792167
 10
499.1038129139
 20
297.729669742
 10
498.7556029766
 20
298.0978054741
 10
498.6011585267
 20
298.5076622453
 10
498.6529917349
 20
298.9260358976
 10
498.906903383
 20
299.3190322859
 10
499.3423230593
 20
299.6548131799
  0
LINE
  5
15E
330
1F
100
AcDbEntity
  8
0
  6
Continuous
 62
     7
370
    30
100
AcDbLine
 10
540.4624915736
 20
283.7531014507
 30
0.0
 11
540.4624915736
 21
290.2854279458
 31
0.0
  0
LINE
  5
15F
330
1F
100
AcDbEntity
  8
0
  6
Continuous
 62
     7
370
    30
100
AcDbLine
 10
540.4624915736
 20
283.7531014507
 30
0.0
 11
472.5802405797
 21
244.5655120832
 31
0.0
  0
LINE
  5
160
330
1F
100
AcDbEntity
  8
0
  6
Continuous
 62
     7
370
    30
100
AcDbLine
 10
472.5802405797
 20
244.5655120832
 30
0.0
 11
472.5802405797
 21
251.0978385783
 31
0.0
  0
LINE
  5
161
330
1F
100
AcDbEntity
  8
0
  6
Continuous
 62
     7
370
    30
100
AcDbLine
 10
472.5802405797
 20
244.5655120832
 30
0.0
 11
418.8401252095
 21
275.5890203325
 31
0.0
  0
LINE
  5
162
330
1F
100
AcDbEntity
  8
0
  6
Continuous
 62
     7
370
    30
100
AcDbLine
 10
418.8401252095
 20
275.5890203325
 30
0.0
 11
418.8401252095
 21
282.1213468275
 31
0.0
  0
LWPOLYLINE
  5
163
330
1F
100
AcDbEntity
  8
0
  6
Continuous
 62
     8
370
    30
100
AcDbPolyline
 90
       16
 70
   128
 43
0.0
 10
422.0551018514
 20
303.2948479855
 10
421.9780541066
 20
303.3187074822
 10
421.5214715944
 20
303.3533384764
 10
421.1485029082
 20
303.1879782206
 10
420.8956568217
 20
302.838813329
 10
420.7876836715
 20
302.3400224938
 10
420.8351526218
 20
301.7404308373
 10
421.0334170811
 20
301.0987305684
 10
421.3630695426
 20
300.4777357804
 10
421.7918413267
 20
299.93823377
 10
422.2777612636
 20
299.5330347527
 10
422.7732641243
 20
299.3018024317
 10
423.2298466365
 20
299.2671714375
 10
423.6028153227
 20
299.4325316933
 10
423.8556614092
 20
299.7816965849
 10
423.9339692896
 20
300.040201474
  0
LWPOLYLINE
  5
164
330
1F
100
AcDbEntity
  8
0
  6
Continuous
 62
     8
370
    30
100
AcDbPolyline
 90
       16
 70
   128
 43
0.0
 10
422.0551018514
 20
332.6903172134
 10
421.9699743496
 20
332.7164067935
 10
421.5144387022
 20
332.7476693948
 10
421.1432053092
 20
332.5790521718
 10
420.8926130819
 20
332.2270605533
 10
420.7871917332
 20
331.7261499313
 10
420.8372606395
 20
331.1253529274
 10
421.0379187072
 20
330.4834797385
 10
421.3695241267
 20
329.8633613845
 10
421.799617049
 20
329.3256993705
 10
422.2860969823
 20
328.9231238005
 10
422.7813438812
 20
328.6950415762
 10
423.2368795287
 20
328.6637789749
 10
423.6081129216
 20
328.8323961978
 10
423.858705149
 20
329.1843878164
 10
423.9339692896
 20
329.4356707019
  0
LWPOLYLINE
  5
165
330
1F
100
AcDbEntity
  8
0
  6
Continuous
 62
     8
370
    30
100
AcDbPolyline
 90
       10
 70
   128
 43
0.0
 10
468.8904413754
 20
303.5453470885
 10
469.0496202313
 20
302.9088297415
 10
469.3467511907
 20
302.276131811
 10
469.7527490053
 20
301.7091861787
 10
470.2278717801
 20
301.2634894332
 10
470.7256111876
 20
300.9826694773
 10
471.1972450266
 20
300.8942149249
 10
471.596606491
 20
301.0067843238
 10
471.8846032979
 20
301.3093585971
 10
472.0172304103
 20
301.6777948999
  0
LWPOLYLINE
  5
166
330
1F
100
AcDbEntity
  8
0
  6
Continuous
 62
     8
370
    30
100
AcDbPolyline
 90
        6
 70
   128
 43
0.0
 10
470.138362972
 20
304.9324414114
 10
469.7205954456
 20
305.0014818409
 10
469.3212339813
 20
304.8889124419
 10
469.0332371743
 20
304.5863381687
 10
468.8847961588
 20
304.1233770991
 10
468.8904413754
 20
303.5453470885
  0
LWPOLYLINE
  5
167
330
1F
100
AcDbEntity
  8
0
  6
Continuous
 62
     8
370
    30
100
AcDbPolyline
 90
       15
 70
   128
 43
0.0
 10
470.1383629721
 20
275.5369721835
 10
469.723776784
 20
275.6060954149
 10
469.323745992
 20
275.4949537043
 10
469.0348339642
 20
275.193659262
 10
468.8853214229
 20
274.7317048874
 10
468.8898436974
 20
274.1543098932
 10
469.0479581159
 20
273.5179937245
 10
469.3441873374
 20
272.8850434413
 10
469.7495343819
 20
272.3174166274
 10
470.2243210564
 20
271.8706765501
 10
470.7220719331
 20
271.588553241
 10
471.1940636883
 20
271.498662895
 10
471.5940944803
 20
271.6098046057
 10
471.883006508
 20
271.911099048
 10
472.0172304103
 20
272.2823256721
  0
LINE
  5
168
330
1F
100
AcDbEntity
  8
0
  6
Continuous
 62
     7
370
    30
100
AcDbLine
 10
111.1777497162
 20
274.9313515972
 30
0.0
 11
109.8350643689
 21
275.461001851
 31
0.0
  0
LINE
  5
169
330
1F
100
AcDbEntity
  8
0
  6
Continuous
 62
     7
370
    30
100
AcDbLine
 10
109.8350643689
 20
275.461001851
 30
0.0
 11
108.7050311203
 21
274.5630273578
 31
0.0
  0
LINE
  5
16A
330
1F
100
AcDbEntity
  8
0
  6
Continuous
 62
     7
370
    30
100
AcDbLine
 10
108.7050311203
 20
274.5630273578
 30
0.0
 11
108.9176832191
 21
273.1354026108
 31
0.0
  0
LINE
  5
16B
330
1F
100
AcDbEntity
  8
0
  6
Continuous
 62
     7
370
    30
100
AcDbLine
 10
108.9176832191
 20
273.1354026108
 30
0.0
 11
110.2603685664
 21
272.605752357
 31
0.0
  0
LINE
  5
16C
330
1F
100
AcDbEntity
  8
0
  6
Continuous
 62
     7
370
    30
100
AcDbLine
 10
110.2603685664
 20
272.605752357
 30
0.0
 11
111.390401815
 21
273.5037268502
 31
0.0
  0
LINE
  5
16D
330
1F
100
AcDbEntity
  8
0
  6
Continuous
 62
     7
370
    30
100
AcDbLine
 10
111.390401815
 20
273.5037268502
 30
0.0
 11
111.1777497162
 21
274.9313515972
 31
0.0
  0
CIRCLE
  5
16E
330
1F
100
AcDbEntity
  8
0
  6
Continuous
 62
     7
370
    30
100
AcDbCircle
 10
110.0477164677
 20
274.033377104
 30
0.0
 40
2.250000000000056
  0
CIRCLE
  5
16F
330
1F
100
AcDbEntity
  8
0
  6
Continuous
 62
     7
370
    30
100
AcDbCircle
 10
110.0477164677
 20
274.033377104
 30
0.0
 40
2.750000000000031
  0
LINE
  5
170
330
1F
100
AcDbEntity
  8
0
  6
Continuous
 62
     7
370
    30
100
AcDbLine
 10
111.2551081009
 20
309.2424670096
 30
0.0
 11
111.3363605181
 21
310.6835538835
 31
0.0
  0
LINE
  5
171
330
1F
100
AcDbEntity
  8
0
  6
Continuous
 62
     7
370
    30
100
AcDbLine
 10
111.3363605181
 20
310.6835538835
 30
0.0
 11
110.1289688849
 21
311.4744639778
 31
0.0
  0
LINE
  5
172
330
1F
100
AcDbEntity
  8
0
  6
Continuous
 62
     7
370
    30
100
AcDbLine
 10
110.1289688849
 20
311.4744639778
 30
0.0
 11
108.8403248344
 21
310.8242871983
 31
0.0
  0
LINE
  5
173
330
1F
100
AcDbEntity
  8
0
  6
Continuous
 62
     7
370
    30
100
AcDbLine
 10
108.8403248344
 20
310.8242871983
 30
0.0
 11
108.7590724172
 21
309.3832003244
 31
0.0
  0
LINE
  5
174
330
1F
100
AcDbEntity
  8
0
  6
Continuous
 62
     7
370
    30
100
AcDbLine
 10
108.7590724172
 20
309.3832003244
 30
0.0
 11
109.9664640505
 21
308.5922902301
 31
0.0
  0
LINE
  5
175
330
1F
100
AcDbEntity
  8
0
  6
Continuous
 62
     7
370
    30
100
AcDbLine
 10
109.9664640505
 20
308.5922902301
 30
0.0
 11
111.2551081009
 21
309.2424670096
 31
0.0
  0
CIRCLE
  5
176
330
1F
100
AcDbEntity
  8
0
  6
Continuous
 62
     7
370
    30
100
AcDbCircle
 10
110.0477164677
 20
310.033377104
 30
0.0
 40
2.250000000000012
  0
CIRCLE
  5
177
330
1F
100
AcDbEntity
  8
0
  6
Continuous
 62
     7
370
    30
100
AcDbCircle
 10
110.0477164677
 20
310.033377104
 30
0.0
 40
2.75
  0
LINE
  5
178
330
1F
100
AcDbEntity
  8
0
  6
Continuous
 62
     7
370
    30
100
AcDbLine
 10
176.6944296193
 20
310.5353213631
 30
0.0
 11
176.9363765638
 21
309.1123684442
 31
0.0
  0
LINE
  5
179
330
1F
100
AcDbEntity
  8
0
  6
Continuous
 62
     7
370
    30
100
AcDbLine
 10
176.9363765638
 20
309.1123684442
 30
0.0
 11
178.2896634122
 21
308.6104241851
 31
0.0
  0
LINE
  5
17A
330
1F
100
AcDbEntity
  8
0
  6
Continuous
 62
     7
370
    30
100
AcDbLine
 10
178.2896634122
 20
308.6104241851
 30
0.0
 11
179.4010033161
 21
309.5314328448
 31
0.0
  0
LINE
  5
17B
330
1F
100
AcDbEntity
  8
0
  6
Continuous
 62
     7
370
    30
100
AcDbLine
 10
179.4010033161
 20
309.5314328448
 30
0.0
 11
179.1590563716
 21
310.9543857637
 31
0.0
  0
LINE
  5
17C
330
1F
100
AcDbEntity
  8
0
  6
Continuous
 62
     7
370
    30
100
AcDbLine
 10
179.1590563716
 20
310.9543857637
 30
0.0
 11
177.8057695232
 21
311.4563300229
 31
0.0
  0
LINE
  5
17D
330
1F
100
AcDbEntity
  8
0
  6
Continuous
 62
     7
370
    30
100
AcDbLine
 10
177.8057695232
 20
311.4563300229
 30
0.0
 11
176.6944296193
 21
310.5353213631
 31
0.0
  0
CIRCLE
  5
17E
330
1F
100
AcDbEntity
  8
0
  6
Continuous
 62
     7
370
    30
100
AcDbCircle
 10
178.0477164677
 20
310.033377104
 30
0.0
 40
2.250000000000016
  0
CIRCLE
  5
17F
330
1F
100
AcDbEntity
  8
0
  6
Continuous
 62
     7
370
    30
100
AcDbCircle
 10
178.0477164677
 20
310.033377104
 30
0.0
 40
2.75
  0
LINE
  5
180
330
1F
100
AcDbEntity
  8
0
  6
Continuous
 62
     7
370
    30
100
AcDbLine
 10
179.4897408463
 20
273.9709349336
 30
0.0
 11
178.8228051628
 21
275.2509857636
 31
0.0
  0
LINE
  5
181
330
1F
100
AcDbEntity
  8
0
  6
Continuous
 62
     7
370
    30
100
AcDbLine
 10
178.8228051628
 20
275.2509857636
 30
0.0
 11
177.3807807841
 21
275.313427934
 31
0.0
  0
LINE
  5
182
330
1F
100
AcDbEntity
  8
0
  6
Continuous
 62
     7
370
    30
100
AcDbLine
 10
177.3807807841
 20
275.313427934
 30
0.0
 11
176.605692089
 21
274.0958192743
 31
0.0
  0
LINE
  5
183
330
1F
100
AcDbEntity
  8
0
  6
Continuous
 62
     7
370
    30
100
AcDbLine
 10
176.605692089
 20
274.0958192743
 30
0.0
 11
177.2726277725
 21
272.8157684443
 31
0.0
  0
LINE
  5
184
330
1F
100
AcDbEntity
  8
0
  6
Continuous
 62
     7
370
    30
100
AcDbLine
 10
177.2726277725
 20
272.8157684443
 30
0.0
 11
178.7146521512
 21
272.753326274
 31
0.0
  0
LINE
  5
185
330
1F
100
AcDbEntity
  8
0
  6
Continuous
 62
     7
370
    30
100
AcDbLine
 10
178.7146521512
 20
272.753326274
 30
0.0
 11
179.4897408463
 21
273.9709349336
 31
0.0
  0
CIRCLE
  5
186
330
1F
100
AcDbEntity
  8
0
  6
Continuous
 62
     7
370
    30
100
AcDbCircle
 10
178.0477164677
 20
274.033377104
 30
0.0
 40
2.250000000000035
  0
CIRCLE
  5
187
330
1F
100
AcDbEntity
  8
0
  6
Continuous
 62
     7
370
    30
100
AcDbCircle
 10
178.0477164677
 20
274.033377104
 30
0.0
 40
2.750000000000043
  0
CIRCLE
  5
188
330
1F
100
AcDbEntity
  8
0
  6
Continuous
 62
     7
370
    30
100
AcDbCircle
 10
144.0477164677
 20
292.033377104
 30
0.0
 40
11.0
  0
LINE
  5
189
330
1F
100
AcDbEntity
  8
0
  6
Continuous
 62
     7
370
    30
100
AcDbLine
 10
106.0477164677
 20
249.033377104
 30
0.0
 11
182.0477164677
 21
249.033377104
 31
0.0
  0
LINE
  5
18A
330
1F
100
AcDbEntity
  8
0
  6
Continuous
 62
     7
370
    30
100
AcDbLine
 10
106.0477164677
 20
335.033377104
 30
0.0
 11
106.0477164677
 21
249.033377104
 31
0.0
  0
LINE
  5
18B
330
1F
100
AcDbEntity
  8
0
  6
Continuous
 62
     7
370
    30
100
AcDbLine
 10
182.0477164677
 20
335.033377104
 30
0.0
 11
106.0477164677
 21
335.033377104
 31
0.0
  0
LINE
  5
18C
330
1F
100
AcDbEntity
  8
0
  6
Continuous
 62
     7
370
    30
100
AcDbLine
 10
182.0477164677
 20
249.033377104
 30
0.0
 11
182.0477164677
 21
335.033377104
 31
0.0
  0
CIRCLE
  5
18D
330
1F
100
AcDbEntity
  8
0
  6
Continuous
 62
     7
370
    30
100
AcDbCircle
 10
110.0477164677
 20
310.033377104
 30
0.0
 40
3.250000000000014
  0
CIRCLE
  5
18E
330
1F
100
AcDbEntity
  8
0
  6
Continuous
 62
     7
370
    30
100
AcDbCircle
 10
110.0477164677
 20
274.033377104
 30
0.0
 40
3.250000000000014
  0
CIRCLE
  5
18F
330
1F
100
AcDbEntity
  8
0
  6
Continuous
 62
     7
370
    30
100
AcDbCircle
 10
178.0477164677
 20
310.033377104
 30
0.0
 40
3.25
  0
CIRCLE
  5
190
330
1F
100
AcDbEntity
  8
0
  6
Continuous
 62
     7
370
    30
100
AcDbCircle
 10
178.0477164677
 20
274.033377104
 30
0.0
 40
3.25
  0
CIRCLE
  5
191
330
1F
100
AcDbEntity
  8
0
  6
Continuous
 62
     7
370
    30
100
AcDbCircle
 10
144.0477164677
 20
317.433377104
 30
0.0
 40
2.552700000000016
  0
CIRCLE
  5
192
330
1F
100
AcDbEntity
  8
0
  6
Continuous
 62
     7
370
    30
100
AcDbCircle
 10
169.4477164677
 20
292.033377104
 30
0.0
 40
2.552700000000044
  0
CIRCLE
  5
193
330
1F
100
AcDbEntity
  8
0
  6
Continuous
 62
     7
370
    30
100
AcDbCircle
 10
144.0477164677
 20
266.633377104
 30
0.0
 40
2.552700000000016
  0
CIRCLE
  5
194
330
1F
100
AcDbEntity
  8
0
  6
Continuous
 62
     7
370
    30
100
AcDbCircle
 10
118.6477164677
 20
292.033377104
 30
0.0
 40
2.552699999999987
  0
CIRCLE
  5
195
330
1F
100
AcDbEntity
  8
0
  6
Continuous
 62
     7
370
    30
100
AcDbCircle
 10
169.4477164677
 20
317.433377104
 30
0.0
 40
3.499999999999972
  0
CIRCLE
  5
196
330
1F
100
AcDbEntity
  8
0
  6
Continuous
 62
     7
370
    30
100
AcDbCircle
 10
118.6477164677
 20
317.433377104
 30
0.0
 40
3.499999999999986
  0
CIRCLE
  5
197
330
1F
100
AcDbEntity
  8
0
  6
Continuous
 62
     7
370
    30
100
AcDbCircle
 10
118.6477164677
 20
266.633377104
 30
0.0
 40
3.499999999999986
  0
CIRCLE
  5
198
330
1F
100
AcDbEntity
  8
0
  6
Continuous
 62
     7
370
    30
100
AcDbCircle
 10
169.4477164677
 20
266.633377104
 30
0.0
 40
3.499999999999972
  0
LINE
  5
199
330
1F
100
AcDbEntity
  8
0
  6
Continuous
 62
     7
370
    30
100
AcDbLine
 10
182.0477164677
 20
241.033377104
 30
0.0
 11
182.0477164677
 21
249.033377104
 31
0.0
  0
LINE
  5
19A
330
1F
100
AcDbEntity
  8
0
  6
Continuous
 62
     7
370
    30
100
AcDbLine
 10
182.0477164677
 20
241.033377104
 30
0.0
 11
106.0477164677
 21
241.033377104
 31
0.0
  0
LINE
  5
19B
330
1F
100
AcDbEntity
  8
0
  6
Continuous
 62
     7
370
    30
100
AcDbLine
 10
106.0477164677
 20
241.033377104
 30
0.0
 11
106.0477164677
 21
249.033377104
 31
0.0
  0
DIMENSION
  5
19C
330
1F
100
AcDbEntity
  8
SLD-0
100
AcDbDimension
  2
_D
 10
76.8662054123
 20
335.033377104
 30
0.0
 11
76.8662054123
 21
313.533377104
 31
0.0
 70
   160
  1
<>
 71
     2
 42
-1.0
  3
SLDDIMSTYLE0
100
AcDbAlignedDimension
 13
132.0477164677
 23
292.033377104
 33
0.0
 14
106.0477164677
 24
335.033377104
 34
0.0
 50
90.0
100
AcDbRotatedDimension
  0
DIMENSION
  5
1A7
330
1F
100
AcDbEntity
  8
SLD-0
100
AcDbDimension
  2
_D_1
 10
137.0392218472
 20
283.5551105857
 30
0.0
 11
211.0010027773
 21
355.5507379104
 31
0.0
 70
   163
  1
ACCEPTS\P %%c1" OPTICS\PMax.THK 6
 71
     1
 42
-1.0
  3
SLDDIMSTYLE1
100
AcDbDiametricDimension
 15
151.0562110881
 25
300.5116436223
 35
0.0
 40
0.0
  0
DIMENSION
  5
1B4
330
1F
100
AcDbEntity
  8
SLD-0
100
AcDbDimension
  2
_D_2
 10
144.0477164677
 20
345.9356432037
 30
0.0
 11
131.3477164677
 21
345.9356432037
 31
0.0
 70
   160
  1
<>
 71
     2
 42
-1.0
  3
SLDDIMSTYLE0
100
AcDbAlignedDimension
 13
118.6477164677
 23
317.433377104
 33
0.0
 14
144.0477164677
 24
304.033377104
 34
0.0
100
AcDbRotatedDimension
  0
DIMENSION
  5
1BE
330
1F
100
AcDbEntity
  8
SLD-0
100
AcDbDimension
  2
_D_3
 10
169.4477164677
 20
345.9356432037
 30
0.0
 11
156.7477164677
 21
345.9356432037
 31
0.0
 70
   160
  1
<>
 71
     2
 42
-1.0
  3
SLDDIMSTYLE0
100
AcDbAlignedDimension
 13
144.0477164677
 23
304.033377104
 33
0.0
 14
169.4477164677
 24
317.433377104
 34
0.0
100
AcDbRotatedDimension
  0
DIMENSION
  5
1C8
330
1F
100
AcDbEntity
  8
SLD-0
100
AcDbDimension
  2
_D_4
 10
167.0994345952
 20
291.0324527625
 30
0.0
 11
211.0010027773
 21
309.7625473351
 31
0.0
 70
   163
  1
4 HOLES,\P 1/4"-20
 71
     1
 42
-1.0
  3
SLDDIMSTYLE1
100
AcDbDiametricDimension
 15
171.7959983402
 25
293.0343014454
 35
0.0
 40
0.0
  0
DIMENSION
  5
1D1
330
1F
100
AcDbEntity
  8
SLD-0
100
AcDbDimension
  2
_D_5
 10
94.3421800606
 20
292.033377104
 30
0.0
 11
94.3421800606
 21
304.733377104
 31
0.0
 70
   160
  1
<>
 71
     2
 42
-1.0
  3
SLDDIMSTYLE0
100
AcDbAlignedDimension
 13
114.1477164677
 23
317.433377104
 33
0.0
 14
132.0477164677
 24
292.033377104
 34
0.0
 50
90.0
100
AcDbRotatedDimension
  0
DIMENSION
  5
1DB
330
1F
100
AcDbEntity
  8
SLD-0
100
AcDbDimension
  2
_D_6
 10
94.3421800606
 20
292.033377104
 30
0.0
 11
94.3421800606
 21
279.333377104
 31
0.0
 70
   160
  1
<>
 71
     2
 42
-1.0
  3
SLDDIMSTYLE0
100
AcDbAlignedDimension
 13
114.1477164677
 23
266.633377104
 33
0.0
 14
132.0477164677
 24
292.033377104
 34
0.0
 50
90.0
100
AcDbRotatedDimension
  0
DIMENSION
  5
1E5
330
1F
100
AcDbEntity
  8
SLD-0
100
AcDbDimension
  2
_D_7
 10
121.2350760038
 20
268.9904029059
 30
0.0
 11
76.8662054123
 21
255.2641915072
 31
0.0
 70
   163
  1
4-<> HOLES.
 71
     1
 42
-1.0
  3
SLDDIMSTYLE2
100
AcDbDiametricDimension
 15
116.0603569316
 25
264.276351302
 35
0.0
 40
0.0
  0
DIMENSION
  5
1F1
330
1F
100
AcDbEntity
  8
SLD-0
100
AcDbDimension
  2
_D_8
 10
136.8438000689
 20
300.3462339246
 30
0.0
 11
82.6735850191
 21
347.8771272101
 31
0.0
 70
   163
  1
C.A.<>
 71
     1
 42
-1.0
  3
SLDDIMSTYLE3
100
AcDbDiametricDimension
 15
151.2516328664
 25
283.7205202834
 35
0.0
 40
0.0
  0
INSERT
  5
209
330
1F
100
AcDbEntity
  8
SLD-0
100
AcDbBlockReference
  2
SW_CENTERMARKSYMBOL_0
 10
144.0477164677
 20
292.033377104
 30
0.0
  0
INSERT
  5
215
330
1F
100
AcDbEntity
  8
SLD-0
100
AcDbBlockReference
  2
SW_CENTERMARKSYMBOL_1
 10
118.6477164677
 20
317.433377104
 30
0.0
  0
INSERT
  5
221
330
1F
100
AcDbEntity
  8
SLD-0
100
AcDbBlockReference
  2
SW_CENTERMARKSYMBOL_2
 10
169.4477164677
 20
317.433377104
 30
0.0
  0
INSERT
  5
22D
330
1F
100
AcDbEntity
  8
SLD-0
100
AcDbBlockReference
  2
SW_CENTERMARKSYMBOL_3
 10
169.4477164677
 20
292.033377104
 30
0.0
  0
INSERT
  5
239
330
1F
100
AcDbEntity
  8
SLD-0
100
AcDbBlockReference
  2
SW_CENTERMARKSYMBOL_4
 10
118.6477164677
 20
292.033377104
 30
0.0
  0
INSERT
  5
245
330
1F
100
AcDbEntity
  8
SLD-0
100
AcDbBlockReference
  2
SW_CENTERMARKSYMBOL_5
 10
118.6477164677
 20
266.633377104
 30
0.0
  0
INSERT
  5
251
330
1F
100
AcDbEntity
  8
SLD-0
100
AcDbBlockReference
  2
SW_CENTERMARKSYMBOL_6
 10
144.0477164677
 20
266.633377104
 30
0.0
  0
INSERT
  5
25D
330
1F
100
AcDbEntity
  8
SLD-0
100
AcDbBlockReference
  2
SW_CENTERMARKSYMBOL_7
 10
169.4477164677
 20
266.633377104
 30
0.0
  0
INSERT
  5
269
330
1F
100
AcDbEntity
  8
SLD-0
100
AcDbBlockReference
  2
SW_CENTERMARKSYMBOL_8
 10
144.0477164677
 20
317.433377104
 30
0.0
  0
CIRCLE
  5
26A
330
1F
100
AcDbEntity
  8
0
  6
Continuous
 62
     7
370
    30
100
AcDbCircle
 10
162.0477164677
 20
170.7355369964
 30
0.0
 40
2.750000000000004
  0
CIRCLE
  5
26B
330
1F
100
AcDbEntity
  8
0
  6
Continuous
 62
     7
370
    30
100
AcDbCircle
 10
162.0477164677
 20
170.7355369964
 30
0.0
 40
2.25000000000005
  0
LINE
  5
26C
330
1F
100
AcDbEntity
  8
0
  6
Continuous
 62
     7
370
    30
100
AcDbLine
 10
160.6717079714
 20
170.2997228714
 30
0.0
 11
161.7371383231
 21
169.3259716203
 31
0.0
  0
LINE
  5
26D
330
1F
100
AcDbEntity
  8
0
  6
Continuous
 62
     7
370
    30
100
AcDbLine
 10
161.7371383231
 20
169.3259716203
 30
0.0
 11
163.1131468194
 21
169.7617857453
 31
0.0
  0
LINE
  5
26E
330
1F
100
AcDbEntity
  8
0
  6
Continuous
 62
     7
370
    30
100
AcDbLine
 10
163.1131468194
 20
169.7617857453
 30
0.0
 11
163.4237249639
 21
171.1713511214
 31
0.0
  0
LINE
  5
26F
330
1F
100
AcDbEntity
  8
0
  6
Continuous
 62
     7
370
    30
100
AcDbLine
 10
163.4237249639
 20
171.1713511214
 30
0.0
 11
162.3582946122
 21
172.1451023725
 31
0.0
  0
LINE
  5
270
330
1F
100
AcDbEntity
  8
0
  6
Continuous
 62
     7
370
    30
100
AcDbLine
 10
162.3582946122
 20
172.1451023725
 30
0.0
 11
160.982286116
 21
171.7092882475
 31
0.0
  0
LINE
  5
271
330
1F
100
AcDbEntity
  8
0
  6
Continuous
 62
     7
370
    30
100
AcDbLine
 10
160.982286116
 20
171.7092882475
 30
0.0
 11
160.6717079714
 21
170.2997228714
 31
0.0
  0
CIRCLE
  5
272
330
1F
100
AcDbEntity
  8
0
  6
Continuous
 62
     7
370
    30
100
AcDbCircle
 10
110.0477164677
 20
104.7355369964
 30
0.0
 40
2.750000000000019
  0
CIRCLE
  5
273
330
1F
100
AcDbEntity
  8
0
  6
Continuous
 62
     7
370
    30
100
AcDbCircle
 10
110.0477164677
 20
104.7355369964
 30
0.0
 40
2.250000000000003
  0
LINE
  5
274
330
1F
100
AcDbEntity
  8
0
  6
Continuous
 62
     7
370
    30
100
AcDbLine
 10
108.6166146311
 20
104.9233690136
 30
0.0
 11
109.1694982509
 21
103.5900824591
 31
0.0
  0
LINE
  5
275
330
1F
100
AcDbEntity
  8
0
  6
Continuous
 62
     7
370
    30
100
AcDbLine
 10
109.1694982509
 20
103.5900824591
 30
0.0
 11
110.6006000875
 21
103.402250442
 31
0.0
  0
LINE
  5
276
330
1F
100
AcDbEntity
  8
0
  6
Continuous
 62
     7
370
    30
100
AcDbLine
 10
110.6006000875
 20
103.402250442
 30
0.0
 11
111.4788183042
 21
104.5477049793
 31
0.0
  0
LINE
  5
277
330
1F
100
AcDbEntity
  8
0
  6
Continuous
 62
     7
370
    30
100
AcDbLine
 10
111.4788183042
 20
104.5477049793
 30
0.0
 11
110.9259346844
 21
105.8809915337
 31
0.0
  0
LINE
  5
278
330
1F
100
AcDbEntity
  8
0
  6
Continuous
 62
     7
370
    30
100
AcDbLine
 10
110.9259346844
 20
105.8809915337
 30
0.0
 11
109.4948328479
 21
106.0688235509
 31
0.0
  0
LINE
  5
279
330
1F
100
AcDbEntity
  8
0
  6
Continuous
 62
     7
370
    30
100
AcDbLine
 10
109.4948328479
 20
106.0688235509
 30
0.0
 11
108.6166146311
 21
104.9233690136
 31
0.0
  0
LINE
  5
27A
330
1F
100
AcDbEntity
  8
0
  6
Continuous
 62
     7
370
    30
100
AcDbLine
 10
108.6166146311
 20
140.9233690136
 30
0.0
 11
109.1694982509
 21
139.5900824591
 31
0.0
  0
LINE
  5
27B
330
1F
100
AcDbEntity
  8
0
  6
Continuous
 62
     7
370
    30
100
AcDbLine
 10
109.1694982509
 20
139.5900824591
 30
0.0
 11
110.6006000875
 21
139.402250442
 31
0.0
  0
LINE
  5
27C
330
1F
100
AcDbEntity
  8
0
  6
Continuous
 62
     7
370
    30
100
AcDbLine
 10
110.6006000875
 20
139.402250442
 30
0.0
 11
111.4788183042
 21
140.5477049793
 31
0.0
  0
LINE
  5
27D
330
1F
100
AcDbEntity
  8
0
  6
Continuous
 62
     7
370
    30
100
AcDbLine
 10
111.4788183042
 20
140.5477049793
 30
0.0
 11
110.9259346844
 21
141.8809915337
 31
0.0
  0
LINE
  5
27E
330
1F
100
AcDbEntity
  8
0
  6
Continuous
 62
     7
370
    30
100
AcDbLine
 10
110.9259346844
 20
141.8809915337
 30
0.0
 11
109.4948328479
 21
142.0688235509
 31
0.0
  0
LINE
  5
27F
330
1F
100
AcDbEntity
  8
0
  6
Continuous
 62
     7
370
    30
100
AcDbLine
 10
109.4948328479
 20
142.0688235509
 30
0.0
 11
108.6166146311
 21
140.9233690136
 31
0.0
  0
CIRCLE
  5
280
330
1F
100
AcDbEntity
  8
0
  6
Continuous
 62
     7
370
    30
100
AcDbCircle
 10
110.0477164677
 20
140.7355369964
 30
0.0
 40
2.250000000000013
  0
CIRCLE
  5
281
330
1F
100
AcDbEntity
  8
0
  6
Continuous
 62
     7
370
    30
100
AcDbCircle
 10
110.0477164677
 20
140.7355369964
 30
0.0
 40
2.750000000000024
  0
CIRCLE
  5
282
330
1F
100
AcDbEntity
  8
0
  6
Continuous
 62
     7
370
    30
100
AcDbCircle
 10
178.0477164677
 20
104.7355369964
 30
0.0
 40
2.750000000000031
  0
CIRCLE
  5
283
330
1F
100
AcDbEntity
  8
0
  6
Continuous
 62
     7
370
    30
100
AcDbCircle
 10
178.0477164677
 20
104.7355369964
 30
0.0
 40
2.250000000000021
  0
LINE
  5
284
330
1F
100
AcDbEntity
  8
0
  6
Continuous
 62
     7
370
    30
100
AcDbLine
 10
176.6512133881
 20
105.1003828297
 30
0.0
 11
177.0334991678
 21
103.7085527697
 31
0.0
  0
LINE
  5
285
330
1F
100
AcDbEntity
  8
0
  6
Continuous
 62
     7
370
    30
100
AcDbLine
 10
177.0334991678
 20
103.7085527697
 30
0.0
 11
178.4300022474
 21
103.3437069364
 31
0.0
  0
LINE
  5
286
330
1F
100
AcDbEntity
  8
0
  6
Continuous
 62
     7
370
    30
100
AcDbLine
 10
178.4300022474
 20
103.3437069364
 30
0.0
 11
179.4442195472
 21
104.3706911631
 31
0.0
  0
LINE
  5
287
330
1F
100
AcDbEntity
  8
0
  6
Continuous
 62
     7
370
    30
100
AcDbLine
 10
179.4442195472
 20
104.3706911631
 30
0.0
 11
179.0619337675
 21
105.7625212231
 31
0.0
  0
LINE
  5
288
330
1F
100
AcDbEntity
  8
0
  6
Continuous
 62
     7
370
    30
100
AcDbLine
 10
179.0619337675
 20
105.7625212231
 30
0.0
 11
177.665430688
 21
106.1273670564
 31
0.0
  0
LINE
  5
289
330
1F
100
AcDbEntity
  8
0
  6
Continuous
 62
     7
370
    30
100
AcDbLine
 10
177.665430688
 20
106.1273670564
 30
0.0
 11
176.6512133881
 21
105.1003828297
 31
0.0
  0
LINE
  5
28A
330
1F
100
AcDbEntity
  8
0
  6
Continuous
 62
     7
370
    30
100
AcDbLine
 10
126.3527943722
 20
172.1463030314
 30
0.0
 11
124.9784961948
 21
171.7051252293
 31
0.0
  0
LINE
  5
28B
330
1F
100
AcDbEntity
  8
0
  6
Continuous
 62
     7
370
    30
100
AcDbLine
 10
124.9784961948
 20
171.7051252293
 30
0.0
 11
124.6734182903
 21
170.2943591943
 31
0.0
  0
LINE
  5
28C
330
1F
100
AcDbEntity
  8
0
  6
Continuous
 62
     7
370
    30
100
AcDbLine
 10
124.6734182903
 20
170.2943591943
 30
0.0
 11
125.7426385632
 21
169.3247709614
 31
0.0
  0
LINE
  5
28D
330
1F
100
AcDbEntity
  8
0
  6
Continuous
 62
     7
370
    30
100
AcDbLine
 10
125.7426385632
 20
169.3247709614
 30
0.0
 11
127.1169367405
 21
169.7659487635
 31
0.0
  0
LINE
  5
28E
330
1F
100
AcDbEntity
  8
0
  6
Continuous
 62
     7
370
    30
100
AcDbLine
 10
127.1169367405
 20
169.7659487635
 30
0.0
 11
127.422014645
 21
171.1767147985
 31
0.0
  0
LINE
  5
28F
330
1F
100
AcDbEntity
  8
0
  6
Continuous
 62
     7
370
    30
100
AcDbLine
 10
127.422014645
 20
171.1767147985
 30
0.0
 11
126.3527943722
 21
172.1463030314
 31
0.0
  0
CIRCLE
  5
290
330
1F
100
AcDbEntity
  8
0
  6
Continuous
 62
     7
370
    30
100
AcDbCircle
 10
126.0477164677
 20
170.7355369964
 30
0.0
 40
2.250000000000002
  0
CIRCLE
  5
291
330
1F
100
AcDbEntity
  8
0
  6
Continuous
 62
     7
370
    30
100
AcDbCircle
 10
126.0477164677
 20
170.7355369964
 30
0.0
 40
2.749999999999976
  0
CIRCLE
  5
292
330
1F
100
AcDbEntity
  8
0
  6
Continuous
 62
     7
370
    30
100
AcDbCircle
 10
178.0477164677
 20
140.7355369964
 30
0.0
 40
2.750000000000021
  0
CIRCLE
  5
293
330
1F
100
AcDbEntity
  8
0
  6
Continuous
 62
     7
370
    30
100
AcDbCircle
 10
178.0477164677
 20
140.7355369964
 30
0.0
 40
2.250000000000002
  0
LINE
  5
294
330
1F
100
AcDbEntity
  8
0
  6
Continuous
 62
     7
370
    30
100
AcDbLine
 10
176.8730531515
 20
139.8967882694
 30
0.0
 11
178.1867625146
 21
139.2988743602
 31
0.0
  0
LINE
  5
295
330
1F
100
AcDbEntity
  8
0
  6
Continuous
 62
     7
370
    30
100
AcDbLine
 10
178.1867625146
 20
139.2988743602
 30
0.0
 11
179.3614258307
 21
140.1376230873
 31
0.0
  0
LINE
  5
296
330
1F
100
AcDbEntity
  8
0
  6
Continuous
 62
     7
370
    30
100
AcDbLine
 10
179.3614258307
 20
140.1376230873
 30
0.0
 11
179.2223797838
 21
141.5742857234
 31
0.0
  0
LINE
  5
297
330
1F
100
AcDbEntity
  8
0
  6
Continuous
 62
     7
370
    30
100
AcDbLine
 10
179.2223797838
 20
141.5742857234
 30
0.0
 11
177.9086704207
 21
142.1721996326
 31
0.0
  0
LINE
  5
298
330
1F
100
AcDbEntity
  8
0
  6
Continuous
 62
     7
370
    30
100
AcDbLine
 10
177.9086704207
 20
142.1721996326
 30
0.0
 11
176.7340071046
 21
141.3334509055
 31
0.0
  0
LINE
  5
299
330
1F
100
AcDbEntity
  8
0
  6
Continuous
 62
     7
370
    30
100
AcDbLine
 10
176.7340071046
 20
141.3334509055
 30
0.0
 11
176.8730531515
 21
139.8967882694
 31
0.0
  0
LINE
  5
29A
330
1F
100
AcDbEntity
  8
0
  6
Continuous
 62
     7
370
    30
100
AcDbLine
 10
106.0477164677
 20
79.7355369964
 30
0.0
 11
182.0477164677
 21
79.7355369964
 31
0.0
  0
LINE
  5
29B
330
1F
100
AcDbEntity
  8
0
  6
Continuous
 62
     7
370
    30
100
AcDbLine
 10
106.0477164677
 20
175.7355369964
 30
0.0
 11
106.0477164677
 21
79.7355369964
 31
0.0
  0
LINE
  5
29C
330
1F
100
AcDbEntity
  8
0
  6
Continuous
 62
     7
370
    30
100
AcDbLine
 10
182.0477164677
 20
175.7355369964
 30
0.0
 11
106.0477164677
 21
175.7355369964
 31
0.0
  0
LINE
  5
29D
330
1F
100
AcDbEntity
  8
0
  6
Continuous
 62
     7
370
    30
100
AcDbLine
 10
182.0477164677
 20
79.7355369964
 30
0.0
 11
182.0477164677
 21
175.7355369964
 31
0.0
  0
CIRCLE
  5
29E
330
1F
100
AcDbEntity
  8
0
  6
Continuous
 62
     7
370
    30
100
AcDbCircle
 10
126.0477164677
 20
170.7355369964
 30
0.0
 40
3.25
  0
CIRCLE
  5
29F
330
1F
100
AcDbEntity
  8
0
  6
Continuous
 62
     7
370
    30
100
AcDbCircle
 10
110.0477164677
 20
104.7355369964
 30
0.0
 40
3.250000000000014
  0
CIRCLE
  5
2A0
330
1F
100
AcDbEntity
  8
0
  6
Continuous
 62
     7
370
    30
100
AcDbCircle
 10
110.0477164677
 20
140.7355369964
 30
0.0
 40
3.250000000000014
  0
CIRCLE
  5
2A1
330
1F
100
AcDbEntity
  8
0
  6
Continuous
 62
     7
370
    30
100
AcDbCircle
 10
178.0477164677
 20
140.7355369964
 30
0.0
 40
3.25
  0
CIRCLE
  5
2A2
330
1F
100
AcDbEntity
  8
0
  6
Continuous
 62
     7
370
    30
100
AcDbCircle
 10
178.0477164677
 20
104.7355369964
 30
0.0
 40
3.25
  0
CIRCLE
  5
2A3
330
1F
100
AcDbEntity
  8
0
  6
Continuous
 62
     7
370
    30
100
AcDbCircle
 10
162.0477164677
 20
170.7355369964
 30
0.0
 40
3.25
  0
CIRCLE
  5
2A4
330
1F
100
AcDbEntity
  8
0
  6
Continuous
 62
     7
370
    30
100
AcDbCircle
 10
144.0477164677
 20
148.1355369964
 30
0.0
 40
2.552699999999987
  0
CIRCLE
  5
2A5
330
1F
100
AcDbEntity
  8
0
  6
Continuous
 62
     7
370
    30
100
AcDbCircle
 10
144.0477164677
 20
122.7355369964
 30
0.0
 40
2.552699999999987
  0
CIRCLE
  5
2A6
330
1F
100
AcDbEntity
  8
0
  6
Continuous
 62
     7
370
    30
100
AcDbCircle
 10
144.0477164677
 20
97.3355369964
 30
0.0
 40
2.552699999999987
  0
CIRCLE
  5
2A7
330
1F
100
AcDbEntity
  8
0
  6
Continuous
 62
     7
370
    30
100
AcDbCircle
 10
169.4477164677
 20
122.7355369964
 30
0.0
 40
2.552699999999987
  0
CIRCLE
  5
2A8
330
1F
100
AcDbEntity
  8
0
  6
Continuous
 62
     7
370
    30
100
AcDbCircle
 10
118.6477164677
 20
122.7355369964
 30
0.0
 40
2.552699999999987
  0
CIRCLE
  5
2A9
330
1F
100
AcDbEntity
  8
0
  6
Continuous
 62
     7
370
    30
100
AcDbCircle
 10
156.7477164677
 20
135.4355369964
 30
0.0
 40
1.727200000000011
  0
CIRCLE
  5
2AA
330
1F
100
AcDbEntity
  8
0
  6
Continuous
 62
     7
370
    30
100
AcDbCircle
 10
131.3477164677
 20
135.4355369964
 30
0.0
 40
1.727199999999982
  0
CIRCLE
  5
2AB
330
1F
100
AcDbEntity
  8
0
  6
Continuous
 62
     7
370
    30
100
AcDbCircle
 10
131.3477164677
 20
110.0355369964
 30
0.0
 40
1.727199999999982
  0
CIRCLE
  5
2AC
330
1F
100
AcDbEntity
  8
0
  6
Continuous
 62
     7
370
    30
100
AcDbCircle
 10
156.7477164677
 20
110.0355369964
 30
0.0
 40
1.727200000000011
  0
CIRCLE
  5
2AD
330
1F
100
AcDbEntity
  8
0
  6
Continuous
 62
     7
370
    30
100
AcDbCircle
 10
169.4477164677
 20
97.3355369964
 30
0.0
 40
3.5
  0
CIRCLE
  5
2AE
330
1F
100
AcDbEntity
  8
0
  6
Continuous
 62
     7
370
    30
100
AcDbCircle
 10
118.6477164677
 20
97.3355369964
 30
0.0
 40
3.5
  0
CIRCLE
  5
2AF
330
1F
100
AcDbEntity
  8
0
  6
Continuous
 62
     7
370
    30
100
AcDbCircle
 10
118.6477164677
 20
148.1355369964
 30
0.0
 40
3.5
  0
CIRCLE
  5
2B0
330
1F
100
AcDbEntity
  8
0
  6
Continuous
 62
     7
370
    30
100
AcDbCircle
 10
169.4477164677
 20
148.1355369964
 30
0.0
 40
3.5
  0
DIMENSION
  5
2B1
330
1F
100
AcDbEntity
  8
SLD-0
100
AcDbDimension
  2
_D_9
 10
182.0477164677
 20
217.7355369964
 30
0.0
 11
144.0477164677
 21
217.7355369964
 31
0.0
 70
   160
  1
<>
 71
     2
 42
-1.0
  3
SLDDIMSTYLE0
100
AcDbAlignedDimension
 13
106.0477164677
 23
175.7355369964
 33
0.0
 14
182.0477164677
 24
175.7355369964
 34
0.0
100
AcDbRotatedDimension
  0
DIMENSION
  5
2BB
330
1F
100
AcDbEntity
  8
SLD-0
100
AcDbDimension
  2
_D_10
 10
53.7591873056
 20
79.7355369964
 30
0.0
 11
53.7591873056
 21
127.7355369964
 31
0.0
 70
   160
  1
<>
 71
     2
 42
-1.0
  3
SLDDIMSTYLE0
100
AcDbAlignedDimension
 13
106.0477164677
 23
175.7355369964
 33
0.0
 14
106.0477164677
 24
79.7355369964
 34
0.0
 50
90.0
100
AcDbRotatedDimension
  0
DIMENSION
  5
2C5
330
1F
100
AcDbEntity
  8
SLD-0
100
AcDbDimension
  2
_D_11
 10
92.0477164677
 20
135.4355369964
 30
0.0
 11
92.0477164677
 21
129.0855369964
 31
0.0
 70
   160
  1
<>
 71
     2
 42
-1.0
  3
SLDDIMSTYLE4
100
AcDbAlignedDimension
 13
115.0950164677
 23
122.7355369964
 33
0.0
 14
128.6205164677
 24
135.4355369964
 34
0.0
 50
90.0
100
AcDbRotatedDimension
  0
DIMENSION
  5
2D0
330
1F
100
AcDbEntity
  8
SLD-0
100
AcDbDimension
  2
_D_12
 10
167.2370134194
 20
121.4591869964
 30
0.0
 11
209.4065670004
 21
143.1091479295
 31
0.0
 70
   163
  1
5 HOLES,\P 1/4"-20
 71
     1
 42
-1.0
  3
SLDDIMSTYLE1
100
AcDbDiametricDimension
 15
171.6584195159
 25
124.0118869964
 35
0.0
 40
0.0
  0
DIMENSION
  5
2D9
330
1F
100
AcDbEntity
  8
SLD-0
100
AcDbDimension
  2
_D_13
 10
155.2519173902
 20
110.8991369964
 30
0.0
 11
217.5681006278
 21
92.964735874
 31
0.0
 70
   163
  1
4 HOLES,\P 8-32
 71
     1
 42
-1.0
  3
SLDDIMSTYLE1
100
AcDbDiametricDimension
 15
158.2435155451
 25
109.1719369964
 35
0.0
 40
0.0
  0
DIMENSION
  5
2E2
330
1F
100
AcDbEntity
  8
SLD-0
100
AcDbDimension
  2
_D_14
 10
166.8630486107
 20
145.7755598632
 30
0.0
 11
220.5080589849
 21
176.4710542674
 31
0.0
 70
   163
  1
4-<> HOLES.
 71
     1
 42
-1.0
  3
SLDDIMSTYLE2
100
AcDbDiametricDimension
 15
172.0323843246
 25
150.4955141296
 35
0.0
 40
0.0
  0
DIMENSION
  5
2ED
330
1F
100
AcDbEntity
  8
SLD-0
100
AcDbDimension
  2
_D_15
 10
131.3477164677
 20
189.7355369964
 30
0.0
 11
137.6977164677
 21
189.7355369964
 31
0.0
 70
   160
  1
<>
 71
     2
 42
-1.0
  3
SLDDIMSTYLE0
100
AcDbAlignedDimension
 13
144.0477164677
 23
151.6882369964
 33
0.0
 14
131.3477164677
 24
138.1627369964
 34
0.0
100
AcDbRotatedDimension
  0
DIMENSION
  5
2F7
330
1F
100
AcDbEntity
  8
SLD-0
100
AcDbDimension
  2
_D_16
 10
156.7477164677
 20
189.7355369964
 30
0.0
 11
150.3977164677
 21
189.7355369964
 31
0.0
 70
   160
  1
<>
 71
     2
 42
-1.0
  3
SLDDIMSTYLE0
100
AcDbAlignedDimension
 13
144.0477164677
 23
151.6882369964
 33
0.0
 14
156.7477164677
 24
138.1627369964
 34
0.0
100
AcDbRotatedDimension
  0
DIMENSION
  5
301
330
1F
100
AcDbEntity
  8
SLD-0
100
AcDbDimension
  2
_D_17
 10
169.4477164677
 20
203.7355369964
 30
0.0
 11
156.7477164677
 21
203.7355369964
 31
0.0
 70
   160
  1
<>
 71
     2
 42
-1.0
  3
SLDDIMSTYLE0
100
AcDbAlignedDimension
 13
144.0477164677
 23
151.6882369964
 33
0.0
 14
169.4477164677
 24
152.6355369964
 34
0.0
100
AcDbRotatedDimension
  0
DIMENSION
  5
30B
330
1F
100
AcDbEntity
  8
SLD-0
100
AcDbDimension
  2
_D_18
 10
118.6477164677
 20
203.7355369964
 30
0.0
 11
131.3477164677
 21
203.7355369964
 31
0.0
 70
   160
  1
<>
 71
     2
 42
-1.0
  3
SLDDIMSTYLE0
100
AcDbAlignedDimension
 13
144.0477164677
 23
151.6882369964
 33
0.0
 14
118.6477164677
 24
152.6355369964
 34
0.0
100
AcDbRotatedDimension
  0
DIMENSION
  5
315
330
1F
100
AcDbEntity
  8
SLD-0
100
AcDbDimension
  2
_D_19
 10
92.0477164677
 20
110.0355369964
 30
0.0
 11
92.0477164677
 21
116.3855369964
 31
0.0
 70
   160
  1
<>
 71
     2
 42
-1.0
  3
SLDDIMSTYLE0
100
AcDbAlignedDimension
 13
115.0950164677
 23
122.7355369964
 33
0.0
 14
128.6205164677
 24
110.0355369964
 34
0.0
 50
90.0
100
AcDbRotatedDimension
  0
DIMENSION
  5
31F
330
1F
100
AcDbEntity
  8
SLD-0
100
AcDbDimension
  2
_D_20
 10
78.0477164677
 20
97.3355369964
 30
0.0
 11
78.0477164677
 21
110.0355369964
 31
0.0
 70
   160
  1
<>
 71
     2
 42
-1.0
  3
SLDDIMSTYLE0
100
AcDbAlignedDimension
 13
115.0950164677
 23
122.7355369964
 33
0.0
 14
114.1477164677
 24
97.3355369964
 34
0.0
 50
90.0
100
AcDbRotatedDimension
  0
DIMENSION
  5
329
330
1F
100
AcDbEntity
  8
SLD-0
100
AcDbDimension
  2
_D_21
 10
78.0477164677
 20
148.1355369964
 30
0.0
 11
78.0477164677
 21
135.4355369964
 31
0.0
 70
   160
  1
<>
 71
     2
 42
-1.0
  3
SLDDIMSTYLE0
100
AcDbAlignedDimension
 13
115.0950164677
 23
122.7355369964
 33
0.0
 14
140.4950164677
 24
148.1355369964
 34
0.0
 50
90.0
100
AcDbRotatedDimension
  0
DIMENSION
  5
333
330
1F
100
AcDbEntity
  8
SLD-0
100
AcDbDimension
  2
_D_22
 10
64.0477164677
 20
79.7355369964
 30
0.0
 11
64.0477164677
 21
101.2355369964
 31
0.0
 70
   160
  1
<>
 71
     2
 42
-1.0
  3
SLDDIMSTYLE0
100
AcDbAlignedDimension
 13
115.0950164677
 23
122.7355369964
 33
0.0
 14
106.0477164677
 24
79.7355369964
 34
0.0
 50
90.0
100
AcDbRotatedDimension
  0
INSERT
  5
348
330
1F
100
AcDbEntity
  8
SLD-0
100
AcDbBlockReference
  2
SW_CENTERMARKSYMBOL_9
 10
118.6477164677
 20
148.1355369964
 30
0.0
  0
INSERT
  5
354
330
1F
100
AcDbEntity
  8
SLD-0
100
AcDbBlockReference
  2
SW_CENTERMARKSYMBOL_10
 10
169.4477164677
 20
148.1355369964
 30
0.0
  0
INSERT
  5
360
330
1F
100
AcDbEntity
  8
SLD-0
100
AcDbBlockReference
  2
SW_CENTERMARKSYMBOL_11
 10
156.7477164677
 20
135.4355369964
 30
0.0
  0
INSERT
  5
36C
330
1F
100
AcDbEntity
  8
SLD-0
100
AcDbBlockReference
  2
SW_CENTERMARKSYMBOL_12
 10
131.3477164677
 20
135.4355369964
 30
0.0
  0
INSERT
  5
378
330
1F
100
AcDbEntity
  8
SLD-0
100
AcDbBlockReference
  2
SW_CENTERMARKSYMBOL_13
 10
118.6477164677
 20
122.7355369964
 30
0.0
  0
INSERT
  5
384
330
1F
100
AcDbEntity
  8
SLD-0
100
AcDbBlockReference
  2
SW_CENTERMARKSYMBOL_14
 10
131.3477164677
 20
110.0355369964
 30
0.0
  0
INSERT
  5
390
330
1F
100
AcDbEntity
  8
SLD-0
100
AcDbBlockReference
  2
SW_CENTERMARKSYMBOL_15
 10
118.6477164677
 20
97.3355369964
 30
0.0
  0
INSERT
  5
39C
330
1F
100
AcDbEntity
  8
SLD-0
100
AcDbBlockReference
  2
SW_CENTERMARKSYMBOL_16
 10
169.4477164677
 20
97.3355369964
 30
0.0
  0
INSERT
  5
3A8
330
1F
100
AcDbEntity
  8
SLD-0
100
AcDbBlockReference
  2
SW_CENTERMARKSYMBOL_17
 10
169.4477164677
 20
122.7355369964
 30
0.0
  0
INSERT
  5
3B4
330
1F
100
AcDbEntity
  8
SLD-0
100
AcDbBlockReference
  2
SW_CENTERMARKSYMBOL_18
 10
156.7477164677
 20
110.0355369964
 30
0.0
  0
INSERT
  5
3C0
330
1F
100
AcDbEntity
  8
SLD-0
100
AcDbBlockReference
  2
SW_CENTERMARKSYMBOL_19
 10
144.0477164677
 20
148.1355369964
 30
0.0
  0
INSERT
  5
3CC
330
1F
100
AcDbEntity
  8
SLD-0
100
AcDbBlockReference
  2
SW_CENTERMARKSYMBOL_20
 10
144.0477164677
 20
122.7355369964
 30
0.0
  0
INSERT
  5
3D8
330
1F
100
AcDbEntity
  8
SLD-0
100
AcDbBlockReference
  2
SW_CENTERMARKSYMBOL_21
 10
144.0477164677
 20
97.3355369964
 30
0.0
  0
LINE
  5
3D9
330
1F
100
AcDbEntity
  8
0
  6
Continuous
 62
     7
370
    30
100
AcDbLine
 10
297.8025306424
 20
335.033377104
 30
0.0
 11
287.8025306424
 21
335.033377104
 31
0.0
  0
LINE
  5
3DA
330
1F
100
AcDbEntity
  8
0
  6
Continuous
 62
     7
370
    30
100
AcDbLine
 10
314.4779251846
 20
275.7087716462
 30
0.0
 11
297.8025306424
 21
335.033377104
 31
0.0
  0
LINE
  5
3DB
330
1F
100
AcDbEntity
  8
0
  6
Continuous
 62
     7
370
    30
100
AcDbLine
 10
373.8025306424
 20
259.033377104
 30
0.0
 11
314.4779251846
 21
275.7087716462
 31
0.0
  0
LINE
  5
3DC
330
1F
100
AcDbEntity
  8
0
  6
Continuous
 62
     7
370
    30
100
AcDbLine
 10
373.8025306424
 20
249.033377104
 30
0.0
 11
373.8025306424
 21
259.033377104
 31
0.0
  0
LINE
  5
3DD
330
1F
100
AcDbEntity
  8
0
  6
Continuous
 62
     7
370
    30
100
AcDbLine
 10
287.8025306424
 20
249.033377104
 30
0.0
 11
373.8025306424
 21
249.033377104
 31
0.0
  0
LINE
  5
3DE
330
1F
100
AcDbEntity
  8
0
  6
Continuous
 62
     7
370
    30
100
AcDbLine
 10
287.8025306424
 20
335.033377104
 30
0.0
 11
287.8025306424
 21
249.033377104
 31
0.0
  0
LINE
  5
3DF
330
1F
100
AcDbEntity
  8
0
  6
Continuous
 62
     7
370
    30
100
AcDbLine
 10
277.8025306424
 20
249.033377104
 30
0.0
 11
287.8025306424
 21
249.033377104
 31
0.0
  0
LINE
  5
3E0
330
1F
100
AcDbEntity
  8
0
  6
Continuous
 62
     7
370
    30
100
AcDbLine
 10
277.8025306424
 20
249.033377104
 30
0.0
 11
277.8025306424
 21
335.033377104
 31
0.0
  0
LINE
  5
3E1
330
1F
100
AcDbEntity
  8
0
  6
Continuous
 62
     7
370
    30
100
AcDbLine
 10
277.8025306424
 20
335.033377104
 30
0.0
 11
287.8025306424
 21
335.033377104
 31
0.0
  0
LINE
  5
3E2
330
1F
100
AcDbEntity
  8
0
  6
Continuous
 62
     7
370
    30
100
AcDbLine
 10
277.8025306424
 20
241.033377104
 30
0.0
 11
277.8025306424
 21
249.033377104
 31
0.0
  0
LINE
  5
3E3
330
1F
100
AcDbEntity
  8
0
  6
Continuous
 62
     7
370
    30
100
AcDbLine
 10
373.8025306424
 20
249.033377104
 30
0.0
 11
277.8025306424
 21
249.033377104
 31
0.0
  0
LINE
  5
3E4
330
1F
100
AcDbEntity
  8
0
  6
Continuous
 62
     7
370
    30
100
AcDbLine
 10
373.8025306424
 20
241.033377104
 30
0.0
 11
373.8025306424
 21
249.033377104
 31
0.0
  0
LINE
  5
3E5
330
1F
100
AcDbEntity
  8
0
  6
Continuous
 62
     7
370
    30
100
AcDbLine
 10
373.8025306424
 20
241.033377104
 30
0.0
 11
277.8025306424
 21
241.033377104
 31
0.0
  0
DIMENSION
  5
3E6
330
1F
100
AcDbEntity
  8
SLD-0
100
AcDbDimension
  2
_D_23
 10
287.8025306424
 20
348.6991701734
 30
0.0
 11
282.8025306424
 21
348.6991701734
 31
0.0
 70
   160
  1
<>
 71
     2
 42
-1.0
  3
SLDDIMSTYLE5
100
AcDbAlignedDimension
 13
277.8025306424
 23
335.033377104
 33
0.0
 14
287.8025306424
 24
335.033377104
 34
0.0
100
AcDbRotatedDimension
  0
DIMENSION
  5
3F3
330
1F
100
AcDbEntity
  8
SLD-0
100
AcDbDimension
  2
_D_24
 10
389.9232912581
 20
241.033377104
 30
0.0
 11
389.9232912581
 21
245.033377104
 31
0.0
 70
   160
  1
<>
 71
     2
 42
-1.0
  3
SLDDIMSTYLE5
100
AcDbAlignedDimension
 13
373.8025306424
 23
249.033377104
 33
0.0
 14
373.8025306424
 24
241.033377104
 34
0.0
 50
90.0
100
AcDbRotatedDimension
  0
DIMENSION
  5
3FF
330
1F
100
AcDbEntity
  8
SLD-0
100
AcDbDimension
  2
_D_25
 10
260.2236264923
 20
241.033377104
 30
0.0
 11
260.2236264923
 21
288.033377104
 31
0.0
 70
   160
  1
<>
 71
     2
 42
-1.0
  3
SLDDIMSTYLE0
100
AcDbAlignedDimension
 13
277.8025306424
 23
335.033377104
 33
0.0
 14
277.8025306424
 24
241.033377104
 34
0.0
 50
90.0
100
AcDbRotatedDimension
  0
DIMENSION
  5
409
330
1F
100
AcDbEntity
  8
SLD-0
100
AcDbDimension
  2
_D_26
 10
373.8025306424
 20
222.9225753901
 30
0.0
 11
325.8025306424
 21
222.9225753901
 31
0.0
 70
   160
  1
<>
 71
     2
 42
-1.0
  3
SLDDIMSTYLE0
100
AcDbAlignedDimension
 13
277.8025306424
 23
249.033377104
 33
0.0
 14
373.8025306424
 24
241.033377104
 34
0.0
100
AcDbRotatedDimension
  0
ENDSEC
  0
SECTION
  2
OBJECTS
  0
DICTIONARY
  5
C
330
0
100
AcDbDictionary
281
     1
  3
ACAD_GROUP
350
D
  3
ACAD_LAYOUT
350
1A
  3
ACAD_MLINESTYLE
350
17
  3
ACAD_PLOTSETTINGS
350
19
  3
ACAD_PLOTSTYLENAME
350
E
  3
ACAD_SCALELIST
350
47
  0
DICTIONARY
  5
D
102
{ACAD_REACTORS
330
C
102
}
330
C
100
AcDbDictionary
281
     1
  0
DICTIONARY
  5
1A
102
{ACAD_REACTORS
330
C
102
}
330
C
100
AcDbDictionary
281
     1
  3
Layout1
350
1E
  3
Layout2
350
26
  3
Model
350
22
  0
DICTIONARY
  5
17
102
{ACAD_REACTORS
330
C
102
}
330
C
100
AcDbDictionary
281
     1
  3
Standard
350
18
  0
DICTIONARY
  5
19
102
{ACAD_REACTORS
330
C
102
}
330
C
100
AcDbDictionary
281
     1
  0
ACDBDICTIONARYWDFLT
  5
E
102
{ACAD_REACTORS
330
C
102
}
330
C
100
AcDbDictionary
281
     1
  3
Normal
350
F
100
AcDbDictionaryWithDefault
340
F
  0
DICTIONARY
  5
47
102
{ACAD_REACTORS
330
C
102
}
330
C
100
AcDbDictionary
281
     1
  3
A0
350
48
  3
A1
350
49
  3
A2
350
4A
  3
A3
350
4B
  3
A4
350
4C
  3
A5
350
4D
  3
A6
350
4E
  3
A7
350
4F
  3
A8
350
50
  3
A9
350
51
  3
B0
350
52
  3
B1
350
53
  3
B2
350
54
  3
B3
350
55
  3
B4
350
56
  3
B5
350
57
  3
B6
350
58
  3
B7
350
59
  3
B8
350
5A
  3
B9
350
5B
  3
C0
350
5C
  3
C1
350
5D
  3
C2
350
5E
  3
C3
350
5F
  3
C4
350
60
  3
C5
350
61
  3
C6
350
62
  3
C7
350
63
  3
C8
350
64
  3
C9
350
65
  3
D0
350
66
  3
D1
350
67
  3
D2
350
68
  0
LAYOUT
  5
1E
102
{ACAD_REACTORS
330
1A
102
}
330
1A
100
AcDbPlotSettings
  1

  2
none_device
  4

  6

 40
0.0
 41
0.0
 42
0.0
 43
0.0
 44
0.0
 45
0.0
 46
0.0
 47
0.0
 48
0.0
 49
0.0
140
0.0
141
0.0
142
1.0
143
1.0
 70
   688
 72
     1
 73
     0
 74
     5
  7

 75
    16
147
1.0
148
0.0
149
0.0
100
AcDbLayout
  1
Layout1
 70
     1
 71
     1
 10
0.0
 20
0.0
 11
420.0
 21
297.0
 12
0.0
 22
0.0
 32
0.0
 14
1.0000000000E+20
 24
1.0000000000E+20
 34
1.0000000000E+20
 15
-1.0000000000E+20
 25
-1.0000000000E+20
 35
-1.0000000000E+20
146
0.0
 13
0.0
 23
0.0
 33
0.0
 16
1.0
 26
0.0
 36
0.0
 17
0.0
 27
1.0
 37
0.0
 76
     0
330
1B
  0
LAYOUT
  5
26
102
{ACAD_REACTORS
330
1A
102
}
330
1A
100
AcDbPlotSettings
  1

  2
none_device
  4

  6

 40
0.0
 41
0.0
 42
0.0
 43
0.0
 44
0.0
 45
0.0
 46
0.0
 47
0.0
 48
0.0
 49
0.0
140
0.0
141
0.0
142
1.0
143
1.0
 70
   688
 72
     1
 73
     0
 74
     5
  7

 75
    16
147
1.0
148
0.0
149
0.0
100
AcDbLayout
  1
Layout2
 70
     1
 71
     2
 10
0.0
 20
0.0
 11
0.0
 21
0.0
 12
0.0
 22
0.0
 32
0.0
 14
0.0
 24
0.0
 34
0.0
 15
0.0
 25
0.0
 35
0.0
146
0.0
 13
0.0
 23
0.0
 33
0.0
 16
1.0
 26
0.0
 36
0.0
 17
0.0
 27
1.0
 37
0.0
 76
     0
330
23
  0
LAYOUT
  5
22
102
{ACAD_REACTORS
330
1A
102
}
330
1A
100
AcDbPlotSettings
  1

  2
none_device
  4
Letter_(8.50_x_11.00_Inches)
  6

 40
6.35
 41
6.35
 42
6.35000508
 43
6.35000508
 44
215.9
 45
279.4
 46
0.0
 47
0.0
 48
0.0
 49
0.0
140
0.0
141
0.0
142
1.0
143
1.0
 70
  1712
 72
     1
 73
     0
 74
     0
  7

 75
     0
147
1.0
148
0.0
149
0.0
100
AcDbLayout
  1
Model
 70
     1
 71
     0
 10
0.0
 20
0.0
 11
594.0
 21
420.0
 12
0.0
 22
0.0
 32
0.0
 14
0.0
 24
0.0
 34
0.0
 15
594.0
 25
420.0
 35
0.0
146
0.0
 13
0.0
 23
0.0
 33
0.0
 16
1.0
 26
0.0
 36
0.0
 17
0.0
 27
1.0
 37
0.0
 76
     0
330
1F
331
29
  0
MLINESTYLE
  5
18
102
{ACAD_REACTORS
330
17
102
}
330
17
100
AcDbMlineStyle
  2
Standard
 70
     0
  3

 62
   256
 51
90.0
 52
90.0
 71
     2
 49
0.5
 62
   256
  6
BYLAYER
 49
-0.5
 62
   256
  6
BYLAYER
  0
ACDBPLACEHOLDER
  5
F
102
{ACAD_REACTORS
330
E
102
}
330
E
  0
SCALE
  5
48
102
{ACAD_REACTORS
330
47
102
}
330
47
100
AcDbScale
 70
     0
300
1:1
140
1.0
141
1.0
290
     1
  0
SCALE
  5
49
102
{ACAD_REACTORS
330
47
102
}
330
47
100
AcDbScale
 70
     0
300
1:2
140
1.0
141
2.0
290
     0
  0
SCALE
  5
4A
102
{ACAD_REACTORS
330
47
102
}
330
47
100
AcDbScale
 70
     0
300
1:4
140
1.0
141
4.0
290
     0
  0
SCALE
  5
4B
102
{ACAD_REACTORS
330
47
102
}
330
47
100
AcDbScale
 70
     0
300
1:5
140
1.0
141
5.0
290
     0
  0
SCALE
  5
4C
102
{ACAD_REACTORS
330
47
102
}
330
47
100
AcDbScale
 70
     0
300
1:8
140
1.0
141
8.0
290
     0
  0
SCALE
  5
4D
102
{ACAD_REACTORS
330
47
102
}
330
47
100
AcDbScale
 70
     0
300
1:10
140
1.0
141
10.0
290
     0
  0
SCALE
  5
4E
102
{ACAD_REACTORS
330
47
102
}
330
47
100
AcDbScale
 70
     0
300
1:16
140
1.0
141
16.0
290
     0
  0
SCALE
  5
4F
102
{ACAD_REACTORS
330
47
102
}
330
47
100
AcDbScale
 70
     0
300
1:20
140
1.0
141
20.0
290
     0
  0
SCALE
  5
50
102
{ACAD_REACTORS
330
47
102
}
330
47
100
AcDbScale
 70
     0
300
1:30
140
1.0
141
30.0
290
     0
  0
SCALE
  5
51
102
{ACAD_REACTORS
330
47
102
}
330
47
100
AcDbScale
 70
     0
300
1:40
140
1.0
141
40.0
290
     0
  0
SCALE
  5
52
102
{ACAD_REACTORS
330
47
102
}
330
47
100
AcDbScale
 70
     0
300
1:50
140
1.0
141
50.0
290
     0
  0
SCALE
  5
53
102
{ACAD_REACTORS
330
47
102
}
330
47
100
AcDbScale
 70
     0
300
1:100
140
1.0
141
100.0
290
     0
  0
SCALE
  5
54
102
{ACAD_REACTORS
330
47
102
}
330
47
100
AcDbScale
 70
     0
300
2:1
140
2.0
141
1.0
290
     0
  0
SCALE
  5
55
102
{ACAD_REACTORS
330
47
102
}
330
47
100
AcDbScale
 70
     0
300
4:1
140
4.0
141
1.0
290
     0
  0
SCALE
  5
56
102
{ACAD_REACTORS
330
47
102
}
330
47
100
AcDbScale
 70
     0
300
8:1
140
8.0
141
1.0
290
     0
  0
SCALE
  5
57
102
{ACAD_REACTORS
330
47
102
}
330
47
100
AcDbScale
 70
     0
300
10:1
140
10.0
141
1.0
290
     0
  0
SCALE
  5
58
102
{ACAD_REACTORS
330
47
102
}
330
47
100
AcDbScale
 70
     0
300
100:1
140
100.0
141
1.0
290
     0
  0
SCALE
  5
59
102
{ACAD_REACTORS
330
47
102
}
330
47
100
AcDbScale
 70
     0
300
1/128" = 1'-0"
140
0.0078125
141
12.0
290
     0
  0
SCALE
  5
5A
102
{ACAD_REACTORS
330
47
102
}
330
47
100
AcDbScale
 70
     0
300
1/64" = 1'-0"
140
0.015625
141
12.0
290
     0
  0
SCALE
  5
5B
102
{ACAD_REACTORS
330
47
102
}
330
47
100
AcDbScale
 70
     0
300
1/32" = 1'-0"
140
0.03125
141
12.0
290
     0
  0
SCALE
  5
5C
102
{ACAD_REACTORS
330
47
102
}
330
47
100
AcDbScale
 70
     0
300
1/16" = 1'-0"
140
0.0625
141
12.0
290
     0
  0
SCALE
  5
5D
102
{ACAD_REACTORS
330
47
102
}
330
47
100
AcDbScale
 70
     0
300
3/32" = 1'-0"
140
0.09375
141
12.0
290
     0
  0
SCALE
  5
5E
102
{ACAD_REACTORS
330
47
102
}
330
47
100
AcDbScale
 70
     0
300
1/8" = 1'-0"
140
0.125
141
12.0
290
     0
  0
SCALE
  5
5F
102
{ACAD_REACTORS
330
47
102
}
330
47
100
AcDbScale
 70
     0
300
3/16" = 1'-0"
140
0.1875
141
12.0
290
     0
  0
SCALE
  5
60
102
{ACAD_REACTORS
330
47
102
}
330
47
100
AcDbScale
 70
     0
300
1/4" = 1'-0"
140
0.25
141
12.0
290
     0
  0
SCALE
  5
61
102
{ACAD_REACTORS
330
47
102
}
330
47
100
AcDbScale
 70
     0
300
3/8" = 1'-0"
140
0.375
141
12.0
290
     0
  0
SCALE
  5
62
102
{ACAD_REACTORS
330
47
102
}
330
47
100
AcDbScale
 70
     0
300
1/2" = 1'-0"
140
0.5
141
12.0
290
     0
  0
SCALE
  5
63
102
{ACAD_REACTORS
330
47
102
}
330
47
100
AcDbScale
 70
     0
300
3/4" = 1'-0"
140
0.75
141
12.0
290
     0
  0
SCALE
  5
64
102
{ACAD_REACTORS
330
47
102
}
330
47
100
AcDbScale
 70
     0
300
1" = 1'-0"
140
1.0
141
12.0
290
     0
  0
SCALE
  5
65
102
{ACAD_REACTORS
330
47
102
}
330
47
100
AcDbScale
 70
     0
300
1-1/2" = 1'-0"
140
1.5
141
12.0
290
     0
  0
SCALE
  5
66
102
{ACAD_REACTORS
330
47
102
}
330
47
100
AcDbScale
 70
     0
300
3" = 1'-0"
140
3.0
141
12.0
290
     0
  0
SCALE
  5
67
102
{ACAD_REACTORS
330
47
102
}
330
47
100
AcDbScale
 70
     0
300
6" = 1'-0"
140
6.0
141
12.0
290
     0
  0
SCALE
  5
68
102
{ACAD_REACTORS
330
47
102
}
330
47
100
AcDbScale
 70
     0
300
1'-0" = 1'-0"
140
12.0
141
12.0
290
     0
  0
ENDSEC
  0
EOF
