  0
SECTION
  2
HEADER
  9
$ACADVER
  1
AC1015
  9
$ACADMAINTVER
 70
     6
  9
$DWGCODEPAGE
  3
ANSI_950
  9
$INSBASE
 10
0.0
 20
0.0
 30
0.0
  9
$EXTMIN
 10
0.0
 20
0.0
 30
0.0
  9
$EXTMAX
 10
445.5
 20
315.0
 30
0.0
  9
$LIMMIN
 10
0.0
 20
0.0
  9
$LIMMAX
 10
445.5
 20
315.0
  9
$ORTHOMODE
 70
     0
  9
$REGENMODE
 70
     1
  9
$FILLMODE
 70
     1
  9
$QTEXTMODE
 70
     0
  9
$MIRRTEXT
 70
     1
  9
$LTSCALE
 40
1.5
  9
$ATTMODE
 70
     1
  9
$TEXTSIZE
 40
5.2916666667
  9
$TRACEWID
 40
1.0
  9
$TEXTSTYLE
  7
STANDARD
  9
$CLAYER
  8
0
  9
$CELTYPE
  6
ByLayer
  9
$CECOLOR
 62
   256
  9
$CELTSCALE
 40
1.0
  9
$DISPSILH
 70
     0
  9
$DIMSCALE
 40
1.0
  9
$DIMASZ
 40
3.0
  9
$DIMEXO
 40
1.5
  9
$DIMDLI
 40
3.75
  9
$DIMRND
 40
0.0
  9
$DIMDLE
 40
0.0
  9
$DIMEXE
 40
1.5
  9
$DIMTP
 40
0.0
  9
$DIMTM
 40
0.0
  9
$DIMTXT
 40
3.75
  9
$DIMCEN
 40
2.5
  9
$DIMTSZ
 40
0.0
  9
$DIMTOL
 70
     0
  9
$DIMLIM
 70
     0
  9
$DIMTIH
 70
     1
  9
$DIMTOH
 70
     1
  9
$DIMSE1
 70
     0
  9
$DIMSE2
 70
     0
  9
$DIMTAD
 70
     1
  9
$DIMZIN
 70
     0
  9
$DIMBLK
  1

  9
$DIMASO
 70
     1
  9
$DIMSHO
 70
     1
  9
$DIMPOST
  1

  9
$DIMAPOST
  1

  9
$DIMALT
 70
     0
  9
$DIMALTD
 70
     3
  9
$DIMALTF
 40
0.0393700787
  9
$DIMLFAC
 40
1.0
  9
$DIMTOFL
 70
     1
  9
$DIMTVP
 40
0.0
  9
$DIMTIX
 70
     0
  9
$DIMSOXD
 70
     0
  9
$DIMSAH
 70
     0
  9
$DIMBLK1
  1

  9
$DIMBLK2
  1

  9
$DIMSTYLE
  2
ISO-25
  9
$DIMCLRD
 70
     0
  9
$DIMCLRE
 70
     0
  9
$DIMCLRT
 70
     0
  9
$DIMTFAC
 40
1.0
  9
$DIMGAP
 40
1.5
  9
$DIMJUST
 70
     0
  9
$DIMSD1
 70
     0
  9
$DIMSD2
 70
     0
  9
$DIMTOLJ
 70
     0
  9
$DIMTZIN
 70
     0
  9
$DIMALTZ
 70
     0
  9
$DIMALTTZ
 70
     0
  9
$DIMUPT
 70
     0
  9
$DIMDEC
 70
     2
  9
$DIMTDEC
 70
     2
  9
$DIMALTU
 70
     2
  9
$DIMALTTD
 70
     3
  9
$DIMTXSTY
  7
STANDARD
  9
$DIMAUNIT
 70
     0
  9
$DIMADEC
 70
     1
  9
$DIMALTRND
 40
0.0
  9
$DIMAZIN
 70
     0
  9
$DIMDSEP
 70
    44
  9
$DIMATFIT
 70
     3
  9
$DIMFRAC
 70
     0
  9
$DIMLDRBLK
  1

  9
$DIMLUNIT
 70
     2
  9
$DIMLWD
 70
    -2
  9
$DIMLWE
 70
    -2
  9
$DIMTMOVE
 70
     0
  9
$LUNITS
 70
     2
  9
$LUPREC
 70
     2
  9
$SKETCHINC
 40
1.0
  9
$FILLETRAD
 40
10.0
  9
$AUNITS
 70
     0
  9
$AUPREC
 70
     1
  9
$MENU
  1
.
  9
$ELEVATION
 40
0.0
  9
$PELEVATION
 40
0.0
  9
$THICKNESS
 40
0.0
  9
$LIMCHECK
 70
     0
  9
$CHAMFERA
 40
0.0
  9
$CHAMFERB
 40
0.0
  9
$CHAMFERC
 40
0.0
  9
$CHAMFERD
 40
0.0
  9
$SKPOLY
 70
     0
  9
$TDCREATE
 40
2457498.653610984
  9
$TDUCREATE
 40
2457498.32027765
  9
$TDUPDATE
 40
2457498.653617488
  9
$TDUUPDATE
 40
2457498.320284155
  9
$TDINDWG
 40
0.0000000116
  9
$TDUSRTIMER
 40
0.0000000116
  9
$USRTIMER
 70
     1
  9
$ANGBASE
 50
0.0
  9
$ANGDIR
 70
     0
  9
$PDMODE
 70
     0
  9
$PDSIZE
 40
-1.0
  9
$PLINEWID
 40
0.0
  9
$SPLFRAME
 70
     0
  9
$SPLINETYPE
 70
     6
  9
$SPLINESEGS
 70
     8
  9
$HANDSEED
  5
447
  9
$SURFTAB1
 70
     6
  9
$SURFTAB2
 70
     6
  9
$SURFTYPE
 70
     6
  9
$SURFU
 70
     6
  9
$SURFV
 70
     6
  9
$UCSBASE
  2

  9
$UCSNAME
  2

  9
$UCSORG
 10
0.0
 20
0.0
 30
0.0
  9
$UCSXDIR
 10
1.0
 20
0.0
 30
0.0
  9
$UCSYDIR
 10
0.0
 20
1.0
 30
0.0
  9
$UCSORTHOREF
  2

  9
$UCSORTHOVIEW
 70
     0
  9
$UCSORGTOP
 10
0.0
 20
0.0
 30
0.0
  9
$UCSORGBOTTOM
 10
0.0
 20
0.0
 30
0.0
  9
$UCSORGLEFT
 10
0.0
 20
0.0
 30
0.0
  9
$UCSORGRIGHT
 10
0.0
 20
0.0
 30
0.0
  9
$UCSORGFRONT
 10
0.0
 20
0.0
 30
0.0
  9
$UCSORGBACK
 10
0.0
 20
0.0
 30
0.0
  9
$PUCSBASE
  2

  9
$PUCSNAME
  2

  9
$PUCSORG
 10
0.0
 20
0.0
 30
0.0
  9
$PUCSXDIR
 10
1.0
 20
0.0
 30
0.0
  9
$PUCSYDIR
 10
0.0
 20
1.0
 30
0.0
  9
$PUCSORTHOREF
  2

  9
$PUCSORTHOVIEW
 70
     0
  9
$PUCSORGTOP
 10
0.0
 20
0.0
 30
0.0
  9
$PUCSORGBOTTOM
 10
0.0
 20
0.0
 30
0.0
  9
$PUCSORGLEFT
 10
0.0
 20
0.0
 30
0.0
  9
$PUCSORGRIGHT
 10
0.0
 20
0.0
 30
0.0
  9
$PUCSORGFRONT
 10
0.0
 20
0.0
 30
0.0
  9
$PUCSORGBACK
 10
0.0
 20
0.0
 30
0.0
  9
$USERI1
 70
     0
  9
$USERI2
 70
     0
  9
$USERI3
 70
     0
  9
$USERI4
 70
     0
  9
$USERI5
 70
     0
  9
$USERR1
 40
0.0
  9
$USERR2
 40
0.0
  9
$USERR3
 40
0.0
  9
$USERR4
 40
0.0
  9
$USERR5
 40
0.0
  9
$WORLDVIEW
 70
     1
  9
$SHADEDGE
 70
     3
  9
$SHADEDIF
 70
    70
  9
$TILEMODE
 70
     1
  9
$MAXACTVP
 70
    64
  9
$PINSBASE
 10
0.0
 20
0.0
 30
0.0
  9
$PLIMCHECK
 70
     0
  9
$PEXTMIN
 10
1.0000000000E+20
 20
1.0000000000E+20
 30
1.0000000000E+20
  9
$PEXTMAX
 10
-1.0000000000E+20
 20
-1.0000000000E+20
 30
-1.0000000000E+20
  9
$PLIMMIN
 10
0.0
 20
0.0
  9
$PLIMMAX
 10
420.0
 20
297.0
  9
$UNITMODE
 70
     0
  9
$VISRETAIN
 70
     1
  9
$PLINEGEN
 70
     0
  9
$PSLTSCALE
 70
     1
  9
$TREEDEPTH
 70
  3020
  9
$CMLSTYLE
  2
Standard
  9
$CMLJUST
 70
     0
  9
$CMLSCALE
 40
20.0
  9
$PROXYGRAPHICS
 70
     1
  9
$MEASUREMENT
 70
     1
  9
$CELWEIGHT
370
    -1
  9
$ENDCAPS
280
     0
  9
$JOINSTYLE
280
     0
  9
$LWDISPLAY
290
     1
  9
$INSUNITS
 70
     4
  9
$HYPERLINKBASE
  1

  9
$STYLESHEET
  1

  9
$XEDIT
290
     1
  9
$CEPSNTYPE
380
     0
  9
$PSTYLEMODE
290
     1
  9
$FINGERPRINTGUID
  2
{7E84A1D1-73FB-4BF4-A881-87D183BBBBEC}
  9
$VERSIONGUID
  2
{FAEB1C32-E019-11D5-929B-00C0DF256EC4}
  9
$EXTNAMES
290
     1
  9
$PSVPSCALE
 40
0.0
  9
$OLESTARTUP
290
     0
  0
ENDSEC
  0
SECTION
  2
CLASSES
  0
CLASS
  1
ACDBDICTIONARYWDFLT
  2
AcDbDictionaryWithDefault
  3
ObjectDBX Classes
 90
        0
280
     0
281
     0
  0
CLASS
  1
VISUALSTYLE
  2
AcDbVisualStyle
  3
ObjectDBX Classes
 90
     4095
280
     0
281
     0
  0
CLASS
  1
MATERIAL
  2
AcDbMaterial
  3
ObjectDBX Classes
 90
     1153
280
     0
281
     0
  0
CLASS
  1
SCALE
  2
AcDbScale
  3
ObjectDBX Classes
 90
     1153
280
     0
281
     0
  0
CLASS
  1
TABLESTYLE
  2
AcDbTableStyle
  3
ObjectDBX Classes
 90
     4095
280
     0
281
     0
  0
CLASS
  1
MLEADERSTYLE
  2
AcDbMLeaderStyle
  3
ACDB_MLEADERSTYLE_CLASS
 90
     4095
280
     0
281
     0
  0
CLASS
  1
SUN
  2
AcDbSun
  3
SCENEOE
 90
     1153
280
     0
281
     0
  0
CLASS
  1
ACDBPLACEHOLDER
  2
AcDbPlaceHolder
  3
ObjectDBX Classes
 90
        0
280
     0
281
     0
  0
CLASS
  1
LAYOUT
  2
AcDbLayout
  3
ObjectDBX Classes
 90
        0
280
     0
281
     0
  0
ENDSEC
  0
SECTION
  2
TABLES
  0
TABLE
  2
VPORT
  5
8
330
0
100
AcDbSymbolTable
 70
     1
  0
VPORT
  5
29
330
8
100
AcDbSymbolTableRecord
100
AcDbViewportTableRecord
  2
*Active
 70
     0
 10
0.0
 20
0.0
 11
1.0
 21
1.0
 12
222.75
 22
157.5
 13
0.0
 23
0.0
 14
10.0
 24
10.0
 15
10.0
 25
10.0
 16
0.0
 26
0.0
 36
1.0
 17
0.0
 27
0.0
 37
0.0
 40
315.0
 41
1.4142857143
 42
50.0
 43
0.0
 44
0.0
 50
0.0
 51
0.0
 71
     0
 72
  2000
 73
     1
 74
     3
 75
     0
 76
     0
 77
     0
 78
     0
281
     0
 65
     1
110
0.0
120
0.0
130
0.0
111
1.0
121
0.0
131
0.0
112
0.0
122
1.0
132
0.0
 79
     0
146
0.0
  0
ENDTAB
  0
TABLE
  2
LTYPE
  5
5
330
0
100
AcDbSymbolTable
 70
     6
  0
LTYPE
  5
14
330
5
100
AcDbSymbolTableRecord
100
AcDbLinetypeTableRecord
  2
ByBlock
 70
     0
  3

 72
    65
 73
     0
 40
0.0
  0
LTYPE
  5
15
330
5
100
AcDbSymbolTableRecord
100
AcDbLinetypeTableRecord
  2
ByLayer
 70
     0
  3

 72
    65
 73
     0
 40
0.0
  0
LTYPE
  5
16
330
5
100
AcDbSymbolTableRecord
100
AcDbLinetypeTableRecord
  2
Continuous
 70
     0
  3
Solid line
 72
    65
 73
     0
 40
0.0
  0
LTYPE
  5
6E
330
5
100
AcDbSymbolTableRecord
100
AcDbLinetypeTableRecord
  2
HIDDEN
 70
     0
  3
Hidden __ __ __ __ __ __ __ __ __ __ __ __ __ __
 72
    65
 73
     2
 40
1.905
 49
1.27
 74
     0
 49
-0.635
 74
     0
  0
LTYPE
  5
6F
330
5
100
AcDbSymbolTableRecord
100
AcDbLinetypeTableRecord
  2
PHANTOM
 70
     0
  3
Phantom ______  __  __  ______  __  __  ______
 72
    65
 73
     6
 40
12.7
 49
6.35
 74
     0
 49
-1.27
 74
     0
 49
1.27
 74
     0
 49
-1.27
 74
     0
 49
1.27
 74
     0
 49
-1.27
 74
     0
  0
LTYPE
  5
70
330
5
100
AcDbSymbolTableRecord
100
AcDbLinetypeTableRecord
  2
CENTER
 70
     0
  3
Center ____ _ ____ _ ____ _ ____ _ ____ _ ____
 72
    65
 73
     4
 40
10.16
 49
6.35
 74
     0
 49
-1.27
 74
     0
 49
1.27
 74
     0
 49
-1.27
 74
     0
  0
LTYPE
  5
71
330
5
100
AcDbSymbolTableRecord
100
AcDbLinetypeTableRecord
  2
CENTERX2
 70
     0
  3
Center (2x) ________  __  ________  __  _____
 72
    65
 73
     4
 40
20.32
 49
12.7
 74
     0
 49
-2.54
 74
     0
 49
2.54
 74
     0
 49
-2.54
 74
     0
  0
LTYPE
  5
72
330
5
100
AcDbSymbolTableRecord
100
AcDbLinetypeTableRecord
  2
DOT2
 70
     0
  3
Dot (.5x) ........................................
 72
    65
 73
     2
 40
0.635
 49
0.0
 74
     0
 49
-0.635
 74
     0
  0
ENDTAB
  0
TABLE
  2
LAYER
  5
2
330
0
100
AcDbSymbolTable
 70
    10
  0
LAYER
  5
10
330
2
100
AcDbSymbolTableRecord
100
AcDbLayerTableRecord
  2
0
 70
     0
 62
     7
  6
Continuous
370
    -3
390
F
  0
LAYER
  5
73
330
2
100
AcDbSymbolTableRecord
100
AcDbLayerTableRecord
  2
SLD-0
 70
     0
 62
   179
  6
Continuous
370
    15
390
F
  0
LAYER
  5
74
330
2
100
AcDbSymbolTableRecord
100
AcDbLayerTableRecord
  2
輪廓線
 70
     0
 62
   219
  6
Continuous
370
    15
390
F
  0
LAYER
  5
75
330
2
100
AcDbSymbolTableRecord
100
AcDbLayerTableRecord
  2
DIM
 70
     0
 62
     7
  6
Continuous
370
    -3
390
F
  0
LAYER
  5
76
330
2
100
AcDbSymbolTableRecord
100
AcDbLayerTableRecord
  2
中心線
 70
     0
 62
     1
  6
CENTERX2
370
    -3
390
F
  0
LAYER
  5
77
330
2
100
AcDbSymbolTableRecord
100
AcDbLayerTableRecord
  2
虛線
 70
     0
 62
     6
  6
HIDDEN
370
    -3
390
F
  0
LAYER
  5
78
330
2
100
AcDbSymbolTableRecord
100
AcDbLayerTableRecord
  2
SECTION
 70
     0
 62
     5
  6
PHANTOM
370
    15
390
F
  0
LAYER
  5
79
330
2
100
AcDbSymbolTableRecord
100
AcDbLayerTableRecord
  2
假想線
 70
     0
 62
     5
  6
PHANTOM
370
    -3
390
F
  0
LAYER
  5
7A
330
2
100
AcDbSymbolTableRecord
100
AcDbLayerTableRecord
  2
工作區域參考線
 70
     0
 62
   179
  6
Continuous
370
    -3
390
F
  0
LAYER
  5
7B
330
2
100
AcDbSymbolTableRecord
100
AcDbLayerTableRecord
  2
圖層_1
 70
     0
 62
   179
  6
Continuous
370
    -3
390
F
  0
ENDTAB
  0
TABLE
  2
STYLE
  5
3
330
0
100
AcDbSymbolTable
 70
     5
  0
STYLE
  5
11
330
3
100
AcDbSymbolTableRecord
100
AcDbTextStyleTableRecord
  2
STANDARD
 70
     0
 40
0.0
 41
1.0
 50
0.0
 71
     0
 42
5.2916666667
  3
ARIALBD.TTF
  4

1001
ACAD
1000
ARIAL
1071
 33554466
  0
STYLE
  5
7C
330
3
100
AcDbSymbolTableRecord
100
AcDbTextStyleTableRecord
  2
SLDTEXTSTYLE0
 70
     0
 40
0.0
 41
1.0
 50
0.0
 71
     0
 42
2.5
  3
ARIAL.TTF
  4

1001
ACAD
1000
Arial
1071
      290
  0
STYLE
  5
CD
330
3
100
AcDbSymbolTableRecord
100
AcDbTextStyleTableRecord
  2
SLDTEXTSTYLE1
 70
     0
 40
0.0
 41
0.948
 50
0.0
 71
     0
 42
5.2916666667
  3
ARIAL.TTF
  4

1001
ACAD
1000
Arial
1071
      290
  0
STYLE
  5
D6
330
3
100
AcDbSymbolTableRecord
100
AcDbTextStyleTableRecord
  2
SLDTEXTSTYLE2
 70
     0
 40
0.0
 41
1.0
 50
0.0
 71
     0
 42
5.2916666667
  3
ARIALBD.TTF
  4

1001
ACAD
1000
Arial CE
1071
 33554722
  0
STYLE
  5
104
330
3
100
AcDbSymbolTableRecord
100
AcDbTextStyleTableRecord
  2
SLDTEXTSTYLE3
 70
     0
 40
0.0
 41
0.948
 50
0.0
 71
     0
 42
5.2916666667
  3
ARIALBD.TTF
  4

1001
ACAD
1000
Arial
1071
 33554722
  0
ENDTAB
  0
TABLE
  2
VIEW
  5
6
330
0
100
AcDbSymbolTable
 70
     0
  0
ENDTAB
  0
TABLE
  2
UCS
  5
7
330
0
100
AcDbSymbolTable
 70
     0
  0
ENDTAB
  0
TABLE
  2
APPID
  5
9
330
0
100
AcDbSymbolTable
 70
     1
  0
APPID
  5
12
330
9
100
AcDbSymbolTableRecord
100
AcDbRegAppTableRecord
  2
ACAD
 70
     0
  0
ENDTAB
  0
TABLE
  2
DIMSTYLE
  5
A
330
0
100
AcDbSymbolTable
 70
     6
100
AcDbDimStyleTable
  0
DIMSTYLE
105
27
330
A
100
AcDbSymbolTableRecord
100
AcDbDimStyleTableRecord
  2
ISO-25
 70
     0
 41
2.5
 42
0.625
 43
3.75
 44
1.25
 73
     0
 74
     0
 77
     1
 78
     8
140
2.5
141
2.5
143
0.0393700787
147
0.625
171
     3
172
     1
178
     0
271
     2
272
     2
274
     3
278
    44
283
     0
284
     8
340
7C
  0
DIMSTYLE
105
12B
102
{ACAD_REACTORS
330
12A
330
135
330
13F
330
149
330
1D9
330
1E3
330
1ED
330
1F7
330
201
330
20B
330
215
330
21F
330
229
330
233
330
38E
330
398
330
3B6
102
}
330
A
100
AcDbSymbolTableRecord
100
AcDbDimStyleTableRecord
  2
SLDDIMSTYLE0
 70
     0
 41
3.0
 44
0.0
 45
0.000000001
 73
     0
 74
     0
 77
     1
 78
    12
 79
     3
140
3.75
147
0.9375
173
     1
178
     0
271
     2
272
     2
276
     2
284
    12
340
CD
  0
DIMSTYLE
105
23E
102
{ACAD_REACTORS
330
23D
330
3A2
102
}
330
A
100
AcDbSymbolTableRecord
100
AcDbDimStyleTableRecord
  2
SLDDIMSTYLE1
 70
     0
 41
3.0
 44
0.0
 45
0.000000001
 78
    12
 79
     3
140
3.75
141
0.0
147
0.9375
173
     1
178
     0
271
     2
272
     2
276
     2
284
    12
340
CD
  0
DIMSTYLE
105
24A
102
{ACAD_REACTORS
330
249
330
3AD
102
}
330
A
100
AcDbSymbolTableRecord
100
AcDbDimStyleTableRecord
  2
SLDDIMSTYLE2
 70
     0
  3
<>
 41
3.0
 44
0.0
 45
0.000000001
 78
    12
 79
     3
140
3.75
141
0.0
147
0.9375
173
     1
178
     0
271
     2
272
     2
276
     2
284
    12
340
CD
  0
DIMSTYLE
105
37A
102
{ACAD_REACTORS
330
379
330
384
102
}
330
A
100
AcDbSymbolTableRecord
100
AcDbDimStyleTableRecord
  2
SLDDIMSTYLE3
 70
     0
 41
3.0
 44
0.0
 73
     0
 74
     0
 77
     1
 78
    12
 79
     3
140
3.75
144
1.5
147
0.9375
173
     1
178
     0
179
     1
272
     1
276
     2
284
    12
340
CD
  0
DIMSTYLE
105
3C1
102
{ACAD_REACTORS
330
3C0
102
}
330
A
100
AcDbSymbolTableRecord
100
AcDbDimStyleTableRecord
  2
SLDDIMSTYLE4
 70
     0
 41
3.0
 44
0.0
 45
0.000000001
 73
     0
 74
     0
 77
     1
 78
    12
 79
     3
140
3.75
147
0.9375
173
     1
178
     0
271
     1
272
     1
276
     2
284
    12
340
CD
  0
ENDTAB
  0
TABLE
  2
BLOCK_RECORD
  5
1
330
0
100
AcDbSymbolTable
 70
    56
  0
BLOCK_RECORD
  5
1F
330
1
100
AcDbSymbolTableRecord
100
AcDbBlockTableRecord
  2
*Model_Space
340
22
  0
BLOCK_RECORD
  5
1B
330
1
100
AcDbSymbolTableRecord
100
AcDbBlockTableRecord
  2
*Paper_Space
340
1E
  0
BLOCK_RECORD
  5
23
330
1
100
AcDbSymbolTableRecord
100
AcDbBlockTableRecord
  2
*Paper_Space0
340
26
  0
BLOCK_RECORD
  5
CF
330
1
100
AcDbSymbolTableRecord
100
AcDbBlockTableRecord
  2
SW_NOTE_0
340
0
102
{BLKREFS
331
D5
102
}
  0
BLOCK_RECORD
  5
107
330
1
100
AcDbSymbolTableRecord
100
AcDbBlockTableRecord
  2
SW_NOTE_1
340
0
102
{BLKREFS
331
10C
102
}
  0
BLOCK_RECORD
  5
121
330
1
100
AcDbSymbolTableRecord
100
AcDbBlockTableRecord
  2
SW_RADIAL_DIMENSION_0
340
0
102
{BLKREFS
331
129
102
}
  0
BLOCK_RECORD
  5
12C
330
1
100
AcDbSymbolTableRecord
100
AcDbBlockTableRecord
  2
_D
340
0
  0
BLOCK_RECORD
  5
136
330
1
100
AcDbSymbolTableRecord
100
AcDbBlockTableRecord
  2
_D_1
340
0
  0
BLOCK_RECORD
  5
140
330
1
100
AcDbSymbolTableRecord
100
AcDbBlockTableRecord
  2
_D_2
340
0
  0
BLOCK_RECORD
  5
14A
330
1
100
AcDbSymbolTableRecord
100
AcDbBlockTableRecord
  2
_D_3
340
0
  0
BLOCK_RECORD
  5
153
330
1
100
AcDbSymbolTableRecord
100
AcDbBlockTableRecord
  2
SW_CENTERMARKSYMBOL_0
340
0
102
{BLKREFS
331
15E
102
}
  0
BLOCK_RECORD
  5
15F
330
1
100
AcDbSymbolTableRecord
100
AcDbBlockTableRecord
  2
SW_CENTERMARKSYMBOL_1
340
0
102
{BLKREFS
331
16A
102
}
  0
BLOCK_RECORD
  5
16B
330
1
100
AcDbSymbolTableRecord
100
AcDbBlockTableRecord
  2
SW_CENTERMARKSYMBOL_2
340
0
102
{BLKREFS
331
176
102
}
  0
BLOCK_RECORD
  5
177
330
1
100
AcDbSymbolTableRecord
100
AcDbBlockTableRecord
  2
SW_CENTERMARKSYMBOL_3
340
0
102
{BLKREFS
331
182
102
}
  0
BLOCK_RECORD
  5
1DA
330
1
100
AcDbSymbolTableRecord
100
AcDbBlockTableRecord
  2
_D_4
340
0
  0
BLOCK_RECORD
  5
1E4
330
1
100
AcDbSymbolTableRecord
100
AcDbBlockTableRecord
  2
_D_5
340
0
  0
BLOCK_RECORD
  5
1EE
330
1
100
AcDbSymbolTableRecord
100
AcDbBlockTableRecord
  2
_D_6
340
0
  0
BLOCK_RECORD
  5
1F8
330
1
100
AcDbSymbolTableRecord
100
AcDbBlockTableRecord
  2
_D_7
340
0
  0
BLOCK_RECORD
  5
202
330
1
100
AcDbSymbolTableRecord
100
AcDbBlockTableRecord
  2
_D_8
340
0
  0
BLOCK_RECORD
  5
20C
330
1
100
AcDbSymbolTableRecord
100
AcDbBlockTableRecord
  2
_D_9
340
0
  0
BLOCK_RECORD
  5
216
330
1
100
AcDbSymbolTableRecord
100
AcDbBlockTableRecord
  2
_D_10
340
0
  0
BLOCK_RECORD
  5
220
330
1
100
AcDbSymbolTableRecord
100
AcDbBlockTableRecord
  2
_D_11
340
0
  0
BLOCK_RECORD
  5
22A
330
1
100
AcDbSymbolTableRecord
100
AcDbBlockTableRecord
  2
_D_12
340
0
  0
BLOCK_RECORD
  5
234
330
1
100
AcDbSymbolTableRecord
100
AcDbBlockTableRecord
  2
_D_13
340
0
  0
BLOCK_RECORD
  5
23F
330
1
100
AcDbSymbolTableRecord
100
AcDbBlockTableRecord
  2
_D_14
340
0
  0
BLOCK_RECORD
  5
24B
330
1
100
AcDbSymbolTableRecord
100
AcDbBlockTableRecord
  2
_D_15
340
0
  0
BLOCK_RECORD
  5
253
330
1
100
AcDbSymbolTableRecord
100
AcDbBlockTableRecord
  2
SW_CENTERMARKSYMBOL_4
340
0
102
{BLKREFS
331
25E
102
}
  0
BLOCK_RECORD
  5
25F
330
1
100
AcDbSymbolTableRecord
100
AcDbBlockTableRecord
  2
SW_CENTERMARKSYMBOL_5
340
0
102
{BLKREFS
331
26A
102
}
  0
BLOCK_RECORD
  5
26B
330
1
100
AcDbSymbolTableRecord
100
AcDbBlockTableRecord
  2
SW_CENTERMARKSYMBOL_6
340
0
102
{BLKREFS
331
276
102
}
  0
BLOCK_RECORD
  5
277
330
1
100
AcDbSymbolTableRecord
100
AcDbBlockTableRecord
  2
SW_CENTERMARKSYMBOL_7
340
0
102
{BLKREFS
331
282
102
}
  0
BLOCK_RECORD
  5
283
330
1
100
AcDbSymbolTableRecord
100
AcDbBlockTableRecord
  2
SW_CENTERMARKSYMBOL_8
340
0
102
{BLKREFS
331
28E
102
}
  0
BLOCK_RECORD
  5
28F
330
1
100
AcDbSymbolTableRecord
100
AcDbBlockTableRecord
  2
SW_CENTERMARKSYMBOL_9
340
0
102
{BLKREFS
331
29A
102
}
  0
BLOCK_RECORD
  5
29B
330
1
100
AcDbSymbolTableRecord
100
AcDbBlockTableRecord
  2
SW_CENTERMARKSYMBOL_10
340
0
102
{BLKREFS
331
2A6
102
}
  0
BLOCK_RECORD
  5
2A7
330
1
100
AcDbSymbolTableRecord
100
AcDbBlockTableRecord
  2
SW_CENTERMARKSYMBOL_11
340
0
102
{BLKREFS
331
2B2
102
}
  0
BLOCK_RECORD
  5
2B3
330
1
100
AcDbSymbolTableRecord
100
AcDbBlockTableRecord
  2
SW_CENTERMARKSYMBOL_12
340
0
102
{BLKREFS
331
2BE
102
}
  0
BLOCK_RECORD
  5
2BF
330
1
100
AcDbSymbolTableRecord
100
AcDbBlockTableRecord
  2
SW_CENTERMARKSYMBOL_13
340
0
102
{BLKREFS
331
2CA
102
}
  0
BLOCK_RECORD
  5
2CB
330
1
100
AcDbSymbolTableRecord
100
AcDbBlockTableRecord
  2
SW_CENTERMARKSYMBOL_14
340
0
102
{BLKREFS
331
2D6
102
}
  0
BLOCK_RECORD
  5
2D7
330
1
100
AcDbSymbolTableRecord
100
AcDbBlockTableRecord
  2
SW_CENTERMARKSYMBOL_15
340
0
102
{BLKREFS
331
2E2
102
}
  0
BLOCK_RECORD
  5
2E3
330
1
100
AcDbSymbolTableRecord
100
AcDbBlockTableRecord
  2
SW_CENTERMARKSYMBOL_16
340
0
102
{BLKREFS
331
2EE
102
}
  0
BLOCK_RECORD
  5
2EF
330
1
100
AcDbSymbolTableRecord
100
AcDbBlockTableRecord
  2
SW_CENTERMARKSYMBOL_17
340
0
102
{BLKREFS
331
2FA
102
}
  0
BLOCK_RECORD
  5
2FB
330
1
100
AcDbSymbolTableRecord
100
AcDbBlockTableRecord
  2
SW_CENTERMARKSYMBOL_18
340
0
102
{BLKREFS
331
306
102
}
  0
BLOCK_RECORD
  5
307
330
1
100
AcDbSymbolTableRecord
100
AcDbBlockTableRecord
  2
SW_CENTERMARKSYMBOL_19
340
0
102
{BLKREFS
331
312
102
}
  0
BLOCK_RECORD
  5
313
330
1
100
AcDbSymbolTableRecord
100
AcDbBlockTableRecord
  2
SW_CENTERMARKSYMBOL_20
340
0
102
{BLKREFS
331
31E
102
}
  0
BLOCK_RECORD
  5
31F
330
1
100
AcDbSymbolTableRecord
100
AcDbBlockTableRecord
  2
SW_CENTERMARKSYMBOL_21
340
0
102
{BLKREFS
331
32A
102
}
  0
BLOCK_RECORD
  5
32B
330
1
100
AcDbSymbolTableRecord
100
AcDbBlockTableRecord
  2
SW_CENTERMARKSYMBOL_22
340
0
102
{BLKREFS
331
336
102
}
  0
BLOCK_RECORD
  5
337
330
1
100
AcDbSymbolTableRecord
100
AcDbBlockTableRecord
  2
SW_CENTERMARKSYMBOL_23
340
0
102
{BLKREFS
331
342
102
}
  0
BLOCK_RECORD
  5
37B
330
1
100
AcDbSymbolTableRecord
100
AcDbBlockTableRecord
  2
_D_16
340
0
  0
BLOCK_RECORD
  5
385
330
1
100
AcDbSymbolTableRecord
100
AcDbBlockTableRecord
  2
_D_17
340
0
  0
BLOCK_RECORD
  5
38F
330
1
100
AcDbSymbolTableRecord
100
AcDbBlockTableRecord
  2
_D_18
340
0
  0
BLOCK_RECORD
  5
399
330
1
100
AcDbSymbolTableRecord
100
AcDbBlockTableRecord
  2
_D_19
340
0
  0
BLOCK_RECORD
  5
3A3
330
1
100
AcDbSymbolTableRecord
100
AcDbBlockTableRecord
  2
_D_20
340
0
  0
BLOCK_RECORD
  5
3AE
330
1
100
AcDbSymbolTableRecord
100
AcDbBlockTableRecord
  2
_D_21
340
0
  0
BLOCK_RECORD
  5
3B7
330
1
100
AcDbSymbolTableRecord
100
AcDbBlockTableRecord
  2
_D_22
340
0
  0
BLOCK_RECORD
  5
3C2
330
1
100
AcDbSymbolTableRecord
100
AcDbBlockTableRecord
  2
_D_23
340
0
  0
BLOCK_RECORD
  5
3CB
330
1
100
AcDbSymbolTableRecord
100
AcDbBlockTableRecord
  2
SW_CENTERMARKSYMBOL_24
340
0
102
{BLKREFS
331
3D6
102
}
  0
BLOCK_RECORD
  5
3D7
330
1
100
AcDbSymbolTableRecord
100
AcDbBlockTableRecord
  2
SW_CENTERMARKSYMBOL_25
340
0
102
{BLKREFS
331
3E2
102
}
  0
BLOCK_RECORD
  5
3E3
330
1
100
AcDbSymbolTableRecord
100
AcDbBlockTableRecord
  2
SW_CENTERMARKSYMBOL_26
340
0
102
{BLKREFS
331
3EE
102
}
  0
BLOCK_RECORD
  5
3EF
330
1
100
AcDbSymbolTableRecord
100
AcDbBlockTableRecord
  2
SW_CENTERMARKSYMBOL_27
340
0
102
{BLKREFS
331
3FA
102
}
  0
ENDTAB
  0
ENDSEC
  0
SECTION
  2
BLOCKS
  0
BLOCK
  5
20
330
1F
100
AcDbEntity
  8
0
100
AcDbBlockBegin
  2
*Model_Space
 70
     0
 10
0.0
 20
0.0
 30
0.0
  3
*Model_Space
  1

  0
ENDBLK
  5
21
330
1F
100
AcDbEntity
  8
0
100
AcDbBlockEnd
  0
BLOCK
  5
1C
330
1B
100
AcDbEntity
 67
     1
  8
0
100
AcDbBlockBegin
  2
*Paper_Space
 70
     0
 10
0.0
 20
0.0
 30
0.0
  3
*Paper_Space
  1

  0
ENDBLK
  5
1D
330
1B
100
AcDbEntity
 67
     1
  8
0
100
AcDbBlockEnd
  0
BLOCK
  5
24
330
23
100
AcDbEntity
  8
0
100
AcDbBlockBegin
  2
*Paper_Space0
 70
     0
 10
0.0
 20
0.0
 30
0.0
  3
*Paper_Space0
  1

  0
ENDBLK
  5
25
330
23
100
AcDbEntity
  8
0
100
AcDbBlockEnd
  0
BLOCK
  5
D0
330
CF
100
AcDbEntity
  8
0
100
AcDbBlockBegin
  2
SW_NOTE_0
 70
     0
 10
0.0
 20
0.0
 30
0.0
  3
SW_NOTE_0
  1

  0
MTEXT
  5
D2
330
CF
100
AcDbEntity
  8
0
  6
Continuous
 62
     0
370
     0
100
AcDbMText
 10
0.0
 20
5.1159875922
 30
0.0
 40
3.96875
 41
0.0
 71
     1
 72
     1
  1
PROPRIETARY AND CONFIDENTIAL
  7
SLDTEXTSTYLE1
 73
     1
 44
1.0
  0
MTEXT
  5
D3
330
CF
100
AcDbEntity
  8
0
  6
Continuous
 62
     0
370
     0
100
AcDbMText
 10
0.0
 20
-0.12297522
 30
0.0
 40
2.778125
 41
0.0
 71
     1
 72
     1
  1
THE INFORMATION CONTAINED IN THIS DRAWING IS THE SOLE PROPERTY OF UNICE E-O SERVICES INC. ANY REPRODUCTION IN PART OR AS A WHOLE WITHOUT THE WRITTEN PERMISSION OF UNICE E-O SERVICES INC IS 
  7
SLDTEXTSTYLE1
 73
     1
 44
1.0
  0
MTEXT
  5
D4
330
CF
100
AcDbEntity
  8
0
  6
Continuous
 62
     0
370
     0
100
AcDbMText
 10
0.0
 20
-3.8271418419
 30
0.0
 40
2.778125
 41
0.0
 71
     1
 72
     1
  1
PROHIBITED.
  7
SLDTEXTSTYLE1
 73
     1
 44
1.0
  0
ENDBLK
  5
D1
330
CF
100
AcDbEntity
  8
0
100
AcDbBlockEnd
  0
BLOCK
  5
108
330
107
100
AcDbEntity
  8
0
100
AcDbBlockBegin
  2
SW_NOTE_1
 70
     0
 10
0.0
 20
0.0
 30
0.0
  3
SW_NOTE_1
  1

  0
MTEXT
  5
10A
330
107
100
AcDbEntity
  8
DIM
 62
     0
100
AcDbMText
 10
0.0
 20
3.5811913146
 30
0.0
 40
2.778125
 41
0.0
 71
     1
 72
     1
  1
No.5, Andong Rd., Chung Li District,
  7
SLDTEXTSTYLE0
 73
     1
 44
1.0
  0
MTEXT
  5
10B
330
107
100
AcDbEntity
  8
DIM
 62
     0
100
AcDbMText
 10
0.0
 20
-0.1229753073
 30
0.0
 40
2.778125
 41
0.0
 71
     1
 72
     1
  1
Taoyuan City 32063, Taiwan, R.O.C.
  7
SLDTEXTSTYLE0
 73
     1
 44
1.0
  0
ENDBLK
  5
109
330
107
100
AcDbEntity
  8
0
100
AcDbBlockEnd
  0
BLOCK
  5
122
330
121
100
AcDbEntity
  8
0
100
AcDbBlockBegin
  2
SW_RADIAL_DIMENSION_0
 70
     0
 10
0.0
 20
0.0
 30
0.0
  3
SW_RADIAL_DIMENSION_0
  1

  0
SOLID
  5
124
330
121
100
AcDbEntity
  8
DIM
 62
     0
100
AcDbTrace
 10
42.9713606878
 20
-16.0918873843
 30
0.0
 11
40.5607844764
 21
-14.2671278579
 31
0.0
 12
40.1857844764
 22
-14.9166469107
 32
0.0
 13
40.1857844764
 23
-14.9166469107
 33
0.0
  0
LINE
  5
125
330
121
100
AcDbEntity
  8
DIM
 62
     0
100
AcDbLine
 10
42.9713606878
 20
-16.0918873843
 30
0.0
 11
25.0677079149
 21
-5.7552086364
 31
0.0
  0
LINE
  5
126
330
121
100
AcDbEntity
  8
DIM
 62
     0
100
AcDbLine
 10
25.0677079149
 20
-5.7552086364
 30
0.0
 11
0.0
 21
-5.7552086364
 31
0.0
  0
MTEXT
  5
127
330
121
100
AcDbEntity
  8
DIM
 62
     0
100
AcDbMText
 10
0.0
 20
4.8340040241
 30
0.0
 40
3.75
 41
0.0
 71
     1
 72
     1
  1
4 HOLES,
  7
SLDTEXTSTYLE1
 73
     1
 44
1.0
  0
MTEXT
  5
128
330
121
100
AcDbEntity
  8
DIM
 62
     0
100
AcDbMText
 10
0.0
 20
-0.9212041757
 30
0.0
 40
3.75
 41
0.0
 71
     1
 72
     1
  1
M6
  7
SLDTEXTSTYLE1
 73
     1
 44
1.0
  0
ENDBLK
  5
123
330
121
100
AcDbEntity
  8
0
100
AcDbBlockEnd
  0
BLOCK
  5
12D
330
12C
100
AcDbEntity
  8
0
100
AcDbBlockBegin
  2
_D
 70
     0
 10
0.0
 20
0.0
 30
0.0
  3
_D
  1

  0
SOLID
  5
12F
330
12C
100
AcDbEntity
  8
DIM
 62
     7
100
AcDbTrace
 10
277.2835509736
 20
239.297414495
 30
0.0
 11
276.9085509736
 21
236.297414495
 31
0.0
 12
277.6585509736
 22
236.297414495
 32
0.0
 13
277.6585509736
 23
236.297414495
 33
0.0
  0
SOLID
  5
130
330
12C
100
AcDbEntity
  8
DIM
 62
     7
100
AcDbTrace
 10
277.2835509736
 20
214.297414495
 30
0.0
 11
277.6585509736
 21
217.297414495
 31
0.0
 12
276.9085509736
 22
217.297414495
 32
0.0
 13
276.9085509736
 23
217.297414495
 33
0.0
  0
LINE
  5
131
330
12C
100
AcDbEntity
  8
DIM
 62
     7
100
AcDbLine
 10
252.647909371
 20
239.297414495
 30
0.0
 11
278.7835509736
 21
239.297414495
 31
0.0
  0
LINE
  5
132
330
12C
100
AcDbEntity
  8
DIM
 62
     7
100
AcDbLine
 10
252.647909371
 20
214.297414495
 30
0.0
 11
278.7835509736
 21
214.297414495
 31
0.0
  0
LINE
  5
133
330
12C
100
AcDbEntity
  8
DIM
 62
     7
100
AcDbLine
 10
277.2835509736
 20
239.297414495
 30
0.0
 11
277.2835509736
 21
214.297414495
 31
0.0
  0
MTEXT
  5
134
330
12C
100
AcDbEntity
  8
DIM
 62
     7
100
AcDbMText
 10
272.4495472114
 20
223.9328311578
 30
0.0
 40
3.75
 41
0.0
 71
     1
 72
     1
  1
25
  7
SLDTEXTSTYLE1
 11
-3.491481338843133E-15
 21
1.0
 31
0.0
 73
     1
 44
1.0
  0
ENDBLK
  5
12E
330
12C
100
AcDbEntity
  8
0
100
AcDbBlockEnd
  0
BLOCK
  5
137
330
136
100
AcDbEntity
  8
0
100
AcDbBlockBegin
  2
_D_1
 70
     0
 10
0.0
 20
0.0
 30
0.0
  3
_D_1
  1

  0
SOLID
  5
139
330
136
100
AcDbEntity
  8
DIM
 62
     7
100
AcDbTrace
 10
277.2835509736
 20
214.297414495
 30
0.0
 11
276.9085509736
 21
211.297414495
 31
0.0
 12
277.6585509736
 22
211.297414495
 32
0.0
 13
277.6585509736
 23
211.297414495
 33
0.0
  0
SOLID
  5
13A
330
136
100
AcDbEntity
  8
DIM
 62
     7
100
AcDbTrace
 10
277.2835509736
 20
189.297414495
 30
0.0
 11
277.6585509736
 21
192.297414495
 31
0.0
 12
276.9085509736
 22
192.297414495
 32
0.0
 13
276.9085509736
 23
192.297414495
 33
0.0
  0
LINE
  5
13B
330
136
100
AcDbEntity
  8
DIM
 62
     7
100
AcDbLine
 10
252.647909371
 20
214.297414495
 30
0.0
 11
278.7835509736
 21
214.297414495
 31
0.0
  0
LINE
  5
13C
330
136
100
AcDbEntity
  8
DIM
 62
     7
100
AcDbLine
 10
252.647909371
 20
189.297414495
 30
0.0
 11
278.7835509736
 21
189.297414495
 31
0.0
  0
LINE
  5
13D
330
136
100
AcDbEntity
  8
DIM
 62
     7
100
AcDbLine
 10
277.2835509736
 20
214.297414495
 30
0.0
 11
277.2835509736
 21
189.297414495
 31
0.0
  0
MTEXT
  5
13E
330
136
100
AcDbEntity
  8
DIM
 62
     7
100
AcDbMText
 10
272.4495472114
 20
198.9328311578
 30
0.0
 40
3.75
 41
0.0
 71
     1
 72
     1
  1
25
  7
SLDTEXTSTYLE1
 11
-3.491481338843133E-15
 21
1.0
 31
0.0
 73
     1
 44
1.0
  0
ENDBLK
  5
138
330
136
100
AcDbEntity
  8
0
100
AcDbBlockEnd
  0
BLOCK
  5
141
330
140
100
AcDbEntity
  8
0
100
AcDbBlockBegin
  2
_D_2
 70
     0
 10
0.0
 20
0.0
 30
0.0
  3
_D_2
  1

  0
SOLID
  5
143
330
140
100
AcDbEntity
  8
DIM
100
AcDbTrace
 10
226.147909371
 20
143.797414495
 30
0.0
 11
229.147909371
 21
143.422414495
 31
0.0
 12
229.147909371
 22
144.172414495
 32
0.0
 13
229.147909371
 23
144.172414495
 33
0.0
  0
SOLID
  5
144
330
140
100
AcDbEntity
  8
DIM
100
AcDbTrace
 10
251.147909371
 20
143.797414495
 30
0.0
 11
248.147909371
 21
144.172414495
 31
0.0
 12
248.147909371
 22
143.422414495
 32
0.0
 13
248.147909371
 23
143.422414495
 33
0.0
  0
LINE
  5
145
330
140
100
AcDbEntity
  8
DIM
100
AcDbLine
 10
226.147909371
 20
212.797414495
 30
0.0
 11
226.147909371
 21
142.297414495
 31
0.0
  0
LINE
  5
146
330
140
100
AcDbEntity
  8
DIM
100
AcDbLine
 10
251.147909371
 20
187.797414495
 30
0.0
 11
251.147909371
 21
142.297414495
 31
0.0
  0
LINE
  5
147
330
140
100
AcDbEntity
  8
DIM
100
AcDbLine
 10
226.147909371
 20
143.797414495
 30
0.0
 11
251.147909371
 21
143.797414495
 31
0.0
  0
MTEXT
  5
148
330
140
100
AcDbEntity
  8
DIM
100
AcDbMText
 10
235.7833260338
 20
148.6314182572
 30
0.0
 40
3.75
 41
0.0
 71
     1
 72
     1
  1
25
  7
SLDTEXTSTYLE1
 73
     1
 44
1.0
  0
ENDBLK
  5
142
330
140
100
AcDbEntity
  8
0
100
AcDbBlockEnd
  0
BLOCK
  5
14B
330
14A
100
AcDbEntity
  8
0
100
AcDbBlockBegin
  2
_D_3
 70
     0
 10
0.0
 20
0.0
 30
0.0
  3
_D_3
  1

  0
SOLID
  5
14D
330
14A
100
AcDbEntity
  8
DIM
100
AcDbTrace
 10
251.147909371
 20
143.797414495
 30
0.0
 11
254.147909371
 21
143.422414495
 31
0.0
 12
254.147909371
 22
144.172414495
 32
0.0
 13
254.147909371
 23
144.172414495
 33
0.0
  0
SOLID
  5
14E
330
14A
100
AcDbEntity
  8
DIM
100
AcDbTrace
 10
264.147909371
 20
143.797414495
 30
0.0
 11
261.147909371
 21
144.172414495
 31
0.0
 12
261.147909371
 22
143.422414495
 32
0.0
 13
261.147909371
 23
143.422414495
 33
0.0
  0
LINE
  5
14F
330
14A
100
AcDbEntity
  8
DIM
100
AcDbLine
 10
251.147909371
 20
187.797414495
 30
0.0
 11
251.147909371
 21
142.297414495
 31
0.0
  0
LINE
  5
150
330
14A
100
AcDbEntity
  8
DIM
100
AcDbLine
 10
264.147909371
 20
158.797414495
 30
0.0
 11
264.147909371
 21
142.297414495
 31
0.0
  0
LINE
  5
151
330
14A
100
AcDbEntity
  8
DIM
100
AcDbLine
 10
251.147909371
 20
143.797414495
 30
0.0
 11
264.147909371
 21
143.797414495
 31
0.0
  0
MTEXT
  5
152
330
14A
100
AcDbEntity
  8
DIM
100
AcDbMText
 10
254.7833260338
 20
148.6314182572
 30
0.0
 40
3.75
 41
0.0
 71
     1
 72
     1
  1
13
  7
SLDTEXTSTYLE1
 73
     1
 44
1.0
  0
ENDBLK
  5
14C
330
14A
100
AcDbEntity
  8
0
100
AcDbBlockEnd
  0
BLOCK
  5
154
330
153
100
AcDbEntity
  8
0
100
AcDbBlockBegin
  2
SW_CENTERMARKSYMBOL_0
 70
     0
 10
0.0
 20
0.0
 30
0.0
  3
SW_CENTERMARKSYMBOL_0
  1

  0
LINE
  5
156
330
153
100
AcDbEntity
  8
DIM
 62
     0
100
AcDbLine
 10
0.0
 20
0.0
 30
0.0
 11
0.0
 21
1.0
 31
0.0
  0
LINE
  5
157
330
153
100
AcDbEntity
  8
DIM
 62
     0
100
AcDbLine
 10
0.0
 20
0.0
 30
0.0
 11
-1.0
 21
0.0
 31
0.0
  0
LINE
  5
158
330
153
100
AcDbEntity
  8
DIM
 62
     0
100
AcDbLine
 10
0.0
 20
0.0
 30
0.0
 11
0.0
 21
-1.0
 31
0.0
  0
LINE
  5
159
330
153
100
AcDbEntity
  8
DIM
 62
     0
100
AcDbLine
 10
0.0
 20
0.0
 30
0.0
 11
1.0
 21
0.0
 31
0.0
  0
LINE
  5
15A
330
153
100
AcDbEntity
  8
DIM
 62
     0
100
AcDbLine
 10
0.0
 20
2.0
 30
0.0
 11
0.0
 21
3.5
 31
0.0
  0
LINE
  5
15B
330
153
100
AcDbEntity
  8
DIM
 62
     0
100
AcDbLine
 10
-2.0
 20
0.0
 30
0.0
 11
-3.5
 21
0.0
 31
0.0
  0
LINE
  5
15C
330
153
100
AcDbEntity
  8
DIM
 62
     0
100
AcDbLine
 10
0.0
 20
-2.0
 30
0.0
 11
0.0
 21
-3.5
 31
0.0
  0
LINE
  5
15D
330
153
100
AcDbEntity
  8
DIM
 62
     0
100
AcDbLine
 10
2.0
 20
0.0
 30
0.0
 11
3.5
 21
0.0
 31
0.0
  0
ENDBLK
  5
155
330
153
100
AcDbEntity
  8
0
100
AcDbBlockEnd
  0
BLOCK
  5
160
330
15F
100
AcDbEntity
  8
0
100
AcDbBlockBegin
  2
SW_CENTERMARKSYMBOL_1
 70
     0
 10
0.0
 20
0.0
 30
0.0
  3
SW_CENTERMARKSYMBOL_1
  1

  0
LINE
  5
162
330
15F
100
AcDbEntity
  8
DIM
 62
     0
100
AcDbLine
 10
0.0
 20
0.0
 30
0.0
 11
0.0
 21
1.0
 31
0.0
  0
LINE
  5
163
330
15F
100
AcDbEntity
  8
DIM
 62
     0
100
AcDbLine
 10
0.0
 20
0.0
 30
0.0
 11
-1.0
 21
0.0
 31
0.0
  0
LINE
  5
164
330
15F
100
AcDbEntity
  8
DIM
 62
     0
100
AcDbLine
 10
0.0
 20
0.0
 30
0.0
 11
0.0
 21
-1.0
 31
0.0
  0
LINE
  5
165
330
15F
100
AcDbEntity
  8
DIM
 62
     0
100
AcDbLine
 10
0.0
 20
0.0
 30
0.0
 11
1.0
 21
0.0
 31
0.0
  0
LINE
  5
166
330
15F
100
AcDbEntity
  8
DIM
 62
     0
100
AcDbLine
 10
0.0
 20
2.0
 30
0.0
 11
0.0
 21
3.5
 31
0.0
  0
LINE
  5
167
330
15F
100
AcDbEntity
  8
DIM
 62
     0
100
AcDbLine
 10
-2.0
 20
0.0
 30
0.0
 11
-3.5
 21
0.0
 31
0.0
  0
LINE
  5
168
330
15F
100
AcDbEntity
  8
DIM
 62
     0
100
AcDbLine
 10
0.0
 20
-2.0
 30
0.0
 11
0.0
 21
-3.5
 31
0.0
  0
LINE
  5
169
330
15F
100
AcDbEntity
  8
DIM
 62
     0
100
AcDbLine
 10
2.0
 20
0.0
 30
0.0
 11
3.5
 21
0.0
 31
0.0
  0
ENDBLK
  5
161
330
15F
100
AcDbEntity
  8
0
100
AcDbBlockEnd
  0
BLOCK
  5
16C
330
16B
100
AcDbEntity
  8
0
100
AcDbBlockBegin
  2
SW_CENTERMARKSYMBOL_2
 70
     0
 10
0.0
 20
0.0
 30
0.0
  3
SW_CENTERMARKSYMBOL_2
  1

  0
LINE
  5
16E
330
16B
100
AcDbEntity
  8
DIM
 62
     0
100
AcDbLine
 10
0.0
 20
0.0
 30
0.0
 11
0.0
 21
1.0
 31
0.0
  0
LINE
  5
16F
330
16B
100
AcDbEntity
  8
DIM
 62
     0
100
AcDbLine
 10
0.0
 20
0.0
 30
0.0
 11
-1.0
 21
0.0
 31
0.0
  0
LINE
  5
170
330
16B
100
AcDbEntity
  8
DIM
 62
     0
100
AcDbLine
 10
0.0
 20
0.0
 30
0.0
 11
0.0
 21
-1.0
 31
0.0
  0
LINE
  5
171
330
16B
100
AcDbEntity
  8
DIM
 62
     0
100
AcDbLine
 10
0.0
 20
0.0
 30
0.0
 11
1.0
 21
0.0
 31
0.0
  0
LINE
  5
172
330
16B
100
AcDbEntity
  8
DIM
 62
     0
100
AcDbLine
 10
0.0
 20
2.0
 30
0.0
 11
0.0
 21
3.5
 31
0.0
  0
LINE
  5
173
330
16B
100
AcDbEntity
  8
DIM
 62
     0
100
AcDbLine
 10
-2.0
 20
0.0
 30
0.0
 11
-3.5
 21
0.0
 31
0.0
  0
LINE
  5
174
330
16B
100
AcDbEntity
  8
DIM
 62
     0
100
AcDbLine
 10
0.0
 20
-2.0
 30
0.0
 11
0.0
 21
-3.5
 31
0.0
  0
LINE
  5
175
330
16B
100
AcDbEntity
  8
DIM
 62
     0
100
AcDbLine
 10
2.0
 20
0.0
 30
0.0
 11
3.5
 21
0.0
 31
0.0
  0
ENDBLK
  5
16D
330
16B
100
AcDbEntity
  8
0
100
AcDbBlockEnd
  0
BLOCK
  5
178
330
177
100
AcDbEntity
  8
0
100
AcDbBlockBegin
  2
SW_CENTERMARKSYMBOL_3
 70
     0
 10
0.0
 20
0.0
 30
0.0
  3
SW_CENTERMARKSYMBOL_3
  1

  0
LINE
  5
17A
330
177
100
AcDbEntity
  8
DIM
 62
     0
100
AcDbLine
 10
0.0
 20
0.0
 30
0.0
 11
0.0
 21
1.0
 31
0.0
  0
LINE
  5
17B
330
177
100
AcDbEntity
  8
DIM
 62
     0
100
AcDbLine
 10
0.0
 20
0.0
 30
0.0
 11
-1.0
 21
0.0
 31
0.0
  0
LINE
  5
17C
330
177
100
AcDbEntity
  8
DIM
 62
     0
100
AcDbLine
 10
0.0
 20
0.0
 30
0.0
 11
0.0
 21
-1.0
 31
0.0
  0
LINE
  5
17D
330
177
100
AcDbEntity
  8
DIM
 62
     0
100
AcDbLine
 10
0.0
 20
0.0
 30
0.0
 11
1.0
 21
0.0
 31
0.0
  0
LINE
  5
17E
330
177
100
AcDbEntity
  8
DIM
 62
     0
100
AcDbLine
 10
0.0
 20
2.0
 30
0.0
 11
0.0
 21
3.5
 31
0.0
  0
LINE
  5
17F
330
177
100
AcDbEntity
  8
DIM
 62
     0
100
AcDbLine
 10
-2.0
 20
0.0
 30
0.0
 11
-3.5
 21
0.0
 31
0.0
  0
LINE
  5
180
330
177
100
AcDbEntity
  8
DIM
 62
     0
100
AcDbLine
 10
0.0
 20
-2.0
 30
0.0
 11
0.0
 21
-3.5
 31
0.0
  0
LINE
  5
181
330
177
100
AcDbEntity
  8
DIM
 62
     0
100
AcDbLine
 10
2.0
 20
0.0
 30
0.0
 11
3.5
 21
0.0
 31
0.0
  0
ENDBLK
  5
179
330
177
100
AcDbEntity
  8
0
100
AcDbBlockEnd
  0
BLOCK
  5
1DB
330
1DA
100
AcDbEntity
  8
0
100
AcDbBlockBegin
  2
_D_4
 70
     0
 10
0.0
 20
0.0
 30
0.0
  3
_D_4
  1

  0
SOLID
  5
1DD
330
1DA
100
AcDbEntity
  8
DIM
100
AcDbTrace
 10
180.6725496685
 20
268.297414495
 30
0.0
 11
180.2975496685
 21
265.297414495
 31
0.0
 12
181.0475496685
 22
265.297414495
 32
0.0
 13
181.0475496685
 23
265.297414495
 33
0.0
  0
SOLID
  5
1DE
330
1DA
100
AcDbEntity
  8
DIM
100
AcDbTrace
 10
180.6725496685
 20
160.297414495
 30
0.0
 11
181.0475496685
 21
163.297414495
 31
0.0
 12
180.2975496685
 22
163.297414495
 32
0.0
 13
180.2975496685
 23
163.297414495
 33
0.0
  0
LINE
  5
1DF
330
1DA
100
AcDbEntity
  8
DIM
100
AcDbLine
 10
150.2063620061
 20
268.297414495
 30
0.0
 11
182.1725496685
 21
268.297414495
 31
0.0
  0
LINE
  5
1E0
330
1DA
100
AcDbEntity
  8
DIM
100
AcDbLine
 10
150.2063620061
 20
160.297414495
 30
0.0
 11
182.1725496685
 21
160.297414495
 31
0.0
  0
LINE
  5
1E1
330
1DA
100
AcDbEntity
  8
DIM
100
AcDbLine
 10
180.6725496685
 20
268.297414495
 30
0.0
 11
180.6725496685
 21
160.297414495
 31
0.0
  0
MTEXT
  5
1E2
330
1DA
100
AcDbEntity
  8
DIM
100
AcDbMText
 10
175.8385459063
 20
210.0005394019
 30
0.0
 40
3.75
 41
0.0
 71
     1
 72
     1
  1
108
  7
SLDTEXTSTYLE1
 11
-7.044195017643634E-15
 21
1.0
 31
0.0
 73
     1
 44
1.0
  0
ENDBLK
  5
1DC
330
1DA
100
AcDbEntity
  8
0
100
AcDbBlockEnd
  0
BLOCK
  5
1E5
330
1E4
100
AcDbEntity
  8
0
100
AcDbBlockBegin
  2
_D_5
 70
     0
 10
0.0
 20
0.0
 30
0.0
  3
_D_5
  1

  0
SOLID
  5
1E7
330
1E4
100
AcDbEntity
  8
DIM
100
AcDbTrace
 10
148.7063620061
 20
127.7524010279
 30
0.0
 11
145.7063620061
 21
128.1274010279
 31
0.0
 12
145.7063620061
 22
127.3774010279
 32
0.0
 13
145.7063620061
 23
127.3774010279
 33
0.0
  0
SOLID
  5
1E8
330
1E4
100
AcDbEntity
  8
DIM
100
AcDbTrace
 10
72.7063620061
 20
127.7524010279
 30
0.0
 11
75.7063620061
 21
127.3774010279
 31
0.0
 12
75.7063620061
 22
128.1274010279
 32
0.0
 13
75.7063620061
 23
128.1274010279
 33
0.0
  0
LINE
  5
1E9
330
1E4
100
AcDbEntity
  8
DIM
100
AcDbLine
 10
148.7063620061
 20
158.797414495
 30
0.0
 11
148.7063620061
 21
126.2524010279
 31
0.0
  0
LINE
  5
1EA
330
1E4
100
AcDbEntity
  8
DIM
100
AcDbLine
 10
72.7063620061
 20
158.797414495
 30
0.0
 11
72.7063620061
 21
126.2524010279
 31
0.0
  0
LINE
  5
1EB
330
1E4
100
AcDbEntity
  8
DIM
100
AcDbLine
 10
148.7063620061
 20
127.7524010279
 30
0.0
 11
72.7063620061
 21
127.7524010279
 31
0.0
  0
MTEXT
  5
1EC
330
1E4
100
AcDbEntity
  8
DIM
100
AcDbMText
 10
107.8417786689
 20
132.5864047901
 30
0.0
 40
3.75
 41
0.0
 71
     1
 72
     1
  1
76
  7
SLDTEXTSTYLE1
 73
     1
 44
1.0
  0
ENDBLK
  5
1E6
330
1E4
100
AcDbEntity
  8
0
100
AcDbBlockEnd
  0
BLOCK
  5
1EF
330
1EE
100
AcDbEntity
  8
0
100
AcDbBlockBegin
  2
_D_6
 70
     0
 10
0.0
 20
0.0
 30
0.0
  3
_D_6
  1

  0
SOLID
  5
1F1
330
1EE
100
AcDbEntity
  8
DIM
 62
     7
100
AcDbTrace
 10
160.7063620061
 20
226.797414495
 30
0.0
 11
160.3313620061
 21
223.797414495
 31
0.0
 12
161.0813620061
 22
223.797414495
 32
0.0
 13
161.0813620061
 23
223.797414495
 33
0.0
  0
SOLID
  5
1F2
330
1EE
100
AcDbEntity
  8
DIM
 62
     7
100
AcDbTrace
 10
160.7063620061
 20
214.297414495
 30
0.0
 11
161.0813620061
 21
217.297414495
 31
0.0
 12
160.3313620061
 22
217.297414495
 32
0.0
 13
160.3313620061
 23
217.297414495
 33
0.0
  0
LINE
  5
1F3
330
1EE
100
AcDbEntity
  8
DIM
 62
     7
100
AcDbLine
 10
137.2063620061
 20
226.797414495
 30
0.0
 11
162.2063620061
 21
226.797414495
 31
0.0
  0
LINE
  5
1F4
330
1EE
100
AcDbEntity
  8
DIM
 62
     7
100
AcDbLine
 10
153.2063620061
 20
214.297414495
 30
0.0
 11
162.2063620061
 21
214.297414495
 31
0.0
  0
LINE
  5
1F5
330
1EE
100
AcDbEntity
  8
DIM
 62
     7
100
AcDbLine
 10
160.7063620061
 20
226.797414495
 30
0.0
 11
160.7063620061
 21
214.297414495
 31
0.0
  0
MTEXT
  5
1F6
330
1EE
100
AcDbEntity
  8
DIM
 62
     7
100
AcDbMText
 10
155.8723582439
 20
215.5343937859
 30
0.0
 40
3.75
 41
0.0
 71
     1
 72
     1
  1
12.5
  7
SLDTEXTSTYLE1
 11
-7.044195017643634E-15
 21
1.0
 31
0.0
 73
     1
 44
1.0
  0
ENDBLK
  5
1F0
330
1EE
100
AcDbEntity
  8
0
100
AcDbBlockEnd
  0
BLOCK
  5
1F9
330
1F8
100
AcDbEntity
  8
0
100
AcDbBlockBegin
  2
_D_7
 70
     0
 10
0.0
 20
0.0
 30
0.0
  3
_D_7
  1

  0
SOLID
  5
1FB
330
1F8
100
AcDbEntity
  8
DIM
 62
     7
100
AcDbTrace
 10
160.7063620061
 20
201.797414495
 30
0.0
 11
161.0813620061
 21
204.797414495
 31
0.0
 12
160.3313620061
 22
204.797414495
 32
0.0
 13
160.3313620061
 23
204.797414495
 33
0.0
  0
SOLID
  5
1FC
330
1F8
100
AcDbEntity
  8
DIM
 62
     7
100
AcDbTrace
 10
160.7063620061
 20
214.297414495
 30
0.0
 11
160.3313620061
 21
211.297414495
 31
0.0
 12
161.0813620061
 22
211.297414495
 32
0.0
 13
161.0813620061
 23
211.297414495
 33
0.0
  0
LINE
  5
1FD
330
1F8
100
AcDbEntity
  8
DIM
 62
     7
100
AcDbLine
 10
137.2063620061
 20
201.797414495
 30
0.0
 11
162.2063620061
 21
201.797414495
 31
0.0
  0
LINE
  5
1FE
330
1F8
100
AcDbEntity
  8
DIM
 62
     7
100
AcDbLine
 10
153.2063620061
 20
214.297414495
 30
0.0
 11
162.2063620061
 21
214.297414495
 31
0.0
  0
LINE
  5
1FF
330
1F8
100
AcDbEntity
  8
DIM
 62
     7
100
AcDbLine
 10
160.7063620061
 20
201.797414495
 30
0.0
 11
160.7063620061
 21
214.297414495
 31
0.0
  0
MTEXT
  5
200
330
1F8
100
AcDbEntity
  8
DIM
 62
     7
100
AcDbMText
 10
155.8723582439
 20
203.0343937859
 30
0.0
 40
3.75
 41
0.0
 71
     1
 72
     1
  1
12.5
  7
SLDTEXTSTYLE1
 11
6.123233995736766E-17
 21
1.0
 31
0.0
 73
     1
 44
1.0
  0
ENDBLK
  5
1FA
330
1F8
100
AcDbEntity
  8
0
100
AcDbBlockEnd
  0
BLOCK
  5
203
330
202
100
AcDbEntity
  8
0
100
AcDbBlockBegin
  2
_D_8
 70
     0
 10
0.0
 20
0.0
 30
0.0
  3
_D_8
  1

  0
SOLID
  5
205
330
202
100
AcDbEntity
  8
DIM
 62
     7
100
AcDbTrace
 10
169.7063620061
 20
251.797414495
 30
0.0
 11
169.3313620061
 21
248.797414495
 31
0.0
 12
170.0813620061
 22
248.797414495
 32
0.0
 13
170.0813620061
 23
248.797414495
 33
0.0
  0
SOLID
  5
206
330
202
100
AcDbEntity
  8
DIM
 62
     7
100
AcDbTrace
 10
169.7063620061
 20
214.297414495
 30
0.0
 11
170.0813620061
 21
217.297414495
 31
0.0
 12
169.3313620061
 22
217.297414495
 32
0.0
 13
169.3313620061
 23
217.297414495
 33
0.0
  0
LINE
  5
207
330
202
100
AcDbEntity
  8
DIM
 62
     7
100
AcDbLine
 10
137.2063620061
 20
251.797414495
 30
0.0
 11
171.2063620061
 21
251.797414495
 31
0.0
  0
LINE
  5
208
330
202
100
AcDbEntity
  8
DIM
 62
     7
100
AcDbLine
 10
153.2063620061
 20
214.297414495
 30
0.0
 11
171.2063620061
 21
214.297414495
 31
0.0
  0
LINE
  5
209
330
202
100
AcDbEntity
  8
DIM
 62
     7
100
AcDbLine
 10
169.7063620061
 20
251.797414495
 30
0.0
 11
169.7063620061
 21
214.297414495
 31
0.0
  0
MTEXT
  5
20A
330
202
100
AcDbEntity
  8
DIM
 62
     7
100
AcDbMText
 10
164.8723582439
 20
228.0343937859
 30
0.0
 40
3.75
 41
0.0
 71
     1
 72
     1
  1
37.5
  7
SLDTEXTSTYLE1
 11
-7.044195017643634E-15
 21
1.0
 31
0.0
 73
     1
 44
1.0
  0
ENDBLK
  5
204
330
202
100
AcDbEntity
  8
0
100
AcDbBlockEnd
  0
BLOCK
  5
20D
330
20C
100
AcDbEntity
  8
0
100
AcDbBlockBegin
  2
_D_9
 70
     0
 10
0.0
 20
0.0
 30
0.0
  3
_D_9
  1

  0
SOLID
  5
20F
330
20C
100
AcDbEntity
  8
DIM
 62
     7
100
AcDbTrace
 10
169.7063620061
 20
176.797414495
 30
0.0
 11
170.0813620061
 21
179.797414495
 31
0.0
 12
169.3313620061
 22
179.797414495
 32
0.0
 13
169.3313620061
 23
179.797414495
 33
0.0
  0
SOLID
  5
210
330
20C
100
AcDbEntity
  8
DIM
 62
     7
100
AcDbTrace
 10
169.7063620061
 20
214.297414495
 30
0.0
 11
169.3313620061
 21
211.297414495
 31
0.0
 12
170.0813620061
 22
211.297414495
 32
0.0
 13
170.0813620061
 23
211.297414495
 33
0.0
  0
LINE
  5
211
330
20C
100
AcDbEntity
  8
DIM
 62
     7
100
AcDbLine
 10
137.2063620061
 20
176.797414495
 30
0.0
 11
171.2063620061
 21
176.797414495
 31
0.0
  0
LINE
  5
212
330
20C
100
AcDbEntity
  8
DIM
 62
     7
100
AcDbLine
 10
153.2063620061
 20
214.297414495
 30
0.0
 11
171.2063620061
 21
214.297414495
 31
0.0
  0
LINE
  5
213
330
20C
100
AcDbEntity
  8
DIM
 62
     7
100
AcDbLine
 10
169.7063620061
 20
176.797414495
 30
0.0
 11
169.7063620061
 21
214.297414495
 31
0.0
  0
MTEXT
  5
214
330
20C
100
AcDbEntity
  8
DIM
 62
     7
100
AcDbMText
 10
164.8723582439
 20
190.5343937859
 30
0.0
 40
3.75
 41
0.0
 71
     1
 72
     1
  1
37.5
  7
SLDTEXTSTYLE1
 11
6.123233995736766E-17
 21
1.0
 31
0.0
 73
     1
 44
1.0
  0
ENDBLK
  5
20E
330
20C
100
AcDbEntity
  8
0
100
AcDbBlockEnd
  0
BLOCK
  5
217
330
216
100
AcDbEntity
  8
0
100
AcDbBlockBegin
  2
_D_10
 70
     0
 10
0.0
 20
0.0
 30
0.0
  3
_D_10
  1

  0
SOLID
  5
219
330
216
100
AcDbEntity
  8
DIM
 62
     7
100
AcDbTrace
 10
98.2063620061
 20
147.2571988834
 30
0.0
 11
101.2063620061
 21
146.8821988834
 31
0.0
 12
101.2063620061
 22
147.6321988834
 32
0.0
 13
101.2063620061
 23
147.6321988834
 33
0.0
  0
SOLID
  5
21A
330
216
100
AcDbEntity
  8
DIM
 62
     7
100
AcDbTrace
 10
110.7063620061
 20
147.2571988834
 30
0.0
 11
107.7063620061
 21
147.6321988834
 31
0.0
 12
107.7063620061
 22
146.8821988834
 32
0.0
 13
107.7063620061
 23
146.8821988834
 33
0.0
  0
LINE
  5
21B
330
216
100
AcDbEntity
  8
DIM
 62
     7
100
AcDbLine
 10
98.2063620061
 20
170.797414495
 30
0.0
 11
98.2063620061
 21
145.7571988834
 31
0.0
  0
LINE
  5
21C
330
216
100
AcDbEntity
  8
DIM
 62
     7
100
AcDbLine
 10
110.7063620061
 20
175.297414495
 30
0.0
 11
110.7063620061
 21
145.7571988834
 31
0.0
  0
LINE
  5
21D
330
216
100
AcDbEntity
  8
DIM
 62
     7
100
AcDbLine
 10
98.2063620061
 20
147.2571988834
 30
0.0
 11
110.7063620061
 21
147.2571988834
 31
0.0
  0
MTEXT
  5
21E
330
216
100
AcDbEntity
  8
DIM
 62
     7
100
AcDbMText
 10
99.4433412969
 20
152.0912026456
 30
0.0
 40
3.75
 41
0.0
 71
     1
 72
     1
  1
12.5
  7
SLDTEXTSTYLE1
 73
     1
 44
1.0
  0
ENDBLK
  5
218
330
216
100
AcDbEntity
  8
0
100
AcDbBlockEnd
  0
BLOCK
  5
221
330
220
100
AcDbEntity
  8
0
100
AcDbBlockBegin
  2
_D_11
 70
     0
 10
0.0
 20
0.0
 30
0.0
  3
_D_11
  1

  0
SOLID
  5
223
330
220
100
AcDbEntity
  8
DIM
 62
     7
100
AcDbTrace
 10
110.7063620061
 20
147.2571988834
 30
0.0
 11
113.7063620061
 21
146.8821988834
 31
0.0
 12
113.7063620061
 22
147.6321988834
 32
0.0
 13
113.7063620061
 23
147.6321988834
 33
0.0
  0
SOLID
  5
224
330
220
100
AcDbEntity
  8
DIM
 62
     7
100
AcDbTrace
 10
123.2063620061
 20
147.2571988834
 30
0.0
 11
120.2063620061
 21
147.6321988834
 31
0.0
 12
120.2063620061
 22
146.8821988834
 32
0.0
 13
120.2063620061
 23
146.8821988834
 33
0.0
  0
LINE
  5
225
330
220
100
AcDbEntity
  8
DIM
 62
     7
100
AcDbLine
 10
110.7063620061
 20
175.297414495
 30
0.0
 11
110.7063620061
 21
145.7571988834
 31
0.0
  0
LINE
  5
226
330
220
100
AcDbEntity
  8
DIM
 62
     7
100
AcDbLine
 10
123.2063620061
 20
170.797414495
 30
0.0
 11
123.2063620061
 21
145.7571988834
 31
0.0
  0
LINE
  5
227
330
220
100
AcDbEntity
  8
DIM
 62
     7
100
AcDbLine
 10
110.7063620061
 20
147.2571988834
 30
0.0
 11
123.2063620061
 21
147.2571988834
 31
0.0
  0
MTEXT
  5
228
330
220
100
AcDbEntity
  8
DIM
 62
     7
100
AcDbMText
 10
111.9433412969
 20
152.0912026456
 30
0.0
 40
3.75
 41
0.0
 71
     1
 72
     1
  1
12.5
  7
SLDTEXTSTYLE1
 73
     1
 44
1.0
  0
ENDBLK
  5
222
330
220
100
AcDbEntity
  8
0
100
AcDbBlockEnd
  0
BLOCK
  5
22B
330
22A
100
AcDbEntity
  8
0
100
AcDbBlockBegin
  2
_D_12
 70
     0
 10
0.0
 20
0.0
 30
0.0
  3
_D_12
  1

  0
SOLID
  5
22D
330
22A
100
AcDbEntity
  8
DIM
 62
     7
100
AcDbTrace
 10
85.7063620061
 20
137.6973162136
 30
0.0
 11
88.7063620061
 21
137.3223162136
 31
0.0
 12
88.7063620061
 22
138.0723162136
 32
0.0
 13
88.7063620061
 23
138.0723162136
 33
0.0
  0
SOLID
  5
22E
330
22A
100
AcDbEntity
  8
DIM
 62
     7
100
AcDbTrace
 10
110.7063620061
 20
137.6973162136
 30
0.0
 11
107.7063620061
 21
138.0723162136
 31
0.0
 12
107.7063620061
 22
137.3223162136
 32
0.0
 13
107.7063620061
 23
137.3223162136
 33
0.0
  0
LINE
  5
22F
330
22A
100
AcDbEntity
  8
DIM
 62
     7
100
AcDbLine
 10
85.7063620061
 20
175.297414495
 30
0.0
 11
85.7063620061
 21
136.1973162136
 31
0.0
  0
LINE
  5
230
330
22A
100
AcDbEntity
  8
DIM
 62
     7
100
AcDbLine
 10
110.7063620061
 20
175.297414495
 30
0.0
 11
110.7063620061
 21
136.1973162136
 31
0.0
  0
LINE
  5
231
330
22A
100
AcDbEntity
  8
DIM
 62
     7
100
AcDbLine
 10
85.7063620061
 20
137.6973162136
 30
0.0
 11
110.7063620061
 21
137.6973162136
 31
0.0
  0
MTEXT
  5
232
330
22A
100
AcDbEntity
  8
DIM
 62
     7
100
AcDbMText
 10
95.3417786689
 20
142.5313199758
 30
0.0
 40
3.75
 41
0.0
 71
     1
 72
     1
  1
25
  7
SLDTEXTSTYLE1
 73
     1
 44
1.0
  0
ENDBLK
  5
22C
330
22A
100
AcDbEntity
  8
0
100
AcDbBlockEnd
  0
BLOCK
  5
235
330
234
100
AcDbEntity
  8
0
100
AcDbBlockBegin
  2
_D_13
 70
     0
 10
0.0
 20
0.0
 30
0.0
  3
_D_13
  1

  0
SOLID
  5
237
330
234
100
AcDbEntity
  8
DIM
 62
     7
100
AcDbTrace
 10
110.7063620061
 20
137.6973162136
 30
0.0
 11
113.7063620061
 21
137.3223162136
 31
0.0
 12
113.7063620061
 22
138.0723162136
 32
0.0
 13
113.7063620061
 23
138.0723162136
 33
0.0
  0
SOLID
  5
238
330
234
100
AcDbEntity
  8
DIM
 62
     7
100
AcDbTrace
 10
135.7063620061
 20
137.6973162136
 30
0.0
 11
132.7063620061
 21
138.0723162136
 31
0.0
 12
132.7063620061
 22
137.3223162136
 32
0.0
 13
132.7063620061
 23
137.3223162136
 33
0.0
  0
LINE
  5
239
330
234
100
AcDbEntity
  8
DIM
 62
     7
100
AcDbLine
 10
110.7063620061
 20
175.297414495
 30
0.0
 11
110.7063620061
 21
136.1973162136
 31
0.0
  0
LINE
  5
23A
330
234
100
AcDbEntity
  8
DIM
 62
     7
100
AcDbLine
 10
135.7063620061
 20
175.297414495
 30
0.0
 11
135.7063620061
 21
136.1973162136
 31
0.0
  0
LINE
  5
23B
330
234
100
AcDbEntity
  8
DIM
 62
     7
100
AcDbLine
 10
110.7063620061
 20
137.6973162136
 30
0.0
 11
135.7063620061
 21
137.6973162136
 31
0.0
  0
MTEXT
  5
23C
330
234
100
AcDbEntity
  8
DIM
 62
     7
100
AcDbMText
 10
120.3417786689
 20
142.5313199758
 30
0.0
 40
3.75
 41
0.0
 71
     1
 72
     1
  1
25
  7
SLDTEXTSTYLE1
 73
     1
 44
1.0
  0
ENDBLK
  5
236
330
234
100
AcDbEntity
  8
0
100
AcDbBlockEnd
  0
BLOCK
  5
240
330
23F
100
AcDbEntity
  8
0
100
AcDbBlockBegin
  2
_D_14
 70
     0
 10
0.0
 20
0.0
 30
0.0
  3
_D_14
  1

  0
SOLID
  5
242
330
23F
100
AcDbEntity
  8
DIM
 62
     7
100
AcDbTrace
 10
95.6862196343
 20
224.3686529946
 30
0.0
 11
93.2658731548
 21
222.556872677
 31
0.0
 12
93.7863220477
 22
222.0168421688
 32
0.0
 13
93.7863220477
 23
222.0168421688
 33
0.0
  0
LINE
  5
243
330
23F
100
AcDbEntity
  8
DIM
 62
     7
100
AcDbLine
 10
95.6862196343
 20
224.3686529946
 30
0.0
 11
66.6778861476
 21
196.4121675395
 31
0.0
  0
LINE
  5
244
330
23F
100
AcDbEntity
  8
DIM
 62
     7
100
AcDbLine
 10
66.6778861476
 20
196.4121675395
 30
0.0
 11
31.5646055831
 21
196.4121675395
 31
0.0
  0
MTEXT
  5
245
330
23F
100
AcDbEntity
  8
DIM
 62
     7
100
AcDbMText
 10
31.5646055831
 20
201.2565879119
 30
0.0
 40
3.75
 41
0.0
 71
     1
 72
     1
  1
4-
  7
SLDTEXTSTYLE1
 73
     1
 44
1.0
  0
MTEXT
  5
246
330
23F
100
AcDbEntity
  8
DIM
 62
     7
100
AcDbMText
 10
36.1427305477
 20
201.2461712144
 30
0.0
 40
3.75
 41
0.0
 71
     1
 72
     1
  1
%%c
  7
SLDTEXTSTYLE1
 73
     1
 44
1.0
  0
MTEXT
  5
247
330
23F
100
AcDbEntity
  8
DIM
 62
     7
100
AcDbMText
 10
41.6101782328
 20
201.2565879119
 30
0.0
 40
3.75
 41
0.0
 71
     1
 72
     1
  1
7
  7
SLDTEXTSTYLE1
 73
     1
 44
1.0
  0
MTEXT
  5
248
330
23F
100
AcDbEntity
  8
DIM
 62
     7
100
AcDbMText
 10
44.4747620939
 20
201.2565879119
 30
0.0
 40
3.75
 41
0.0
 71
     1
 72
     1
  1
 HOLES.
  7
SLDTEXTSTYLE1
 73
     1
 44
1.0
  0
ENDBLK
  5
241
330
23F
100
AcDbEntity
  8
0
100
AcDbBlockEnd
  0
BLOCK
  5
24C
330
24B
100
AcDbEntity
  8
0
100
AcDbBlockBegin
  2
_D_15
 70
     0
 10
0.0
 20
0.0
 30
0.0
  3
_D_15
  1

  0
SOLID
  5
24E
330
24B
100
AcDbEntity
  8
DIM
 62
     7
100
AcDbTrace
 10
83.5412984966
 20
228.047414495
 30
0.0
 11
81.1307222853
 21
229.8721740214
 31
0.0
 12
80.7557222853
 22
229.2226549686
 32
0.0
 13
80.7557222853
 23
229.2226549686
 33
0.0
  0
LINE
  5
24F
330
24B
100
AcDbEntity
  8
DIM
 62
     7
100
AcDbLine
 10
83.5412984966
 20
228.047414495
 30
0.0
 11
63.0873917533
 21
239.8564830592
 31
0.0
  0
LINE
  5
250
330
24B
100
AcDbEntity
  8
DIM
 62
     7
100
AcDbLine
 10
63.0873917533
 20
239.8564830592
 30
0.0
 11
35.1550999774
 21
239.8564830592
 31
0.0
  0
MTEXT
  5
251
330
24B
100
AcDbEntity
  8
DIM
 62
     7
100
AcDbMText
 10
35.1550999774
 20
250.4456950213
 30
0.0
 40
3.75
 41
0.0
 71
     1
 72
     1
  1
12 HOLES,
  7
SLDTEXTSTYLE1
 73
     1
 44
1.0
  0
MTEXT
  5
252
330
24B
100
AcDbEntity
  8
DIM
 62
     7
100
AcDbMText
 10
35.1550999774
 20
244.6904868214
 30
0.0
 40
3.75
 41
0.0
 71
     1
 72
     1
  1
M6
  7
SLDTEXTSTYLE1
 73
     1
 44
1.0
  0
ENDBLK
  5
24D
330
24B
100
AcDbEntity
  8
0
100
AcDbBlockEnd
  0
BLOCK
  5
254
330
253
100
AcDbEntity
  8
0
100
AcDbBlockBegin
  2
SW_CENTERMARKSYMBOL_4
 70
     0
 10
0.0
 20
0.0
 30
0.0
  3
SW_CENTERMARKSYMBOL_4
  1

  0
LINE
  5
256
330
253
100
AcDbEntity
  8
DIM
 62
     0
100
AcDbLine
 10
0.0
 20
0.0
 30
0.0
 11
0.0
 21
1.0
 31
0.0
  0
LINE
  5
257
330
253
100
AcDbEntity
  8
DIM
 62
     0
100
AcDbLine
 10
0.0
 20
0.0
 30
0.0
 11
-1.0
 21
0.0
 31
0.0
  0
LINE
  5
258
330
253
100
AcDbEntity
  8
DIM
 62
     0
100
AcDbLine
 10
0.0
 20
0.0
 30
0.0
 11
0.0
 21
-1.0
 31
0.0
  0
LINE
  5
259
330
253
100
AcDbEntity
  8
DIM
 62
     0
100
AcDbLine
 10
0.0
 20
0.0
 30
0.0
 11
1.0
 21
0.0
 31
0.0
  0
LINE
  5
25A
330
253
100
AcDbEntity
  8
DIM
 62
     0
100
AcDbLine
 10
0.0
 20
2.0
 30
0.0
 11
0.0
 21
3.5
 31
0.0
  0
LINE
  5
25B
330
253
100
AcDbEntity
  8
DIM
 62
     0
100
AcDbLine
 10
-2.0
 20
0.0
 30
0.0
 11
-3.5
 21
0.0
 31
0.0
  0
LINE
  5
25C
330
253
100
AcDbEntity
  8
DIM
 62
     0
100
AcDbLine
 10
0.0
 20
-2.0
 30
0.0
 11
0.0
 21
-3.5
 31
0.0
  0
LINE
  5
25D
330
253
100
AcDbEntity
  8
DIM
 62
     0
100
AcDbLine
 10
2.0
 20
0.0
 30
0.0
 11
3.5
 21
0.0
 31
0.0
  0
ENDBLK
  5
255
330
253
100
AcDbEntity
  8
0
100
AcDbBlockEnd
  0
BLOCK
  5
260
330
25F
100
AcDbEntity
  8
0
100
AcDbBlockBegin
  2
SW_CENTERMARKSYMBOL_5
 70
     0
 10
0.0
 20
0.0
 30
0.0
  3
SW_CENTERMARKSYMBOL_5
  1

  0
LINE
  5
262
330
25F
100
AcDbEntity
  8
DIM
 62
     0
100
AcDbLine
 10
0.0
 20
0.0
 30
0.0
 11
0.0
 21
1.0
 31
0.0
  0
LINE
  5
263
330
25F
100
AcDbEntity
  8
DIM
 62
     0
100
AcDbLine
 10
0.0
 20
0.0
 30
0.0
 11
-1.0
 21
0.0
 31
0.0
  0
LINE
  5
264
330
25F
100
AcDbEntity
  8
DIM
 62
     0
100
AcDbLine
 10
0.0
 20
0.0
 30
0.0
 11
0.0
 21
-1.0
 31
0.0
  0
LINE
  5
265
330
25F
100
AcDbEntity
  8
DIM
 62
     0
100
AcDbLine
 10
0.0
 20
0.0
 30
0.0
 11
1.0
 21
0.0
 31
0.0
  0
LINE
  5
266
330
25F
100
AcDbEntity
  8
DIM
 62
     0
100
AcDbLine
 10
0.0
 20
2.0
 30
0.0
 11
0.0
 21
3.5
 31
0.0
  0
LINE
  5
267
330
25F
100
AcDbEntity
  8
DIM
 62
     0
100
AcDbLine
 10
-2.0
 20
0.0
 30
0.0
 11
-3.5
 21
0.0
 31
0.0
  0
LINE
  5
268
330
25F
100
AcDbEntity
  8
DIM
 62
     0
100
AcDbLine
 10
0.0
 20
-2.0
 30
0.0
 11
0.0
 21
-3.5
 31
0.0
  0
LINE
  5
269
330
25F
100
AcDbEntity
  8
DIM
 62
     0
100
AcDbLine
 10
2.0
 20
0.0
 30
0.0
 11
3.5
 21
0.0
 31
0.0
  0
ENDBLK
  5
261
330
25F
100
AcDbEntity
  8
0
100
AcDbBlockEnd
  0
BLOCK
  5
26C
330
26B
100
AcDbEntity
  8
0
100
AcDbBlockBegin
  2
SW_CENTERMARKSYMBOL_6
 70
     0
 10
0.0
 20
0.0
 30
0.0
  3
SW_CENTERMARKSYMBOL_6
  1

  0
LINE
  5
26E
330
26B
100
AcDbEntity
  8
DIM
 62
     0
100
AcDbLine
 10
0.0
 20
0.0
 30
0.0
 11
0.0
 21
1.0
 31
0.0
  0
LINE
  5
26F
330
26B
100
AcDbEntity
  8
DIM
 62
     0
100
AcDbLine
 10
0.0
 20
0.0
 30
0.0
 11
-1.0
 21
0.0
 31
0.0
  0
LINE
  5
270
330
26B
100
AcDbEntity
  8
DIM
 62
     0
100
AcDbLine
 10
0.0
 20
0.0
 30
0.0
 11
0.0
 21
-1.0
 31
0.0
  0
LINE
  5
271
330
26B
100
AcDbEntity
  8
DIM
 62
     0
100
AcDbLine
 10
0.0
 20
0.0
 30
0.0
 11
1.0
 21
0.0
 31
0.0
  0
LINE
  5
272
330
26B
100
AcDbEntity
  8
DIM
 62
     0
100
AcDbLine
 10
0.0
 20
2.0
 30
0.0
 11
0.0
 21
3.5
 31
0.0
  0
LINE
  5
273
330
26B
100
AcDbEntity
  8
DIM
 62
     0
100
AcDbLine
 10
-2.0
 20
0.0
 30
0.0
 11
-3.5
 21
0.0
 31
0.0
  0
LINE
  5
274
330
26B
100
AcDbEntity
  8
DIM
 62
     0
100
AcDbLine
 10
0.0
 20
-2.0
 30
0.0
 11
0.0
 21
-3.5
 31
0.0
  0
LINE
  5
275
330
26B
100
AcDbEntity
  8
DIM
 62
     0
100
AcDbLine
 10
2.0
 20
0.0
 30
0.0
 11
3.5
 21
0.0
 31
0.0
  0
ENDBLK
  5
26D
330
26B
100
AcDbEntity
  8
0
100
AcDbBlockEnd
  0
BLOCK
  5
278
330
277
100
AcDbEntity
  8
0
100
AcDbBlockBegin
  2
SW_CENTERMARKSYMBOL_7
 70
     0
 10
0.0
 20
0.0
 30
0.0
  3
SW_CENTERMARKSYMBOL_7
  1

  0
LINE
  5
27A
330
277
100
AcDbEntity
  8
DIM
 62
     0
100
AcDbLine
 10
0.0
 20
0.0
 30
0.0
 11
0.0
 21
1.0
 31
0.0
  0
LINE
  5
27B
330
277
100
AcDbEntity
  8
DIM
 62
     0
100
AcDbLine
 10
0.0
 20
0.0
 30
0.0
 11
-1.0
 21
0.0
 31
0.0
  0
LINE
  5
27C
330
277
100
AcDbEntity
  8
DIM
 62
     0
100
AcDbLine
 10
0.0
 20
0.0
 30
0.0
 11
0.0
 21
-1.0
 31
0.0
  0
LINE
  5
27D
330
277
100
AcDbEntity
  8
DIM
 62
     0
100
AcDbLine
 10
0.0
 20
0.0
 30
0.0
 11
1.0
 21
0.0
 31
0.0
  0
LINE
  5
27E
330
277
100
AcDbEntity
  8
DIM
 62
     0
100
AcDbLine
 10
0.0
 20
2.0
 30
0.0
 11
0.0
 21
3.5
 31
0.0
  0
LINE
  5
27F
330
277
100
AcDbEntity
  8
DIM
 62
     0
100
AcDbLine
 10
-2.0
 20
0.0
 30
0.0
 11
-3.5
 21
0.0
 31
0.0
  0
LINE
  5
280
330
277
100
AcDbEntity
  8
DIM
 62
     0
100
AcDbLine
 10
0.0
 20
-2.0
 30
0.0
 11
0.0
 21
-3.5
 31
0.0
  0
LINE
  5
281
330
277
100
AcDbEntity
  8
DIM
 62
     0
100
AcDbLine
 10
2.0
 20
0.0
 30
0.0
 11
3.5
 21
0.0
 31
0.0
  0
ENDBLK
  5
279
330
277
100
AcDbEntity
  8
0
100
AcDbBlockEnd
  0
BLOCK
  5
284
330
283
100
AcDbEntity
  8
0
100
AcDbBlockBegin
  2
SW_CENTERMARKSYMBOL_8
 70
     0
 10
0.0
 20
0.0
 30
0.0
  3
SW_CENTERMARKSYMBOL_8
  1

  0
LINE
  5
286
330
283
100
AcDbEntity
  8
DIM
 62
     0
100
AcDbLine
 10
0.0
 20
0.0
 30
0.0
 11
0.0
 21
1.0
 31
0.0
  0
LINE
  5
287
330
283
100
AcDbEntity
  8
DIM
 62
     0
100
AcDbLine
 10
0.0
 20
0.0
 30
0.0
 11
-1.0
 21
0.0
 31
0.0
  0
LINE
  5
288
330
283
100
AcDbEntity
  8
DIM
 62
     0
100
AcDbLine
 10
0.0
 20
0.0
 30
0.0
 11
0.0
 21
-1.0
 31
0.0
  0
LINE
  5
289
330
283
100
AcDbEntity
  8
DIM
 62
     0
100
AcDbLine
 10
0.0
 20
0.0
 30
0.0
 11
1.0
 21
0.0
 31
0.0
  0
LINE
  5
28A
330
283
100
AcDbEntity
  8
DIM
 62
     0
100
AcDbLine
 10
0.0
 20
2.0
 30
0.0
 11
0.0
 21
3.5
 31
0.0
  0
LINE
  5
28B
330
283
100
AcDbEntity
  8
DIM
 62
     0
100
AcDbLine
 10
-2.0
 20
0.0
 30
0.0
 11
-3.5
 21
0.0
 31
0.0
  0
LINE
  5
28C
330
283
100
AcDbEntity
  8
DIM
 62
     0
100
AcDbLine
 10
0.0
 20
-2.0
 30
0.0
 11
0.0
 21
-3.5
 31
0.0
  0
LINE
  5
28D
330
283
100
AcDbEntity
  8
DIM
 62
     0
100
AcDbLine
 10
2.0
 20
0.0
 30
0.0
 11
3.5
 21
0.0
 31
0.0
  0
ENDBLK
  5
285
330
283
100
AcDbEntity
  8
0
100
AcDbBlockEnd
  0
BLOCK
  5
290
330
28F
100
AcDbEntity
  8
0
100
AcDbBlockBegin
  2
SW_CENTERMARKSYMBOL_9
 70
     0
 10
0.0
 20
0.0
 30
0.0
  3
SW_CENTERMARKSYMBOL_9
  1

  0
LINE
  5
292
330
28F
100
AcDbEntity
  8
DIM
 62
     0
100
AcDbLine
 10
0.0
 20
0.0
 30
0.0
 11
0.0
 21
1.0
 31
0.0
  0
LINE
  5
293
330
28F
100
AcDbEntity
  8
DIM
 62
     0
100
AcDbLine
 10
0.0
 20
0.0
 30
0.0
 11
-1.0
 21
0.0
 31
0.0
  0
LINE
  5
294
330
28F
100
AcDbEntity
  8
DIM
 62
     0
100
AcDbLine
 10
0.0
 20
0.0
 30
0.0
 11
0.0
 21
-1.0
 31
0.0
  0
LINE
  5
295
330
28F
100
AcDbEntity
  8
DIM
 62
     0
100
AcDbLine
 10
0.0
 20
0.0
 30
0.0
 11
1.0
 21
0.0
 31
0.0
  0
LINE
  5
296
330
28F
100
AcDbEntity
  8
DIM
 62
     0
100
AcDbLine
 10
0.0
 20
2.0
 30
0.0
 11
0.0
 21
3.5
 31
0.0
  0
LINE
  5
297
330
28F
100
AcDbEntity
  8
DIM
 62
     0
100
AcDbLine
 10
-2.0
 20
0.0
 30
0.0
 11
-3.5
 21
0.0
 31
0.0
  0
LINE
  5
298
330
28F
100
AcDbEntity
  8
DIM
 62
     0
100
AcDbLine
 10
0.0
 20
-2.0
 30
0.0
 11
0.0
 21
-3.5
 31
0.0
  0
LINE
  5
299
330
28F
100
AcDbEntity
  8
DIM
 62
     0
100
AcDbLine
 10
2.0
 20
0.0
 30
0.0
 11
3.5
 21
0.0
 31
0.0
  0
ENDBLK
  5
291
330
28F
100
AcDbEntity
  8
0
100
AcDbBlockEnd
  0
BLOCK
  5
29C
330
29B
100
AcDbEntity
  8
0
100
AcDbBlockBegin
  2
SW_CENTERMARKSYMBOL_10
 70
     0
 10
0.0
 20
0.0
 30
0.0
  3
SW_CENTERMARKSYMBOL_10
  1

  0
LINE
  5
29E
330
29B
100
AcDbEntity
  8
DIM
 62
     0
100
AcDbLine
 10
0.0
 20
0.0
 30
0.0
 11
0.0
 21
1.0
 31
0.0
  0
LINE
  5
29F
330
29B
100
AcDbEntity
  8
DIM
 62
     0
100
AcDbLine
 10
0.0
 20
0.0
 30
0.0
 11
-1.0
 21
0.0
 31
0.0
  0
LINE
  5
2A0
330
29B
100
AcDbEntity
  8
DIM
 62
     0
100
AcDbLine
 10
0.0
 20
0.0
 30
0.0
 11
0.0
 21
-1.0
 31
0.0
  0
LINE
  5
2A1
330
29B
100
AcDbEntity
  8
DIM
 62
     0
100
AcDbLine
 10
0.0
 20
0.0
 30
0.0
 11
1.0
 21
0.0
 31
0.0
  0
LINE
  5
2A2
330
29B
100
AcDbEntity
  8
DIM
 62
     0
100
AcDbLine
 10
0.0
 20
2.0
 30
0.0
 11
0.0
 21
3.5
 31
0.0
  0
LINE
  5
2A3
330
29B
100
AcDbEntity
  8
DIM
 62
     0
100
AcDbLine
 10
-2.0
 20
0.0
 30
0.0
 11
-3.5
 21
0.0
 31
0.0
  0
LINE
  5
2A4
330
29B
100
AcDbEntity
  8
DIM
 62
     0
100
AcDbLine
 10
0.0
 20
-2.0
 30
0.0
 11
0.0
 21
-3.5
 31
0.0
  0
LINE
  5
2A5
330
29B
100
AcDbEntity
  8
DIM
 62
     0
100
AcDbLine
 10
2.0
 20
0.0
 30
0.0
 11
3.5
 21
0.0
 31
0.0
  0
ENDBLK
  5
29D
330
29B
100
AcDbEntity
  8
0
100
AcDbBlockEnd
  0
BLOCK
  5
2A8
330
2A7
100
AcDbEntity
  8
0
100
AcDbBlockBegin
  2
SW_CENTERMARKSYMBOL_11
 70
     0
 10
0.0
 20
0.0
 30
0.0
  3
SW_CENTERMARKSYMBOL_11
  1

  0
LINE
  5
2AA
330
2A7
100
AcDbEntity
  8
DIM
 62
     0
100
AcDbLine
 10
0.0
 20
0.0
 30
0.0
 11
0.0
 21
1.0
 31
0.0
  0
LINE
  5
2AB
330
2A7
100
AcDbEntity
  8
DIM
 62
     0
100
AcDbLine
 10
0.0
 20
0.0
 30
0.0
 11
-1.0
 21
0.0
 31
0.0
  0
LINE
  5
2AC
330
2A7
100
AcDbEntity
  8
DIM
 62
     0
100
AcDbLine
 10
0.0
 20
0.0
 30
0.0
 11
0.0
 21
-1.0
 31
0.0
  0
LINE
  5
2AD
330
2A7
100
AcDbEntity
  8
DIM
 62
     0
100
AcDbLine
 10
0.0
 20
0.0
 30
0.0
 11
1.0
 21
0.0
 31
0.0
  0
LINE
  5
2AE
330
2A7
100
AcDbEntity
  8
DIM
 62
     0
100
AcDbLine
 10
0.0
 20
2.0
 30
0.0
 11
0.0
 21
3.5
 31
0.0
  0
LINE
  5
2AF
330
2A7
100
AcDbEntity
  8
DIM
 62
     0
100
AcDbLine
 10
-2.0
 20
0.0
 30
0.0
 11
-3.5
 21
0.0
 31
0.0
  0
LINE
  5
2B0
330
2A7
100
AcDbEntity
  8
DIM
 62
     0
100
AcDbLine
 10
0.0
 20
-2.0
 30
0.0
 11
0.0
 21
-3.5
 31
0.0
  0
LINE
  5
2B1
330
2A7
100
AcDbEntity
  8
DIM
 62
     0
100
AcDbLine
 10
2.0
 20
0.0
 30
0.0
 11
3.5
 21
0.0
 31
0.0
  0
ENDBLK
  5
2A9
330
2A7
100
AcDbEntity
  8
0
100
AcDbBlockEnd
  0
BLOCK
  5
2B4
330
2B3
100
AcDbEntity
  8
0
100
AcDbBlockBegin
  2
SW_CENTERMARKSYMBOL_12
 70
     0
 10
0.0
 20
0.0
 30
0.0
  3
SW_CENTERMARKSYMBOL_12
  1

  0
LINE
  5
2B6
330
2B3
100
AcDbEntity
  8
DIM
 62
     0
100
AcDbLine
 10
0.0
 20
0.0
 30
0.0
 11
0.0
 21
1.0
 31
0.0
  0
LINE
  5
2B7
330
2B3
100
AcDbEntity
  8
DIM
 62
     0
100
AcDbLine
 10
0.0
 20
0.0
 30
0.0
 11
-1.0
 21
0.0
 31
0.0
  0
LINE
  5
2B8
330
2B3
100
AcDbEntity
  8
DIM
 62
     0
100
AcDbLine
 10
0.0
 20
0.0
 30
0.0
 11
0.0
 21
-1.0
 31
0.0
  0
LINE
  5
2B9
330
2B3
100
AcDbEntity
  8
DIM
 62
     0
100
AcDbLine
 10
0.0
 20
0.0
 30
0.0
 11
1.0
 21
0.0
 31
0.0
  0
LINE
  5
2BA
330
2B3
100
AcDbEntity
  8
DIM
 62
     0
100
AcDbLine
 10
0.0
 20
2.0
 30
0.0
 11
0.0
 21
3.5
 31
0.0
  0
LINE
  5
2BB
330
2B3
100
AcDbEntity
  8
DIM
 62
     0
100
AcDbLine
 10
-2.0
 20
0.0
 30
0.0
 11
-3.5
 21
0.0
 31
0.0
  0
LINE
  5
2BC
330
2B3
100
AcDbEntity
  8
DIM
 62
     0
100
AcDbLine
 10
0.0
 20
-2.0
 30
0.0
 11
0.0
 21
-3.5
 31
0.0
  0
LINE
  5
2BD
330
2B3
100
AcDbEntity
  8
DIM
 62
     0
100
AcDbLine
 10
2.0
 20
0.0
 30
0.0
 11
3.5
 21
0.0
 31
0.0
  0
ENDBLK
  5
2B5
330
2B3
100
AcDbEntity
  8
0
100
AcDbBlockEnd
  0
BLOCK
  5
2C0
330
2BF
100
AcDbEntity
  8
0
100
AcDbBlockBegin
  2
SW_CENTERMARKSYMBOL_13
 70
     0
 10
0.0
 20
0.0
 30
0.0
  3
SW_CENTERMARKSYMBOL_13
  1

  0
LINE
  5
2C2
330
2BF
100
AcDbEntity
  8
DIM
 62
     0
100
AcDbLine
 10
0.0
 20
0.0
 30
0.0
 11
0.0
 21
1.0
 31
0.0
  0
LINE
  5
2C3
330
2BF
100
AcDbEntity
  8
DIM
 62
     0
100
AcDbLine
 10
0.0
 20
0.0
 30
0.0
 11
-1.0
 21
0.0
 31
0.0
  0
LINE
  5
2C4
330
2BF
100
AcDbEntity
  8
DIM
 62
     0
100
AcDbLine
 10
0.0
 20
0.0
 30
0.0
 11
0.0
 21
-1.0
 31
0.0
  0
LINE
  5
2C5
330
2BF
100
AcDbEntity
  8
DIM
 62
     0
100
AcDbLine
 10
0.0
 20
0.0
 30
0.0
 11
1.0
 21
0.0
 31
0.0
  0
LINE
  5
2C6
330
2BF
100
AcDbEntity
  8
DIM
 62
     0
100
AcDbLine
 10
0.0
 20
2.0
 30
0.0
 11
0.0
 21
3.5
 31
0.0
  0
LINE
  5
2C7
330
2BF
100
AcDbEntity
  8
DIM
 62
     0
100
AcDbLine
 10
-2.0
 20
0.0
 30
0.0
 11
-3.5
 21
0.0
 31
0.0
  0
LINE
  5
2C8
330
2BF
100
AcDbEntity
  8
DIM
 62
     0
100
AcDbLine
 10
0.0
 20
-2.0
 30
0.0
 11
0.0
 21
-3.5
 31
0.0
  0
LINE
  5
2C9
330
2BF
100
AcDbEntity
  8
DIM
 62
     0
100
AcDbLine
 10
2.0
 20
0.0
 30
0.0
 11
3.5
 21
0.0
 31
0.0
  0
ENDBLK
  5
2C1
330
2BF
100
AcDbEntity
  8
0
100
AcDbBlockEnd
  0
BLOCK
  5
2CC
330
2CB
100
AcDbEntity
  8
0
100
AcDbBlockBegin
  2
SW_CENTERMARKSYMBOL_14
 70
     0
 10
0.0
 20
0.0
 30
0.0
  3
SW_CENTERMARKSYMBOL_14
  1

  0
LINE
  5
2CE
330
2CB
100
AcDbEntity
  8
DIM
 62
     0
100
AcDbLine
 10
0.0
 20
0.0
 30
0.0
 11
0.0
 21
1.0
 31
0.0
  0
LINE
  5
2CF
330
2CB
100
AcDbEntity
  8
DIM
 62
     0
100
AcDbLine
 10
0.0
 20
0.0
 30
0.0
 11
-1.0
 21
0.0
 31
0.0
  0
LINE
  5
2D0
330
2CB
100
AcDbEntity
  8
DIM
 62
     0
100
AcDbLine
 10
0.0
 20
0.0
 30
0.0
 11
0.0
 21
-1.0
 31
0.0
  0
LINE
  5
2D1
330
2CB
100
AcDbEntity
  8
DIM
 62
     0
100
AcDbLine
 10
0.0
 20
0.0
 30
0.0
 11
1.0
 21
0.0
 31
0.0
  0
LINE
  5
2D2
330
2CB
100
AcDbEntity
  8
DIM
 62
     0
100
AcDbLine
 10
0.0
 20
2.0
 30
0.0
 11
0.0
 21
3.5
 31
0.0
  0
LINE
  5
2D3
330
2CB
100
AcDbEntity
  8
DIM
 62
     0
100
AcDbLine
 10
-2.0
 20
0.0
 30
0.0
 11
-3.5
 21
0.0
 31
0.0
  0
LINE
  5
2D4
330
2CB
100
AcDbEntity
  8
DIM
 62
     0
100
AcDbLine
 10
0.0
 20
-2.0
 30
0.0
 11
0.0
 21
-3.5
 31
0.0
  0
LINE
  5
2D5
330
2CB
100
AcDbEntity
  8
DIM
 62
     0
100
AcDbLine
 10
2.0
 20
0.0
 30
0.0
 11
3.5
 21
0.0
 31
0.0
  0
ENDBLK
  5
2CD
330
2CB
100
AcDbEntity
  8
0
100
AcDbBlockEnd
  0
BLOCK
  5
2D8
330
2D7
100
AcDbEntity
  8
0
100
AcDbBlockBegin
  2
SW_CENTERMARKSYMBOL_15
 70
     0
 10
0.0
 20
0.0
 30
0.0
  3
SW_CENTERMARKSYMBOL_15
  1

  0
LINE
  5
2DA
330
2D7
100
AcDbEntity
  8
DIM
 62
     0
100
AcDbLine
 10
0.0
 20
0.0
 30
0.0
 11
0.0
 21
1.0
 31
0.0
  0
LINE
  5
2DB
330
2D7
100
AcDbEntity
  8
DIM
 62
     0
100
AcDbLine
 10
0.0
 20
0.0
 30
0.0
 11
-1.0
 21
0.0
 31
0.0
  0
LINE
  5
2DC
330
2D7
100
AcDbEntity
  8
DIM
 62
     0
100
AcDbLine
 10
0.0
 20
0.0
 30
0.0
 11
0.0
 21
-1.0
 31
0.0
  0
LINE
  5
2DD
330
2D7
100
AcDbEntity
  8
DIM
 62
     0
100
AcDbLine
 10
0.0
 20
0.0
 30
0.0
 11
1.0
 21
0.0
 31
0.0
  0
LINE
  5
2DE
330
2D7
100
AcDbEntity
  8
DIM
 62
     0
100
AcDbLine
 10
0.0
 20
2.0
 30
0.0
 11
0.0
 21
3.5
 31
0.0
  0
LINE
  5
2DF
330
2D7
100
AcDbEntity
  8
DIM
 62
     0
100
AcDbLine
 10
-2.0
 20
0.0
 30
0.0
 11
-3.5
 21
0.0
 31
0.0
  0
LINE
  5
2E0
330
2D7
100
AcDbEntity
  8
DIM
 62
     0
100
AcDbLine
 10
0.0
 20
-2.0
 30
0.0
 11
0.0
 21
-3.5
 31
0.0
  0
LINE
  5
2E1
330
2D7
100
AcDbEntity
  8
DIM
 62
     0
100
AcDbLine
 10
2.0
 20
0.0
 30
0.0
 11
3.5
 21
0.0
 31
0.0
  0
ENDBLK
  5
2D9
330
2D7
100
AcDbEntity
  8
0
100
AcDbBlockEnd
  0
BLOCK
  5
2E4
330
2E3
100
AcDbEntity
  8
0
100
AcDbBlockBegin
  2
SW_CENTERMARKSYMBOL_16
 70
     0
 10
0.0
 20
0.0
 30
0.0
  3
SW_CENTERMARKSYMBOL_16
  1

  0
LINE
  5
2E6
330
2E3
100
AcDbEntity
  8
DIM
 62
     0
100
AcDbLine
 10
0.0
 20
0.0
 30
0.0
 11
0.0
 21
1.0
 31
0.0
  0
LINE
  5
2E7
330
2E3
100
AcDbEntity
  8
DIM
 62
     0
100
AcDbLine
 10
0.0
 20
0.0
 30
0.0
 11
-1.0
 21
0.0
 31
0.0
  0
LINE
  5
2E8
330
2E3
100
AcDbEntity
  8
DIM
 62
     0
100
AcDbLine
 10
0.0
 20
0.0
 30
0.0
 11
0.0
 21
-1.0
 31
0.0
  0
LINE
  5
2E9
330
2E3
100
AcDbEntity
  8
DIM
 62
     0
100
AcDbLine
 10
0.0
 20
0.0
 30
0.0
 11
1.0
 21
0.0
 31
0.0
  0
LINE
  5
2EA
330
2E3
100
AcDbEntity
  8
DIM
 62
     0
100
AcDbLine
 10
0.0
 20
2.0
 30
0.0
 11
0.0
 21
4.5
 31
0.0
  0
LINE
  5
2EB
330
2E3
100
AcDbEntity
  8
DIM
 62
     0
100
AcDbLine
 10
-2.0
 20
0.0
 30
0.0
 11
-4.5
 21
0.0
 31
0.0
  0
LINE
  5
2EC
330
2E3
100
AcDbEntity
  8
DIM
 62
     0
100
AcDbLine
 10
0.0
 20
-2.0
 30
0.0
 11
0.0
 21
-4.5
 31
0.0
  0
LINE
  5
2ED
330
2E3
100
AcDbEntity
  8
DIM
 62
     0
100
AcDbLine
 10
2.0
 20
0.0
 30
0.0
 11
4.5
 21
0.0
 31
0.0
  0
ENDBLK
  5
2E5
330
2E3
100
AcDbEntity
  8
0
100
AcDbBlockEnd
  0
BLOCK
  5
2F0
330
2EF
100
AcDbEntity
  8
0
100
AcDbBlockBegin
  2
SW_CENTERMARKSYMBOL_17
 70
     0
 10
0.0
 20
0.0
 30
0.0
  3
SW_CENTERMARKSYMBOL_17
  1

  0
LINE
  5
2F2
330
2EF
100
AcDbEntity
  8
DIM
 62
     0
100
AcDbLine
 10
0.0
 20
0.0
 30
0.0
 11
0.0
 21
1.0
 31
0.0
  0
LINE
  5
2F3
330
2EF
100
AcDbEntity
  8
DIM
 62
     0
100
AcDbLine
 10
0.0
 20
0.0
 30
0.0
 11
-1.0
 21
0.0
 31
0.0
  0
LINE
  5
2F4
330
2EF
100
AcDbEntity
  8
DIM
 62
     0
100
AcDbLine
 10
0.0
 20
0.0
 30
0.0
 11
0.0
 21
-1.0
 31
0.0
  0
LINE
  5
2F5
330
2EF
100
AcDbEntity
  8
DIM
 62
     0
100
AcDbLine
 10
0.0
 20
0.0
 30
0.0
 11
1.0
 21
0.0
 31
0.0
  0
LINE
  5
2F6
330
2EF
100
AcDbEntity
  8
DIM
 62
     0
100
AcDbLine
 10
0.0
 20
2.0
 30
0.0
 11
0.0
 21
4.5
 31
0.0
  0
LINE
  5
2F7
330
2EF
100
AcDbEntity
  8
DIM
 62
     0
100
AcDbLine
 10
-2.0
 20
0.0
 30
0.0
 11
-4.5
 21
0.0
 31
0.0
  0
LINE
  5
2F8
330
2EF
100
AcDbEntity
  8
DIM
 62
     0
100
AcDbLine
 10
0.0
 20
-2.0
 30
0.0
 11
0.0
 21
-4.5
 31
0.0
  0
LINE
  5
2F9
330
2EF
100
AcDbEntity
  8
DIM
 62
     0
100
AcDbLine
 10
2.0
 20
0.0
 30
0.0
 11
4.5
 21
0.0
 31
0.0
  0
ENDBLK
  5
2F1
330
2EF
100
AcDbEntity
  8
0
100
AcDbBlockEnd
  0
BLOCK
  5
2FC
330
2FB
100
AcDbEntity
  8
0
100
AcDbBlockBegin
  2
SW_CENTERMARKSYMBOL_18
 70
     0
 10
0.0
 20
0.0
 30
0.0
  3
SW_CENTERMARKSYMBOL_18
  1

  0
LINE
  5
2FE
330
2FB
100
AcDbEntity
  8
DIM
 62
     0
100
AcDbLine
 10
0.0
 20
0.0
 30
0.0
 11
0.0
 21
1.0
 31
0.0
  0
LINE
  5
2FF
330
2FB
100
AcDbEntity
  8
DIM
 62
     0
100
AcDbLine
 10
0.0
 20
0.0
 30
0.0
 11
-1.0
 21
0.0
 31
0.0
  0
LINE
  5
300
330
2FB
100
AcDbEntity
  8
DIM
 62
     0
100
AcDbLine
 10
0.0
 20
0.0
 30
0.0
 11
0.0
 21
-1.0
 31
0.0
  0
LINE
  5
301
330
2FB
100
AcDbEntity
  8
DIM
 62
     0
100
AcDbLine
 10
0.0
 20
0.0
 30
0.0
 11
1.0
 21
0.0
 31
0.0
  0
LINE
  5
302
330
2FB
100
AcDbEntity
  8
DIM
 62
     0
100
AcDbLine
 10
0.0
 20
2.0
 30
0.0
 11
0.0
 21
4.5
 31
0.0
  0
LINE
  5
303
330
2FB
100
AcDbEntity
  8
DIM
 62
     0
100
AcDbLine
 10
-2.0
 20
0.0
 30
0.0
 11
-4.5
 21
0.0
 31
0.0
  0
LINE
  5
304
330
2FB
100
AcDbEntity
  8
DIM
 62
     0
100
AcDbLine
 10
0.0
 20
-2.0
 30
0.0
 11
0.0
 21
-4.5
 31
0.0
  0
LINE
  5
305
330
2FB
100
AcDbEntity
  8
DIM
 62
     0
100
AcDbLine
 10
2.0
 20
0.0
 30
0.0
 11
4.5
 21
0.0
 31
0.0
  0
ENDBLK
  5
2FD
330
2FB
100
AcDbEntity
  8
0
100
AcDbBlockEnd
  0
BLOCK
  5
308
330
307
100
AcDbEntity
  8
0
100
AcDbBlockBegin
  2
SW_CENTERMARKSYMBOL_19
 70
     0
 10
0.0
 20
0.0
 30
0.0
  3
SW_CENTERMARKSYMBOL_19
  1

  0
LINE
  5
30A
330
307
100
AcDbEntity
  8
DIM
 62
     0
100
AcDbLine
 10
0.0
 20
0.0
 30
0.0
 11
0.0
 21
1.0
 31
0.0
  0
LINE
  5
30B
330
307
100
AcDbEntity
  8
DIM
 62
     0
100
AcDbLine
 10
0.0
 20
0.0
 30
0.0
 11
-1.0
 21
0.0
 31
0.0
  0
LINE
  5
30C
330
307
100
AcDbEntity
  8
DIM
 62
     0
100
AcDbLine
 10
0.0
 20
0.0
 30
0.0
 11
0.0
 21
-1.0
 31
0.0
  0
LINE
  5
30D
330
307
100
AcDbEntity
  8
DIM
 62
     0
100
AcDbLine
 10
0.0
 20
0.0
 30
0.0
 11
1.0
 21
0.0
 31
0.0
  0
LINE
  5
30E
330
307
100
AcDbEntity
  8
DIM
 62
     0
100
AcDbLine
 10
0.0
 20
2.0
 30
0.0
 11
0.0
 21
4.5
 31
0.0
  0
LINE
  5
30F
330
307
100
AcDbEntity
  8
DIM
 62
     0
100
AcDbLine
 10
-2.0
 20
0.0
 30
0.0
 11
-4.5
 21
0.0
 31
0.0
  0
LINE
  5
310
330
307
100
AcDbEntity
  8
DIM
 62
     0
100
AcDbLine
 10
0.0
 20
-2.0
 30
0.0
 11
0.0
 21
-4.5
 31
0.0
  0
LINE
  5
311
330
307
100
AcDbEntity
  8
DIM
 62
     0
100
AcDbLine
 10
2.0
 20
0.0
 30
0.0
 11
4.5
 21
0.0
 31
0.0
  0
ENDBLK
  5
309
330
307
100
AcDbEntity
  8
0
100
AcDbBlockEnd
  0
BLOCK
  5
314
330
313
100
AcDbEntity
  8
0
100
AcDbBlockBegin
  2
SW_CENTERMARKSYMBOL_20
 70
     0
 10
0.0
 20
0.0
 30
0.0
  3
SW_CENTERMARKSYMBOL_20
  1

  0
LINE
  5
316
330
313
100
AcDbEntity
  8
DIM
 62
     0
100
AcDbLine
 10
0.0
 20
0.0
 30
0.0
 11
0.0
 21
1.0
 31
0.0
  0
LINE
  5
317
330
313
100
AcDbEntity
  8
DIM
 62
     0
100
AcDbLine
 10
0.0
 20
0.0
 30
0.0
 11
-1.0
 21
0.0
 31
0.0
  0
LINE
  5
318
330
313
100
AcDbEntity
  8
DIM
 62
     0
100
AcDbLine
 10
0.0
 20
0.0
 30
0.0
 11
0.0
 21
-1.0
 31
0.0
  0
LINE
  5
319
330
313
100
AcDbEntity
  8
DIM
 62
     0
100
AcDbLine
 10
0.0
 20
0.0
 30
0.0
 11
1.0
 21
0.0
 31
0.0
  0
LINE
  5
31A
330
313
100
AcDbEntity
  8
DIM
 62
     0
100
AcDbLine
 10
0.0
 20
2.0
 30
0.0
 11
0.0
 21
4.5
 31
0.0
  0
LINE
  5
31B
330
313
100
AcDbEntity
  8
DIM
 62
     0
100
AcDbLine
 10
-2.0
 20
0.0
 30
0.0
 11
-4.5
 21
0.0
 31
0.0
  0
LINE
  5
31C
330
313
100
AcDbEntity
  8
DIM
 62
     0
100
AcDbLine
 10
0.0
 20
-2.0
 30
0.0
 11
0.0
 21
-4.5
 31
0.0
  0
LINE
  5
31D
330
313
100
AcDbEntity
  8
DIM
 62
     0
100
AcDbLine
 10
2.0
 20
0.0
 30
0.0
 11
4.5
 21
0.0
 31
0.0
  0
ENDBLK
  5
315
330
313
100
AcDbEntity
  8
0
100
AcDbBlockEnd
  0
BLOCK
  5
320
330
31F
100
AcDbEntity
  8
0
100
AcDbBlockBegin
  2
SW_CENTERMARKSYMBOL_21
 70
     0
 10
0.0
 20
0.0
 30
0.0
  3
SW_CENTERMARKSYMBOL_21
  1

  0
LINE
  5
322
330
31F
100
AcDbEntity
  8
DIM
 62
     0
100
AcDbLine
 10
0.0
 20
0.0
 30
0.0
 11
0.0
 21
1.0
 31
0.0
  0
LINE
  5
323
330
31F
100
AcDbEntity
  8
DIM
 62
     0
100
AcDbLine
 10
0.0
 20
0.0
 30
0.0
 11
-1.0
 21
0.0
 31
0.0
  0
LINE
  5
324
330
31F
100
AcDbEntity
  8
DIM
 62
     0
100
AcDbLine
 10
0.0
 20
0.0
 30
0.0
 11
0.0
 21
-1.0
 31
0.0
  0
LINE
  5
325
330
31F
100
AcDbEntity
  8
DIM
 62
     0
100
AcDbLine
 10
0.0
 20
0.0
 30
0.0
 11
1.0
 21
0.0
 31
0.0
  0
LINE
  5
326
330
31F
100
AcDbEntity
  8
DIM
 62
     0
100
AcDbLine
 10
0.0
 20
2.0
 30
0.0
 11
0.0
 21
4.5
 31
0.0
  0
LINE
  5
327
330
31F
100
AcDbEntity
  8
DIM
 62
     0
100
AcDbLine
 10
-2.0
 20
0.0
 30
0.0
 11
-4.5
 21
0.0
 31
0.0
  0
LINE
  5
328
330
31F
100
AcDbEntity
  8
DIM
 62
     0
100
AcDbLine
 10
0.0
 20
-2.0
 30
0.0
 11
0.0
 21
-4.5
 31
0.0
  0
LINE
  5
329
330
31F
100
AcDbEntity
  8
DIM
 62
     0
100
AcDbLine
 10
2.0
 20
0.0
 30
0.0
 11
4.5
 21
0.0
 31
0.0
  0
ENDBLK
  5
321
330
31F
100
AcDbEntity
  8
0
100
AcDbBlockEnd
  0
BLOCK
  5
32C
330
32B
100
AcDbEntity
  8
0
100
AcDbBlockBegin
  2
SW_CENTERMARKSYMBOL_22
 70
     0
 10
0.0
 20
0.0
 30
0.0
  3
SW_CENTERMARKSYMBOL_22
  1

  0
LINE
  5
32E
330
32B
100
AcDbEntity
  8
DIM
 62
     0
100
AcDbLine
 10
0.0
 20
0.0
 30
0.0
 11
0.0
 21
1.0
 31
0.0
  0
LINE
  5
32F
330
32B
100
AcDbEntity
  8
DIM
 62
     0
100
AcDbLine
 10
0.0
 20
0.0
 30
0.0
 11
-1.0
 21
0.0
 31
0.0
  0
LINE
  5
330
330
32B
100
AcDbEntity
  8
DIM
 62
     0
100
AcDbLine
 10
0.0
 20
0.0
 30
0.0
 11
0.0
 21
-1.0
 31
0.0
  0
LINE
  5
331
330
32B
100
AcDbEntity
  8
DIM
 62
     0
100
AcDbLine
 10
0.0
 20
0.0
 30
0.0
 11
1.0
 21
0.0
 31
0.0
  0
LINE
  5
332
330
32B
100
AcDbEntity
  8
DIM
 62
     0
100
AcDbLine
 10
0.0
 20
2.0
 30
0.0
 11
0.0
 21
4.5
 31
0.0
  0
LINE
  5
333
330
32B
100
AcDbEntity
  8
DIM
 62
     0
100
AcDbLine
 10
-2.0
 20
0.0
 30
0.0
 11
-4.5
 21
0.0
 31
0.0
  0
LINE
  5
334
330
32B
100
AcDbEntity
  8
DIM
 62
     0
100
AcDbLine
 10
0.0
 20
-2.0
 30
0.0
 11
0.0
 21
-4.5
 31
0.0
  0
LINE
  5
335
330
32B
100
AcDbEntity
  8
DIM
 62
     0
100
AcDbLine
 10
2.0
 20
0.0
 30
0.0
 11
4.5
 21
0.0
 31
0.0
  0
ENDBLK
  5
32D
330
32B
100
AcDbEntity
  8
0
100
AcDbBlockEnd
  0
BLOCK
  5
338
330
337
100
AcDbEntity
  8
0
100
AcDbBlockBegin
  2
SW_CENTERMARKSYMBOL_23
 70
     0
 10
0.0
 20
0.0
 30
0.0
  3
SW_CENTERMARKSYMBOL_23
  1

  0
LINE
  5
33A
330
337
100
AcDbEntity
  8
DIM
 62
     0
100
AcDbLine
 10
0.0
 20
0.0
 30
0.0
 11
0.0
 21
1.0
 31
0.0
  0
LINE
  5
33B
330
337
100
AcDbEntity
  8
DIM
 62
     0
100
AcDbLine
 10
0.0
 20
0.0
 30
0.0
 11
-1.0
 21
0.0
 31
0.0
  0
LINE
  5
33C
330
337
100
AcDbEntity
  8
DIM
 62
     0
100
AcDbLine
 10
0.0
 20
0.0
 30
0.0
 11
0.0
 21
-1.0
 31
0.0
  0
LINE
  5
33D
330
337
100
AcDbEntity
  8
DIM
 62
     0
100
AcDbLine
 10
0.0
 20
0.0
 30
0.0
 11
1.0
 21
0.0
 31
0.0
  0
LINE
  5
33E
330
337
100
AcDbEntity
  8
DIM
 62
     0
100
AcDbLine
 10
0.0
 20
2.0
 30
0.0
 11
0.0
 21
4.5
 31
0.0
  0
LINE
  5
33F
330
337
100
AcDbEntity
  8
DIM
 62
     0
100
AcDbLine
 10
-2.0
 20
0.0
 30
0.0
 11
-4.5
 21
0.0
 31
0.0
  0
LINE
  5
340
330
337
100
AcDbEntity
  8
DIM
 62
     0
100
AcDbLine
 10
0.0
 20
-2.0
 30
0.0
 11
0.0
 21
-4.5
 31
0.0
  0
LINE
  5
341
330
337
100
AcDbEntity
  8
DIM
 62
     0
100
AcDbLine
 10
2.0
 20
0.0
 30
0.0
 11
4.5
 21
0.0
 31
0.0
  0
ENDBLK
  5
339
330
337
100
AcDbEntity
  8
0
100
AcDbBlockEnd
  0
BLOCK
  5
37C
330
37B
100
AcDbEntity
  8
0
100
AcDbBlockBegin
  2
_D_16
 70
     0
 10
0.0
 20
0.0
 30
0.0
  3
_D_16
  1

  0
ARC
  5
37E
330
37B
100
AcDbEntity
  8
DIM
100
AcDbCircle
 10
110.7063620061
 20
59.3380953281
 30
0.0
 40
52.47182514420687
100
AcDbArc
 50
90.0
 51
135.0
  0
SOLID
  5
37F
330
37B
100
AcDbEntity
  8
DIM
100
AcDbTrace
 10
110.7063620061
 20
111.8099204723
 30
0.0
 11
107.6968781377
 21
112.099112184
 31
0.0
 12
107.7182919893
 22
111.3494179484
 32
0.0
 13
107.7182919893
 23
111.3494179484
 33
0.0
  0
SOLID
  5
380
330
37B
100
AcDbEntity
  8
DIM
100
AcDbTrace
 10
73.6031786254
 20
96.4412787088
 30
0.0
 11
76.0416876544
 21
98.2285388229
 31
0.0
 12
75.5267156562
 22
98.7737945804
 32
0.0
 13
75.5267156562
 23
98.7737945804
 33
0.0
  0
LINE
  5
381
330
37B
100
AcDbEntity
  8
DIM
100
AcDbLine
 10
110.7063620061
 20
109.9423250418
 30
0.0
 11
110.7063620061
 21
113.3099204723
 31
0.0
  0
LINE
  5
382
330
37B
100
AcDbEntity
  8
DIM
100
AcDbLine
 10
89.4931585705
 20
80.5512987637
 30
0.0
 11
72.5425184536
 21
97.5019388806
 31
0.0
  0
MTEXT
  5
383
330
37B
100
AcDbEntity
  8
DIM
100
AcDbMText
 10
85.1770901898
 20
110.7909069439
 30
0.0
 40
3.75
 41
0.0
 71
     1
 72
     1
  1
45°
  7
SLDTEXTSTYLE1
 11
0.9238795325112845
 21
0.3826834323650951
 31
0.0
 73
     1
 44
1.0
  0
ENDBLK
  5
37D
330
37B
100
AcDbEntity
  8
0
100
AcDbBlockEnd
  0
BLOCK
  5
386
330
385
100
AcDbEntity
  8
0
100
AcDbBlockBegin
  2
_D_17
 70
     0
 10
0.0
 20
0.0
 30
0.0
  3
_D_17
  1

  0
ARC
  5
388
330
385
100
AcDbEntity
  8
DIM
100
AcDbCircle
 10
110.7063620061
 20
59.3380953281
 30
0.0
 40
52.4718251442068
100
AcDbArc
 50
45.0
 51
90.0
  0
SOLID
  5
389
330
385
100
AcDbEntity
  8
DIM
100
AcDbTrace
 10
147.8095453868
 20
96.4412787088
 30
0.0
 11
145.886008356
 21
98.7737945804
 31
0.0
 12
145.3710363578
 22
98.2285388229
 32
0.0
 13
145.3710363578
 23
98.2285388229
 33
0.0
  0
SOLID
  5
38A
330
385
100
AcDbEntity
  8
DIM
100
AcDbTrace
 10
110.7063620061
 20
111.8099204723
 30
0.0
 11
113.6944320229
 21
111.3494179484
 31
0.0
 12
113.7158458744
 22
112.099112184
 32
0.0
 13
113.7158458744
 23
112.099112184
 33
0.0
  0
LINE
  5
38B
330
385
100
AcDbEntity
  8
DIM
100
AcDbLine
 10
131.9195654417
 20
80.5512987637
 30
0.0
 11
148.8702055586
 21
97.5019388806
 31
0.0
  0
LINE
  5
38C
330
385
100
AcDbEntity
  8
DIM
100
AcDbLine
 10
110.7063620061
 20
109.9423250418
 30
0.0
 11
110.7063620061
 21
113.3099204723
 31
0.0
  0
MTEXT
  5
38D
330
385
100
AcDbEntity
  8
DIM
100
AcDbMText
 10
129.0370727907
 20
113.7726485528
 30
0.0
 40
3.75
 41
0.0
 71
     1
 72
     1
  1
45°
  7
SLDTEXTSTYLE1
 11
0.9238795325112829
 21
-0.3826834323650992
 31
0.0
 73
     1
 44
1.0
  0
ENDBLK
  5
387
330
385
100
AcDbEntity
  8
0
100
AcDbBlockEnd
  0
BLOCK
  5
390
330
38F
100
AcDbEntity
  8
0
100
AcDbBlockBegin
  2
_D_18
 70
     0
 10
0.0
 20
0.0
 30
0.0
  3
_D_18
  1

  0
SOLID
  5
392
330
38F
100
AcDbEntity
  8
DIM
 62
     7
100
AcDbTrace
 10
98.2063620061
 20
31.7442904623
 30
0.0
 11
101.2063620061
 21
31.3692904623
 31
0.0
 12
101.2063620061
 22
32.1192904623
 32
0.0
 13
101.2063620061
 23
32.1192904623
 33
0.0
  0
SOLID
  5
393
330
38F
100
AcDbEntity
  8
DIM
 62
     7
100
AcDbTrace
 10
110.7063620061
 20
31.7442904623
 30
0.0
 11
107.7063620061
 21
32.1192904623
 31
0.0
 12
107.7063620061
 22
31.3692904623
 32
0.0
 13
107.7063620061
 23
31.3692904623
 33
0.0
  0
LINE
  5
394
330
38F
100
AcDbEntity
  8
DIM
 62
     7
100
AcDbLine
 10
98.2063620061
 20
57.8380953281
 30
0.0
 11
98.2063620061
 21
30.2442904623
 31
0.0
  0
LINE
  5
395
330
38F
100
AcDbEntity
  8
DIM
 62
     7
100
AcDbLine
 10
110.7063620061
 20
57.8380953281
 30
0.0
 11
110.7063620061
 21
30.2442904623
 31
0.0
  0
LINE
  5
396
330
38F
100
AcDbEntity
  8
DIM
 62
     7
100
AcDbLine
 10
98.2063620061
 20
31.7442904623
 30
0.0
 11
110.7063620061
 21
31.7442904623
 31
0.0
  0
MTEXT
  5
397
330
38F
100
AcDbEntity
  8
DIM
 62
     7
100
AcDbMText
 10
99.4433412969
 20
36.5782942245
 30
0.0
 40
3.75
 41
0.0
 71
     1
 72
     1
  1
12.5
  7
SLDTEXTSTYLE1
 73
     1
 44
1.0
  0
ENDBLK
  5
391
330
38F
100
AcDbEntity
  8
0
100
AcDbBlockEnd
  0
BLOCK
  5
39A
330
399
100
AcDbEntity
  8
0
100
AcDbBlockBegin
  2
_D_19
 70
     0
 10
0.0
 20
0.0
 30
0.0
  3
_D_19
  1

  0
SOLID
  5
39C
330
399
100
AcDbEntity
  8
DIM
 62
     7
100
AcDbTrace
 10
110.7063620061
 20
31.7442904623
 30
0.0
 11
113.7063620061
 21
31.3692904623
 31
0.0
 12
113.7063620061
 22
32.1192904623
 32
0.0
 13
113.7063620061
 23
32.1192904623
 33
0.0
  0
SOLID
  5
39D
330
399
100
AcDbEntity
  8
DIM
 62
     7
100
AcDbTrace
 10
123.2063620061
 20
31.7442904623
 30
0.0
 11
120.2063620061
 21
32.1192904623
 31
0.0
 12
120.2063620061
 22
31.3692904623
 32
0.0
 13
120.2063620061
 23
31.3692904623
 33
0.0
  0
LINE
  5
39E
330
399
100
AcDbEntity
  8
DIM
 62
     7
100
AcDbLine
 10
110.7063620061
 20
57.8380953281
 30
0.0
 11
110.7063620061
 21
30.2442904623
 31
0.0
  0
LINE
  5
39F
330
399
100
AcDbEntity
  8
DIM
 62
     7
100
AcDbLine
 10
123.2063620061
 20
57.8380953281
 30
0.0
 11
123.2063620061
 21
30.2442904623
 31
0.0
  0
LINE
  5
3A0
330
399
100
AcDbEntity
  8
DIM
 62
     7
100
AcDbLine
 10
110.7063620061
 20
31.7442904623
 30
0.0
 11
123.2063620061
 21
31.7442904623
 31
0.0
  0
MTEXT
  5
3A1
330
399
100
AcDbEntity
  8
DIM
 62
     7
100
AcDbMText
 10
111.9433412969
 20
36.5782942245
 30
0.0
 40
3.75
 41
0.0
 71
     1
 72
     1
  1
12.5
  7
SLDTEXTSTYLE1
 73
     1
 44
1.0
  0
ENDBLK
  5
39B
330
399
100
AcDbEntity
  8
0
100
AcDbBlockEnd
  0
BLOCK
  5
3A4
330
3A3
100
AcDbEntity
  8
0
100
AcDbBlockBegin
  2
_D_20
 70
     0
 10
0.0
 20
0.0
 30
0.0
  3
_D_20
  1

  0
SOLID
  5
3A6
330
3A3
100
AcDbEntity
  8
DIM
 62
     7
100
AcDbTrace
 10
124.877814935
 20
56.2629944995
 30
0.0
 11
125.9810137853
 21
53.4481095468
 31
0.0
 12
126.6399639628
 22
53.8062780316
 32
0.0
 13
126.6399639628
 23
53.8062780316
 33
0.0
  0
LINE
  5
3A7
330
3A3
100
AcDbEntity
  8
DIM
 62
     7
100
AcDbLine
 10
124.877814935
 20
56.2629944995
 30
0.0
 11
138.3619301114
 21
31.4552281332
 31
0.0
  0
LINE
  5
3A8
330
3A3
100
AcDbEntity
  8
DIM
 62
     7
100
AcDbLine
 10
138.3619301114
 20
31.4552281332
 30
0.0
 11
173.4752106759
 21
31.4552281332
 31
0.0
  0
MTEXT
  5
3A9
330
3A3
100
AcDbEntity
  8
DIM
 62
     7
100
AcDbMText
 10
140.2369301114
 20
36.2996485056
 30
0.0
 40
3.75
 41
0.0
 71
     1
 72
     1
  1
3-
  7
SLDTEXTSTYLE1
 73
     1
 44
1.0
  0
MTEXT
  5
3AA
330
3A3
100
AcDbEntity
  8
DIM
 62
     7
100
AcDbMText
 10
144.815055076
 20
36.2892318081
 30
0.0
 40
3.75
 41
0.0
 71
     1
 72
     1
  1
%%c
  7
SLDTEXTSTYLE1
 73
     1
 44
1.0
  0
MTEXT
  5
3AB
330
3A3
100
AcDbEntity
  8
DIM
 62
     7
100
AcDbMText
 10
150.2825027611
 20
36.2996485056
 30
0.0
 40
3.75
 41
0.0
 71
     1
 72
     1
  1
7
  7
SLDTEXTSTYLE1
 73
     1
 44
1.0
  0
MTEXT
  5
3AC
330
3A3
100
AcDbEntity
  8
DIM
 62
     7
100
AcDbMText
 10
153.1470866222
 20
36.2996485056
 30
0.0
 40
3.75
 41
0.0
 71
     1
 72
     1
  1
 HOLES.
  7
SLDTEXTSTYLE1
 73
     1
 44
1.0
  0
ENDBLK
  5
3A5
330
3A3
100
AcDbEntity
  8
0
100
AcDbBlockEnd
  0
BLOCK
  5
3AF
330
3AE
100
AcDbEntity
  8
0
100
AcDbBlockBegin
  2
_D_21
 70
     0
 10
0.0
 20
0.0
 30
0.0
  3
_D_21
  1

  0
SOLID
  5
3B1
330
3AE
100
AcDbEntity
  8
DIM
 62
     7
100
AcDbTrace
 10
96.9563620061
 20
57.1730318187
 30
0.0
 11
95.1316024797
 21
54.7624556073
 31
0.0
 12
95.7811215325
 22
54.3874556073
 32
0.0
 13
95.7811215325
 23
54.3874556073
 33
0.0
  0
LINE
  5
3B2
330
3AE
100
AcDbEntity
  8
DIM
 62
     7
100
AcDbLine
 10
96.9563620061
 20
57.1730318187
 30
0.0
 11
80.6816489248
 21
28.9844018832
 31
0.0
  0
LINE
  5
3B3
330
3AE
100
AcDbEntity
  8
DIM
 62
     7
100
AcDbLine
 10
80.6816489248
 20
28.9844018832
 30
0.0
 11
55.6139410099
 21
28.9844018832
 31
0.0
  0
MTEXT
  5
3B4
330
3AE
100
AcDbEntity
  8
DIM
 62
     7
100
AcDbMText
 10
55.6139410099
 20
39.5736138453
 30
0.0
 40
3.75
 41
0.0
 71
     1
 72
     1
  1
2 HOLES,
  7
SLDTEXTSTYLE1
 73
     1
 44
1.0
  0
MTEXT
  5
3B5
330
3AE
100
AcDbEntity
  8
DIM
 62
     7
100
AcDbMText
 10
55.6139410099
 20
33.8184056455
 30
0.0
 40
3.75
 41
0.0
 71
     1
 72
     1
  1
M6
  7
SLDTEXTSTYLE1
 73
     1
 44
1.0
  0
ENDBLK
  5
3B0
330
3AE
100
AcDbEntity
  8
0
100
AcDbBlockEnd
  0
BLOCK
  5
3B8
330
3B7
100
AcDbEntity
  8
0
100
AcDbBlockBegin
  2
_D_22
 70
     0
 10
0.0
 20
0.0
 30
0.0
  3
_D_22
  1

  0
SOLID
  5
3BA
330
3B7
100
AcDbEntity
  8
DIM
100
AcDbTrace
 10
162.2145779411
 20
46.3380953281
 30
0.0
 11
162.5895779411
 21
49.3380953281
 31
0.0
 12
161.8395779411
 22
49.3380953281
 32
0.0
 13
161.8395779411
 23
49.3380953281
 33
0.0
  0
SOLID
  5
3BB
330
3B7
100
AcDbEntity
  8
DIM
100
AcDbTrace
 10
162.2145779411
 20
59.3380953281
 30
0.0
 11
161.8395779411
 21
56.3380953281
 31
0.0
 12
162.5895779411
 22
56.3380953281
 32
0.0
 13
162.5895779411
 23
56.3380953281
 33
0.0
  0
LINE
  5
3BC
330
3B7
100
AcDbEntity
  8
DIM
100
AcDbLine
 10
150.2063620061
 20
46.3380953281
 30
0.0
 11
163.7145779411
 21
46.3380953281
 31
0.0
  0
LINE
  5
3BD
330
3B7
100
AcDbEntity
  8
DIM
100
AcDbLine
 10
129.2063620061
 20
59.3380953281
 30
0.0
 11
163.7145779411
 21
59.3380953281
 31
0.0
  0
LINE
  5
3BE
330
3B7
100
AcDbEntity
  8
DIM
100
AcDbLine
 10
162.2145779411
 20
46.3380953281
 30
0.0
 11
162.2145779411
 21
59.3380953281
 31
0.0
  0
MTEXT
  5
3BF
330
3B7
100
AcDbEntity
  8
DIM
100
AcDbMText
 10
157.3805741789
 20
49.9735119909
 30
0.0
 40
3.75
 41
0.0
 71
     1
 72
     1
  1
13
  7
SLDTEXTSTYLE1
 11
7.832793512333463E-15
 21
1.0
 31
0.0
 73
     1
 44
1.0
  0
ENDBLK
  5
3B9
330
3B7
100
AcDbEntity
  8
0
100
AcDbBlockEnd
  0
BLOCK
  5
3C3
330
3C2
100
AcDbEntity
  8
0
100
AcDbBlockBegin
  2
_D_23
 70
     0
 10
0.0
 20
0.0
 30
0.0
  3
_D_23
  1

  0
SOLID
  5
3C5
330
3C2
100
AcDbEntity
  8
DIM
100
AcDbTrace
 10
170.7063620061
 20
46.3380953281
 30
0.0
 11
171.0813620061
 21
49.3380953281
 31
0.0
 12
170.3313620061
 22
49.3380953281
 32
0.0
 13
170.3313620061
 23
49.3380953281
 33
0.0
  0
SOLID
  5
3C6
330
3C2
100
AcDbEntity
  8
DIM
100
AcDbTrace
 10
170.7063620061
 20
100.3480953281
 30
0.0
 11
170.3313620061
 21
97.3480953281
 31
0.0
 12
171.0813620061
 22
97.3480953281
 32
0.0
 13
171.0813620061
 23
97.3480953281
 33
0.0
  0
LINE
  5
3C7
330
3C2
100
AcDbEntity
  8
DIM
100
AcDbLine
 10
150.2063620061
 20
46.3380953281
 30
0.0
 11
172.2063620061
 21
46.3380953281
 31
0.0
  0
LINE
  5
3C8
330
3C2
100
AcDbEntity
  8
DIM
100
AcDbLine
 10
112.2063620061
 20
100.3480953281
 30
0.0
 11
172.2063620061
 21
100.3480953281
 31
0.0
  0
LINE
  5
3C9
330
3C2
100
AcDbEntity
  8
DIM
100
AcDbLine
 10
170.7063620061
 20
46.3380953281
 30
0.0
 11
170.7063620061
 21
100.3480953281
 31
0.0
  0
MTEXT
  5
3CA
330
3C2
100
AcDbEntity
  8
DIM
100
AcDbMText
 10
165.8723582439
 20
70.4785119909
 30
0.0
 40
3.75
 41
0.0
 71
     1
 72
     1
  1
54
  7
SLDTEXTSTYLE1
 11
7.832793512333463E-15
 21
1.0
 31
0.0
 73
     1
 44
1.0
  0
ENDBLK
  5
3C4
330
3C2
100
AcDbEntity
  8
0
100
AcDbBlockEnd
  0
BLOCK
  5
3CC
330
3CB
100
AcDbEntity
  8
0
100
AcDbBlockBegin
  2
SW_CENTERMARKSYMBOL_24
 70
     0
 10
0.0
 20
0.0
 30
0.0
  3
SW_CENTERMARKSYMBOL_24
  1

  0
LINE
  5
3CE
330
3CB
100
AcDbEntity
  8
DIM
 62
     0
100
AcDbLine
 10
0.0
 20
0.0
 30
0.0
 11
0.0
 21
1.0
 31
0.0
  0
LINE
  5
3CF
330
3CB
100
AcDbEntity
  8
DIM
 62
     0
100
AcDbLine
 10
0.0
 20
0.0
 30
0.0
 11
-1.0
 21
0.0
 31
0.0
  0
LINE
  5
3D0
330
3CB
100
AcDbEntity
  8
DIM
 62
     0
100
AcDbLine
 10
0.0
 20
0.0
 30
0.0
 11
0.0
 21
-1.0
 31
0.0
  0
LINE
  5
3D1
330
3CB
100
AcDbEntity
  8
DIM
 62
     0
100
AcDbLine
 10
0.0
 20
0.0
 30
0.0
 11
1.0
 21
0.0
 31
0.0
  0
LINE
  5
3D2
330
3CB
100
AcDbEntity
  8
DIM
 62
     0
100
AcDbLine
 10
0.0
 20
2.0
 30
0.0
 11
0.0
 21
4.5
 31
0.0
  0
LINE
  5
3D3
330
3CB
100
AcDbEntity
  8
DIM
 62
     0
100
AcDbLine
 10
-2.0
 20
0.0
 30
0.0
 11
-4.5
 21
0.0
 31
0.0
  0
LINE
  5
3D4
330
3CB
100
AcDbEntity
  8
DIM
 62
     0
100
AcDbLine
 10
0.0
 20
-2.0
 30
0.0
 11
0.0
 21
-4.5
 31
0.0
  0
LINE
  5
3D5
330
3CB
100
AcDbEntity
  8
DIM
 62
     0
100
AcDbLine
 10
2.0
 20
0.0
 30
0.0
 11
4.5
 21
0.0
 31
0.0
  0
ENDBLK
  5
3CD
330
3CB
100
AcDbEntity
  8
0
100
AcDbBlockEnd
  0
BLOCK
  5
3D8
330
3D7
100
AcDbEntity
  8
0
100
AcDbBlockBegin
  2
SW_CENTERMARKSYMBOL_25
 70
     0
 10
0.0
 20
0.0
 30
0.0
  3
SW_CENTERMARKSYMBOL_25
  1

  0
LINE
  5
3DA
330
3D7
100
AcDbEntity
  8
DIM
 62
     0
100
AcDbLine
 10
0.0
 20
0.0
 30
0.0
 11
0.0
 21
1.0
 31
0.0
  0
LINE
  5
3DB
330
3D7
100
AcDbEntity
  8
DIM
 62
     0
100
AcDbLine
 10
0.0
 20
0.0
 30
0.0
 11
-1.0
 21
0.0
 31
0.0
  0
LINE
  5
3DC
330
3D7
100
AcDbEntity
  8
DIM
 62
     0
100
AcDbLine
 10
0.0
 20
0.0
 30
0.0
 11
0.0
 21
-1.0
 31
0.0
  0
LINE
  5
3DD
330
3D7
100
AcDbEntity
  8
DIM
 62
     0
100
AcDbLine
 10
0.0
 20
0.0
 30
0.0
 11
1.0
 21
0.0
 31
0.0
  0
LINE
  5
3DE
330
3D7
100
AcDbEntity
  8
DIM
 62
     0
100
AcDbLine
 10
0.0
 20
2.0
 30
0.0
 11
0.0
 21
4.5
 31
0.0
  0
LINE
  5
3DF
330
3D7
100
AcDbEntity
  8
DIM
 62
     0
100
AcDbLine
 10
-2.0
 20
0.0
 30
0.0
 11
-4.5
 21
0.0
 31
0.0
  0
LINE
  5
3E0
330
3D7
100
AcDbEntity
  8
DIM
 62
     0
100
AcDbLine
 10
0.0
 20
-2.0
 30
0.0
 11
0.0
 21
-4.5
 31
0.0
  0
LINE
  5
3E1
330
3D7
100
AcDbEntity
  8
DIM
 62
     0
100
AcDbLine
 10
2.0
 20
0.0
 30
0.0
 11
4.5
 21
0.0
 31
0.0
  0
ENDBLK
  5
3D9
330
3D7
100
AcDbEntity
  8
0
100
AcDbBlockEnd
  0
BLOCK
  5
3E4
330
3E3
100
AcDbEntity
  8
0
100
AcDbBlockBegin
  2
SW_CENTERMARKSYMBOL_26
 70
     0
 10
0.0
 20
0.0
 30
0.0
  3
SW_CENTERMARKSYMBOL_26
  1

  0
LINE
  5
3E6
330
3E3
100
AcDbEntity
  8
DIM
 62
     0
100
AcDbLine
 10
0.0
 20
0.0
 30
0.0
 11
0.0
 21
1.0
 31
0.0
  0
LINE
  5
3E7
330
3E3
100
AcDbEntity
  8
DIM
 62
     0
100
AcDbLine
 10
0.0
 20
0.0
 30
0.0
 11
-1.0
 21
0.0
 31
0.0
  0
LINE
  5
3E8
330
3E3
100
AcDbEntity
  8
DIM
 62
     0
100
AcDbLine
 10
0.0
 20
0.0
 30
0.0
 11
0.0
 21
-1.0
 31
0.0
  0
LINE
  5
3E9
330
3E3
100
AcDbEntity
  8
DIM
 62
     0
100
AcDbLine
 10
0.0
 20
0.0
 30
0.0
 11
1.0
 21
0.0
 31
0.0
  0
LINE
  5
3EA
330
3E3
100
AcDbEntity
  8
DIM
 62
     0
100
AcDbLine
 10
0.0
 20
2.0
 30
0.0
 11
0.0
 21
4.5
 31
0.0
  0
LINE
  5
3EB
330
3E3
100
AcDbEntity
  8
DIM
 62
     0
100
AcDbLine
 10
-2.0
 20
0.0
 30
0.0
 11
-4.5
 21
0.0
 31
0.0
  0
LINE
  5
3EC
330
3E3
100
AcDbEntity
  8
DIM
 62
     0
100
AcDbLine
 10
0.0
 20
-2.0
 30
0.0
 11
0.0
 21
-4.5
 31
0.0
  0
LINE
  5
3ED
330
3E3
100
AcDbEntity
  8
DIM
 62
     0
100
AcDbLine
 10
2.0
 20
0.0
 30
0.0
 11
4.5
 21
0.0
 31
0.0
  0
ENDBLK
  5
3E5
330
3E3
100
AcDbEntity
  8
0
100
AcDbBlockEnd
  0
BLOCK
  5
3F0
330
3EF
100
AcDbEntity
  8
0
100
AcDbBlockBegin
  2
SW_CENTERMARKSYMBOL_27
 70
     0
 10
0.0
 20
0.0
 30
0.0
  3
SW_CENTERMARKSYMBOL_27
  1

  0
LINE
  5
3F2
330
3EF
100
AcDbEntity
  8
DIM
 62
     0
100
AcDbLine
 10
0.0
 20
0.0
 30
0.0
 11
0.0
 21
1.0
 31
0.0
  0
LINE
  5
3F3
330
3EF
100
AcDbEntity
  8
DIM
 62
     0
100
AcDbLine
 10
0.0
 20
0.0
 30
0.0
 11
-1.0
 21
0.0
 31
0.0
  0
LINE
  5
3F4
330
3EF
100
AcDbEntity
  8
DIM
 62
     0
100
AcDbLine
 10
0.0
 20
0.0
 30
0.0
 11
0.0
 21
-1.0
 31
0.0
  0
LINE
  5
3F5
330
3EF
100
AcDbEntity
  8
DIM
 62
     0
100
AcDbLine
 10
0.0
 20
0.0
 30
0.0
 11
1.0
 21
0.0
 31
0.0
  0
LINE
  5
3F6
330
3EF
100
AcDbEntity
  8
DIM
 62
     0
100
AcDbLine
 10
0.0
 20
2.0
 30
0.0
 11
0.0
 21
3.5
 31
0.0
  0
LINE
  5
3F7
330
3EF
100
AcDbEntity
  8
DIM
 62
     0
100
AcDbLine
 10
-2.0
 20
0.0
 30
0.0
 11
-3.5
 21
0.0
 31
0.0
  0
LINE
  5
3F8
330
3EF
100
AcDbEntity
  8
DIM
 62
     0
100
AcDbLine
 10
0.0
 20
-2.0
 30
0.0
 11
0.0
 21
-3.5
 31
0.0
  0
LINE
  5
3F9
330
3EF
100
AcDbEntity
  8
DIM
 62
     0
100
AcDbLine
 10
2.0
 20
0.0
 30
0.0
 11
3.5
 21
0.0
 31
0.0
  0
ENDBLK
  5
3F1
330
3EF
100
AcDbEntity
  8
0
100
AcDbBlockEnd
  0
ENDSEC
  0
SECTION
  2
ENTITIES
  0
HATCH
  5
7D
330
1F
100
AcDbEntity
  8
DIM
 62
     1
100
AcDbHatch
 10
0.0
 20
0.0
 30
0.0
210
0.0
220
0.0
230
1.0
  2
SOLID
 70
     1
 71
     0
 91
        1
 92
        0
 93
       10
 72
     2
 10
293.8772003609827
 20
54.58976793037054
 40
2.277829406127403
 50
316.560353846615
 51
413.9622470531897
 73
     0
 72
     1
 10
295.2172888494758
 20
52.74784783263913
 11
293.3547668772852
 21
50.9411984190283
 72
     1
 10
293.3547668772852
 20
50.9411984190283
 11
291.8765935378109
 21
52.22924382886254
 72
     2
 10
288.8322147732397
 20
54.61260905287502
 40
3.866351232519373
 50
321.9435288426934
 51
402.1815007004195
 73
     1
 72
     2
 10
288.355730337153
 20
53.80137634465774
 40
4.772455056791797
 50
45.55929254159851
 51
125.83255551215
 73
     1
 72
     1
 10
285.561847201499
 20
57.67055510679909
 11
284.0282353854762
 21
59.0082408974803
 72
     1
 10
284.0282353854762
 20
59.0082408974803
 11
288.881613558091
 21
63.69862126740146
 72
     1
 10
288.881613558091
 20
63.69862126740146
 11
290.277373323367
 21
62.45333293763466
 72
     1
 10
290.277373323367
 20
62.45333293763466
 11
289.3409963704761
 21
61.53974529137867
 72
     1
 10
289.3409963704761
 20
61.53974529137867
 11
295.5311301579911
 21
56.15598088842773
 97
        0
 75
     0
 76
     1
 98
        1
 10
0.0
 20
0.0
  0
HATCH
  5
7E
330
1F
100
AcDbEntity
  8
DIM
 62
     7
100
AcDbHatch
 10
0.0
 20
0.0
 30
0.0
210
0.0
220
0.0
230
1.0
  2
SOLID
 70
     1
 71
     0
 91
        1
 92
        0
 93
       10
 72
     2
 10
288.1559821787073
 20
54.93267580271081
 40
4.568627093596862
 50
51.07786460466418
 51
110.7887790856598
 73
     0
 72
     2
 10
287.6588863662625
 20
54.34971317883968
 40
3.85581655456692
 50
106.9547474926003
 51
219.8569537219348
 73
     0
 72
     1
 10
284.6989809112034
 20
56.82080220993186
 11
283.1761901400997
 21
58.16410006115851
 72
     1
 10
283.1761901400997
 20
58.16410006115851
 11
281.2162477577772
 21
56.27171944639723
 72
     2
 10
282.7022900290505
 20
54.5188844737972
 40
2.297988701708712
 50
130.2910647924877
 51
228.5093619070326
 73
     1
 72
     1
 10
281.1798778847391
 20
52.7975439101567
 11
287.1936813500328
 21
47.57063814974442
 72
     1
 10
287.1936813500328
 20
47.57063814974442
 11
286.2471034694101
 21
46.64678756403789
 72
     1
 10
286.2471034694101
 20
46.64678756403789
 11
287.6583041526511
 21
45.4317919588729
 72
     1
 10
287.6583041526511
 20
45.4317919588729
 11
292.4735141123847
 21
50.10735152801649
 72
     1
 10
292.4735141123847
 20
50.10735152801649
 11
291.0262846205591
 21
51.37828170347998
 97
        0
 75
     0
 76
     1
 98
        1
 10
0.0
 20
0.0
  0
LINE
  5
7F
330
1F
100
AcDbEntity
  8
0
  6
Continuous
 62
     7
370
     0
100
AcDbLine
 10
251.7890662777
 20
26.6617788769
 30
0.0
 11
253.2890662777
 21
26.6617788769
 31
0.0
  0
LINE
  5
80
330
1F
100
AcDbEntity
  8
0
  6
Continuous
 62
     7
370
     0
100
AcDbLine
 10
247.2890662777
 20
26.6617788769
 30
0.0
 11
251.0390662777
 21
26.6617788769
 31
0.0
  0
LINE
  5
81
330
1F
100
AcDbEntity
  8
0
  6
Continuous
 62
     7
370
     0
100
AcDbLine
 10
272.0390662777
 20
22.9117788769
 30
0.0
 11
272.0390662777
 21
30.4117788769
 31
0.0
  0
LINE
  5
82
330
1F
100
AcDbEntity
  8
0
  6
Continuous
 62
     7
370
     0
100
AcDbLine
 10
261.5390662777
 20
24.4117788769
 30
0.0
 11
272.0390662777
 21
22.9117788769
 31
0.0
  0
LINE
  5
83
330
1F
100
AcDbEntity
  8
0
  6
Continuous
 62
     7
370
     0
100
AcDbLine
 10
252.5390662777
 20
25.1617788769
 30
0.0
 11
252.5390662777
 21
21.4117788769
 31
0.0
  0
LINE
  5
84
330
1F
100
AcDbEntity
  8
0
  6
Continuous
 62
     7
370
     0
100
AcDbLine
 10
272.0390662777
 20
30.4117788769
 30
0.0
 11
261.5390662777
 21
28.9117788769
 31
0.0
  0
LINE
  5
85
330
1F
100
AcDbEntity
  8
0
  6
Continuous
 62
     7
370
     0
100
AcDbLine
 10
260.0390662777
 20
26.6617788769
 30
0.0
 11
273.5390662777
 21
26.6617788769
 31
0.0
  0
LINE
  5
86
330
1F
100
AcDbEntity
  8
0
  6
Continuous
 62
     7
370
     0
100
AcDbLine
 10
252.5390662777
 20
27.4117788769
 30
0.0
 11
252.5390662777
 21
25.9117788769
 31
0.0
  0
LINE
  5
87
330
1F
100
AcDbEntity
  8
0
  6
Continuous
 62
     7
370
     0
100
AcDbLine
 10
254.0390662777
 20
26.6617788769
 30
0.0
 11
257.7890662777
 21
26.6617788769
 31
0.0
  0
LINE
  5
88
330
1F
100
AcDbEntity
  8
0
  6
Continuous
 62
     7
370
     0
100
AcDbLine
 10
252.5390662777
 20
31.9117788769
 30
0.0
 11
252.5390662777
 21
28.1617788769
 31
0.0
  0
LINE
  5
89
330
1F
100
AcDbEntity
  8
0
  6
Continuous
 62
     7
370
     0
100
AcDbLine
 10
261.5390662777
 20
28.9117788769
 30
0.0
 11
261.5390662777
 21
24.4117788769
 31
0.0
  0
LINE
  5
8A
330
1F
100
AcDbEntity
  8
0
  6
Continuous
 62
     7
370
     0
100
AcDbLine
 10
278.5361947814
 20
19.6728696119
 30
0.0
 11
428.5361947814
 21
19.6728696119
 31
0.0
  0
LINE
  5
8B
330
1F
100
AcDbEntity
  8
0
  6
Continuous
 62
     7
370
     0
100
AcDbLine
 10
278.5361947814
 20
27.1728696119
 30
0.0
 11
353.5361947814
 21
27.1728696119
 31
0.0
  0
LINE
  5
8C
330
1F
100
AcDbEntity
  8
0
  6
Continuous
 62
     7
370
     0
100
AcDbLine
 10
278.5361947814
 20
34.6728696119
 30
0.0
 11
353.5361947814
 21
34.6728696119
 31
0.0
  0
LINE
  5
8D
330
1F
100
AcDbEntity
  8
0
  6
Continuous
 62
     7
370
     0
100
AcDbLine
 10
278.5361947814
 20
42.1728696119
 30
0.0
 11
428.5361947814
 21
42.1728696119
 31
0.0
  0
LINE
  5
8E
330
1F
100
AcDbEntity
  8
0
  6
Continuous
 62
     7
370
     0
100
AcDbLine
 10
353.5361947814
 20
49.6728696119
 30
0.0
 11
428.5361947814
 21
49.6728696119
 31
0.0
  0
LINE
  5
8F
330
1F
100
AcDbEntity
  8
0
  6
Continuous
 62
     7
370
    15
100
AcDbLine
 10
353.5361947814
 20
27.1728696119
 30
0.0
 11
428.5361947814
 21
27.1728696119
 31
0.0
  0
LINE
  5
90
330
1F
100
AcDbEntity
  8
0
  6
Continuous
 62
     7
370
     0
100
AcDbLine
 10
278.5361947814
 20
64.6728696119
 30
0.0
 11
428.5361947814
 21
64.6728696119
 31
0.0
  0
LINE
  5
91
330
1F
100
AcDbEntity
  8
0
  6
Continuous
 62
     7
370
     0
100
AcDbLine
 10
376.8558265126
 20
12.1728696119
 30
0.0
 11
376.8558265126
 21
27.1728696119
 31
0.0
  0
LINE
  5
92
330
1F
100
AcDbEntity
  8
0
  6
Continuous
 62
     7
370
     0
100
AcDbLine
 10
353.5361947814
 20
12.1728696119
 30
0.0
 11
353.5361947814
 21
64.6728696119
 31
0.0
  0
LINE
  5
93
330
1F
100
AcDbEntity
  8
0
  6
Continuous
 62
     7
370
     0
100
AcDbLine
 10
376.8558265126
 20
42.1728696119
 30
0.0
 11
376.8558265126
 21
49.6728696119
 31
0.0
  0
LINE
  5
94
330
1F
100
AcDbEntity
  8
0
  6
Continuous
 62
     7
370
     0
100
AcDbLine
 10
321.624612953
 20
12.1728696119
 30
0.0
 11
321.624612953
 21
42.1728696119
 31
0.0
  0
LINE
  5
95
330
1F
100
AcDbEntity
  8
0
  6
Continuous
 62
     7
370
     0
100
AcDbLine
 10
299.6678831259
 20
12.1728696119
 30
0.0
 11
299.6678831259
 21
42.1728696119
 31
0.0
  0
LINE
  5
96
330
1F
100
AcDbEntity
  8
0
  6
Continuous
 62
     7
370
     0
100
AcDbLine
 10
278.5361947814
 20
12.1728696119
 30
0.0
 11
278.5361947814
 21
64.6728696119
 31
0.0
  0
LINE
  5
97
330
1F
100
AcDbEntity
  8
0
  6
Continuous
 62
     7
370
    15
100
AcDbLine
 10
13.0361947814
 20
157.1154554872
 30
0.0
 11
22.0361947814
 21
157.1154554872
 31
0.0
  0
LINE
  5
98
330
1F
100
AcDbEntity
  8
0
  6
Continuous
 62
     7
370
    15
100
AcDbLine
 10
428.5361947814
 20
157.1154554872
 30
0.0
 11
419.5361947814
 21
157.1154554872
 31
0.0
  0
LINE
  5
99
330
1F
100
AcDbEntity
  8
0
  6
Continuous
 62
     7
370
    15
100
AcDbLine
 10
220.7861947814
 20
12.1728696119
 30
0.0
 11
220.7861947814
 21
21.1728696119
 31
0.0
  0
LINE
  5
9A
330
1F
100
AcDbEntity
  8
0
  6
Continuous
 62
     7
370
    15
100
AcDbLine
 10
220.7861947814
 20
302.0580413626
 30
0.0
 11
220.7861947814
 21
293.0580413626
 31
0.0
  0
LINE
  5
9B
330
1F
100
AcDbEntity
  8
工作區域參考線
 62
     1
370
     0
100
AcDbLine
 10
285.5618472015
 20
57.6705551068
 30
0.0
 11
284.0282353855
 21
59.0082408975
 31
0.0
  0
LINE
  5
9C
330
1F
100
AcDbEntity
  8
0
  6
Continuous
 62
     7
370
    15
100
AcDbLine
 10
64.9811947814
 20
302.0580413626
 30
0.0
 11
64.9811947814
 21
304.3080413626
 31
0.0
  0
LINE
  5
9D
330
1F
100
AcDbEntity
  8
0
  6
Continuous
 62
     7
370
    15
100
AcDbLine
 10
116.9261947814
 20
302.0580413626
 30
0.0
 11
116.9261947814
 21
304.3080413626
 31
0.0
  0
LINE
  5
9E
330
1F
100
AcDbEntity
  8
0
  6
Continuous
 62
     7
370
    15
100
AcDbLine
 10
168.8711947814
 20
302.0580413626
 30
0.0
 11
168.8711947814
 21
304.3080413626
 31
0.0
  0
LINE
  5
9F
330
1F
100
AcDbEntity
  8
0
  6
Continuous
 62
     7
370
    15
100
AcDbLine
 10
220.8161947814
 20
302.0580413626
 30
0.0
 11
220.8161947814
 21
304.3080413626
 31
0.0
  0
LINE
  5
A0
330
1F
100
AcDbEntity
  8
0
  6
Continuous
 62
     7
370
    15
100
AcDbLine
 10
272.7611947814
 20
302.0580413626
 30
0.0
 11
272.7611947814
 21
304.3080413626
 31
0.0
  0
LINE
  5
A1
330
1F
100
AcDbEntity
  8
0
  6
Continuous
 62
     7
370
    15
100
AcDbLine
 10
324.7061947814
 20
302.0580413626
 30
0.0
 11
324.7061947814
 21
304.3080413626
 31
0.0
  0
LINE
  5
A2
330
1F
100
AcDbEntity
  8
0
  6
Continuous
 62
     7
370
    15
100
AcDbLine
 10
376.6511947814
 20
302.0580413626
 30
0.0
 11
376.6511947814
 21
304.3080413626
 31
0.0
  0
LINE
  5
A3
330
1F
100
AcDbEntity
  8
0
  6
Continuous
 62
     7
370
    15
100
AcDbLine
 10
64.9736947814
 20
12.1728696119
 30
0.0
 11
64.9736947814
 21
9.9228696119
 31
0.0
  0
LINE
  5
A4
330
1F
100
AcDbEntity
  8
0
  6
Continuous
 62
     7
370
    15
100
AcDbLine
 10
116.9111947814
 20
12.1728696119
 30
0.0
 11
116.9111947814
 21
9.9228696119
 31
0.0
  0
LINE
  5
A5
330
1F
100
AcDbEntity
  8
0
  6
Continuous
 62
     7
370
    15
100
AcDbLine
 10
168.8486947814
 20
12.1728696119
 30
0.0
 11
168.8486947814
 21
9.9228696119
 31
0.0
  0
LINE
  5
A6
330
1F
100
AcDbEntity
  8
0
  6
Continuous
 62
     7
370
    15
100
AcDbLine
 10
220.7861947814
 20
12.1728696119
 30
0.0
 11
220.7861947814
 21
9.9228696119
 31
0.0
  0
LINE
  5
A7
330
1F
100
AcDbEntity
  8
0
  6
Continuous
 62
     7
370
    15
100
AcDbLine
 10
272.7236947814
 20
12.1728696119
 30
0.0
 11
272.7236947814
 21
9.9228696119
 31
0.0
  0
LINE
  5
A8
330
1F
100
AcDbEntity
  8
0
  6
Continuous
 62
     7
370
    15
100
AcDbLine
 10
324.6611947814
 20
12.1728696119
 30
0.0
 11
324.6611947814
 21
9.9228696119
 31
0.0
  0
LINE
  5
A9
330
1F
100
AcDbEntity
  8
0
  6
Continuous
 62
     7
370
     0
100
AcDbLine
 10
428.5361947814
 20
302.0580413626
 30
0.0
 11
13.0361947814
 21
302.0580413626
 31
0.0
  0
LINE
  5
AA
330
1F
100
AcDbEntity
  8
0
  6
Continuous
 62
     7
370
     0
100
AcDbLine
 10
428.5361947814
 20
12.1728696119
 30
0.0
 11
428.5361947814
 21
302.0580413626
 31
0.0
  0
LINE
  5
AB
330
1F
100
AcDbEntity
  8
0
  6
Continuous
 62
     7
370
     0
100
AcDbLine
 10
13.0361947814
 20
302.0580413626
 30
0.0
 11
13.0361947814
 21
12.1728696119
 31
0.0
  0
LINE
  5
AC
330
1F
100
AcDbEntity
  8
0
  6
Continuous
 62
     7
370
     0
100
AcDbLine
 10
13.0361947814
 20
12.1728696119
 30
0.0
 11
428.5361947814
 21
12.1728696119
 31
0.0
  0
LINE
  5
AD
330
1F
100
AcDbEntity
  8
工作區域參考線
 62
     1
370
     0
100
AcDbLine
 10
284.0282353855
 20
59.0082408975
 30
0.0
 11
288.8816135581
 21
63.6986212674
 31
0.0
  0
LINE
  5
AE
330
1F
100
AcDbEntity
  8
0
  6
Continuous
 62
     7
370
    15
100
AcDbLine
 10
376.5986947814
 20
12.1728696119
 30
0.0
 11
376.5986947814
 21
9.9228696119
 31
0.0
  0
LINE
  5
AF
330
1F
100
AcDbEntity
  8
0
  6
Continuous
 62
     7
370
    15
100
AcDbLine
 10
13.0361947814
 20
60.4878696119
 30
0.0
 11
10.7861947814
 21
60.4878696119
 31
0.0
  0
LINE
  5
B0
330
1F
100
AcDbEntity
  8
工作區域參考線
 62
     1
370
     0
100
AcDbLine
 10
288.8816135581
 20
63.6986212674
 30
0.0
 11
290.2773733234
 21
62.4533329376
 31
0.0
  0
LINE
  5
B1
330
1F
100
AcDbEntity
  8
0
  6
Continuous
 62
     7
370
    15
100
AcDbLine
 10
13.0361947814
 20
108.8028696119
 30
0.0
 11
10.7861947814
 21
108.8028696119
 31
0.0
  0
LINE
  5
B2
330
1F
100
AcDbEntity
  8
0
  6
Continuous
 62
     7
370
    15
100
AcDbLine
 10
13.0361947814
 20
157.1178696119
 30
0.0
 11
10.7861947814
 21
157.1178696119
 31
0.0
  0
LINE
  5
B3
330
1F
100
AcDbEntity
  8
0
  6
Continuous
 62
     7
370
    15
100
AcDbLine
 10
13.0361947814
 20
205.4328696119
 30
0.0
 11
10.7861947814
 21
205.4328696119
 31
0.0
  0
LINE
  5
B4
330
1F
100
AcDbEntity
  8
0
  6
Continuous
 62
     7
370
    15
100
AcDbLine
 10
13.0361947814
 20
253.7478696119
 30
0.0
 11
10.7861947814
 21
253.7478696119
 31
0.0
  0
LINE
  5
B5
330
1F
100
AcDbEntity
  8
0
  6
Continuous
 62
     7
370
    15
100
AcDbLine
 10
428.5361947814
 20
60.4878696119
 30
0.0
 11
430.7861947814
 21
60.4878696119
 31
0.0
  0
LINE
  5
B6
330
1F
100
AcDbEntity
  8
工作區域參考線
 62
     1
370
     0
100
AcDbLine
 10
290.2773733234
 20
62.4533329376
 30
0.0
 11
289.3409963705
 21
61.5397452914
 31
0.0
  0
LINE
  5
B7
330
1F
100
AcDbEntity
  8
0
  6
Continuous
 62
     7
370
    15
100
AcDbLine
 10
428.5361947814
 20
108.8028696119
 30
0.0
 11
430.7861947814
 21
108.8028696119
 31
0.0
  0
LINE
  5
B8
330
1F
100
AcDbEntity
  8
0
  6
Continuous
 62
     7
370
    15
100
AcDbLine
 10
428.5361947814
 20
157.1178696119
 30
0.0
 11
430.7861947814
 21
157.1178696119
 31
0.0
  0
LINE
  5
B9
330
1F
100
AcDbEntity
  8
0
  6
Continuous
 62
     7
370
    15
100
AcDbLine
 10
428.5361947814
 20
205.4328696119
 30
0.0
 11
430.7861947814
 21
205.4328696119
 31
0.0
  0
LINE
  5
BA
330
1F
100
AcDbEntity
  8
0
  6
Continuous
 62
     7
370
    15
100
AcDbLine
 10
428.5361947814
 20
253.7478696119
 30
0.0
 11
430.7861947814
 21
253.7478696119
 31
0.0
  0
LINE
  5
BB
330
1F
100
AcDbEntity
  8
工作區域參考線
 62
     1
370
     0
100
AcDbLine
 10
289.3409963705
 20
61.5397452914
 30
0.0
 11
295.531130158
 21
56.1559808884
 31
0.0
  0
LINE
  5
BC
330
1F
100
AcDbEntity
  8
工作區域參考線
 62
     1
370
     0
100
AcDbLine
 10
291.8765935378
 20
52.2292438289
 30
0.0
 11
293.3547668773
 21
50.941198419
 31
0.0
  0
LINE
  5
BD
330
1F
100
AcDbEntity
  8
工作區域參考線
 62
     1
370
     0
100
AcDbLine
 10
293.3547668773
 20
50.941198419
 30
0.0
 11
295.2172888495
 21
52.7478478326
 31
0.0
  0
LINE
  5
BE
330
1F
100
AcDbEntity
  8
圖層_1
370
    30
100
AcDbLine
 10
292.4735141124
 20
50.107351528
 30
0.0
 11
287.6583041527
 21
45.4317919589
 31
0.0
  0
LINE
  5
BF
330
1F
100
AcDbEntity
  8
圖層_1
370
    30
100
AcDbLine
 10
287.6583041527
 20
45.4317919589
 30
0.0
 11
286.2471034694
 21
46.646787564
 31
0.0
  0
LINE
  5
C0
330
1F
100
AcDbEntity
  8
圖層_1
370
    30
100
AcDbLine
 10
286.2471034694
 20
46.646787564
 30
0.0
 11
287.19368135
 21
47.5706381497
 31
0.0
  0
LINE
  5
C1
330
1F
100
AcDbEntity
  8
圖層_1
370
    30
100
AcDbLine
 10
281.1798778847
 20
52.7975439102
 30
0.0
 11
287.19368135
 21
47.5706381497
 31
0.0
  0
LINE
  5
C2
330
1F
100
AcDbEntity
  8
圖層_1
370
    30
100
AcDbLine
 10
283.1761901401
 20
58.1641000612
 30
0.0
 11
281.2162477578
 21
56.2717194464
 31
0.0
  0
LINE
  5
C3
330
1F
100
AcDbEntity
  8
圖層_1
370
    30
100
AcDbLine
 10
283.1761901401
 20
58.1641000612
 30
0.0
 11
284.6989809112
 21
56.8208022099
 31
0.0
  0
LINE
  5
C4
330
1F
100
AcDbEntity
  8
圖層_1
370
    30
100
AcDbLine
 10
291.0262846206
 20
51.3782817035
 30
0.0
 11
292.4735141124
 21
50.107351528
 31
0.0
  0
CIRCLE
  5
C5
330
1F
100
AcDbEntity
  8
0
  6
Continuous
 62
     7
370
     0
100
AcDbCircle
 10
252.5390662777
 20
26.6617788769
 30
0.0
 40
2.249999999999943
  0
CIRCLE
  5
C6
330
1F
100
AcDbEntity
  8
0
  6
Continuous
 62
     7
370
     0
100
AcDbCircle
 10
252.5390662777
 20
26.6617788769
 30
0.0
 40
3.749999999999943
  0
ARC
  5
C7
330
1F
100
AcDbEntity
  8
工作區域參考線
 62
     1
370
     0
100
AcDbCircle
 10
293.877200361
 20
54.5897679304
 30
0.0
 40
2.277829406127418
100
AcDbArc
 50
306.0377529468
 51
43.4396461534
  0
ARC
  5
C8
330
1F
100
AcDbEntity
  8
工作區域參考線
 62
     1
370
     0
100
AcDbCircle
 10
288.3557303372
 20
53.8013763447
 30
0.0
 40
4.7724550567918
100
AcDbArc
 50
45.5592925416
 51
125.8325555121
  0
ARC
  5
C9
330
1F
100
AcDbEntity
  8
工作區域參考線
 62
     1
370
     0
100
AcDbCircle
 10
288.8322147732
 20
54.6126090529
 30
0.0
 40
3.86635123251942
100
AcDbArc
 50
321.9435288427
 51
42.1815007004
  0
ARC
  5
CA
330
1F
100
AcDbEntity
  8
圖層_1
370
    30
100
AcDbCircle
 10
282.7022900291
 20
54.5188844738
 30
0.0
 40
2.297988701708714
100
AcDbArc
 50
130.2910647925
 51
228.509361907
  0
ARC
  5
CB
330
1F
100
AcDbEntity
  8
圖層_1
370
    30
100
AcDbCircle
 10
287.6588863663
 20
54.3497131788
 30
0.0
 40
3.855816554566961
100
AcDbArc
 50
140.1430462781
 51
253.0452525074
  0
ARC
  5
CC
330
1F
100
AcDbEntity
  8
圖層_1
370
    30
100
AcDbCircle
 10
288.1559821787
 20
54.9326758027
 30
0.0
 40
4.568627093596904
100
AcDbArc
 50
249.2112209143
 51
308.9221353953
  0
MTEXT
  5
CE
330
1F
100
AcDbEntity
  8
0
  6
Continuous
 62
     7
370
     0
100
AcDbMText
 10
248.3140276206
 20
19.8312660554
 30
0.0
 40
3.96875
 41
0.0
 71
     1
 72
     1
  1
UNIT:m/m
  7
SLDTEXTSTYLE1
 73
     1
 44
1.0
  0
INSERT
  5
D5
330
1F
100
AcDbEntity
  8
0
  6
Continuous
 62
     7
370
     0
100
AcDbBlockReference
  2
SW_NOTE_0
 10
18.347261408
 20
290.8356456377
 30
0.0
  0
MTEXT
  5
D7
330
1F
100
AcDbEntity
  8
0
  6
Continuous
 62
     7
370
     0
100
AcDbMText
 10
298.0877840902
 20
60.6610161208
 30
0.0
 40
3.571875
 41
0.0
 71
     1
 72
     1
  1
Unice E-O Services Inc.
  7
SLDTEXTSTYLE2
 73
     1
 44
1.0
  0
MTEXT
  5
D8
330
1F
100
AcDbEntity
  8
0
  6
Continuous
 62
     7
370
     0
100
AcDbMText
 10
378.913347376
 20
25.30676661
 30
0.0
 40
3.75
 41
0.0
 71
     1
 72
     1
  1
1:1.5
  7
SLDTEXTSTYLE1
 73
     1
 44
1.0
  0
MTEXT
  5
D9
330
1F
100
AcDbEntity
  8
0
  6
Continuous
 62
     7
370
     0
100
AcDbMText
 10
378.4613399977
 20
48.2278793156
 30
0.0
 40
3.75
 41
0.0
 71
     1
 72
     1
  1
05ORP-1M
  7
SLDTEXTSTYLE1
 73
     1
 44
1.0
  0
MTEXT
  5
DA
330
1F
100
AcDbEntity
  8
0
  6
Continuous
 62
     7
370
     0
100
AcDbMText
 10
378.4613399977
 20
57.1623176818
 30
0.0
 40
3.75
 41
0.0
 71
     1
 72
     1
  1
05ORP-1M
  7
SLDTEXTSTYLE1
 73
     1
 44
1.0
  0
MTEXT
  5
DB
330
1F
100
AcDbEntity
  8
0
  6
Continuous
 62
     7
370
     0
100
AcDbMText
 10
354.588280018
 20
24.7597193593
 30
0.0
 40
3.175
 41
0.0
 71
     1
 72
     1
  1
SCALE:
  7
SLDTEXTSTYLE1
 73
     1
 44
1.0
  0
MTEXT
  5
DC
330
1F
100
AcDbEntity
  8
0
  6
Continuous
 62
     7
370
     0
100
AcDbMText
 10
279.5004130184
 20
32.3800722766
 30
0.0
 40
2.778125
 41
0.0
 71
     1
 72
     1
  1
DRAWN
  7
SLDTEXTSTYLE1
 73
     1
 44
1.0
  0
MTEXT
  5
DD
330
1F
100
AcDbEntity
  8
0
  6
Continuous
 62
     7
370
     0
100
AcDbMText
 10
304.8342551905
 20
40.024812462
 30
0.0
 40
2.778125
 41
0.0
 71
     1
 72
     1
  1
NAME
  7
SLDTEXTSTYLE1
 73
     1
 44
1.0
  0
MTEXT
  5
DE
330
1F
100
AcDbEntity
  8
0
  6
Continuous
 62
     7
370
     0
100
AcDbMText
 10
331.3065233636
 20
40.024812462
 30
0.0
 40
2.778125
 41
0.0
 71
     1
 72
     1
  1
DATE
  7
SLDTEXTSTYLE1
 73
     1
 44
1.0
  0
MTEXT
  5
DF
330
1F
100
AcDbEntity
  8
0
  6
Continuous
 62
     7
370
     0
100
AcDbMText
 10
354.4134474968
 20
47.6808320649
 30
0.0
 40
3.175
 41
0.0
 71
     1
 72
     1
  1
DWG. NO.
  7
SLDTEXTSTYLE1
 73
     1
 44
1.0
  0
MTEXT
  5
E0
330
1F
100
AcDbEntity
  8
0
  6
Continuous
 62
     7
370
     0
100
AcDbMText
 10
354.5444860632
 20
62.8260987365
 30
0.0
 40
3.175
 41
0.0
 71
     1
 72
     1
  1
TITLE:
  7
SLDTEXTSTYLE1
 73
     1
 44
1.0
  0
MTEXT
  5
E1
330
1F
100
AcDbEntity
  8
0
  6
Continuous
 62
     7
370
     0
100
AcDbMText
 10
304.5471314703
 20
24.3605684586
 30
0.0
 40
2.778125
 41
0.0
 71
     1
 72
     1
  1
Johnny
  7
SLDTEXTSTYLE1
 73
     1
 44
1.0
  0
MTEXT
  5
E2
330
1F
100
AcDbEntity
  8
0
  6
Continuous
 62
     7
370
     0
100
AcDbMText
 10
326.3385807224
 20
24.3605684586
 30
0.0
 40
2.778125
 41
0.0
 71
     1
 72
     1
  1
2010/12/30
  7
SLDTEXTSTYLE1
 73
     1
 44
1.0
  0
MTEXT
  5
E3
330
1F
100
AcDbEntity
  8
0
  6
Continuous
 62
     7
370
     0
100
AcDbMText
 10
279.5004130184
 20
24.3605684586
 30
0.0
 40
2.778125
 41
0.0
 71
     1
 72
     1
  1
ENG APPR.
  7
SLDTEXTSTYLE1
 73
     1
 44
1.0
  0
MTEXT
  5
E4
330
1F
100
AcDbEntity
  8
0
  6
Continuous
 62
     7
370
     0
100
AcDbMText
 10
354.588280018
 20
17.5280083932
 30
0.0
 40
3.175
 41
0.0
 71
     1
 72
     1
  1
REV
  7
SLDTEXTSTYLE1
 73
     1
 44
1.0
  0
MTEXT
  5
E5
330
1F
100
AcDbEntity
  8
0
  6
Continuous
 62
     7
370
     0
100
AcDbMText
 10
354.5444860632
 20
40.4239633627
 30
0.0
 40
3.175
 41
0.0
 71
     1
 72
     1
  1
MATERIAL:
  7
SLDTEXTSTYLE1
 73
     1
 44
1.0
  0
MTEXT
  5
E6
330
1F
100
AcDbEntity
  8
0
  6
Continuous
 62
     7
370
     0
100
AcDbMText
 10
378.913347376
 20
33.326270428
 30
0.0
 40
3.75
 41
0.0
 71
     1
 72
     1
  1
N/A
  7
SLDTEXTSTYLE1
 73
     1
 44
1.0
  0
MTEXT
  5
E7
330
1F
100
AcDbEntity
  8
0
  6
Continuous
 62
     7
370
     0
100
AcDbMText
 10
39.90448973
 20
306.6800274854
 30
0.0
 40
3.175
 41
0.0
 71
     1
 72
     1
  1
1
  7
SLDTEXTSTYLE1
 73
     1
 44
1.0
  0
MTEXT
  5
E8
330
1F
100
AcDbEntity
  8
0
  6
Continuous
 62
     7
370
     0
100
AcDbMText
 10
91.0756493586
 20
306.6800274854
 30
0.0
 40
3.175
 41
0.0
 71
     1
 72
     1
  1
2
  7
SLDTEXTSTYLE1
 73
     1
 44
1.0
  0
MTEXT
  5
E9
330
1F
100
AcDbEntity
  8
0
  6
Continuous
 62
     7
370
     0
100
AcDbMText
 10
142.3514915859
 20
306.6800274854
 30
0.0
 40
3.175
 41
0.0
 71
     1
 72
     1
  1
3
  7
SLDTEXTSTYLE1
 73
     1
 44
1.0
  0
MTEXT
  5
EA
330
1F
100
AcDbEntity
  8
0
  6
Continuous
 62
     7
370
     0
100
AcDbMText
 10
193.8800044277
 20
306.4488876546
 30
0.0
 40
3.175
 41
0.0
 71
     1
 72
     1
  1
4
  7
SLDTEXTSTYLE1
 73
     1
 44
1.0
  0
MTEXT
  5
EB
330
1F
100
AcDbEntity
  8
0
  6
Continuous
 62
     7
370
     0
100
AcDbMText
 10
245.5534851959
 20
306.6800274854
 30
0.0
 40
3.175
 41
0.0
 71
     1
 72
     1
  1
5
  7
SLDTEXTSTYLE1
 73
     1
 44
1.0
  0
MTEXT
  5
EC
330
1F
100
AcDbEntity
  8
0
  6
Continuous
 62
     7
370
     0
100
AcDbMText
 10
297.9573255623
 20
306.6800274854
 30
0.0
 40
3.175
 41
0.0
 71
     1
 72
     1
  1
6
  7
SLDTEXTSTYLE1
 73
     1
 44
1.0
  0
MTEXT
  5
ED
330
1F
100
AcDbEntity
  8
0
  6
Continuous
 62
     7
370
     0
100
AcDbMText
 10
351.544598611
 20
306.6800274854
 30
0.0
 40
3.175
 41
0.0
 71
     1
 72
     1
  1
7
  7
SLDTEXTSTYLE1
 73
     1
 44
1.0
  0
MTEXT
  5
EE
330
1F
100
AcDbEntity
  8
0
  6
Continuous
 62
     7
370
     0
100
AcDbMText
 10
399.4181730741
 20
306.6800274854
 30
0.0
 40
3.175
 41
0.0
 71
     1
 72
     1
  1
8
  7
SLDTEXTSTYLE1
 73
     1
 44
1.0
  0
MTEXT
  5
EF
330
1F
100
AcDbEntity
  8
0
  6
Continuous
 62
     7
370
     0
100
AcDbMText
 10
8.0352354832
 20
278.7169534319
 30
0.0
 40
3.175
 41
0.0
 71
     1
 72
     1
  1
A
  7
SLDTEXTSTYLE1
 73
     1
 44
1.0
  0
MTEXT
  5
F0
330
1F
100
AcDbEntity
  8
0
  6
Continuous
 62
     7
370
     0
100
AcDbMText
 10
8.3865647747
 20
231.4489572357
 30
0.0
 40
3.175
 41
0.0
 71
     1
 72
     1
  1
B
  7
SLDTEXTSTYLE1
 73
     1
 44
1.0
  0
MTEXT
  5
F1
330
1F
100
AcDbEntity
  8
0
  6
Continuous
 62
     7
370
     0
100
AcDbMText
 10
8.3865647747
 20
181.9115271345
 30
0.0
 40
3.175
 41
0.0
 71
     1
 72
     1
  1
C
  7
SLDTEXTSTYLE1
 73
     1
 44
1.0
  0
MTEXT
  5
F2
330
1F
100
AcDbEntity
  8
0
  6
Continuous
 62
     7
370
     0
100
AcDbMText
 10
8.3865647747
 20
133.1179830331
 30
0.0
 40
3.175
 41
0.0
 71
     1
 72
     1
  1
D
  7
SLDTEXTSTYLE1
 73
     1
 44
1.0
  0
MTEXT
  5
F3
330
1F
100
AcDbEntity
  8
0
  6
Continuous
 62
     7
370
     0
100
AcDbMText
 10
8.3865647747
 20
86.3338273796
 30
0.0
 40
3.175
 41
0.0
 71
     1
 72
     1
  1
E
  7
SLDTEXTSTYLE1
 73
     1
 44
1.0
  0
MTEXT
  5
F4
330
1F
100
AcDbEntity
  8
0
  6
Continuous
 62
     7
370
     0
100
AcDbMText
 10
8.3865647747
 20
38.3541318378
 30
0.0
 40
3.175
 41
0.0
 71
     1
 72
     1
  1
F
  7
SLDTEXTSTYLE1
 73
     1
 44
1.0
  0
MTEXT
  5
F5
330
1F
100
AcDbEntity
  8
0
  6
Continuous
 62
     7
370
     0
100
AcDbMText
 10
399.2787925446
 20
9.9354335945
 30
0.0
 40
3.175
 41
0.0
 71
     1
 72
     1
  1
8
  7
SLDTEXTSTYLE1
 73
     1
 44
1.0
  0
MTEXT
  5
F6
330
1F
100
AcDbEntity
  8
0
  6
Continuous
 62
     7
370
     0
100
AcDbMText
 10
351.4052180815
 20
9.9354335945
 30
0.0
 40
3.175
 41
0.0
 71
     1
 72
     1
  1
7
  7
SLDTEXTSTYLE1
 73
     1
 44
1.0
  0
MTEXT
  5
F7
330
1F
100
AcDbEntity
  8
0
  6
Continuous
 62
     7
370
     0
100
AcDbMText
 10
297.8179450327
 20
9.9354335945
 30
0.0
 40
3.175
 41
0.0
 71
     1
 72
     1
  1
6
  7
SLDTEXTSTYLE1
 73
     1
 44
1.0
  0
MTEXT
  5
F8
330
1F
100
AcDbEntity
  8
0
  6
Continuous
 62
     7
370
     0
100
AcDbMText
 10
245.4141046664
 20
9.9354335945
 30
0.0
 40
3.175
 41
0.0
 71
     1
 72
     1
  1
5
  7
SLDTEXTSTYLE1
 73
     1
 44
1.0
  0
MTEXT
  5
F9
330
1F
100
AcDbEntity
  8
0
  6
Continuous
 62
     7
370
     0
100
AcDbMText
 10
193.7406238981
 20
9.7042937637
 30
0.0
 40
3.175
 41
0.0
 71
     1
 72
     1
  1
4
  7
SLDTEXTSTYLE1
 73
     1
 44
1.0
  0
MTEXT
  5
FA
330
1F
100
AcDbEntity
  8
0
  6
Continuous
 62
     7
370
     0
100
AcDbMText
 10
142.2121110564
 20
9.9354335945
 30
0.0
 40
3.175
 41
0.0
 71
     1
 72
     1
  1
3
  7
SLDTEXTSTYLE1
 73
     1
 44
1.0
  0
MTEXT
  5
FB
330
1F
100
AcDbEntity
  8
0
  6
Continuous
 62
     7
370
     0
100
AcDbMText
 10
90.9362688291
 20
9.9354335945
 30
0.0
 40
3.175
 41
0.0
 71
     1
 72
     1
  1
2
  7
SLDTEXTSTYLE1
 73
     1
 44
1.0
  0
MTEXT
  5
FC
330
1F
100
AcDbEntity
  8
0
  6
Continuous
 62
     7
370
     0
100
AcDbMText
 10
39.7651092004
 20
9.9354335945
 30
0.0
 40
3.175
 41
0.0
 71
     1
 72
     1
  1
1
  7
SLDTEXTSTYLE1
 73
     1
 44
1.0
  0
MTEXT
  5
FD
330
1F
100
AcDbEntity
  8
0
  6
Continuous
 62
     7
370
     0
100
AcDbMText
 10
430.6535769217
 20
279.9637363637
 30
0.0
 40
3.175
 41
0.0
 71
     1
 72
     1
  1
A
  7
SLDTEXTSTYLE1
 73
     1
 44
1.0
  0
MTEXT
  5
FE
330
1F
100
AcDbEntity
  8
0
  6
Continuous
 62
     7
370
     0
100
AcDbMText
 10
431.0049062132
 20
232.6957401676
 30
0.0
 40
3.175
 41
0.0
 71
     1
 72
     1
  1
B
  7
SLDTEXTSTYLE1
 73
     1
 44
1.0
  0
MTEXT
  5
FF
330
1F
100
AcDbEntity
  8
0
  6
Continuous
 62
     7
370
     0
100
AcDbMText
 10
431.0049062132
 20
183.1583100664
 30
0.0
 40
3.175
 41
0.0
 71
     1
 72
     1
  1
C
  7
SLDTEXTSTYLE1
 73
     1
 44
1.0
  0
MTEXT
  5
100
330
1F
100
AcDbEntity
  8
0
  6
Continuous
 62
     7
370
     0
100
AcDbMText
 10
431.0049062132
 20
134.364765965
 30
0.0
 40
3.175
 41
0.0
 71
     1
 72
     1
  1
D
  7
SLDTEXTSTYLE1
 73
     1
 44
1.0
  0
MTEXT
  5
101
330
1F
100
AcDbEntity
  8
0
  6
Continuous
 62
     7
370
     0
100
AcDbMText
 10
431.0049062132
 20
87.5806103114
 30
0.0
 40
3.175
 41
0.0
 71
     1
 72
     1
  1
E
  7
SLDTEXTSTYLE1
 73
     1
 44
1.0
  0
MTEXT
  5
102
330
1F
100
AcDbEntity
  8
0
  6
Continuous
 62
     7
370
     0
100
AcDbMText
 10
431.0049062132
 20
39.6009147696
 30
0.0
 40
3.175
 41
0.0
 71
     1
 72
     1
  1
F
  7
SLDTEXTSTYLE1
 73
     1
 44
1.0
  0
MTEXT
  5
103
330
1F
100
AcDbEntity
  8
0
  6
Continuous
 62
     7
370
     0
100
AcDbMText
 10
304.7329693203
 20
32.3800722766
 30
0.0
 40
2.778125
 41
0.0
 71
     1
 72
     1
  1
Miki
  7
SLDTEXTSTYLE1
 73
     1
 44
1.0
  0
MTEXT
  5
105
330
1F
100
AcDbEntity
  8
0
  6
Continuous
 62
     7
370
     0
100
AcDbMText
 10
379.2723359468
 20
18.315372684
 30
0.0
 40
3.96875
 41
0.0
 71
     1
 72
     1
  1
0
  7
SLDTEXTSTYLE3
 73
     1
 44
1.0
  0
MTEXT
  5
106
330
1F
100
AcDbEntity
  8
DIM
 62
     7
100
AcDbMText
 10
326.3385807224
 20
32.3800722766
 30
0.0
 40
2.778125
 41
0.0
 71
     1
 72
     1
  1
2010/12/30
  7
SLDTEXTSTYLE1
 73
     1
 44
1.0
  0
INSERT
  5
10C
330
1F
100
AcDbEntity
  8
DIM
 62
     7
100
AcDbBlockReference
  2
SW_NOTE_1
 10
298.0877840902
 20
49.3930300026
 30
0.0
  0
LINE
  5
10D
330
1F
100
AcDbEntity
  8
0
  6
Continuous
 62
     7
370
    15
100
AcDbLine
 10
210.1379092911
 20
167.2974161044
 30
0.0
 11
210.1379092911
 21
160.2974130943
 31
0.0
  0
LINE
  5
10E
330
1F
100
AcDbEntity
  8
0
  6
Continuous
 62
     7
370
    15
100
AcDbLine
 10
237.644581137
 20
167.2974161044
 30
0.0
 11
210.1379092911
 21
167.2974161044
 31
0.0
  0
LINE
  5
10F
330
1F
100
AcDbEntity
  8
0
  6
Continuous
 62
     7
370
    15
100
AcDbLine
 10
237.644581137
 20
167.2974161044
 30
0.0
 11
237.644581137
 21
170.2974147334
 31
0.0
  0
LINE
  5
110
330
1F
100
AcDbEntity
  8
0
  6
Continuous
 62
     7
370
    15
100
AcDbLine
 10
237.6479134092
 20
170.2974147334
 30
0.0
 11
237.6479134092
 21
160.2974130943
 31
0.0
  0
LINE
  5
111
330
1F
100
AcDbEntity
  8
0
  6
Continuous
 62
     7
370
    15
100
AcDbLine
 10
237.6479134092
 20
160.2974130943
 30
0.0
 11
210.1379092911
 21
160.2974130943
 31
0.0
  0
LINE
  5
112
330
1F
100
AcDbEntity
  8
0
  6
Continuous
 62
     7
370
    15
100
AcDbLine
 10
237.644581137
 20
195.8174153402
 30
0.0
 11
237.644581137
 21
170.2974147334
 31
0.0
  0
ARC
  5
113
330
1F
100
AcDbEntity
  8
0
  6
Continuous
 62
     7
370
    15
100
AcDbCircle
 10
233.6433351553
 20
195.817414495
 30
0.0
 40
4.001245393571704
100
AcDbArc
 50
0.0
 51
60.1383246766
  0
LINE
  5
114
330
1F
100
AcDbEntity
  8
0
  6
Continuous
 62
     7
370
    15
100
AcDbLine
 10
221.647908924
 20
207.3674078271
 30
0.0
 11
235.6355860958
 21
199.2874142885
 31
0.0
  0
ARC
  5
115
330
1F
100
AcDbEntity
  8
0
  6
Continuous
 62
     7
370
    15
100
AcDbCircle
 10
225.6510335465
 20
214.297414495
 30
0.0
 40
8.003124175496868
100
AcDbArc
 50
120.0129141591
 51
239.9870858409
  0
LINE
  5
116
330
1F
100
AcDbEntity
  8
0
  6
Continuous
 62
     7
370
    15
100
AcDbLine
 10
235.6355860958
 20
229.3074147016
 30
0.0
 11
221.647908924
 21
221.227421163
 31
0.0
  0
ARC
  5
117
330
1F
100
AcDbEntity
  8
0
  6
Continuous
 62
     7
370
    15
100
AcDbCircle
 10
233.6433351553
 20
232.777414495
 30
0.0
 40
4.001245393571704
100
AcDbArc
 50
299.8616753234
 51
0.0
  0
LINE
  5
118
330
1F
100
AcDbEntity
  8
0
  6
Continuous
 62
     7
370
    15
100
AcDbLine
 10
237.644581137
 20
268.2974158957
 30
0.0
 11
237.644581137
 21
232.7774136498
 31
0.0
  0
LINE
  5
119
330
1F
100
AcDbEntity
  8
0
  6
Continuous
 62
     7
370
    15
100
AcDbLine
 10
264.147909371
 20
268.2974158957
 30
0.0
 11
237.644581137
 21
268.2974158957
 31
0.0
  0
LINE
  5
11A
330
1F
100
AcDbEntity
  8
0
  6
Continuous
 62
     7
370
    15
100
AcDbLine
 10
264.147909371
 20
160.2974130943
 30
0.0
 11
264.147909371
 21
268.2974158957
 31
0.0
  0
LINE
  5
11B
330
1F
100
AcDbEntity
  8
0
  6
Continuous
 62
     7
370
    15
100
AcDbLine
 10
237.6479134092
 20
170.2974147334
 30
0.0
 11
237.644581137
 21
170.2974147334
 31
0.0
  0
CIRCLE
  5
11C
330
1F
100
AcDbEntity
  8
0
  6
Continuous
 62
     7
370
    15
100
AcDbCircle
 10
251.147909371
 20
189.297414495
 30
0.0
 40
2.5
  0
CIRCLE
  5
11D
330
1F
100
AcDbEntity
  8
0
  6
Continuous
 62
     7
370
    15
100
AcDbCircle
 10
251.147909371
 20
214.297414495
 30
0.0
 40
2.500000000000028
  0
CIRCLE
  5
11E
330
1F
100
AcDbEntity
  8
0
  6
Continuous
 62
     7
370
    15
100
AcDbCircle
 10
251.147909371
 20
239.297414495
 30
0.0
 40
2.499999999999972
  0
CIRCLE
  5
11F
330
1F
100
AcDbEntity
  8
0
  6
Continuous
 62
     7
370
    15
100
AcDbCircle
 10
226.147909371
 20
214.297414495
 30
0.0
 40
2.500000000000028
  0
LINE
  5
120
330
1F
100
AcDbEntity
  8
0
  6
Continuous
 62
     7
370
    15
100
AcDbLine
 10
264.147909371
 20
160.2974130943
 30
0.0
 11
237.6479134092
 21
160.2974130943
 31
0.0
  0
INSERT
  5
129
330
1F
100
AcDbEntity
  8
DIM
100
AcDbBlockReference
  2
SW_RADIAL_DIMENSION_0
 10
206.0114851737
 20
256.6393018794
 30
0.0
  0
DIMENSION
  5
12A
330
1F
100
AcDbEntity
  8
DIM
 62
     7
100
AcDbDimension
  2
_D
 10
277.2835509736
 20
214.297414495
 30
0.0
 11
277.2835509736
 21
226.797414495
 31
0.0
 70
   160
  1
<>
 71
     2
 42
-1.0
  3
SLDDIMSTYLE0
100
AcDbAlignedDimension
 13
251.147909371
 23
239.297414495
 33
0.0
 14
251.147909371
 24
214.297414495
 34
0.0
 50
90.0
100
AcDbRotatedDimension
  0
DIMENSION
  5
135
330
1F
100
AcDbEntity
  8
DIM
 62
     7
100
AcDbDimension
  2
_D_1
 10
277.2835509736
 20
189.297414495
 30
0.0
 11
277.2835509736
 21
201.797414495
 31
0.0
 70
   160
  1
<>
 71
     2
 42
-1.0
  3
SLDDIMSTYLE0
100
AcDbAlignedDimension
 13
251.147909371
 23
214.297414495
 33
0.0
 14
251.147909371
 24
189.297414495
 34
0.0
 50
90.0
100
AcDbRotatedDimension
  0
DIMENSION
  5
13F
330
1F
100
AcDbEntity
  8
DIM
100
AcDbDimension
  2
_D_2
 10
251.147909371
 20
143.797414495
 30
0.0
 11
238.647909371
 21
143.797414495
 31
0.0
 70
   160
  1
<>
 71
     2
 42
-1.0
  3
SLDDIMSTYLE0
100
AcDbAlignedDimension
 13
226.147909371
 23
214.297414495
 33
0.0
 14
251.147909371
 24
189.297414495
 34
0.0
100
AcDbRotatedDimension
  0
DIMENSION
  5
149
330
1F
100
AcDbEntity
  8
DIM
100
AcDbDimension
  2
_D_3
 10
264.147909371
 20
143.797414495
 30
0.0
 11
257.647909371
 21
143.797414495
 31
0.0
 70
   160
  1
<>
 71
     2
 42
-1.0
  3
SLDDIMSTYLE0
100
AcDbAlignedDimension
 13
251.147909371
 23
189.297414495
 33
0.0
 14
264.147909371
 24
160.297414495
 34
0.0
 50
0.0
100
AcDbRotatedDimension
  0
INSERT
  5
15E
330
1F
100
AcDbEntity
  8
DIM
100
AcDbBlockReference
  2
SW_CENTERMARKSYMBOL_0
 10
251.147909371
 20
189.297414495
 30
0.0
  0
INSERT
  5
16A
330
1F
100
AcDbEntity
  8
DIM
100
AcDbBlockReference
  2
SW_CENTERMARKSYMBOL_1
 10
251.147909371
 20
214.297414495
 30
0.0
  0
INSERT
  5
176
330
1F
100
AcDbEntity
  8
DIM
100
AcDbBlockReference
  2
SW_CENTERMARKSYMBOL_2
 10
251.147909371
 20
239.297414495
 30
0.0
  0
INSERT
  5
182
330
1F
100
AcDbEntity
  8
DIM
100
AcDbBlockReference
  2
SW_CENTERMARKSYMBOL_3
 10
226.147909371
 20
214.297414495
 30
0.0
  0
ARC
  5
183
330
1F
100
AcDbEntity
  8
0
  6
Continuous
 62
     7
370
     0
100
AcDbCircle
 10
251.147909371
 20
189.297414495
 30
0.0
 40
3.000000223517475
100
AcDbArc
 50
255.0
 51
195.0
  0
ARC
  5
184
330
1F
100
AcDbEntity
  8
0
  6
Continuous
 62
     7
370
     0
100
AcDbCircle
 10
251.147909371
 20
214.297414495
 30
0.0
 40
3.000000223517385
100
AcDbArc
 50
255.0
 51
195.0
  0
ARC
  5
185
330
1F
100
AcDbEntity
  8
0
  6
Continuous
 62
     7
370
     0
100
AcDbCircle
 10
251.147909371
 20
239.297414495
 30
0.0
 40
3.000000223517475
100
AcDbArc
 50
255.0
 51
195.0
  0
ARC
  5
186
330
1F
100
AcDbEntity
  8
0
  6
Continuous
 62
     7
370
     0
100
AcDbCircle
 10
226.147909371
 20
214.297414495
 30
0.0
 40
2.999999850988382
100
AcDbArc
 50
255.0
 51
195.0
  0
LINE
  5
187
330
1F
100
AcDbEntity
  8
0
  6
Continuous
 62
     7
370
    15
100
AcDbLine
 10
72.706363228
 20
170.2974147334
 30
0.0
 11
72.706363228
 21
160.2974130943
 31
0.0
  0
LINE
  5
188
330
1F
100
AcDbEntity
  8
0
  6
Continuous
 62
     7
370
    15
100
AcDbLine
 10
72.7074584633
 20
170.2974147334
 30
0.0
 11
72.7074584633
 21
167.2974161044
 31
0.0
  0
LINE
  5
189
330
1F
100
AcDbEntity
  8
0
  6
Continuous
 62
     7
370
    15
100
AcDbLine
 10
148.7052655488
 20
167.2974161044
 30
0.0
 11
72.7074584633
 21
167.2974161044
 31
0.0
  0
LINE
  5
18A
330
1F
100
AcDbEntity
  8
0
  6
Continuous
 62
     7
370
    15
100
AcDbLine
 10
148.7052655488
 20
167.2974161044
 30
0.0
 11
148.7052655488
 21
170.2974147334
 31
0.0
  0
LINE
  5
18B
330
1F
100
AcDbEntity
  8
0
  6
Continuous
 62
     7
370
    15
100
AcDbLine
 10
148.7063607842
 20
170.2974147334
 30
0.0
 11
148.7063607842
 21
160.2974130943
 31
0.0
  0
LINE
  5
18C
330
1F
100
AcDbEntity
  8
0
  6
Continuous
 62
     7
370
    15
100
AcDbLine
 10
148.7063607842
 20
160.2974130943
 30
0.0
 11
72.706363228
 21
160.2974130943
 31
0.0
  0
LINE
  5
18D
330
1F
100
AcDbEntity
  8
0
  6
Continuous
 62
     7
370
    15
100
AcDbLine
 10
79.7063625127
 20
207.3674078271
 30
0.0
 11
72.706363228
 21
207.3674078271
 31
0.0
  0
LINE
  5
18E
330
1F
100
AcDbEntity
  8
0
  6
Continuous
 62
     7
370
    15
100
AcDbLine
 10
79.7063625127
 20
221.227421163
 30
0.0
 11
72.706363228
 21
221.227421163
 31
0.0
  0
LINE
  5
18F
330
1F
100
AcDbEntity
  8
0
  6
Continuous
 62
     7
370
    15
100
AcDbLine
 10
79.7063625127
 20
221.227421163
 30
0.0
 11
79.7063625127
 21
207.3674078271
 31
0.0
  0
LINE
  5
190
330
1F
100
AcDbEntity
  8
0
  6
Continuous
 62
     7
370
    15
100
AcDbLine
 10
72.706363228
 20
221.227421163
 30
0.0
 11
72.706363228
 21
207.3674078271
 31
0.0
  0
LINE
  5
191
330
1F
100
AcDbEntity
  8
0
  6
Continuous
 62
     7
370
    15
100
AcDbLine
 10
148.7063607842
 20
221.227421163
 30
0.0
 11
141.7063614994
 21
221.227421163
 31
0.0
  0
LINE
  5
192
330
1F
100
AcDbEntity
  8
0
  6
Continuous
 62
     7
370
    15
100
AcDbLine
 10
148.7063607842
 20
207.3674078271
 30
0.0
 11
141.7063614994
 21
207.3674078271
 31
0.0
  0
LINE
  5
193
330
1F
100
AcDbEntity
  8
0
  6
Continuous
 62
     7
370
    15
100
AcDbLine
 10
148.7063607842
 20
221.227421163
 30
0.0
 11
148.7063607842
 21
207.3674078271
 31
0.0
  0
LINE
  5
194
330
1F
100
AcDbEntity
  8
0
  6
Continuous
 62
     7
370
    15
100
AcDbLine
 10
141.7063614994
 20
207.3674078271
 30
0.0
 11
141.7063614994
 21
221.227421163
 31
0.0
  0
LINE
  5
195
330
1F
100
AcDbEntity
  8
0
  6
Continuous
 62
     7
370
    15
100
AcDbLine
 10
79.7063625127
 20
199.2874142885
 30
0.0
 11
72.706363228
 21
199.2874142885
 31
0.0
  0
LINE
  5
196
330
1F
100
AcDbEntity
  8
0
  6
Continuous
 62
     7
370
    15
100
AcDbLine
 10
79.7063625127
 20
207.3674078271
 30
0.0
 11
79.7063625127
 21
199.2874142885
 31
0.0
  0
LINE
  5
197
330
1F
100
AcDbEntity
  8
0
  6
Continuous
 62
     7
370
    15
100
AcDbLine
 10
72.706363228
 20
207.3674078271
 30
0.0
 11
72.706363228
 21
199.2874142885
 31
0.0
  0
LINE
  5
198
330
1F
100
AcDbEntity
  8
0
  6
Continuous
 62
     7
370
    15
100
AcDbLine
 10
79.7063625127
 20
229.3074147016
 30
0.0
 11
72.706363228
 21
229.3074147016
 31
0.0
  0
LINE
  5
199
330
1F
100
AcDbEntity
  8
0
  6
Continuous
 62
     7
370
    15
100
AcDbLine
 10
79.7063625127
 20
229.3074147016
 30
0.0
 11
79.7063625127
 21
221.227421163
 31
0.0
  0
LINE
  5
19A
330
1F
100
AcDbEntity
  8
0
  6
Continuous
 62
     7
370
    15
100
AcDbLine
 10
72.706363228
 20
229.3074147016
 30
0.0
 11
72.706363228
 21
221.227421163
 31
0.0
  0
LINE
  5
19B
330
1F
100
AcDbEntity
  8
0
  6
Continuous
 62
     7
370
    15
100
AcDbLine
 10
148.7063607842
 20
199.2874142885
 30
0.0
 11
141.7063614994
 21
199.2874142885
 31
0.0
  0
LINE
  5
19C
330
1F
100
AcDbEntity
  8
0
  6
Continuous
 62
     7
370
    15
100
AcDbLine
 10
148.7063607842
 20
207.3674078271
 30
0.0
 11
148.7063607842
 21
199.2874142885
 31
0.0
  0
LINE
  5
19D
330
1F
100
AcDbEntity
  8
0
  6
Continuous
 62
     7
370
    15
100
AcDbLine
 10
141.7063614994
 20
199.2874142885
 30
0.0
 11
141.7063614994
 21
207.3674078271
 31
0.0
  0
LINE
  5
19E
330
1F
100
AcDbEntity
  8
0
  6
Continuous
 62
     7
370
    15
100
AcDbLine
 10
148.7063607842
 20
229.3074147016
 30
0.0
 11
141.7063614994
 21
229.3074147016
 31
0.0
  0
LINE
  5
19F
330
1F
100
AcDbEntity
  8
0
  6
Continuous
 62
     7
370
    15
100
AcDbLine
 10
148.7063607842
 20
229.3074147016
 30
0.0
 11
148.7063607842
 21
221.227421163
 31
0.0
  0
LINE
  5
1A0
330
1F
100
AcDbEntity
  8
0
  6
Continuous
 62
     7
370
    15
100
AcDbLine
 10
141.7063614994
 20
221.227421163
 30
0.0
 11
141.7063614994
 21
229.3074147016
 31
0.0
  0
LINE
  5
1A1
330
1F
100
AcDbEntity
  8
0
  6
Continuous
 62
     7
370
    15
100
AcDbLine
 10
79.7063625127
 20
195.8174153402
 30
0.0
 11
72.706363228
 21
195.8174153402
 31
0.0
  0
LINE
  5
1A2
330
1F
100
AcDbEntity
  8
0
  6
Continuous
 62
     7
370
    15
100
AcDbLine
 10
79.7063625127
 20
199.2874142885
 30
0.0
 11
79.7063625127
 21
195.8174153402
 31
0.0
  0
LINE
  5
1A3
330
1F
100
AcDbEntity
  8
0
  6
Continuous
 62
     7
370
    15
100
AcDbLine
 10
72.706363228
 20
195.8174153402
 30
0.0
 11
72.706363228
 21
199.2874142885
 31
0.0
  0
LINE
  5
1A4
330
1F
100
AcDbEntity
  8
0
  6
Continuous
 62
     7
370
    15
100
AcDbLine
 10
79.7063625127
 20
232.7774136498
 30
0.0
 11
72.706363228
 21
232.7774136498
 31
0.0
  0
LINE
  5
1A5
330
1F
100
AcDbEntity
  8
0
  6
Continuous
 62
     7
370
    15
100
AcDbLine
 10
79.7063625127
 20
232.7774136498
 30
0.0
 11
79.7063625127
 21
229.3074147016
 31
0.0
  0
LINE
  5
1A6
330
1F
100
AcDbEntity
  8
0
  6
Continuous
 62
     7
370
    15
100
AcDbLine
 10
72.706363228
 20
229.3074147016
 30
0.0
 11
72.706363228
 21
232.7774136498
 31
0.0
  0
LINE
  5
1A7
330
1F
100
AcDbEntity
  8
0
  6
Continuous
 62
     7
370
    15
100
AcDbLine
 10
148.7063607842
 20
195.8174153402
 30
0.0
 11
141.7063614994
 21
195.8174153402
 31
0.0
  0
LINE
  5
1A8
330
1F
100
AcDbEntity
  8
0
  6
Continuous
 62
     7
370
    15
100
AcDbLine
 10
148.7063607842
 20
195.8174153402
 30
0.0
 11
148.7063607842
 21
199.2874142885
 31
0.0
  0
LINE
  5
1A9
330
1F
100
AcDbEntity
  8
0
  6
Continuous
 62
     7
370
    15
100
AcDbLine
 10
141.7063614994
 20
199.2874142885
 30
0.0
 11
141.7063614994
 21
195.8174153402
 31
0.0
  0
LINE
  5
1AA
330
1F
100
AcDbEntity
  8
0
  6
Continuous
 62
     7
370
    15
100
AcDbLine
 10
148.7063607842
 20
232.7774136498
 30
0.0
 11
141.7063614994
 21
232.7774136498
 31
0.0
  0
LINE
  5
1AB
330
1F
100
AcDbEntity
  8
0
  6
Continuous
 62
     7
370
    15
100
AcDbLine
 10
148.7063607842
 20
229.3074147016
 30
0.0
 11
148.7063607842
 21
232.7774136498
 31
0.0
  0
LINE
  5
1AC
330
1F
100
AcDbEntity
  8
0
  6
Continuous
 62
     7
370
    15
100
AcDbLine
 10
141.7063614994
 20
232.7774136498
 30
0.0
 11
141.7063614994
 21
229.3074147016
 31
0.0
  0
LINE
  5
1AD
330
1F
100
AcDbEntity
  8
0
  6
Continuous
 62
     7
370
    15
100
AcDbLine
 10
72.7074584633
 20
170.2974147334
 30
0.0
 11
72.706363228
 21
170.2974147334
 31
0.0
  0
ARC
  5
1AE
330
1F
100
AcDbEntity
  8
0
  6
Continuous
 62
     7
370
    15
100
AcDbCircle
 10
85.7063620061
 20
173.297414495
 30
0.0
 40
6.000000000000043
100
AcDbArc
 50
180.0
 51
270.0
  0
LINE
  5
1AF
330
1F
100
AcDbEntity
  8
0
  6
Continuous
 62
     7
370
    15
100
AcDbLine
 10
79.7063625127
 20
173.2974133625
 30
0.0
 11
79.7063625127
 21
195.8174153402
 31
0.0
  0
LINE
  5
1B0
330
1F
100
AcDbEntity
  8
0
  6
Continuous
 62
     7
370
    15
100
AcDbLine
 10
72.706363228
 20
195.8174153402
 30
0.0
 11
72.706363228
 21
170.2974147334
 31
0.0
  0
ARC
  5
1B1
330
1F
100
AcDbEntity
  8
0
  6
Continuous
 62
     7
370
    15
100
AcDbCircle
 10
135.7063620061
 20
255.297414495
 30
0.0
 40
6.000000000000085
100
AcDbArc
 50
0.0
 51
90.0
  0
LINE
  5
1B2
330
1F
100
AcDbEntity
  8
0
  6
Continuous
 62
     7
370
    15
100
AcDbLine
 10
85.7063616335
 20
261.2974128857
 30
0.0
 11
135.7063623786
 21
261.2974128857
 31
0.0
  0
ARC
  5
1B3
330
1F
100
AcDbEntity
  8
0
  6
Continuous
 62
     7
370
    15
100
AcDbCircle
 10
85.7063620061
 20
255.297414495
 30
0.0
 40
6.000000000000043
100
AcDbArc
 50
90.0
 51
180.0
  0
LINE
  5
1B4
330
1F
100
AcDbEntity
  8
0
  6
Continuous
 62
     7
370
    15
100
AcDbLine
 10
148.7063607842
 20
268.2974158957
 30
0.0
 11
72.706363228
 21
268.2974158957
 31
0.0
  0
LINE
  5
1B5
330
1F
100
AcDbEntity
  8
0
  6
Continuous
 62
     7
370
    15
100
AcDbLine
 10
148.7063607842
 20
268.2974158957
 30
0.0
 11
148.7063607842
 21
232.7774136498
 31
0.0
  0
LINE
  5
1B6
330
1F
100
AcDbEntity
  8
0
  6
Continuous
 62
     7
370
    15
100
AcDbLine
 10
141.7063614994
 20
232.7774136498
 30
0.0
 11
141.7063614994
 21
255.2974156275
 31
0.0
  0
LINE
  5
1B7
330
1F
100
AcDbEntity
  8
0
  6
Continuous
 62
     7
370
    15
100
AcDbLine
 10
79.7063625127
 20
232.7774136498
 30
0.0
 11
79.7063625127
 21
255.2974156275
 31
0.0
  0
LINE
  5
1B8
330
1F
100
AcDbEntity
  8
0
  6
Continuous
 62
     7
370
    15
100
AcDbLine
 10
72.706363228
 20
268.2974158957
 30
0.0
 11
72.706363228
 21
232.7774136498
 31
0.0
  0
LINE
  5
1B9
330
1F
100
AcDbEntity
  8
0
  6
Continuous
 62
     7
370
    15
100
AcDbLine
 10
148.7063607842
 20
170.2974147334
 30
0.0
 11
148.7052655488
 21
170.2974147334
 31
0.0
  0
ARC
  5
1BA
330
1F
100
AcDbEntity
  8
0
  6
Continuous
 62
     7
370
    15
100
AcDbCircle
 10
135.7063620061
 20
173.297414495
 30
0.0
 40
6.000000000000085
100
AcDbArc
 50
270.0
 51
0.0
  0
LINE
  5
1BB
330
1F
100
AcDbEntity
  8
0
  6
Continuous
 62
     7
370
    15
100
AcDbLine
 10
148.7063607842
 20
195.8174153402
 30
0.0
 11
148.7063607842
 21
170.2974147334
 31
0.0
  0
LINE
  5
1BC
330
1F
100
AcDbEntity
  8
0
  6
Continuous
 62
     7
370
    15
100
AcDbLine
 10
141.7063614994
 20
173.2974133625
 30
0.0
 11
141.7063614994
 21
195.8174153402
 31
0.0
  0
CIRCLE
  5
1BD
330
1F
100
AcDbEntity
  8
0
  6
Continuous
 62
     7
370
    15
100
AcDbCircle
 10
135.7063620061
 20
176.797414495
 30
0.0
 40
2.499999999999972
  0
CIRCLE
  5
1BE
330
1F
100
AcDbEntity
  8
0
  6
Continuous
 62
     7
370
    15
100
AcDbCircle
 10
135.7063620061
 20
201.797414495
 30
0.0
 40
2.499999999999972
  0
CIRCLE
  5
1BF
330
1F
100
AcDbEntity
  8
0
  6
Continuous
 62
     7
370
    15
100
AcDbCircle
 10
135.7063620061
 20
226.797414495
 30
0.0
 40
2.499999999999972
  0
CIRCLE
  5
1C0
330
1F
100
AcDbEntity
  8
0
  6
Continuous
 62
     7
370
    15
100
AcDbCircle
 10
135.7063620061
 20
251.797414495
 30
0.0
 40
2.499999999999972
  0
CIRCLE
  5
1C1
330
1F
100
AcDbEntity
  8
0
  6
Continuous
 62
     7
370
    15
100
AcDbCircle
 10
110.7063620061
 20
226.797414495
 30
0.0
 40
2.499999999999972
  0
CIRCLE
  5
1C2
330
1F
100
AcDbEntity
  8
0
  6
Continuous
 62
     7
370
    15
100
AcDbCircle
 10
110.7063620061
 20
251.797414495
 30
0.0
 40
2.5
  0
CIRCLE
  5
1C3
330
1F
100
AcDbEntity
  8
0
  6
Continuous
 62
     7
370
    15
100
AcDbCircle
 10
85.7063620061
 20
251.797414495
 30
0.0
 40
2.499999999999972
  0
CIRCLE
  5
1C4
330
1F
100
AcDbEntity
  8
0
  6
Continuous
 62
     7
370
    15
100
AcDbCircle
 10
85.7063620061
 20
226.797414495
 30
0.0
 40
2.499999999999972
  0
CIRCLE
  5
1C5
330
1F
100
AcDbEntity
  8
0
  6
Continuous
 62
     7
370
    15
100
AcDbCircle
 10
110.7063620061
 20
176.797414495
 30
0.0
 40
2.499999999999972
  0
CIRCLE
  5
1C6
330
1F
100
AcDbEntity
  8
0
  6
Continuous
 62
     7
370
    15
100
AcDbCircle
 10
110.7063620061
 20
201.797414495
 30
0.0
 40
2.499999999999972
  0
CIRCLE
  5
1C7
330
1F
100
AcDbEntity
  8
0
  6
Continuous
 62
     7
370
    15
100
AcDbCircle
 10
85.7063620061
 20
201.797414495
 30
0.0
 40
2.499999999999972
  0
CIRCLE
  5
1C8
330
1F
100
AcDbEntity
  8
0
  6
Continuous
 62
     7
370
    15
100
AcDbCircle
 10
85.7063620061
 20
176.797414495
 30
0.0
 40
2.499999999999972
  0
ARC
  5
1C9
330
1F
100
AcDbEntity
  8
0
  6
Continuous
 62
     7
370
    15
100
AcDbCircle
 10
123.2063620061
 20
176.797414495
 30
0.0
 40
3.5
100
AcDbArc
 50
180.0
 51
0.0
  0
LINE
  5
1CA
330
1F
100
AcDbEntity
  8
0
  6
Continuous
 62
     7
370
    15
100
AcDbLine
 10
126.706362766
 20
176.7974130049
 30
0.0
 11
126.706362766
 21
201.7974143088
 31
0.0
  0
ARC
  5
1CB
330
1F
100
AcDbEntity
  8
0
  6
Continuous
 62
     7
370
    15
100
AcDbCircle
 10
123.2063620061
 20
201.797414495
 30
0.0
 40
3.5
100
AcDbArc
 50
0.0
 51
180.0
  0
LINE
  5
1CC
330
1F
100
AcDbEntity
  8
0
  6
Continuous
 62
     7
370
    15
100
AcDbLine
 10
119.7063616186
 20
201.7974143088
 30
0.0
 11
119.7063616186
 21
176.7974130049
 31
0.0
  0
ARC
  5
1CD
330
1F
100
AcDbEntity
  8
0
  6
Continuous
 62
     7
370
    15
100
AcDbCircle
 10
98.2063620061
 20
201.797414495
 30
0.0
 40
3.499999999999986
100
AcDbArc
 50
0.0
 51
180.0
  0
LINE
  5
1CE
330
1F
100
AcDbEntity
  8
0
  6
Continuous
 62
     7
370
    15
100
AcDbLine
 10
94.7063612461
 20
201.7974143088
 30
0.0
 11
94.7063612461
 21
176.7974130049
 31
0.0
  0
ARC
  5
1CF
330
1F
100
AcDbEntity
  8
0
  6
Continuous
 62
     7
370
    15
100
AcDbCircle
 10
98.2063620061
 20
176.797414495
 30
0.0
 40
3.499999999999986
100
AcDbArc
 50
180.0
 51
0.0
  0
LINE
  5
1D0
330
1F
100
AcDbEntity
  8
0
  6
Continuous
 62
     7
370
    15
100
AcDbLine
 10
101.7063623935
 20
176.7974130049
 30
0.0
 11
101.7063623935
 21
201.7974143088
 31
0.0
  0
ARC
  5
1D1
330
1F
100
AcDbEntity
  8
0
  6
Continuous
 62
     7
370
    15
100
AcDbCircle
 10
98.2063620061
 20
251.797414495
 30
0.0
 40
3.499999999999986
100
AcDbArc
 50
0.0
 51
180.0
  0
LINE
  5
1D2
330
1F
100
AcDbEntity
  8
0
  6
Continuous
 62
     7
370
    15
100
AcDbLine
 10
94.7063612461
 20
251.7974159851
 30
0.0
 11
94.7063612461
 21
226.7974146813
 31
0.0
  0
ARC
  5
1D3
330
1F
100
AcDbEntity
  8
0
  6
Continuous
 62
     7
370
    15
100
AcDbCircle
 10
98.2063620061
 20
226.797414495
 30
0.0
 40
3.499999999999986
100
AcDbArc
 50
180.0
 51
0.0
  0
LINE
  5
1D4
330
1F
100
AcDbEntity
  8
0
  6
Continuous
 62
     7
370
    15
100
AcDbLine
 10
101.7063623935
 20
226.7974146813
 30
0.0
 11
101.7063623935
 21
251.7974159851
 31
0.0
  0
ARC
  5
1D5
330
1F
100
AcDbEntity
  8
0
  6
Continuous
 62
     7
370
    15
100
AcDbCircle
 10
123.2063620061
 20
226.797414495
 30
0.0
 40
3.5
100
AcDbArc
 50
180.0
 51
0.0
  0
LINE
  5
1D6
330
1F
100
AcDbEntity
  8
0
  6
Continuous
 62
     7
370
    15
100
AcDbLine
 10
126.706362766
 20
226.7974146813
 30
0.0
 11
126.706362766
 21
251.7974159851
 31
0.0
  0
ARC
  5
1D7
330
1F
100
AcDbEntity
  8
0
  6
Continuous
 62
     7
370
    15
100
AcDbCircle
 10
123.2063620061
 20
251.797414495
 30
0.0
 40
3.5
100
AcDbArc
 50
0.0
 51
180.0
  0
LINE
  5
1D8
330
1F
100
AcDbEntity
  8
0
  6
Continuous
 62
     7
370
    15
100
AcDbLine
 10
119.7063616186
 20
251.7974159851
 30
0.0
 11
119.7063616186
 21
226.7974146813
 31
0.0
  0
DIMENSION
  5
1D9
330
1F
100
AcDbEntity
  8
DIM
100
AcDbDimension
  2
_D_4
 10
180.6725496685
 20
160.297414495
 30
0.0
 11
180.6725496685
 21
214.297414495
 31
0.0
 70
   160
  1
<>
 71
     2
 42
-1.0
  3
SLDDIMSTYLE0
100
AcDbAlignedDimension
 13
148.7063620061
 23
268.297414495
 33
0.0
 14
148.7063620061
 24
160.297414495
 34
0.0
 50
90.0
100
AcDbRotatedDimension
  0
DIMENSION
  5
1E3
330
1F
100
AcDbEntity
  8
DIM
100
AcDbDimension
  2
_D_5
 10
72.7063620061
 20
127.7524010279
 30
0.0
 11
110.7063620061
 21
127.7524010279
 31
0.0
 70
   160
  1
<>
 71
     2
 42
-1.0
  3
SLDDIMSTYLE0
100
AcDbAlignedDimension
 13
148.7063620061
 23
160.297414495
 33
0.0
 14
72.7063620061
 24
160.297414495
 34
0.0
100
AcDbRotatedDimension
  0
DIMENSION
  5
1ED
330
1F
100
AcDbEntity
  8
DIM
 62
     7
100
AcDbDimension
  2
_D_6
 10
160.7063620061
 20
214.297414495
 30
0.0
 11
160.7063620061
 21
220.547414495
 31
0.0
 70
   160
  1
<>
 71
     2
 42
-1.0
  3
SLDDIMSTYLE0
100
AcDbAlignedDimension
 13
135.7063620061
 23
226.797414495
 33
0.0
 14
151.7063620061
 24
214.297414495
 34
0.0
 50
90.0
100
AcDbRotatedDimension
  0
DIMENSION
  5
1F7
330
1F
100
AcDbEntity
  8
DIM
 62
     7
100
AcDbDimension
  2
_D_7
 10
160.7063620061
 20
214.297414495
 30
0.0
 11
160.7063620061
 21
208.047414495
 31
0.0
 70
   160
  1
<>
 71
     2
 42
-1.0
  3
SLDDIMSTYLE0
100
AcDbAlignedDimension
 13
135.7063620061
 23
201.797414495
 33
0.0
 14
151.7063620061
 24
214.297414495
 34
0.0
 50
90.0
100
AcDbRotatedDimension
  0
DIMENSION
  5
201
330
1F
100
AcDbEntity
  8
DIM
 62
     7
100
AcDbDimension
  2
_D_8
 10
169.7063620061
 20
214.297414495
 30
0.0
 11
169.7063620061
 21
233.047414495
 31
0.0
 70
   160
  1
<>
 71
     2
 42
-1.0
  3
SLDDIMSTYLE0
100
AcDbAlignedDimension
 13
135.7063620061
 23
251.797414495
 33
0.0
 14
151.7063620061
 24
214.297414495
 34
0.0
 50
90.0
100
AcDbRotatedDimension
  0
DIMENSION
  5
20B
330
1F
100
AcDbEntity
  8
DIM
 62
     7
100
AcDbDimension
  2
_D_9
 10
169.7063620061
 20
214.297414495
 30
0.0
 11
169.7063620061
 21
195.547414495
 31
0.0
 70
   160
  1
<>
 71
     2
 42
-1.0
  3
SLDDIMSTYLE0
100
AcDbAlignedDimension
 13
135.7063620061
 23
176.797414495
 33
0.0
 14
151.7063620061
 24
214.297414495
 34
0.0
 50
90.0
100
AcDbRotatedDimension
  0
DIMENSION
  5
215
330
1F
100
AcDbEntity
  8
DIM
 62
     7
100
AcDbDimension
  2
_D_10
 10
110.7063620061
 20
147.2571988834
 30
0.0
 11
104.4563620061
 21
147.2571988834
 31
0.0
 70
   160
  1
<>
 71
     2
 42
-1.0
  3
SLDDIMSTYLE0
100
AcDbAlignedDimension
 13
98.2063620061
 23
172.297414495
 33
0.0
 14
110.7063620061
 24
176.797414495
 34
0.0
100
AcDbRotatedDimension
  0
DIMENSION
  5
21F
330
1F
100
AcDbEntity
  8
DIM
 62
     7
100
AcDbDimension
  2
_D_11
 10
123.2063620061
 20
147.2571988834
 30
0.0
 11
116.9563620061
 21
147.2571988834
 31
0.0
 70
   160
  1
<>
 71
     2
 42
-1.0
  3
SLDDIMSTYLE0
100
AcDbAlignedDimension
 13
110.7063620061
 23
176.797414495
 33
0.0
 14
123.2063620061
 24
172.297414495
 34
0.0
100
AcDbRotatedDimension
  0
DIMENSION
  5
229
330
1F
100
AcDbEntity
  8
DIM
 62
     7
100
AcDbDimension
  2
_D_12
 10
110.7063620061
 20
137.6973162136
 30
0.0
 11
98.2063620061
 21
137.6973162136
 31
0.0
 70
   160
  1
<>
 71
     2
 42
-1.0
  3
SLDDIMSTYLE0
100
AcDbAlignedDimension
 13
85.7063620061
 23
176.797414495
 33
0.0
 14
110.7063620061
 24
176.797414495
 34
0.0
100
AcDbRotatedDimension
  0
DIMENSION
  5
233
330
1F
100
AcDbEntity
  8
DIM
 62
     7
100
AcDbDimension
  2
_D_13
 10
135.7063620061
 20
137.6973162136
 30
0.0
 11
123.2063620061
 21
137.6973162136
 31
0.0
 70
   160
  1
<>
 71
     2
 42
-1.0
  3
SLDDIMSTYLE0
100
AcDbAlignedDimension
 13
110.7063620061
 23
176.797414495
 33
0.0
 14
135.7063620061
 24
176.797414495
 34
0.0
100
AcDbRotatedDimension
  0
DIMENSION
  5
23D
330
1F
100
AcDbEntity
  8
DIM
 62
     7
100
AcDbDimension
  2
_D_14
 10
100.7265043779
 20
229.2261759954
 30
0.0
 11
48.1837458654
 21
199.5840424483
 31
0.0
 70
   163
  1
4-<> HOLES.
 71
     1
 42
-1.0
  3
SLDDIMSTYLE1
100
AcDbDiametricDimension
 15
95.6862196343
 25
224.3686529946
 35
0.0
 40
0.0
  0
DIMENSION
  5
249
330
1F
100
AcDbEntity
  8
DIM
 62
     7
100
AcDbDimension
  2
_D_15
 10
87.8714255155
 20
225.547414495
 30
0.0
 11
48.1837458654
 21
245.6116912591
 31
0.0
 70
   163
  1
12 HOLES,\PM6
 71
     1
 42
-1.0
  3
SLDDIMSTYLE2
100
AcDbDiametricDimension
 15
83.5412984966
 25
228.047414495
 35
0.0
 40
0.0
  0
INSERT
  5
25E
330
1F
100
AcDbEntity
  8
DIM
100
AcDbBlockReference
  2
SW_CENTERMARKSYMBOL_4
 10
135.7063620061
 20
176.797414495
 30
0.0
  0
INSERT
  5
26A
330
1F
100
AcDbEntity
  8
DIM
100
AcDbBlockReference
  2
SW_CENTERMARKSYMBOL_5
 10
135.7063620061
 20
201.797414495
 30
0.0
  0
INSERT
  5
276
330
1F
100
AcDbEntity
  8
DIM
100
AcDbBlockReference
  2
SW_CENTERMARKSYMBOL_6
 10
135.7063620061
 20
226.797414495
 30
0.0
  0
INSERT
  5
282
330
1F
100
AcDbEntity
  8
DIM
100
AcDbBlockReference
  2
SW_CENTERMARKSYMBOL_7
 10
135.7063620061
 20
251.797414495
 30
0.0
  0
INSERT
  5
28E
330
1F
100
AcDbEntity
  8
DIM
100
AcDbBlockReference
  2
SW_CENTERMARKSYMBOL_8
 10
110.7063620061
 20
226.797414495
 30
0.0
  0
INSERT
  5
29A
330
1F
100
AcDbEntity
  8
DIM
100
AcDbBlockReference
  2
SW_CENTERMARKSYMBOL_9
 10
110.7063620061
 20
251.797414495
 30
0.0
  0
INSERT
  5
2A6
330
1F
100
AcDbEntity
  8
DIM
100
AcDbBlockReference
  2
SW_CENTERMARKSYMBOL_10
 10
85.7063620061
 20
251.797414495
 30
0.0
  0
INSERT
  5
2B2
330
1F
100
AcDbEntity
  8
DIM
100
AcDbBlockReference
  2
SW_CENTERMARKSYMBOL_11
 10
85.7063620061
 20
226.797414495
 30
0.0
  0
INSERT
  5
2BE
330
1F
100
AcDbEntity
  8
DIM
100
AcDbBlockReference
  2
SW_CENTERMARKSYMBOL_12
 10
110.7063620061
 20
176.797414495
 30
0.0
  0
INSERT
  5
2CA
330
1F
100
AcDbEntity
  8
DIM
100
AcDbBlockReference
  2
SW_CENTERMARKSYMBOL_13
 10
110.7063620061
 20
201.797414495
 30
0.0
  0
INSERT
  5
2D6
330
1F
100
AcDbEntity
  8
DIM
100
AcDbBlockReference
  2
SW_CENTERMARKSYMBOL_14
 10
85.7063620061
 20
201.797414495
 30
0.0
  0
INSERT
  5
2E2
330
1F
100
AcDbEntity
  8
DIM
100
AcDbBlockReference
  2
SW_CENTERMARKSYMBOL_15
 10
85.7063620061
 20
176.797414495
 30
0.0
  0
INSERT
  5
2EE
330
1F
100
AcDbEntity
  8
DIM
 62
     7
100
AcDbBlockReference
  2
SW_CENTERMARKSYMBOL_16
 10
98.2063620061
 20
226.797414495
 30
0.0
  0
INSERT
  5
2FA
330
1F
100
AcDbEntity
  8
DIM
 62
     7
100
AcDbBlockReference
  2
SW_CENTERMARKSYMBOL_17
 10
98.2063620061
 20
251.797414495
 30
0.0
  0
INSERT
  5
306
330
1F
100
AcDbEntity
  8
DIM
 62
     7
100
AcDbBlockReference
  2
SW_CENTERMARKSYMBOL_18
 10
123.2063620061
 20
251.797414495
 30
0.0
  0
INSERT
  5
312
330
1F
100
AcDbEntity
  8
DIM
 62
     7
100
AcDbBlockReference
  2
SW_CENTERMARKSYMBOL_19
 10
123.2063620061
 20
226.797414495
 30
0.0
  0
INSERT
  5
31E
330
1F
100
AcDbEntity
  8
DIM
 62
     7
100
AcDbBlockReference
  2
SW_CENTERMARKSYMBOL_20
 10
123.2063620061
 20
201.797414495
 30
0.0
  0
INSERT
  5
32A
330
1F
100
AcDbEntity
  8
DIM
 62
     7
100
AcDbBlockReference
  2
SW_CENTERMARKSYMBOL_21
 10
98.2063620061
 20
201.797414495
 30
0.0
  0
INSERT
  5
336
330
1F
100
AcDbEntity
  8
DIM
 62
     7
100
AcDbBlockReference
  2
SW_CENTERMARKSYMBOL_22
 10
98.2063620061
 20
176.797414495
 30
0.0
  0
INSERT
  5
342
330
1F
100
AcDbEntity
  8
DIM
 62
     7
100
AcDbBlockReference
  2
SW_CENTERMARKSYMBOL_23
 10
123.2063620061
 20
176.797414495
 30
0.0
  0
ARC
  5
343
330
1F
100
AcDbEntity
  8
0
  6
Continuous
 62
     7
370
     0
100
AcDbCircle
 10
135.7063620061
 20
176.797414495
 30
0.0
 40
3.00000011920967
100
AcDbArc
 50
255.0
 51
195.0
  0
ARC
  5
344
330
1F
100
AcDbEntity
  8
0
  6
Continuous
 62
     7
370
     0
100
AcDbCircle
 10
135.7063620061
 20
201.797414495
 30
0.0
 40
3.000000119209283
100
AcDbArc
 50
255.0
 51
195.0
  0
ARC
  5
345
330
1F
100
AcDbEntity
  8
0
  6
Continuous
 62
     7
370
     0
100
AcDbCircle
 10
135.7063620061
 20
226.797414495
 30
0.0
 40
3.00000011920927
100
AcDbArc
 50
255.0
 51
195.0
  0
ARC
  5
346
330
1F
100
AcDbEntity
  8
0
  6
Continuous
 62
     7
370
     0
100
AcDbCircle
 10
135.7063620061
 20
251.797414495
 30
0.0
 40
3.000000119209642
100
AcDbArc
 50
255.0
 51
195.0
  0
ARC
  5
347
330
1F
100
AcDbEntity
  8
0
  6
Continuous
 62
     7
370
     0
100
AcDbCircle
 10
110.7063620061
 20
226.797414495
 30
0.0
 40
3.000000026077024
100
AcDbArc
 50
255.0
 51
195.0
  0
ARC
  5
348
330
1F
100
AcDbEntity
  8
0
  6
Continuous
 62
     7
370
     0
100
AcDbCircle
 10
110.7063620061
 20
251.797414495
 30
0.0
 40
3.0000000260774
100
AcDbArc
 50
255.0
 51
195.0
  0
ARC
  5
349
330
1F
100
AcDbEntity
  8
0
  6
Continuous
 62
     7
370
     0
100
AcDbCircle
 10
85.7063620061
 20
251.797414495
 30
0.0
 40
3.000000864267757
100
AcDbArc
 50
255.0
 51
195.0
  0
ARC
  5
34A
330
1F
100
AcDbEntity
  8
0
  6
Continuous
 62
     7
370
     0
100
AcDbCircle
 10
85.7063620061
 20
226.797414495
 30
0.0
 40
3.000000864267347
100
AcDbArc
 50
255.0
 51
195.0
  0
ARC
  5
34B
330
1F
100
AcDbEntity
  8
0
  6
Continuous
 62
     7
370
     0
100
AcDbCircle
 10
110.7063620061
 20
176.797414495
 30
0.0
 40
3.000000026077403
100
AcDbArc
 50
255.0
 51
195.0
  0
ARC
  5
34C
330
1F
100
AcDbEntity
  8
0
  6
Continuous
 62
     7
370
     0
100
AcDbCircle
 10
110.7063620061
 20
201.797414495
 30
0.0
 40
3.000000026077048
100
AcDbArc
 50
255.0
 51
195.0
  0
ARC
  5
34D
330
1F
100
AcDbEntity
  8
0
  6
Continuous
 62
     7
370
     0
100
AcDbCircle
 10
85.7063620061
 20
201.797414495
 30
0.0
 40
3.000000864267433
100
AcDbArc
 50
255.0
 51
195.0
  0
ARC
  5
34E
330
1F
100
AcDbEntity
  8
0
  6
Continuous
 62
     7
370
     0
100
AcDbCircle
 10
85.7063620061
 20
176.797414495
 30
0.0
 40
3.000000864267734
100
AcDbArc
 50
255.0
 51
195.0
  0
LINE
  5
34F
330
1F
100
AcDbEntity
  8
DIM
  6
CENTERX2
370
     0
100
AcDbLine
 10
110.7063620061
 20
155.6948101636
 30
0.0
 11
110.7063620061
 21
272.297414495
 31
0.0
  0
LINE
  5
350
330
1F
100
AcDbEntity
  8
DIM
  6
CENTERX2
370
     0
100
AcDbLine
 10
69.7063620061
 20
214.297414495
 30
0.0
 11
151.7063620061
 21
214.297414495
 31
0.0
  0
LINE
  5
351
330
1F
100
AcDbEntity
  8
DIM
  6
CENTERX2
370
     0
100
AcDbLine
 10
98.2063620061
 20
223.797414495
 30
0.0
 11
98.2063620061
 21
254.797414495
 31
0.0
  0
LINE
  5
352
330
1F
100
AcDbEntity
  8
DIM
  6
CENTERX2
370
     0
100
AcDbLine
 10
123.2063620061
 20
223.797414495
 30
0.0
 11
123.2063620061
 21
254.797414495
 31
0.0
  0
LINE
  5
353
330
1F
100
AcDbEntity
  8
DIM
  6
CENTERX2
370
     0
100
AcDbLine
 10
123.2063620061
 20
173.797414495
 30
0.0
 11
123.2063620061
 21
204.797414495
 31
0.0
  0
LINE
  5
354
330
1F
100
AcDbEntity
  8
DIM
  6
CENTERX2
370
     0
100
AcDbLine
 10
98.2063620061
 20
173.797414495
 30
0.0
 11
98.2063620061
 21
204.797414495
 31
0.0
  0
LINE
  5
355
330
1F
100
AcDbEntity
  8
0
  6
Continuous
 62
     7
370
    15
100
AcDbLine
 10
148.7063607842
 20
92.8380964308
 30
0.0
 11
141.7063614994
 21
92.8380964308
 31
0.0
  0
LINE
  5
356
330
1F
100
AcDbEntity
  8
0
  6
Continuous
 62
     7
370
    15
100
AcDbLine
 10
79.7063625127
 20
92.8380964308
 30
0.0
 11
72.706363228
 21
92.8380964308
 31
0.0
  0
ARC
  5
357
330
1F
100
AcDbEntity
  8
0
  6
Continuous
 62
     7
370
    15
100
AcDbCircle
 10
93.0286924764
 20
77.0157648578
 30
0.0
 40
3.500000000000038
100
AcDbArc
 50
135.0
 51
315.0
  0
ARC
  5
358
330
1F
100
AcDbEntity
  8
0
  6
Continuous
 62
     7
370
    15
100
AcDbCircle
 10
110.7063620061
 20
59.3380953281
 30
0.0
 40
21.50000000000002
100
AcDbArc
 50
45.0
 51
135.0
  0
ARC
  5
359
330
1F
100
AcDbEntity
  8
0
  6
Continuous
 62
     7
370
    15
100
AcDbCircle
 10
128.3840315357
 20
77.0157648578
 30
0.0
 40
3.500000000000038
100
AcDbArc
 50
225.0
 51
45.0
  0
ARC
  5
35A
330
1F
100
AcDbEntity
  8
0
  6
Continuous
 62
     7
370
    15
100
AcDbCircle
 10
110.7063620061
 20
59.3380953281
 30
0.0
 40
28.50000000000005
100
AcDbArc
 50
45.0
 51
135.0
  0
LINE
  5
35B
330
1F
100
AcDbEntity
  8
0
  6
Continuous
 62
     7
370
    15
100
AcDbLine
 10
72.706363228
 20
46.3380953281
 30
0.0
 11
148.7063607842
 21
46.3380953281
 31
0.0
  0
ARC
  5
35C
330
1F
100
AcDbEntity
  8
0
  6
Continuous
 62
     7
370
    15
100
AcDbCircle
 10
110.7063620061
 20
60.3480953281
 30
0.0
 40
39.99999999999996
100
AcDbArc
 50
18.1948723388
 51
161.8051276612
  0
CIRCLE
  5
35D
330
1F
100
AcDbEntity
  8
0
  6
Continuous
 62
     7
370
    15
100
AcDbCircle
 10
122.7263620061
 20
71.3580953281
 30
0.0
 40
3.500000000000014
  0
CIRCLE
  5
35E
330
1F
100
AcDbEntity
  8
0
  6
Continuous
 62
     7
370
    15
100
AcDbCircle
 10
110.7063620061
 20
59.3380953281
 30
0.0
 40
3.500000000000014
  0
LINE
  5
35F
330
1F
100
AcDbEntity
  8
0
  6
Continuous
 62
     7
370
    15
100
AcDbLine
 10
72.706363228
 20
72.8380912899
 30
0.0
 11
72.706363228
 21
46.3380953281
 31
0.0
  0
LINE
  5
360
330
1F
100
AcDbEntity
  8
0
  6
Continuous
 62
     7
370
    15
100
AcDbLine
 10
148.7063607842
 20
46.3380953281
 30
0.0
 11
148.7063607842
 21
72.8380912899
 31
0.0
  0
LINE
  5
361
330
1F
100
AcDbEntity
  8
0
  6
Continuous
 62
     7
370
    15
100
AcDbLine
 10
148.7063607842
 20
72.8414235621
 30
0.0
 11
148.7052655488
 21
72.8414235621
 31
0.0
  0
LINE
  5
362
330
1F
100
AcDbEntity
  8
0
  6
Continuous
 62
     7
370
    15
100
AcDbLine
 10
72.7074584633
 20
72.8414235621
 30
0.0
 11
72.706363228
 21
72.8414235621
 31
0.0
  0
LINE
  5
363
330
1F
100
AcDbEntity
  8
0
  6
Continuous
 62
     7
370
    15
100
AcDbLine
 10
72.706363228
 20
72.8414235621
 30
0.0
 11
72.706363228
 21
74.8504186033
 31
0.0
  0
LINE
  5
364
330
1F
100
AcDbEntity
  8
0
  6
Continuous
 62
     7
370
    15
100
AcDbLine
 10
148.7063607842
 20
72.8414235621
 30
0.0
 11
148.7063607842
 21
74.8504186033
 31
0.0
  0
LINE
  5
365
330
1F
100
AcDbEntity
  8
0
  6
Continuous
 62
     7
370
    15
100
AcDbLine
 10
79.7063625127
 20
88.8380957752
 30
0.0
 11
72.706363228
 21
88.8380957752
 31
0.0
  0
LINE
  5
366
330
1F
100
AcDbEntity
  8
0
  6
Continuous
 62
     7
370
    15
100
AcDbLine
 10
79.7063625127
 20
88.8380957752
 30
0.0
 11
79.7063625127
 21
85.6265453606
 31
0.0
  0
LINE
  5
367
330
1F
100
AcDbEntity
  8
0
  6
Continuous
 62
     7
370
    15
100
AcDbLine
 10
72.706363228
 20
88.8380957752
 30
0.0
 11
72.706363228
 21
74.8504186033
 31
0.0
  0
LINE
  5
368
330
1F
100
AcDbEntity
  8
0
  6
Continuous
 62
     7
370
    15
100
AcDbLine
 10
148.7063607842
 20
88.8380957752
 30
0.0
 11
141.7063614994
 21
88.8380957752
 31
0.0
  0
LINE
  5
369
330
1F
100
AcDbEntity
  8
0
  6
Continuous
 62
     7
370
    15
100
AcDbLine
 10
141.7063614994
 20
85.6265453606
 30
0.0
 11
141.7063614994
 21
88.8380957752
 31
0.0
  0
LINE
  5
36A
330
1F
100
AcDbEntity
  8
0
  6
Continuous
 62
     7
370
    15
100
AcDbLine
 10
148.7063607842
 20
88.8380957752
 30
0.0
 11
148.7063607842
 21
74.8504186033
 31
0.0
  0
LINE
  5
36B
330
1F
100
AcDbEntity
  8
0
  6
Continuous
 62
     7
370
    15
100
AcDbLine
 10
141.7063614994
 20
88.8380957752
 30
0.0
 11
141.7063614994
 21
92.8380964308
 31
0.0
  0
LINE
  5
36C
330
1F
100
AcDbEntity
  8
0
  6
Continuous
 62
     7
370
    15
100
AcDbLine
 10
148.7063607842
 20
92.8380964308
 30
0.0
 11
148.7063607842
 21
88.8380957752
 31
0.0
  0
LINE
  5
36D
330
1F
100
AcDbEntity
  8
0
  6
Continuous
 62
     7
370
    15
100
AcDbLine
 10
79.7063625127
 20
92.8380964308
 30
0.0
 11
79.7063625127
 21
88.8380957752
 31
0.0
  0
LINE
  5
36E
330
1F
100
AcDbEntity
  8
0
  6
Continuous
 62
     7
370
    15
100
AcDbLine
 10
72.706363228
 20
92.8380964308
 30
0.0
 11
72.706363228
 21
88.8380957752
 31
0.0
  0
LINE
  5
36F
330
1F
100
AcDbEntity
  8
0
  6
Continuous
 62
     7
370
    15
100
AcDbLine
 10
119.556230557
 20
72.8414235621
 30
0.0
 11
125.8964939684
 21
72.8414235621
 31
0.0
  0
LINE
  5
370
330
1F
100
AcDbEntity
  8
0
  6
Continuous
 62
     8
370
    15
100
AcDbLine
 10
73.4279147059
 20
74.8504186033
 30
0.0
 11
72.706363228
 21
74.8504186033
 31
0.0
  0
LINE
  5
371
330
1F
100
AcDbEntity
  8
0
  6
Continuous
 62
     8
370
    15
100
AcDbLine
 10
148.7063607842
 20
74.8504186033
 30
0.0
 11
147.9848093063
 21
74.8504186033
 31
0.0
  0
LINE
  5
372
330
1F
100
AcDbEntity
  8
DIM
100
AcDbLine
 10
90.5538187423
 20
79.4906385919
 30
0.0
 11
95.5035662106
 21
74.5408911236
 31
0.0
  0
LINE
  5
373
330
1F
100
AcDbEntity
  8
DIM
100
AcDbLine
 10
125.9091578016
 20
74.5408911236
 30
0.0
 11
130.8589052699
 21
79.4906385919
 31
0.0
  0
ARC
  5
374
330
1F
100
AcDbEntity
  8
DIM
  6
CENTERX2
100
AcDbCircle
 10
110.7063620061
 20
59.3380953281
 30
0.0
 40
25.00000000000001
100
AcDbArc
 50
53.0279744361
 51
126.9720255639
  0
ARC
  5
375
330
1F
100
AcDbEntity
  8
DIM
100
AcDbCircle
 10
110.7063620061
 20
59.3380953281
 30
0.0
 40
16.99884701972463
100
AcDbArc
 50
33.180839726
 51
57.2717639259
  0
CIRCLE
  5
376
330
1F
100
AcDbEntity
  8
DIM
100
AcDbCircle
 10
122.6787928344
 20
71.4054769853
 30
0.0
 40
3.567140505845907
  0
CIRCLE
  5
377
330
1F
100
AcDbEntity
  8
DIM
  6
HIDDEN
 62
     7
370
     0
100
AcDbCircle
 10
98.2063620061
 20
59.3380953281
 30
0.0
 40
2.499999999999992
  0
CIRCLE
  5
378
330
1F
100
AcDbEntity
  8
DIM
  6
HIDDEN
 62
     7
370
     0
100
AcDbCircle
 10
123.2063620061
 20
59.3380953281
 30
0.0
 40
3.500000000000021
  0
DIMENSION
  5
379
330
1F
100
AcDbEntity
  8
DIM
100
AcDbDimension
  2
_D_16
 10
95.5035662106
 20
74.5408911236
 30
0.0
 11
90.6262638574
 21
107.8157406124
 31
0.0
 70
   162
  1
<>
 71
     1
 42
-1.0
  3
SLDDIMSTYLE3
100
AcDb2LineAngularDimension
 13
110.7063620061
 23
42.3380953281
 33
0.0
 14
110.7063620061
 24
108.4423250418
 34
0.0
 15
90.5538187423
 25
79.4906385919
 35
0.0
 16
90.6262638574
 26
107.8157406124
 36
0.0
  0
DIMENSION
  5
384
330
1F
100
AcDbEntity
  8
DIM
100
AcDbDimension
  2
_D_17
 10
110.7063620061
 20
42.3380953281
 30
0.0
 11
130.7864601547
 21
107.8157406124
 31
0.0
 70
   162
  1
<>
 71
     1
 42
-1.0
  3
SLDDIMSTYLE3
100
AcDb2LineAngularDimension
 13
130.8589052699
 23
79.4906385919
 33
0.0
 14
125.9091578016
 24
74.5408911236
 34
0.0
 15
110.7063620061
 25
108.4423250418
 35
0.0
 16
130.7864601547
 26
107.8157406124
 36
0.0
  0
DIMENSION
  5
38E
330
1F
100
AcDbEntity
  8
DIM
 62
     7
100
AcDbDimension
  2
_D_18
 10
110.7063620061
 20
31.7442904623
 30
0.0
 11
104.4563620061
 21
31.7442904623
 31
0.0
 70
   160
  1
<>
 71
     2
 42
-1.0
  3
SLDDIMSTYLE0
100
AcDbAlignedDimension
 13
98.2063620061
 23
59.3380953281
 33
0.0
 14
110.7063620061
 24
59.3380953281
 34
0.0
 50
0.0
100
AcDbRotatedDimension
  0
DIMENSION
  5
398
330
1F
100
AcDbEntity
  8
DIM
 62
     7
100
AcDbDimension
  2
_D_19
 10
123.2063620061
 20
31.7442904623
 30
0.0
 11
116.9563620061
 21
31.7442904623
 31
0.0
 70
   160
  1
<>
 71
     2
 42
-1.0
  3
SLDDIMSTYLE0
100
AcDbAlignedDimension
 13
110.7063620061
 23
59.3380953281
 33
0.0
 14
123.2063620061
 24
59.3380953281
 34
0.0
 50
0.0
100
AcDbRotatedDimension
  0
DIMENSION
  5
3A2
330
1F
100
AcDbEntity
  8
DIM
 62
     7
100
AcDbDimension
  2
_D_20
 10
121.5349090772
 20
62.4131961568
 30
0.0
 11
156.8560703937
 21
34.6271030419
 31
0.0
 70
   163
  1
3-<> HOLES.
 71
     1
 42
-1.0
  3
SLDDIMSTYLE1
100
AcDbDiametricDimension
 15
124.877814935
 25
56.2629944995
 35
0.0
 40
0.0
  0
DIMENSION
  5
3AD
330
1F
100
AcDbEntity
  8
DIM
 62
     7
100
AcDbDimension
  2
_D_21
 10
99.4563620061
 20
61.5031588376
 30
0.0
 11
67.2102949673
 21
34.7396100831
 31
0.0
 70
   163
  1
2 HOLES,\PM6
 71
     1
 42
-1.0
  3
SLDDIMSTYLE2
100
AcDbDiametricDimension
 15
96.9563620061
 25
57.1730318187
 35
0.0
 40
0.0
  0
DIMENSION
  5
3B6
330
1F
100
AcDbEntity
  8
DIM
100
AcDbDimension
  2
_D_22
 10
162.2145779411
 20
59.3380953281
 30
0.0
 11
162.2145779411
 21
52.8380953281
 31
0.0
 70
   160
  1
<>
 71
     2
 42
-1.0
  3
SLDDIMSTYLE0
100
AcDbAlignedDimension
 13
148.7063620061
 23
46.3380953281
 33
0.0
 14
127.7063620061
 24
59.3380953281
 34
0.0
 50
90.0
100
AcDbRotatedDimension
  0
DIMENSION
  5
3C0
330
1F
100
AcDbEntity
  8
DIM
100
AcDbDimension
  2
_D_23
 10
170.7063620061
 20
100.3480953281
 30
0.0
 11
170.7063620061
 21
73.3430953281
 31
0.0
 70
   160
  1
<>
 71
     2
 42
-1.0
  3
SLDDIMSTYLE4
100
AcDbAlignedDimension
 13
148.7063620061
 23
46.3380953281
 33
0.0
 14
110.7063620061
 24
100.3480953281
 34
0.0
 50
90.0
100
AcDbRotatedDimension
  0
INSERT
  5
3D6
330
1F
100
AcDbEntity
  8
DIM
100
AcDbBlockReference
  2
SW_CENTERMARKSYMBOL_24
 10
110.7063620061
 20
59.3380953281
 30
0.0
  0
INSERT
  5
3E2
330
1F
100
AcDbEntity
  8
DIM
100
AcDbBlockReference
  2
SW_CENTERMARKSYMBOL_25
 10
122.7263620061
 20
71.3580953281
 30
0.0
  0
INSERT
  5
3EE
330
1F
100
AcDbEntity
  8
DIM
100
AcDbBlockReference
  2
SW_CENTERMARKSYMBOL_26
 10
123.2063620061
 20
59.3380953281
 30
0.0
  0
INSERT
  5
3FA
330
1F
100
AcDbEntity
  8
DIM
100
AcDbBlockReference
  2
SW_CENTERMARKSYMBOL_27
 10
98.2063620061
 20
59.3380953281
 30
0.0
  0
LINE
  5
3FB
330
1F
100
AcDbEntity
  8
DIM
  6
CENTERX2
370
     0
100
AcDbLine
 10
110.7063620061
 20
42.3380953281
 30
0.0
 11
110.7063620061
 21
108.4423250418
 31
0.0
  0
LINE
  5
3FC
330
1F
100
AcDbEntity
  8
0
  6
Continuous
 62
     7
370
    15
100
AcDbLine
 10
350.1252720642
 20
194.1143948349
 30
0.0
 11
353.8375826654
 21
196.2574661285
 31
0.0
  0
LINE
  5
3FD
330
1F
100
AcDbEntity
  8
0
  6
Continuous
 62
     7
370
    15
100
AcDbLine
 10
377.2036207068
 20
206.9431581304
 30
0.0
 11
380.915931308
 21
204.8000868368
 31
0.0
  0
LWPOLYLINE
  5
3FE
330
1F
100
AcDbEntity
  8
0
  6
Continuous
 62
     7
370
    15
100
AcDbPolyline
 90
       16
 70
   128
 43
0.0
 10
345.8139910746
 20
202.2030974198
 10
346.0581938948
 20
202.4103586891
 10
346.2343613318
 20
202.7079164937
 10
346.3347940234
 20
203.0827661299
 10
346.3551025789
 20
203.5185248697
 10
346.2943994171
 20
203.9961479653
 10
346.1553375574
 20
204.4947609954
 10
345.9439946704
 20
204.9925721781
 10
345.6696074543
 20
205.4678247759
 10
345.3441679472
 20
205.8997479698
 10
344.9818994171
 20
206.2694646435
 10
344.5986347372
 20
206.5608164044
 10
344.2111244132
 20
206.7610697825
 10
343.8363045055
 20
206.8614727441
 10
343.4905564429
 20
206.8576371982
 10
343.1889910746
 20
206.7497307763
  0
LWPOLYLINE
  5
3FF
330
1F
100
AcDbEntity
  8
0
  6
Continuous
 62
     7
370
    15
100
AcDbPolyline
 90
       20
 70
   128
 43
0.0
 10
343.1889910746
 20
206.7497307763
 10
342.4956575766
 20
206.4129463875
 10
341.7519851992
 20
206.1738553626
 10
340.9630539787
 20
206.0340909357
 10
340.1342531154
 20
205.9946078396
 10
339.2712441595
 20
206.0556757838
 10
338.3799223374
 20
206.2168776124
 10
337.4663762808
 20
206.4771121534
 10
336.5368464356
 20
206.8346017411
 10
335.5976824332
 20
207.286904359
 10
334.6552997161
 20
207.8309303217
 10
333.7161357137
 20
208.4629633802
 10
332.7866058685
 20
209.1786861078
 10
331.8730598119
 20
209.9732093926
 10
330.9817379897
 20
210.8411058349
 10
330.1187290339
 20
211.7764468219
 10
329.2899281706
 20
212.7728430264
 10
328.5009969501
 20
213.8234880518
 10
327.7573245726
 20
214.9212049274
 10
327.0639910746
 20
216.0584951337
  0
LWPOLYLINE
  5
400
330
1F
100
AcDbEntity
  8
0
  6
Continuous
 62
     7
370
    15
100
AcDbPolyline
 90
       16
 70
   128
 43
0.0
 10
327.0639910746
 20
216.0584951337
 10
326.7624257064
 20
216.5145815185
 10
326.4166776438
 20
216.9176092805
 10
326.0418577361
 20
217.2499641727
 10
325.654347412
 20
217.4971206915
 10
325.2710827322
 20
217.6482769109
 10
324.9088142021
 20
217.6968265789
 10
324.583374695
 20
217.640647842
 10
324.3089874789
 20
217.4821959806
 10
324.0976445919
 20
217.2283961014
 10
323.9585827322
 20
216.8903404769
 10
323.8978795704
 20
216.4828037601
 10
323.9181881259
 20
216.0235972612
 10
324.0186208174
 20
215.5327905075
 10
324.1947882545
 20
215.0318341096
 10
324.4389910746
 20
214.5426222656
  0
LWPOLYLINE
  5
401
330
1F
100
AcDbEntity
  8
0
  6
Continuous
 62
     7
370
    15
100
AcDbPolyline
 90
       23
 70
   128
 43
0.0
 10
324.4389910746
 20
214.5426222656
 10
325.2286591202
 20
213.2377667043
 10
326.0687642486
 20
211.9710103034
 10
326.9550254767
 20
210.7488081631
 10
327.8829266204
 20
209.5773883455
 10
328.8477393082
 20
208.4627201373
 10
329.8445470757
 20
207.4104836323
 10
330.8682704192
 20
206.4260407866
 10
331.9136926791
 20
205.5144080951
 10
332.9754866231
 20
204.6802310292
 10
334.0482415928
 20
203.9277603639
 10
335.1264910746
 20
203.2608305173
 10
336.2047405565
 20
202.682840011
 10
337.2774955262
 20
202.1967341522
 10
338.3392894702
 20
201.8049900248
 10
339.3847117301
 20
201.5096038671
 10
340.4084350735
 20
201.3120808994
 10
341.4052428411
 20
201.2134276533
 10
342.3700555289
 20
201.2141468432
 10
343.2979566726
 20
201.3142348042
 10
344.1842179007
 20
201.5131815111
 10
345.0243230291
 20
201.8099731771
 10
345.8139910746
 20
202.2030974198
  0
LINE
  5
402
330
1F
100
AcDbEntity
  8
0
  6
Continuous
 62
     7
370
    15
100
AcDbLine
 10
314.9739478108
 20
240.3094788807
 30
0.0
 11
314.9739478108
 21
224.0807326961
 31
0.0
  0
LINE
  5
403
330
1F
100
AcDbEntity
  8
0
  6
Continuous
 62
     7
370
    15
100
AcDbLine
 10
355.2790343385
 20
217.0418476938
 30
0.0
 11
314.9739478108
 21
240.3094788807
 31
0.0
  0
LINE
  5
404
330
1F
100
AcDbEntity
  8
0
  6
Continuous
 62
     7
370
    15
100
AcDbLine
 10
355.2790343385
 20
200.8131015091
 30
0.0
 11
355.2790343385
 21
217.0418476938
 31
0.0
  0
LWPOLYLINE
  5
405
330
1F
100
AcDbEntity
  8
0
  6
Continuous
 62
     7
370
    15
100
AcDbPolyline
 90
       42
 70
   128
 43
0.0
 10
314.9739478108
 20
224.0807326961
 10
315.4162790142
 20
222.4178930937
 10
315.932250249
 20
220.7463780626
 10
316.5199337767
 20
219.0724326103
 10
317.1771339317
 20
217.4023108244
 10
317.9013953248
 20
215.7422525071
 10
318.6900120171
 20
214.0984598618
 10
319.5400376294
 20
212.4770743212
 10
320.4482963505
 20
210.8841536023
 10
321.4113948023
 20
209.3256490732
 10
322.4257347181
 20
207.8073835189
 10
323.4875263861
 20
206.3350293857
 10
324.5928028083
 20
204.9140875888
 10
325.7374345217
 20
203.54986696
 10
326.9171450267
 20
202.247464413
 10
328.1275267644
 20
201.0117459007
 10
329.3640575841
 20
199.8473282354
 10
330.6221176387
 20
198.7585618399
 10
331.8970066447
 20
197.7495144934
 10
333.1839614435
 20
196.8239561339
 10
334.4781737971
 20
195.9853447733
 10
335.7748083522
 20
195.2368135776
 10
337.0690207058
 20
194.5811591611
 10
338.3559755046
 20
194.0208311378
 10
339.6308645106
 20
193.5579229695
 10
340.8889245652
 20
193.1941641438
 10
342.1254553849
 20
192.9309137134
 10
343.3358371226
 20
192.7691552175
 10
344.5155476276
 20
192.7094930078
 10
345.660179341
 20
192.7521499906
 10
346.7654557632
 20
192.8969667935
 10
347.8272474311
 20
193.1434023613
 10
348.8415873469
 20
193.4905359771
 10
349.8046857988
 20
193.9370707026
 10
350.7129445198
 20
194.4813382234
 10
351.5629701322
 20
195.1213050821
 10
352.3515868245
 20
195.8545802753
 10
353.0758482176
 20
196.6784241875
 10
353.7330483726
 20
197.5897588256
 10
354.3207319003
 20
198.5851793197
 10
354.8367031351
 20
199.6609666434
 10
355.2790343385
 20
200.8131015091
  0
LWPOLYLINE
  5
406
330
1F
100
AcDbEntity
  8
0
  6
Continuous
 62
     7
370
    15
100
AcDbPolyline
 90
       32
 70
   128
 43
0.0
 10
330.6080787429
 20
215.9616988695
 10
330.5700831348
 20
216.4151004668
 10
330.4576518553
 20
216.8938085448
 10
330.2753878542
 20
217.3782247384
 10
330.030753041
 20
217.8485169917
 10
329.7337627938
 20
218.2854314848
 10
329.3965759282
 20
218.6710808868
 10
329.0329969141
 20
218.9896766659
 10
328.657910719
 20
219.2281754736
 10
328.2866734159
 20
219.3768131406
 10
327.9344835035
 20
219.4295044234
 10
327.6157596782
 20
219.3840921346
 10
327.3435505309
 20
219.2424354587
 10
327.1290003361
 20
219.0103338366
 10
326.980892804
 20
218.6972895361
 10
326.9052914742
 20
218.3161186276
 10
326.9052914742
 20
217.8824262927
 10
326.980892804
 20
217.4139679468
 10
327.1290003361
 20
216.9299223295
 10
327.3435505309
 20
216.4501063253
 10
327.6157596782
 20
215.9941636577
 10
327.9344835035
 20
215.5807606732
 10
328.2866734159
 20
215.2268221384
 10
328.657910719
 20
214.9468383387
 10
329.0329969141
 20
214.7522718436
 10
329.3965759282
 20
214.6510882283
 10
329.7337627938
 20
214.6474299619
 10
330.030753041
 20
214.7414468143
 10
330.2753878542
 20
214.9292897245
 10
330.4576518553
 20
215.2032683817
 10
330.5700831348
 20
215.5521660674
 10
330.6080787429
 20
215.9616988695
  0
LWPOLYLINE
  5
407
330
1F
100
AcDbEntity
  8
0
  6
Continuous
 62
     7
370
    15
100
AcDbPolyline
 90
       32
 70
   128
 43
0.0
 10
336.9826463753
 20
219.6428547246
 10
336.9446507672
 20
220.0962563219
 10
336.8322194877
 20
220.5749643999
 10
336.6499554866
 20
221.0593805935
 10
336.4053206734
 20
221.5296728468
 10
336.1083304262
 20
221.9665873399
 10
335.7711435606
 20
222.3522367419
 10
335.4075645465
 20
222.670832521
 10
335.0324783514
 20
222.9093313287
 10
334.6612410483
 20
223.0579689957
 10
334.3090511359
 20
223.1106602785
 10
333.9903273106
 20
223.0652479897
 10
333.7181181633
 20
222.9235913138
 10
333.5035679685
 20
222.6914896917
 10
333.3554604363
 20
222.3784453912
 10
333.2798591066
 20
221.9972744827
 10
333.2798591066
 20
221.5635821479
 10
333.3554604363
 20
221.0951238019
 10
333.5035679685
 20
220.6110781847
 10
333.7181181633
 20
220.1312621804
 10
333.9903273106
 20
219.6753195128
 10
334.3090511359
 20
219.2619165283
 10
334.6612410483
 20
218.9079779935
 10
335.0324783514
 20
218.6279941938
 10
335.4075645465
 20
218.4334276987
 10
335.7711435606
 20
218.3322440834
 10
336.1083304262
 20
218.328585817
 10
336.4053206734
 20
218.4226026694
 10
336.6499554866
 20
218.6104455796
 10
336.8322194877
 20
218.8844242368
 10
336.9446507672
 20
219.2333219226
 10
336.9826463753
 20
219.6428547246
  0
LINE
  5
408
330
1F
100
AcDbEntity
  8
0
  6
Continuous
 62
     7
370
    15
100
AcDbLine
 10
355.2790343385
 20
217.0418476938
 30
0.0
 11
412.5546836146
 21
250.1063762226
 31
0.0
  0
LINE
  5
409
330
1F
100
AcDbEntity
  8
0
  6
Continuous
 62
     7
370
    15
100
AcDbLine
 10
314.9739478108
 20
240.3094788807
 30
0.0
 11
372.2495970869
 21
273.3740074095
 31
0.0
  0
LINE
  5
40A
330
1F
100
AcDbEntity
  8
0
  6
Continuous
 62
     7
370
    15
100
AcDbLine
 10
412.5546836146
 20
250.1063762226
 30
0.0
 11
372.2495970869
 21
273.3740074095
 31
0.0
  0
LWPOLYLINE
  5
40B
330
1F
100
AcDbEntity
  8
0
  6
Continuous
 62
     7
370
    15
100
AcDbPolyline
 90
       27
 70
   128
 43
0.0
 10
331.9445105593
 20
242.1463971323
 10
332.2232752301
 20
241.9409884584
 10
332.4087869693
 20
241.7030361349
 10
332.4902645087
 20
241.4463690862
 10
332.4629726701
 20
241.1859038681
 10
332.3284975558
 20
240.9367777722
 10
332.0946543707
 20
240.7134691019
 10
331.7750332308
 20
240.5289557453
 10
331.3882093548
 20
240.393960948
 10
330.9566635405
 20
240.3163301169
 10
330.5054756619
 20
240.3005748738
 10
330.0608671186
 20
240.3476108562
 10
329.648676943
 20
240.4547045036
 10
329.2928601299
 20
240.6156319227
 10
329.014095459
 20
240.8210405966
 10
328.8285837199
 20
241.0589929201
 10
328.7471061804
 20
241.3156599688
 10
328.7743980191
 20
241.5761251869
 10
328.9088731333
 20
241.8252512828
 10
329.1427163184
 20
242.0485599531
 10
329.4623374584
 20
242.2330733097
 10
329.8491613344
 20
242.368068107
 10
330.2807071487
 20
242.4456989381
 10
330.7318950272
 20
242.4614541812
 10
331.1765035706
 20
242.4144181988
 10
331.5886937462
 20
242.3073245514
 10
331.9445105593
 20
242.1463971323
  0
LWPOLYLINE
  5
40C
330
1F
100
AcDbEntity
  8
0
  6
Continuous
 62
     7
370
    15
100
AcDbPolyline
 90
       27
 70
   128
 43
0.0
 10
345.2027627065
 20
249.8002231807
 10
345.4815273774
 20
249.5948145067
 10
345.6670391165
 20
249.3568621833
 10
345.748516656
 20
249.1001951345
 10
345.7212248174
 20
248.8397299164
 10
345.5867497031
 20
248.5906038206
 10
345.352906518
 20
248.3672951502
 10
345.033285378
 20
248.1827817936
 10
344.646461502
 20
248.0477869963
 10
344.2149156877
 20
247.9701561653
 10
343.7637278092
 20
247.9544009222
 10
343.3191192658
 20
248.0014369045
 10
342.9069290902
 20
248.108530552
 10
342.5511122771
 20
248.269457971
 10
342.2723476063
 20
248.474866645
 10
342.0868358671
 20
248.7128189684
 10
342.0053583277
 20
248.9694860171
 10
342.0326501663
 20
249.2299512353
 10
342.1671252806
 20
249.4790773311
 10
342.4009684657
 20
249.7023860014
 10
342.7205896056
 20
249.886899358
 10
343.1074134816
 20
250.0218941554
 10
343.5389592959
 20
250.0995249864
 10
343.9901471745
 20
250.1152802295
 10
344.4347557178
 20
250.0682442472
 10
344.8469458934
 20
249.9611505997
 10
345.2027627065
 20
249.8002231807
  0
LWPOLYLINE
  5
40D
330
1F
100
AcDbEntity
  8
0
  6
Continuous
 62
     7
370
    15
100
AcDbPolyline
 90
       27
 70
   128
 43
0.0
 10
358.4610148538
 20
257.454049229
 10
358.7397795246
 20
257.248640555
 10
358.9252912638
 20
257.0106882316
 10
359.0067688032
 20
256.7540211829
 10
358.9794769646
 20
256.4935559647
 10
358.8450018503
 20
256.2444298689
 10
358.6111586652
 20
256.0211211986
 10
358.2915375253
 20
255.836607842
 10
357.9047136493
 20
255.7016130447
 10
357.473167835
 20
255.6239822136
 10
357.0219799564
 20
255.6082269705
 10
356.5773714131
 20
255.6552629528
 10
356.1651812375
 20
255.7623566003
 10
355.8093644243
 20
255.9232840193
 10
355.5305997535
 20
256.1286926933
 10
355.3450880144
 20
256.3666450167
 10
355.2636104749
 20
256.6233120655
 10
355.2909023135
 20
256.8837772836
 10
355.4253774278
 20
257.1329033794
 10
355.6592206129
 20
257.3562120498
 10
355.9788417529
 20
257.5407254064
 10
356.3656656288
 20
257.6757202037
 10
356.7972114432
 20
257.7533510348
 10
357.2483993217
 20
257.7691062778
 10
357.6930078651
 20
257.7220702955
 10
358.1051980407
 20
257.614976648
 10
358.4610148538
 20
257.454049229
  0
LWPOLYLINE
  5
40E
330
1F
100
AcDbEntity
  8
0
  6
Continuous
 62
     7
370
    15
100
AcDbPolyline
 90
       27
 70
   128
 43
0.0
 10
371.719267001
 20
265.1078752773
 10
371.9980316719
 20
264.9024666034
 10
372.183543411
 20
264.6645142799
 10
372.2650209505
 20
264.4078472312
 10
372.2377291118
 20
264.1473820131
 10
372.1032539976
 20
263.8982559173
 10
371.8694108125
 20
263.6749472469
 10
371.5497896725
 20
263.4904338903
 10
371.1629657965
 20
263.355439093
 10
370.7314199822
 20
263.2778082619
 10
370.2802321037
 20
263.2620530188
 10
369.8356235603
 20
263.3090890012
 10
369.4234333847
 20
263.4161826486
 10
369.0676165716
 20
263.5771100677
 10
368.7888519008
 20
263.7825187417
 10
368.6033401616
 20
264.0204710651
 10
368.5218626222
 20
264.2771381138
 10
368.5491544608
 20
264.537603332
 10
368.6836295751
 20
264.7867294278
 10
368.9174727602
 20
265.0100380981
 10
369.2370939001
 20
265.1945514547
 10
369.6239177761
 20
265.329546252
 10
370.0554635904
 20
265.4071770831
 10
370.506651469
 20
265.4229323262
 10
370.9512600123
 20
265.3758963438
 10
371.3634501879
 20
265.2688026964
 10
371.719267001
 20
265.1078752773
  0
LWPOLYLINE
  5
40F
330
1F
100
AcDbEntity
  8
0
  6
Continuous
 62
     7
370
    15
100
AcDbPolyline
 90
       27
 70
   128
 43
0.0
 10
371.719267001
 20
249.8002231807
 10
371.9980316719
 20
249.5948145067
 10
372.183543411
 20
249.3568621833
 10
372.2650209505
 20
249.1001951345
 10
372.2377291118
 20
248.8397299164
 10
372.1032539976
 20
248.5906038206
 10
371.8694108125
 20
248.3672951502
 10
371.5497896725
 20
248.1827817936
 10
371.1629657965
 20
248.0477869963
 10
370.7314199822
 20
247.9701561653
 10
370.2802321037
 20
247.9544009222
 10
369.8356235603
 20
248.0014369045
 10
369.4234333847
 20
248.108530552
 10
369.0676165716
 20
248.269457971
 10
368.7888519008
 20
248.474866645
 10
368.6033401616
 20
248.7128189684
 10
368.5218626222
 20
248.9694860171
 10
368.5491544608
 20
249.2299512353
 10
368.6836295751
 20
249.4790773311
 10
368.9174727602
 20
249.7023860014
 10
369.2370939001
 20
249.886899358
 10
369.6239177761
 20
250.0218941554
 10
370.0554635904
 20
250.0995249864
 10
370.506651469
 20
250.1152802295
 10
370.9512600123
 20
250.0682442472
 10
371.3634501879
 20
249.9611505997
 10
371.719267001
 20
249.8002231807
  0
LWPOLYLINE
  5
410
330
1F
100
AcDbEntity
  8
0
  6
Continuous
 62
     7
370
    15
100
AcDbPolyline
 90
       27
 70
   128
 43
0.0
 10
384.9775191483
 20
257.454049229
 10
385.2562838191
 20
257.248640555
 10
385.4417955583
 20
257.0106882316
 10
385.5232730977
 20
256.7540211829
 10
385.4959812591
 20
256.4935559647
 10
385.3615061448
 20
256.2444298689
 10
385.1276629597
 20
256.0211211986
 10
384.8080418197
 20
255.836607842
 10
384.4212179438
 20
255.7016130447
 10
383.9896721295
 20
255.6239822136
 10
383.5384842509
 20
255.6082269705
 10
383.0938757076
 20
255.6552629528
 10
382.681685532
 20
255.7623566003
 10
382.3258687188
 20
255.9232840193
 10
382.047104048
 20
256.1286926933
 10
381.8615923089
 20
256.3666450167
 10
381.7801147694
 20
256.6233120655
 10
381.807406608
 20
256.8837772836
 10
381.9418817223
 20
257.1329033794
 10
382.1757249074
 20
257.3562120498
 10
382.4953460474
 20
257.5407254064
 10
382.8821699233
 20
257.6757202037
 10
383.3137157377
 20
257.7533510348
 10
383.7649036162
 20
257.7691062778
 10
384.2095121595
 20
257.7220702955
 10
384.6217023352
 20
257.614976648
 10
384.9775191483
 20
257.454049229
  0
LWPOLYLINE
  5
411
330
1F
100
AcDbEntity
  8
0
  6
Continuous
 62
     7
370
    15
100
AcDbPolyline
 90
       27
 70
   128
 43
0.0
 10
398.2357712955
 20
249.8002231807
 10
398.5145359664
 20
249.5948145067
 10
398.7000477055
 20
249.3568621833
 10
398.781525245
 20
249.1001951345
 10
398.7542334063
 20
248.8397299164
 10
398.6197582921
 20
248.5906038206
 10
398.385915107
 20
248.3672951502
 10
398.066293967
 20
248.1827817936
 10
397.679470091
 20
248.0477869963
 10
397.2479242767
 20
247.9701561653
 10
396.7967363981
 20
247.9544009222
 10
396.3521278548
 20
248.0014369045
 10
395.9399376792
 20
248.108530552
 10
395.5841208661
 20
248.269457971
 10
395.3053561953
 20
248.474866645
 10
395.1198444561
 20
248.7128189684
 10
395.0383669166
 20
248.9694860171
 10
395.0656587553
 20
249.2299512353
 10
395.2001338696
 20
249.4790773311
 10
395.4339770547
 20
249.7023860014
 10
395.7535981946
 20
249.886899358
 10
396.1404220706
 20
250.0218941554
 10
396.5719678849
 20
250.0995249864
 10
397.0231557635
 20
250.1152802295
 10
397.4677643068
 20
250.0682442472
 10
397.8799544824
 20
249.9611505997
 10
398.2357712955
 20
249.8002231807
  0
LWPOLYLINE
  5
412
330
1F
100
AcDbEntity
  8
0
  6
Continuous
 62
     7
370
    15
100
AcDbPolyline
 90
       27
 70
   128
 43
0.0
 10
384.9775191483
 20
242.1463971323
 10
385.2562838191
 20
241.9409884584
 10
385.4417955583
 20
241.7030361349
 10
385.5232730977
 20
241.4463690862
 10
385.4959812591
 20
241.1859038681
 10
385.3615061448
 20
240.9367777722
 10
385.1276629597
 20
240.7134691019
 10
384.8080418197
 20
240.5289557453
 10
384.4212179438
 20
240.393960948
 10
383.9896721295
 20
240.3163301169
 10
383.5384842509
 20
240.3005748738
 10
383.0938757076
 20
240.3476108562
 10
382.681685532
 20
240.4547045036
 10
382.3258687188
 20
240.6156319227
 10
382.047104048
 20
240.8210405966
 10
381.8615923089
 20
241.0589929201
 10
381.7801147694
 20
241.3156599688
 10
381.807406608
 20
241.5761251869
 10
381.9418817223
 20
241.8252512828
 10
382.1757249074
 20
242.0485599531
 10
382.4953460474
 20
242.2330733097
 10
382.8821699233
 20
242.368068107
 10
383.3137157377
 20
242.4456989381
 10
383.7649036162
 20
242.4614541812
 10
384.2095121595
 20
242.4144181988
 10
384.6217023352
 20
242.3073245514
 10
384.9775191483
 20
242.1463971323
  0
LWPOLYLINE
  5
413
330
1F
100
AcDbEntity
  8
0
  6
Continuous
 62
     7
370
    15
100
AcDbPolyline
 90
       27
 70
   128
 43
0.0
 10
345.2027627065
 20
234.492571084
 10
345.4815273774
 20
234.28716241
 10
345.6670391165
 20
234.0492100866
 10
345.748516656
 20
233.7925430379
 10
345.7212248174
 20
233.5320778197
 10
345.5867497031
 20
233.2829517239
 10
345.352906518
 20
233.0596430536
 10
345.033285378
 20
232.8751296969
 10
344.646461502
 20
232.7401348996
 10
344.2149156877
 20
232.6625040686
 10
343.7637278092
 20
232.6467488255
 10
343.3191192658
 20
232.6937848078
 10
342.9069290902
 20
232.8008784553
 10
342.5511122771
 20
232.9618058743
 10
342.2723476063
 20
233.1672145483
 10
342.0868358671
 20
233.4051668717
 10
342.0053583277
 20
233.6618339205
 10
342.0326501663
 20
233.9222991386
 10
342.1671252806
 20
234.1714252344
 10
342.4009684657
 20
234.3947339047
 10
342.7205896056
 20
234.5792472614
 10
343.1074134816
 20
234.7142420587
 10
343.5389592959
 20
234.7918728897
 10
343.9901471745
 20
234.8076281328
 10
344.4347557178
 20
234.7605921505
 10
344.8469458934
 20
234.653498503
 10
345.2027627065
 20
234.492571084
  0
LWPOLYLINE
  5
414
330
1F
100
AcDbEntity
  8
0
  6
Continuous
 62
     7
370
    15
100
AcDbPolyline
 90
       27
 70
   128
 43
0.0
 10
358.4610148538
 20
242.1463971323
 10
358.7397795246
 20
241.9409884584
 10
358.9252912638
 20
241.7030361349
 10
359.0067688032
 20
241.4463690862
 10
358.9794769646
 20
241.1859038681
 10
358.8450018503
 20
240.9367777722
 10
358.6111586652
 20
240.7134691019
 10
358.2915375253
 20
240.5289557453
 10
357.9047136493
 20
240.393960948
 10
357.473167835
 20
240.3163301169
 10
357.0219799564
 20
240.3005748738
 10
356.5773714131
 20
240.3476108562
 10
356.1651812375
 20
240.4547045036
 10
355.8093644243
 20
240.6156319227
 10
355.5305997535
 20
240.8210405966
 10
355.3450880144
 20
241.0589929201
 10
355.2636104749
 20
241.3156599688
 10
355.2909023135
 20
241.5761251869
 10
355.4253774278
 20
241.8252512828
 10
355.6592206129
 20
242.0485599531
 10
355.9788417529
 20
242.2330733097
 10
356.3656656288
 20
242.368068107
 10
356.7972114432
 20
242.4456989381
 10
357.2483993217
 20
242.4614541812
 10
357.6930078651
 20
242.4144181988
 10
358.1051980407
 20
242.3073245514
 10
358.4610148538
 20
242.1463971323
  0
LWPOLYLINE
  5
415
330
1F
100
AcDbEntity
  8
0
  6
Continuous
 62
     7
370
    15
100
AcDbPolyline
 90
       27
 70
   128
 43
0.0
 10
371.719267001
 20
234.492571084
 10
371.9980316719
 20
234.28716241
 10
372.183543411
 20
234.0492100866
 10
372.2650209505
 20
233.7925430379
 10
372.2377291118
 20
233.5320778197
 10
372.1032539976
 20
233.2829517239
 10
371.8694108125
 20
233.0596430536
 10
371.5497896725
 20
232.8751296969
 10
371.1629657965
 20
232.7401348996
 10
370.7314199822
 20
232.6625040686
 10
370.2802321037
 20
232.6467488255
 10
369.8356235603
 20
232.6937848078
 10
369.4234333847
 20
232.8008784553
 10
369.0676165716
 20
232.9618058743
 10
368.7888519008
 20
233.1672145483
 10
368.6033401616
 20
233.4051668717
 10
368.5218626222
 20
233.6618339205
 10
368.5491544608
 20
233.9222991386
 10
368.6836295751
 20
234.1714252344
 10
368.9174727602
 20
234.3947339047
 10
369.2370939001
 20
234.5792472614
 10
369.6239177761
 20
234.7142420587
 10
370.0554635904
 20
234.7918728897
 10
370.506651469
 20
234.8076281328
 10
370.9512600123
 20
234.7605921505
 10
371.3634501879
 20
234.653498503
 10
371.719267001
 20
234.492571084
  0
LWPOLYLINE
  5
416
330
1F
100
AcDbEntity
  8
0
  6
Continuous
 62
     7
370
    15
100
AcDbPolyline
 90
       27
 70
   128
 43
0.0
 10
358.4610148538
 20
226.8387450357
 10
358.7397795246
 20
226.6333363617
 10
358.9252912638
 20
226.3953840383
 10
359.0067688032
 20
226.1387169895
 10
358.9794769646
 20
225.8782517714
 10
358.8450018503
 20
225.6291256756
 10
358.6111586652
 20
225.4058170052
 10
358.2915375253
 20
225.2213036486
 10
357.9047136493
 20
225.0863088513
 10
357.473167835
 20
225.0086780202
 10
357.0219799564
 20
224.9929227772
 10
356.5773714131
 20
225.0399587595
 10
356.1651812375
 20
225.1470524069
 10
355.8093644243
 20
225.307979826
 10
355.5305997535
 20
225.5133885
 10
355.3450880144
 20
225.7513408234
 10
355.2636104749
 20
226.0080078721
 10
355.2909023135
 20
226.2684730903
 10
355.4253774278
 20
226.5175991861
 10
355.6592206129
 20
226.7409078564
 10
355.9788417529
 20
226.925421213
 10
356.3656656288
 20
227.0604160103
 10
356.7972114432
 20
227.1380468414
 10
357.2483993217
 20
227.1538020845
 10
357.6930078651
 20
227.1067661021
 10
358.1051980407
 20
226.9996724547
 10
358.4610148538
 20
226.8387450357
  0
LWPOLYLINE
  5
417
330
1F
100
AcDbEntity
  8
0
  6
Continuous
 62
     7
370
    15
100
AcDbPolyline
 90
       16
 70
   128
 43
0.0
 10
339.1039667188
 20
236.4825658566
 10
338.6774888851
 20
236.2831966933
 10
338.1885272858
 20
236.1393721686
 10
337.6584518889
 20
236.0573781045
 10
337.1104295331
 20
236.0407980351
 10
336.5684114248
 20
236.0903565888
 10
336.0560863564
 20
236.2038878191
 10
335.5958453917
 20
236.3764298665
 10
335.2078032694
 20
236.6004418154
 10
334.9089192922
 20
236.866133269
 10
334.7122561242
 20
237.1618922356
 10
334.6264088895
 20
237.4747926292
 10
334.6551295241
 20
237.7911592012
 10
334.7971627986
 20
238.0971652142
 10
335.0463011773
 20
238.3794367372
 10
335.3916561176
 20
238.6256371501
  0
LINE
  5
418
330
1F
100
AcDbEntity
  8
0
  6
Continuous
 62
     7
370
    15
100
AcDbLine
 10
352.3622188661
 20
244.1363919049
 30
0.0
 11
339.1039667188
 21
236.4825658566
 31
0.0
  0
LWPOLYLINE
  5
419
330
1F
100
AcDbEntity
  8
0
  6
Continuous
 62
     7
370
    15
100
AcDbPolyline
 90
       16
 70
   128
 43
0.0
 10
348.6499082648
 20
246.2794631984
 10
349.0763860985
 20
246.4788323617
 10
349.5653476979
 20
246.6226568864
 10
350.0954230947
 20
246.7046509505
 10
350.6434454506
 20
246.7212310199
 10
351.1854635588
 20
246.6716724662
 10
351.6977886273
 20
246.5581412359
 10
352.158029592
 20
246.3855991885
 10
352.5460717143
 20
246.1615872396
 10
352.8449556914
 20
245.895895786
 10
353.0416188595
 20
245.6001368194
 10
353.1274660942
 20
245.2872364258
 10
353.0987454595
 20
244.9708698538
 10
352.956712185
 20
244.6648638408
 10
352.7075738063
 20
244.3825923178
 10
352.3622188661
 20
244.1363919049
  0
LINE
  5
41A
330
1F
100
AcDbEntity
  8
0
  6
Continuous
 62
     7
370
    15
100
AcDbLine
 10
335.3916561176
 20
238.6256371501
 30
0.0
 11
348.6499082648
 21
246.2794631984
 31
0.0
  0
LWPOLYLINE
  5
41B
330
1F
100
AcDbEntity
  8
0
  6
Continuous
 62
     7
370
    15
100
AcDbPolyline
 90
       16
 70
   128
 43
0.0
 10
361.9081604121
 20
238.6256371501
 10
362.3346382458
 20
238.8250063134
 10
362.8235998451
 20
238.968830838
 10
363.353675242
 20
239.0508249021
 10
363.9016975978
 20
239.0674049716
 10
364.4437157061
 20
239.0178464179
 10
364.9560407745
 20
238.9043151876
 10
365.4162817392
 20
238.7317731402
 10
365.8043238615
 20
238.5077611912
 10
366.1032078387
 20
238.2420697377
 10
366.2998710067
 20
237.9463107711
 10
366.3857182414
 20
237.6334103775
 10
366.3569976068
 20
237.3170438055
 10
366.2149643323
 20
237.0110377924
 10
365.9658259536
 20
236.7287662694
 10
365.6204710133
 20
236.4825658566
  0
LINE
  5
41C
330
1F
100
AcDbEntity
  8
0
  6
Continuous
 62
     7
370
    15
100
AcDbLine
 10
348.6499082648
 20
230.9718111018
 30
0.0
 11
361.9081604121
 21
238.6256371501
 31
0.0
  0
LWPOLYLINE
  5
41D
330
1F
100
AcDbEntity
  8
0
  6
Continuous
 62
     7
370
    15
100
AcDbPolyline
 90
       16
 70
   128
 43
0.0
 10
352.3622188661
 20
228.8287398082
 10
351.9357410324
 20
228.6293706449
 10
351.446779433
 20
228.4855461203
 10
350.9167040362
 20
228.4035520562
 10
350.3686816803
 20
228.3869719867
 10
349.8266635721
 20
228.4365305404
 10
349.3143385036
 20
228.5500617708
 10
348.8540975389
 20
228.7226038181
 10
348.4660554166
 20
228.9466157671
 10
348.1671714395
 20
229.2123072206
 10
347.9705082714
 20
229.5080661872
 10
347.8846610367
 20
229.8209665808
 10
347.9133816714
 20
230.1373331528
 10
348.0554149459
 20
230.4433391659
 10
348.3045533246
 20
230.7256106889
 10
348.6499082648
 20
230.9718111018
  0
LINE
  5
41E
330
1F
100
AcDbEntity
  8
0
  6
Continuous
 62
     7
370
    15
100
AcDbLine
 10
365.6204710133
 20
236.4825658566
 30
0.0
 11
352.3622188661
 21
228.8287398082
 31
0.0
  0
LWPOLYLINE
  5
41F
330
1F
100
AcDbEntity
  8
0
  6
Continuous
 62
     7
370
    15
100
AcDbPolyline
 90
       16
 70
   128
 43
0.0
 10
388.4246647066
 20
253.9332892468
 10
388.8511425403
 20
254.1326584101
 10
389.3401041396
 20
254.2764829347
 10
389.8701795365
 20
254.3584769988
 10
390.4182018923
 20
254.3750570683
 10
390.9602200006
 20
254.3254985145
 10
391.472545069
 20
254.2119672842
 10
391.9327860337
 20
254.0394252369
 10
392.320828156
 20
253.8154132879
 10
392.6197121332
 20
253.5497218344
 10
392.8163753012
 20
253.2539628678
 10
392.9022225359
 20
252.9410624742
 10
392.8735019013
 20
252.6246959022
 10
392.7314686267
 20
252.3186898891
 10
392.482330248
 20
252.0364183661
 10
392.1369753078
 20
251.7902179532
  0
LINE
  5
420
330
1F
100
AcDbEntity
  8
0
  6
Continuous
 62
     7
370
    15
100
AcDbLine
 10
375.1664125593
 20
246.2794631984
 30
0.0
 11
388.4246647066
 21
253.9332892468
 31
0.0
  0
LWPOLYLINE
  5
421
330
1F
100
AcDbEntity
  8
0
  6
Continuous
 62
     7
370
    15
100
AcDbPolyline
 90
       16
 70
   128
 43
0.0
 10
378.8787231606
 20
244.1363919049
 10
378.4522453269
 20
243.9370227416
 10
377.9632837275
 20
243.793198217
 10
377.4332083307
 20
243.7112041529
 10
376.8851859748
 20
243.6946240834
 10
376.3431678665
 20
243.7441826371
 10
375.8308427981
 20
243.8577138674
 10
375.3706018334
 20
244.0302559148
 10
374.9825597111
 20
244.2542678638
 10
374.6836757339
 20
244.5199593173
 10
374.4870125659
 20
244.8157182839
 10
374.4011653312
 20
245.1286186775
 10
374.4298859659
 20
245.4449852495
 10
374.5719192404
 20
245.7509912626
 10
374.8210576191
 20
246.0332627856
 10
375.1664125593
 20
246.2794631984
  0
LINE
  5
422
330
1F
100
AcDbEntity
  8
0
  6
Continuous
 62
     7
370
    15
100
AcDbLine
 10
392.1369753078
 20
251.7902179532
 30
0.0
 11
378.8787231606
 21
244.1363919049
 31
0.0
  0
LWPOLYLINE
  5
423
330
1F
100
AcDbEntity
  8
0
  6
Continuous
 62
     7
370
    15
100
AcDbPolyline
 90
       16
 70
   128
 43
0.0
 10
365.6204710133
 20
251.7902179532
 10
365.1939931796
 20
251.5908487899
 10
364.7050315803
 20
251.4470242653
 10
364.1749561834
 20
251.3650302012
 10
363.6269338276
 20
251.3484501317
 10
363.0849157193
 20
251.3980086855
 10
362.5725906509
 20
251.5115399158
 10
362.1123496862
 20
251.6840819631
 10
361.7243075639
 20
251.9080939121
 10
361.4254235867
 20
252.1737853656
 10
361.2287604187
 20
252.4695443322
 10
361.142913184
 20
252.7824447259
 10
361.1716338186
 20
253.0988112978
 10
361.3136670931
 20
253.4048173109
 10
361.5628054718
 20
253.6870888339
 10
361.9081604121
 20
253.9332892468
  0
LINE
  5
424
330
1F
100
AcDbEntity
  8
0
  6
Continuous
 62
     7
370
    15
100
AcDbLine
 10
378.8787231606
 20
259.4440440016
 30
0.0
 11
365.6204710133
 21
251.7902179532
 31
0.0
  0
LWPOLYLINE
  5
425
330
1F
100
AcDbEntity
  8
0
  6
Continuous
 62
     7
370
    15
100
AcDbPolyline
 90
       16
 70
   128
 43
0.0
 10
375.1664125593
 20
261.5871152951
 10
375.592890393
 20
261.7864844584
 10
376.0818519924
 20
261.9303089831
 10
376.6119273892
 20
262.0123030471
 10
377.1599497451
 20
262.0288831166
 10
377.7019678533
 20
261.9793245629
 10
378.2142929218
 20
261.8657933326
 10
378.6745338864
 20
261.6932512852
 10
379.0625760088
 20
261.4692393362
 10
379.3614599859
 20
261.2035478827
 10
379.558123154
 20
260.9077889161
 10
379.6439703887
 20
260.5948885225
 10
379.615249754
 20
260.2785219505
 10
379.4732164795
 20
259.9725159374
 10
379.2240781008
 20
259.6902444144
 10
378.8787231606
 20
259.4440440016
  0
LINE
  5
426
330
1F
100
AcDbEntity
  8
0
  6
Continuous
 62
     7
370
    15
100
AcDbLine
 10
361.9081604121
 20
253.9332892468
 30
0.0
 11
375.1664125593
 21
261.5871152951
 31
0.0
  0
LINE
  5
427
330
1F
100
AcDbEntity
  8
0
  6
Continuous
 62
     7
370
    15
100
AcDbLine
 10
412.5546836146
 20
233.875588997
 30
0.0
 11
412.5546836146
 21
250.1063762226
 31
0.0
  0
LINE
  5
428
330
1F
100
AcDbEntity
  8
0
  6
Continuous
 62
     7
370
    15
100
AcDbLine
 10
412.5546836146
 20
233.875588997
 30
0.0
 11
393.7173589638
 21
223.0010329476
 31
0.0
  0
ARC
  5
429
330
1F
100
AcDbEntity
  8
0
  6
Continuous
 62
     7
370
    15
100
AcDbCircle
 10
396.2026349535
 20
219.121304722
 30
0.0
 40
4.607481725357983
100
AcDbArc
 50
122.6428087092
 51
159.8516321921
  0
LINE
  5
42A
330
1F
100
AcDbEntity
  8
0
  6
Continuous
 62
     7
370
    15
100
AcDbLine
 10
391.8771135657
 20
220.7083625574
 30
0.0
 11
387.5920500457
 21
209.6685162231
 31
0.0
  0
LWPOLYLINE
  5
42B
330
1F
100
AcDbEntity
  8
0
  6
Continuous
 62
     7
370
    15
100
AcDbPolyline
 90
       16
 70
   128
 43
0.0
 10
387.5920500457
 20
209.6685162231
 10
387.2609005705
 20
208.9106747655
 10
386.8646910995
 20
208.1739957249
 10
386.4111300853
 20
207.4728115592
 10
385.9090417837
 20
206.8207641559
 10
385.3681945727
 20
206.230539422
 10
384.7991109043
 20
205.7136204741
 10
384.212862585
 20
205.2800642277
 10
383.620855368
 20
204.9383057359
 10
383.0346070487
 20
204.6949940803
 10
382.4655233803
 20
204.5548630105
 10
381.9246761693
 20
204.5206388462
 10
381.4225878677
 20
204.5929874358
 10
380.9690268536
 20
204.7705012012
 10
380.5728173826
 20
205.0497265237
 10
380.2416679073
 20
205.4252309355
  0
LINE
  5
42C
330
1F
100
AcDbEntity
  8
0
  6
Continuous
 62
     7
370
    15
100
AcDbLine
 10
380.2416679073
 20
205.4252309355
 30
0.0
 11
375.9566043873
 21
211.5176482386
 31
0.0
  0
ARC
  5
42D
330
1F
100
AcDbEntity
  8
0
  6
Continuous
 62
     7
370
    15
100
AcDbCircle
 10
374.9509943157
 20
210.6650403925
 30
0.0
 40
1.318405004337445
100
AcDbArc
 50
40.2929895242
 51
129.276575017
  0
LINE
  5
42E
330
1F
100
AcDbEntity
  8
0
  6
Continuous
 62
     7
370
    15
100
AcDbLine
 10
374.1163589893
 20
211.6856165177
 30
0.0
 11
360.5823351974
 21
203.8725908876
 31
0.0
  0
LINE
  5
42F
330
1F
100
AcDbEntity
  8
0
  6
Continuous
 62
     7
370
    15
100
AcDbLine
 10
360.5823351974
 20
203.8725908876
 30
0.0
 11
360.5823351974
 21
203.8746319285
 31
0.0
  0
LINE
  5
430
330
1F
100
AcDbEntity
  8
0
  6
Continuous
 62
     7
370
    15
100
AcDbLine
 10
360.5823351974
 20
203.8746319285
 30
0.0
 11
355.2790343385
 21
200.8131015091
 31
0.0
  0
LWPOLYLINE
  5
431
330
1F
100
AcDbEntity
  8
0
  6
Continuous
 62
     7
370
    15
100
AcDbPolyline
 90
       27
 70
   128
 43
0.0
 10
369.3327816145
 20
217.1936303891
 10
369.3713076857
 20
217.5822666544
 10
369.4846469039
 20
217.9927980475
 10
369.6662124058
 20
218.401365976
 10
369.9054522645
 20
218.7842259572
 10
370.1884627288
 20
219.1191275605
 10
370.4987962593
 20
219.3866075219
 10
370.8184173992
 20
219.5711208786
 10
371.1287509298
 20
219.6619443847
 10
371.4117613941
 20
219.6537997083
 10
371.6510012527
 20
219.5471601884
 10
371.8325667546
 20
219.3482233262
 10
371.9459059728
 20
219.0685506091
 10
371.984432044
 20
218.7243955988
 10
371.9459059728
 20
218.3357593336
 10
371.8325667546
 20
217.9252279405
 10
371.6510012527
 20
217.5166600119
 10
371.4117613941
 20
217.1338000307
 10
371.1287509298
 20
216.7988984275
 10
370.8184173992
 20
216.531418466
 10
370.4987962593
 20
216.3469051094
 10
370.1884627288
 20
216.2560816032
 10
369.9054522645
 20
216.2642262796
 10
369.6662124058
 20
216.3708657995
 10
369.4846469039
 20
216.5698026617
 10
369.3713076857
 20
216.8494753788
 10
369.3327816145
 20
217.1936303891
  0
LWPOLYLINE
  5
432
330
1F
100
AcDbEntity
  8
0
  6
Continuous
 62
     7
370
    15
100
AcDbPolyline
 90
       27
 70
   128
 43
0.0
 10
382.5910337618
 20
224.8474564375
 10
382.6295598329
 20
225.2360927027
 10
382.7428990512
 20
225.6466240958
 10
382.9244645531
 20
226.0551920244
 10
383.1637044117
 20
226.4380520055
 10
383.446714876
 20
226.7729536088
 10
383.7570484065
 20
227.0404335703
 10
384.0766695465
 20
227.2249469269
 10
384.387003077
 20
227.3157704331
 10
384.6700135413
 20
227.3076257567
 10
384.9092533999
 20
227.2009862367
 10
385.0908189019
 20
227.0020493746
 10
385.2041581201
 20
226.7223766574
 10
385.2426841912
 20
226.3782216471
 10
385.2041581201
 20
225.9895853819
 10
385.0908189019
 20
225.5790539888
 10
384.9092533999
 20
225.1704860602
 10
384.6700135413
 20
224.7876260791
 10
384.387003077
 20
224.4527244758
 10
384.0766695465
 20
224.1852445143
 10
383.7570484065
 20
224.0007311577
 10
383.446714876
 20
223.9099076516
 10
383.1637044117
 20
223.9180523279
 10
382.9244645531
 20
224.0246918479
 10
382.7428990512
 20
224.22362871
 10
382.6295598329
 20
224.5033014272
 10
382.5910337618
 20
224.8474564375
  0
LWPOLYLINE
  5
433
330
1F
100
AcDbEntity
  8
0
  6
Continuous
 62
     7
370
    15
100
AcDbPolyline
 90
       27
 70
   128
 43
0.0
 10
395.849285909
 20
232.5012824858
 10
395.8878119802
 20
232.8899187511
 10
396.0011511984
 20
233.3004501441
 10
396.1827167003
 20
233.7090180727
 10
396.4219565589
 20
234.0918780539
 10
396.7049670233
 20
234.4267796571
 10
397.0153005538
 20
234.6942596186
 10
397.3349216937
 20
234.8787729752
 10
397.6452552243
 20
234.9695964814
 10
397.9282656886
 20
234.961451805
 10
398.1675055472
 20
234.8548122851
 10
398.3490710491
 20
234.6558754229
 10
398.4624102673
 20
234.3762027058
 10
398.5009363385
 20
234.0320476955
 10
398.4624102673
 20
233.6434114302
 10
398.3490710491
 20
233.2328800371
 10
398.1675055472
 20
232.8243121086
 10
397.9282656886
 20
232.4414521274
 10
397.6452552243
 20
232.1065505242
 10
397.3349216937
 20
231.8390705627
 10
397.0153005538
 20
231.654557206
 10
396.7049670233
 20
231.5637336999
 10
396.4219565589
 20
231.5718783763
 10
396.1827167003
 20
231.6785178962
 10
396.0011511984
 20
231.8774547584
 10
395.8878119802
 20
232.1571274755
 10
395.849285909
 20
232.5012824858
  0
LWPOLYLINE
  5
434
330
1F
100
AcDbEntity
  8
0
  6
Continuous
 62
     7
370
    15
100
AcDbPolyline
 90
       27
 70
   128
 43
0.0
 10
382.5910337618
 20
209.5373162146
 10
382.6295598329
 20
209.9259524799
 10
382.7428990512
 20
210.3364838729
 10
382.9244645531
 20
210.7450518015
 10
383.1637044117
 20
211.1279117827
 10
383.446714876
 20
211.4628133859
 10
383.7570484065
 20
211.7302933474
 10
384.0766695465
 20
211.9148067041
 10
384.387003077
 20
212.0056302102
 10
384.6700135413
 20
211.9974855338
 10
384.9092533999
 20
211.8908460139
 10
385.0908189019
 20
211.6919091517
 10
385.2041581201
 20
211.4122364346
 10
385.2426841912
 20
211.0680814243
 10
385.2041581201
 20
210.679445159
 10
385.0908189019
 20
210.2689137659
 10
384.9092533999
 20
209.8603458374
 10
384.6700135413
 20
209.4774858562
 10
384.387003077
 20
209.142584253
 10
384.0766695465
 20
208.8751042915
 10
383.7570484065
 20
208.6905909348
 10
383.446714876
 20
208.5997674287
 10
383.1637044117
 20
208.6079121051
 10
382.9244645531
 20
208.714551625
 10
382.7428990512
 20
208.9134884872
 10
382.6295598329
 20
209.1931612043
 10
382.5910337618
 20
209.5373162146
  0
LWPOLYLINE
  5
435
330
1F
100
AcDbEntity
  8
0
  6
Continuous
 62
     7
370
    15
100
AcDbPolyline
 90
        9
 70
   128
 43
0.0
 10
360.5823351974
 20
203.8746319285
 10
360.5822625766
 20
203.8744187182
 10
360.5821899533
 20
203.8742055103
 10
360.5821173277
 20
203.8739923047
 10
360.5820446996
 20
203.8737791014
 10
360.5819720691
 20
203.8735659005
 10
360.5818994362
 20
203.8733527018
 10
360.5818268009
 20
203.8731395055
 10
360.5817541631
 20
203.8729263115
  0
LINE
  5
436
330
1F
100
AcDbEntity
  8
0
  6
Continuous
 62
     7
370
    15
100
AcDbLine
 10
360.5817541631
 20
203.8729263115
 30
0.0
 11
358.9907639055
 21
202.9544671857
 31
0.0
  0
ARC
  5
437
330
1F
100
AcDbEntity
  8
0
  6
Continuous
 62
     7
370
    15
100
AcDbCircle
 10
347.6334803805
 20
206.3624986579
 30
0.0
 40
11.85759535413591
100
AcDbArc
 50
301.5483285956
 51
343.2968383836
  0
LINE
  5
438
330
1F
100
AcDbEntity
  8
0
  6
Continuous
 62
     7
370
    15
100
AcDbLine
 10
360.5817541631
 20
203.8729263115
 30
0.0
 11
360.5823351974
 21
203.8725908876
 31
0.0
  0
ARC
  5
439
330
1F
100
AcDbEntity
  8
0
  6
Continuous
 62
     7
370
    15
100
AcDbCircle
 10
346.1080329392
 20
217.9097930918
 30
0.0
 40
14.5357366967756
100
AcDbArc
 50
230.434261442
 51
270.9832946411
  0
LINE
  5
43A
330
1F
100
AcDbEntity
  8
0
  6
Continuous
 62
     7
370
    15
100
AcDbLine
 10
376.5293573061
 20
207.5683022291
 30
0.0
 11
380.2416679073
 21
205.4252309355
 31
0.0
  0
LINE
  5
43B
330
1F
100
AcDbEntity
  8
0
  6
Continuous
 62
     7
370
    15
100
AcDbLine
 10
376.5293573061
 20
207.5683022291
 30
0.0
 11
373.7729180263
 21
211.4873522699
 31
0.0
  0
LWPOLYLINE
  5
43C
330
1F
100
AcDbEntity
  8
0
  6
Continuous
 62
     7
370
    15
100
AcDbPolyline
 90
        3
 70
   128
 43
0.0
 10
377.2036207068
 20
206.9431581304
 10
376.8605067813
 20
207.1927978172
 10
376.5293573061
 20
207.5683022291
  0
LINE
  5
43D
330
1F
100
AcDbEntity
  8
0
  6
Continuous
 62
     8
370
    15
100
AcDbLine
 10
348.6499082648
 20
230.9718111018
 30
0.0
 11
348.6499082648
 21
228.8287398082
 31
0.0
  0
LINE
  5
43E
330
1F
100
AcDbEntity
  8
0
  6
Continuous
 62
     8
370
    15
100
AcDbLine
 10
361.9081604121
 20
238.6256371501
 30
0.0
 11
361.9081604121
 21
234.339494563
 31
0.0
  0
LINE
  5
43F
330
1F
100
AcDbEntity
  8
0
  6
Continuous
 62
     8
370
    15
100
AcDbLine
 10
324.4389910746
 20
214.5426222656
 30
0.0
 11
327.0642043956
 21
216.0581256574
 31
0.0
  0
LINE
  5
440
330
1F
100
AcDbEntity
  8
0
  6
Continuous
 62
     8
370
    15
100
AcDbLine
 10
335.3916561176
 20
238.6256371501
 30
0.0
 11
335.3916561176
 21
236.4825658566
 31
0.0
  0
LINE
  5
441
330
1F
100
AcDbEntity
  8
0
  6
Continuous
 62
     8
370
    15
100
AcDbLine
 10
375.1726106145
 20
211.97023821
 30
0.0
 11
375.9566043873
 21
211.5176482386
 31
0.0
  0
LINE
  5
442
330
1F
100
AcDbEntity
  8
0
  6
Continuous
 62
     8
370
    15
100
AcDbLine
 10
348.6499082648
 20
246.2794631984
 30
0.0
 11
348.6499082648
 21
241.9933206114
 31
0.0
  0
LINE
  5
443
330
1F
100
AcDbEntity
  8
0
  6
Continuous
 62
     8
370
    15
100
AcDbLine
 10
375.1664125593
 20
246.2794631984
 30
0.0
 11
375.1664125593
 21
244.1363919049
 31
0.0
  0
LINE
  5
444
330
1F
100
AcDbEntity
  8
0
  6
Continuous
 62
     8
370
    15
100
AcDbLine
 10
388.4246647066
 20
253.9332892468
 30
0.0
 11
388.4246647066
 21
249.6471466597
 31
0.0
  0
LINE
  5
445
330
1F
100
AcDbEntity
  8
0
  6
Continuous
 62
     8
370
    15
100
AcDbLine
 10
361.9081604121
 20
253.9332892468
 30
0.0
 11
361.9081604121
 21
251.7902179532
 31
0.0
  0
LINE
  5
446
330
1F
100
AcDbEntity
  8
0
  6
Continuous
 62
     8
370
    15
100
AcDbLine
 10
375.1664125593
 20
261.5871152951
 30
0.0
 11
375.1664125593
 21
257.300972708
 31
0.0
  0
ENDSEC
  0
SECTION
  2
OBJECTS
  0
DICTIONARY
  5
C
330
0
100
AcDbDictionary
281
     1
  3
ACAD_GROUP
350
D
  3
ACAD_LAYOUT
350
1A
  3
ACAD_MLINESTYLE
350
17
  3
ACAD_PLOTSETTINGS
350
19
  3
ACAD_PLOTSTYLENAME
350
E
  3
ACAD_SCALELIST
350
47
  0
DICTIONARY
  5
D
102
{ACAD_REACTORS
330
C
102
}
330
C
100
AcDbDictionary
281
     1
  0
DICTIONARY
  5
1A
102
{ACAD_REACTORS
330
C
102
}
330
C
100
AcDbDictionary
281
     1
  3
Layout1
350
1E
  3
Layout2
350
26
  3
Model
350
22
  0
DICTIONARY
  5
17
102
{ACAD_REACTORS
330
C
102
}
330
C
100
AcDbDictionary
281
     1
  3
Standard
350
18
  0
DICTIONARY
  5
19
102
{ACAD_REACTORS
330
C
102
}
330
C
100
AcDbDictionary
281
     1
  0
ACDBDICTIONARYWDFLT
  5
E
102
{ACAD_REACTORS
330
C
102
}
330
C
100
AcDbDictionary
281
     1
  3
Normal
350
F
100
AcDbDictionaryWithDefault
340
F
  0
DICTIONARY
  5
47
102
{ACAD_REACTORS
330
C
102
}
330
C
100
AcDbDictionary
281
     1
  3
A0
350
48
  3
A1
350
49
  3
A2
350
4A
  3
A3
350
4B
  3
A4
350
4C
  3
A5
350
4D
  3
A6
350
4E
  3
A7
350
4F
  3
A8
350
50
  3
A9
350
51
  3
B0
350
52
  3
B1
350
53
  3
B2
350
54
  3
B3
350
55
  3
B4
350
56
  3
B5
350
57
  3
B6
350
58
  3
B7
350
59
  3
B8
350
5A
  3
B9
350
5B
  3
C0
350
5C
  3
C1
350
5D
  3
C2
350
5E
  3
C3
350
5F
  3
C4
350
60
  3
C5
350
61
  3
C6
350
62
  3
C7
350
63
  3
C8
350
64
  3
C9
350
65
  3
D0
350
66
  3
D1
350
67
  3
D2
350
68
  0
LAYOUT
  5
1E
102
{ACAD_REACTORS
330
1A
102
}
330
1A
100
AcDbPlotSettings
  1

  2
none_device
  4

  6

 40
0.0
 41
0.0
 42
0.0
 43
0.0
 44
0.0
 45
0.0
 46
0.0
 47
0.0
 48
0.0
 49
0.0
140
0.0
141
0.0
142
1.0
143
1.0
 70
   688
 72
     1
 73
     0
 74
     5
  7

 75
    16
147
1.0
148
0.0
149
0.0
100
AcDbLayout
  1
Layout1
 70
     1
 71
     1
 10
0.0
 20
0.0
 11
420.0
 21
297.0
 12
0.0
 22
0.0
 32
0.0
 14
1.0000000000E+20
 24
1.0000000000E+20
 34
1.0000000000E+20
 15
-1.0000000000E+20
 25
-1.0000000000E+20
 35
-1.0000000000E+20
146
0.0
 13
0.0
 23
0.0
 33
0.0
 16
1.0
 26
0.0
 36
0.0
 17
0.0
 27
1.0
 37
0.0
 76
     0
330
1B
  0
LAYOUT
  5
26
102
{ACAD_REACTORS
330
1A
102
}
330
1A
100
AcDbPlotSettings
  1

  2
none_device
  4

  6

 40
0.0
 41
0.0
 42
0.0
 43
0.0
 44
0.0
 45
0.0
 46
0.0
 47
0.0
 48
0.0
 49
0.0
140
0.0
141
0.0
142
1.0
143
1.0
 70
   688
 72
     1
 73
     0
 74
     5
  7

 75
    16
147
1.0
148
0.0
149
0.0
100
AcDbLayout
  1
Layout2
 70
     1
 71
     2
 10
0.0
 20
0.0
 11
0.0
 21
0.0
 12
0.0
 22
0.0
 32
0.0
 14
0.0
 24
0.0
 34
0.0
 15
0.0
 25
0.0
 35
0.0
146
0.0
 13
0.0
 23
0.0
 33
0.0
 16
1.0
 26
0.0
 36
0.0
 17
0.0
 27
1.0
 37
0.0
 76
     0
330
23
  0
LAYOUT
  5
22
102
{ACAD_REACTORS
330
1A
102
}
330
1A
100
AcDbPlotSettings
  1

  2
none_device
  4
Letter_(8.50_x_11.00_Inches)
  6

 40
6.35
 41
6.35
 42
6.35000508
 43
6.35000508
 44
215.9
 45
279.4
 46
0.0
 47
0.0
 48
0.0
 49
0.0
140
0.0
141
0.0
142
1.0
143
1.0
 70
  1712
 72
     1
 73
     0
 74
     0
  7

 75
     0
147
1.0
148
0.0
149
0.0
100
AcDbLayout
  1
Model
 70
     1
 71
     0
 10
0.0
 20
0.0
 11
445.5
 21
315.0
 12
0.0
 22
0.0
 32
0.0
 14
0.0
 24
0.0
 34
0.0
 15
445.5
 25
315.0
 35
0.0
146
0.0
 13
0.0
 23
0.0
 33
0.0
 16
1.0
 26
0.0
 36
0.0
 17
0.0
 27
1.0
 37
0.0
 76
     0
330
1F
331
29
  0
MLINESTYLE
  5
18
102
{ACAD_REACTORS
330
17
102
}
330
17
100
AcDbMlineStyle
  2
Standard
 70
     0
  3

 62
   256
 51
90.0
 52
90.0
 71
     2
 49
0.5
 62
   256
  6
BYLAYER
 49
-0.5
 62
   256
  6
BYLAYER
  0
ACDBPLACEHOLDER
  5
F
102
{ACAD_REACTORS
330
E
102
}
330
E
  0
SCALE
  5
48
102
{ACAD_REACTORS
330
47
102
}
330
47
100
AcDbScale
 70
     0
300
1:1
140
1.0
141
1.0
290
     1
  0
SCALE
  5
49
102
{ACAD_REACTORS
330
47
102
}
330
47
100
AcDbScale
 70
     0
300
1:2
140
1.0
141
2.0
290
     0
  0
SCALE
  5
4A
102
{ACAD_REACTORS
330
47
102
}
330
47
100
AcDbScale
 70
     0
300
1:4
140
1.0
141
4.0
290
     0
  0
SCALE
  5
4B
102
{ACAD_REACTORS
330
47
102
}
330
47
100
AcDbScale
 70
     0
300
1:5
140
1.0
141
5.0
290
     0
  0
SCALE
  5
4C
102
{ACAD_REACTORS
330
47
102
}
330
47
100
AcDbScale
 70
     0
300
1:8
140
1.0
141
8.0
290
     0
  0
SCALE
  5
4D
102
{ACAD_REACTORS
330
47
102
}
330
47
100
AcDbScale
 70
     0
300
1:10
140
1.0
141
10.0
290
     0
  0
SCALE
  5
4E
102
{ACAD_REACTORS
330
47
102
}
330
47
100
AcDbScale
 70
     0
300
1:16
140
1.0
141
16.0
290
     0
  0
SCALE
  5
4F
102
{ACAD_REACTORS
330
47
102
}
330
47
100
AcDbScale
 70
     0
300
1:20
140
1.0
141
20.0
290
     0
  0
SCALE
  5
50
102
{ACAD_REACTORS
330
47
102
}
330
47
100
AcDbScale
 70
     0
300
1:30
140
1.0
141
30.0
290
     0
  0
SCALE
  5
51
102
{ACAD_REACTORS
330
47
102
}
330
47
100
AcDbScale
 70
     0
300
1:40
140
1.0
141
40.0
290
     0
  0
SCALE
  5
52
102
{ACAD_REACTORS
330
47
102
}
330
47
100
AcDbScale
 70
     0
300
1:50
140
1.0
141
50.0
290
     0
  0
SCALE
  5
53
102
{ACAD_REACTORS
330
47
102
}
330
47
100
AcDbScale
 70
     0
300
1:100
140
1.0
141
100.0
290
     0
  0
SCALE
  5
54
102
{ACAD_REACTORS
330
47
102
}
330
47
100
AcDbScale
 70
     0
300
2:1
140
2.0
141
1.0
290
     0
  0
SCALE
  5
55
102
{ACAD_REACTORS
330
47
102
}
330
47
100
AcDbScale
 70
     0
300
4:1
140
4.0
141
1.0
290
     0
  0
SCALE
  5
56
102
{ACAD_REACTORS
330
47
102
}
330
47
100
AcDbScale
 70
     0
300
8:1
140
8.0
141
1.0
290
     0
  0
SCALE
  5
57
102
{ACAD_REACTORS
330
47
102
}
330
47
100
AcDbScale
 70
     0
300
10:1
140
10.0
141
1.0
290
     0
  0
SCALE
  5
58
102
{ACAD_REACTORS
330
47
102
}
330
47
100
AcDbScale
 70
     0
300
100:1
140
100.0
141
1.0
290
     0
  0
SCALE
  5
59
102
{ACAD_REACTORS
330
47
102
}
330
47
100
AcDbScale
 70
     0
300
1/128" = 1'-0"
140
0.0078125
141
12.0
290
     0
  0
SCALE
  5
5A
102
{ACAD_REACTORS
330
47
102
}
330
47
100
AcDbScale
 70
     0
300
1/64" = 1'-0"
140
0.015625
141
12.0
290
     0
  0
SCALE
  5
5B
102
{ACAD_REACTORS
330
47
102
}
330
47
100
AcDbScale
 70
     0
300
1/32" = 1'-0"
140
0.03125
141
12.0
290
     0
  0
SCALE
  5
5C
102
{ACAD_REACTORS
330
47
102
}
330
47
100
AcDbScale
 70
     0
300
1/16" = 1'-0"
140
0.0625
141
12.0
290
     0
  0
SCALE
  5
5D
102
{ACAD_REACTORS
330
47
102
}
330
47
100
AcDbScale
 70
     0
300
3/32" = 1'-0"
140
0.09375
141
12.0
290
     0
  0
SCALE
  5
5E
102
{ACAD_REACTORS
330
47
102
}
330
47
100
AcDbScale
 70
     0
300
1/8" = 1'-0"
140
0.125
141
12.0
290
     0
  0
SCALE
  5
5F
102
{ACAD_REACTORS
330
47
102
}
330
47
100
AcDbScale
 70
     0
300
3/16" = 1'-0"
140
0.1875
141
12.0
290
     0
  0
SCALE
  5
60
102
{ACAD_REACTORS
330
47
102
}
330
47
100
AcDbScale
 70
     0
300
1/4" = 1'-0"
140
0.25
141
12.0
290
     0
  0
SCALE
  5
61
102
{ACAD_REACTORS
330
47
102
}
330
47
100
AcDbScale
 70
     0
300
3/8" = 1'-0"
140
0.375
141
12.0
290
     0
  0
SCALE
  5
62
102
{ACAD_REACTORS
330
47
102
}
330
47
100
AcDbScale
 70
     0
300
1/2" = 1'-0"
140
0.5
141
12.0
290
     0
  0
SCALE
  5
63
102
{ACAD_REACTORS
330
47
102
}
330
47
100
AcDbScale
 70
     0
300
3/4" = 1'-0"
140
0.75
141
12.0
290
     0
  0
SCALE
  5
64
102
{ACAD_REACTORS
330
47
102
}
330
47
100
AcDbScale
 70
     0
300
1" = 1'-0"
140
1.0
141
12.0
290
     0
  0
SCALE
  5
65
102
{ACAD_REACTORS
330
47
102
}
330
47
100
AcDbScale
 70
     0
300
1-1/2" = 1'-0"
140
1.5
141
12.0
290
     0
  0
SCALE
  5
66
102
{ACAD_REACTORS
330
47
102
}
330
47
100
AcDbScale
 70
     0
300
3" = 1'-0"
140
3.0
141
12.0
290
     0
  0
SCALE
  5
67
102
{ACAD_REACTORS
330
47
102
}
330
47
100
AcDbScale
 70
     0
300
6" = 1'-0"
140
6.0
141
12.0
290
     0
  0
SCALE
  5
68
102
{ACAD_REACTORS
330
47
102
}
330
47
100
AcDbScale
 70
     0
300
1'-0" = 1'-0"
140
12.0
141
12.0
290
     0
  0
ENDSEC
  0
EOF
