  0
SECTION
  2
HEADER
  9
$ACADVER
  1
AC1015
  9
$ACADMAINTVER
 70
     6
  9
$DWGCODEPAGE
  3
ANSI_950
  9
$INSBASE
 10
0.0
 20
0.0
 30
0.0
  9
$EXTMIN
 10
0.0
 20
0.0
 30
0.0
  9
$EXTMAX
 10
445.5
 20
315.0
 30
0.0
  9
$LIMMIN
 10
0.0
 20
0.0
  9
$LIMMAX
 10
445.5
 20
315.0
  9
$ORTHOMODE
 70
     0
  9
$REGENMODE
 70
     1
  9
$FILLMODE
 70
     1
  9
$QTEXTMODE
 70
     0
  9
$MIRRTEXT
 70
     1
  9
$LTSCALE
 40
1.5
  9
$ATTMODE
 70
     1
  9
$TEXTSIZE
 40
5.2916666667
  9
$TRACEWID
 40
1.0
  9
$TEXTSTYLE
  7
STANDARD
  9
$CLAYER
  8
0
  9
$CELTYPE
  6
ByLayer
  9
$CECOLOR
 62
   256
  9
$CELTSCALE
 40
1.0
  9
$DISPSILH
 70
     0
  9
$DIMSCALE
 40
1.0
  9
$DIMASZ
 40
3.0
  9
$DIMEXO
 40
1.5
  9
$DIMDLI
 40
3.75
  9
$DIMRND
 40
0.0
  9
$DIMDLE
 40
0.0
  9
$DIMEXE
 40
1.5
  9
$DIMTP
 40
0.0
  9
$DIMTM
 40
0.0
  9
$DIMTXT
 40
3.75
  9
$DIMCEN
 40
2.5
  9
$DIMTSZ
 40
0.0
  9
$DIMTOL
 70
     0
  9
$DIMLIM
 70
     0
  9
$DIMTIH
 70
     1
  9
$DIMTOH
 70
     1
  9
$DIMSE1
 70
     0
  9
$DIMSE2
 70
     0
  9
$DIMTAD
 70
     1
  9
$DIMZIN
 70
     0
  9
$DIMBLK
  1

  9
$DIMASO
 70
     1
  9
$DIMSHO
 70
     1
  9
$DIMPOST
  1

  9
$DIMAPOST
  1

  9
$DIMALT
 70
     0
  9
$DIMALTD
 70
     3
  9
$DIMALTF
 40
0.0393700787
  9
$DIMLFAC
 40
1.0
  9
$DIMTOFL
 70
     1
  9
$DIMTVP
 40
0.0
  9
$DIMTIX
 70
     0
  9
$DIMSOXD
 70
     0
  9
$DIMSAH
 70
     0
  9
$DIMBLK1
  1

  9
$DIMBLK2
  1

  9
$DIMSTYLE
  2
ISO-25
  9
$DIMCLRD
 70
     0
  9
$DIMCLRE
 70
     0
  9
$DIMCLRT
 70
     0
  9
$DIMTFAC
 40
1.0
  9
$DIMGAP
 40
1.5
  9
$DIMJUST
 70
     0
  9
$DIMSD1
 70
     0
  9
$DIMSD2
 70
     0
  9
$DIMTOLJ
 70
     0
  9
$DIMTZIN
 70
     0
  9
$DIMALTZ
 70
     0
  9
$DIMALTTZ
 70
     0
  9
$DIMUPT
 70
     0
  9
$DIMDEC
 70
     2
  9
$DIMTDEC
 70
     2
  9
$DIMALTU
 70
     2
  9
$DIMALTTD
 70
     3
  9
$DIMTXSTY
  7
STANDARD
  9
$DIMAUNIT
 70
     0
  9
$DIMADEC
 70
     1
  9
$DIMALTRND
 40
0.0
  9
$DIMAZIN
 70
     0
  9
$DIMDSEP
 70
    44
  9
$DIMATFIT
 70
     3
  9
$DIMFRAC
 70
     0
  9
$DIMLDRBLK
  1

  9
$DIMLUNIT
 70
     2
  9
$DIMLWD
 70
    -2
  9
$DIMLWE
 70
    -2
  9
$DIMTMOVE
 70
     0
  9
$LUNITS
 70
     2
  9
$LUPREC
 70
     2
  9
$SKETCHINC
 40
1.0
  9
$FILLETRAD
 40
10.0
  9
$AUNITS
 70
     0
  9
$AUPREC
 70
     1
  9
$MENU
  1
.
  9
$ELEVATION
 40
0.0
  9
$PELEVATION
 40
0.0
  9
$THICKNESS
 40
0.0
  9
$LIMCHECK
 70
     0
  9
$CHAMFERA
 40
0.0
  9
$CHAMFERB
 40
0.0
  9
$CHAMFERC
 40
0.0
  9
$CHAMFERD
 40
0.0
  9
$SKPOLY
 70
     0
  9
$TDCREATE
 40
2457498.653238981
  9
$TDUCREATE
 40
2457498.319905648
  9
$TDUPDATE
 40
2457498.653245497
  9
$TDUUPDATE
 40
2457498.319912164
  9
$TDINDWG
 40
0.0000000116
  9
$TDUSRTIMER
 40
0.0000000116
  9
$USRTIMER
 70
     1
  9
$ANGBASE
 50
0.0
  9
$ANGDIR
 70
     0
  9
$PDMODE
 70
     0
  9
$PDSIZE
 40
-1.0
  9
$PLINEWID
 40
0.0
  9
$SPLFRAME
 70
     0
  9
$SPLINETYPE
 70
     6
  9
$SPLINESEGS
 70
     8
  9
$HANDSEED
  5
44B
  9
$SURFTAB1
 70
     6
  9
$SURFTAB2
 70
     6
  9
$SURFTYPE
 70
     6
  9
$SURFU
 70
     6
  9
$SURFV
 70
     6
  9
$UCSBASE
  2

  9
$UCSNAME
  2

  9
$UCSORG
 10
0.0
 20
0.0
 30
0.0
  9
$UCSXDIR
 10
1.0
 20
0.0
 30
0.0
  9
$UCSYDIR
 10
0.0
 20
1.0
 30
0.0
  9
$UCSORTHOREF
  2

  9
$UCSORTHOVIEW
 70
     0
  9
$UCSORGTOP
 10
0.0
 20
0.0
 30
0.0
  9
$UCSORGBOTTOM
 10
0.0
 20
0.0
 30
0.0
  9
$UCSORGLEFT
 10
0.0
 20
0.0
 30
0.0
  9
$UCSORGRIGHT
 10
0.0
 20
0.0
 30
0.0
  9
$UCSORGFRONT
 10
0.0
 20
0.0
 30
0.0
  9
$UCSORGBACK
 10
0.0
 20
0.0
 30
0.0
  9
$PUCSBASE
  2

  9
$PUCSNAME
  2

  9
$PUCSORG
 10
0.0
 20
0.0
 30
0.0
  9
$PUCSXDIR
 10
1.0
 20
0.0
 30
0.0
  9
$PUCSYDIR
 10
0.0
 20
1.0
 30
0.0
  9
$PUCSORTHOREF
  2

  9
$PUCSORTHOVIEW
 70
     0
  9
$PUCSORGTOP
 10
0.0
 20
0.0
 30
0.0
  9
$PUCSORGBOTTOM
 10
0.0
 20
0.0
 30
0.0
  9
$PUCSORGLEFT
 10
0.0
 20
0.0
 30
0.0
  9
$PUCSORGRIGHT
 10
0.0
 20
0.0
 30
0.0
  9
$PUCSORGFRONT
 10
0.0
 20
0.0
 30
0.0
  9
$PUCSORGBACK
 10
0.0
 20
0.0
 30
0.0
  9
$USERI1
 70
     0
  9
$USERI2
 70
     0
  9
$USERI3
 70
     0
  9
$USERI4
 70
     0
  9
$USERI5
 70
     0
  9
$USERR1
 40
0.0
  9
$USERR2
 40
0.0
  9
$USERR3
 40
0.0
  9
$USERR4
 40
0.0
  9
$USERR5
 40
0.0
  9
$WORLDVIEW
 70
     1
  9
$SHADEDGE
 70
     3
  9
$SHADEDIF
 70
    70
  9
$TILEMODE
 70
     1
  9
$MAXACTVP
 70
    64
  9
$PINSBASE
 10
0.0
 20
0.0
 30
0.0
  9
$PLIMCHECK
 70
     0
  9
$PEXTMIN
 10
1.0000000000E+20
 20
1.0000000000E+20
 30
1.0000000000E+20
  9
$PEXTMAX
 10
-1.0000000000E+20
 20
-1.0000000000E+20
 30
-1.0000000000E+20
  9
$PLIMMIN
 10
0.0
 20
0.0
  9
$PLIMMAX
 10
420.0
 20
297.0
  9
$UNITMODE
 70
     0
  9
$VISRETAIN
 70
     1
  9
$PLINEGEN
 70
     0
  9
$PSLTSCALE
 70
     1
  9
$TREEDEPTH
 70
  3020
  9
$CMLSTYLE
  2
Standard
  9
$CMLJUST
 70
     0
  9
$CMLSCALE
 40
20.0
  9
$PROXYGRAPHICS
 70
     1
  9
$MEASUREMENT
 70
     1
  9
$CELWEIGHT
370
    -1
  9
$ENDCAPS
280
     0
  9
$JOINSTYLE
280
     0
  9
$LWDISPLAY
290
     1
  9
$INSUNITS
 70
     4
  9
$HYPERLINKBASE
  1

  9
$STYLESHEET
  1

  9
$XEDIT
290
     1
  9
$CEPSNTYPE
380
     0
  9
$PSTYLEMODE
290
     1
  9
$FINGERPRINTGUID
  2
{69C3D15B-30BB-4557-96A8-EAE1BB760730}
  9
$VERSIONGUID
  2
{FAEB1C32-E019-11D5-929B-00C0DF256EC4}
  9
$EXTNAMES
290
     1
  9
$PSVPSCALE
 40
0.0
  9
$OLESTARTUP
290
     0
  0
ENDSEC
  0
SECTION
  2
CLASSES
  0
CLASS
  1
ACDBDICTIONARYWDFLT
  2
AcDbDictionaryWithDefault
  3
ObjectDBX Classes
 90
        0
280
     0
281
     0
  0
CLASS
  1
VISUALSTYLE
  2
AcDbVisualStyle
  3
ObjectDBX Classes
 90
     4095
280
     0
281
     0
  0
CLASS
  1
MATERIAL
  2
AcDbMaterial
  3
ObjectDBX Classes
 90
     1153
280
     0
281
     0
  0
CLASS
  1
SCALE
  2
AcDbScale
  3
ObjectDBX Classes
 90
     1153
280
     0
281
     0
  0
CLASS
  1
TABLESTYLE
  2
AcDbTableStyle
  3
ObjectDBX Classes
 90
     4095
280
     0
281
     0
  0
CLASS
  1
MLEADERSTYLE
  2
AcDbMLeaderStyle
  3
ACDB_MLEADERSTYLE_CLASS
 90
     4095
280
     0
281
     0
  0
CLASS
  1
SUN
  2
AcDbSun
  3
SCENEOE
 90
     1153
280
     0
281
     0
  0
CLASS
  1
ACDBPLACEHOLDER
  2
AcDbPlaceHolder
  3
ObjectDBX Classes
 90
        0
280
     0
281
     0
  0
CLASS
  1
LAYOUT
  2
AcDbLayout
  3
ObjectDBX Classes
 90
        0
280
     0
281
     0
  0
ENDSEC
  0
SECTION
  2
TABLES
  0
TABLE
  2
VPORT
  5
8
330
0
100
AcDbSymbolTable
 70
     1
  0
VPORT
  5
29
330
8
100
AcDbSymbolTableRecord
100
AcDbViewportTableRecord
  2
*Active
 70
     0
 10
0.0
 20
0.0
 11
1.0
 21
1.0
 12
222.75
 22
157.5
 13
0.0
 23
0.0
 14
10.0
 24
10.0
 15
10.0
 25
10.0
 16
0.0
 26
0.0
 36
1.0
 17
0.0
 27
0.0
 37
0.0
 40
315.0
 41
1.4142857143
 42
50.0
 43
0.0
 44
0.0
 50
0.0
 51
0.0
 71
     0
 72
  2000
 73
     1
 74
     3
 75
     0
 76
     0
 77
     0
 78
     0
281
     0
 65
     1
110
0.0
120
0.0
130
0.0
111
1.0
121
0.0
131
0.0
112
0.0
122
1.0
132
0.0
 79
     0
146
0.0
  0
ENDTAB
  0
TABLE
  2
LTYPE
  5
5
330
0
100
AcDbSymbolTable
 70
     6
  0
LTYPE
  5
14
330
5
100
AcDbSymbolTableRecord
100
AcDbLinetypeTableRecord
  2
ByBlock
 70
     0
  3

 72
    65
 73
     0
 40
0.0
  0
LTYPE
  5
15
330
5
100
AcDbSymbolTableRecord
100
AcDbLinetypeTableRecord
  2
ByLayer
 70
     0
  3

 72
    65
 73
     0
 40
0.0
  0
LTYPE
  5
16
330
5
100
AcDbSymbolTableRecord
100
AcDbLinetypeTableRecord
  2
Continuous
 70
     0
  3
Solid line
 72
    65
 73
     0
 40
0.0
  0
LTYPE
  5
6E
330
5
100
AcDbSymbolTableRecord
100
AcDbLinetypeTableRecord
  2
HIDDEN
 70
     0
  3
Hidden __ __ __ __ __ __ __ __ __ __ __ __ __ __
 72
    65
 73
     2
 40
1.905
 49
1.27
 74
     0
 49
-0.635
 74
     0
  0
LTYPE
  5
6F
330
5
100
AcDbSymbolTableRecord
100
AcDbLinetypeTableRecord
  2
PHANTOM
 70
     0
  3
Phantom ______  __  __  ______  __  __  ______
 72
    65
 73
     6
 40
12.7
 49
6.35
 74
     0
 49
-1.27
 74
     0
 49
1.27
 74
     0
 49
-1.27
 74
     0
 49
1.27
 74
     0
 49
-1.27
 74
     0
  0
LTYPE
  5
70
330
5
100
AcDbSymbolTableRecord
100
AcDbLinetypeTableRecord
  2
CENTER
 70
     0
  3
Center ____ _ ____ _ ____ _ ____ _ ____ _ ____
 72
    65
 73
     4
 40
10.16
 49
6.35
 74
     0
 49
-1.27
 74
     0
 49
1.27
 74
     0
 49
-1.27
 74
     0
  0
LTYPE
  5
71
330
5
100
AcDbSymbolTableRecord
100
AcDbLinetypeTableRecord
  2
CENTERX2
 70
     0
  3
Center (2x) ________  __  ________  __  _____
 72
    65
 73
     4
 40
20.32
 49
12.7
 74
     0
 49
-2.54
 74
     0
 49
2.54
 74
     0
 49
-2.54
 74
     0
  0
LTYPE
  5
72
330
5
100
AcDbSymbolTableRecord
100
AcDbLinetypeTableRecord
  2
DOT2
 70
     0
  3
Dot (.5x) ........................................
 72
    65
 73
     2
 40
0.635
 49
0.0
 74
     0
 49
-0.635
 74
     0
  0
ENDTAB
  0
TABLE
  2
LAYER
  5
2
330
0
100
AcDbSymbolTable
 70
    10
  0
LAYER
  5
10
330
2
100
AcDbSymbolTableRecord
100
AcDbLayerTableRecord
  2
0
 70
     0
 62
     7
  6
Continuous
370
    -3
390
F
  0
LAYER
  5
73
330
2
100
AcDbSymbolTableRecord
100
AcDbLayerTableRecord
  2
SLD-0
 70
     0
 62
   179
  6
Continuous
370
    15
390
F
  0
LAYER
  5
74
330
2
100
AcDbSymbolTableRecord
100
AcDbLayerTableRecord
  2
輪廓線
 70
     0
 62
   219
  6
Continuous
370
    15
390
F
  0
LAYER
  5
75
330
2
100
AcDbSymbolTableRecord
100
AcDbLayerTableRecord
  2
DIM
 70
     0
 62
     7
  6
Continuous
370
    -3
390
F
  0
LAYER
  5
76
330
2
100
AcDbSymbolTableRecord
100
AcDbLayerTableRecord
  2
中心線
 70
     0
 62
     1
  6
CENTERX2
370
    -3
390
F
  0
LAYER
  5
77
330
2
100
AcDbSymbolTableRecord
100
AcDbLayerTableRecord
  2
虛線
 70
     0
 62
     6
  6
HIDDEN
370
    -3
390
F
  0
LAYER
  5
78
330
2
100
AcDbSymbolTableRecord
100
AcDbLayerTableRecord
  2
SECTION
 70
     0
 62
     5
  6
PHANTOM
370
    15
390
F
  0
LAYER
  5
79
330
2
100
AcDbSymbolTableRecord
100
AcDbLayerTableRecord
  2
假想線
 70
     0
 62
     5
  6
PHANTOM
370
    -3
390
F
  0
LAYER
  5
7A
330
2
100
AcDbSymbolTableRecord
100
AcDbLayerTableRecord
  2
工作區域參考線
 70
     0
 62
   179
  6
Continuous
370
    -3
390
F
  0
LAYER
  5
7B
330
2
100
AcDbSymbolTableRecord
100
AcDbLayerTableRecord
  2
圖層_1
 70
     0
 62
   179
  6
Continuous
370
    -3
390
F
  0
ENDTAB
  0
TABLE
  2
STYLE
  5
3
330
0
100
AcDbSymbolTable
 70
     5
  0
STYLE
  5
11
330
3
100
AcDbSymbolTableRecord
100
AcDbTextStyleTableRecord
  2
STANDARD
 70
     0
 40
0.0
 41
1.0
 50
0.0
 71
     0
 42
5.2916666667
  3
ARIALBD.TTF
  4

1001
ACAD
1000
ARIAL
1071
 33554466
  0
STYLE
  5
7C
330
3
100
AcDbSymbolTableRecord
100
AcDbTextStyleTableRecord
  2
SLDTEXTSTYLE0
 70
     0
 40
0.0
 41
1.0
 50
0.0
 71
     0
 42
2.5
  3
ARIAL.TTF
  4

1001
ACAD
1000
Arial
1071
      290
  0
STYLE
  5
CD
330
3
100
AcDbSymbolTableRecord
100
AcDbTextStyleTableRecord
  2
SLDTEXTSTYLE1
 70
     0
 40
0.0
 41
0.948
 50
0.0
 71
     0
 42
5.2916666667
  3
ARIAL.TTF
  4

1001
ACAD
1000
Arial
1071
      290
  0
STYLE
  5
D6
330
3
100
AcDbSymbolTableRecord
100
AcDbTextStyleTableRecord
  2
SLDTEXTSTYLE2
 70
     0
 40
0.0
 41
1.0
 50
0.0
 71
     0
 42
5.2916666667
  3
ARIALBD.TTF
  4

1001
ACAD
1000
Arial CE
1071
 33554722
  0
STYLE
  5
104
330
3
100
AcDbSymbolTableRecord
100
AcDbTextStyleTableRecord
  2
SLDTEXTSTYLE3
 70
     0
 40
0.0
 41
0.948
 50
0.0
 71
     0
 42
5.2916666667
  3
ARIALBD.TTF
  4

1001
ACAD
1000
Arial
1071
 33554722
  0
ENDTAB
  0
TABLE
  2
VIEW
  5
6
330
0
100
AcDbSymbolTable
 70
     0
  0
ENDTAB
  0
TABLE
  2
UCS
  5
7
330
0
100
AcDbSymbolTable
 70
     0
  0
ENDTAB
  0
TABLE
  2
APPID
  5
9
330
0
100
AcDbSymbolTable
 70
     1
  0
APPID
  5
12
330
9
100
AcDbSymbolTableRecord
100
AcDbRegAppTableRecord
  2
ACAD
 70
     0
  0
ENDTAB
  0
TABLE
  2
DIMSTYLE
  5
A
330
0
100
AcDbSymbolTable
 70
     6
100
AcDbDimStyleTable
  0
DIMSTYLE
105
27
330
A
100
AcDbSymbolTableRecord
100
AcDbDimStyleTableRecord
  2
ISO-25
 70
     0
 41
2.5
 42
0.625
 43
3.75
 44
1.25
 73
     0
 74
     0
 77
     1
 78
     8
140
2.5
141
2.5
143
0.0393700787
147
0.625
171
     3
172
     1
178
     0
271
     2
272
     2
274
     3
278
    44
283
     0
284
     8
340
7C
  0
DIMSTYLE
105
12B
102
{ACAD_REACTORS
330
12A
330
135
330
13F
330
149
330
1D9
330
1E3
330
1ED
330
1F7
330
201
330
20B
330
215
330
21F
330
229
330
233
330
392
330
39C
330
3BA
102
}
330
A
100
AcDbSymbolTableRecord
100
AcDbDimStyleTableRecord
  2
SLDDIMSTYLE0
 70
     0
 41
3.0
 44
0.0
 45
0.000000001
 73
     0
 74
     0
 77
     1
 78
    12
 79
     3
140
3.75
147
0.9375
173
     1
178
     0
271
     2
272
     2
276
     2
284
    12
340
CD
  0
DIMSTYLE
105
23E
102
{ACAD_REACTORS
330
23D
330
3AF
102
}
330
A
100
AcDbSymbolTableRecord
100
AcDbDimStyleTableRecord
  2
SLDDIMSTYLE1
 70
     0
 41
3.0
 44
0.0
 45
0.000000001
 78
    12
 79
     3
140
3.75
141
0.0
147
0.9375
173
     1
178
     0
271
     2
272
     2
276
     2
284
    12
340
CD
  0
DIMSTYLE
105
24A
102
{ACAD_REACTORS
330
249
330
3A6
102
}
330
A
100
AcDbSymbolTableRecord
100
AcDbDimStyleTableRecord
  2
SLDDIMSTYLE2
 70
     0
  3
<>
 41
3.0
 44
0.0
 45
0.000000001
 78
    12
 79
     3
140
3.75
141
0.0
147
0.9375
173
     1
178
     0
271
     2
272
     2
276
     2
284
    12
340
CD
  0
DIMSTYLE
105
37E
102
{ACAD_REACTORS
330
37D
330
388
102
}
330
A
100
AcDbSymbolTableRecord
100
AcDbDimStyleTableRecord
  2
SLDDIMSTYLE3
 70
     0
 41
3.0
 44
0.0
 73
     0
 74
     0
 77
     1
 78
    12
 79
     3
140
3.75
144
1.5
147
0.9375
173
     1
178
     0
179
     1
272
     1
276
     2
284
    12
340
CD
  0
DIMSTYLE
105
3C5
102
{ACAD_REACTORS
330
3C4
102
}
330
A
100
AcDbSymbolTableRecord
100
AcDbDimStyleTableRecord
  2
SLDDIMSTYLE4
 70
     0
 41
3.0
 44
0.0
 45
0.000000001
 73
     0
 74
     0
 77
     1
 78
    12
 79
     3
140
3.75
147
0.9375
173
     1
178
     0
271
     1
272
     1
276
     2
284
    12
340
CD
  0
ENDTAB
  0
TABLE
  2
BLOCK_RECORD
  5
1
330
0
100
AcDbSymbolTable
 70
    56
  0
BLOCK_RECORD
  5
1F
330
1
100
AcDbSymbolTableRecord
100
AcDbBlockTableRecord
  2
*Model_Space
340
22
  0
BLOCK_RECORD
  5
1B
330
1
100
AcDbSymbolTableRecord
100
AcDbBlockTableRecord
  2
*Paper_Space
340
1E
  0
BLOCK_RECORD
  5
23
330
1
100
AcDbSymbolTableRecord
100
AcDbBlockTableRecord
  2
*Paper_Space0
340
26
  0
BLOCK_RECORD
  5
CF
330
1
100
AcDbSymbolTableRecord
100
AcDbBlockTableRecord
  2
SW_NOTE_0
340
0
102
{BLKREFS
331
D5
102
}
  0
BLOCK_RECORD
  5
107
330
1
100
AcDbSymbolTableRecord
100
AcDbBlockTableRecord
  2
SW_NOTE_1
340
0
102
{BLKREFS
331
10C
102
}
  0
BLOCK_RECORD
  5
121
330
1
100
AcDbSymbolTableRecord
100
AcDbBlockTableRecord
  2
SW_RADIAL_DIMENSION_0
340
0
102
{BLKREFS
331
129
102
}
  0
BLOCK_RECORD
  5
12C
330
1
100
AcDbSymbolTableRecord
100
AcDbBlockTableRecord
  2
_D
340
0
  0
BLOCK_RECORD
  5
136
330
1
100
AcDbSymbolTableRecord
100
AcDbBlockTableRecord
  2
_D_1
340
0
  0
BLOCK_RECORD
  5
140
330
1
100
AcDbSymbolTableRecord
100
AcDbBlockTableRecord
  2
_D_2
340
0
  0
BLOCK_RECORD
  5
14A
330
1
100
AcDbSymbolTableRecord
100
AcDbBlockTableRecord
  2
_D_3
340
0
  0
BLOCK_RECORD
  5
153
330
1
100
AcDbSymbolTableRecord
100
AcDbBlockTableRecord
  2
SW_CENTERMARKSYMBOL_0
340
0
102
{BLKREFS
331
15E
102
}
  0
BLOCK_RECORD
  5
15F
330
1
100
AcDbSymbolTableRecord
100
AcDbBlockTableRecord
  2
SW_CENTERMARKSYMBOL_1
340
0
102
{BLKREFS
331
16A
102
}
  0
BLOCK_RECORD
  5
16B
330
1
100
AcDbSymbolTableRecord
100
AcDbBlockTableRecord
  2
SW_CENTERMARKSYMBOL_2
340
0
102
{BLKREFS
331
176
102
}
  0
BLOCK_RECORD
  5
177
330
1
100
AcDbSymbolTableRecord
100
AcDbBlockTableRecord
  2
SW_CENTERMARKSYMBOL_3
340
0
102
{BLKREFS
331
182
102
}
  0
BLOCK_RECORD
  5
1DA
330
1
100
AcDbSymbolTableRecord
100
AcDbBlockTableRecord
  2
_D_4
340
0
  0
BLOCK_RECORD
  5
1E4
330
1
100
AcDbSymbolTableRecord
100
AcDbBlockTableRecord
  2
_D_5
340
0
  0
BLOCK_RECORD
  5
1EE
330
1
100
AcDbSymbolTableRecord
100
AcDbBlockTableRecord
  2
_D_6
340
0
  0
BLOCK_RECORD
  5
1F8
330
1
100
AcDbSymbolTableRecord
100
AcDbBlockTableRecord
  2
_D_7
340
0
  0
BLOCK_RECORD
  5
202
330
1
100
AcDbSymbolTableRecord
100
AcDbBlockTableRecord
  2
_D_8
340
0
  0
BLOCK_RECORD
  5
20C
330
1
100
AcDbSymbolTableRecord
100
AcDbBlockTableRecord
  2
_D_9
340
0
  0
BLOCK_RECORD
  5
216
330
1
100
AcDbSymbolTableRecord
100
AcDbBlockTableRecord
  2
_D_10
340
0
  0
BLOCK_RECORD
  5
220
330
1
100
AcDbSymbolTableRecord
100
AcDbBlockTableRecord
  2
_D_11
340
0
  0
BLOCK_RECORD
  5
22A
330
1
100
AcDbSymbolTableRecord
100
AcDbBlockTableRecord
  2
_D_12
340
0
  0
BLOCK_RECORD
  5
234
330
1
100
AcDbSymbolTableRecord
100
AcDbBlockTableRecord
  2
_D_13
340
0
  0
BLOCK_RECORD
  5
23F
330
1
100
AcDbSymbolTableRecord
100
AcDbBlockTableRecord
  2
_D_14
340
0
  0
BLOCK_RECORD
  5
24B
330
1
100
AcDbSymbolTableRecord
100
AcDbBlockTableRecord
  2
_D_15
340
0
  0
BLOCK_RECORD
  5
253
330
1
100
AcDbSymbolTableRecord
100
AcDbBlockTableRecord
  2
SW_CENTERMARKSYMBOL_4
340
0
102
{BLKREFS
331
25E
102
}
  0
BLOCK_RECORD
  5
25F
330
1
100
AcDbSymbolTableRecord
100
AcDbBlockTableRecord
  2
SW_CENTERMARKSYMBOL_5
340
0
102
{BLKREFS
331
26A
102
}
  0
BLOCK_RECORD
  5
26B
330
1
100
AcDbSymbolTableRecord
100
AcDbBlockTableRecord
  2
SW_CENTERMARKSYMBOL_6
340
0
102
{BLKREFS
331
276
102
}
  0
BLOCK_RECORD
  5
277
330
1
100
AcDbSymbolTableRecord
100
AcDbBlockTableRecord
  2
SW_CENTERMARKSYMBOL_7
340
0
102
{BLKREFS
331
282
102
}
  0
BLOCK_RECORD
  5
283
330
1
100
AcDbSymbolTableRecord
100
AcDbBlockTableRecord
  2
SW_CENTERMARKSYMBOL_8
340
0
102
{BLKREFS
331
28E
102
}
  0
BLOCK_RECORD
  5
28F
330
1
100
AcDbSymbolTableRecord
100
AcDbBlockTableRecord
  2
SW_CENTERMARKSYMBOL_9
340
0
102
{BLKREFS
331
29A
102
}
  0
BLOCK_RECORD
  5
29B
330
1
100
AcDbSymbolTableRecord
100
AcDbBlockTableRecord
  2
SW_CENTERMARKSYMBOL_10
340
0
102
{BLKREFS
331
2A6
102
}
  0
BLOCK_RECORD
  5
2A7
330
1
100
AcDbSymbolTableRecord
100
AcDbBlockTableRecord
  2
SW_CENTERMARKSYMBOL_11
340
0
102
{BLKREFS
331
2B2
102
}
  0
BLOCK_RECORD
  5
2B3
330
1
100
AcDbSymbolTableRecord
100
AcDbBlockTableRecord
  2
SW_CENTERMARKSYMBOL_12
340
0
102
{BLKREFS
331
2BE
102
}
  0
BLOCK_RECORD
  5
2BF
330
1
100
AcDbSymbolTableRecord
100
AcDbBlockTableRecord
  2
SW_CENTERMARKSYMBOL_13
340
0
102
{BLKREFS
331
2CA
102
}
  0
BLOCK_RECORD
  5
2CB
330
1
100
AcDbSymbolTableRecord
100
AcDbBlockTableRecord
  2
SW_CENTERMARKSYMBOL_14
340
0
102
{BLKREFS
331
2D6
102
}
  0
BLOCK_RECORD
  5
2D7
330
1
100
AcDbSymbolTableRecord
100
AcDbBlockTableRecord
  2
SW_CENTERMARKSYMBOL_15
340
0
102
{BLKREFS
331
2E2
102
}
  0
BLOCK_RECORD
  5
2E3
330
1
100
AcDbSymbolTableRecord
100
AcDbBlockTableRecord
  2
SW_CENTERMARKSYMBOL_16
340
0
102
{BLKREFS
331
2EE
102
}
  0
BLOCK_RECORD
  5
2EF
330
1
100
AcDbSymbolTableRecord
100
AcDbBlockTableRecord
  2
SW_CENTERMARKSYMBOL_17
340
0
102
{BLKREFS
331
2FA
102
}
  0
BLOCK_RECORD
  5
2FB
330
1
100
AcDbSymbolTableRecord
100
AcDbBlockTableRecord
  2
SW_CENTERMARKSYMBOL_18
340
0
102
{BLKREFS
331
306
102
}
  0
BLOCK_RECORD
  5
307
330
1
100
AcDbSymbolTableRecord
100
AcDbBlockTableRecord
  2
SW_CENTERMARKSYMBOL_19
340
0
102
{BLKREFS
331
312
102
}
  0
BLOCK_RECORD
  5
313
330
1
100
AcDbSymbolTableRecord
100
AcDbBlockTableRecord
  2
SW_CENTERMARKSYMBOL_20
340
0
102
{BLKREFS
331
31E
102
}
  0
BLOCK_RECORD
  5
31F
330
1
100
AcDbSymbolTableRecord
100
AcDbBlockTableRecord
  2
SW_CENTERMARKSYMBOL_21
340
0
102
{BLKREFS
331
32A
102
}
  0
BLOCK_RECORD
  5
32B
330
1
100
AcDbSymbolTableRecord
100
AcDbBlockTableRecord
  2
SW_CENTERMARKSYMBOL_22
340
0
102
{BLKREFS
331
336
102
}
  0
BLOCK_RECORD
  5
337
330
1
100
AcDbSymbolTableRecord
100
AcDbBlockTableRecord
  2
SW_CENTERMARKSYMBOL_23
340
0
102
{BLKREFS
331
342
102
}
  0
BLOCK_RECORD
  5
37F
330
1
100
AcDbSymbolTableRecord
100
AcDbBlockTableRecord
  2
_D_16
340
0
  0
BLOCK_RECORD
  5
389
330
1
100
AcDbSymbolTableRecord
100
AcDbBlockTableRecord
  2
_D_17
340
0
  0
BLOCK_RECORD
  5
393
330
1
100
AcDbSymbolTableRecord
100
AcDbBlockTableRecord
  2
_D_18
340
0
  0
BLOCK_RECORD
  5
39D
330
1
100
AcDbSymbolTableRecord
100
AcDbBlockTableRecord
  2
_D_19
340
0
  0
BLOCK_RECORD
  5
3A7
330
1
100
AcDbSymbolTableRecord
100
AcDbBlockTableRecord
  2
_D_20
340
0
  0
BLOCK_RECORD
  5
3B0
330
1
100
AcDbSymbolTableRecord
100
AcDbBlockTableRecord
  2
_D_21
340
0
  0
BLOCK_RECORD
  5
3BB
330
1
100
AcDbSymbolTableRecord
100
AcDbBlockTableRecord
  2
_D_22
340
0
  0
BLOCK_RECORD
  5
3C6
330
1
100
AcDbSymbolTableRecord
100
AcDbBlockTableRecord
  2
_D_23
340
0
  0
BLOCK_RECORD
  5
3CF
330
1
100
AcDbSymbolTableRecord
100
AcDbBlockTableRecord
  2
SW_CENTERMARKSYMBOL_24
340
0
102
{BLKREFS
331
3DA
102
}
  0
BLOCK_RECORD
  5
3DB
330
1
100
AcDbSymbolTableRecord
100
AcDbBlockTableRecord
  2
SW_CENTERMARKSYMBOL_25
340
0
102
{BLKREFS
331
3E6
102
}
  0
BLOCK_RECORD
  5
3E7
330
1
100
AcDbSymbolTableRecord
100
AcDbBlockTableRecord
  2
SW_CENTERMARKSYMBOL_26
340
0
102
{BLKREFS
331
3F2
102
}
  0
BLOCK_RECORD
  5
3F3
330
1
100
AcDbSymbolTableRecord
100
AcDbBlockTableRecord
  2
SW_CENTERMARKSYMBOL_27
340
0
102
{BLKREFS
331
3FE
102
}
  0
ENDTAB
  0
ENDSEC
  0
SECTION
  2
BLOCKS
  0
BLOCK
  5
20
330
1F
100
AcDbEntity
  8
0
100
AcDbBlockBegin
  2
*Model_Space
 70
     0
 10
0.0
 20
0.0
 30
0.0
  3
*Model_Space
  1

  0
ENDBLK
  5
21
330
1F
100
AcDbEntity
  8
0
100
AcDbBlockEnd
  0
BLOCK
  5
1C
330
1B
100
AcDbEntity
 67
     1
  8
0
100
AcDbBlockBegin
  2
*Paper_Space
 70
     0
 10
0.0
 20
0.0
 30
0.0
  3
*Paper_Space
  1

  0
ENDBLK
  5
1D
330
1B
100
AcDbEntity
 67
     1
  8
0
100
AcDbBlockEnd
  0
BLOCK
  5
24
330
23
100
AcDbEntity
  8
0
100
AcDbBlockBegin
  2
*Paper_Space0
 70
     0
 10
0.0
 20
0.0
 30
0.0
  3
*Paper_Space0
  1

  0
ENDBLK
  5
25
330
23
100
AcDbEntity
  8
0
100
AcDbBlockEnd
  0
BLOCK
  5
D0
330
CF
100
AcDbEntity
  8
0
100
AcDbBlockBegin
  2
SW_NOTE_0
 70
     0
 10
0.0
 20
0.0
 30
0.0
  3
SW_NOTE_0
  1

  0
MTEXT
  5
D2
330
CF
100
AcDbEntity
  8
0
  6
Continuous
 62
     0
370
     0
100
AcDbMText
 10
0.0
 20
5.1159875922
 30
0.0
 40
3.96875
 41
0.0
 71
     1
 72
     1
  1
PROPRIETARY AND CONFIDENTIAL
  7
SLDTEXTSTYLE1
 73
     1
 44
1.0
  0
MTEXT
  5
D3
330
CF
100
AcDbEntity
  8
0
  6
Continuous
 62
     0
370
     0
100
AcDbMText
 10
0.0
 20
-0.12297522
 30
0.0
 40
2.778125
 41
0.0
 71
     1
 72
     1
  1
THE INFORMATION CONTAINED IN THIS DRAWING IS THE SOLE PROPERTY OF UNICE E-O SERVICES INC. ANY REPRODUCTION IN PART OR AS A WHOLE WITHOUT THE WRITTEN PERMISSION OF UNICE E-O SERVICES INC IS 
  7
SLDTEXTSTYLE1
 73
     1
 44
1.0
  0
MTEXT
  5
D4
330
CF
100
AcDbEntity
  8
0
  6
Continuous
 62
     0
370
     0
100
AcDbMText
 10
0.0
 20
-3.8271418419
 30
0.0
 40
2.778125
 41
0.0
 71
     1
 72
     1
  1
PROHIBITED.
  7
SLDTEXTSTYLE1
 73
     1
 44
1.0
  0
ENDBLK
  5
D1
330
CF
100
AcDbEntity
  8
0
100
AcDbBlockEnd
  0
BLOCK
  5
108
330
107
100
AcDbEntity
  8
0
100
AcDbBlockBegin
  2
SW_NOTE_1
 70
     0
 10
0.0
 20
0.0
 30
0.0
  3
SW_NOTE_1
  1

  0
MTEXT
  5
10A
330
107
100
AcDbEntity
  8
DIM
 62
     0
100
AcDbMText
 10
0.0
 20
3.5811913146
 30
0.0
 40
2.778125
 41
0.0
 71
     1
 72
     1
  1
No.5, Andong Rd., Chung Li District,
  7
SLDTEXTSTYLE0
 73
     1
 44
1.0
  0
MTEXT
  5
10B
330
107
100
AcDbEntity
  8
DIM
 62
     0
100
AcDbMText
 10
0.0
 20
-0.1229753073
 30
0.0
 40
2.778125
 41
0.0
 71
     1
 72
     1
  1
Taoyuan City 32063, Taiwan, R.O.C.
  7
SLDTEXTSTYLE0
 73
     1
 44
1.0
  0
ENDBLK
  5
109
330
107
100
AcDbEntity
  8
0
100
AcDbBlockEnd
  0
BLOCK
  5
122
330
121
100
AcDbEntity
  8
0
100
AcDbBlockBegin
  2
SW_RADIAL_DIMENSION_0
 70
     0
 10
0.0
 20
0.0
 30
0.0
  3
SW_RADIAL_DIMENSION_0
  1

  0
SOLID
  5
124
330
121
100
AcDbEntity
  8
DIM
 62
     0
100
AcDbTrace
 10
44.8264879216
 20
-11.0495577826
 30
0.0
 11
42.0257675846
 21
-9.9108784625
 31
0.0
 12
41.8316533008
 22
-10.6353228322
 32
0.0
 13
41.8316533008
 23
-10.6353228322
 33
0.0
  0
LINE
  5
125
330
121
100
AcDbEntity
  8
DIM
 62
     0
100
AcDbLine
 10
44.8264879216
 20
-11.0495577826
 30
0.0
 11
25.0677079149
 21
-5.7552086364
 31
0.0
  0
LINE
  5
126
330
121
100
AcDbEntity
  8
DIM
 62
     0
100
AcDbLine
 10
25.0677079149
 20
-5.7552086364
 30
0.0
 11
0.0
 21
-5.7552086364
 31
0.0
  0
MTEXT
  5
127
330
121
100
AcDbEntity
  8
DIM
 62
     0
100
AcDbMText
 10
0.0
 20
4.8340040241
 30
0.0
 40
3.75
 41
0.0
 71
     1
 72
     1
  1
4 HOLES,
  7
SLDTEXTSTYLE1
 73
     1
 44
1.0
  0
MTEXT
  5
128
330
121
100
AcDbEntity
  8
DIM
 62
     0
100
AcDbMText
 10
0.0
 20
-0.9212041757
 30
0.0
 40
3.75
 41
0.0
 71
     1
 72
     1
  1
 1/4"-20
  7
SLDTEXTSTYLE1
 73
     1
 44
1.0
  0
ENDBLK
  5
123
330
121
100
AcDbEntity
  8
0
100
AcDbBlockEnd
  0
BLOCK
  5
12D
330
12C
100
AcDbEntity
  8
0
100
AcDbBlockBegin
  2
_D
 70
     0
 10
0.0
 20
0.0
 30
0.0
  3
_D
  1

  0
SOLID
  5
12F
330
12C
100
AcDbEntity
  8
DIM
 62
     7
100
AcDbTrace
 10
277.2835509736
 20
239.697414495
 30
0.0
 11
276.9085509736
 21
236.697414495
 31
0.0
 12
277.6585509736
 22
236.697414495
 32
0.0
 13
277.6585509736
 23
236.697414495
 33
0.0
  0
SOLID
  5
130
330
12C
100
AcDbEntity
  8
DIM
 62
     7
100
AcDbTrace
 10
277.2835509736
 20
214.297414495
 30
0.0
 11
277.6585509736
 21
217.297414495
 31
0.0
 12
276.9085509736
 22
217.297414495
 32
0.0
 13
276.9085509736
 23
217.297414495
 33
0.0
  0
LINE
  5
131
330
12C
100
AcDbEntity
  8
DIM
 62
     7
100
AcDbLine
 10
252.647909371
 20
239.697414495
 30
0.0
 11
278.7835509736
 21
239.697414495
 31
0.0
  0
LINE
  5
132
330
12C
100
AcDbEntity
  8
DIM
 62
     7
100
AcDbLine
 10
252.647909371
 20
214.297414495
 30
0.0
 11
278.7835509736
 21
214.297414495
 31
0.0
  0
LINE
  5
133
330
12C
100
AcDbEntity
  8
DIM
 62
     7
100
AcDbLine
 10
277.2835509736
 20
239.697414495
 30
0.0
 11
277.2835509736
 21
214.297414495
 31
0.0
  0
MTEXT
  5
134
330
12C
100
AcDbEntity
  8
DIM
 62
     7
100
AcDbMText
 10
272.4495472114
 20
221.9843937859
 30
0.0
 40
3.75
 41
0.0
 71
     1
 72
     1
  1
25.4
  7
SLDTEXTSTYLE1
 11
-3.491481338843133E-15
 21
1.0
 31
0.0
 73
     1
 44
1.0
  0
ENDBLK
  5
12E
330
12C
100
AcDbEntity
  8
0
100
AcDbBlockEnd
  0
BLOCK
  5
137
330
136
100
AcDbEntity
  8
0
100
AcDbBlockBegin
  2
_D_1
 70
     0
 10
0.0
 20
0.0
 30
0.0
  3
_D_1
  1

  0
SOLID
  5
139
330
136
100
AcDbEntity
  8
DIM
 62
     7
100
AcDbTrace
 10
277.2835509736
 20
214.297414495
 30
0.0
 11
276.9085509736
 21
211.297414495
 31
0.0
 12
277.6585509736
 22
211.297414495
 32
0.0
 13
277.6585509736
 23
211.297414495
 33
0.0
  0
SOLID
  5
13A
330
136
100
AcDbEntity
  8
DIM
 62
     7
100
AcDbTrace
 10
277.2835509736
 20
188.897414495
 30
0.0
 11
277.6585509736
 21
191.897414495
 31
0.0
 12
276.9085509736
 22
191.897414495
 32
0.0
 13
276.9085509736
 23
191.897414495
 33
0.0
  0
LINE
  5
13B
330
136
100
AcDbEntity
  8
DIM
 62
     7
100
AcDbLine
 10
252.647909371
 20
214.297414495
 30
0.0
 11
278.7835509736
 21
214.297414495
 31
0.0
  0
LINE
  5
13C
330
136
100
AcDbEntity
  8
DIM
 62
     7
100
AcDbLine
 10
252.647909371
 20
188.897414495
 30
0.0
 11
278.7835509736
 21
188.897414495
 31
0.0
  0
LINE
  5
13D
330
136
100
AcDbEntity
  8
DIM
 62
     7
100
AcDbLine
 10
277.2835509736
 20
214.297414495
 30
0.0
 11
277.2835509736
 21
188.897414495
 31
0.0
  0
MTEXT
  5
13E
330
136
100
AcDbEntity
  8
DIM
 62
     7
100
AcDbMText
 10
272.4495472114
 20
196.5843937859
 30
0.0
 40
3.75
 41
0.0
 71
     1
 72
     1
  1
25.4
  7
SLDTEXTSTYLE1
 11
-3.491481338843133E-15
 21
1.0
 31
0.0
 73
     1
 44
1.0
  0
ENDBLK
  5
138
330
136
100
AcDbEntity
  8
0
100
AcDbBlockEnd
  0
BLOCK
  5
141
330
140
100
AcDbEntity
  8
0
100
AcDbBlockBegin
  2
_D_2
 70
     0
 10
0.0
 20
0.0
 30
0.0
  3
_D_2
  1

  0
SOLID
  5
143
330
140
100
AcDbEntity
  8
DIM
100
AcDbTrace
 10
225.747909371
 20
143.797414495
 30
0.0
 11
228.747909371
 21
143.422414495
 31
0.0
 12
228.747909371
 22
144.172414495
 32
0.0
 13
228.747909371
 23
144.172414495
 33
0.0
  0
SOLID
  5
144
330
140
100
AcDbEntity
  8
DIM
100
AcDbTrace
 10
251.147909371
 20
143.797414495
 30
0.0
 11
248.147909371
 21
144.172414495
 31
0.0
 12
248.147909371
 22
143.422414495
 32
0.0
 13
248.147909371
 23
143.422414495
 33
0.0
  0
LINE
  5
145
330
140
100
AcDbEntity
  8
DIM
100
AcDbLine
 10
225.747909371
 20
212.797414495
 30
0.0
 11
225.747909371
 21
142.297414495
 31
0.0
  0
LINE
  5
146
330
140
100
AcDbEntity
  8
DIM
100
AcDbLine
 10
251.147909371
 20
187.397414495
 30
0.0
 11
251.147909371
 21
142.297414495
 31
0.0
  0
LINE
  5
147
330
140
100
AcDbEntity
  8
DIM
100
AcDbLine
 10
225.747909371
 20
143.797414495
 30
0.0
 11
251.147909371
 21
143.797414495
 31
0.0
  0
MTEXT
  5
148
330
140
100
AcDbEntity
  8
DIM
100
AcDbMText
 10
233.4348886618
 20
148.6314182572
 30
0.0
 40
3.75
 41
0.0
 71
     1
 72
     1
  1
25.4
  7
SLDTEXTSTYLE1
 73
     1
 44
1.0
  0
ENDBLK
  5
142
330
140
100
AcDbEntity
  8
0
100
AcDbBlockEnd
  0
BLOCK
  5
14B
330
14A
100
AcDbEntity
  8
0
100
AcDbBlockBegin
  2
_D_3
 70
     0
 10
0.0
 20
0.0
 30
0.0
  3
_D_3
  1

  0
SOLID
  5
14D
330
14A
100
AcDbEntity
  8
DIM
100
AcDbTrace
 10
251.147909371
 20
143.397414495
 30
0.0
 11
254.147909371
 21
143.022414495
 31
0.0
 12
254.147909371
 22
143.772414495
 32
0.0
 13
254.147909371
 23
143.772414495
 33
0.0
  0
SOLID
  5
14E
330
14A
100
AcDbEntity
  8
DIM
100
AcDbTrace
 10
264.147909371
 20
143.397414495
 30
0.0
 11
261.147909371
 21
143.772414495
 31
0.0
 12
261.147909371
 22
143.022414495
 32
0.0
 13
261.147909371
 23
143.022414495
 33
0.0
  0
LINE
  5
14F
330
14A
100
AcDbEntity
  8
DIM
100
AcDbLine
 10
251.147909371
 20
187.397414495
 30
0.0
 11
251.147909371
 21
141.897414495
 31
0.0
  0
LINE
  5
150
330
14A
100
AcDbEntity
  8
DIM
100
AcDbLine
 10
264.147909371
 20
158.797414495
 30
0.0
 11
264.147909371
 21
141.897414495
 31
0.0
  0
LINE
  5
151
330
14A
100
AcDbEntity
  8
DIM
100
AcDbLine
 10
251.147909371
 20
143.397414495
 30
0.0
 11
264.147909371
 21
143.397414495
 31
0.0
  0
MTEXT
  5
152
330
14A
100
AcDbEntity
  8
DIM
100
AcDbMText
 10
254.7833260338
 20
148.2314182572
 30
0.0
 40
3.75
 41
0.0
 71
     1
 72
     1
  1
13
  7
SLDTEXTSTYLE1
 73
     1
 44
1.0
  0
ENDBLK
  5
14C
330
14A
100
AcDbEntity
  8
0
100
AcDbBlockEnd
  0
BLOCK
  5
154
330
153
100
AcDbEntity
  8
0
100
AcDbBlockBegin
  2
SW_CENTERMARKSYMBOL_0
 70
     0
 10
0.0
 20
0.0
 30
0.0
  3
SW_CENTERMARKSYMBOL_0
  1

  0
LINE
  5
156
330
153
100
AcDbEntity
  8
DIM
 62
     0
100
AcDbLine
 10
0.0
 20
0.0
 30
0.0
 11
0.0
 21
1.0
 31
0.0
  0
LINE
  5
157
330
153
100
AcDbEntity
  8
DIM
 62
     0
100
AcDbLine
 10
0.0
 20
0.0
 30
0.0
 11
-1.0
 21
0.0
 31
0.0
  0
LINE
  5
158
330
153
100
AcDbEntity
  8
DIM
 62
     0
100
AcDbLine
 10
0.0
 20
0.0
 30
0.0
 11
0.0
 21
-1.0
 31
0.0
  0
LINE
  5
159
330
153
100
AcDbEntity
  8
DIM
 62
     0
100
AcDbLine
 10
0.0
 20
0.0
 30
0.0
 11
1.0
 21
0.0
 31
0.0
  0
LINE
  5
15A
330
153
100
AcDbEntity
  8
DIM
 62
     0
100
AcDbLine
 10
0.0
 20
2.0
 30
0.0
 11
0.0
 21
3.5527
 31
0.0
  0
LINE
  5
15B
330
153
100
AcDbEntity
  8
DIM
 62
     0
100
AcDbLine
 10
-2.0
 20
0.0
 30
0.0
 11
-3.5527
 21
0.0
 31
0.0
  0
LINE
  5
15C
330
153
100
AcDbEntity
  8
DIM
 62
     0
100
AcDbLine
 10
0.0
 20
-2.0
 30
0.0
 11
0.0
 21
-3.5527
 31
0.0
  0
LINE
  5
15D
330
153
100
AcDbEntity
  8
DIM
 62
     0
100
AcDbLine
 10
2.0
 20
0.0
 30
0.0
 11
3.5527
 21
0.0
 31
0.0
  0
ENDBLK
  5
155
330
153
100
AcDbEntity
  8
0
100
AcDbBlockEnd
  0
BLOCK
  5
160
330
15F
100
AcDbEntity
  8
0
100
AcDbBlockBegin
  2
SW_CENTERMARKSYMBOL_1
 70
     0
 10
0.0
 20
0.0
 30
0.0
  3
SW_CENTERMARKSYMBOL_1
  1

  0
LINE
  5
162
330
15F
100
AcDbEntity
  8
DIM
 62
     0
100
AcDbLine
 10
0.0
 20
0.0
 30
0.0
 11
0.0
 21
1.0
 31
0.0
  0
LINE
  5
163
330
15F
100
AcDbEntity
  8
DIM
 62
     0
100
AcDbLine
 10
0.0
 20
0.0
 30
0.0
 11
-1.0
 21
0.0
 31
0.0
  0
LINE
  5
164
330
15F
100
AcDbEntity
  8
DIM
 62
     0
100
AcDbLine
 10
0.0
 20
0.0
 30
0.0
 11
0.0
 21
-1.0
 31
0.0
  0
LINE
  5
165
330
15F
100
AcDbEntity
  8
DIM
 62
     0
100
AcDbLine
 10
0.0
 20
0.0
 30
0.0
 11
1.0
 21
0.0
 31
0.0
  0
LINE
  5
166
330
15F
100
AcDbEntity
  8
DIM
 62
     0
100
AcDbLine
 10
0.0
 20
2.0
 30
0.0
 11
0.0
 21
3.5527
 31
0.0
  0
LINE
  5
167
330
15F
100
AcDbEntity
  8
DIM
 62
     0
100
AcDbLine
 10
-2.0
 20
0.0
 30
0.0
 11
-3.5527
 21
0.0
 31
0.0
  0
LINE
  5
168
330
15F
100
AcDbEntity
  8
DIM
 62
     0
100
AcDbLine
 10
0.0
 20
-2.0
 30
0.0
 11
0.0
 21
-3.5527
 31
0.0
  0
LINE
  5
169
330
15F
100
AcDbEntity
  8
DIM
 62
     0
100
AcDbLine
 10
2.0
 20
0.0
 30
0.0
 11
3.5527
 21
0.0
 31
0.0
  0
ENDBLK
  5
161
330
15F
100
AcDbEntity
  8
0
100
AcDbBlockEnd
  0
BLOCK
  5
16C
330
16B
100
AcDbEntity
  8
0
100
AcDbBlockBegin
  2
SW_CENTERMARKSYMBOL_2
 70
     0
 10
0.0
 20
0.0
 30
0.0
  3
SW_CENTERMARKSYMBOL_2
  1

  0
LINE
  5
16E
330
16B
100
AcDbEntity
  8
DIM
 62
     0
100
AcDbLine
 10
0.0
 20
0.0
 30
0.0
 11
0.0
 21
1.0
 31
0.0
  0
LINE
  5
16F
330
16B
100
AcDbEntity
  8
DIM
 62
     0
100
AcDbLine
 10
0.0
 20
0.0
 30
0.0
 11
-1.0
 21
0.0
 31
0.0
  0
LINE
  5
170
330
16B
100
AcDbEntity
  8
DIM
 62
     0
100
AcDbLine
 10
0.0
 20
0.0
 30
0.0
 11
0.0
 21
-1.0
 31
0.0
  0
LINE
  5
171
330
16B
100
AcDbEntity
  8
DIM
 62
     0
100
AcDbLine
 10
0.0
 20
0.0
 30
0.0
 11
1.0
 21
0.0
 31
0.0
  0
LINE
  5
172
330
16B
100
AcDbEntity
  8
DIM
 62
     0
100
AcDbLine
 10
0.0
 20
2.0
 30
0.0
 11
0.0
 21
3.5527
 31
0.0
  0
LINE
  5
173
330
16B
100
AcDbEntity
  8
DIM
 62
     0
100
AcDbLine
 10
-2.0
 20
0.0
 30
0.0
 11
-3.5527
 21
0.0
 31
0.0
  0
LINE
  5
174
330
16B
100
AcDbEntity
  8
DIM
 62
     0
100
AcDbLine
 10
0.0
 20
-2.0
 30
0.0
 11
0.0
 21
-3.5527
 31
0.0
  0
LINE
  5
175
330
16B
100
AcDbEntity
  8
DIM
 62
     0
100
AcDbLine
 10
2.0
 20
0.0
 30
0.0
 11
3.5527
 21
0.0
 31
0.0
  0
ENDBLK
  5
16D
330
16B
100
AcDbEntity
  8
0
100
AcDbBlockEnd
  0
BLOCK
  5
178
330
177
100
AcDbEntity
  8
0
100
AcDbBlockBegin
  2
SW_CENTERMARKSYMBOL_3
 70
     0
 10
0.0
 20
0.0
 30
0.0
  3
SW_CENTERMARKSYMBOL_3
  1

  0
LINE
  5
17A
330
177
100
AcDbEntity
  8
DIM
 62
     0
100
AcDbLine
 10
0.0
 20
0.0
 30
0.0
 11
0.0
 21
1.0
 31
0.0
  0
LINE
  5
17B
330
177
100
AcDbEntity
  8
DIM
 62
     0
100
AcDbLine
 10
0.0
 20
0.0
 30
0.0
 11
-1.0
 21
0.0
 31
0.0
  0
LINE
  5
17C
330
177
100
AcDbEntity
  8
DIM
 62
     0
100
AcDbLine
 10
0.0
 20
0.0
 30
0.0
 11
0.0
 21
-1.0
 31
0.0
  0
LINE
  5
17D
330
177
100
AcDbEntity
  8
DIM
 62
     0
100
AcDbLine
 10
0.0
 20
0.0
 30
0.0
 11
1.0
 21
0.0
 31
0.0
  0
LINE
  5
17E
330
177
100
AcDbEntity
  8
DIM
 62
     0
100
AcDbLine
 10
0.0
 20
2.0
 30
0.0
 11
0.0
 21
3.5527
 31
0.0
  0
LINE
  5
17F
330
177
100
AcDbEntity
  8
DIM
 62
     0
100
AcDbLine
 10
-2.0
 20
0.0
 30
0.0
 11
-3.5527
 21
0.0
 31
0.0
  0
LINE
  5
180
330
177
100
AcDbEntity
  8
DIM
 62
     0
100
AcDbLine
 10
0.0
 20
-2.0
 30
0.0
 11
0.0
 21
-3.5527
 31
0.0
  0
LINE
  5
181
330
177
100
AcDbEntity
  8
DIM
 62
     0
100
AcDbLine
 10
2.0
 20
0.0
 30
0.0
 11
3.5527
 21
0.0
 31
0.0
  0
ENDBLK
  5
179
330
177
100
AcDbEntity
  8
0
100
AcDbBlockEnd
  0
BLOCK
  5
1DB
330
1DA
100
AcDbEntity
  8
0
100
AcDbBlockBegin
  2
_D_4
 70
     0
 10
0.0
 20
0.0
 30
0.0
  3
_D_4
  1

  0
SOLID
  5
1DD
330
1DA
100
AcDbEntity
  8
DIM
100
AcDbTrace
 10
183.2063620061
 20
268.297414495
 30
0.0
 11
182.8313620061
 21
265.297414495
 31
0.0
 12
183.5813620061
 22
265.297414495
 32
0.0
 13
183.5813620061
 23
265.297414495
 33
0.0
  0
SOLID
  5
1DE
330
1DA
100
AcDbEntity
  8
DIM
100
AcDbTrace
 10
183.2063620061
 20
160.297414495
 30
0.0
 11
183.5813620061
 21
163.297414495
 31
0.0
 12
182.8313620061
 22
163.297414495
 32
0.0
 13
182.8313620061
 23
163.297414495
 33
0.0
  0
LINE
  5
1DF
330
1DA
100
AcDbEntity
  8
DIM
100
AcDbLine
 10
150.2063620061
 20
268.297414495
 30
0.0
 11
184.7063620061
 21
268.297414495
 31
0.0
  0
LINE
  5
1E0
330
1DA
100
AcDbEntity
  8
DIM
100
AcDbLine
 10
150.2063620061
 20
160.297414495
 30
0.0
 11
184.7063620061
 21
160.297414495
 31
0.0
  0
LINE
  5
1E1
330
1DA
100
AcDbEntity
  8
DIM
100
AcDbLine
 10
183.2063620061
 20
268.297414495
 30
0.0
 11
183.2063620061
 21
160.297414495
 31
0.0
  0
MTEXT
  5
1E2
330
1DA
100
AcDbEntity
  8
DIM
100
AcDbMText
 10
178.3723582439
 20
210.0005394019
 30
0.0
 40
3.75
 41
0.0
 71
     1
 72
     1
  1
108
  7
SLDTEXTSTYLE1
 11
-7.044195017643634E-15
 21
1.0
 31
0.0
 73
     1
 44
1.0
  0
ENDBLK
  5
1DC
330
1DA
100
AcDbEntity
  8
0
100
AcDbBlockEnd
  0
BLOCK
  5
1E5
330
1E4
100
AcDbEntity
  8
0
100
AcDbBlockBegin
  2
_D_5
 70
     0
 10
0.0
 20
0.0
 30
0.0
  3
_D_5
  1

  0
SOLID
  5
1E7
330
1E4
100
AcDbEntity
  8
DIM
100
AcDbTrace
 10
148.7063620061
 20
127.7524010279
 30
0.0
 11
145.7063620061
 21
128.1274010279
 31
0.0
 12
145.7063620061
 22
127.3774010279
 32
0.0
 13
145.7063620061
 23
127.3774010279
 33
0.0
  0
SOLID
  5
1E8
330
1E4
100
AcDbEntity
  8
DIM
100
AcDbTrace
 10
72.7063620061
 20
127.7524010279
 30
0.0
 11
75.7063620061
 21
127.3774010279
 31
0.0
 12
75.7063620061
 22
128.1274010279
 32
0.0
 13
75.7063620061
 23
128.1274010279
 33
0.0
  0
LINE
  5
1E9
330
1E4
100
AcDbEntity
  8
DIM
100
AcDbLine
 10
148.7063620061
 20
158.797414495
 30
0.0
 11
148.7063620061
 21
126.2524010279
 31
0.0
  0
LINE
  5
1EA
330
1E4
100
AcDbEntity
  8
DIM
100
AcDbLine
 10
72.7063620061
 20
158.797414495
 30
0.0
 11
72.7063620061
 21
126.2524010279
 31
0.0
  0
LINE
  5
1EB
330
1E4
100
AcDbEntity
  8
DIM
100
AcDbLine
 10
148.7063620061
 20
127.7524010279
 30
0.0
 11
72.7063620061
 21
127.7524010279
 31
0.0
  0
MTEXT
  5
1EC
330
1E4
100
AcDbEntity
  8
DIM
100
AcDbMText
 10
107.8417786689
 20
132.5864047901
 30
0.0
 40
3.75
 41
0.0
 71
     1
 72
     1
  1
76
  7
SLDTEXTSTYLE1
 73
     1
 44
1.0
  0
ENDBLK
  5
1E6
330
1E4
100
AcDbEntity
  8
0
100
AcDbBlockEnd
  0
BLOCK
  5
1EF
330
1EE
100
AcDbEntity
  8
0
100
AcDbBlockBegin
  2
_D_6
 70
     0
 10
0.0
 20
0.0
 30
0.0
  3
_D_6
  1

  0
SOLID
  5
1F1
330
1EE
100
AcDbEntity
  8
DIM
 62
     7
100
AcDbTrace
 10
161.1063620061
 20
226.997414495
 30
0.0
 11
160.7313620061
 21
223.997414495
 31
0.0
 12
161.4813620061
 22
223.997414495
 32
0.0
 13
161.4813620061
 23
223.997414495
 33
0.0
  0
SOLID
  5
1F2
330
1EE
100
AcDbEntity
  8
DIM
 62
     7
100
AcDbTrace
 10
161.1063620061
 20
214.297414495
 30
0.0
 11
161.4813620061
 21
217.297414495
 31
0.0
 12
160.7313620061
 22
217.297414495
 32
0.0
 13
160.7313620061
 23
217.297414495
 33
0.0
  0
LINE
  5
1F3
330
1EE
100
AcDbEntity
  8
DIM
 62
     7
100
AcDbLine
 10
137.6063620061
 20
226.997414495
 30
0.0
 11
162.6063620061
 21
226.997414495
 31
0.0
  0
LINE
  5
1F4
330
1EE
100
AcDbEntity
  8
DIM
 62
     7
100
AcDbLine
 10
153.2063620061
 20
214.297414495
 30
0.0
 11
162.6063620061
 21
214.297414495
 31
0.0
  0
LINE
  5
1F5
330
1EE
100
AcDbEntity
  8
DIM
 62
     7
100
AcDbLine
 10
161.1063620061
 20
226.997414495
 30
0.0
 11
161.1063620061
 21
214.297414495
 31
0.0
  0
MTEXT
  5
1F6
330
1EE
100
AcDbEntity
  8
DIM
 62
     7
100
AcDbMText
 10
156.2723582439
 20
215.6343937859
 30
0.0
 40
3.75
 41
0.0
 71
     1
 72
     1
  1
12.7
  7
SLDTEXTSTYLE1
 11
-7.044195017643634E-15
 21
1.0
 31
0.0
 73
     1
 44
1.0
  0
ENDBLK
  5
1F0
330
1EE
100
AcDbEntity
  8
0
100
AcDbBlockEnd
  0
BLOCK
  5
1F9
330
1F8
100
AcDbEntity
  8
0
100
AcDbBlockBegin
  2
_D_7
 70
     0
 10
0.0
 20
0.0
 30
0.0
  3
_D_7
  1

  0
SOLID
  5
1FB
330
1F8
100
AcDbEntity
  8
DIM
 62
     7
100
AcDbTrace
 10
161.1063620061
 20
201.597414495
 30
0.0
 11
161.4813620061
 21
204.597414495
 31
0.0
 12
160.7313620061
 22
204.597414495
 32
0.0
 13
160.7313620061
 23
204.597414495
 33
0.0
  0
SOLID
  5
1FC
330
1F8
100
AcDbEntity
  8
DIM
 62
     7
100
AcDbTrace
 10
161.1063620061
 20
214.297414495
 30
0.0
 11
160.7313620061
 21
211.297414495
 31
0.0
 12
161.4813620061
 22
211.297414495
 32
0.0
 13
161.4813620061
 23
211.297414495
 33
0.0
  0
LINE
  5
1FD
330
1F8
100
AcDbEntity
  8
DIM
 62
     7
100
AcDbLine
 10
137.6063620061
 20
201.597414495
 30
0.0
 11
162.6063620061
 21
201.597414495
 31
0.0
  0
LINE
  5
1FE
330
1F8
100
AcDbEntity
  8
DIM
 62
     7
100
AcDbLine
 10
153.2063620061
 20
214.297414495
 30
0.0
 11
162.6063620061
 21
214.297414495
 31
0.0
  0
LINE
  5
1FF
330
1F8
100
AcDbEntity
  8
DIM
 62
     7
100
AcDbLine
 10
161.1063620061
 20
201.597414495
 30
0.0
 11
161.1063620061
 21
214.297414495
 31
0.0
  0
MTEXT
  5
200
330
1F8
100
AcDbEntity
  8
DIM
 62
     7
100
AcDbMText
 10
156.2723582439
 20
202.9343937859
 30
0.0
 40
3.75
 41
0.0
 71
     1
 72
     1
  1
12.7
  7
SLDTEXTSTYLE1
 11
6.123233995736766E-17
 21
1.0
 31
0.0
 73
     1
 44
1.0
  0
ENDBLK
  5
1FA
330
1F8
100
AcDbEntity
  8
0
100
AcDbBlockEnd
  0
BLOCK
  5
203
330
202
100
AcDbEntity
  8
0
100
AcDbBlockBegin
  2
_D_8
 70
     0
 10
0.0
 20
0.0
 30
0.0
  3
_D_8
  1

  0
SOLID
  5
205
330
202
100
AcDbEntity
  8
DIM
 62
     7
100
AcDbTrace
 10
171.8895277284
 20
252.397414495
 30
0.0
 11
171.5145277284
 21
249.397414495
 31
0.0
 12
172.2645277284
 22
249.397414495
 32
0.0
 13
172.2645277284
 23
249.397414495
 33
0.0
  0
SOLID
  5
206
330
202
100
AcDbEntity
  8
DIM
 62
     7
100
AcDbTrace
 10
171.8895277284
 20
214.297414495
 30
0.0
 11
172.2645277284
 21
217.297414495
 31
0.0
 12
171.5145277284
 22
217.297414495
 32
0.0
 13
171.5145277284
 23
217.297414495
 33
0.0
  0
LINE
  5
207
330
202
100
AcDbEntity
  8
DIM
 62
     7
100
AcDbLine
 10
137.6063620061
 20
252.397414495
 30
0.0
 11
173.3895277284
 21
252.397414495
 31
0.0
  0
LINE
  5
208
330
202
100
AcDbEntity
  8
DIM
 62
     7
100
AcDbLine
 10
153.2063620061
 20
214.297414495
 30
0.0
 11
173.3895277284
 21
214.297414495
 31
0.0
  0
LINE
  5
209
330
202
100
AcDbEntity
  8
DIM
 62
     7
100
AcDbLine
 10
171.8895277284
 20
252.397414495
 30
0.0
 11
171.8895277284
 21
214.297414495
 31
0.0
  0
MTEXT
  5
20A
330
202
100
AcDbEntity
  8
DIM
 62
     7
100
AcDbMText
 10
167.0555239662
 20
228.3343937859
 30
0.0
 40
3.75
 41
0.0
 71
     1
 72
     1
  1
38.1
  7
SLDTEXTSTYLE1
 11
-7.044195017643634E-15
 21
1.0
 31
0.0
 73
     1
 44
1.0
  0
ENDBLK
  5
204
330
202
100
AcDbEntity
  8
0
100
AcDbBlockEnd
  0
BLOCK
  5
20D
330
20C
100
AcDbEntity
  8
0
100
AcDbBlockBegin
  2
_D_9
 70
     0
 10
0.0
 20
0.0
 30
0.0
  3
_D_9
  1

  0
SOLID
  5
20F
330
20C
100
AcDbEntity
  8
DIM
 62
     7
100
AcDbTrace
 10
171.8895277284
 20
176.197414495
 30
0.0
 11
172.2645277284
 21
179.197414495
 31
0.0
 12
171.5145277284
 22
179.197414495
 32
0.0
 13
171.5145277284
 23
179.197414495
 33
0.0
  0
SOLID
  5
210
330
20C
100
AcDbEntity
  8
DIM
 62
     7
100
AcDbTrace
 10
171.8895277284
 20
214.297414495
 30
0.0
 11
171.5145277284
 21
211.297414495
 31
0.0
 12
172.2645277284
 22
211.297414495
 32
0.0
 13
172.2645277284
 23
211.297414495
 33
0.0
  0
LINE
  5
211
330
20C
100
AcDbEntity
  8
DIM
 62
     7
100
AcDbLine
 10
137.6063620061
 20
176.197414495
 30
0.0
 11
173.3895277284
 21
176.197414495
 31
0.0
  0
LINE
  5
212
330
20C
100
AcDbEntity
  8
DIM
 62
     7
100
AcDbLine
 10
153.2063620061
 20
214.297414495
 30
0.0
 11
173.3895277284
 21
214.297414495
 31
0.0
  0
LINE
  5
213
330
20C
100
AcDbEntity
  8
DIM
 62
     7
100
AcDbLine
 10
171.8895277284
 20
176.197414495
 30
0.0
 11
171.8895277284
 21
214.297414495
 31
0.0
  0
MTEXT
  5
214
330
20C
100
AcDbEntity
  8
DIM
 62
     7
100
AcDbMText
 10
167.0555239662
 20
190.2343937859
 30
0.0
 40
3.75
 41
0.0
 71
     1
 72
     1
  1
38.1
  7
SLDTEXTSTYLE1
 11
6.123233995736766E-17
 21
1.0
 31
0.0
 73
     1
 44
1.0
  0
ENDBLK
  5
20E
330
20C
100
AcDbEntity
  8
0
100
AcDbBlockEnd
  0
BLOCK
  5
217
330
216
100
AcDbEntity
  8
0
100
AcDbBlockBegin
  2
_D_10
 70
     0
 10
0.0
 20
0.0
 30
0.0
  3
_D_10
  1

  0
SOLID
  5
219
330
216
100
AcDbEntity
  8
DIM
 62
     7
100
AcDbTrace
 10
98.0063620061
 20
147.2571988834
 30
0.0
 11
101.0063620061
 21
146.8821988834
 31
0.0
 12
101.0063620061
 22
147.6321988834
 32
0.0
 13
101.0063620061
 23
147.6321988834
 33
0.0
  0
SOLID
  5
21A
330
216
100
AcDbEntity
  8
DIM
 62
     7
100
AcDbTrace
 10
110.7063620061
 20
147.2571988834
 30
0.0
 11
107.7063620061
 21
147.6321988834
 31
0.0
 12
107.7063620061
 22
146.8821988834
 32
0.0
 13
107.7063620061
 23
146.8821988834
 33
0.0
  0
LINE
  5
21B
330
216
100
AcDbEntity
  8
DIM
 62
     7
100
AcDbLine
 10
98.0063620061
 20
170.197414495
 30
0.0
 11
98.0063620061
 21
145.7571988834
 31
0.0
  0
LINE
  5
21C
330
216
100
AcDbEntity
  8
DIM
 62
     7
100
AcDbLine
 10
110.7063620061
 20
174.697414495
 30
0.0
 11
110.7063620061
 21
145.7571988834
 31
0.0
  0
LINE
  5
21D
330
216
100
AcDbEntity
  8
DIM
 62
     7
100
AcDbLine
 10
98.0063620061
 20
147.2571988834
 30
0.0
 11
110.7063620061
 21
147.2571988834
 31
0.0
  0
MTEXT
  5
21E
330
216
100
AcDbEntity
  8
DIM
 62
     7
100
AcDbMText
 10
99.3433412969
 20
152.0912026456
 30
0.0
 40
3.75
 41
0.0
 71
     1
 72
     1
  1
12.7
  7
SLDTEXTSTYLE1
 73
     1
 44
1.0
  0
ENDBLK
  5
218
330
216
100
AcDbEntity
  8
0
100
AcDbBlockEnd
  0
BLOCK
  5
221
330
220
100
AcDbEntity
  8
0
100
AcDbBlockBegin
  2
_D_11
 70
     0
 10
0.0
 20
0.0
 30
0.0
  3
_D_11
  1

  0
SOLID
  5
223
330
220
100
AcDbEntity
  8
DIM
 62
     7
100
AcDbTrace
 10
110.7063620061
 20
146.6571988834
 30
0.0
 11
113.7063620061
 21
146.2821988834
 31
0.0
 12
113.7063620061
 22
147.0321988834
 32
0.0
 13
113.7063620061
 23
147.0321988834
 33
0.0
  0
SOLID
  5
224
330
220
100
AcDbEntity
  8
DIM
 62
     7
100
AcDbTrace
 10
123.4063620061
 20
146.6571988834
 30
0.0
 11
120.4063620061
 21
147.0321988834
 31
0.0
 12
120.4063620061
 22
146.2821988834
 32
0.0
 13
120.4063620061
 23
146.2821988834
 33
0.0
  0
LINE
  5
225
330
220
100
AcDbEntity
  8
DIM
 62
     7
100
AcDbLine
 10
110.7063620061
 20
174.697414495
 30
0.0
 11
110.7063620061
 21
145.1571988834
 31
0.0
  0
LINE
  5
226
330
220
100
AcDbEntity
  8
DIM
 62
     7
100
AcDbLine
 10
123.4063620061
 20
170.197414495
 30
0.0
 11
123.4063620061
 21
145.1571988834
 31
0.0
  0
LINE
  5
227
330
220
100
AcDbEntity
  8
DIM
 62
     7
100
AcDbLine
 10
110.7063620061
 20
146.6571988834
 30
0.0
 11
123.4063620061
 21
146.6571988834
 31
0.0
  0
MTEXT
  5
228
330
220
100
AcDbEntity
  8
DIM
 62
     7
100
AcDbMText
 10
112.0433412969
 20
151.4912026456
 30
0.0
 40
3.75
 41
0.0
 71
     1
 72
     1
  1
12.7
  7
SLDTEXTSTYLE1
 73
     1
 44
1.0
  0
ENDBLK
  5
222
330
220
100
AcDbEntity
  8
0
100
AcDbBlockEnd
  0
BLOCK
  5
22B
330
22A
100
AcDbEntity
  8
0
100
AcDbBlockBegin
  2
_D_12
 70
     0
 10
0.0
 20
0.0
 30
0.0
  3
_D_12
  1

  0
SOLID
  5
22D
330
22A
100
AcDbEntity
  8
DIM
 62
     7
100
AcDbTrace
 10
85.3063620061
 20
137.0973162136
 30
0.0
 11
88.3063620061
 21
136.7223162136
 31
0.0
 12
88.3063620061
 22
137.4723162136
 32
0.0
 13
88.3063620061
 23
137.4723162136
 33
0.0
  0
SOLID
  5
22E
330
22A
100
AcDbEntity
  8
DIM
 62
     7
100
AcDbTrace
 10
110.7063620061
 20
137.0973162136
 30
0.0
 11
107.7063620061
 21
137.4723162136
 31
0.0
 12
107.7063620061
 22
136.7223162136
 32
0.0
 13
107.7063620061
 23
136.7223162136
 33
0.0
  0
LINE
  5
22F
330
22A
100
AcDbEntity
  8
DIM
 62
     7
100
AcDbLine
 10
85.3063620061
 20
174.697414495
 30
0.0
 11
85.3063620061
 21
135.5973162136
 31
0.0
  0
LINE
  5
230
330
22A
100
AcDbEntity
  8
DIM
 62
     7
100
AcDbLine
 10
110.7063620061
 20
174.697414495
 30
0.0
 11
110.7063620061
 21
135.5973162136
 31
0.0
  0
LINE
  5
231
330
22A
100
AcDbEntity
  8
DIM
 62
     7
100
AcDbLine
 10
85.3063620061
 20
137.0973162136
 30
0.0
 11
110.7063620061
 21
137.0973162136
 31
0.0
  0
MTEXT
  5
232
330
22A
100
AcDbEntity
  8
DIM
 62
     7
100
AcDbMText
 10
92.9933412969
 20
141.9313199758
 30
0.0
 40
3.75
 41
0.0
 71
     1
 72
     1
  1
25.4
  7
SLDTEXTSTYLE1
 73
     1
 44
1.0
  0
ENDBLK
  5
22C
330
22A
100
AcDbEntity
  8
0
100
AcDbBlockEnd
  0
BLOCK
  5
235
330
234
100
AcDbEntity
  8
0
100
AcDbBlockBegin
  2
_D_13
 70
     0
 10
0.0
 20
0.0
 30
0.0
  3
_D_13
  1

  0
SOLID
  5
237
330
234
100
AcDbEntity
  8
DIM
 62
     7
100
AcDbTrace
 10
110.7063620061
 20
137.0973162136
 30
0.0
 11
113.7063620061
 21
136.7223162136
 31
0.0
 12
113.7063620061
 22
137.4723162136
 32
0.0
 13
113.7063620061
 23
137.4723162136
 33
0.0
  0
SOLID
  5
238
330
234
100
AcDbEntity
  8
DIM
 62
     7
100
AcDbTrace
 10
136.1063620061
 20
137.0973162136
 30
0.0
 11
133.1063620061
 21
137.4723162136
 31
0.0
 12
133.1063620061
 22
136.7223162136
 32
0.0
 13
133.1063620061
 23
136.7223162136
 33
0.0
  0
LINE
  5
239
330
234
100
AcDbEntity
  8
DIM
 62
     7
100
AcDbLine
 10
110.7063620061
 20
174.697414495
 30
0.0
 11
110.7063620061
 21
135.5973162136
 31
0.0
  0
LINE
  5
23A
330
234
100
AcDbEntity
  8
DIM
 62
     7
100
AcDbLine
 10
136.1063620061
 20
174.697414495
 30
0.0
 11
136.1063620061
 21
135.5973162136
 31
0.0
  0
LINE
  5
23B
330
234
100
AcDbEntity
  8
DIM
 62
     7
100
AcDbLine
 10
110.7063620061
 20
137.0973162136
 30
0.0
 11
136.1063620061
 21
137.0973162136
 31
0.0
  0
MTEXT
  5
23C
330
234
100
AcDbEntity
  8
DIM
 62
     7
100
AcDbMText
 10
118.3933412969
 20
141.9313199758
 30
0.0
 40
3.75
 41
0.0
 71
     1
 72
     1
  1
25.4
  7
SLDTEXTSTYLE1
 73
     1
 44
1.0
  0
ENDBLK
  5
236
330
234
100
AcDbEntity
  8
0
100
AcDbBlockEnd
  0
BLOCK
  5
240
330
23F
100
AcDbEntity
  8
0
100
AcDbBlockBegin
  2
_D_14
 70
     0
 10
0.0
 20
0.0
 30
0.0
  3
_D_14
  1

  0
SOLID
  5
242
330
23F
100
AcDbEntity
  8
DIM
 62
     7
100
AcDbTrace
 10
95.2580226306
 20
224.8302433719
 30
0.0
 11
92.6701062598
 21
223.2671330565
 31
0.0
 12
93.1345000719
 22
222.6782031903
 32
0.0
 13
93.1345000719
 23
222.6782031903
 33
0.0
  0
LINE
  5
243
330
23F
100
AcDbEntity
  8
DIM
 62
     7
100
AcDbLine
 10
95.2580226306
 20
224.8302433719
 30
0.0
 11
66.2307764656
 21
201.941145237
 31
0.0
  0
LINE
  5
244
330
23F
100
AcDbEntity
  8
DIM
 62
     7
100
AcDbLine
 10
66.2307764656
 20
201.941145237
 30
0.0
 11
31.117495901
 21
201.941145237
 31
0.0
  0
MTEXT
  5
245
330
23F
100
AcDbEntity
  8
DIM
 62
     7
100
AcDbMText
 10
31.117495901
 20
206.7855656094
 30
0.0
 40
3.75
 41
0.0
 71
     1
 72
     1
  1
4-
  7
SLDTEXTSTYLE1
 73
     1
 44
1.0
  0
MTEXT
  5
246
330
23F
100
AcDbEntity
  8
DIM
 62
     7
100
AcDbMText
 10
35.6956208657
 20
206.7751489119
 30
0.0
 40
3.75
 41
0.0
 71
     1
 72
     1
  1
%%c
  7
SLDTEXTSTYLE1
 73
     1
 44
1.0
  0
MTEXT
  5
247
330
23F
100
AcDbEntity
  8
DIM
 62
     7
100
AcDbMText
 10
41.1630685507
 20
206.7855656094
 30
0.0
 40
3.75
 41
0.0
 71
     1
 72
     1
  1
7
  7
SLDTEXTSTYLE1
 73
     1
 44
1.0
  0
MTEXT
  5
248
330
23F
100
AcDbEntity
  8
DIM
 62
     7
100
AcDbMText
 10
44.0276524118
 20
206.7855656094
 30
0.0
 40
3.75
 41
0.0
 71
     1
 72
     1
  1
 HOLES.
  7
SLDTEXTSTYLE1
 73
     1
 44
1.0
  0
ENDBLK
  5
241
330
23F
100
AcDbEntity
  8
0
100
AcDbBlockEnd
  0
BLOCK
  5
24C
330
24B
100
AcDbEntity
  8
0
100
AcDbBlockBegin
  2
_D_15
 70
     0
 10
0.0
 20
0.0
 30
0.0
  3
_D_15
  1

  0
SOLID
  5
24E
330
24B
100
AcDbEntity
  8
DIM
 62
     7
100
AcDbTrace
 10
83.0956589578
 20
228.273764495
 30
0.0
 11
80.6850827465
 21
230.0985240214
 31
0.0
 12
80.3100827465
 22
229.4490049686
 32
0.0
 13
80.3100827465
 23
229.4490049686
 33
0.0
  0
LINE
  5
24F
330
24B
100
AcDbEntity
  8
DIM
 62
     7
100
AcDbLine
 10
83.0956589578
 20
228.273764495
 30
0.0
 11
66.2693185963
 21
237.9884566322
 31
0.0
  0
LINE
  5
250
330
24B
100
AcDbEntity
  8
DIM
 62
     7
100
AcDbLine
 10
66.2693185963
 20
237.9884566322
 30
0.0
 11
38.3370268204
 21
237.9884566322
 31
0.0
  0
MTEXT
  5
251
330
24B
100
AcDbEntity
  8
DIM
 62
     7
100
AcDbMText
 10
38.3370268204
 20
248.5776685943
 30
0.0
 40
3.75
 41
0.0
 71
     1
 72
     1
  1
12 HOLES,
  7
SLDTEXTSTYLE1
 73
     1
 44
1.0
  0
MTEXT
  5
252
330
24B
100
AcDbEntity
  8
DIM
 62
     7
100
AcDbMText
 10
38.3370268204
 20
242.8224603944
 30
0.0
 40
3.75
 41
0.0
 71
     1
 72
     1
  1
 1/4"-20
  7
SLDTEXTSTYLE1
 73
     1
 44
1.0
  0
ENDBLK
  5
24D
330
24B
100
AcDbEntity
  8
0
100
AcDbBlockEnd
  0
BLOCK
  5
254
330
253
100
AcDbEntity
  8
0
100
AcDbBlockBegin
  2
SW_CENTERMARKSYMBOL_4
 70
     0
 10
0.0
 20
0.0
 30
0.0
  3
SW_CENTERMARKSYMBOL_4
  1

  0
LINE
  5
256
330
253
100
AcDbEntity
  8
DIM
 62
     0
100
AcDbLine
 10
0.0
 20
0.0
 30
0.0
 11
0.0
 21
1.0
 31
0.0
  0
LINE
  5
257
330
253
100
AcDbEntity
  8
DIM
 62
     0
100
AcDbLine
 10
0.0
 20
0.0
 30
0.0
 11
-1.0
 21
0.0
 31
0.0
  0
LINE
  5
258
330
253
100
AcDbEntity
  8
DIM
 62
     0
100
AcDbLine
 10
0.0
 20
0.0
 30
0.0
 11
0.0
 21
-1.0
 31
0.0
  0
LINE
  5
259
330
253
100
AcDbEntity
  8
DIM
 62
     0
100
AcDbLine
 10
0.0
 20
0.0
 30
0.0
 11
1.0
 21
0.0
 31
0.0
  0
LINE
  5
25A
330
253
100
AcDbEntity
  8
DIM
 62
     0
100
AcDbLine
 10
0.0
 20
2.0
 30
0.0
 11
0.0
 21
3.5527
 31
0.0
  0
LINE
  5
25B
330
253
100
AcDbEntity
  8
DIM
 62
     0
100
AcDbLine
 10
-2.0
 20
0.0
 30
0.0
 11
-3.5527
 21
0.0
 31
0.0
  0
LINE
  5
25C
330
253
100
AcDbEntity
  8
DIM
 62
     0
100
AcDbLine
 10
0.0
 20
-2.0
 30
0.0
 11
0.0
 21
-3.5527
 31
0.0
  0
LINE
  5
25D
330
253
100
AcDbEntity
  8
DIM
 62
     0
100
AcDbLine
 10
2.0
 20
0.0
 30
0.0
 11
3.5527
 21
0.0
 31
0.0
  0
ENDBLK
  5
255
330
253
100
AcDbEntity
  8
0
100
AcDbBlockEnd
  0
BLOCK
  5
260
330
25F
100
AcDbEntity
  8
0
100
AcDbBlockBegin
  2
SW_CENTERMARKSYMBOL_5
 70
     0
 10
0.0
 20
0.0
 30
0.0
  3
SW_CENTERMARKSYMBOL_5
  1

  0
LINE
  5
262
330
25F
100
AcDbEntity
  8
DIM
 62
     0
100
AcDbLine
 10
0.0
 20
0.0
 30
0.0
 11
0.0
 21
1.0
 31
0.0
  0
LINE
  5
263
330
25F
100
AcDbEntity
  8
DIM
 62
     0
100
AcDbLine
 10
0.0
 20
0.0
 30
0.0
 11
-1.0
 21
0.0
 31
0.0
  0
LINE
  5
264
330
25F
100
AcDbEntity
  8
DIM
 62
     0
100
AcDbLine
 10
0.0
 20
0.0
 30
0.0
 11
0.0
 21
-1.0
 31
0.0
  0
LINE
  5
265
330
25F
100
AcDbEntity
  8
DIM
 62
     0
100
AcDbLine
 10
0.0
 20
0.0
 30
0.0
 11
1.0
 21
0.0
 31
0.0
  0
LINE
  5
266
330
25F
100
AcDbEntity
  8
DIM
 62
     0
100
AcDbLine
 10
0.0
 20
2.0
 30
0.0
 11
0.0
 21
3.5527
 31
0.0
  0
LINE
  5
267
330
25F
100
AcDbEntity
  8
DIM
 62
     0
100
AcDbLine
 10
-2.0
 20
0.0
 30
0.0
 11
-3.5527
 21
0.0
 31
0.0
  0
LINE
  5
268
330
25F
100
AcDbEntity
  8
DIM
 62
     0
100
AcDbLine
 10
0.0
 20
-2.0
 30
0.0
 11
0.0
 21
-3.5527
 31
0.0
  0
LINE
  5
269
330
25F
100
AcDbEntity
  8
DIM
 62
     0
100
AcDbLine
 10
2.0
 20
0.0
 30
0.0
 11
3.5527
 21
0.0
 31
0.0
  0
ENDBLK
  5
261
330
25F
100
AcDbEntity
  8
0
100
AcDbBlockEnd
  0
BLOCK
  5
26C
330
26B
100
AcDbEntity
  8
0
100
AcDbBlockBegin
  2
SW_CENTERMARKSYMBOL_6
 70
     0
 10
0.0
 20
0.0
 30
0.0
  3
SW_CENTERMARKSYMBOL_6
  1

  0
LINE
  5
26E
330
26B
100
AcDbEntity
  8
DIM
 62
     0
100
AcDbLine
 10
0.0
 20
0.0
 30
0.0
 11
0.0
 21
1.0
 31
0.0
  0
LINE
  5
26F
330
26B
100
AcDbEntity
  8
DIM
 62
     0
100
AcDbLine
 10
0.0
 20
0.0
 30
0.0
 11
-1.0
 21
0.0
 31
0.0
  0
LINE
  5
270
330
26B
100
AcDbEntity
  8
DIM
 62
     0
100
AcDbLine
 10
0.0
 20
0.0
 30
0.0
 11
0.0
 21
-1.0
 31
0.0
  0
LINE
  5
271
330
26B
100
AcDbEntity
  8
DIM
 62
     0
100
AcDbLine
 10
0.0
 20
0.0
 30
0.0
 11
1.0
 21
0.0
 31
0.0
  0
LINE
  5
272
330
26B
100
AcDbEntity
  8
DIM
 62
     0
100
AcDbLine
 10
0.0
 20
2.0
 30
0.0
 11
0.0
 21
3.5527
 31
0.0
  0
LINE
  5
273
330
26B
100
AcDbEntity
  8
DIM
 62
     0
100
AcDbLine
 10
-2.0
 20
0.0
 30
0.0
 11
-3.5527
 21
0.0
 31
0.0
  0
LINE
  5
274
330
26B
100
AcDbEntity
  8
DIM
 62
     0
100
AcDbLine
 10
0.0
 20
-2.0
 30
0.0
 11
0.0
 21
-3.5527
 31
0.0
  0
LINE
  5
275
330
26B
100
AcDbEntity
  8
DIM
 62
     0
100
AcDbLine
 10
2.0
 20
0.0
 30
0.0
 11
3.5527
 21
0.0
 31
0.0
  0
ENDBLK
  5
26D
330
26B
100
AcDbEntity
  8
0
100
AcDbBlockEnd
  0
BLOCK
  5
278
330
277
100
AcDbEntity
  8
0
100
AcDbBlockBegin
  2
SW_CENTERMARKSYMBOL_7
 70
     0
 10
0.0
 20
0.0
 30
0.0
  3
SW_CENTERMARKSYMBOL_7
  1

  0
LINE
  5
27A
330
277
100
AcDbEntity
  8
DIM
 62
     0
100
AcDbLine
 10
0.0
 20
0.0
 30
0.0
 11
0.0
 21
1.0
 31
0.0
  0
LINE
  5
27B
330
277
100
AcDbEntity
  8
DIM
 62
     0
100
AcDbLine
 10
0.0
 20
0.0
 30
0.0
 11
-1.0
 21
0.0
 31
0.0
  0
LINE
  5
27C
330
277
100
AcDbEntity
  8
DIM
 62
     0
100
AcDbLine
 10
0.0
 20
0.0
 30
0.0
 11
0.0
 21
-1.0
 31
0.0
  0
LINE
  5
27D
330
277
100
AcDbEntity
  8
DIM
 62
     0
100
AcDbLine
 10
0.0
 20
0.0
 30
0.0
 11
1.0
 21
0.0
 31
0.0
  0
LINE
  5
27E
330
277
100
AcDbEntity
  8
DIM
 62
     0
100
AcDbLine
 10
0.0
 20
2.0
 30
0.0
 11
0.0
 21
3.5527
 31
0.0
  0
LINE
  5
27F
330
277
100
AcDbEntity
  8
DIM
 62
     0
100
AcDbLine
 10
-2.0
 20
0.0
 30
0.0
 11
-3.5527
 21
0.0
 31
0.0
  0
LINE
  5
280
330
277
100
AcDbEntity
  8
DIM
 62
     0
100
AcDbLine
 10
0.0
 20
-2.0
 30
0.0
 11
0.0
 21
-3.5527
 31
0.0
  0
LINE
  5
281
330
277
100
AcDbEntity
  8
DIM
 62
     0
100
AcDbLine
 10
2.0
 20
0.0
 30
0.0
 11
3.5527
 21
0.0
 31
0.0
  0
ENDBLK
  5
279
330
277
100
AcDbEntity
  8
0
100
AcDbBlockEnd
  0
BLOCK
  5
284
330
283
100
AcDbEntity
  8
0
100
AcDbBlockBegin
  2
SW_CENTERMARKSYMBOL_8
 70
     0
 10
0.0
 20
0.0
 30
0.0
  3
SW_CENTERMARKSYMBOL_8
  1

  0
LINE
  5
286
330
283
100
AcDbEntity
  8
DIM
 62
     0
100
AcDbLine
 10
0.0
 20
0.0
 30
0.0
 11
0.0
 21
1.0
 31
0.0
  0
LINE
  5
287
330
283
100
AcDbEntity
  8
DIM
 62
     0
100
AcDbLine
 10
0.0
 20
0.0
 30
0.0
 11
-1.0
 21
0.0
 31
0.0
  0
LINE
  5
288
330
283
100
AcDbEntity
  8
DIM
 62
     0
100
AcDbLine
 10
0.0
 20
0.0
 30
0.0
 11
0.0
 21
-1.0
 31
0.0
  0
LINE
  5
289
330
283
100
AcDbEntity
  8
DIM
 62
     0
100
AcDbLine
 10
0.0
 20
0.0
 30
0.0
 11
1.0
 21
0.0
 31
0.0
  0
LINE
  5
28A
330
283
100
AcDbEntity
  8
DIM
 62
     0
100
AcDbLine
 10
0.0
 20
2.0
 30
0.0
 11
0.0
 21
3.5527
 31
0.0
  0
LINE
  5
28B
330
283
100
AcDbEntity
  8
DIM
 62
     0
100
AcDbLine
 10
-2.0
 20
0.0
 30
0.0
 11
-3.5527
 21
0.0
 31
0.0
  0
LINE
  5
28C
330
283
100
AcDbEntity
  8
DIM
 62
     0
100
AcDbLine
 10
0.0
 20
-2.0
 30
0.0
 11
0.0
 21
-3.5527
 31
0.0
  0
LINE
  5
28D
330
283
100
AcDbEntity
  8
DIM
 62
     0
100
AcDbLine
 10
2.0
 20
0.0
 30
0.0
 11
3.5527
 21
0.0
 31
0.0
  0
ENDBLK
  5
285
330
283
100
AcDbEntity
  8
0
100
AcDbBlockEnd
  0
BLOCK
  5
290
330
28F
100
AcDbEntity
  8
0
100
AcDbBlockBegin
  2
SW_CENTERMARKSYMBOL_9
 70
     0
 10
0.0
 20
0.0
 30
0.0
  3
SW_CENTERMARKSYMBOL_9
  1

  0
LINE
  5
292
330
28F
100
AcDbEntity
  8
DIM
 62
     0
100
AcDbLine
 10
0.0
 20
0.0
 30
0.0
 11
0.0
 21
1.0
 31
0.0
  0
LINE
  5
293
330
28F
100
AcDbEntity
  8
DIM
 62
     0
100
AcDbLine
 10
0.0
 20
0.0
 30
0.0
 11
-1.0
 21
0.0
 31
0.0
  0
LINE
  5
294
330
28F
100
AcDbEntity
  8
DIM
 62
     0
100
AcDbLine
 10
0.0
 20
0.0
 30
0.0
 11
0.0
 21
-1.0
 31
0.0
  0
LINE
  5
295
330
28F
100
AcDbEntity
  8
DIM
 62
     0
100
AcDbLine
 10
0.0
 20
0.0
 30
0.0
 11
1.0
 21
0.0
 31
0.0
  0
LINE
  5
296
330
28F
100
AcDbEntity
  8
DIM
 62
     0
100
AcDbLine
 10
0.0
 20
2.0
 30
0.0
 11
0.0
 21
3.5527
 31
0.0
  0
LINE
  5
297
330
28F
100
AcDbEntity
  8
DIM
 62
     0
100
AcDbLine
 10
-2.0
 20
0.0
 30
0.0
 11
-3.5527
 21
0.0
 31
0.0
  0
LINE
  5
298
330
28F
100
AcDbEntity
  8
DIM
 62
     0
100
AcDbLine
 10
0.0
 20
-2.0
 30
0.0
 11
0.0
 21
-3.5527
 31
0.0
  0
LINE
  5
299
330
28F
100
AcDbEntity
  8
DIM
 62
     0
100
AcDbLine
 10
2.0
 20
0.0
 30
0.0
 11
3.5527
 21
0.0
 31
0.0
  0
ENDBLK
  5
291
330
28F
100
AcDbEntity
  8
0
100
AcDbBlockEnd
  0
BLOCK
  5
29C
330
29B
100
AcDbEntity
  8
0
100
AcDbBlockBegin
  2
SW_CENTERMARKSYMBOL_10
 70
     0
 10
0.0
 20
0.0
 30
0.0
  3
SW_CENTERMARKSYMBOL_10
  1

  0
LINE
  5
29E
330
29B
100
AcDbEntity
  8
DIM
 62
     0
100
AcDbLine
 10
0.0
 20
0.0
 30
0.0
 11
0.0
 21
1.0
 31
0.0
  0
LINE
  5
29F
330
29B
100
AcDbEntity
  8
DIM
 62
     0
100
AcDbLine
 10
0.0
 20
0.0
 30
0.0
 11
-1.0
 21
0.0
 31
0.0
  0
LINE
  5
2A0
330
29B
100
AcDbEntity
  8
DIM
 62
     0
100
AcDbLine
 10
0.0
 20
0.0
 30
0.0
 11
0.0
 21
-1.0
 31
0.0
  0
LINE
  5
2A1
330
29B
100
AcDbEntity
  8
DIM
 62
     0
100
AcDbLine
 10
0.0
 20
0.0
 30
0.0
 11
1.0
 21
0.0
 31
0.0
  0
LINE
  5
2A2
330
29B
100
AcDbEntity
  8
DIM
 62
     0
100
AcDbLine
 10
0.0
 20
2.0
 30
0.0
 11
0.0
 21
3.5527
 31
0.0
  0
LINE
  5
2A3
330
29B
100
AcDbEntity
  8
DIM
 62
     0
100
AcDbLine
 10
-2.0
 20
0.0
 30
0.0
 11
-3.5527
 21
0.0
 31
0.0
  0
LINE
  5
2A4
330
29B
100
AcDbEntity
  8
DIM
 62
     0
100
AcDbLine
 10
0.0
 20
-2.0
 30
0.0
 11
0.0
 21
-3.5527
 31
0.0
  0
LINE
  5
2A5
330
29B
100
AcDbEntity
  8
DIM
 62
     0
100
AcDbLine
 10
2.0
 20
0.0
 30
0.0
 11
3.5527
 21
0.0
 31
0.0
  0
ENDBLK
  5
29D
330
29B
100
AcDbEntity
  8
0
100
AcDbBlockEnd
  0
BLOCK
  5
2A8
330
2A7
100
AcDbEntity
  8
0
100
AcDbBlockBegin
  2
SW_CENTERMARKSYMBOL_11
 70
     0
 10
0.0
 20
0.0
 30
0.0
  3
SW_CENTERMARKSYMBOL_11
  1

  0
LINE
  5
2AA
330
2A7
100
AcDbEntity
  8
DIM
 62
     0
100
AcDbLine
 10
0.0
 20
0.0
 30
0.0
 11
0.0
 21
1.0
 31
0.0
  0
LINE
  5
2AB
330
2A7
100
AcDbEntity
  8
DIM
 62
     0
100
AcDbLine
 10
0.0
 20
0.0
 30
0.0
 11
-1.0
 21
0.0
 31
0.0
  0
LINE
  5
2AC
330
2A7
100
AcDbEntity
  8
DIM
 62
     0
100
AcDbLine
 10
0.0
 20
0.0
 30
0.0
 11
0.0
 21
-1.0
 31
0.0
  0
LINE
  5
2AD
330
2A7
100
AcDbEntity
  8
DIM
 62
     0
100
AcDbLine
 10
0.0
 20
0.0
 30
0.0
 11
1.0
 21
0.0
 31
0.0
  0
LINE
  5
2AE
330
2A7
100
AcDbEntity
  8
DIM
 62
     0
100
AcDbLine
 10
0.0
 20
2.0
 30
0.0
 11
0.0
 21
3.5527
 31
0.0
  0
LINE
  5
2AF
330
2A7
100
AcDbEntity
  8
DIM
 62
     0
100
AcDbLine
 10
-2.0
 20
0.0
 30
0.0
 11
-3.5527
 21
0.0
 31
0.0
  0
LINE
  5
2B0
330
2A7
100
AcDbEntity
  8
DIM
 62
     0
100
AcDbLine
 10
0.0
 20
-2.0
 30
0.0
 11
0.0
 21
-3.5527
 31
0.0
  0
LINE
  5
2B1
330
2A7
100
AcDbEntity
  8
DIM
 62
     0
100
AcDbLine
 10
2.0
 20
0.0
 30
0.0
 11
3.5527
 21
0.0
 31
0.0
  0
ENDBLK
  5
2A9
330
2A7
100
AcDbEntity
  8
0
100
AcDbBlockEnd
  0
BLOCK
  5
2B4
330
2B3
100
AcDbEntity
  8
0
100
AcDbBlockBegin
  2
SW_CENTERMARKSYMBOL_12
 70
     0
 10
0.0
 20
0.0
 30
0.0
  3
SW_CENTERMARKSYMBOL_12
  1

  0
LINE
  5
2B6
330
2B3
100
AcDbEntity
  8
DIM
 62
     0
100
AcDbLine
 10
0.0
 20
0.0
 30
0.0
 11
0.0
 21
1.0
 31
0.0
  0
LINE
  5
2B7
330
2B3
100
AcDbEntity
  8
DIM
 62
     0
100
AcDbLine
 10
0.0
 20
0.0
 30
0.0
 11
-1.0
 21
0.0
 31
0.0
  0
LINE
  5
2B8
330
2B3
100
AcDbEntity
  8
DIM
 62
     0
100
AcDbLine
 10
0.0
 20
0.0
 30
0.0
 11
0.0
 21
-1.0
 31
0.0
  0
LINE
  5
2B9
330
2B3
100
AcDbEntity
  8
DIM
 62
     0
100
AcDbLine
 10
0.0
 20
0.0
 30
0.0
 11
1.0
 21
0.0
 31
0.0
  0
LINE
  5
2BA
330
2B3
100
AcDbEntity
  8
DIM
 62
     0
100
AcDbLine
 10
0.0
 20
2.0
 30
0.0
 11
0.0
 21
3.5527
 31
0.0
  0
LINE
  5
2BB
330
2B3
100
AcDbEntity
  8
DIM
 62
     0
100
AcDbLine
 10
-2.0
 20
0.0
 30
0.0
 11
-3.5527
 21
0.0
 31
0.0
  0
LINE
  5
2BC
330
2B3
100
AcDbEntity
  8
DIM
 62
     0
100
AcDbLine
 10
0.0
 20
-2.0
 30
0.0
 11
0.0
 21
-3.5527
 31
0.0
  0
LINE
  5
2BD
330
2B3
100
AcDbEntity
  8
DIM
 62
     0
100
AcDbLine
 10
2.0
 20
0.0
 30
0.0
 11
3.5527
 21
0.0
 31
0.0
  0
ENDBLK
  5
2B5
330
2B3
100
AcDbEntity
  8
0
100
AcDbBlockEnd
  0
BLOCK
  5
2C0
330
2BF
100
AcDbEntity
  8
0
100
AcDbBlockBegin
  2
SW_CENTERMARKSYMBOL_13
 70
     0
 10
0.0
 20
0.0
 30
0.0
  3
SW_CENTERMARKSYMBOL_13
  1

  0
LINE
  5
2C2
330
2BF
100
AcDbEntity
  8
DIM
 62
     0
100
AcDbLine
 10
0.0
 20
0.0
 30
0.0
 11
0.0
 21
1.0
 31
0.0
  0
LINE
  5
2C3
330
2BF
100
AcDbEntity
  8
DIM
 62
     0
100
AcDbLine
 10
0.0
 20
0.0
 30
0.0
 11
-1.0
 21
0.0
 31
0.0
  0
LINE
  5
2C4
330
2BF
100
AcDbEntity
  8
DIM
 62
     0
100
AcDbLine
 10
0.0
 20
0.0
 30
0.0
 11
0.0
 21
-1.0
 31
0.0
  0
LINE
  5
2C5
330
2BF
100
AcDbEntity
  8
DIM
 62
     0
100
AcDbLine
 10
0.0
 20
0.0
 30
0.0
 11
1.0
 21
0.0
 31
0.0
  0
LINE
  5
2C6
330
2BF
100
AcDbEntity
  8
DIM
 62
     0
100
AcDbLine
 10
0.0
 20
2.0
 30
0.0
 11
0.0
 21
3.5527
 31
0.0
  0
LINE
  5
2C7
330
2BF
100
AcDbEntity
  8
DIM
 62
     0
100
AcDbLine
 10
-2.0
 20
0.0
 30
0.0
 11
-3.5527
 21
0.0
 31
0.0
  0
LINE
  5
2C8
330
2BF
100
AcDbEntity
  8
DIM
 62
     0
100
AcDbLine
 10
0.0
 20
-2.0
 30
0.0
 11
0.0
 21
-3.5527
 31
0.0
  0
LINE
  5
2C9
330
2BF
100
AcDbEntity
  8
DIM
 62
     0
100
AcDbLine
 10
2.0
 20
0.0
 30
0.0
 11
3.5527
 21
0.0
 31
0.0
  0
ENDBLK
  5
2C1
330
2BF
100
AcDbEntity
  8
0
100
AcDbBlockEnd
  0
BLOCK
  5
2CC
330
2CB
100
AcDbEntity
  8
0
100
AcDbBlockBegin
  2
SW_CENTERMARKSYMBOL_14
 70
     0
 10
0.0
 20
0.0
 30
0.0
  3
SW_CENTERMARKSYMBOL_14
  1

  0
LINE
  5
2CE
330
2CB
100
AcDbEntity
  8
DIM
 62
     0
100
AcDbLine
 10
0.0
 20
0.0
 30
0.0
 11
0.0
 21
1.0
 31
0.0
  0
LINE
  5
2CF
330
2CB
100
AcDbEntity
  8
DIM
 62
     0
100
AcDbLine
 10
0.0
 20
0.0
 30
0.0
 11
-1.0
 21
0.0
 31
0.0
  0
LINE
  5
2D0
330
2CB
100
AcDbEntity
  8
DIM
 62
     0
100
AcDbLine
 10
0.0
 20
0.0
 30
0.0
 11
0.0
 21
-1.0
 31
0.0
  0
LINE
  5
2D1
330
2CB
100
AcDbEntity
  8
DIM
 62
     0
100
AcDbLine
 10
0.0
 20
0.0
 30
0.0
 11
1.0
 21
0.0
 31
0.0
  0
LINE
  5
2D2
330
2CB
100
AcDbEntity
  8
DIM
 62
     0
100
AcDbLine
 10
0.0
 20
2.0
 30
0.0
 11
0.0
 21
3.5527
 31
0.0
  0
LINE
  5
2D3
330
2CB
100
AcDbEntity
  8
DIM
 62
     0
100
AcDbLine
 10
-2.0
 20
0.0
 30
0.0
 11
-3.5527
 21
0.0
 31
0.0
  0
LINE
  5
2D4
330
2CB
100
AcDbEntity
  8
DIM
 62
     0
100
AcDbLine
 10
0.0
 20
-2.0
 30
0.0
 11
0.0
 21
-3.5527
 31
0.0
  0
LINE
  5
2D5
330
2CB
100
AcDbEntity
  8
DIM
 62
     0
100
AcDbLine
 10
2.0
 20
0.0
 30
0.0
 11
3.5527
 21
0.0
 31
0.0
  0
ENDBLK
  5
2CD
330
2CB
100
AcDbEntity
  8
0
100
AcDbBlockEnd
  0
BLOCK
  5
2D8
330
2D7
100
AcDbEntity
  8
0
100
AcDbBlockBegin
  2
SW_CENTERMARKSYMBOL_15
 70
     0
 10
0.0
 20
0.0
 30
0.0
  3
SW_CENTERMARKSYMBOL_15
  1

  0
LINE
  5
2DA
330
2D7
100
AcDbEntity
  8
DIM
 62
     0
100
AcDbLine
 10
0.0
 20
0.0
 30
0.0
 11
0.0
 21
1.0
 31
0.0
  0
LINE
  5
2DB
330
2D7
100
AcDbEntity
  8
DIM
 62
     0
100
AcDbLine
 10
0.0
 20
0.0
 30
0.0
 11
-1.0
 21
0.0
 31
0.0
  0
LINE
  5
2DC
330
2D7
100
AcDbEntity
  8
DIM
 62
     0
100
AcDbLine
 10
0.0
 20
0.0
 30
0.0
 11
0.0
 21
-1.0
 31
0.0
  0
LINE
  5
2DD
330
2D7
100
AcDbEntity
  8
DIM
 62
     0
100
AcDbLine
 10
0.0
 20
0.0
 30
0.0
 11
1.0
 21
0.0
 31
0.0
  0
LINE
  5
2DE
330
2D7
100
AcDbEntity
  8
DIM
 62
     0
100
AcDbLine
 10
0.0
 20
2.0
 30
0.0
 11
0.0
 21
3.5527
 31
0.0
  0
LINE
  5
2DF
330
2D7
100
AcDbEntity
  8
DIM
 62
     0
100
AcDbLine
 10
-2.0
 20
0.0
 30
0.0
 11
-3.5527
 21
0.0
 31
0.0
  0
LINE
  5
2E0
330
2D7
100
AcDbEntity
  8
DIM
 62
     0
100
AcDbLine
 10
0.0
 20
-2.0
 30
0.0
 11
0.0
 21
-3.5527
 31
0.0
  0
LINE
  5
2E1
330
2D7
100
AcDbEntity
  8
DIM
 62
     0
100
AcDbLine
 10
2.0
 20
0.0
 30
0.0
 11
3.5527
 21
0.0
 31
0.0
  0
ENDBLK
  5
2D9
330
2D7
100
AcDbEntity
  8
0
100
AcDbBlockEnd
  0
BLOCK
  5
2E4
330
2E3
100
AcDbEntity
  8
0
100
AcDbBlockBegin
  2
SW_CENTERMARKSYMBOL_16
 70
     0
 10
0.0
 20
0.0
 30
0.0
  3
SW_CENTERMARKSYMBOL_16
  1

  0
LINE
  5
2E6
330
2E3
100
AcDbEntity
  8
DIM
 62
     0
100
AcDbLine
 10
0.0
 20
0.0
 30
0.0
 11
0.0
 21
1.0
 31
0.0
  0
LINE
  5
2E7
330
2E3
100
AcDbEntity
  8
DIM
 62
     0
100
AcDbLine
 10
0.0
 20
0.0
 30
0.0
 11
-1.0
 21
0.0
 31
0.0
  0
LINE
  5
2E8
330
2E3
100
AcDbEntity
  8
DIM
 62
     0
100
AcDbLine
 10
0.0
 20
0.0
 30
0.0
 11
0.0
 21
-1.0
 31
0.0
  0
LINE
  5
2E9
330
2E3
100
AcDbEntity
  8
DIM
 62
     0
100
AcDbLine
 10
0.0
 20
0.0
 30
0.0
 11
1.0
 21
0.0
 31
0.0
  0
LINE
  5
2EA
330
2E3
100
AcDbEntity
  8
DIM
 62
     0
100
AcDbLine
 10
0.0
 20
2.0
 30
0.0
 11
0.0
 21
4.5
 31
0.0
  0
LINE
  5
2EB
330
2E3
100
AcDbEntity
  8
DIM
 62
     0
100
AcDbLine
 10
-2.0
 20
0.0
 30
0.0
 11
-4.5
 21
0.0
 31
0.0
  0
LINE
  5
2EC
330
2E3
100
AcDbEntity
  8
DIM
 62
     0
100
AcDbLine
 10
0.0
 20
-2.0
 30
0.0
 11
0.0
 21
-4.5
 31
0.0
  0
LINE
  5
2ED
330
2E3
100
AcDbEntity
  8
DIM
 62
     0
100
AcDbLine
 10
2.0
 20
0.0
 30
0.0
 11
4.5
 21
0.0
 31
0.0
  0
ENDBLK
  5
2E5
330
2E3
100
AcDbEntity
  8
0
100
AcDbBlockEnd
  0
BLOCK
  5
2F0
330
2EF
100
AcDbEntity
  8
0
100
AcDbBlockBegin
  2
SW_CENTERMARKSYMBOL_17
 70
     0
 10
0.0
 20
0.0
 30
0.0
  3
SW_CENTERMARKSYMBOL_17
  1

  0
LINE
  5
2F2
330
2EF
100
AcDbEntity
  8
DIM
 62
     0
100
AcDbLine
 10
0.0
 20
0.0
 30
0.0
 11
0.0
 21
1.0
 31
0.0
  0
LINE
  5
2F3
330
2EF
100
AcDbEntity
  8
DIM
 62
     0
100
AcDbLine
 10
0.0
 20
0.0
 30
0.0
 11
-1.0
 21
0.0
 31
0.0
  0
LINE
  5
2F4
330
2EF
100
AcDbEntity
  8
DIM
 62
     0
100
AcDbLine
 10
0.0
 20
0.0
 30
0.0
 11
0.0
 21
-1.0
 31
0.0
  0
LINE
  5
2F5
330
2EF
100
AcDbEntity
  8
DIM
 62
     0
100
AcDbLine
 10
0.0
 20
0.0
 30
0.0
 11
1.0
 21
0.0
 31
0.0
  0
LINE
  5
2F6
330
2EF
100
AcDbEntity
  8
DIM
 62
     0
100
AcDbLine
 10
0.0
 20
2.0
 30
0.0
 11
0.0
 21
4.5
 31
0.0
  0
LINE
  5
2F7
330
2EF
100
AcDbEntity
  8
DIM
 62
     0
100
AcDbLine
 10
-2.0
 20
0.0
 30
0.0
 11
-4.5
 21
0.0
 31
0.0
  0
LINE
  5
2F8
330
2EF
100
AcDbEntity
  8
DIM
 62
     0
100
AcDbLine
 10
0.0
 20
-2.0
 30
0.0
 11
0.0
 21
-4.5
 31
0.0
  0
LINE
  5
2F9
330
2EF
100
AcDbEntity
  8
DIM
 62
     0
100
AcDbLine
 10
2.0
 20
0.0
 30
0.0
 11
4.5
 21
0.0
 31
0.0
  0
ENDBLK
  5
2F1
330
2EF
100
AcDbEntity
  8
0
100
AcDbBlockEnd
  0
BLOCK
  5
2FC
330
2FB
100
AcDbEntity
  8
0
100
AcDbBlockBegin
  2
SW_CENTERMARKSYMBOL_18
 70
     0
 10
0.0
 20
0.0
 30
0.0
  3
SW_CENTERMARKSYMBOL_18
  1

  0
LINE
  5
2FE
330
2FB
100
AcDbEntity
  8
DIM
 62
     0
100
AcDbLine
 10
0.0
 20
0.0
 30
0.0
 11
0.0
 21
1.0
 31
0.0
  0
LINE
  5
2FF
330
2FB
100
AcDbEntity
  8
DIM
 62
     0
100
AcDbLine
 10
0.0
 20
0.0
 30
0.0
 11
-1.0
 21
0.0
 31
0.0
  0
LINE
  5
300
330
2FB
100
AcDbEntity
  8
DIM
 62
     0
100
AcDbLine
 10
0.0
 20
0.0
 30
0.0
 11
0.0
 21
-1.0
 31
0.0
  0
LINE
  5
301
330
2FB
100
AcDbEntity
  8
DIM
 62
     0
100
AcDbLine
 10
0.0
 20
0.0
 30
0.0
 11
1.0
 21
0.0
 31
0.0
  0
LINE
  5
302
330
2FB
100
AcDbEntity
  8
DIM
 62
     0
100
AcDbLine
 10
0.0
 20
2.0
 30
0.0
 11
0.0
 21
4.5
 31
0.0
  0
LINE
  5
303
330
2FB
100
AcDbEntity
  8
DIM
 62
     0
100
AcDbLine
 10
-2.0
 20
0.0
 30
0.0
 11
-4.5
 21
0.0
 31
0.0
  0
LINE
  5
304
330
2FB
100
AcDbEntity
  8
DIM
 62
     0
100
AcDbLine
 10
0.0
 20
-2.0
 30
0.0
 11
0.0
 21
-4.5
 31
0.0
  0
LINE
  5
305
330
2FB
100
AcDbEntity
  8
DIM
 62
     0
100
AcDbLine
 10
2.0
 20
0.0
 30
0.0
 11
4.5
 21
0.0
 31
0.0
  0
ENDBLK
  5
2FD
330
2FB
100
AcDbEntity
  8
0
100
AcDbBlockEnd
  0
BLOCK
  5
308
330
307
100
AcDbEntity
  8
0
100
AcDbBlockBegin
  2
SW_CENTERMARKSYMBOL_19
 70
     0
 10
0.0
 20
0.0
 30
0.0
  3
SW_CENTERMARKSYMBOL_19
  1

  0
LINE
  5
30A
330
307
100
AcDbEntity
  8
DIM
 62
     0
100
AcDbLine
 10
0.0
 20
0.0
 30
0.0
 11
0.0
 21
1.0
 31
0.0
  0
LINE
  5
30B
330
307
100
AcDbEntity
  8
DIM
 62
     0
100
AcDbLine
 10
0.0
 20
0.0
 30
0.0
 11
-1.0
 21
0.0
 31
0.0
  0
LINE
  5
30C
330
307
100
AcDbEntity
  8
DIM
 62
     0
100
AcDbLine
 10
0.0
 20
0.0
 30
0.0
 11
0.0
 21
-1.0
 31
0.0
  0
LINE
  5
30D
330
307
100
AcDbEntity
  8
DIM
 62
     0
100
AcDbLine
 10
0.0
 20
0.0
 30
0.0
 11
1.0
 21
0.0
 31
0.0
  0
LINE
  5
30E
330
307
100
AcDbEntity
  8
DIM
 62
     0
100
AcDbLine
 10
0.0
 20
2.0
 30
0.0
 11
0.0
 21
4.5
 31
0.0
  0
LINE
  5
30F
330
307
100
AcDbEntity
  8
DIM
 62
     0
100
AcDbLine
 10
-2.0
 20
0.0
 30
0.0
 11
-4.5
 21
0.0
 31
0.0
  0
LINE
  5
310
330
307
100
AcDbEntity
  8
DIM
 62
     0
100
AcDbLine
 10
0.0
 20
-2.0
 30
0.0
 11
0.0
 21
-4.5
 31
0.0
  0
LINE
  5
311
330
307
100
AcDbEntity
  8
DIM
 62
     0
100
AcDbLine
 10
2.0
 20
0.0
 30
0.0
 11
4.5
 21
0.0
 31
0.0
  0
ENDBLK
  5
309
330
307
100
AcDbEntity
  8
0
100
AcDbBlockEnd
  0
BLOCK
  5
314
330
313
100
AcDbEntity
  8
0
100
AcDbBlockBegin
  2
SW_CENTERMARKSYMBOL_20
 70
     0
 10
0.0
 20
0.0
 30
0.0
  3
SW_CENTERMARKSYMBOL_20
  1

  0
LINE
  5
316
330
313
100
AcDbEntity
  8
DIM
 62
     0
100
AcDbLine
 10
0.0
 20
0.0
 30
0.0
 11
0.0
 21
1.0
 31
0.0
  0
LINE
  5
317
330
313
100
AcDbEntity
  8
DIM
 62
     0
100
AcDbLine
 10
0.0
 20
0.0
 30
0.0
 11
-1.0
 21
0.0
 31
0.0
  0
LINE
  5
318
330
313
100
AcDbEntity
  8
DIM
 62
     0
100
AcDbLine
 10
0.0
 20
0.0
 30
0.0
 11
0.0
 21
-1.0
 31
0.0
  0
LINE
  5
319
330
313
100
AcDbEntity
  8
DIM
 62
     0
100
AcDbLine
 10
0.0
 20
0.0
 30
0.0
 11
1.0
 21
0.0
 31
0.0
  0
LINE
  5
31A
330
313
100
AcDbEntity
  8
DIM
 62
     0
100
AcDbLine
 10
0.0
 20
2.0
 30
0.0
 11
0.0
 21
4.5
 31
0.0
  0
LINE
  5
31B
330
313
100
AcDbEntity
  8
DIM
 62
     0
100
AcDbLine
 10
-2.0
 20
0.0
 30
0.0
 11
-4.5
 21
0.0
 31
0.0
  0
LINE
  5
31C
330
313
100
AcDbEntity
  8
DIM
 62
     0
100
AcDbLine
 10
0.0
 20
-2.0
 30
0.0
 11
0.0
 21
-4.5
 31
0.0
  0
LINE
  5
31D
330
313
100
AcDbEntity
  8
DIM
 62
     0
100
AcDbLine
 10
2.0
 20
0.0
 30
0.0
 11
4.5
 21
0.0
 31
0.0
  0
ENDBLK
  5
315
330
313
100
AcDbEntity
  8
0
100
AcDbBlockEnd
  0
BLOCK
  5
320
330
31F
100
AcDbEntity
  8
0
100
AcDbBlockBegin
  2
SW_CENTERMARKSYMBOL_21
 70
     0
 10
0.0
 20
0.0
 30
0.0
  3
SW_CENTERMARKSYMBOL_21
  1

  0
LINE
  5
322
330
31F
100
AcDbEntity
  8
DIM
 62
     0
100
AcDbLine
 10
0.0
 20
0.0
 30
0.0
 11
0.0
 21
1.0
 31
0.0
  0
LINE
  5
323
330
31F
100
AcDbEntity
  8
DIM
 62
     0
100
AcDbLine
 10
0.0
 20
0.0
 30
0.0
 11
-1.0
 21
0.0
 31
0.0
  0
LINE
  5
324
330
31F
100
AcDbEntity
  8
DIM
 62
     0
100
AcDbLine
 10
0.0
 20
0.0
 30
0.0
 11
0.0
 21
-1.0
 31
0.0
  0
LINE
  5
325
330
31F
100
AcDbEntity
  8
DIM
 62
     0
100
AcDbLine
 10
0.0
 20
0.0
 30
0.0
 11
1.0
 21
0.0
 31
0.0
  0
LINE
  5
326
330
31F
100
AcDbEntity
  8
DIM
 62
     0
100
AcDbLine
 10
0.0
 20
2.0
 30
0.0
 11
0.0
 21
4.5
 31
0.0
  0
LINE
  5
327
330
31F
100
AcDbEntity
  8
DIM
 62
     0
100
AcDbLine
 10
-2.0
 20
0.0
 30
0.0
 11
-4.5
 21
0.0
 31
0.0
  0
LINE
  5
328
330
31F
100
AcDbEntity
  8
DIM
 62
     0
100
AcDbLine
 10
0.0
 20
-2.0
 30
0.0
 11
0.0
 21
-4.5
 31
0.0
  0
LINE
  5
329
330
31F
100
AcDbEntity
  8
DIM
 62
     0
100
AcDbLine
 10
2.0
 20
0.0
 30
0.0
 11
4.5
 21
0.0
 31
0.0
  0
ENDBLK
  5
321
330
31F
100
AcDbEntity
  8
0
100
AcDbBlockEnd
  0
BLOCK
  5
32C
330
32B
100
AcDbEntity
  8
0
100
AcDbBlockBegin
  2
SW_CENTERMARKSYMBOL_22
 70
     0
 10
0.0
 20
0.0
 30
0.0
  3
SW_CENTERMARKSYMBOL_22
  1

  0
LINE
  5
32E
330
32B
100
AcDbEntity
  8
DIM
 62
     0
100
AcDbLine
 10
0.0
 20
0.0
 30
0.0
 11
0.0
 21
1.0
 31
0.0
  0
LINE
  5
32F
330
32B
100
AcDbEntity
  8
DIM
 62
     0
100
AcDbLine
 10
0.0
 20
0.0
 30
0.0
 11
-1.0
 21
0.0
 31
0.0
  0
LINE
  5
330
330
32B
100
AcDbEntity
  8
DIM
 62
     0
100
AcDbLine
 10
0.0
 20
0.0
 30
0.0
 11
0.0
 21
-1.0
 31
0.0
  0
LINE
  5
331
330
32B
100
AcDbEntity
  8
DIM
 62
     0
100
AcDbLine
 10
0.0
 20
0.0
 30
0.0
 11
1.0
 21
0.0
 31
0.0
  0
LINE
  5
332
330
32B
100
AcDbEntity
  8
DIM
 62
     0
100
AcDbLine
 10
0.0
 20
2.0
 30
0.0
 11
0.0
 21
4.5
 31
0.0
  0
LINE
  5
333
330
32B
100
AcDbEntity
  8
DIM
 62
     0
100
AcDbLine
 10
-2.0
 20
0.0
 30
0.0
 11
-4.5
 21
0.0
 31
0.0
  0
LINE
  5
334
330
32B
100
AcDbEntity
  8
DIM
 62
     0
100
AcDbLine
 10
0.0
 20
-2.0
 30
0.0
 11
0.0
 21
-4.5
 31
0.0
  0
LINE
  5
335
330
32B
100
AcDbEntity
  8
DIM
 62
     0
100
AcDbLine
 10
2.0
 20
0.0
 30
0.0
 11
4.5
 21
0.0
 31
0.0
  0
ENDBLK
  5
32D
330
32B
100
AcDbEntity
  8
0
100
AcDbBlockEnd
  0
BLOCK
  5
338
330
337
100
AcDbEntity
  8
0
100
AcDbBlockBegin
  2
SW_CENTERMARKSYMBOL_23
 70
     0
 10
0.0
 20
0.0
 30
0.0
  3
SW_CENTERMARKSYMBOL_23
  1

  0
LINE
  5
33A
330
337
100
AcDbEntity
  8
DIM
 62
     0
100
AcDbLine
 10
0.0
 20
0.0
 30
0.0
 11
0.0
 21
1.0
 31
0.0
  0
LINE
  5
33B
330
337
100
AcDbEntity
  8
DIM
 62
     0
100
AcDbLine
 10
0.0
 20
0.0
 30
0.0
 11
-1.0
 21
0.0
 31
0.0
  0
LINE
  5
33C
330
337
100
AcDbEntity
  8
DIM
 62
     0
100
AcDbLine
 10
0.0
 20
0.0
 30
0.0
 11
0.0
 21
-1.0
 31
0.0
  0
LINE
  5
33D
330
337
100
AcDbEntity
  8
DIM
 62
     0
100
AcDbLine
 10
0.0
 20
0.0
 30
0.0
 11
1.0
 21
0.0
 31
0.0
  0
LINE
  5
33E
330
337
100
AcDbEntity
  8
DIM
 62
     0
100
AcDbLine
 10
0.0
 20
2.0
 30
0.0
 11
0.0
 21
4.5
 31
0.0
  0
LINE
  5
33F
330
337
100
AcDbEntity
  8
DIM
 62
     0
100
AcDbLine
 10
-2.0
 20
0.0
 30
0.0
 11
-4.5
 21
0.0
 31
0.0
  0
LINE
  5
340
330
337
100
AcDbEntity
  8
DIM
 62
     0
100
AcDbLine
 10
0.0
 20
-2.0
 30
0.0
 11
0.0
 21
-4.5
 31
0.0
  0
LINE
  5
341
330
337
100
AcDbEntity
  8
DIM
 62
     0
100
AcDbLine
 10
2.0
 20
0.0
 30
0.0
 11
4.5
 21
0.0
 31
0.0
  0
ENDBLK
  5
339
330
337
100
AcDbEntity
  8
0
100
AcDbBlockEnd
  0
BLOCK
  5
380
330
37F
100
AcDbEntity
  8
0
100
AcDbBlockBegin
  2
_D_16
 70
     0
 10
0.0
 20
0.0
 30
0.0
  3
_D_16
  1

  0
ARC
  5
382
330
37F
100
AcDbEntity
  8
DIM
100
AcDbCircle
 10
110.7063620061
 20
59.3380953281
 30
0.0
 40
52.47182514420685
100
AcDbArc
 50
90.0
 51
135.0
  0
SOLID
  5
383
330
37F
100
AcDbEntity
  8
DIM
100
AcDbTrace
 10
110.7063620061
 20
111.8099204723
 30
0.0
 11
107.6968781377
 21
112.099112184
 31
0.0
 12
107.7182919893
 22
111.3494179484
 32
0.0
 13
107.7182919893
 23
111.3494179484
 33
0.0
  0
SOLID
  5
384
330
37F
100
AcDbEntity
  8
DIM
100
AcDbTrace
 10
73.6031786254
 20
96.4412787088
 30
0.0
 11
76.0416876544
 21
98.2285388229
 31
0.0
 12
75.5267156562
 22
98.7737945804
 32
0.0
 13
75.5267156562
 23
98.7737945804
 33
0.0
  0
LINE
  5
385
330
37F
100
AcDbEntity
  8
DIM
100
AcDbLine
 10
110.7063620061
 20
109.9423250418
 30
0.0
 11
110.7063620061
 21
113.3099204723
 31
0.0
  0
LINE
  5
386
330
37F
100
AcDbEntity
  8
DIM
100
AcDbLine
 10
89.4931585705
 20
80.5512987637
 30
0.0
 11
72.5425184536
 21
97.5019388806
 31
0.0
  0
MTEXT
  5
387
330
37F
100
AcDbEntity
  8
DIM
100
AcDbMText
 10
85.1770901898
 20
110.7909069439
 30
0.0
 40
3.75
 41
0.0
 71
     1
 72
     1
  1
45°
  7
SLDTEXTSTYLE1
 11
0.9238795325112845
 21
0.3826834323650951
 31
0.0
 73
     1
 44
1.0
  0
ENDBLK
  5
381
330
37F
100
AcDbEntity
  8
0
100
AcDbBlockEnd
  0
BLOCK
  5
38A
330
389
100
AcDbEntity
  8
0
100
AcDbBlockBegin
  2
_D_17
 70
     0
 10
0.0
 20
0.0
 30
0.0
  3
_D_17
  1

  0
ARC
  5
38C
330
389
100
AcDbEntity
  8
DIM
100
AcDbCircle
 10
110.7063620061
 20
59.3380953281
 30
0.0
 40
52.4718251442068
100
AcDbArc
 50
45.0
 51
90.0
  0
SOLID
  5
38D
330
389
100
AcDbEntity
  8
DIM
100
AcDbTrace
 10
147.8095453868
 20
96.4412787088
 30
0.0
 11
145.886008356
 21
98.7737945804
 31
0.0
 12
145.3710363578
 22
98.2285388229
 32
0.0
 13
145.3710363578
 23
98.2285388229
 33
0.0
  0
SOLID
  5
38E
330
389
100
AcDbEntity
  8
DIM
100
AcDbTrace
 10
110.7063620061
 20
111.8099204723
 30
0.0
 11
113.6944320229
 21
111.3494179484
 31
0.0
 12
113.7158458744
 22
112.099112184
 32
0.0
 13
113.7158458744
 23
112.099112184
 33
0.0
  0
LINE
  5
38F
330
389
100
AcDbEntity
  8
DIM
100
AcDbLine
 10
131.9195654417
 20
80.5512987637
 30
0.0
 11
148.8702055586
 21
97.5019388806
 31
0.0
  0
LINE
  5
390
330
389
100
AcDbEntity
  8
DIM
100
AcDbLine
 10
110.7063620061
 20
109.9423250418
 30
0.0
 11
110.7063620061
 21
113.3099204723
 31
0.0
  0
MTEXT
  5
391
330
389
100
AcDbEntity
  8
DIM
100
AcDbMText
 10
129.0370727907
 20
113.7726485528
 30
0.0
 40
3.75
 41
0.0
 71
     1
 72
     1
  1
45°
  7
SLDTEXTSTYLE1
 11
0.9238795325112829
 21
-0.3826834323650992
 31
0.0
 73
     1
 44
1.0
  0
ENDBLK
  5
38B
330
389
100
AcDbEntity
  8
0
100
AcDbBlockEnd
  0
BLOCK
  5
394
330
393
100
AcDbEntity
  8
0
100
AcDbBlockBegin
  2
_D_18
 70
     0
 10
0.0
 20
0.0
 30
0.0
  3
_D_18
  1

  0
SOLID
  5
396
330
393
100
AcDbEntity
  8
DIM
100
AcDbTrace
 10
110.7063620061
 20
31.7442904623
 30
0.0
 11
107.7063620061
 21
32.1192904623
 31
0.0
 12
107.7063620061
 22
31.3692904623
 32
0.0
 13
107.7063620061
 23
31.3692904623
 33
0.0
  0
SOLID
  5
397
330
393
100
AcDbEntity
  8
DIM
100
AcDbTrace
 10
98.0063620061
 20
31.7442904623
 30
0.0
 11
101.0063620061
 21
31.3692904623
 31
0.0
 12
101.0063620061
 22
32.1192904623
 32
0.0
 13
101.0063620061
 23
32.1192904623
 33
0.0
  0
LINE
  5
398
330
393
100
AcDbEntity
  8
DIM
100
AcDbLine
 10
110.7063620061
 20
57.8380953281
 30
0.0
 11
110.7063620061
 21
30.2442904623
 31
0.0
  0
LINE
  5
399
330
393
100
AcDbEntity
  8
DIM
100
AcDbLine
 10
98.0063620061
 20
54.2853953281
 30
0.0
 11
98.0063620061
 21
30.2442904623
 31
0.0
  0
LINE
  5
39A
330
393
100
AcDbEntity
  8
DIM
100
AcDbLine
 10
110.7063620061
 20
31.7442904623
 30
0.0
 11
98.0063620061
 21
31.7442904623
 31
0.0
  0
MTEXT
  5
39B
330
393
100
AcDbEntity
  8
DIM
100
AcDbMText
 10
99.3433412969
 20
36.5782942245
 30
0.0
 40
3.75
 41
0.0
 71
     1
 72
     1
  1
12.7
  7
SLDTEXTSTYLE1
 73
     1
 44
1.0
  0
ENDBLK
  5
395
330
393
100
AcDbEntity
  8
0
100
AcDbBlockEnd
  0
BLOCK
  5
39E
330
39D
100
AcDbEntity
  8
0
100
AcDbBlockBegin
  2
_D_19
 70
     0
 10
0.0
 20
0.0
 30
0.0
  3
_D_19
  1

  0
SOLID
  5
3A0
330
39D
100
AcDbEntity
  8
DIM
100
AcDbTrace
 10
110.7063620061
 20
31.7442904623
 30
0.0
 11
113.7063620061
 21
31.3692904623
 31
0.0
 12
113.7063620061
 22
32.1192904623
 32
0.0
 13
113.7063620061
 23
32.1192904623
 33
0.0
  0
SOLID
  5
3A1
330
39D
100
AcDbEntity
  8
DIM
100
AcDbTrace
 10
123.4063620061
 20
31.7442904623
 30
0.0
 11
120.4063620061
 21
32.1192904623
 31
0.0
 12
120.4063620061
 22
31.3692904623
 32
0.0
 13
120.4063620061
 23
31.3692904623
 33
0.0
  0
LINE
  5
3A2
330
39D
100
AcDbEntity
  8
DIM
100
AcDbLine
 10
110.7063620061
 20
57.8380953281
 30
0.0
 11
110.7063620061
 21
30.2442904623
 31
0.0
  0
LINE
  5
3A3
330
39D
100
AcDbEntity
  8
DIM
100
AcDbLine
 10
123.4063620061
 20
53.3380953281
 30
0.0
 11
123.4063620061
 21
30.2442904623
 31
0.0
  0
LINE
  5
3A4
330
39D
100
AcDbEntity
  8
DIM
100
AcDbLine
 10
110.7063620061
 20
31.7442904623
 30
0.0
 11
123.4063620061
 21
31.7442904623
 31
0.0
  0
MTEXT
  5
3A5
330
39D
100
AcDbEntity
  8
DIM
100
AcDbMText
 10
112.0433412969
 20
36.5782942245
 30
0.0
 40
3.75
 41
0.0
 71
     1
 72
     1
  1
12.7
  7
SLDTEXTSTYLE1
 73
     1
 44
1.0
  0
ENDBLK
  5
39F
330
39D
100
AcDbEntity
  8
0
100
AcDbBlockEnd
  0
BLOCK
  5
3A8
330
3A7
100
AcDbEntity
  8
0
100
AcDbBlockBegin
  2
_D_20
 70
     0
 10
0.0
 20
0.0
 30
0.0
  3
_D_20
  1

  0
SOLID
  5
3AA
330
3A7
100
AcDbEntity
  8
DIM
100
AcDbTrace
 10
97.1028185966
 20
56.9506518006
 30
0.0
 11
95.6902273986
 21
54.2775990313
 31
0.0
 12
96.3916739632
 22
54.0121320524
 32
0.0
 13
96.3916739632
 23
54.0121320524
 33
0.0
  0
LINE
  5
3AB
330
3A7
100
AcDbEntity
  8
DIM
100
AcDbLine
 10
97.1028185966
 20
56.9506518006
 30
0.0
 11
85.4413741275
 21
26.137477992
 31
0.0
  0
LINE
  5
3AC
330
3A7
100
AcDbEntity
  8
DIM
100
AcDbLine
 10
85.4413741275
 20
26.137477992
 30
0.0
 11
60.3736662126
 21
26.137477992
 31
0.0
  0
MTEXT
  5
3AD
330
3A7
100
AcDbEntity
  8
DIM
100
AcDbMText
 10
60.3736662126
 20
36.7266899541
 30
0.0
 40
3.75
 41
0.0
 71
     1
 72
     1
  1
2 HOLES,
  7
SLDTEXTSTYLE1
 73
     1
 44
1.0
  0
MTEXT
  5
3AE
330
3A7
100
AcDbEntity
  8
DIM
100
AcDbMText
 10
60.3736662126
 20
30.9714817542
 30
0.0
 40
3.75
 41
0.0
 71
     1
 72
     1
  1
 1/4"-20
  7
SLDTEXTSTYLE1
 73
     1
 44
1.0
  0
ENDBLK
  5
3A9
330
3A7
100
AcDbEntity
  8
0
100
AcDbBlockEnd
  0
BLOCK
  5
3B1
330
3B0
100
AcDbEntity
  8
0
100
AcDbBlockBegin
  2
_D_21
 70
     0
 10
0.0
 20
0.0
 30
0.0
  3
_D_21
  1

  0
SOLID
  5
3B3
330
3B0
100
AcDbEntity
  8
DIM
100
AcDbTrace
 10
124.8349324618
 20
56.1429135723
 30
0.0
 11
125.7170805215
 21
53.2511252327
 31
0.0
 12
126.4017623263
 22
53.5572474732
 32
0.0
 13
126.4017623263
 23
53.5572474732
 33
0.0
  0
LINE
  5
3B4
330
3B0
100
AcDbEntity
  8
DIM
100
AcDbLine
 10
124.8349324618
 20
56.1429135723
 30
0.0
 11
136.598791073
 21
29.8315291662
 31
0.0
  0
LINE
  5
3B5
330
3B0
100
AcDbEntity
  8
DIM
100
AcDbLine
 10
136.598791073
 20
29.8315291662
 30
0.0
 11
171.7120716376
 21
29.8315291662
 31
0.0
  0
MTEXT
  5
3B6
330
3B0
100
AcDbEntity
  8
DIM
100
AcDbMText
 10
138.473791073
 20
34.6759495385
 30
0.0
 40
3.75
 41
0.0
 71
     1
 72
     1
  1
3-
  7
SLDTEXTSTYLE1
 73
     1
 44
1.0
  0
MTEXT
  5
3B7
330
3B0
100
AcDbEntity
  8
DIM
100
AcDbMText
 10
143.0519160376
 20
34.6655328411
 30
0.0
 40
3.75
 41
0.0
 71
     1
 72
     1
  1
%%c
  7
SLDTEXTSTYLE1
 73
     1
 44
1.0
  0
MTEXT
  5
3B8
330
3B0
100
AcDbEntity
  8
DIM
100
AcDbMText
 10
148.5193637227
 20
34.6759495385
 30
0.0
 40
3.75
 41
0.0
 71
     1
 72
     1
  1
7
  7
SLDTEXTSTYLE1
 73
     1
 44
1.0
  0
MTEXT
  5
3B9
330
3B0
100
AcDbEntity
  8
DIM
100
AcDbMText
 10
151.3839475838
 20
34.6759495385
 30
0.0
 40
3.75
 41
0.0
 71
     1
 72
     1
  1
 HOLES.
  7
SLDTEXTSTYLE1
 73
     1
 44
1.0
  0
ENDBLK
  5
3B2
330
3B0
100
AcDbEntity
  8
0
100
AcDbBlockEnd
  0
BLOCK
  5
3BC
330
3BB
100
AcDbEntity
  8
0
100
AcDbBlockBegin
  2
_D_22
 70
     0
 10
0.0
 20
0.0
 30
0.0
  3
_D_22
  1

  0
SOLID
  5
3BE
330
3BB
100
AcDbEntity
  8
DIM
100
AcDbTrace
 10
162.2145779411
 20
46.3380953281
 30
0.0
 11
162.5895779411
 21
49.3380953281
 31
0.0
 12
161.8395779411
 22
49.3380953281
 32
0.0
 13
161.8395779411
 23
49.3380953281
 33
0.0
  0
SOLID
  5
3BF
330
3BB
100
AcDbEntity
  8
DIM
100
AcDbTrace
 10
162.2145779411
 20
59.3380953281
 30
0.0
 11
161.8395779411
 21
56.3380953281
 31
0.0
 12
162.5895779411
 22
56.3380953281
 32
0.0
 13
162.5895779411
 23
56.3380953281
 33
0.0
  0
LINE
  5
3C0
330
3BB
100
AcDbEntity
  8
DIM
100
AcDbLine
 10
150.2063620061
 20
46.3380953281
 30
0.0
 11
163.7145779411
 21
46.3380953281
 31
0.0
  0
LINE
  5
3C1
330
3BB
100
AcDbEntity
  8
DIM
100
AcDbLine
 10
124.9063620061
 20
59.3380953281
 30
0.0
 11
163.7145779411
 21
59.3380953281
 31
0.0
  0
LINE
  5
3C2
330
3BB
100
AcDbEntity
  8
DIM
100
AcDbLine
 10
162.2145779411
 20
46.3380953281
 30
0.0
 11
162.2145779411
 21
59.3380953281
 31
0.0
  0
MTEXT
  5
3C3
330
3BB
100
AcDbEntity
  8
DIM
100
AcDbMText
 10
157.3805741789
 20
49.9735119909
 30
0.0
 40
3.75
 41
0.0
 71
     1
 72
     1
  1
13
  7
SLDTEXTSTYLE1
 11
6.123233995736766E-17
 21
1.0
 31
0.0
 73
     1
 44
1.0
  0
ENDBLK
  5
3BD
330
3BB
100
AcDbEntity
  8
0
100
AcDbBlockEnd
  0
BLOCK
  5
3C7
330
3C6
100
AcDbEntity
  8
0
100
AcDbBlockBegin
  2
_D_23
 70
     0
 10
0.0
 20
0.0
 30
0.0
  3
_D_23
  1

  0
SOLID
  5
3C9
330
3C6
100
AcDbEntity
  8
DIM
100
AcDbTrace
 10
170.7063620061
 20
46.3380953281
 30
0.0
 11
171.0813620061
 21
49.3380953281
 31
0.0
 12
170.3313620061
 22
49.3380953281
 32
0.0
 13
170.3313620061
 23
49.3380953281
 33
0.0
  0
SOLID
  5
3CA
330
3C6
100
AcDbEntity
  8
DIM
100
AcDbTrace
 10
170.7063620061
 20
100.3480953281
 30
0.0
 11
170.3313620061
 21
97.3480953281
 31
0.0
 12
171.0813620061
 22
97.3480953281
 32
0.0
 13
171.0813620061
 23
97.3480953281
 33
0.0
  0
LINE
  5
3CB
330
3C6
100
AcDbEntity
  8
DIM
100
AcDbLine
 10
150.2063620061
 20
46.3380953281
 30
0.0
 11
172.2063620061
 21
46.3380953281
 31
0.0
  0
LINE
  5
3CC
330
3C6
100
AcDbEntity
  8
DIM
100
AcDbLine
 10
112.2063620061
 20
100.3480953281
 30
0.0
 11
172.2063620061
 21
100.3480953281
 31
0.0
  0
LINE
  5
3CD
330
3C6
100
AcDbEntity
  8
DIM
100
AcDbLine
 10
170.7063620061
 20
46.3380953281
 30
0.0
 11
170.7063620061
 21
100.3480953281
 31
0.0
  0
MTEXT
  5
3CE
330
3C6
100
AcDbEntity
  8
DIM
100
AcDbMText
 10
165.8723582439
 20
70.4785119909
 30
0.0
 40
3.75
 41
0.0
 71
     1
 72
     1
  1
54
  7
SLDTEXTSTYLE1
 11
7.832793512333463E-15
 21
1.0
 31
0.0
 73
     1
 44
1.0
  0
ENDBLK
  5
3C8
330
3C6
100
AcDbEntity
  8
0
100
AcDbBlockEnd
  0
BLOCK
  5
3D0
330
3CF
100
AcDbEntity
  8
0
100
AcDbBlockBegin
  2
SW_CENTERMARKSYMBOL_24
 70
     0
 10
0.0
 20
0.0
 30
0.0
  3
SW_CENTERMARKSYMBOL_24
  1

  0
LINE
  5
3D2
330
3CF
100
AcDbEntity
  8
DIM
 62
     0
100
AcDbLine
 10
0.0
 20
0.0
 30
0.0
 11
0.0
 21
1.0
 31
0.0
  0
LINE
  5
3D3
330
3CF
100
AcDbEntity
  8
DIM
 62
     0
100
AcDbLine
 10
0.0
 20
0.0
 30
0.0
 11
-1.0
 21
0.0
 31
0.0
  0
LINE
  5
3D4
330
3CF
100
AcDbEntity
  8
DIM
 62
     0
100
AcDbLine
 10
0.0
 20
0.0
 30
0.0
 11
0.0
 21
-1.0
 31
0.0
  0
LINE
  5
3D5
330
3CF
100
AcDbEntity
  8
DIM
 62
     0
100
AcDbLine
 10
0.0
 20
0.0
 30
0.0
 11
1.0
 21
0.0
 31
0.0
  0
LINE
  5
3D6
330
3CF
100
AcDbEntity
  8
DIM
 62
     0
100
AcDbLine
 10
0.0
 20
2.0
 30
0.0
 11
0.0
 21
4.5
 31
0.0
  0
LINE
  5
3D7
330
3CF
100
AcDbEntity
  8
DIM
 62
     0
100
AcDbLine
 10
-2.0
 20
0.0
 30
0.0
 11
-4.5
 21
0.0
 31
0.0
  0
LINE
  5
3D8
330
3CF
100
AcDbEntity
  8
DIM
 62
     0
100
AcDbLine
 10
0.0
 20
-2.0
 30
0.0
 11
0.0
 21
-4.5
 31
0.0
  0
LINE
  5
3D9
330
3CF
100
AcDbEntity
  8
DIM
 62
     0
100
AcDbLine
 10
2.0
 20
0.0
 30
0.0
 11
4.5
 21
0.0
 31
0.0
  0
ENDBLK
  5
3D1
330
3CF
100
AcDbEntity
  8
0
100
AcDbBlockEnd
  0
BLOCK
  5
3DC
330
3DB
100
AcDbEntity
  8
0
100
AcDbBlockBegin
  2
SW_CENTERMARKSYMBOL_25
 70
     0
 10
0.0
 20
0.0
 30
0.0
  3
SW_CENTERMARKSYMBOL_25
  1

  0
LINE
  5
3DE
330
3DB
100
AcDbEntity
  8
DIM
 62
     0
100
AcDbLine
 10
0.0
 20
0.0
 30
0.0
 11
0.0
 21
1.0
 31
0.0
  0
LINE
  5
3DF
330
3DB
100
AcDbEntity
  8
DIM
 62
     0
100
AcDbLine
 10
0.0
 20
0.0
 30
0.0
 11
-1.0
 21
0.0
 31
0.0
  0
LINE
  5
3E0
330
3DB
100
AcDbEntity
  8
DIM
 62
     0
100
AcDbLine
 10
0.0
 20
0.0
 30
0.0
 11
0.0
 21
-1.0
 31
0.0
  0
LINE
  5
3E1
330
3DB
100
AcDbEntity
  8
DIM
 62
     0
100
AcDbLine
 10
0.0
 20
0.0
 30
0.0
 11
1.0
 21
0.0
 31
0.0
  0
LINE
  5
3E2
330
3DB
100
AcDbEntity
  8
DIM
 62
     0
100
AcDbLine
 10
0.0
 20
2.0
 30
0.0
 11
0.0
 21
4.5
 31
0.0
  0
LINE
  5
3E3
330
3DB
100
AcDbEntity
  8
DIM
 62
     0
100
AcDbLine
 10
-2.0
 20
0.0
 30
0.0
 11
-4.5
 21
0.0
 31
0.0
  0
LINE
  5
3E4
330
3DB
100
AcDbEntity
  8
DIM
 62
     0
100
AcDbLine
 10
0.0
 20
-2.0
 30
0.0
 11
0.0
 21
-4.5
 31
0.0
  0
LINE
  5
3E5
330
3DB
100
AcDbEntity
  8
DIM
 62
     0
100
AcDbLine
 10
2.0
 20
0.0
 30
0.0
 11
4.5
 21
0.0
 31
0.0
  0
ENDBLK
  5
3DD
330
3DB
100
AcDbEntity
  8
0
100
AcDbBlockEnd
  0
BLOCK
  5
3E8
330
3E7
100
AcDbEntity
  8
0
100
AcDbBlockBegin
  2
SW_CENTERMARKSYMBOL_26
 70
     0
 10
0.0
 20
0.0
 30
0.0
  3
SW_CENTERMARKSYMBOL_26
  1

  0
LINE
  5
3EA
330
3E7
100
AcDbEntity
  8
DIM
 62
     0
100
AcDbLine
 10
0.0
 20
0.0
 30
0.0
 11
0.0
 21
1.0
 31
0.0
  0
LINE
  5
3EB
330
3E7
100
AcDbEntity
  8
DIM
 62
     0
100
AcDbLine
 10
0.0
 20
0.0
 30
0.0
 11
-1.0
 21
0.0
 31
0.0
  0
LINE
  5
3EC
330
3E7
100
AcDbEntity
  8
DIM
 62
     0
100
AcDbLine
 10
0.0
 20
0.0
 30
0.0
 11
0.0
 21
-1.0
 31
0.0
  0
LINE
  5
3ED
330
3E7
100
AcDbEntity
  8
DIM
 62
     0
100
AcDbLine
 10
0.0
 20
0.0
 30
0.0
 11
1.0
 21
0.0
 31
0.0
  0
LINE
  5
3EE
330
3E7
100
AcDbEntity
  8
DIM
 62
     0
100
AcDbLine
 10
0.0
 20
2.0
 30
0.0
 11
0.0
 21
3.5527
 31
0.0
  0
LINE
  5
3EF
330
3E7
100
AcDbEntity
  8
DIM
 62
     0
100
AcDbLine
 10
-2.0
 20
0.0
 30
0.0
 11
-3.5527
 21
0.0
 31
0.0
  0
LINE
  5
3F0
330
3E7
100
AcDbEntity
  8
DIM
 62
     0
100
AcDbLine
 10
0.0
 20
-2.0
 30
0.0
 11
0.0
 21
-3.5527
 31
0.0
  0
LINE
  5
3F1
330
3E7
100
AcDbEntity
  8
DIM
 62
     0
100
AcDbLine
 10
2.0
 20
0.0
 30
0.0
 11
3.5527
 21
0.0
 31
0.0
  0
ENDBLK
  5
3E9
330
3E7
100
AcDbEntity
  8
0
100
AcDbBlockEnd
  0
BLOCK
  5
3F4
330
3F3
100
AcDbEntity
  8
0
100
AcDbBlockBegin
  2
SW_CENTERMARKSYMBOL_27
 70
     0
 10
0.0
 20
0.0
 30
0.0
  3
SW_CENTERMARKSYMBOL_27
  1

  0
LINE
  5
3F6
330
3F3
100
AcDbEntity
  8
DIM
 62
     0
100
AcDbLine
 10
0.0
 20
0.0
 30
0.0
 11
0.0
 21
1.0
 31
0.0
  0
LINE
  5
3F7
330
3F3
100
AcDbEntity
  8
DIM
 62
     0
100
AcDbLine
 10
0.0
 20
0.0
 30
0.0
 11
-1.0
 21
0.0
 31
0.0
  0
LINE
  5
3F8
330
3F3
100
AcDbEntity
  8
DIM
 62
     0
100
AcDbLine
 10
0.0
 20
0.0
 30
0.0
 11
0.0
 21
-1.0
 31
0.0
  0
LINE
  5
3F9
330
3F3
100
AcDbEntity
  8
DIM
 62
     0
100
AcDbLine
 10
0.0
 20
0.0
 30
0.0
 11
1.0
 21
0.0
 31
0.0
  0
LINE
  5
3FA
330
3F3
100
AcDbEntity
  8
DIM
 62
     0
100
AcDbLine
 10
0.0
 20
2.0
 30
0.0
 11
0.0
 21
4.5
 31
0.0
  0
LINE
  5
3FB
330
3F3
100
AcDbEntity
  8
DIM
 62
     0
100
AcDbLine
 10
-2.0
 20
0.0
 30
0.0
 11
-4.5
 21
0.0
 31
0.0
  0
LINE
  5
3FC
330
3F3
100
AcDbEntity
  8
DIM
 62
     0
100
AcDbLine
 10
0.0
 20
-2.0
 30
0.0
 11
0.0
 21
-4.5
 31
0.0
  0
LINE
  5
3FD
330
3F3
100
AcDbEntity
  8
DIM
 62
     0
100
AcDbLine
 10
2.0
 20
0.0
 30
0.0
 11
4.5
 21
0.0
 31
0.0
  0
ENDBLK
  5
3F5
330
3F3
100
AcDbEntity
  8
0
100
AcDbBlockEnd
  0
ENDSEC
  0
SECTION
  2
ENTITIES
  0
HATCH
  5
7D
330
1F
100
AcDbEntity
  8
DIM
 62
     1
100
AcDbHatch
 10
0.0
 20
0.0
 30
0.0
210
0.0
220
0.0
230
1.0
  2
SOLID
 70
     1
 71
     0
 91
        1
 92
        0
 93
       10
 72
     2
 10
293.8772003609827
 20
54.58976793037054
 40
2.277829406127403
 50
316.560353846615
 51
413.9622470531897
 73
     0
 72
     1
 10
295.2172888494758
 20
52.74784783263913
 11
293.3547668772852
 21
50.9411984190283
 72
     1
 10
293.3547668772852
 20
50.9411984190283
 11
291.8765935378109
 21
52.22924382886254
 72
     2
 10
288.8322147732397
 20
54.61260905287502
 40
3.866351232519373
 50
321.9435288426934
 51
402.1815007004195
 73
     1
 72
     2
 10
288.355730337153
 20
53.80137634465774
 40
4.772455056791797
 50
45.55929254159851
 51
125.83255551215
 73
     1
 72
     1
 10
285.561847201499
 20
57.67055510679909
 11
284.0282353854762
 21
59.0082408974803
 72
     1
 10
284.0282353854762
 20
59.0082408974803
 11
288.881613558091
 21
63.69862126740146
 72
     1
 10
288.881613558091
 20
63.69862126740146
 11
290.277373323367
 21
62.45333293763466
 72
     1
 10
290.277373323367
 20
62.45333293763466
 11
289.3409963704761
 21
61.53974529137867
 72
     1
 10
289.3409963704761
 20
61.53974529137867
 11
295.5311301579911
 21
56.15598088842773
 97
        0
 75
     0
 76
     1
 98
        1
 10
0.0
 20
0.0
  0
HATCH
  5
7E
330
1F
100
AcDbEntity
  8
DIM
 62
     7
100
AcDbHatch
 10
0.0
 20
0.0
 30
0.0
210
0.0
220
0.0
230
1.0
  2
SOLID
 70
     1
 71
     0
 91
        1
 92
        0
 93
       10
 72
     2
 10
288.1559821787073
 20
54.93267580271081
 40
4.568627093596862
 50
51.07786460466418
 51
110.7887790856598
 73
     0
 72
     2
 10
287.6588863662625
 20
54.34971317883968
 40
3.85581655456692
 50
106.9547474926003
 51
219.8569537219348
 73
     0
 72
     1
 10
284.6989809112034
 20
56.82080220993186
 11
283.1761901400997
 21
58.16410006115851
 72
     1
 10
283.1761901400997
 20
58.16410006115851
 11
281.2162477577772
 21
56.27171944639723
 72
     2
 10
282.7022900290505
 20
54.5188844737972
 40
2.297988701708712
 50
130.2910647924877
 51
228.5093619070326
 73
     1
 72
     1
 10
281.1798778847391
 20
52.7975439101567
 11
287.1936813500328
 21
47.57063814974442
 72
     1
 10
287.1936813500328
 20
47.57063814974442
 11
286.2471034694101
 21
46.64678756403789
 72
     1
 10
286.2471034694101
 20
46.64678756403789
 11
287.6583041526511
 21
45.4317919588729
 72
     1
 10
287.6583041526511
 20
45.4317919588729
 11
292.4735141123847
 21
50.10735152801649
 72
     1
 10
292.4735141123847
 20
50.10735152801649
 11
291.0262846205591
 21
51.37828170347998
 97
        0
 75
     0
 76
     1
 98
        1
 10
0.0
 20
0.0
  0
LINE
  5
7F
330
1F
100
AcDbEntity
  8
0
  6
Continuous
 62
     7
370
     0
100
AcDbLine
 10
251.7890662777
 20
26.6617788769
 30
0.0
 11
253.2890662777
 21
26.6617788769
 31
0.0
  0
LINE
  5
80
330
1F
100
AcDbEntity
  8
0
  6
Continuous
 62
     7
370
     0
100
AcDbLine
 10
247.2890662777
 20
26.6617788769
 30
0.0
 11
251.0390662777
 21
26.6617788769
 31
0.0
  0
LINE
  5
81
330
1F
100
AcDbEntity
  8
0
  6
Continuous
 62
     7
370
     0
100
AcDbLine
 10
272.0390662777
 20
22.9117788769
 30
0.0
 11
272.0390662777
 21
30.4117788769
 31
0.0
  0
LINE
  5
82
330
1F
100
AcDbEntity
  8
0
  6
Continuous
 62
     7
370
     0
100
AcDbLine
 10
261.5390662777
 20
24.4117788769
 30
0.0
 11
272.0390662777
 21
22.9117788769
 31
0.0
  0
LINE
  5
83
330
1F
100
AcDbEntity
  8
0
  6
Continuous
 62
     7
370
     0
100
AcDbLine
 10
252.5390662777
 20
25.1617788769
 30
0.0
 11
252.5390662777
 21
21.4117788769
 31
0.0
  0
LINE
  5
84
330
1F
100
AcDbEntity
  8
0
  6
Continuous
 62
     7
370
     0
100
AcDbLine
 10
272.0390662777
 20
30.4117788769
 30
0.0
 11
261.5390662777
 21
28.9117788769
 31
0.0
  0
LINE
  5
85
330
1F
100
AcDbEntity
  8
0
  6
Continuous
 62
     7
370
     0
100
AcDbLine
 10
260.0390662777
 20
26.6617788769
 30
0.0
 11
273.5390662777
 21
26.6617788769
 31
0.0
  0
LINE
  5
86
330
1F
100
AcDbEntity
  8
0
  6
Continuous
 62
     7
370
     0
100
AcDbLine
 10
252.5390662777
 20
27.4117788769
 30
0.0
 11
252.5390662777
 21
25.9117788769
 31
0.0
  0
LINE
  5
87
330
1F
100
AcDbEntity
  8
0
  6
Continuous
 62
     7
370
     0
100
AcDbLine
 10
254.0390662777
 20
26.6617788769
 30
0.0
 11
257.7890662777
 21
26.6617788769
 31
0.0
  0
LINE
  5
88
330
1F
100
AcDbEntity
  8
0
  6
Continuous
 62
     7
370
     0
100
AcDbLine
 10
252.5390662777
 20
31.9117788769
 30
0.0
 11
252.5390662777
 21
28.1617788769
 31
0.0
  0
LINE
  5
89
330
1F
100
AcDbEntity
  8
0
  6
Continuous
 62
     7
370
     0
100
AcDbLine
 10
261.5390662777
 20
28.9117788769
 30
0.0
 11
261.5390662777
 21
24.4117788769
 31
0.0
  0
LINE
  5
8A
330
1F
100
AcDbEntity
  8
0
  6
Continuous
 62
     7
370
     0
100
AcDbLine
 10
278.5361947814
 20
19.6728696119
 30
0.0
 11
428.5361947814
 21
19.6728696119
 31
0.0
  0
LINE
  5
8B
330
1F
100
AcDbEntity
  8
0
  6
Continuous
 62
     7
370
     0
100
AcDbLine
 10
278.5361947814
 20
27.1728696119
 30
0.0
 11
353.5361947814
 21
27.1728696119
 31
0.0
  0
LINE
  5
8C
330
1F
100
AcDbEntity
  8
0
  6
Continuous
 62
     7
370
     0
100
AcDbLine
 10
278.5361947814
 20
34.6728696119
 30
0.0
 11
353.5361947814
 21
34.6728696119
 31
0.0
  0
LINE
  5
8D
330
1F
100
AcDbEntity
  8
0
  6
Continuous
 62
     7
370
     0
100
AcDbLine
 10
278.5361947814
 20
42.1728696119
 30
0.0
 11
428.5361947814
 21
42.1728696119
 31
0.0
  0
LINE
  5
8E
330
1F
100
AcDbEntity
  8
0
  6
Continuous
 62
     7
370
     0
100
AcDbLine
 10
353.5361947814
 20
49.6728696119
 30
0.0
 11
428.5361947814
 21
49.6728696119
 31
0.0
  0
LINE
  5
8F
330
1F
100
AcDbEntity
  8
0
  6
Continuous
 62
     7
370
    15
100
AcDbLine
 10
353.5361947814
 20
27.1728696119
 30
0.0
 11
428.5361947814
 21
27.1728696119
 31
0.0
  0
LINE
  5
90
330
1F
100
AcDbEntity
  8
0
  6
Continuous
 62
     7
370
     0
100
AcDbLine
 10
278.5361947814
 20
64.6728696119
 30
0.0
 11
428.5361947814
 21
64.6728696119
 31
0.0
  0
LINE
  5
91
330
1F
100
AcDbEntity
  8
0
  6
Continuous
 62
     7
370
     0
100
AcDbLine
 10
376.8558265126
 20
12.1728696119
 30
0.0
 11
376.8558265126
 21
27.1728696119
 31
0.0
  0
LINE
  5
92
330
1F
100
AcDbEntity
  8
0
  6
Continuous
 62
     7
370
     0
100
AcDbLine
 10
353.5361947814
 20
12.1728696119
 30
0.0
 11
353.5361947814
 21
64.6728696119
 31
0.0
  0
LINE
  5
93
330
1F
100
AcDbEntity
  8
0
  6
Continuous
 62
     7
370
     0
100
AcDbLine
 10
376.8558265126
 20
42.1728696119
 30
0.0
 11
376.8558265126
 21
49.6728696119
 31
0.0
  0
LINE
  5
94
330
1F
100
AcDbEntity
  8
0
  6
Continuous
 62
     7
370
     0
100
AcDbLine
 10
321.624612953
 20
12.1728696119
 30
0.0
 11
321.624612953
 21
42.1728696119
 31
0.0
  0
LINE
  5
95
330
1F
100
AcDbEntity
  8
0
  6
Continuous
 62
     7
370
     0
100
AcDbLine
 10
299.6678831259
 20
12.1728696119
 30
0.0
 11
299.6678831259
 21
42.1728696119
 31
0.0
  0
LINE
  5
96
330
1F
100
AcDbEntity
  8
0
  6
Continuous
 62
     7
370
     0
100
AcDbLine
 10
278.5361947814
 20
12.1728696119
 30
0.0
 11
278.5361947814
 21
64.6728696119
 31
0.0
  0
LINE
  5
97
330
1F
100
AcDbEntity
  8
0
  6
Continuous
 62
     7
370
    15
100
AcDbLine
 10
13.0361947814
 20
157.1154554872
 30
0.0
 11
22.0361947814
 21
157.1154554872
 31
0.0
  0
LINE
  5
98
330
1F
100
AcDbEntity
  8
0
  6
Continuous
 62
     7
370
    15
100
AcDbLine
 10
428.5361947814
 20
157.1154554872
 30
0.0
 11
419.5361947814
 21
157.1154554872
 31
0.0
  0
LINE
  5
99
330
1F
100
AcDbEntity
  8
0
  6
Continuous
 62
     7
370
    15
100
AcDbLine
 10
220.7861947814
 20
12.1728696119
 30
0.0
 11
220.7861947814
 21
21.1728696119
 31
0.0
  0
LINE
  5
9A
330
1F
100
AcDbEntity
  8
0
  6
Continuous
 62
     7
370
    15
100
AcDbLine
 10
220.7861947814
 20
302.0580413626
 30
0.0
 11
220.7861947814
 21
293.0580413626
 31
0.0
  0
LINE
  5
9B
330
1F
100
AcDbEntity
  8
工作區域參考線
 62
     1
370
     0
100
AcDbLine
 10
285.5618472015
 20
57.6705551068
 30
0.0
 11
284.0282353855
 21
59.0082408975
 31
0.0
  0
LINE
  5
9C
330
1F
100
AcDbEntity
  8
0
  6
Continuous
 62
     7
370
    15
100
AcDbLine
 10
64.9811947814
 20
302.0580413626
 30
0.0
 11
64.9811947814
 21
304.3080413626
 31
0.0
  0
LINE
  5
9D
330
1F
100
AcDbEntity
  8
0
  6
Continuous
 62
     7
370
    15
100
AcDbLine
 10
116.9261947814
 20
302.0580413626
 30
0.0
 11
116.9261947814
 21
304.3080413626
 31
0.0
  0
LINE
  5
9E
330
1F
100
AcDbEntity
  8
0
  6
Continuous
 62
     7
370
    15
100
AcDbLine
 10
168.8711947814
 20
302.0580413626
 30
0.0
 11
168.8711947814
 21
304.3080413626
 31
0.0
  0
LINE
  5
9F
330
1F
100
AcDbEntity
  8
0
  6
Continuous
 62
     7
370
    15
100
AcDbLine
 10
220.8161947814
 20
302.0580413626
 30
0.0
 11
220.8161947814
 21
304.3080413626
 31
0.0
  0
LINE
  5
A0
330
1F
100
AcDbEntity
  8
0
  6
Continuous
 62
     7
370
    15
100
AcDbLine
 10
272.7611947814
 20
302.0580413626
 30
0.0
 11
272.7611947814
 21
304.3080413626
 31
0.0
  0
LINE
  5
A1
330
1F
100
AcDbEntity
  8
0
  6
Continuous
 62
     7
370
    15
100
AcDbLine
 10
324.7061947814
 20
302.0580413626
 30
0.0
 11
324.7061947814
 21
304.3080413626
 31
0.0
  0
LINE
  5
A2
330
1F
100
AcDbEntity
  8
0
  6
Continuous
 62
     7
370
    15
100
AcDbLine
 10
376.6511947814
 20
302.0580413626
 30
0.0
 11
376.6511947814
 21
304.3080413626
 31
0.0
  0
LINE
  5
A3
330
1F
100
AcDbEntity
  8
0
  6
Continuous
 62
     7
370
    15
100
AcDbLine
 10
64.9736947814
 20
12.1728696119
 30
0.0
 11
64.9736947814
 21
9.9228696119
 31
0.0
  0
LINE
  5
A4
330
1F
100
AcDbEntity
  8
0
  6
Continuous
 62
     7
370
    15
100
AcDbLine
 10
116.9111947814
 20
12.1728696119
 30
0.0
 11
116.9111947814
 21
9.9228696119
 31
0.0
  0
LINE
  5
A5
330
1F
100
AcDbEntity
  8
0
  6
Continuous
 62
     7
370
    15
100
AcDbLine
 10
168.8486947814
 20
12.1728696119
 30
0.0
 11
168.8486947814
 21
9.9228696119
 31
0.0
  0
LINE
  5
A6
330
1F
100
AcDbEntity
  8
0
  6
Continuous
 62
     7
370
    15
100
AcDbLine
 10
220.7861947814
 20
12.1728696119
 30
0.0
 11
220.7861947814
 21
9.9228696119
 31
0.0
  0
LINE
  5
A7
330
1F
100
AcDbEntity
  8
0
  6
Continuous
 62
     7
370
    15
100
AcDbLine
 10
272.7236947814
 20
12.1728696119
 30
0.0
 11
272.7236947814
 21
9.9228696119
 31
0.0
  0
LINE
  5
A8
330
1F
100
AcDbEntity
  8
0
  6
Continuous
 62
     7
370
    15
100
AcDbLine
 10
324.6611947814
 20
12.1728696119
 30
0.0
 11
324.6611947814
 21
9.9228696119
 31
0.0
  0
LINE
  5
A9
330
1F
100
AcDbEntity
  8
0
  6
Continuous
 62
     7
370
     0
100
AcDbLine
 10
428.5361947814
 20
302.0580413626
 30
0.0
 11
13.0361947814
 21
302.0580413626
 31
0.0
  0
LINE
  5
AA
330
1F
100
AcDbEntity
  8
0
  6
Continuous
 62
     7
370
     0
100
AcDbLine
 10
428.5361947814
 20
12.1728696119
 30
0.0
 11
428.5361947814
 21
302.0580413626
 31
0.0
  0
LINE
  5
AB
330
1F
100
AcDbEntity
  8
0
  6
Continuous
 62
     7
370
     0
100
AcDbLine
 10
13.0361947814
 20
302.0580413626
 30
0.0
 11
13.0361947814
 21
12.1728696119
 31
0.0
  0
LINE
  5
AC
330
1F
100
AcDbEntity
  8
0
  6
Continuous
 62
     7
370
     0
100
AcDbLine
 10
13.0361947814
 20
12.1728696119
 30
0.0
 11
428.5361947814
 21
12.1728696119
 31
0.0
  0
LINE
  5
AD
330
1F
100
AcDbEntity
  8
工作區域參考線
 62
     1
370
     0
100
AcDbLine
 10
284.0282353855
 20
59.0082408975
 30
0.0
 11
288.8816135581
 21
63.6986212674
 31
0.0
  0
LINE
  5
AE
330
1F
100
AcDbEntity
  8
0
  6
Continuous
 62
     7
370
    15
100
AcDbLine
 10
376.5986947814
 20
12.1728696119
 30
0.0
 11
376.5986947814
 21
9.9228696119
 31
0.0
  0
LINE
  5
AF
330
1F
100
AcDbEntity
  8
0
  6
Continuous
 62
     7
370
    15
100
AcDbLine
 10
13.0361947814
 20
60.4878696119
 30
0.0
 11
10.7861947814
 21
60.4878696119
 31
0.0
  0
LINE
  5
B0
330
1F
100
AcDbEntity
  8
工作區域參考線
 62
     1
370
     0
100
AcDbLine
 10
288.8816135581
 20
63.6986212674
 30
0.0
 11
290.2773733234
 21
62.4533329376
 31
0.0
  0
LINE
  5
B1
330
1F
100
AcDbEntity
  8
0
  6
Continuous
 62
     7
370
    15
100
AcDbLine
 10
13.0361947814
 20
108.8028696119
 30
0.0
 11
10.7861947814
 21
108.8028696119
 31
0.0
  0
LINE
  5
B2
330
1F
100
AcDbEntity
  8
0
  6
Continuous
 62
     7
370
    15
100
AcDbLine
 10
13.0361947814
 20
157.1178696119
 30
0.0
 11
10.7861947814
 21
157.1178696119
 31
0.0
  0
LINE
  5
B3
330
1F
100
AcDbEntity
  8
0
  6
Continuous
 62
     7
370
    15
100
AcDbLine
 10
13.0361947814
 20
205.4328696119
 30
0.0
 11
10.7861947814
 21
205.4328696119
 31
0.0
  0
LINE
  5
B4
330
1F
100
AcDbEntity
  8
0
  6
Continuous
 62
     7
370
    15
100
AcDbLine
 10
13.0361947814
 20
253.7478696119
 30
0.0
 11
10.7861947814
 21
253.7478696119
 31
0.0
  0
LINE
  5
B5
330
1F
100
AcDbEntity
  8
0
  6
Continuous
 62
     7
370
    15
100
AcDbLine
 10
428.5361947814
 20
60.4878696119
 30
0.0
 11
430.7861947814
 21
60.4878696119
 31
0.0
  0
LINE
  5
B6
330
1F
100
AcDbEntity
  8
工作區域參考線
 62
     1
370
     0
100
AcDbLine
 10
290.2773733234
 20
62.4533329376
 30
0.0
 11
289.3409963705
 21
61.5397452914
 31
0.0
  0
LINE
  5
B7
330
1F
100
AcDbEntity
  8
0
  6
Continuous
 62
     7
370
    15
100
AcDbLine
 10
428.5361947814
 20
108.8028696119
 30
0.0
 11
430.7861947814
 21
108.8028696119
 31
0.0
  0
LINE
  5
B8
330
1F
100
AcDbEntity
  8
0
  6
Continuous
 62
     7
370
    15
100
AcDbLine
 10
428.5361947814
 20
157.1178696119
 30
0.0
 11
430.7861947814
 21
157.1178696119
 31
0.0
  0
LINE
  5
B9
330
1F
100
AcDbEntity
  8
0
  6
Continuous
 62
     7
370
    15
100
AcDbLine
 10
428.5361947814
 20
205.4328696119
 30
0.0
 11
430.7861947814
 21
205.4328696119
 31
0.0
  0
LINE
  5
BA
330
1F
100
AcDbEntity
  8
0
  6
Continuous
 62
     7
370
    15
100
AcDbLine
 10
428.5361947814
 20
253.7478696119
 30
0.0
 11
430.7861947814
 21
253.7478696119
 31
0.0
  0
LINE
  5
BB
330
1F
100
AcDbEntity
  8
工作區域參考線
 62
     1
370
     0
100
AcDbLine
 10
289.3409963705
 20
61.5397452914
 30
0.0
 11
295.531130158
 21
56.1559808884
 31
0.0
  0
LINE
  5
BC
330
1F
100
AcDbEntity
  8
工作區域參考線
 62
     1
370
     0
100
AcDbLine
 10
291.8765935378
 20
52.2292438289
 30
0.0
 11
293.3547668773
 21
50.941198419
 31
0.0
  0
LINE
  5
BD
330
1F
100
AcDbEntity
  8
工作區域參考線
 62
     1
370
     0
100
AcDbLine
 10
293.3547668773
 20
50.941198419
 30
0.0
 11
295.2172888495
 21
52.7478478326
 31
0.0
  0
LINE
  5
BE
330
1F
100
AcDbEntity
  8
圖層_1
370
    30
100
AcDbLine
 10
292.4735141124
 20
50.107351528
 30
0.0
 11
287.6583041527
 21
45.4317919589
 31
0.0
  0
LINE
  5
BF
330
1F
100
AcDbEntity
  8
圖層_1
370
    30
100
AcDbLine
 10
287.6583041527
 20
45.4317919589
 30
0.0
 11
286.2471034694
 21
46.646787564
 31
0.0
  0
LINE
  5
C0
330
1F
100
AcDbEntity
  8
圖層_1
370
    30
100
AcDbLine
 10
286.2471034694
 20
46.646787564
 30
0.0
 11
287.19368135
 21
47.5706381497
 31
0.0
  0
LINE
  5
C1
330
1F
100
AcDbEntity
  8
圖層_1
370
    30
100
AcDbLine
 10
281.1798778847
 20
52.7975439102
 30
0.0
 11
287.19368135
 21
47.5706381497
 31
0.0
  0
LINE
  5
C2
330
1F
100
AcDbEntity
  8
圖層_1
370
    30
100
AcDbLine
 10
283.1761901401
 20
58.1641000612
 30
0.0
 11
281.2162477578
 21
56.2717194464
 31
0.0
  0
LINE
  5
C3
330
1F
100
AcDbEntity
  8
圖層_1
370
    30
100
AcDbLine
 10
283.1761901401
 20
58.1641000612
 30
0.0
 11
284.6989809112
 21
56.8208022099
 31
0.0
  0
LINE
  5
C4
330
1F
100
AcDbEntity
  8
圖層_1
370
    30
100
AcDbLine
 10
291.0262846206
 20
51.3782817035
 30
0.0
 11
292.4735141124
 21
50.107351528
 31
0.0
  0
CIRCLE
  5
C5
330
1F
100
AcDbEntity
  8
0
  6
Continuous
 62
     7
370
     0
100
AcDbCircle
 10
252.5390662777
 20
26.6617788769
 30
0.0
 40
2.249999999999943
  0
CIRCLE
  5
C6
330
1F
100
AcDbEntity
  8
0
  6
Continuous
 62
     7
370
     0
100
AcDbCircle
 10
252.5390662777
 20
26.6617788769
 30
0.0
 40
3.749999999999943
  0
ARC
  5
C7
330
1F
100
AcDbEntity
  8
工作區域參考線
 62
     1
370
     0
100
AcDbCircle
 10
293.877200361
 20
54.5897679304
 30
0.0
 40
2.277829406127418
100
AcDbArc
 50
306.0377529468
 51
43.4396461534
  0
ARC
  5
C8
330
1F
100
AcDbEntity
  8
工作區域參考線
 62
     1
370
     0
100
AcDbCircle
 10
288.3557303372
 20
53.8013763447
 30
0.0
 40
4.7724550567918
100
AcDbArc
 50
45.5592925416
 51
125.8325555121
  0
ARC
  5
C9
330
1F
100
AcDbEntity
  8
工作區域參考線
 62
     1
370
     0
100
AcDbCircle
 10
288.8322147732
 20
54.6126090529
 30
0.0
 40
3.86635123251942
100
AcDbArc
 50
321.9435288427
 51
42.1815007004
  0
ARC
  5
CA
330
1F
100
AcDbEntity
  8
圖層_1
370
    30
100
AcDbCircle
 10
282.7022900291
 20
54.5188844738
 30
0.0
 40
2.297988701708714
100
AcDbArc
 50
130.2910647925
 51
228.509361907
  0
ARC
  5
CB
330
1F
100
AcDbEntity
  8
圖層_1
370
    30
100
AcDbCircle
 10
287.6588863663
 20
54.3497131788
 30
0.0
 40
3.855816554566961
100
AcDbArc
 50
140.1430462781
 51
253.0452525074
  0
ARC
  5
CC
330
1F
100
AcDbEntity
  8
圖層_1
370
    30
100
AcDbCircle
 10
288.1559821787
 20
54.9326758027
 30
0.0
 40
4.568627093596904
100
AcDbArc
 50
249.2112209143
 51
308.9221353953
  0
MTEXT
  5
CE
330
1F
100
AcDbEntity
  8
0
  6
Continuous
 62
     7
370
     0
100
AcDbMText
 10
248.3140276206
 20
19.8312660554
 30
0.0
 40
3.96875
 41
0.0
 71
     1
 72
     1
  1
UNIT:m/m
  7
SLDTEXTSTYLE1
 73
     1
 44
1.0
  0
INSERT
  5
D5
330
1F
100
AcDbEntity
  8
0
  6
Continuous
 62
     7
370
     0
100
AcDbBlockReference
  2
SW_NOTE_0
 10
18.347261408
 20
290.8356456377
 30
0.0
  0
MTEXT
  5
D7
330
1F
100
AcDbEntity
  8
0
  6
Continuous
 62
     7
370
     0
100
AcDbMText
 10
298.0877840902
 20
60.6610161208
 30
0.0
 40
3.571875
 41
0.0
 71
     1
 72
     1
  1
Unice E-O Services Inc.
  7
SLDTEXTSTYLE2
 73
     1
 44
1.0
  0
MTEXT
  5
D8
330
1F
100
AcDbEntity
  8
0
  6
Continuous
 62
     7
370
     0
100
AcDbMText
 10
378.913347376
 20
25.30676661
 30
0.0
 40
3.75
 41
0.0
 71
     1
 72
     1
  1
1:1.5
  7
SLDTEXTSTYLE1
 73
     1
 44
1.0
  0
MTEXT
  5
D9
330
1F
100
AcDbEntity
  8
0
  6
Continuous
 62
     7
370
     0
100
AcDbMText
 10
378.4613399977
 20
48.2278793156
 30
0.0
 40
3.75
 41
0.0
 71
     1
 72
     1
  1
05ORP-1
  7
SLDTEXTSTYLE1
 73
     1
 44
1.0
  0
MTEXT
  5
DA
330
1F
100
AcDbEntity
  8
0
  6
Continuous
 62
     7
370
     0
100
AcDbMText
 10
378.4613399977
 20
57.1623176818
 30
0.0
 40
3.75
 41
0.0
 71
     1
 72
     1
  1
05ORP-1
  7
SLDTEXTSTYLE1
 73
     1
 44
1.0
  0
MTEXT
  5
DB
330
1F
100
AcDbEntity
  8
0
  6
Continuous
 62
     7
370
     0
100
AcDbMText
 10
354.588280018
 20
24.7597193593
 30
0.0
 40
3.175
 41
0.0
 71
     1
 72
     1
  1
SCALE:
  7
SLDTEXTSTYLE1
 73
     1
 44
1.0
  0
MTEXT
  5
DC
330
1F
100
AcDbEntity
  8
0
  6
Continuous
 62
     7
370
     0
100
AcDbMText
 10
279.5004130184
 20
32.3800722766
 30
0.0
 40
2.778125
 41
0.0
 71
     1
 72
     1
  1
DRAWN
  7
SLDTEXTSTYLE1
 73
     1
 44
1.0
  0
MTEXT
  5
DD
330
1F
100
AcDbEntity
  8
0
  6
Continuous
 62
     7
370
     0
100
AcDbMText
 10
304.8342551905
 20
40.024812462
 30
0.0
 40
2.778125
 41
0.0
 71
     1
 72
     1
  1
NAME
  7
SLDTEXTSTYLE1
 73
     1
 44
1.0
  0
MTEXT
  5
DE
330
1F
100
AcDbEntity
  8
0
  6
Continuous
 62
     7
370
     0
100
AcDbMText
 10
331.3065233636
 20
40.024812462
 30
0.0
 40
2.778125
 41
0.0
 71
     1
 72
     1
  1
DATE
  7
SLDTEXTSTYLE1
 73
     1
 44
1.0
  0
MTEXT
  5
DF
330
1F
100
AcDbEntity
  8
0
  6
Continuous
 62
     7
370
     0
100
AcDbMText
 10
354.4134474968
 20
47.6808320649
 30
0.0
 40
3.175
 41
0.0
 71
     1
 72
     1
  1
DWG. NO.
  7
SLDTEXTSTYLE1
 73
     1
 44
1.0
  0
MTEXT
  5
E0
330
1F
100
AcDbEntity
  8
0
  6
Continuous
 62
     7
370
     0
100
AcDbMText
 10
354.5444860632
 20
62.8260987365
 30
0.0
 40
3.175
 41
0.0
 71
     1
 72
     1
  1
TITLE:
  7
SLDTEXTSTYLE1
 73
     1
 44
1.0
  0
MTEXT
  5
E1
330
1F
100
AcDbEntity
  8
0
  6
Continuous
 62
     7
370
     0
100
AcDbMText
 10
304.5471314703
 20
24.3605684586
 30
0.0
 40
2.778125
 41
0.0
 71
     1
 72
     1
  1
Johnny
  7
SLDTEXTSTYLE1
 73
     1
 44
1.0
  0
MTEXT
  5
E2
330
1F
100
AcDbEntity
  8
0
  6
Continuous
 62
     7
370
     0
100
AcDbMText
 10
326.3385807224
 20
24.3605684586
 30
0.0
 40
2.778125
 41
0.0
 71
     1
 72
     1
  1
2010/12/30
  7
SLDTEXTSTYLE1
 73
     1
 44
1.0
  0
MTEXT
  5
E3
330
1F
100
AcDbEntity
  8
0
  6
Continuous
 62
     7
370
     0
100
AcDbMText
 10
279.5004130184
 20
24.3605684586
 30
0.0
 40
2.778125
 41
0.0
 71
     1
 72
     1
  1
ENG APPR.
  7
SLDTEXTSTYLE1
 73
     1
 44
1.0
  0
MTEXT
  5
E4
330
1F
100
AcDbEntity
  8
0
  6
Continuous
 62
     7
370
     0
100
AcDbMText
 10
354.588280018
 20
17.5280083932
 30
0.0
 40
3.175
 41
0.0
 71
     1
 72
     1
  1
REV
  7
SLDTEXTSTYLE1
 73
     1
 44
1.0
  0
MTEXT
  5
E5
330
1F
100
AcDbEntity
  8
0
  6
Continuous
 62
     7
370
     0
100
AcDbMText
 10
354.5444860632
 20
40.4239633627
 30
0.0
 40
3.175
 41
0.0
 71
     1
 72
     1
  1
MATERIAL:
  7
SLDTEXTSTYLE1
 73
     1
 44
1.0
  0
MTEXT
  5
E6
330
1F
100
AcDbEntity
  8
0
  6
Continuous
 62
     7
370
     0
100
AcDbMText
 10
378.913347376
 20
33.326270428
 30
0.0
 40
3.75
 41
0.0
 71
     1
 72
     1
  1
N/A
  7
SLDTEXTSTYLE1
 73
     1
 44
1.0
  0
MTEXT
  5
E7
330
1F
100
AcDbEntity
  8
0
  6
Continuous
 62
     7
370
     0
100
AcDbMText
 10
39.90448973
 20
306.6800274854
 30
0.0
 40
3.175
 41
0.0
 71
     1
 72
     1
  1
1
  7
SLDTEXTSTYLE1
 73
     1
 44
1.0
  0
MTEXT
  5
E8
330
1F
100
AcDbEntity
  8
0
  6
Continuous
 62
     7
370
     0
100
AcDbMText
 10
91.0756493586
 20
306.6800274854
 30
0.0
 40
3.175
 41
0.0
 71
     1
 72
     1
  1
2
  7
SLDTEXTSTYLE1
 73
     1
 44
1.0
  0
MTEXT
  5
E9
330
1F
100
AcDbEntity
  8
0
  6
Continuous
 62
     7
370
     0
100
AcDbMText
 10
142.3514915859
 20
306.6800274854
 30
0.0
 40
3.175
 41
0.0
 71
     1
 72
     1
  1
3
  7
SLDTEXTSTYLE1
 73
     1
 44
1.0
  0
MTEXT
  5
EA
330
1F
100
AcDbEntity
  8
0
  6
Continuous
 62
     7
370
     0
100
AcDbMText
 10
193.8800044277
 20
306.4488876546
 30
0.0
 40
3.175
 41
0.0
 71
     1
 72
     1
  1
4
  7
SLDTEXTSTYLE1
 73
     1
 44
1.0
  0
MTEXT
  5
EB
330
1F
100
AcDbEntity
  8
0
  6
Continuous
 62
     7
370
     0
100
AcDbMText
 10
245.5534851959
 20
306.6800274854
 30
0.0
 40
3.175
 41
0.0
 71
     1
 72
     1
  1
5
  7
SLDTEXTSTYLE1
 73
     1
 44
1.0
  0
MTEXT
  5
EC
330
1F
100
AcDbEntity
  8
0
  6
Continuous
 62
     7
370
     0
100
AcDbMText
 10
297.9573255623
 20
306.6800274854
 30
0.0
 40
3.175
 41
0.0
 71
     1
 72
     1
  1
6
  7
SLDTEXTSTYLE1
 73
     1
 44
1.0
  0
MTEXT
  5
ED
330
1F
100
AcDbEntity
  8
0
  6
Continuous
 62
     7
370
     0
100
AcDbMText
 10
351.544598611
 20
306.6800274854
 30
0.0
 40
3.175
 41
0.0
 71
     1
 72
     1
  1
7
  7
SLDTEXTSTYLE1
 73
     1
 44
1.0
  0
MTEXT
  5
EE
330
1F
100
AcDbEntity
  8
0
  6
Continuous
 62
     7
370
     0
100
AcDbMText
 10
399.4181730741
 20
306.6800274854
 30
0.0
 40
3.175
 41
0.0
 71
     1
 72
     1
  1
8
  7
SLDTEXTSTYLE1
 73
     1
 44
1.0
  0
MTEXT
  5
EF
330
1F
100
AcDbEntity
  8
0
  6
Continuous
 62
     7
370
     0
100
AcDbMText
 10
8.0352354832
 20
278.7169534319
 30
0.0
 40
3.175
 41
0.0
 71
     1
 72
     1
  1
A
  7
SLDTEXTSTYLE1
 73
     1
 44
1.0
  0
MTEXT
  5
F0
330
1F
100
AcDbEntity
  8
0
  6
Continuous
 62
     7
370
     0
100
AcDbMText
 10
8.3865647747
 20
231.4489572357
 30
0.0
 40
3.175
 41
0.0
 71
     1
 72
     1
  1
B
  7
SLDTEXTSTYLE1
 73
     1
 44
1.0
  0
MTEXT
  5
F1
330
1F
100
AcDbEntity
  8
0
  6
Continuous
 62
     7
370
     0
100
AcDbMText
 10
8.3865647747
 20
181.9115271345
 30
0.0
 40
3.175
 41
0.0
 71
     1
 72
     1
  1
C
  7
SLDTEXTSTYLE1
 73
     1
 44
1.0
  0
MTEXT
  5
F2
330
1F
100
AcDbEntity
  8
0
  6
Continuous
 62
     7
370
     0
100
AcDbMText
 10
8.3865647747
 20
133.1179830331
 30
0.0
 40
3.175
 41
0.0
 71
     1
 72
     1
  1
D
  7
SLDTEXTSTYLE1
 73
     1
 44
1.0
  0
MTEXT
  5
F3
330
1F
100
AcDbEntity
  8
0
  6
Continuous
 62
     7
370
     0
100
AcDbMText
 10
8.3865647747
 20
86.3338273796
 30
0.0
 40
3.175
 41
0.0
 71
     1
 72
     1
  1
E
  7
SLDTEXTSTYLE1
 73
     1
 44
1.0
  0
MTEXT
  5
F4
330
1F
100
AcDbEntity
  8
0
  6
Continuous
 62
     7
370
     0
100
AcDbMText
 10
8.3865647747
 20
38.3541318378
 30
0.0
 40
3.175
 41
0.0
 71
     1
 72
     1
  1
F
  7
SLDTEXTSTYLE1
 73
     1
 44
1.0
  0
MTEXT
  5
F5
330
1F
100
AcDbEntity
  8
0
  6
Continuous
 62
     7
370
     0
100
AcDbMText
 10
399.2787925446
 20
9.9354335945
 30
0.0
 40
3.175
 41
0.0
 71
     1
 72
     1
  1
8
  7
SLDTEXTSTYLE1
 73
     1
 44
1.0
  0
MTEXT
  5
F6
330
1F
100
AcDbEntity
  8
0
  6
Continuous
 62
     7
370
     0
100
AcDbMText
 10
351.4052180815
 20
9.9354335945
 30
0.0
 40
3.175
 41
0.0
 71
     1
 72
     1
  1
7
  7
SLDTEXTSTYLE1
 73
     1
 44
1.0
  0
MTEXT
  5
F7
330
1F
100
AcDbEntity
  8
0
  6
Continuous
 62
     7
370
     0
100
AcDbMText
 10
297.8179450327
 20
9.9354335945
 30
0.0
 40
3.175
 41
0.0
 71
     1
 72
     1
  1
6
  7
SLDTEXTSTYLE1
 73
     1
 44
1.0
  0
MTEXT
  5
F8
330
1F
100
AcDbEntity
  8
0
  6
Continuous
 62
     7
370
     0
100
AcDbMText
 10
245.4141046664
 20
9.9354335945
 30
0.0
 40
3.175
 41
0.0
 71
     1
 72
     1
  1
5
  7
SLDTEXTSTYLE1
 73
     1
 44
1.0
  0
MTEXT
  5
F9
330
1F
100
AcDbEntity
  8
0
  6
Continuous
 62
     7
370
     0
100
AcDbMText
 10
193.7406238981
 20
9.7042937637
 30
0.0
 40
3.175
 41
0.0
 71
     1
 72
     1
  1
4
  7
SLDTEXTSTYLE1
 73
     1
 44
1.0
  0
MTEXT
  5
FA
330
1F
100
AcDbEntity
  8
0
  6
Continuous
 62
     7
370
     0
100
AcDbMText
 10
142.2121110564
 20
9.9354335945
 30
0.0
 40
3.175
 41
0.0
 71
     1
 72
     1
  1
3
  7
SLDTEXTSTYLE1
 73
     1
 44
1.0
  0
MTEXT
  5
FB
330
1F
100
AcDbEntity
  8
0
  6
Continuous
 62
     7
370
     0
100
AcDbMText
 10
90.9362688291
 20
9.9354335945
 30
0.0
 40
3.175
 41
0.0
 71
     1
 72
     1
  1
2
  7
SLDTEXTSTYLE1
 73
     1
 44
1.0
  0
MTEXT
  5
FC
330
1F
100
AcDbEntity
  8
0
  6
Continuous
 62
     7
370
     0
100
AcDbMText
 10
39.7651092004
 20
9.9354335945
 30
0.0
 40
3.175
 41
0.0
 71
     1
 72
     1
  1
1
  7
SLDTEXTSTYLE1
 73
     1
 44
1.0
  0
MTEXT
  5
FD
330
1F
100
AcDbEntity
  8
0
  6
Continuous
 62
     7
370
     0
100
AcDbMText
 10
430.6535769217
 20
279.9637363637
 30
0.0
 40
3.175
 41
0.0
 71
     1
 72
     1
  1
A
  7
SLDTEXTSTYLE1
 73
     1
 44
1.0
  0
MTEXT
  5
FE
330
1F
100
AcDbEntity
  8
0
  6
Continuous
 62
     7
370
     0
100
AcDbMText
 10
431.0049062132
 20
232.6957401676
 30
0.0
 40
3.175
 41
0.0
 71
     1
 72
     1
  1
B
  7
SLDTEXTSTYLE1
 73
     1
 44
1.0
  0
MTEXT
  5
FF
330
1F
100
AcDbEntity
  8
0
  6
Continuous
 62
     7
370
     0
100
AcDbMText
 10
431.0049062132
 20
183.1583100664
 30
0.0
 40
3.175
 41
0.0
 71
     1
 72
     1
  1
C
  7
SLDTEXTSTYLE1
 73
     1
 44
1.0
  0
MTEXT
  5
100
330
1F
100
AcDbEntity
  8
0
  6
Continuous
 62
     7
370
     0
100
AcDbMText
 10
431.0049062132
 20
134.364765965
 30
0.0
 40
3.175
 41
0.0
 71
     1
 72
     1
  1
D
  7
SLDTEXTSTYLE1
 73
     1
 44
1.0
  0
MTEXT
  5
101
330
1F
100
AcDbEntity
  8
0
  6
Continuous
 62
     7
370
     0
100
AcDbMText
 10
431.0049062132
 20
87.5806103114
 30
0.0
 40
3.175
 41
0.0
 71
     1
 72
     1
  1
E
  7
SLDTEXTSTYLE1
 73
     1
 44
1.0
  0
MTEXT
  5
102
330
1F
100
AcDbEntity
  8
0
  6
Continuous
 62
     7
370
     0
100
AcDbMText
 10
431.0049062132
 20
39.6009147696
 30
0.0
 40
3.175
 41
0.0
 71
     1
 72
     1
  1
F
  7
SLDTEXTSTYLE1
 73
     1
 44
1.0
  0
MTEXT
  5
103
330
1F
100
AcDbEntity
  8
0
  6
Continuous
 62
     7
370
     0
100
AcDbMText
 10
304.7329693203
 20
32.3800722766
 30
0.0
 40
2.778125
 41
0.0
 71
     1
 72
     1
  1
Miki
  7
SLDTEXTSTYLE1
 73
     1
 44
1.0
  0
MTEXT
  5
105
330
1F
100
AcDbEntity
  8
0
  6
Continuous
 62
     7
370
     0
100
AcDbMText
 10
379.2723359468
 20
18.315372684
 30
0.0
 40
3.96875
 41
0.0
 71
     1
 72
     1
  1
0
  7
SLDTEXTSTYLE3
 73
     1
 44
1.0
  0
MTEXT
  5
106
330
1F
100
AcDbEntity
  8
DIM
 62
     7
100
AcDbMText
 10
326.3385807224
 20
32.3800722766
 30
0.0
 40
2.778125
 41
0.0
 71
     1
 72
     1
  1
2010/12/30
  7
SLDTEXTSTYLE1
 73
     1
 44
1.0
  0
INSERT
  5
10C
330
1F
100
AcDbEntity
  8
DIM
 62
     7
100
AcDbBlockReference
  2
SW_NOTE_1
 10
298.0877840902
 20
49.3930300026
 30
0.0
  0
LINE
  5
10D
330
1F
100
AcDbEntity
  8
0
  6
Continuous
 62
     7
370
    15
100
AcDbLine
 10
210.137909371
 20
167.297414495
 30
0.0
 11
210.137909371
 21
160.297414495
 31
0.0
  0
LINE
  5
10E
330
1F
100
AcDbEntity
  8
0
  6
Continuous
 62
     7
370
    15
100
AcDbLine
 10
237.6445805489
 20
167.297414495
 30
0.0
 11
210.137909371
 21
167.297414495
 31
0.0
  0
LINE
  5
10F
330
1F
100
AcDbEntity
  8
0
  6
Continuous
 62
     7
370
    15
100
AcDbLine
 10
237.6445805489
 20
167.297414495
 30
0.0
 11
237.6445805489
 21
170.297414495
 31
0.0
  0
LINE
  5
110
330
1F
100
AcDbEntity
  8
0
  6
Continuous
 62
     7
370
    15
100
AcDbLine
 10
237.6479133742
 20
170.297414495
 30
0.0
 11
237.6479133742
 21
160.297414495
 31
0.0
  0
LINE
  5
111
330
1F
100
AcDbEntity
  8
0
  6
Continuous
 62
     7
370
    15
100
AcDbLine
 10
237.6479133742
 20
160.297414495
 30
0.0
 11
210.137909371
 21
160.297414495
 31
0.0
  0
LINE
  5
112
330
1F
100
AcDbEntity
  8
0
  6
Continuous
 62
     7
370
    15
100
AcDbLine
 10
237.6445805489
 20
195.817414495
 30
0.0
 11
237.6445805489
 21
170.297414495
 31
0.0
  0
ARC
  5
113
330
1F
100
AcDbEntity
  8
0
  6
Continuous
 62
     7
370
    15
100
AcDbCircle
 10
233.6433351553
 20
195.817414495
 30
0.0
 40
4.001245393571704
100
AcDbArc
 50
0.0
 51
60.1383246766
  0
LINE
  5
114
330
1F
100
AcDbEntity
  8
0
  6
Continuous
 62
     7
370
    15
100
AcDbLine
 10
221.647909371
 20
207.3674077559
 30
0.0
 11
235.6355863191
 21
199.287414495
 31
0.0
  0
ARC
  5
115
330
1F
100
AcDbEntity
  8
0
  6
Continuous
 62
     7
370
    15
100
AcDbCircle
 10
225.6510335465
 20
214.297414495
 30
0.0
 40
8.003124175496868
100
AcDbArc
 50
120.0129141591
 51
239.9870858409
  0
LINE
  5
116
330
1F
100
AcDbEntity
  8
0
  6
Continuous
 62
     7
370
    15
100
AcDbLine
 10
235.6355863191
 20
229.307414495
 30
0.0
 11
221.647909371
 21
221.2274212341
 31
0.0
  0
ARC
  5
117
330
1F
100
AcDbEntity
  8
0
  6
Continuous
 62
     7
370
    15
100
AcDbCircle
 10
233.6433351553
 20
232.777414495
 30
0.0
 40
4.001245393571704
100
AcDbArc
 50
299.8616753234
 51
0.0
  0
LINE
  5
118
330
1F
100
AcDbEntity
  8
0
  6
Continuous
 62
     7
370
    15
100
AcDbLine
 10
237.6445805489
 20
268.297414495
 30
0.0
 11
237.6445805489
 21
232.777414495
 31
0.0
  0
LINE
  5
119
330
1F
100
AcDbEntity
  8
0
  6
Continuous
 62
     7
370
    15
100
AcDbLine
 10
264.147909371
 20
268.297414495
 30
0.0
 11
237.6445805489
 21
268.297414495
 31
0.0
  0
LINE
  5
11A
330
1F
100
AcDbEntity
  8
0
  6
Continuous
 62
     7
370
    15
100
AcDbLine
 10
264.147909371
 20
160.297414495
 30
0.0
 11
264.147909371
 21
268.297414495
 31
0.0
  0
LINE
  5
11B
330
1F
100
AcDbEntity
  8
0
  6
Continuous
 62
     7
370
    15
100
AcDbLine
 10
237.6479133742
 20
170.297414495
 30
0.0
 11
237.6445805489
 21
170.297414495
 31
0.0
  0
CIRCLE
  5
11C
330
1F
100
AcDbEntity
  8
0
  6
Continuous
 62
     7
370
    15
100
AcDbCircle
 10
251.147909371
 20
188.897414495
 30
0.0
 40
2.552699999999987
  0
CIRCLE
  5
11D
330
1F
100
AcDbEntity
  8
0
  6
Continuous
 62
     7
370
    15
100
AcDbCircle
 10
251.147909371
 20
214.297414495
 30
0.0
 40
2.552700000000016
  0
CIRCLE
  5
11E
330
1F
100
AcDbEntity
  8
0
  6
Continuous
 62
     7
370
    15
100
AcDbCircle
 10
251.147909371
 20
239.697414495
 30
0.0
 40
2.552699999999987
  0
CIRCLE
  5
11F
330
1F
100
AcDbEntity
  8
0
  6
Continuous
 62
     7
370
    15
100
AcDbCircle
 10
225.747909371
 20
214.297414495
 30
0.0
 40
2.552700000000016
  0
LINE
  5
120
330
1F
100
AcDbEntity
  8
0
  6
Continuous
 62
     7
370
    15
100
AcDbLine
 10
264.147909371
 20
160.297414495
 30
0.0
 11
237.6479133742
 21
160.297414495
 31
0.0
  0
INSERT
  5
129
330
1F
100
AcDbEntity
  8
DIM
100
AcDbBlockReference
  2
SW_RADIAL_DIMENSION_0
 10
203.8557025927
 20
251.4076596541
 30
0.0
  0
DIMENSION
  5
12A
330
1F
100
AcDbEntity
  8
DIM
 62
     7
100
AcDbDimension
  2
_D
 10
277.2835509736
 20
214.297414495
 30
0.0
 11
277.2835509736
 21
226.997414495
 31
0.0
 70
   160
  1
<>
 71
     2
 42
-1.0
  3
SLDDIMSTYLE0
100
AcDbAlignedDimension
 13
251.147909371
 23
239.697414495
 33
0.0
 14
251.147909371
 24
214.297414495
 34
0.0
 50
90.0
100
AcDbRotatedDimension
  0
DIMENSION
  5
135
330
1F
100
AcDbEntity
  8
DIM
 62
     7
100
AcDbDimension
  2
_D_1
 10
277.2835509736
 20
188.897414495
 30
0.0
 11
277.2835509736
 21
201.597414495
 31
0.0
 70
   160
  1
<>
 71
     2
 42
-1.0
  3
SLDDIMSTYLE0
100
AcDbAlignedDimension
 13
251.147909371
 23
214.297414495
 33
0.0
 14
251.147909371
 24
188.897414495
 34
0.0
 50
90.0
100
AcDbRotatedDimension
  0
DIMENSION
  5
13F
330
1F
100
AcDbEntity
  8
DIM
100
AcDbDimension
  2
_D_2
 10
251.147909371
 20
143.797414495
 30
0.0
 11
238.447909371
 21
143.797414495
 31
0.0
 70
   160
  1
<>
 71
     2
 42
-1.0
  3
SLDDIMSTYLE0
100
AcDbAlignedDimension
 13
225.747909371
 23
214.297414495
 33
0.0
 14
251.147909371
 24
188.897414495
 34
0.0
100
AcDbRotatedDimension
  0
DIMENSION
  5
149
330
1F
100
AcDbEntity
  8
DIM
100
AcDbDimension
  2
_D_3
 10
264.147909371
 20
143.397414495
 30
0.0
 11
257.647909371
 21
143.397414495
 31
0.0
 70
   160
  1
<>
 71
     2
 42
-1.0
  3
SLDDIMSTYLE0
100
AcDbAlignedDimension
 13
251.147909371
 23
188.897414495
 33
0.0
 14
264.147909371
 24
160.297414495
 34
0.0
 50
0.0
100
AcDbRotatedDimension
  0
INSERT
  5
15E
330
1F
100
AcDbEntity
  8
DIM
100
AcDbBlockReference
  2
SW_CENTERMARKSYMBOL_0
 10
251.147909371
 20
188.897414495
 30
0.0
  0
INSERT
  5
16A
330
1F
100
AcDbEntity
  8
DIM
100
AcDbBlockReference
  2
SW_CENTERMARKSYMBOL_1
 10
251.147909371
 20
214.297414495
 30
0.0
  0
INSERT
  5
176
330
1F
100
AcDbEntity
  8
DIM
100
AcDbBlockReference
  2
SW_CENTERMARKSYMBOL_2
 10
251.147909371
 20
239.697414495
 30
0.0
  0
INSERT
  5
182
330
1F
100
AcDbEntity
  8
DIM
100
AcDbBlockReference
  2
SW_CENTERMARKSYMBOL_3
 10
225.747909371
 20
214.297414495
 30
0.0
  0
ARC
  5
183
330
1F
100
AcDbEntity
  8
0
  6
Continuous
 62
     7
370
     0
100
AcDbCircle
 10
251.147909371
 20
188.897414495
 30
0.0
 40
3.174999999999976
100
AcDbArc
 50
255.0
 51
195.0
  0
ARC
  5
184
330
1F
100
AcDbEntity
  8
0
  6
Continuous
 62
     7
370
     0
100
AcDbCircle
 10
251.147909371
 20
214.297414495
 30
0.0
 40
3.174999999999984
100
AcDbArc
 50
255.0
 51
195.0
  0
ARC
  5
185
330
1F
100
AcDbEntity
  8
0
  6
Continuous
 62
     7
370
     0
100
AcDbCircle
 10
251.147909371
 20
239.697414495
 30
0.0
 40
3.174999999999991
100
AcDbArc
 50
255.0
 51
195.0
  0
ARC
  5
186
330
1F
100
AcDbEntity
  8
0
  6
Continuous
 62
     7
370
     0
100
AcDbCircle
 10
225.747909371
 20
214.297414495
 30
0.0
 40
3.174999999999969
100
AcDbArc
 50
255.0
 51
195.0
  0
LINE
  5
187
330
1F
100
AcDbEntity
  8
0
  6
Continuous
 62
     7
370
    15
100
AcDbLine
 10
72.7063620061
 20
170.297414495
 30
0.0
 11
72.7063620061
 21
160.297414495
 31
0.0
  0
LINE
  5
188
330
1F
100
AcDbEntity
  8
0
  6
Continuous
 62
     7
370
    15
100
AcDbLine
 10
72.7074576147
 20
170.297414495
 30
0.0
 11
72.7074576147
 21
167.297414495
 31
0.0
  0
LINE
  5
189
330
1F
100
AcDbEntity
  8
0
  6
Continuous
 62
     7
370
    15
100
AcDbLine
 10
148.7052663974
 20
167.297414495
 30
0.0
 11
72.7074576147
 21
167.297414495
 31
0.0
  0
LINE
  5
18A
330
1F
100
AcDbEntity
  8
0
  6
Continuous
 62
     7
370
    15
100
AcDbLine
 10
148.7052663974
 20
167.297414495
 30
0.0
 11
148.7052663974
 21
170.297414495
 31
0.0
  0
LINE
  5
18B
330
1F
100
AcDbEntity
  8
0
  6
Continuous
 62
     7
370
    15
100
AcDbLine
 10
148.7063620061
 20
170.297414495
 30
0.0
 11
148.7063620061
 21
160.297414495
 31
0.0
  0
LINE
  5
18C
330
1F
100
AcDbEntity
  8
0
  6
Continuous
 62
     7
370
    15
100
AcDbLine
 10
148.7063620061
 20
160.297414495
 30
0.0
 11
72.7063620061
 21
160.297414495
 31
0.0
  0
LINE
  5
18D
330
1F
100
AcDbEntity
  8
0
  6
Continuous
 62
     7
370
    15
100
AcDbLine
 10
79.7063620061
 20
207.3674077559
 30
0.0
 11
72.7063620061
 21
207.3674077559
 31
0.0
  0
LINE
  5
18E
330
1F
100
AcDbEntity
  8
0
  6
Continuous
 62
     7
370
    15
100
AcDbLine
 10
79.7063620061
 20
221.2274212341
 30
0.0
 11
72.7063620061
 21
221.2274212341
 31
0.0
  0
LINE
  5
18F
330
1F
100
AcDbEntity
  8
0
  6
Continuous
 62
     7
370
    15
100
AcDbLine
 10
79.7063620061
 20
221.2274212341
 30
0.0
 11
79.7063620061
 21
207.3674077559
 31
0.0
  0
LINE
  5
190
330
1F
100
AcDbEntity
  8
0
  6
Continuous
 62
     7
370
    15
100
AcDbLine
 10
72.7063620061
 20
221.2274212341
 30
0.0
 11
72.7063620061
 21
207.3674077559
 31
0.0
  0
LINE
  5
191
330
1F
100
AcDbEntity
  8
0
  6
Continuous
 62
     7
370
    15
100
AcDbLine
 10
148.7063620061
 20
221.2274212341
 30
0.0
 11
141.7063620061
 21
221.2274212341
 31
0.0
  0
LINE
  5
192
330
1F
100
AcDbEntity
  8
0
  6
Continuous
 62
     7
370
    15
100
AcDbLine
 10
148.7063620061
 20
207.3674077559
 30
0.0
 11
141.7063620061
 21
207.3674077559
 31
0.0
  0
LINE
  5
193
330
1F
100
AcDbEntity
  8
0
  6
Continuous
 62
     7
370
    15
100
AcDbLine
 10
148.7063620061
 20
221.2274212341
 30
0.0
 11
148.7063620061
 21
207.3674077559
 31
0.0
  0
LINE
  5
194
330
1F
100
AcDbEntity
  8
0
  6
Continuous
 62
     7
370
    15
100
AcDbLine
 10
141.7063620061
 20
207.3674077559
 30
0.0
 11
141.7063620061
 21
221.2274212341
 31
0.0
  0
LINE
  5
195
330
1F
100
AcDbEntity
  8
0
  6
Continuous
 62
     7
370
    15
100
AcDbLine
 10
79.7063620061
 20
199.287414495
 30
0.0
 11
72.7063620061
 21
199.287414495
 31
0.0
  0
LINE
  5
196
330
1F
100
AcDbEntity
  8
0
  6
Continuous
 62
     7
370
    15
100
AcDbLine
 10
79.7063620061
 20
207.3674077559
 30
0.0
 11
79.7063620061
 21
199.287414495
 31
0.0
  0
LINE
  5
197
330
1F
100
AcDbEntity
  8
0
  6
Continuous
 62
     7
370
    15
100
AcDbLine
 10
72.7063620061
 20
207.3674077559
 30
0.0
 11
72.7063620061
 21
199.287414495
 31
0.0
  0
LINE
  5
198
330
1F
100
AcDbEntity
  8
0
  6
Continuous
 62
     7
370
    15
100
AcDbLine
 10
79.7063620061
 20
229.307414495
 30
0.0
 11
72.7063620061
 21
229.307414495
 31
0.0
  0
LINE
  5
199
330
1F
100
AcDbEntity
  8
0
  6
Continuous
 62
     7
370
    15
100
AcDbLine
 10
79.7063620061
 20
229.307414495
 30
0.0
 11
79.7063620061
 21
221.2274212341
 31
0.0
  0
LINE
  5
19A
330
1F
100
AcDbEntity
  8
0
  6
Continuous
 62
     7
370
    15
100
AcDbLine
 10
72.7063620061
 20
229.307414495
 30
0.0
 11
72.7063620061
 21
221.2274212341
 31
0.0
  0
LINE
  5
19B
330
1F
100
AcDbEntity
  8
0
  6
Continuous
 62
     7
370
    15
100
AcDbLine
 10
148.7063620061
 20
199.287414495
 30
0.0
 11
141.7063620061
 21
199.287414495
 31
0.0
  0
LINE
  5
19C
330
1F
100
AcDbEntity
  8
0
  6
Continuous
 62
     7
370
    15
100
AcDbLine
 10
148.7063620061
 20
207.3674077559
 30
0.0
 11
148.7063620061
 21
199.287414495
 31
0.0
  0
LINE
  5
19D
330
1F
100
AcDbEntity
  8
0
  6
Continuous
 62
     7
370
    15
100
AcDbLine
 10
141.7063620061
 20
199.287414495
 30
0.0
 11
141.7063620061
 21
207.3674077559
 31
0.0
  0
LINE
  5
19E
330
1F
100
AcDbEntity
  8
0
  6
Continuous
 62
     7
370
    15
100
AcDbLine
 10
148.7063620061
 20
229.307414495
 30
0.0
 11
141.7063620061
 21
229.307414495
 31
0.0
  0
LINE
  5
19F
330
1F
100
AcDbEntity
  8
0
  6
Continuous
 62
     7
370
    15
100
AcDbLine
 10
148.7063620061
 20
229.307414495
 30
0.0
 11
148.7063620061
 21
221.2274212341
 31
0.0
  0
LINE
  5
1A0
330
1F
100
AcDbEntity
  8
0
  6
Continuous
 62
     7
370
    15
100
AcDbLine
 10
141.7063620061
 20
221.2274212341
 30
0.0
 11
141.7063620061
 21
229.307414495
 31
0.0
  0
LINE
  5
1A1
330
1F
100
AcDbEntity
  8
0
  6
Continuous
 62
     7
370
    15
100
AcDbLine
 10
79.7063620061
 20
195.817414495
 30
0.0
 11
72.7063620061
 21
195.817414495
 31
0.0
  0
LINE
  5
1A2
330
1F
100
AcDbEntity
  8
0
  6
Continuous
 62
     7
370
    15
100
AcDbLine
 10
79.7063620061
 20
199.287414495
 30
0.0
 11
79.7063620061
 21
195.817414495
 31
0.0
  0
LINE
  5
1A3
330
1F
100
AcDbEntity
  8
0
  6
Continuous
 62
     7
370
    15
100
AcDbLine
 10
72.7063620061
 20
195.817414495
 30
0.0
 11
72.7063620061
 21
199.287414495
 31
0.0
  0
LINE
  5
1A4
330
1F
100
AcDbEntity
  8
0
  6
Continuous
 62
     7
370
    15
100
AcDbLine
 10
79.7063620061
 20
232.777414495
 30
0.0
 11
72.7063620061
 21
232.777414495
 31
0.0
  0
LINE
  5
1A5
330
1F
100
AcDbEntity
  8
0
  6
Continuous
 62
     7
370
    15
100
AcDbLine
 10
79.7063620061
 20
232.777414495
 30
0.0
 11
79.7063620061
 21
229.307414495
 31
0.0
  0
LINE
  5
1A6
330
1F
100
AcDbEntity
  8
0
  6
Continuous
 62
     7
370
    15
100
AcDbLine
 10
72.7063620061
 20
229.307414495
 30
0.0
 11
72.7063620061
 21
232.777414495
 31
0.0
  0
LINE
  5
1A7
330
1F
100
AcDbEntity
  8
0
  6
Continuous
 62
     7
370
    15
100
AcDbLine
 10
148.7063620061
 20
195.817414495
 30
0.0
 11
141.7063620061
 21
195.817414495
 31
0.0
  0
LINE
  5
1A8
330
1F
100
AcDbEntity
  8
0
  6
Continuous
 62
     7
370
    15
100
AcDbLine
 10
148.7063620061
 20
195.817414495
 30
0.0
 11
148.7063620061
 21
199.287414495
 31
0.0
  0
LINE
  5
1A9
330
1F
100
AcDbEntity
  8
0
  6
Continuous
 62
     7
370
    15
100
AcDbLine
 10
141.7063620061
 20
199.287414495
 30
0.0
 11
141.7063620061
 21
195.817414495
 31
0.0
  0
LINE
  5
1AA
330
1F
100
AcDbEntity
  8
0
  6
Continuous
 62
     7
370
    15
100
AcDbLine
 10
148.7063620061
 20
232.777414495
 30
0.0
 11
141.7063620061
 21
232.777414495
 31
0.0
  0
LINE
  5
1AB
330
1F
100
AcDbEntity
  8
0
  6
Continuous
 62
     7
370
    15
100
AcDbLine
 10
148.7063620061
 20
229.307414495
 30
0.0
 11
148.7063620061
 21
232.777414495
 31
0.0
  0
LINE
  5
1AC
330
1F
100
AcDbEntity
  8
0
  6
Continuous
 62
     7
370
    15
100
AcDbLine
 10
141.7063620061
 20
232.777414495
 30
0.0
 11
141.7063620061
 21
229.307414495
 31
0.0
  0
LINE
  5
1AD
330
1F
100
AcDbEntity
  8
0
  6
Continuous
 62
     7
370
    15
100
AcDbLine
 10
72.7074576147
 20
170.297414495
 30
0.0
 11
72.7063620061
 21
170.297414495
 31
0.0
  0
ARC
  5
1AE
330
1F
100
AcDbEntity
  8
0
  6
Continuous
 62
     7
370
    15
100
AcDbCircle
 10
85.7063620061
 20
173.297414495
 30
0.0
 40
6.000000000000043
100
AcDbArc
 50
180.0
 51
270.0
  0
LINE
  5
1AF
330
1F
100
AcDbEntity
  8
0
  6
Continuous
 62
     7
370
    15
100
AcDbLine
 10
79.7063620061
 20
173.297414495
 30
0.0
 11
79.7063620061
 21
195.817414495
 31
0.0
  0
LINE
  5
1B0
330
1F
100
AcDbEntity
  8
0
  6
Continuous
 62
     7
370
    15
100
AcDbLine
 10
72.7063620061
 20
195.817414495
 30
0.0
 11
72.7063620061
 21
170.297414495
 31
0.0
  0
ARC
  5
1B1
330
1F
100
AcDbEntity
  8
0
  6
Continuous
 62
     7
370
    15
100
AcDbCircle
 10
135.7063620061
 20
255.297414495
 30
0.0
 40
6.000000000000085
100
AcDbArc
 50
0.0
 51
90.0
  0
LINE
  5
1B2
330
1F
100
AcDbEntity
  8
0
  6
Continuous
 62
     7
370
    15
100
AcDbLine
 10
85.7063620061
 20
261.297414495
 30
0.0
 11
135.7063620061
 21
261.297414495
 31
0.0
  0
ARC
  5
1B3
330
1F
100
AcDbEntity
  8
0
  6
Continuous
 62
     7
370
    15
100
AcDbCircle
 10
85.7063620061
 20
255.297414495
 30
0.0
 40
6.000000000000043
100
AcDbArc
 50
90.0
 51
180.0
  0
LINE
  5
1B4
330
1F
100
AcDbEntity
  8
0
  6
Continuous
 62
     7
370
    15
100
AcDbLine
 10
148.7063620061
 20
268.297414495
 30
0.0
 11
72.7063620061
 21
268.297414495
 31
0.0
  0
LINE
  5
1B5
330
1F
100
AcDbEntity
  8
0
  6
Continuous
 62
     7
370
    15
100
AcDbLine
 10
148.7063620061
 20
268.297414495
 30
0.0
 11
148.7063620061
 21
232.777414495
 31
0.0
  0
LINE
  5
1B6
330
1F
100
AcDbEntity
  8
0
  6
Continuous
 62
     7
370
    15
100
AcDbLine
 10
141.7063620061
 20
232.777414495
 30
0.0
 11
141.7063620061
 21
255.297414495
 31
0.0
  0
LINE
  5
1B7
330
1F
100
AcDbEntity
  8
0
  6
Continuous
 62
     7
370
    15
100
AcDbLine
 10
79.7063620061
 20
232.777414495
 30
0.0
 11
79.7063620061
 21
255.297414495
 31
0.0
  0
LINE
  5
1B8
330
1F
100
AcDbEntity
  8
0
  6
Continuous
 62
     7
370
    15
100
AcDbLine
 10
72.7063620061
 20
268.297414495
 30
0.0
 11
72.7063620061
 21
232.777414495
 31
0.0
  0
LINE
  5
1B9
330
1F
100
AcDbEntity
  8
0
  6
Continuous
 62
     7
370
    15
100
AcDbLine
 10
148.7063620061
 20
170.297414495
 30
0.0
 11
148.7052663974
 21
170.297414495
 31
0.0
  0
ARC
  5
1BA
330
1F
100
AcDbEntity
  8
0
  6
Continuous
 62
     7
370
    15
100
AcDbCircle
 10
135.7063620061
 20
173.297414495
 30
0.0
 40
6.000000000000085
100
AcDbArc
 50
270.0
 51
0.0
  0
LINE
  5
1BB
330
1F
100
AcDbEntity
  8
0
  6
Continuous
 62
     7
370
    15
100
AcDbLine
 10
148.7063620061
 20
195.817414495
 30
0.0
 11
148.7063620061
 21
170.297414495
 31
0.0
  0
LINE
  5
1BC
330
1F
100
AcDbEntity
  8
0
  6
Continuous
 62
     7
370
    15
100
AcDbLine
 10
141.7063620061
 20
173.297414495
 30
0.0
 11
141.7063620061
 21
195.817414495
 31
0.0
  0
CIRCLE
  5
1BD
330
1F
100
AcDbEntity
  8
0
  6
Continuous
 62
     7
370
    15
100
AcDbCircle
 10
136.1063620061
 20
176.197414495
 30
0.0
 40
2.552700000000016
  0
CIRCLE
  5
1BE
330
1F
100
AcDbEntity
  8
0
  6
Continuous
 62
     7
370
    15
100
AcDbCircle
 10
136.1063620061
 20
201.597414495
 30
0.0
 40
2.552700000000016
  0
CIRCLE
  5
1BF
330
1F
100
AcDbEntity
  8
0
  6
Continuous
 62
     7
370
    15
100
AcDbCircle
 10
136.1063620061
 20
226.997414495
 30
0.0
 40
2.552699999999987
  0
CIRCLE
  5
1C0
330
1F
100
AcDbEntity
  8
0
  6
Continuous
 62
     7
370
    15
100
AcDbCircle
 10
136.1063620061
 20
252.397414495
 30
0.0
 40
2.552700000000016
  0
CIRCLE
  5
1C1
330
1F
100
AcDbEntity
  8
0
  6
Continuous
 62
     7
370
    15
100
AcDbCircle
 10
110.7063620061
 20
226.997414495
 30
0.0
 40
2.552699999999987
  0
CIRCLE
  5
1C2
330
1F
100
AcDbEntity
  8
0
  6
Continuous
 62
     7
370
    15
100
AcDbCircle
 10
110.7063620061
 20
252.397414495
 30
0.0
 40
2.552700000000016
  0
CIRCLE
  5
1C3
330
1F
100
AcDbEntity
  8
0
  6
Continuous
 62
     7
370
    15
100
AcDbCircle
 10
85.3063620061
 20
252.397414495
 30
0.0
 40
2.552700000000016
  0
CIRCLE
  5
1C4
330
1F
100
AcDbEntity
  8
0
  6
Continuous
 62
     7
370
    15
100
AcDbCircle
 10
85.3063620061
 20
226.997414495
 30
0.0
 40
2.552699999999987
  0
CIRCLE
  5
1C5
330
1F
100
AcDbEntity
  8
0
  6
Continuous
 62
     7
370
    15
100
AcDbCircle
 10
110.7063620061
 20
176.197414495
 30
0.0
 40
2.552700000000016
  0
CIRCLE
  5
1C6
330
1F
100
AcDbEntity
  8
0
  6
Continuous
 62
     7
370
    15
100
AcDbCircle
 10
110.7063620061
 20
201.597414495
 30
0.0
 40
2.552700000000016
  0
CIRCLE
  5
1C7
330
1F
100
AcDbEntity
  8
0
  6
Continuous
 62
     7
370
    15
100
AcDbCircle
 10
85.3063620061
 20
201.597414495
 30
0.0
 40
2.552700000000016
  0
CIRCLE
  5
1C8
330
1F
100
AcDbEntity
  8
0
  6
Continuous
 62
     7
370
    15
100
AcDbCircle
 10
85.3063620061
 20
176.197414495
 30
0.0
 40
2.552700000000016
  0
ARC
  5
1C9
330
1F
100
AcDbEntity
  8
0
  6
Continuous
 62
     7
370
    15
100
AcDbCircle
 10
123.4063620061
 20
176.197414495
 30
0.0
 40
3.499999999999986
100
AcDbArc
 50
180.0
 51
0.0
  0
LINE
  5
1CA
330
1F
100
AcDbEntity
  8
0
  6
Continuous
 62
     7
370
    15
100
AcDbLine
 10
126.9063620061
 20
176.197414495
 30
0.0
 11
126.9063620061
 21
201.597414495
 31
0.0
  0
ARC
  5
1CB
330
1F
100
AcDbEntity
  8
0
  6
Continuous
 62
     7
370
    15
100
AcDbCircle
 10
123.4063620061
 20
201.597414495
 30
0.0
 40
3.499999999999986
100
AcDbArc
 50
0.0
 51
180.0
  0
LINE
  5
1CC
330
1F
100
AcDbEntity
  8
0
  6
Continuous
 62
     7
370
    15
100
AcDbLine
 10
119.9063620061
 20
201.597414495
 30
0.0
 11
119.9063620061
 21
176.197414495
 31
0.0
  0
ARC
  5
1CD
330
1F
100
AcDbEntity
  8
0
  6
Continuous
 62
     7
370
    15
100
AcDbCircle
 10
98.0063620061
 20
201.597414495
 30
0.0
 40
3.499999999999986
100
AcDbArc
 50
0.0
 51
180.0
  0
LINE
  5
1CE
330
1F
100
AcDbEntity
  8
0
  6
Continuous
 62
     7
370
    15
100
AcDbLine
 10
94.5063620061
 20
201.597414495
 30
0.0
 11
94.5063620061
 21
176.197414495
 31
0.0
  0
ARC
  5
1CF
330
1F
100
AcDbEntity
  8
0
  6
Continuous
 62
     7
370
    15
100
AcDbCircle
 10
98.0063620061
 20
176.197414495
 30
0.0
 40
3.499999999999972
100
AcDbArc
 50
180.0
 51
0.0
  0
LINE
  5
1D0
330
1F
100
AcDbEntity
  8
0
  6
Continuous
 62
     7
370
    15
100
AcDbLine
 10
101.5063620061
 20
176.197414495
 30
0.0
 11
101.5063620061
 21
201.597414495
 31
0.0
  0
ARC
  5
1D1
330
1F
100
AcDbEntity
  8
0
  6
Continuous
 62
     7
370
    15
100
AcDbCircle
 10
98.0063620061
 20
252.397414495
 30
0.0
 40
3.499999999999986
100
AcDbArc
 50
0.0
 51
180.0
  0
LINE
  5
1D2
330
1F
100
AcDbEntity
  8
0
  6
Continuous
 62
     7
370
    15
100
AcDbLine
 10
94.5063620061
 20
252.397414495
 30
0.0
 11
94.5063620061
 21
226.997414495
 31
0.0
  0
ARC
  5
1D3
330
1F
100
AcDbEntity
  8
0
  6
Continuous
 62
     7
370
    15
100
AcDbCircle
 10
98.0063620061
 20
226.997414495
 30
0.0
 40
3.499999999999986
100
AcDbArc
 50
180.0
 51
0.0
  0
LINE
  5
1D4
330
1F
100
AcDbEntity
  8
0
  6
Continuous
 62
     7
370
    15
100
AcDbLine
 10
101.5063620061
 20
226.997414495
 30
0.0
 11
101.5063620061
 21
252.397414495
 31
0.0
  0
ARC
  5
1D5
330
1F
100
AcDbEntity
  8
0
  6
Continuous
 62
     7
370
    15
100
AcDbCircle
 10
123.4063620061
 20
226.997414495
 30
0.0
 40
3.499999999999986
100
AcDbArc
 50
180.0
 51
0.0
  0
LINE
  5
1D6
330
1F
100
AcDbEntity
  8
0
  6
Continuous
 62
     7
370
    15
100
AcDbLine
 10
126.9063620061
 20
226.997414495
 30
0.0
 11
126.9063620061
 21
252.397414495
 31
0.0
  0
ARC
  5
1D7
330
1F
100
AcDbEntity
  8
0
  6
Continuous
 62
     7
370
    15
100
AcDbCircle
 10
123.4063620061
 20
252.397414495
 30
0.0
 40
3.499999999999986
100
AcDbArc
 50
0.0
 51
180.0
  0
LINE
  5
1D8
330
1F
100
AcDbEntity
  8
0
  6
Continuous
 62
     7
370
    15
100
AcDbLine
 10
119.9063620061
 20
252.397414495
 30
0.0
 11
119.9063620061
 21
226.997414495
 31
0.0
  0
DIMENSION
  5
1D9
330
1F
100
AcDbEntity
  8
DIM
100
AcDbDimension
  2
_D_4
 10
183.2063620061
 20
160.297414495
 30
0.0
 11
183.2063620061
 21
214.297414495
 31
0.0
 70
   160
  1
<>
 71
     2
 42
-1.0
  3
SLDDIMSTYLE0
100
AcDbAlignedDimension
 13
148.7063620061
 23
268.297414495
 33
0.0
 14
148.7063620061
 24
160.297414495
 34
0.0
 50
90.0
100
AcDbRotatedDimension
  0
DIMENSION
  5
1E3
330
1F
100
AcDbEntity
  8
DIM
100
AcDbDimension
  2
_D_5
 10
72.7063620061
 20
127.7524010279
 30
0.0
 11
110.7063620061
 21
127.7524010279
 31
0.0
 70
   160
  1
<>
 71
     2
 42
-1.0
  3
SLDDIMSTYLE0
100
AcDbAlignedDimension
 13
148.7063620061
 23
160.297414495
 33
0.0
 14
72.7063620061
 24
160.297414495
 34
0.0
100
AcDbRotatedDimension
  0
DIMENSION
  5
1ED
330
1F
100
AcDbEntity
  8
DIM
 62
     7
100
AcDbDimension
  2
_D_6
 10
161.1063620061
 20
214.297414495
 30
0.0
 11
161.1063620061
 21
220.647414495
 31
0.0
 70
   160
  1
<>
 71
     2
 42
-1.0
  3
SLDDIMSTYLE0
100
AcDbAlignedDimension
 13
136.1063620061
 23
226.997414495
 33
0.0
 14
151.7063620061
 24
214.297414495
 34
0.0
 50
90.0
100
AcDbRotatedDimension
  0
DIMENSION
  5
1F7
330
1F
100
AcDbEntity
  8
DIM
 62
     7
100
AcDbDimension
  2
_D_7
 10
161.1063620061
 20
214.297414495
 30
0.0
 11
161.1063620061
 21
207.947414495
 31
0.0
 70
   160
  1
<>
 71
     2
 42
-1.0
  3
SLDDIMSTYLE0
100
AcDbAlignedDimension
 13
136.1063620061
 23
201.597414495
 33
0.0
 14
151.7063620061
 24
214.297414495
 34
0.0
 50
90.0
100
AcDbRotatedDimension
  0
DIMENSION
  5
201
330
1F
100
AcDbEntity
  8
DIM
 62
     7
100
AcDbDimension
  2
_D_8
 10
171.8895277284
 20
214.297414495
 30
0.0
 11
171.8895277284
 21
233.347414495
 31
0.0
 70
   160
  1
<>
 71
     2
 42
-1.0
  3
SLDDIMSTYLE0
100
AcDbAlignedDimension
 13
136.1063620061
 23
252.397414495
 33
0.0
 14
151.7063620061
 24
214.297414495
 34
0.0
 50
90.0
100
AcDbRotatedDimension
  0
DIMENSION
  5
20B
330
1F
100
AcDbEntity
  8
DIM
 62
     7
100
AcDbDimension
  2
_D_9
 10
171.8895277284
 20
214.297414495
 30
0.0
 11
171.8895277284
 21
195.247414495
 31
0.0
 70
   160
  1
<>
 71
     2
 42
-1.0
  3
SLDDIMSTYLE0
100
AcDbAlignedDimension
 13
136.1063620061
 23
176.197414495
 33
0.0
 14
151.7063620061
 24
214.297414495
 34
0.0
 50
90.0
100
AcDbRotatedDimension
  0
DIMENSION
  5
215
330
1F
100
AcDbEntity
  8
DIM
 62
     7
100
AcDbDimension
  2
_D_10
 10
110.7063620061
 20
147.2571988834
 30
0.0
 11
104.3563620061
 21
147.2571988834
 31
0.0
 70
   160
  1
<>
 71
     2
 42
-1.0
  3
SLDDIMSTYLE0
100
AcDbAlignedDimension
 13
98.0063620061
 23
171.697414495
 33
0.0
 14
110.7063620061
 24
176.197414495
 34
0.0
100
AcDbRotatedDimension
  0
DIMENSION
  5
21F
330
1F
100
AcDbEntity
  8
DIM
 62
     7
100
AcDbDimension
  2
_D_11
 10
123.4063620061
 20
146.6571988834
 30
0.0
 11
117.0563620061
 21
146.6571988834
 31
0.0
 70
   160
  1
<>
 71
     2
 42
-1.0
  3
SLDDIMSTYLE0
100
AcDbAlignedDimension
 13
110.7063620061
 23
176.197414495
 33
0.0
 14
123.4063620061
 24
171.697414495
 34
0.0
100
AcDbRotatedDimension
  0
DIMENSION
  5
229
330
1F
100
AcDbEntity
  8
DIM
 62
     7
100
AcDbDimension
  2
_D_12
 10
110.7063620061
 20
137.0973162136
 30
0.0
 11
98.0063620061
 21
137.0973162136
 31
0.0
 70
   160
  1
<>
 71
     2
 42
-1.0
  3
SLDDIMSTYLE0
100
AcDbAlignedDimension
 13
85.3063620061
 23
176.197414495
 33
0.0
 14
110.7063620061
 24
176.197414495
 34
0.0
100
AcDbRotatedDimension
  0
DIMENSION
  5
233
330
1F
100
AcDbEntity
  8
DIM
 62
     7
100
AcDbDimension
  2
_D_13
 10
136.1063620061
 20
137.0973162136
 30
0.0
 11
123.4063620061
 21
137.0973162136
 31
0.0
 70
   160
  1
<>
 71
     2
 42
-1.0
  3
SLDDIMSTYLE0
100
AcDbAlignedDimension
 13
110.7063620061
 23
176.197414495
 33
0.0
 14
136.1063620061
 24
176.197414495
 34
0.0
100
AcDbRotatedDimension
  0
DIMENSION
  5
23D
330
1F
100
AcDbEntity
  8
DIM
 62
     7
100
AcDbDimension
  2
_D_14
 10
100.7547013816
 20
229.1645856182
 30
0.0
 11
47.7366361833
 21
205.1130201457
 31
0.0
 70
   163
  1
4-<> HOLES.
 71
     1
 42
-1.0
  3
SLDDIMSTYLE1
100
AcDbDiametricDimension
 15
95.2580226306
 25
224.8302433719
 35
0.0
 40
0.0
  0
DIMENSION
  5
249
330
1F
100
AcDbEntity
  8
DIM
 62
     7
100
AcDbDimension
  2
_D_15
 10
87.5170650543
 20
225.721064495
 30
0.0
 11
51.3656727083
 21
243.7436648321
 31
0.0
 70
   163
  1
12 HOLES,\P 1/4"-20
 71
     1
 42
-1.0
  3
SLDDIMSTYLE2
100
AcDbDiametricDimension
 15
83.0956589578
 25
228.273764495
 35
0.0
 40
0.0
  0
INSERT
  5
25E
330
1F
100
AcDbEntity
  8
DIM
100
AcDbBlockReference
  2
SW_CENTERMARKSYMBOL_4
 10
136.1063620061
 20
176.197414495
 30
0.0
  0
INSERT
  5
26A
330
1F
100
AcDbEntity
  8
DIM
100
AcDbBlockReference
  2
SW_CENTERMARKSYMBOL_5
 10
136.1063620061
 20
201.597414495
 30
0.0
  0
INSERT
  5
276
330
1F
100
AcDbEntity
  8
DIM
100
AcDbBlockReference
  2
SW_CENTERMARKSYMBOL_6
 10
136.1063620061
 20
226.997414495
 30
0.0
  0
INSERT
  5
282
330
1F
100
AcDbEntity
  8
DIM
100
AcDbBlockReference
  2
SW_CENTERMARKSYMBOL_7
 10
136.1063620061
 20
252.397414495
 30
0.0
  0
INSERT
  5
28E
330
1F
100
AcDbEntity
  8
DIM
100
AcDbBlockReference
  2
SW_CENTERMARKSYMBOL_8
 10
110.7063620061
 20
226.997414495
 30
0.0
  0
INSERT
  5
29A
330
1F
100
AcDbEntity
  8
DIM
100
AcDbBlockReference
  2
SW_CENTERMARKSYMBOL_9
 10
110.7063620061
 20
252.397414495
 30
0.0
  0
INSERT
  5
2A6
330
1F
100
AcDbEntity
  8
DIM
100
AcDbBlockReference
  2
SW_CENTERMARKSYMBOL_10
 10
85.3063620061
 20
252.397414495
 30
0.0
  0
INSERT
  5
2B2
330
1F
100
AcDbEntity
  8
DIM
100
AcDbBlockReference
  2
SW_CENTERMARKSYMBOL_11
 10
85.3063620061
 20
226.997414495
 30
0.0
  0
INSERT
  5
2BE
330
1F
100
AcDbEntity
  8
DIM
100
AcDbBlockReference
  2
SW_CENTERMARKSYMBOL_12
 10
110.7063620061
 20
176.197414495
 30
0.0
  0
INSERT
  5
2CA
330
1F
100
AcDbEntity
  8
DIM
100
AcDbBlockReference
  2
SW_CENTERMARKSYMBOL_13
 10
110.7063620061
 20
201.597414495
 30
0.0
  0
INSERT
  5
2D6
330
1F
100
AcDbEntity
  8
DIM
100
AcDbBlockReference
  2
SW_CENTERMARKSYMBOL_14
 10
85.3063620061
 20
201.597414495
 30
0.0
  0
INSERT
  5
2E2
330
1F
100
AcDbEntity
  8
DIM
100
AcDbBlockReference
  2
SW_CENTERMARKSYMBOL_15
 10
85.3063620061
 20
176.197414495
 30
0.0
  0
INSERT
  5
2EE
330
1F
100
AcDbEntity
  8
DIM
 62
     7
100
AcDbBlockReference
  2
SW_CENTERMARKSYMBOL_16
 10
98.0063620061
 20
226.997414495
 30
0.0
  0
INSERT
  5
2FA
330
1F
100
AcDbEntity
  8
DIM
 62
     7
100
AcDbBlockReference
  2
SW_CENTERMARKSYMBOL_17
 10
98.0063620061
 20
252.397414495
 30
0.0
  0
INSERT
  5
306
330
1F
100
AcDbEntity
  8
DIM
 62
     7
100
AcDbBlockReference
  2
SW_CENTERMARKSYMBOL_18
 10
123.4063620061
 20
252.397414495
 30
0.0
  0
INSERT
  5
312
330
1F
100
AcDbEntity
  8
DIM
 62
     7
100
AcDbBlockReference
  2
SW_CENTERMARKSYMBOL_19
 10
123.4063620061
 20
226.997414495
 30
0.0
  0
INSERT
  5
31E
330
1F
100
AcDbEntity
  8
DIM
 62
     7
100
AcDbBlockReference
  2
SW_CENTERMARKSYMBOL_20
 10
123.4063620061
 20
201.597414495
 30
0.0
  0
INSERT
  5
32A
330
1F
100
AcDbEntity
  8
DIM
 62
     7
100
AcDbBlockReference
  2
SW_CENTERMARKSYMBOL_21
 10
98.0063620061
 20
201.597414495
 30
0.0
  0
INSERT
  5
336
330
1F
100
AcDbEntity
  8
DIM
 62
     7
100
AcDbBlockReference
  2
SW_CENTERMARKSYMBOL_22
 10
98.0063620061
 20
176.197414495
 30
0.0
  0
INSERT
  5
342
330
1F
100
AcDbEntity
  8
DIM
 62
     7
100
AcDbBlockReference
  2
SW_CENTERMARKSYMBOL_23
 10
123.4063620061
 20
176.197414495
 30
0.0
  0
ARC
  5
343
330
1F
100
AcDbEntity
  8
0
  6
Continuous
 62
     7
370
     0
100
AcDbCircle
 10
136.1063620061
 20
176.197414495
 30
0.0
 40
3.174999999999984
100
AcDbArc
 50
255.0
 51
195.0
  0
ARC
  5
344
330
1F
100
AcDbEntity
  8
0
  6
Continuous
 62
     7
370
     0
100
AcDbCircle
 10
136.1063620061
 20
201.597414495
 30
0.0
 40
3.174999999999976
100
AcDbArc
 50
255.0
 51
195.0
  0
ARC
  5
345
330
1F
100
AcDbEntity
  8
0
  6
Continuous
 62
     7
370
     0
100
AcDbCircle
 10
136.1063620061
 20
226.997414495
 30
0.0
 40
3.174999999999963
100
AcDbArc
 50
255.0
 51
195.0
  0
ARC
  5
346
330
1F
100
AcDbEntity
  8
0
  6
Continuous
 62
     7
370
     0
100
AcDbCircle
 10
136.1063620061
 20
252.397414495
 30
0.0
 40
3.175000000000046
100
AcDbArc
 50
255.0
 51
195.0
  0
ARC
  5
347
330
1F
100
AcDbEntity
  8
0
  6
Continuous
 62
     7
370
     0
100
AcDbCircle
 10
110.7063620061
 20
226.997414495
 30
0.0
 40
3.175000000000031
100
AcDbArc
 50
255.0
 51
195.0
  0
ARC
  5
348
330
1F
100
AcDbEntity
  8
0
  6
Continuous
 62
     7
370
     0
100
AcDbCircle
 10
110.7063620061
 20
252.397414495
 30
0.0
 40
3.174999999999991
100
AcDbArc
 50
255.0
 51
195.0
  0
ARC
  5
349
330
1F
100
AcDbEntity
  8
0
  6
Continuous
 62
     7
370
     0
100
AcDbCircle
 10
85.3063620061
 20
252.397414495
 30
0.0
 40
3.174999999999991
100
AcDbArc
 50
255.0
 51
195.0
  0
ARC
  5
34A
330
1F
100
AcDbEntity
  8
0
  6
Continuous
 62
     7
370
     0
100
AcDbCircle
 10
85.3063620061
 20
226.997414495
 30
0.0
 40
3.174999999999991
100
AcDbArc
 50
255.0
 51
195.0
  0
ARC
  5
34B
330
1F
100
AcDbEntity
  8
0
  6
Continuous
 62
     7
370
     0
100
AcDbCircle
 10
110.7063620061
 20
176.197414495
 30
0.0
 40
3.174999999999976
100
AcDbArc
 50
255.0
 51
195.0
  0
ARC
  5
34C
330
1F
100
AcDbEntity
  8
0
  6
Continuous
 62
     7
370
     0
100
AcDbCircle
 10
110.7063620061
 20
201.597414495
 30
0.0
 40
3.174999999999972
100
AcDbArc
 50
255.0
 51
195.0
  0
ARC
  5
34D
330
1F
100
AcDbEntity
  8
0
  6
Continuous
 62
     7
370
     0
100
AcDbCircle
 10
85.3063620061
 20
201.597414495
 30
0.0
 40
3.175000000000059
100
AcDbArc
 50
255.0
 51
195.0
  0
ARC
  5
34E
330
1F
100
AcDbEntity
  8
0
  6
Continuous
 62
     7
370
     0
100
AcDbCircle
 10
85.3063620061
 20
176.197414495
 30
0.0
 40
3.175000000000031
100
AcDbArc
 50
255.0
 51
195.0
  0
LINE
  5
34F
330
1F
100
AcDbEntity
  8
DIM
  6
CENTERX2
370
     0
100
AcDbLine
 10
110.7063620061
 20
155.6948101636
 30
0.0
 11
110.7063620061
 21
272.297414495
 31
0.0
  0
LINE
  5
350
330
1F
100
AcDbEntity
  8
DIM
  6
CENTERX2
370
     0
100
AcDbLine
 10
69.7063620061
 20
214.297414495
 30
0.0
 11
151.7063620061
 21
214.297414495
 31
0.0
  0
LINE
  5
351
330
1F
100
AcDbEntity
  8
DIM
  6
CENTERX2
370
     0
100
AcDbLine
 10
98.0063620061
 20
223.997414495
 30
0.0
 11
98.0063620061
 21
255.397414495
 31
0.0
  0
LINE
  5
352
330
1F
100
AcDbEntity
  8
DIM
  6
CENTERX2
370
     0
100
AcDbLine
 10
123.4063620061
 20
223.997414495
 30
0.0
 11
123.4063620061
 21
255.397414495
 31
0.0
  0
LINE
  5
353
330
1F
100
AcDbEntity
  8
DIM
  6
CENTERX2
370
     0
100
AcDbLine
 10
123.4063620061
 20
173.197414495
 30
0.0
 11
123.4063620061
 21
204.597414495
 31
0.0
  0
LINE
  5
354
330
1F
100
AcDbEntity
  8
DIM
  6
CENTERX2
370
     0
100
AcDbLine
 10
98.0063620061
 20
173.197414495
 30
0.0
 11
98.0063620061
 21
204.597414495
 31
0.0
  0
LINE
  5
355
330
1F
100
AcDbEntity
  8
0
  6
Continuous
 62
     7
370
    15
100
AcDbLine
 10
79.7063620061
 20
92.8380953281
 30
0.0
 11
72.7063620061
 21
92.8380953281
 31
0.0
  0
LINE
  5
356
330
1F
100
AcDbEntity
  8
0
  6
Continuous
 62
     7
370
    15
100
AcDbLine
 10
148.7063620061
 20
92.8380953281
 30
0.0
 11
141.7063620061
 21
92.8380953281
 31
0.0
  0
ARC
  5
357
330
1F
100
AcDbEntity
  8
0
  6
Continuous
 62
     7
370
    15
100
AcDbCircle
 10
93.0286924764
 20
77.0157648578
 30
0.0
 40
3.500000000000038
100
AcDbArc
 50
135.0
 51
315.0
  0
ARC
  5
358
330
1F
100
AcDbEntity
  8
0
  6
Continuous
 62
     7
370
    15
100
AcDbCircle
 10
110.7063620061
 20
59.3380953281
 30
0.0
 40
21.50000000000002
100
AcDbArc
 50
45.0
 51
135.0
  0
ARC
  5
359
330
1F
100
AcDbEntity
  8
0
  6
Continuous
 62
     7
370
    15
100
AcDbCircle
 10
128.3840315357
 20
77.0157648578
 30
0.0
 40
3.500000000000038
100
AcDbArc
 50
225.0
 51
45.0
  0
ARC
  5
35A
330
1F
100
AcDbEntity
  8
0
  6
Continuous
 62
     7
370
    15
100
AcDbCircle
 10
110.7063620061
 20
59.3380953281
 30
0.0
 40
28.50000000000005
100
AcDbArc
 50
45.0
 51
135.0
  0
LINE
  5
35B
330
1F
100
AcDbEntity
  8
0
  6
Continuous
 62
     7
370
    15
100
AcDbLine
 10
72.7063620061
 20
46.3380953281
 30
0.0
 11
148.7063620061
 21
46.3380953281
 31
0.0
  0
ARC
  5
35C
330
1F
100
AcDbEntity
  8
0
  6
Continuous
 62
     7
370
    15
100
AcDbCircle
 10
110.7063620061
 20
60.3480953281
 30
0.0
 40
39.99999999999996
100
AcDbArc
 50
18.1948723388
 51
161.8051276612
  0
CIRCLE
  5
35D
330
1F
100
AcDbEntity
  8
0
  6
Continuous
 62
     7
370
    15
100
AcDbCircle
 10
122.7263620061
 20
71.3580953281
 30
0.0
 40
3.500000000000014
  0
CIRCLE
  5
35E
330
1F
100
AcDbEntity
  8
0
  6
Continuous
 62
     7
370
    15
100
AcDbCircle
 10
110.7063620061
 20
59.3380953281
 30
0.0
 40
3.500000000000014
  0
LINE
  5
35F
330
1F
100
AcDbEntity
  8
0
  6
Continuous
 62
     7
370
    15
100
AcDbLine
 10
148.7063620061
 20
46.3380953281
 30
0.0
 11
148.7063620061
 21
72.8380913249
 31
0.0
  0
LINE
  5
360
330
1F
100
AcDbEntity
  8
0
  6
Continuous
 62
     7
370
    15
100
AcDbLine
 10
72.7063620061
 20
72.8380913249
 30
0.0
 11
72.7063620061
 21
46.3380953281
 31
0.0
  0
LINE
  5
361
330
1F
100
AcDbEntity
  8
0
  6
Continuous
 62
     7
370
    15
100
AcDbLine
 10
148.7063620061
 20
72.8414241502
 30
0.0
 11
148.7052663974
 21
72.8414241502
 31
0.0
  0
LINE
  5
362
330
1F
100
AcDbEntity
  8
0
  6
Continuous
 62
     7
370
    15
100
AcDbLine
 10
72.7074576147
 20
72.8414241502
 30
0.0
 11
72.7063620061
 21
72.8414241502
 31
0.0
  0
LINE
  5
363
330
1F
100
AcDbEntity
  8
0
  6
Continuous
 62
     7
370
    15
100
AcDbLine
 10
148.7063620061
 20
72.8414241502
 30
0.0
 11
148.7063620061
 21
74.85041838
 31
0.0
  0
LINE
  5
364
330
1F
100
AcDbEntity
  8
0
  6
Continuous
 62
     7
370
    15
100
AcDbLine
 10
72.7063620061
 20
72.8414241502
 30
0.0
 11
72.7063620061
 21
74.85041838
 31
0.0
  0
LINE
  5
365
330
1F
100
AcDbEntity
  8
0
  6
Continuous
 62
     7
370
    15
100
AcDbLine
 10
79.7063620061
 20
88.8380953281
 30
0.0
 11
72.7063620061
 21
88.8380953281
 31
0.0
  0
LINE
  5
366
330
1F
100
AcDbEntity
  8
0
  6
Continuous
 62
     7
370
    15
100
AcDbLine
 10
79.7063620061
 20
88.8380953281
 30
0.0
 11
79.7063620061
 21
85.6265446476
 31
0.0
  0
LINE
  5
367
330
1F
100
AcDbEntity
  8
0
  6
Continuous
 62
     7
370
    15
100
AcDbLine
 10
72.7063620061
 20
88.8380953281
 30
0.0
 11
72.7063620061
 21
74.85041838
 31
0.0
  0
LINE
  5
368
330
1F
100
AcDbEntity
  8
0
  6
Continuous
 62
     7
370
    15
100
AcDbLine
 10
148.7063620061
 20
88.8380953281
 30
0.0
 11
141.7063620061
 21
88.8380953281
 31
0.0
  0
LINE
  5
369
330
1F
100
AcDbEntity
  8
0
  6
Continuous
 62
     7
370
    15
100
AcDbLine
 10
141.7063620061
 20
85.6265446476
 30
0.0
 11
141.7063620061
 21
88.8380953281
 31
0.0
  0
LINE
  5
36A
330
1F
100
AcDbEntity
  8
0
  6
Continuous
 62
     7
370
    15
100
AcDbLine
 10
148.7063620061
 20
88.8380953281
 30
0.0
 11
148.7063620061
 21
74.85041838
 31
0.0
  0
LINE
  5
36B
330
1F
100
AcDbEntity
  8
0
  6
Continuous
 62
     7
370
    15
100
AcDbLine
 10
79.7063620061
 20
92.8380953281
 30
0.0
 11
79.7063620061
 21
88.8380953281
 31
0.0
  0
LINE
  5
36C
330
1F
100
AcDbEntity
  8
0
  6
Continuous
 62
     7
370
    15
100
AcDbLine
 10
72.7063620061
 20
92.8380953281
 30
0.0
 11
72.7063620061
 21
88.8380953281
 31
0.0
  0
LINE
  5
36D
330
1F
100
AcDbEntity
  8
0
  6
Continuous
 62
     7
370
    15
100
AcDbLine
 10
141.7063620061
 20
88.8380953281
 30
0.0
 11
141.7063620061
 21
92.8380953281
 31
0.0
  0
LINE
  5
36E
330
1F
100
AcDbEntity
  8
0
  6
Continuous
 62
     7
370
    15
100
AcDbLine
 10
148.7063620061
 20
92.8380953281
 30
0.0
 11
148.7063620061
 21
88.8380953281
 31
0.0
  0
LINE
  5
36F
330
1F
100
AcDbEntity
  8
0
  6
Continuous
 62
     7
370
    15
100
AcDbLine
 10
119.5562302098
 20
72.8414241502
 30
0.0
 11
125.8964938023
 21
72.8414241502
 31
0.0
  0
LINE
  5
370
330
1F
100
AcDbEntity
  8
0
  6
Continuous
 62
     8
370
    15
100
AcDbLine
 10
148.7063620061
 20
74.85041838
 30
0.0
 11
147.9848092122
 21
74.85041838
 31
0.0
  0
LINE
  5
371
330
1F
100
AcDbEntity
  8
0
  6
Continuous
 62
     8
370
    15
100
AcDbLine
 10
73.4279148
 20
74.85041838
 30
0.0
 11
72.7063620061
 21
74.85041838
 31
0.0
  0
LINE
  5
372
330
1F
100
AcDbEntity
  8
DIM
100
AcDbLine
 10
90.5538187423
 20
79.4906385919
 30
0.0
 11
95.5035662106
 21
74.5408911236
 31
0.0
  0
LINE
  5
373
330
1F
100
AcDbEntity
  8
DIM
100
AcDbLine
 10
125.9091578016
 20
74.5408911236
 30
0.0
 11
130.8589052699
 21
79.4906385919
 31
0.0
  0
LINE
  5
374
330
1F
100
AcDbEntity
  8
DIM
100
AcDbLine
 10
72.7063620061
 20
72.8380913249
 30
0.0
 11
72.7063620061
 21
46.3380953281
 31
0.0
  0
LINE
  5
375
330
1F
100
AcDbEntity
  8
DIM
100
AcDbLine
 10
72.7063620061
 20
46.3380953281
 30
0.0
 11
148.7063620061
 21
46.3380953281
 31
0.0
  0
LINE
  5
376
330
1F
100
AcDbEntity
  8
DIM
100
AcDbLine
 10
148.7063620061
 20
46.3380953281
 30
0.0
 11
148.7063620061
 21
72.8380913249
 31
0.0
  0
ARC
  5
377
330
1F
100
AcDbEntity
  8
DIM
  6
CENTERX2
100
AcDbCircle
 10
110.7063620061
 20
59.3380953281
 30
0.0
 40
25.00000000000001
100
AcDbArc
 50
53.0279744361
 51
126.9720255639
  0
ARC
  5
378
330
1F
100
AcDbEntity
  8
DIM
100
AcDbCircle
 10
110.7063620061
 20
59.3380953281
 30
0.0
 40
16.99884701972463
100
AcDbArc
 50
33.180839726
 51
57.2717639259
  0
CIRCLE
  5
379
330
1F
100
AcDbEntity
  8
DIM
100
AcDbCircle
 10
122.6787928344
 20
71.4054769853
 30
0.0
 40
3.567140505845907
  0
CIRCLE
  5
37A
330
1F
100
AcDbEntity
  8
DIM
  6
CENTERX2
100
AcDbCircle
 10
98.0063620061
 20
59.3380953281
 30
0.0
 40
2.5527
  0
ARC
  5
37B
330
1F
100
AcDbEntity
  8
DIM
100
AcDbCircle
 10
110.7063620061
 20
60.3480953281
 30
0.0
 40
39.99999999999996
100
AcDbArc
 50
18.1948723388
 51
161.8051276612
  0
CIRCLE
  5
37C
330
1F
100
AcDbEntity
  8
DIM
  6
CENTERX2
100
AcDbCircle
 10
123.4063620061
 20
59.3380953281
 30
0.0
 40
3.500000000000005
  0
DIMENSION
  5
37D
330
1F
100
AcDbEntity
  8
DIM
100
AcDbDimension
  2
_D_16
 10
95.5035662106
 20
74.5408911236
 30
0.0
 11
90.6262638574
 21
107.8157406124
 31
0.0
 70
   162
  1
<>
 71
     1
 42
-1.0
  3
SLDDIMSTYLE3
100
AcDb2LineAngularDimension
 13
110.7063620061
 23
42.3380953281
 33
0.0
 14
110.7063620061
 24
108.4423250418
 34
0.0
 15
90.5538187423
 25
79.4906385919
 35
0.0
 16
90.6262638574
 26
107.8157406124
 36
0.0
  0
DIMENSION
  5
388
330
1F
100
AcDbEntity
  8
DIM
100
AcDbDimension
  2
_D_17
 10
110.7063620061
 20
42.3380953281
 30
0.0
 11
130.7864601547
 21
107.8157406124
 31
0.0
 70
   162
  1
<>
 71
     1
 42
-1.0
  3
SLDDIMSTYLE3
100
AcDb2LineAngularDimension
 13
130.8589052699
 23
79.4906385919
 33
0.0
 14
125.9091578016
 24
74.5408911236
 34
0.0
 15
110.7063620061
 25
108.4423250418
 35
0.0
 16
130.7864601547
 26
107.8157406124
 36
0.0
  0
DIMENSION
  5
392
330
1F
100
AcDbEntity
  8
DIM
100
AcDbDimension
  2
_D_18
 10
98.0063620061
 20
31.7442904623
 30
0.0
 11
104.3563620061
 21
31.7442904623
 31
0.0
 70
   160
  1
<>
 71
     2
 42
-1.0
  3
SLDDIMSTYLE0
100
AcDbAlignedDimension
 13
110.7063620061
 23
59.3380953281
 33
0.0
 14
98.0063620061
 24
55.7853953281
 34
0.0
100
AcDbRotatedDimension
  0
DIMENSION
  5
39C
330
1F
100
AcDbEntity
  8
DIM
100
AcDbDimension
  2
_D_19
 10
123.4063620061
 20
31.7442904623
 30
0.0
 11
117.0563620061
 21
31.7442904623
 31
0.0
 70
   160
  1
<>
 71
     2
 42
-1.0
  3
SLDDIMSTYLE0
100
AcDbAlignedDimension
 13
110.7063620061
 23
59.3380953281
 33
0.0
 14
123.4063620061
 24
54.8380953281
 34
0.0
100
AcDbRotatedDimension
  0
DIMENSION
  5
3A6
330
1F
100
AcDbEntity
  8
DIM
100
AcDbDimension
  2
_D_20
 10
98.9099054155
 20
61.7255388557
 30
0.0
 11
71.97002017
 21
31.8926861919
 31
0.0
 70
   163
  1
2 HOLES,\P 1/4"-20
 71
     1
 42
-1.0
  3
SLDDIMSTYLE2
100
AcDbDiametricDimension
 15
97.1028185966
 25
56.9506518006
 35
0.0
 40
0.0
  0
DIMENSION
  5
3AF
330
1F
100
AcDbEntity
  8
DIM
100
AcDbDimension
  2
_D_21
 10
121.9777915503
 20
62.533277084
 30
0.0
 11
155.0929313553
 21
33.0034040749
 31
0.0
 70
   163
  1
3-<> HOLES.
 71
     1
 42
-1.0
  3
SLDDIMSTYLE1
100
AcDbDiametricDimension
 15
124.8349324618
 25
56.1429135723
 35
0.0
 40
0.0
  0
DIMENSION
  5
3BA
330
1F
100
AcDbEntity
  8
DIM
100
AcDbDimension
  2
_D_22
 10
162.2145779411
 20
59.3380953281
 30
0.0
 11
162.2145779411
 21
52.8380953281
 31
0.0
 70
   160
  1
<>
 71
     2
 42
-1.0
  3
SLDDIMSTYLE0
100
AcDbAlignedDimension
 13
148.7063620061
 23
46.3380953281
 33
0.0
 14
123.4063620061
 24
59.3380953281
 34
0.0
 50
90.0
100
AcDbRotatedDimension
  0
DIMENSION
  5
3C4
330
1F
100
AcDbEntity
  8
DIM
100
AcDbDimension
  2
_D_23
 10
170.7063620061
 20
100.3480953281
 30
0.0
 11
170.7063620061
 21
73.3430953281
 31
0.0
 70
   160
  1
<>
 71
     2
 42
-1.0
  3
SLDDIMSTYLE4
100
AcDbAlignedDimension
 13
148.7063620061
 23
46.3380953281
 33
0.0
 14
110.7063620061
 24
100.3480953281
 34
0.0
 50
90.0
100
AcDbRotatedDimension
  0
INSERT
  5
3DA
330
1F
100
AcDbEntity
  8
DIM
100
AcDbBlockReference
  2
SW_CENTERMARKSYMBOL_24
 10
110.7063620061
 20
59.3380953281
 30
0.0
  0
INSERT
  5
3E6
330
1F
100
AcDbEntity
  8
DIM
100
AcDbBlockReference
  2
SW_CENTERMARKSYMBOL_25
 10
122.7263620061
 20
71.3580953281
 30
0.0
  0
INSERT
  5
3F2
330
1F
100
AcDbEntity
  8
DIM
100
AcDbBlockReference
  2
SW_CENTERMARKSYMBOL_26
 10
98.0063620061
 20
59.3380953281
 30
0.0
  0
INSERT
  5
3FE
330
1F
100
AcDbEntity
  8
DIM
100
AcDbBlockReference
  2
SW_CENTERMARKSYMBOL_27
 10
123.4063620061
 20
59.3380953281
 30
0.0
  0
LINE
  5
3FF
330
1F
100
AcDbEntity
  8
DIM
  6
CENTERX2
370
     0
100
AcDbLine
 10
110.7063620061
 20
42.3380953281
 30
0.0
 11
110.7063620061
 21
108.4423250418
 31
0.0
  0
LINE
  5
400
330
1F
100
AcDbEntity
  8
0
  6
Continuous
 62
     7
370
    15
100
AcDbLine
 10
350.1252720642
 20
194.1143948349
 30
0.0
 11
353.8375826654
 21
196.2574661285
 31
0.0
  0
LINE
  5
401
330
1F
100
AcDbEntity
  8
0
  6
Continuous
 62
     7
370
    15
100
AcDbLine
 10
377.2036207068
 20
206.9431581304
 30
0.0
 11
380.915931308
 21
204.8000868368
 31
0.0
  0
LWPOLYLINE
  5
402
330
1F
100
AcDbEntity
  8
0
  6
Continuous
 62
     7
370
    15
100
AcDbPolyline
 90
       16
 70
   128
 43
0.0
 10
345.8139910746
 20
202.2030974198
 10
346.0581938948
 20
202.4103586891
 10
346.2343613318
 20
202.7079164937
 10
346.3347940234
 20
203.0827661299
 10
346.3551025789
 20
203.5185248697
 10
346.2943994171
 20
203.9961479653
 10
346.1553375574
 20
204.4947609954
 10
345.9439946704
 20
204.9925721781
 10
345.6696074543
 20
205.4678247759
 10
345.3441679472
 20
205.8997479698
 10
344.9818994171
 20
206.2694646435
 10
344.5986347372
 20
206.5608164044
 10
344.2111244132
 20
206.7610697825
 10
343.8363045055
 20
206.8614727441
 10
343.4905564429
 20
206.8576371982
 10
343.1889910746
 20
206.7497307763
  0
LWPOLYLINE
  5
403
330
1F
100
AcDbEntity
  8
0
  6
Continuous
 62
     7
370
    15
100
AcDbPolyline
 90
       20
 70
   128
 43
0.0
 10
343.1889910746
 20
206.7497307763
 10
342.4956575766
 20
206.4129463875
 10
341.7519851992
 20
206.1738553626
 10
340.9630539787
 20
206.0340909357
 10
340.1342531154
 20
205.9946078396
 10
339.2712441595
 20
206.0556757838
 10
338.3799223374
 20
206.2168776124
 10
337.4663762808
 20
206.4771121534
 10
336.5368464356
 20
206.8346017411
 10
335.5976824332
 20
207.286904359
 10
334.6552997161
 20
207.8309303217
 10
333.7161357137
 20
208.4629633802
 10
332.7866058685
 20
209.1786861078
 10
331.8730598119
 20
209.9732093926
 10
330.9817379897
 20
210.8411058349
 10
330.1187290339
 20
211.7764468219
 10
329.2899281706
 20
212.7728430264
 10
328.5009969501
 20
213.8234880518
 10
327.7573245726
 20
214.9212049274
 10
327.0639910746
 20
216.0584951337
  0
LWPOLYLINE
  5
404
330
1F
100
AcDbEntity
  8
0
  6
Continuous
 62
     7
370
    15
100
AcDbPolyline
 90
       16
 70
   128
 43
0.0
 10
327.0639910746
 20
216.0584951337
 10
326.7624257064
 20
216.5145815185
 10
326.4166776438
 20
216.9176092805
 10
326.0418577361
 20
217.2499641727
 10
325.654347412
 20
217.4971206915
 10
325.2710827322
 20
217.6482769109
 10
324.9088142021
 20
217.6968265789
 10
324.583374695
 20
217.640647842
 10
324.3089874789
 20
217.4821959806
 10
324.0976445919
 20
217.2283961014
 10
323.9585827322
 20
216.8903404769
 10
323.8978795704
 20
216.4828037601
 10
323.9181881259
 20
216.0235972612
 10
324.0186208174
 20
215.5327905075
 10
324.1947882545
 20
215.0318341096
 10
324.4389910746
 20
214.5426222656
  0
LWPOLYLINE
  5
405
330
1F
100
AcDbEntity
  8
0
  6
Continuous
 62
     7
370
    15
100
AcDbPolyline
 90
       23
 70
   128
 43
0.0
 10
324.4389910746
 20
214.5426222656
 10
325.2286591202
 20
213.2377667043
 10
326.0687642486
 20
211.9710103034
 10
326.9550254767
 20
210.7488081631
 10
327.8829266204
 20
209.5773883455
 10
328.8477393082
 20
208.4627201373
 10
329.8445470757
 20
207.4104836323
 10
330.8682704192
 20
206.4260407866
 10
331.9136926791
 20
205.5144080951
 10
332.9754866231
 20
204.6802310292
 10
334.0482415928
 20
203.9277603639
 10
335.1264910746
 20
203.2608305173
 10
336.2047405565
 20
202.682840011
 10
337.2774955262
 20
202.1967341522
 10
338.3392894702
 20
201.8049900248
 10
339.3847117301
 20
201.5096038671
 10
340.4084350735
 20
201.3120808994
 10
341.4052428411
 20
201.2134276533
 10
342.3700555289
 20
201.2141468432
 10
343.2979566726
 20
201.3142348042
 10
344.1842179007
 20
201.5131815111
 10
345.0243230291
 20
201.8099731771
 10
345.8139910746
 20
202.2030974198
  0
LINE
  5
406
330
1F
100
AcDbEntity
  8
0
  6
Continuous
 62
     7
370
    15
100
AcDbLine
 10
314.9739478108
 20
240.3094788807
 30
0.0
 11
314.9739478108
 21
224.0807326961
 31
0.0
  0
LINE
  5
407
330
1F
100
AcDbEntity
  8
0
  6
Continuous
 62
     7
370
    15
100
AcDbLine
 10
355.2790343385
 20
217.0418476938
 30
0.0
 11
314.9739478108
 21
240.3094788807
 31
0.0
  0
LINE
  5
408
330
1F
100
AcDbEntity
  8
0
  6
Continuous
 62
     7
370
    15
100
AcDbLine
 10
355.2790343385
 20
200.8131015091
 30
0.0
 11
355.2790343385
 21
217.0418476938
 31
0.0
  0
LWPOLYLINE
  5
409
330
1F
100
AcDbEntity
  8
0
  6
Continuous
 62
     7
370
    15
100
AcDbPolyline
 90
       42
 70
   128
 43
0.0
 10
314.9739478108
 20
224.0807326961
 10
315.4162790142
 20
222.4178930937
 10
315.932250249
 20
220.7463780626
 10
316.5199337767
 20
219.0724326103
 10
317.1771339317
 20
217.4023108244
 10
317.9013953248
 20
215.7422525071
 10
318.6900120171
 20
214.0984598618
 10
319.5400376294
 20
212.4770743212
 10
320.4482963505
 20
210.8841536023
 10
321.4113948023
 20
209.3256490732
 10
322.4257347181
 20
207.8073835189
 10
323.4875263861
 20
206.3350293857
 10
324.5928028083
 20
204.9140875888
 10
325.7374345217
 20
203.54986696
 10
326.9171450267
 20
202.247464413
 10
328.1275267644
 20
201.0117459007
 10
329.3640575841
 20
199.8473282354
 10
330.6221176387
 20
198.7585618399
 10
331.8970066447
 20
197.7495144934
 10
333.1839614435
 20
196.8239561339
 10
334.4781737971
 20
195.9853447733
 10
335.7748083522
 20
195.2368135776
 10
337.0690207058
 20
194.5811591611
 10
338.3559755046
 20
194.0208311378
 10
339.6308645106
 20
193.5579229695
 10
340.8889245652
 20
193.1941641438
 10
342.1254553849
 20
192.9309137134
 10
343.3358371226
 20
192.7691552175
 10
344.5155476276
 20
192.7094930078
 10
345.660179341
 20
192.7521499906
 10
346.7654557632
 20
192.8969667935
 10
347.8272474311
 20
193.1434023613
 10
348.8415873469
 20
193.4905359771
 10
349.8046857988
 20
193.9370707026
 10
350.7129445198
 20
194.4813382234
 10
351.5629701322
 20
195.1213050821
 10
352.3515868245
 20
195.8545802753
 10
353.0758482176
 20
196.6784241875
 10
353.7330483726
 20
197.5897588256
 10
354.3207319003
 20
198.5851793197
 10
354.8367031351
 20
199.6609666434
 10
355.2790343385
 20
200.8131015091
  0
LWPOLYLINE
  5
40A
330
1F
100
AcDbEntity
  8
0
  6
Continuous
 62
     7
370
    15
100
AcDbPolyline
 90
       32
 70
   128
 43
0.0
 10
330.6080787429
 20
215.9616988695
 10
330.5700831348
 20
216.4151004668
 10
330.4576518553
 20
216.8938085448
 10
330.2753878542
 20
217.3782247384
 10
330.030753041
 20
217.8485169917
 10
329.7337627938
 20
218.2854314848
 10
329.3965759282
 20
218.6710808868
 10
329.0329969141
 20
218.9896766659
 10
328.657910719
 20
219.2281754736
 10
328.2866734159
 20
219.3768131406
 10
327.9344835035
 20
219.4295044234
 10
327.6157596782
 20
219.3840921346
 10
327.3435505309
 20
219.2424354587
 10
327.1290003361
 20
219.0103338366
 10
326.980892804
 20
218.6972895361
 10
326.9052914742
 20
218.3161186276
 10
326.9052914742
 20
217.8824262927
 10
326.980892804
 20
217.4139679468
 10
327.1290003361
 20
216.9299223295
 10
327.3435505309
 20
216.4501063253
 10
327.6157596782
 20
215.9941636577
 10
327.9344835035
 20
215.5807606732
 10
328.2866734159
 20
215.2268221384
 10
328.657910719
 20
214.9468383387
 10
329.0329969141
 20
214.7522718436
 10
329.3965759282
 20
214.6510882283
 10
329.7337627938
 20
214.6474299619
 10
330.030753041
 20
214.7414468143
 10
330.2753878542
 20
214.9292897245
 10
330.4576518553
 20
215.2032683817
 10
330.5700831348
 20
215.5521660674
 10
330.6080787429
 20
215.9616988695
  0
LWPOLYLINE
  5
40B
330
1F
100
AcDbEntity
  8
0
  6
Continuous
 62
     7
370
    15
100
AcDbPolyline
 90
       32
 70
   128
 43
0.0
 10
336.9826463753
 20
219.6428547246
 10
336.9446507672
 20
220.0962563219
 10
336.8322194877
 20
220.5749643999
 10
336.6499554866
 20
221.0593805935
 10
336.4053206734
 20
221.5296728468
 10
336.1083304262
 20
221.9665873399
 10
335.7711435606
 20
222.3522367419
 10
335.4075645465
 20
222.670832521
 10
335.0324783514
 20
222.9093313287
 10
334.6612410483
 20
223.0579689957
 10
334.3090511359
 20
223.1106602785
 10
333.9903273106
 20
223.0652479897
 10
333.7181181633
 20
222.9235913138
 10
333.5035679685
 20
222.6914896917
 10
333.3554604363
 20
222.3784453912
 10
333.2798591066
 20
221.9972744827
 10
333.2798591066
 20
221.5635821479
 10
333.3554604363
 20
221.0951238019
 10
333.5035679685
 20
220.6110781847
 10
333.7181181633
 20
220.1312621804
 10
333.9903273106
 20
219.6753195128
 10
334.3090511359
 20
219.2619165283
 10
334.6612410483
 20
218.9079779935
 10
335.0324783514
 20
218.6279941938
 10
335.4075645465
 20
218.4334276987
 10
335.7711435606
 20
218.3322440834
 10
336.1083304262
 20
218.328585817
 10
336.4053206734
 20
218.4226026694
 10
336.6499554866
 20
218.6104455796
 10
336.8322194877
 20
218.8844242368
 10
336.9446507672
 20
219.2333219226
 10
336.9826463753
 20
219.6428547246
  0
LINE
  5
40C
330
1F
100
AcDbEntity
  8
0
  6
Continuous
 62
     7
370
    15
100
AcDbLine
 10
355.2790343385
 20
217.0418476938
 30
0.0
 11
412.5546836146
 21
250.1063762226
 31
0.0
  0
LINE
  5
40D
330
1F
100
AcDbEntity
  8
0
  6
Continuous
 62
     7
370
    15
100
AcDbLine
 10
314.9739478108
 20
240.3094788807
 30
0.0
 11
372.2495970869
 21
273.3740074095
 31
0.0
  0
LINE
  5
40E
330
1F
100
AcDbEntity
  8
0
  6
Continuous
 62
     7
370
    15
100
AcDbLine
 10
412.5546836146
 20
250.1063762226
 30
0.0
 11
372.2495970869
 21
273.3740074095
 31
0.0
  0
LWPOLYLINE
  5
40F
330
1F
100
AcDbEntity
  8
0
  6
Continuous
 62
     7
370
    15
100
AcDbPolyline
 90
       27
 70
   128
 43
0.0
 10
331.4421288689
 20
242.1013007893
 10
331.726769899
 20
241.8915621004
 10
331.9161922256
 20
241.648593742
 10
331.9993873116
 20
241.3865161519
 10
331.971520161
 20
241.120560327
 10
331.8342103113
 20
240.8661826531
 10
331.5954377119
 20
240.638166636
 10
331.2690789583
 20
240.4497637378
 10
330.874100835
 20
240.3119232501
 10
330.433458035
 20
240.2326559612
 10
329.9727591159
 20
240.2165685975
 10
329.5187782245
 20
240.2645960984
 10
329.09789908
 20
240.3739472799
 10
328.7345816484
 20
240.538267049
 10
328.4499406183
 20
240.7480057378
 10
328.2605182917
 20
240.9909740962
 10
328.1773232057
 20
241.2530516863
 10
328.2051903563
 20
241.5190075113
 10
328.342500206
 20
241.7733851852
 10
328.5812728055
 20
242.0014012023
 10
328.9076315591
 20
242.1898041005
 10
329.3026096823
 20
242.3276445881
 10
329.7432524824
 20
242.4069118771
 10
330.2039514015
 20
242.4229992407
 10
330.6579322929
 20
242.3749717398
 10
331.0788114374
 20
242.2656205583
 10
331.4421288689
 20
242.1013007893
  0
LWPOLYLINE
  5
410
330
1F
100
AcDbEntity
  8
0
  6
Continuous
 62
     7
370
    15
100
AcDbPolyline
 90
       27
 70
   128
 43
0.0
 10
344.9125130505
 20
249.8775880544
 10
345.1971540806
 20
249.6678493655
 10
345.3865764072
 20
249.4248810071
 10
345.4697714932
 20
249.162803417
 10
345.4419043426
 20
248.8968475921
 10
345.3045944929
 20
248.6424699182
 10
345.0658218935
 20
248.4144539011
 10
344.7394631399
 20
248.2260510029
 10
344.3444850166
 20
248.0882105152
 10
343.9038422166
 20
248.0089432263
 10
343.4431432975
 20
247.9928558627
 10
342.9891624061
 20
248.0408833635
 10
342.5682832616
 20
248.150234545
 10
342.20496583
 20
248.3145543141
 10
341.9203247999
 20
248.5242930029
 10
341.7309024733
 20
248.7672613613
 10
341.6477073873
 20
249.0293389514
 10
341.6755745379
 20
249.2952947764
 10
341.8128843876
 20
249.5496724503
 10
342.0516569871
 20
249.7776884674
 10
342.3780157407
 20
249.9660913656
 10
342.7729938639
 20
250.1039318532
 10
343.213636664
 20
250.1831991422
 10
343.6743355831
 20
250.1992865058
 10
344.1283164745
 20
250.1512590049
 10
344.549195619
 20
250.0419078234
 10
344.9125130505
 20
249.8775880544
  0
LWPOLYLINE
  5
411
330
1F
100
AcDbEntity
  8
0
  6
Continuous
 62
     7
370
    15
100
AcDbPolyline
 90
       27
 70
   128
 43
0.0
 10
358.3828972321
 20
257.6538753195
 10
358.6675382622
 20
257.4441366306
 10
358.8569605888
 20
257.2011682723
 10
358.9401556748
 20
256.9390906821
 10
358.9122885242
 20
256.6731348572
 10
358.7749786745
 20
256.4187571833
 10
358.5362060751
 20
256.1907411662
 10
358.2098473215
 20
256.002338268
 10
357.8148691983
 20
255.8644977804
 10
357.3742263982
 20
255.7852304914
 10
356.9135274791
 20
255.7691431278
 10
356.4595465877
 20
255.8171706286
 10
356.0386674432
 20
255.9265218102
 10
355.6753500116
 20
256.0908415792
 10
355.3907089815
 20
256.300580268
 10
355.2012866549
 20
256.5435486264
 10
355.1180915689
 20
256.8056262165
 10
355.1459587195
 20
257.0715820415
 10
355.2832685692
 20
257.3259597154
 10
355.5220411687
 20
257.5539757325
 10
355.8483999223
 20
257.7423786307
 10
356.2433780455
 20
257.8802191183
 10
356.6840208456
 20
257.9594864073
 10
357.1447197647
 20
257.9755737709
 10
357.5987006561
 20
257.9275462701
 10
358.0195798006
 20
257.8181950885
 10
358.3828972321
 20
257.6538753195
  0
LWPOLYLINE
  5
412
330
1F
100
AcDbEntity
  8
0
  6
Continuous
 62
     7
370
    15
100
AcDbPolyline
 90
       27
 70
   128
 43
0.0
 10
371.8532814137
 20
265.4301625846
 10
372.1379224439
 20
265.2204238958
 10
372.3273447705
 20
264.9774555374
 10
372.4105398564
 20
264.7153779472
 10
372.3826727058
 20
264.4494221223
 10
372.2453628561
 20
264.1950444484
 10
372.0065902567
 20
263.9670284313
 10
371.6802315031
 20
263.7786255331
 10
371.2852533799
 20
263.6407850455
 10
370.8446105798
 20
263.5615177565
 10
370.3839116607
 20
263.5454303929
 10
369.9299307693
 20
263.5934578937
 10
369.5090516248
 20
263.7028090753
 10
369.1457341932
 20
263.8671288443
 10
368.8610931631
 20
264.0768675331
 10
368.6716708365
 20
264.3198358915
 10
368.5884757505
 20
264.5819134817
 10
368.6163429011
 20
264.8478693066
 10
368.7536527508
 20
265.1022469805
 10
368.9924253503
 20
265.3302629976
 10
369.3187841039
 20
265.5186658958
 10
369.7137622271
 20
265.6565063834
 10
370.1544050272
 20
265.7357736724
 10
370.6151039463
 20
265.751861036
 10
371.0690848377
 20
265.7038335352
 10
371.4899639822
 20
265.5944823536
 10
371.8532814137
 20
265.4301625846
  0
LWPOLYLINE
  5
413
330
1F
100
AcDbEntity
  8
0
  6
Continuous
 62
     7
370
    15
100
AcDbPolyline
 90
       27
 70
   128
 43
0.0
 10
371.8532814137
 20
249.8775880544
 10
372.1379224439
 20
249.6678493655
 10
372.3273447705
 20
249.4248810071
 10
372.4105398564
 20
249.162803417
 10
372.3826727058
 20
248.8968475921
 10
372.2453628561
 20
248.6424699182
 10
372.0065902567
 20
248.4144539011
 10
371.6802315031
 20
248.2260510029
 10
371.2852533799
 20
248.0882105152
 10
370.8446105798
 20
248.0089432263
 10
370.3839116607
 20
247.9928558627
 10
369.9299307693
 20
248.0408833635
 10
369.5090516248
 20
248.150234545
 10
369.1457341932
 20
248.3145543141
 10
368.8610931631
 20
248.5242930029
 10
368.6716708365
 20
248.7672613613
 10
368.5884757505
 20
249.0293389514
 10
368.6163429011
 20
249.2952947764
 10
368.7536527508
 20
249.5496724503
 10
368.9924253503
 20
249.7776884674
 10
369.3187841039
 20
249.9660913656
 10
369.7137622271
 20
250.1039318532
 10
370.1544050272
 20
250.1831991422
 10
370.6151039463
 20
250.1992865058
 10
371.0690848377
 20
250.1512590049
 10
371.4899639822
 20
250.0419078234
 10
371.8532814137
 20
249.8775880544
  0
LWPOLYLINE
  5
414
330
1F
100
AcDbEntity
  8
0
  6
Continuous
 62
     7
370
    15
100
AcDbPolyline
 90
       27
 70
   128
 43
0.0
 10
385.3236655954
 20
257.6538753195
 10
385.6083066255
 20
257.4441366306
 10
385.7977289521
 20
257.2011682723
 10
385.8809240381
 20
256.9390906821
 10
385.8530568874
 20
256.6731348572
 10
385.7157470377
 20
256.4187571833
 10
385.4769744383
 20
256.1907411662
 10
385.1506156847
 20
256.002338268
 10
384.7556375615
 20
255.8644977804
 10
384.3149947614
 20
255.7852304914
 10
383.8542958423
 20
255.7691431278
 10
383.4003149509
 20
255.8171706286
 10
382.9794358064
 20
255.9265218102
 10
382.6161183749
 20
256.0908415792
 10
382.3314773447
 20
256.300580268
 10
382.1420550181
 20
256.5435486264
 10
382.0588599322
 20
256.8056262165
 10
382.0867270828
 20
257.0715820415
 10
382.2240369325
 20
257.3259597154
 10
382.4628095319
 20
257.5539757325
 10
382.7891682855
 20
257.7423786307
 10
383.1841464087
 20
257.8802191183
 10
383.6247892088
 20
257.9594864073
 10
384.0854881279
 20
257.9755737709
 10
384.5394690193
 20
257.9275462701
 10
384.9603481638
 20
257.8181950885
 10
385.3236655954
 20
257.6538753195
  0
LWPOLYLINE
  5
415
330
1F
100
AcDbEntity
  8
0
  6
Continuous
 62
     7
370
    15
100
AcDbPolyline
 90
       27
 70
   128
 43
0.0
 10
398.794049777
 20
249.8775880544
 10
399.0786908071
 20
249.6678493655
 10
399.2681131337
 20
249.4248810071
 10
399.3513082197
 20
249.162803417
 10
399.3234410691
 20
248.8968475921
 10
399.1861312194
 20
248.6424699182
 10
398.9473586199
 20
248.4144539011
 10
398.6209998663
 20
248.2260510029
 10
398.2260217431
 20
248.0882105152
 10
397.785378943
 20
248.0089432263
 10
397.3246800239
 20
247.9928558627
 10
396.8706991325
 20
248.0408833635
 10
396.449819988
 20
248.150234545
 10
396.0865025565
 20
248.3145543141
 10
395.8018615264
 20
248.5242930029
 10
395.6124391998
 20
248.7672613613
 10
395.5292441138
 20
249.0293389514
 10
395.5571112644
 20
249.2952947764
 10
395.6944211141
 20
249.5496724503
 10
395.9331937135
 20
249.7776884674
 10
396.2595524671
 20
249.9660913656
 10
396.6545305903
 20
250.1039318532
 10
397.0951733904
 20
250.1831991422
 10
397.5558723095
 20
250.1992865058
 10
398.0098532009
 20
250.1512590049
 10
398.4307323454
 20
250.0419078234
 10
398.794049777
 20
249.8775880544
  0
LWPOLYLINE
  5
416
330
1F
100
AcDbEntity
  8
0
  6
Continuous
 62
     7
370
    15
100
AcDbPolyline
 90
       27
 70
   128
 43
0.0
 10
385.3236655954
 20
242.1013007893
 10
385.6083066255
 20
241.8915621004
 10
385.7977289521
 20
241.648593742
 10
385.8809240381
 20
241.3865161519
 10
385.8530568874
 20
241.120560327
 10
385.7157470377
 20
240.8661826531
 10
385.4769744383
 20
240.638166636
 10
385.1506156847
 20
240.4497637378
 10
384.7556375615
 20
240.3119232501
 10
384.3149947614
 20
240.2326559612
 10
383.8542958423
 20
240.2165685975
 10
383.4003149509
 20
240.2645960984
 10
382.9794358064
 20
240.3739472799
 10
382.6161183749
 20
240.538267049
 10
382.3314773447
 20
240.7480057378
 10
382.1420550181
 20
240.9909740962
 10
382.0588599322
 20
241.2530516863
 10
382.0867270828
 20
241.5190075113
 10
382.2240369325
 20
241.7733851852
 10
382.4628095319
 20
242.0014012023
 10
382.7891682855
 20
242.1898041005
 10
383.1841464087
 20
242.3276445881
 10
383.6247892088
 20
242.4069118771
 10
384.0854881279
 20
242.4229992407
 10
384.5394690193
 20
242.3749717398
 10
384.9603481638
 20
242.2656205583
 10
385.3236655954
 20
242.1013007893
  0
LWPOLYLINE
  5
417
330
1F
100
AcDbEntity
  8
0
  6
Continuous
 62
     7
370
    15
100
AcDbPolyline
 90
       27
 70
   128
 43
0.0
 10
344.9125130505
 20
234.3250135241
 10
345.1971540806
 20
234.1152748353
 10
345.3865764072
 20
233.8723064769
 10
345.4697714932
 20
233.6102288868
 10
345.4419043426
 20
233.3442730619
 10
345.3045944929
 20
233.0898953879
 10
345.0658218935
 20
232.8618793708
 10
344.7394631399
 20
232.6734764727
 10
344.3444850166
 20
232.535635985
 10
343.9038422166
 20
232.456368696
 10
343.4431432975
 20
232.4402813324
 10
342.9891624061
 20
232.4883088333
 10
342.5682832616
 20
232.5976600148
 10
342.20496583
 20
232.7619797839
 10
341.9203247999
 20
232.9717184727
 10
341.7309024733
 20
233.2146868311
 10
341.6477073873
 20
233.4767644212
 10
341.6755745379
 20
233.7427202461
 10
341.8128843876
 20
233.9970979201
 10
342.0516569871
 20
234.2251139372
 10
342.3780157407
 20
234.4135168353
 10
342.7729938639
 20
234.551357323
 10
343.213636664
 20
234.630624612
 10
343.6743355831
 20
234.6467119756
 10
344.1283164745
 20
234.5986844747
 10
344.549195619
 20
234.4893332932
 10
344.9125130505
 20
234.3250135241
  0
LWPOLYLINE
  5
418
330
1F
100
AcDbEntity
  8
0
  6
Continuous
 62
     7
370
    15
100
AcDbPolyline
 90
       27
 70
   128
 43
0.0
 10
358.3828972321
 20
242.1013007893
 10
358.6675382622
 20
241.8915621004
 10
358.8569605888
 20
241.648593742
 10
358.9401556748
 20
241.3865161519
 10
358.9122885242
 20
241.120560327
 10
358.7749786745
 20
240.8661826531
 10
358.5362060751
 20
240.638166636
 10
358.2098473215
 20
240.4497637378
 10
357.8148691983
 20
240.3119232501
 10
357.3742263982
 20
240.2326559612
 10
356.9135274791
 20
240.2165685975
 10
356.4595465877
 20
240.2645960984
 10
356.0386674432
 20
240.3739472799
 10
355.6753500116
 20
240.538267049
 10
355.3907089815
 20
240.7480057378
 10
355.2012866549
 20
240.9909740962
 10
355.1180915689
 20
241.2530516863
 10
355.1459587195
 20
241.5190075113
 10
355.2832685692
 20
241.7733851852
 10
355.5220411687
 20
242.0014012023
 10
355.8483999223
 20
242.1898041005
 10
356.2433780455
 20
242.3276445881
 10
356.6840208456
 20
242.4069118771
 10
357.1447197647
 20
242.4229992407
 10
357.5987006561
 20
242.3749717398
 10
358.0195798006
 20
242.2656205583
 10
358.3828972321
 20
242.1013007893
  0
LWPOLYLINE
  5
419
330
1F
100
AcDbEntity
  8
0
  6
Continuous
 62
     7
370
    15
100
AcDbPolyline
 90
       27
 70
   128
 43
0.0
 10
371.8532814137
 20
234.3250135241
 10
372.1379224439
 20
234.1152748353
 10
372.3273447705
 20
233.8723064769
 10
372.4105398564
 20
233.6102288868
 10
372.3826727058
 20
233.3442730619
 10
372.2453628561
 20
233.0898953879
 10
372.0065902567
 20
232.8618793708
 10
371.6802315031
 20
232.6734764727
 10
371.2852533799
 20
232.535635985
 10
370.8446105798
 20
232.456368696
 10
370.3839116607
 20
232.4402813324
 10
369.9299307693
 20
232.4883088333
 10
369.5090516248
 20
232.5976600148
 10
369.1457341932
 20
232.7619797839
 10
368.8610931631
 20
232.9717184727
 10
368.6716708365
 20
233.2146868311
 10
368.5884757505
 20
233.4767644212
 10
368.6163429011
 20
233.7427202461
 10
368.7536527508
 20
233.9970979201
 10
368.9924253503
 20
234.2251139372
 10
369.3187841039
 20
234.4135168353
 10
369.7137622271
 20
234.551357323
 10
370.1544050272
 20
234.630624612
 10
370.6151039463
 20
234.6467119756
 10
371.0690848377
 20
234.5986844747
 10
371.4899639822
 20
234.4893332932
 10
371.8532814137
 20
234.3250135241
  0
LWPOLYLINE
  5
41A
330
1F
100
AcDbEntity
  8
0
  6
Continuous
 62
     7
370
    15
100
AcDbPolyline
 90
       27
 70
   128
 43
0.0
 10
358.3828972321
 20
226.548726259
 10
358.6675382622
 20
226.3389875702
 10
358.8569605888
 20
226.0960192118
 10
358.9401556748
 20
225.8339416217
 10
358.9122885242
 20
225.5679857967
 10
358.7749786745
 20
225.3136081228
 10
358.5362060751
 20
225.0855921057
 10
358.2098473215
 20
224.8971892075
 10
357.8148691983
 20
224.7593487199
 10
357.3742263982
 20
224.6800814309
 10
356.9135274791
 20
224.6639940673
 10
356.4595465877
 20
224.7120215682
 10
356.0386674432
 20
224.8213727497
 10
355.6753500116
 20
224.9856925187
 10
355.3907089815
 20
225.1954312076
 10
355.2012866549
 20
225.438399566
 10
355.1180915689
 20
225.7004771561
 10
355.1459587195
 20
225.966432981
 10
355.2832685692
 20
226.2208106549
 10
355.5220411687
 20
226.448826672
 10
355.8483999223
 20
226.6372295702
 10
356.2433780455
 20
226.7750700579
 10
356.6840208456
 20
226.8543373468
 10
357.1447197647
 20
226.8704247105
 10
357.5987006561
 20
226.8223972096
 10
358.0195798006
 20
226.7130460281
 10
358.3828972321
 20
226.548726259
  0
LWPOLYLINE
  5
41B
330
1F
100
AcDbEntity
  8
0
  6
Continuous
 62
     7
370
    15
100
AcDbPolyline
 90
       16
 70
   128
 43
0.0
 10
338.6797026501
 20
236.3601046398
 10
338.2532248164
 20
236.1607354765
 10
337.764263217
 20
236.0169109518
 10
337.2341878202
 20
235.9349168878
 10
336.6861654644
 20
235.9183368183
 10
336.1441473561
 20
235.967895372
 10
335.6318222877
 20
236.0814266023
 10
335.171581323
 20
236.2539686497
 10
334.7835392007
 20
236.4779805987
 10
334.4846552235
 20
236.7436720522
 10
334.2879920555
 20
237.0394310188
 10
334.2021448208
 20
237.3523314124
 10
334.2308654554
 20
237.6686979844
 10
334.3728987299
 20
237.9747039975
 10
334.6220371086
 20
238.2569755205
 10
334.9673920489
 20
238.5031759333
  0
LINE
  5
41C
330
1F
100
AcDbEntity
  8
0
  6
Continuous
 62
     7
370
    15
100
AcDbLine
 10
352.1500868317
 20
244.1363919049
 30
0.0
 11
338.6797026501
 21
236.3601046398
 31
0.0
  0
LWPOLYLINE
  5
41D
330
1F
100
AcDbEntity
  8
0
  6
Continuous
 62
     7
370
    15
100
AcDbPolyline
 90
       16
 70
   128
 43
0.0
 10
348.4377762305
 20
246.2794631984
 10
348.8642540642
 20
246.4788323617
 10
349.3532156635
 20
246.6226568864
 10
349.8832910604
 20
246.7046509505
 10
350.4313134162
 20
246.7212310199
 10
350.9733315245
 20
246.6716724662
 10
351.4856565929
 20
246.5581412359
 10
351.9458975576
 20
246.3855991885
 10
352.3339396799
 20
246.1615872396
 10
352.6328236571
 20
245.895895786
 10
352.8294868251
 20
245.6001368194
 10
352.9153340598
 20
245.2872364258
 10
352.8866134252
 20
244.9708698538
 10
352.7445801506
 20
244.6648638408
 10
352.4954417719
 20
244.3825923178
 10
352.1500868317
 20
244.1363919049
  0
LINE
  5
41E
330
1F
100
AcDbEntity
  8
0
  6
Continuous
 62
     7
370
    15
100
AcDbLine
 10
334.9673920489
 20
238.5031759333
 30
0.0
 11
348.4377762305
 21
246.2794631984
 31
0.0
  0
LWPOLYLINE
  5
41F
330
1F
100
AcDbEntity
  8
0
  6
Continuous
 62
     7
370
    15
100
AcDbPolyline
 90
       16
 70
   128
 43
0.0
 10
361.9081604121
 20
238.5031759333
 10
362.3346382458
 20
238.7025450966
 10
362.8235998451
 20
238.8463696213
 10
363.353675242
 20
238.9283636853
 10
363.9016975978
 20
238.9449437548
 10
364.4437157061
 20
238.8953852011
 10
364.9560407745
 20
238.7818539708
 10
365.4162817392
 20
238.6093119234
 10
365.8043238615
 20
238.3852999744
 10
366.1032078387
 20
238.1196085209
 10
366.2998710067
 20
237.8238495543
 10
366.3857182414
 20
237.5109491607
 10
366.3569976068
 20
237.1945825887
 10
366.2149643323
 20
236.8885765757
 10
365.9658259536
 20
236.6063050527
 10
365.6204710133
 20
236.3601046398
  0
LINE
  5
420
330
1F
100
AcDbEntity
  8
0
  6
Continuous
 62
     7
370
    15
100
AcDbLine
 10
348.4377762305
 20
230.7268886682
 30
0.0
 11
361.9081604121
 21
238.5031759333
 31
0.0
  0
LWPOLYLINE
  5
421
330
1F
100
AcDbEntity
  8
0
  6
Continuous
 62
     7
370
    15
100
AcDbPolyline
 90
       16
 70
   128
 43
0.0
 10
352.1500868317
 20
228.5838173747
 10
351.723608998
 20
228.3844482114
 10
351.2346473986
 20
228.2406236867
 10
350.7045720018
 20
228.1586296227
 10
350.156549646
 20
228.1420495532
 10
349.6145315377
 20
228.1916081069
 10
349.1022064693
 20
228.3051393372
 10
348.6419655046
 20
228.4776813846
 10
348.2539233823
 20
228.7016933336
 10
347.9550394051
 20
228.9673847871
 10
347.7583762371
 20
229.2631437537
 10
347.6725290024
 20
229.5760441473
 10
347.701249637
 20
229.8924107193
 10
347.8432829115
 20
230.1984167323
 10
348.0924212902
 20
230.4806882553
 10
348.4377762305
 20
230.7268886682
  0
LINE
  5
422
330
1F
100
AcDbEntity
  8
0
  6
Continuous
 62
     7
370
    15
100
AcDbLine
 10
365.6204710133
 20
236.3601046398
 30
0.0
 11
352.1500868317
 21
228.5838173747
 31
0.0
  0
LWPOLYLINE
  5
423
330
1F
100
AcDbEntity
  8
0
  6
Continuous
 62
     7
370
    15
100
AcDbPolyline
 90
       16
 70
   128
 43
0.0
 10
388.8489287753
 20
254.0557504635
 10
389.275406609
 20
254.2551196269
 10
389.7643682083
 20
254.3989441515
 10
390.2944436052
 20
254.4809382156
 10
390.842465961
 20
254.497518285
 10
391.3844840693
 20
254.4479597313
 10
391.8968091377
 20
254.334428501
 10
392.3570501024
 20
254.1618864536
 10
392.7450922247
 20
253.9378745047
 10
393.0439762019
 20
253.6721830511
 10
393.2406393699
 20
253.3764240846
 10
393.3264866046
 20
253.0635236909
 10
393.29776597
 20
252.7471571189
 10
393.1557326955
 20
252.4411511059
 10
392.9065943168
 20
252.1588795829
 10
392.5612393765
 20
251.91267917
  0
LINE
  5
424
330
1F
100
AcDbEntity
  8
0
  6
Continuous
 62
     7
370
    15
100
AcDbLine
 10
375.3785445937
 20
246.2794631984
 30
0.0
 11
388.8489287753
 21
254.0557504635
 31
0.0
  0
LWPOLYLINE
  5
425
330
1F
100
AcDbEntity
  8
0
  6
Continuous
 62
     7
370
    15
100
AcDbPolyline
 90
       16
 70
   128
 43
0.0
 10
379.0908551949
 20
244.1363919049
 10
378.6643773612
 20
243.9370227416
 10
378.1754157619
 20
243.793198217
 10
377.645340365
 20
243.7112041529
 10
377.0973180092
 20
243.6946240834
 10
376.5552999009
 20
243.7441826371
 10
376.0429748325
 20
243.8577138674
 10
375.5827338678
 20
244.0302559148
 10
375.1946917455
 20
244.2542678638
 10
374.8958077683
 20
244.5199593173
 10
374.6991446003
 20
244.8157182839
 10
374.6132973656
 20
245.1286186775
 10
374.6420180002
 20
245.4449852495
 10
374.7840512747
 20
245.7509912626
 10
375.0331896534
 20
246.0332627856
 10
375.3785445937
 20
246.2794631984
  0
LINE
  5
426
330
1F
100
AcDbEntity
  8
0
  6
Continuous
 62
     7
370
    15
100
AcDbLine
 10
392.5612393765
 20
251.91267917
 30
0.0
 11
379.0908551949
 21
244.1363919049
 31
0.0
  0
LWPOLYLINE
  5
427
330
1F
100
AcDbEntity
  8
0
  6
Continuous
 62
     7
370
    15
100
AcDbPolyline
 90
       16
 70
   128
 43
0.0
 10
365.6204710133
 20
251.91267917
 10
365.1939931796
 20
251.7133100067
 10
364.7050315803
 20
251.5694854821
 10
364.1749561834
 20
251.487491418
 10
363.6269338276
 20
251.4709113485
 10
363.0849157193
 20
251.5204699022
 10
362.5725906509
 20
251.6340011325
 10
362.1123496862
 20
251.8065431799
 10
361.7243075639
 20
252.0305551289
 10
361.4254235867
 20
252.2962465824
 10
361.2287604187
 20
252.592005549
 10
361.142913184
 20
252.9049059426
 10
361.1716338186
 20
253.2212725146
 10
361.3136670931
 20
253.5272785277
 10
361.5628054718
 20
253.8095500507
 10
361.9081604121
 20
254.0557504635
  0
LINE
  5
428
330
1F
100
AcDbEntity
  8
0
  6
Continuous
 62
     7
370
    15
100
AcDbLine
 10
379.0908551949
 20
259.6889664351
 30
0.0
 11
365.6204710133
 21
251.91267917
 31
0.0
  0
LWPOLYLINE
  5
429
330
1F
100
AcDbEntity
  8
0
  6
Continuous
 62
     7
370
    15
100
AcDbPolyline
 90
       16
 70
   128
 43
0.0
 10
375.3785445937
 20
261.8320377287
 10
375.8050224274
 20
262.031406892
 10
376.2939840267
 20
262.1752314166
 10
376.8240594236
 20
262.2572254807
 10
377.3720817794
 20
262.2738055502
 10
377.9140998877
 20
262.2242469964
 10
378.4264249561
 20
262.1107157661
 10
378.8866659208
 20
261.9381737188
 10
379.2747080431
 20
261.7141617698
 10
379.5735920203
 20
261.4484703163
 10
379.7702551883
 20
261.1527113497
 10
379.856102423
 20
260.839810956
 10
379.8273817884
 20
260.5234443841
 10
379.6853485139
 20
260.217438371
 10
379.4362101352
 20
259.935166848
 10
379.0908551949
 20
259.6889664351
  0
LINE
  5
42A
330
1F
100
AcDbEntity
  8
0
  6
Continuous
 62
     7
370
    15
100
AcDbLine
 10
361.9081604121
 20
254.0557504635
 30
0.0
 11
375.3785445937
 21
261.8320377287
 31
0.0
  0
LINE
  5
42B
330
1F
100
AcDbEntity
  8
0
  6
Continuous
 62
     7
370
    15
100
AcDbLine
 10
412.5546836146
 20
233.875588997
 30
0.0
 11
412.5546836146
 21
250.1063762226
 31
0.0
  0
LINE
  5
42C
330
1F
100
AcDbEntity
  8
0
  6
Continuous
 62
     7
370
    15
100
AcDbLine
 10
412.5546836146
 20
233.875588997
 30
0.0
 11
393.7173589638
 21
223.0010329476
 31
0.0
  0
ARC
  5
42D
330
1F
100
AcDbEntity
  8
0
  6
Continuous
 62
     7
370
    15
100
AcDbCircle
 10
396.2026349535
 20
219.121304722
 30
0.0
 40
4.607481725357983
100
AcDbArc
 50
122.6428087092
 51
159.8516321921
  0
LINE
  5
42E
330
1F
100
AcDbEntity
  8
0
  6
Continuous
 62
     7
370
    15
100
AcDbLine
 10
391.8771135657
 20
220.7083625574
 30
0.0
 11
387.5920500457
 21
209.6685162231
 31
0.0
  0
LWPOLYLINE
  5
42F
330
1F
100
AcDbEntity
  8
0
  6
Continuous
 62
     7
370
    15
100
AcDbPolyline
 90
       16
 70
   128
 43
0.0
 10
387.5920500457
 20
209.6685162231
 10
387.2609005705
 20
208.9106747655
 10
386.8646910995
 20
208.1739957249
 10
386.4111300853
 20
207.4728115592
 10
385.9090417837
 20
206.8207641559
 10
385.3681945727
 20
206.230539422
 10
384.7991109043
 20
205.7136204741
 10
384.212862585
 20
205.2800642277
 10
383.620855368
 20
204.9383057359
 10
383.0346070487
 20
204.6949940803
 10
382.4655233803
 20
204.5548630105
 10
381.9246761693
 20
204.5206388462
 10
381.4225878677
 20
204.5929874358
 10
380.9690268536
 20
204.7705012012
 10
380.5728173826
 20
205.0497265237
 10
380.2416679073
 20
205.4252309355
  0
LINE
  5
430
330
1F
100
AcDbEntity
  8
0
  6
Continuous
 62
     7
370
    15
100
AcDbLine
 10
380.2416679073
 20
205.4252309355
 30
0.0
 11
375.9566043873
 21
211.5176482386
 31
0.0
  0
ARC
  5
431
330
1F
100
AcDbEntity
  8
0
  6
Continuous
 62
     7
370
    15
100
AcDbCircle
 10
374.9509943157
 20
210.6650403925
 30
0.0
 40
1.318405004337445
100
AcDbArc
 50
40.2929895242
 51
129.276575017
  0
LINE
  5
432
330
1F
100
AcDbEntity
  8
0
  6
Continuous
 62
     7
370
    15
100
AcDbLine
 10
374.1163589893
 20
211.6856165177
 30
0.0
 11
360.5823351974
 21
203.8725908876
 31
0.0
  0
LINE
  5
433
330
1F
100
AcDbEntity
  8
0
  6
Continuous
 62
     7
370
    15
100
AcDbLine
 10
360.5823351974
 20
203.8725908876
 30
0.0
 11
360.5823351974
 21
203.8746319285
 31
0.0
  0
LINE
  5
434
330
1F
100
AcDbEntity
  8
0
  6
Continuous
 62
     7
370
    15
100
AcDbLine
 10
360.5823351974
 20
203.8746319285
 30
0.0
 11
355.2790343385
 21
200.8131015091
 31
0.0
  0
LWPOLYLINE
  5
435
330
1F
100
AcDbEntity
  8
0
  6
Continuous
 62
     7
370
    15
100
AcDbPolyline
 90
       27
 70
   128
 43
0.0
 10
369.0927011847
 20
217.0550349071
 10
369.1320393854
 20
217.4518636248
 10
369.2477677943
 20
217.8710490196
 10
369.433160697
 20
218.2882295601
 10
369.6774437319
 20
218.6791602297
 10
369.9664200568
 20
219.0211215587
 10
370.2832954181
 20
219.2942399978
 10
370.6096541717
 20
219.482642896
 10
370.9265295331
 20
219.5753809617
 10
371.2155058579
 20
219.5670645955
 10
371.4597888928
 20
219.4581771145
 10
371.6451817955
 20
219.2550466633
 10
371.7609102044
 20
218.9694784453
 10
371.8002484052
 20
218.6180686473
 10
371.7609102044
 20
218.2212399296
 10
371.6451817955
 20
217.8020545348
 10
371.4597888928
 20
217.3848739943
 10
371.2155058579
 20
216.9939433247
 10
370.9265295331
 20
216.6519819956
 10
370.6096541717
 20
216.3788635566
 10
370.2832954181
 20
216.1904606584
 10
369.9664200568
 20
216.0977225927
 10
369.6774437319
 20
216.1060389589
 10
369.433160697
 20
216.2149264399
 10
369.2477677943
 20
216.4180568911
 10
369.1320393854
 20
216.7036251091
 10
369.0927011847
 20
217.0550349071
  0
LWPOLYLINE
  5
436
330
1F
100
AcDbEntity
  8
0
  6
Continuous
 62
     7
370
    15
100
AcDbPolyline
 90
       27
 70
   128
 43
0.0
 10
382.5630853663
 20
224.8313221722
 10
382.602423567
 20
225.2281508899
 10
382.7181519759
 20
225.6473362847
 10
382.9035448786
 20
226.0645168252
 10
383.1478279135
 20
226.4554474948
 10
383.4368042384
 20
226.7974088239
 10
383.7536795997
 20
227.0705272629
 10
384.0800383533
 20
227.2589301611
 10
384.3969137147
 20
227.3516682268
 10
384.6858900396
 20
227.3433518606
 10
384.9301730744
 20
227.2344643796
 10
385.1155659771
 20
227.0313339284
 10
385.231294386
 20
226.7457657104
 10
385.2706325868
 20
226.3943559125
 10
385.231294386
 20
225.9975271947
 10
385.1155659771
 20
225.5783417999
 10
384.9301730744
 20
225.1611612594
 10
384.6858900396
 20
224.7702305898
 10
384.3969137147
 20
224.4282692608
 10
384.0800383533
 20
224.1551508217
 10
383.7536795997
 20
223.9667479235
 10
383.4368042384
 20
223.8740098578
 10
383.1478279135
 20
223.882326224
 10
382.9035448786
 20
223.991213705
 10
382.7181519759
 20
224.1943441562
 10
382.602423567
 20
224.4799123742
 10
382.5630853663
 20
224.8313221722
  0
LWPOLYLINE
  5
437
330
1F
100
AcDbEntity
  8
0
  6
Continuous
 62
     7
370
    15
100
AcDbPolyline
 90
       27
 70
   128
 43
0.0
 10
396.0334695479
 20
232.6076094373
 10
396.0728077486
 20
233.004438155
 10
396.1885361575
 20
233.4236235498
 10
396.3739290603
 20
233.8408040904
 10
396.6182120951
 20
234.2317347599
 10
396.90718842
 20
234.573696089
 10
397.2240637813
 20
234.846814528
 10
397.5504225349
 20
235.0352174262
 10
397.8672978963
 20
235.1279554919
 10
398.1562742212
 20
235.1196391257
 10
398.400557256
 20
235.0107516447
 10
398.5859501587
 20
234.8076211935
 10
398.7016785676
 20
234.5220529755
 10
398.7410167684
 20
234.1706431776
 10
398.7016785676
 20
233.7738144598
 10
398.5859501587
 20
233.354629065
 10
398.400557256
 20
232.9374485245
 10
398.1562742212
 20
232.5465178549
 10
397.8672978963
 20
232.2045565259
 10
397.5504225349
 20
231.9314380868
 10
397.2240637813
 20
231.7430351886
 10
396.90718842
 20
231.650297123
 10
396.6182120951
 20
231.6586134891
 10
396.3739290603
 20
231.7675009701
 10
396.1885361575
 20
231.9706314214
 10
396.0728077486
 20
232.2561996394
 10
396.0334695479
 20
232.6076094373
  0
LWPOLYLINE
  5
438
330
1F
100
AcDbEntity
  8
0
  6
Continuous
 62
     7
370
    15
100
AcDbPolyline
 90
       27
 70
   128
 43
0.0
 10
382.5630853663
 20
209.2762197057
 10
382.602423567
 20
209.6730484235
 10
382.7181519759
 20
210.0922338183
 10
382.9035448786
 20
210.5094143588
 10
383.1478279135
 20
210.9003450284
 10
383.4368042384
 20
211.2423063574
 10
383.7536795997
 20
211.5154247965
 10
384.0800383533
 20
211.7038276947
 10
384.3969137147
 20
211.7965657603
 10
384.6858900396
 20
211.7882493942
 10
384.9301730744
 20
211.6793619132
 10
385.1155659771
 20
211.4762314619
 10
385.231294386
 20
211.190663244
 10
385.2706325868
 20
210.839253446
 10
385.231294386
 20
210.4424247283
 10
385.1155659771
 20
210.0232393335
 10
384.9301730744
 20
209.6060587929
 10
384.6858900396
 20
209.2151281234
 10
384.3969137147
 20
208.8731667943
 10
384.0800383533
 20
208.6000483553
 10
383.7536795997
 20
208.4116454571
 10
383.4368042384
 20
208.3189073914
 10
383.1478279135
 20
208.3272237576
 10
382.9035448786
 20
208.4361112386
 10
382.7181519759
 20
208.6392416898
 10
382.602423567
 20
208.9248099078
 10
382.5630853663
 20
209.2762197057
  0
LWPOLYLINE
  5
439
330
1F
100
AcDbEntity
  8
0
  6
Continuous
 62
     7
370
    15
100
AcDbPolyline
 90
        9
 70
   128
 43
0.0
 10
360.5823351974
 20
203.8746319285
 10
360.5822625766
 20
203.8744187182
 10
360.5821899533
 20
203.8742055103
 10
360.5821173277
 20
203.8739923047
 10
360.5820446996
 20
203.8737791014
 10
360.5819720691
 20
203.8735659005
 10
360.5818994362
 20
203.8733527018
 10
360.5818268009
 20
203.8731395055
 10
360.5817541631
 20
203.8729263115
  0
LINE
  5
43A
330
1F
100
AcDbEntity
  8
0
  6
Continuous
 62
     7
370
    15
100
AcDbLine
 10
360.5817541631
 20
203.8729263115
 30
0.0
 11
358.9907639055
 21
202.9544671857
 31
0.0
  0
ARC
  5
43B
330
1F
100
AcDbEntity
  8
0
  6
Continuous
 62
     7
370
    15
100
AcDbCircle
 10
347.6334803805
 20
206.3624986579
 30
0.0
 40
11.85759535413591
100
AcDbArc
 50
301.5483285956
 51
343.2968383836
  0
LINE
  5
43C
330
1F
100
AcDbEntity
  8
0
  6
Continuous
 62
     7
370
    15
100
AcDbLine
 10
360.5817541631
 20
203.8729263115
 30
0.0
 11
360.5823351974
 21
203.8725908876
 31
0.0
  0
ARC
  5
43D
330
1F
100
AcDbEntity
  8
0
  6
Continuous
 62
     7
370
    15
100
AcDbCircle
 10
346.1080329392
 20
217.9097930918
 30
0.0
 40
14.5357366967756
100
AcDbArc
 50
230.434261442
 51
270.9832946411
  0
LINE
  5
43E
330
1F
100
AcDbEntity
  8
0
  6
Continuous
 62
     7
370
    15
100
AcDbLine
 10
376.5293573061
 20
207.5683022291
 30
0.0
 11
380.2416679073
 21
205.4252309355
 31
0.0
  0
LINE
  5
43F
330
1F
100
AcDbEntity
  8
0
  6
Continuous
 62
     7
370
    15
100
AcDbLine
 10
376.5293573061
 20
207.5683022291
 30
0.0
 11
373.7729180263
 21
211.4873522699
 31
0.0
  0
LWPOLYLINE
  5
440
330
1F
100
AcDbEntity
  8
0
  6
Continuous
 62
     7
370
    15
100
AcDbPolyline
 90
        3
 70
   128
 43
0.0
 10
377.2036207068
 20
206.9431581304
 10
376.8605067813
 20
207.1927978172
 10
376.5293573061
 20
207.5683022291
  0
LINE
  5
441
330
1F
100
AcDbEntity
  8
0
  6
Continuous
 62
     8
370
    15
100
AcDbLine
 10
348.4377762305
 20
230.7268886682
 30
0.0
 11
348.4377762305
 21
228.5838173747
 31
0.0
  0
LINE
  5
442
330
1F
100
AcDbEntity
  8
0
  6
Continuous
 62
     8
370
    15
100
AcDbLine
 10
361.9081604121
 20
238.5031759333
 30
0.0
 11
361.9081604121
 21
234.2170333463
 31
0.0
  0
LINE
  5
443
330
1F
100
AcDbEntity
  8
0
  6
Continuous
 62
     8
370
    15
100
AcDbLine
 10
324.4389910746
 20
214.5426222656
 30
0.0
 11
327.0642043956
 21
216.0581256574
 31
0.0
  0
LINE
  5
444
330
1F
100
AcDbEntity
  8
0
  6
Continuous
 62
     8
370
    15
100
AcDbLine
 10
334.9673920489
 20
238.5031759333
 30
0.0
 11
334.9673920489
 21
236.3601046398
 31
0.0
  0
LINE
  5
445
330
1F
100
AcDbEntity
  8
0
  6
Continuous
 62
     8
370
    15
100
AcDbLine
 10
375.1726106145
 20
211.97023821
 30
0.0
 11
375.9566043873
 21
211.5176482386
 31
0.0
  0
LINE
  5
446
330
1F
100
AcDbEntity
  8
0
  6
Continuous
 62
     8
370
    15
100
AcDbLine
 10
348.4377762305
 20
246.2794631984
 30
0.0
 11
348.4377762305
 21
241.9933206114
 31
0.0
  0
LINE
  5
447
330
1F
100
AcDbEntity
  8
0
  6
Continuous
 62
     8
370
    15
100
AcDbLine
 10
375.3785445937
 20
246.2794631984
 30
0.0
 11
375.3785445937
 21
244.1363919049
 31
0.0
  0
LINE
  5
448
330
1F
100
AcDbEntity
  8
0
  6
Continuous
 62
     8
370
    15
100
AcDbLine
 10
388.8489287753
 20
254.0557504635
 30
0.0
 11
388.8489287753
 21
249.7696078765
 31
0.0
  0
LINE
  5
449
330
1F
100
AcDbEntity
  8
0
  6
Continuous
 62
     8
370
    15
100
AcDbLine
 10
361.9081604121
 20
254.0557504635
 30
0.0
 11
361.9081604121
 21
251.91267917
 31
0.0
  0
LINE
  5
44A
330
1F
100
AcDbEntity
  8
0
  6
Continuous
 62
     8
370
    15
100
AcDbLine
 10
375.3785445937
 20
261.8320377287
 30
0.0
 11
375.3785445937
 21
257.5458951416
 31
0.0
  0
ENDSEC
  0
SECTION
  2
OBJECTS
  0
DICTIONARY
  5
C
330
0
100
AcDbDictionary
281
     1
  3
ACAD_GROUP
350
D
  3
ACAD_LAYOUT
350
1A
  3
ACAD_MLINESTYLE
350
17
  3
ACAD_PLOTSETTINGS
350
19
  3
ACAD_PLOTSTYLENAME
350
E
  3
ACAD_SCALELIST
350
47
  0
DICTIONARY
  5
D
102
{ACAD_REACTORS
330
C
102
}
330
C
100
AcDbDictionary
281
     1
  0
DICTIONARY
  5
1A
102
{ACAD_REACTORS
330
C
102
}
330
C
100
AcDbDictionary
281
     1
  3
Layout1
350
1E
  3
Layout2
350
26
  3
Model
350
22
  0
DICTIONARY
  5
17
102
{ACAD_REACTORS
330
C
102
}
330
C
100
AcDbDictionary
281
     1
  3
Standard
350
18
  0
DICTIONARY
  5
19
102
{ACAD_REACTORS
330
C
102
}
330
C
100
AcDbDictionary
281
     1
  0
ACDBDICTIONARYWDFLT
  5
E
102
{ACAD_REACTORS
330
C
102
}
330
C
100
AcDbDictionary
281
     1
  3
Normal
350
F
100
AcDbDictionaryWithDefault
340
F
  0
DICTIONARY
  5
47
102
{ACAD_REACTORS
330
C
102
}
330
C
100
AcDbDictionary
281
     1
  3
A0
350
48
  3
A1
350
49
  3
A2
350
4A
  3
A3
350
4B
  3
A4
350
4C
  3
A5
350
4D
  3
A6
350
4E
  3
A7
350
4F
  3
A8
350
50
  3
A9
350
51
  3
B0
350
52
  3
B1
350
53
  3
B2
350
54
  3
B3
350
55
  3
B4
350
56
  3
B5
350
57
  3
B6
350
58
  3
B7
350
59
  3
B8
350
5A
  3
B9
350
5B
  3
C0
350
5C
  3
C1
350
5D
  3
C2
350
5E
  3
C3
350
5F
  3
C4
350
60
  3
C5
350
61
  3
C6
350
62
  3
C7
350
63
  3
C8
350
64
  3
C9
350
65
  3
D0
350
66
  3
D1
350
67
  3
D2
350
68
  0
LAYOUT
  5
1E
102
{ACAD_REACTORS
330
1A
102
}
330
1A
100
AcDbPlotSettings
  1

  2
none_device
  4

  6

 40
0.0
 41
0.0
 42
0.0
 43
0.0
 44
0.0
 45
0.0
 46
0.0
 47
0.0
 48
0.0
 49
0.0
140
0.0
141
0.0
142
1.0
143
1.0
 70
   688
 72
     1
 73
     0
 74
     5
  7

 75
    16
147
1.0
148
0.0
149
0.0
100
AcDbLayout
  1
Layout1
 70
     1
 71
     1
 10
0.0
 20
0.0
 11
420.0
 21
297.0
 12
0.0
 22
0.0
 32
0.0
 14
1.0000000000E+20
 24
1.0000000000E+20
 34
1.0000000000E+20
 15
-1.0000000000E+20
 25
-1.0000000000E+20
 35
-1.0000000000E+20
146
0.0
 13
0.0
 23
0.0
 33
0.0
 16
1.0
 26
0.0
 36
0.0
 17
0.0
 27
1.0
 37
0.0
 76
     0
330
1B
  0
LAYOUT
  5
26
102
{ACAD_REACTORS
330
1A
102
}
330
1A
100
AcDbPlotSettings
  1

  2
none_device
  4

  6

 40
0.0
 41
0.0
 42
0.0
 43
0.0
 44
0.0
 45
0.0
 46
0.0
 47
0.0
 48
0.0
 49
0.0
140
0.0
141
0.0
142
1.0
143
1.0
 70
   688
 72
     1
 73
     0
 74
     5
  7

 75
    16
147
1.0
148
0.0
149
0.0
100
AcDbLayout
  1
Layout2
 70
     1
 71
     2
 10
0.0
 20
0.0
 11
0.0
 21
0.0
 12
0.0
 22
0.0
 32
0.0
 14
0.0
 24
0.0
 34
0.0
 15
0.0
 25
0.0
 35
0.0
146
0.0
 13
0.0
 23
0.0
 33
0.0
 16
1.0
 26
0.0
 36
0.0
 17
0.0
 27
1.0
 37
0.0
 76
     0
330
23
  0
LAYOUT
  5
22
102
{ACAD_REACTORS
330
1A
102
}
330
1A
100
AcDbPlotSettings
  1

  2
none_device
  4
Letter_(8.50_x_11.00_Inches)
  6

 40
6.35
 41
6.35
 42
6.35000508
 43
6.35000508
 44
215.9
 45
279.4
 46
0.0
 47
0.0
 48
0.0
 49
0.0
140
0.0
141
0.0
142
1.0
143
1.0
 70
  1712
 72
     1
 73
     0
 74
     0
  7

 75
     0
147
1.0
148
0.0
149
0.0
100
AcDbLayout
  1
Model
 70
     1
 71
     0
 10
0.0
 20
0.0
 11
445.5
 21
315.0
 12
0.0
 22
0.0
 32
0.0
 14
0.0
 24
0.0
 34
0.0
 15
445.5
 25
315.0
 35
0.0
146
0.0
 13
0.0
 23
0.0
 33
0.0
 16
1.0
 26
0.0
 36
0.0
 17
0.0
 27
1.0
 37
0.0
 76
     0
330
1F
331
29
  0
MLINESTYLE
  5
18
102
{ACAD_REACTORS
330
17
102
}
330
17
100
AcDbMlineStyle
  2
Standard
 70
     0
  3

 62
   256
 51
90.0
 52
90.0
 71
     2
 49
0.5
 62
   256
  6
BYLAYER
 49
-0.5
 62
   256
  6
BYLAYER
  0
ACDBPLACEHOLDER
  5
F
102
{ACAD_REACTORS
330
E
102
}
330
E
  0
SCALE
  5
48
102
{ACAD_REACTORS
330
47
102
}
330
47
100
AcDbScale
 70
     0
300
1:1
140
1.0
141
1.0
290
     1
  0
SCALE
  5
49
102
{ACAD_REACTORS
330
47
102
}
330
47
100
AcDbScale
 70
     0
300
1:2
140
1.0
141
2.0
290
     0
  0
SCALE
  5
4A
102
{ACAD_REACTORS
330
47
102
}
330
47
100
AcDbScale
 70
     0
300
1:4
140
1.0
141
4.0
290
     0
  0
SCALE
  5
4B
102
{ACAD_REACTORS
330
47
102
}
330
47
100
AcDbScale
 70
     0
300
1:5
140
1.0
141
5.0
290
     0
  0
SCALE
  5
4C
102
{ACAD_REACTORS
330
47
102
}
330
47
100
AcDbScale
 70
     0
300
1:8
140
1.0
141
8.0
290
     0
  0
SCALE
  5
4D
102
{ACAD_REACTORS
330
47
102
}
330
47
100
AcDbScale
 70
     0
300
1:10
140
1.0
141
10.0
290
     0
  0
SCALE
  5
4E
102
{ACAD_REACTORS
330
47
102
}
330
47
100
AcDbScale
 70
     0
300
1:16
140
1.0
141
16.0
290
     0
  0
SCALE
  5
4F
102
{ACAD_REACTORS
330
47
102
}
330
47
100
AcDbScale
 70
     0
300
1:20
140
1.0
141
20.0
290
     0
  0
SCALE
  5
50
102
{ACAD_REACTORS
330
47
102
}
330
47
100
AcDbScale
 70
     0
300
1:30
140
1.0
141
30.0
290
     0
  0
SCALE
  5
51
102
{ACAD_REACTORS
330
47
102
}
330
47
100
AcDbScale
 70
     0
300
1:40
140
1.0
141
40.0
290
     0
  0
SCALE
  5
52
102
{ACAD_REACTORS
330
47
102
}
330
47
100
AcDbScale
 70
     0
300
1:50
140
1.0
141
50.0
290
     0
  0
SCALE
  5
53
102
{ACAD_REACTORS
330
47
102
}
330
47
100
AcDbScale
 70
     0
300
1:100
140
1.0
141
100.0
290
     0
  0
SCALE
  5
54
102
{ACAD_REACTORS
330
47
102
}
330
47
100
AcDbScale
 70
     0
300
2:1
140
2.0
141
1.0
290
     0
  0
SCALE
  5
55
102
{ACAD_REACTORS
330
47
102
}
330
47
100
AcDbScale
 70
     0
300
4:1
140
4.0
141
1.0
290
     0
  0
SCALE
  5
56
102
{ACAD_REACTORS
330
47
102
}
330
47
100
AcDbScale
 70
     0
300
8:1
140
8.0
141
1.0
290
     0
  0
SCALE
  5
57
102
{ACAD_REACTORS
330
47
102
}
330
47
100
AcDbScale
 70
     0
300
10:1
140
10.0
141
1.0
290
     0
  0
SCALE
  5
58
102
{ACAD_REACTORS
330
47
102
}
330
47
100
AcDbScale
 70
     0
300
100:1
140
100.0
141
1.0
290
     0
  0
SCALE
  5
59
102
{ACAD_REACTORS
330
47
102
}
330
47
100
AcDbScale
 70
     0
300
1/128" = 1'-0"
140
0.0078125
141
12.0
290
     0
  0
SCALE
  5
5A
102
{ACAD_REACTORS
330
47
102
}
330
47
100
AcDbScale
 70
     0
300
1/64" = 1'-0"
140
0.015625
141
12.0
290
     0
  0
SCALE
  5
5B
102
{ACAD_REACTORS
330
47
102
}
330
47
100
AcDbScale
 70
     0
300
1/32" = 1'-0"
140
0.03125
141
12.0
290
     0
  0
SCALE
  5
5C
102
{ACAD_REACTORS
330
47
102
}
330
47
100
AcDbScale
 70
     0
300
1/16" = 1'-0"
140
0.0625
141
12.0
290
     0
  0
SCALE
  5
5D
102
{ACAD_REACTORS
330
47
102
}
330
47
100
AcDbScale
 70
     0
300
3/32" = 1'-0"
140
0.09375
141
12.0
290
     0
  0
SCALE
  5
5E
102
{ACAD_REACTORS
330
47
102
}
330
47
100
AcDbScale
 70
     0
300
1/8" = 1'-0"
140
0.125
141
12.0
290
     0
  0
SCALE
  5
5F
102
{ACAD_REACTORS
330
47
102
}
330
47
100
AcDbScale
 70
     0
300
3/16" = 1'-0"
140
0.1875
141
12.0
290
     0
  0
SCALE
  5
60
102
{ACAD_REACTORS
330
47
102
}
330
47
100
AcDbScale
 70
     0
300
1/4" = 1'-0"
140
0.25
141
12.0
290
     0
  0
SCALE
  5
61
102
{ACAD_REACTORS
330
47
102
}
330
47
100
AcDbScale
 70
     0
300
3/8" = 1'-0"
140
0.375
141
12.0
290
     0
  0
SCALE
  5
62
102
{ACAD_REACTORS
330
47
102
}
330
47
100
AcDbScale
 70
     0
300
1/2" = 1'-0"
140
0.5
141
12.0
290
     0
  0
SCALE
  5
63
102
{ACAD_REACTORS
330
47
102
}
330
47
100
AcDbScale
 70
     0
300
3/4" = 1'-0"
140
0.75
141
12.0
290
     0
  0
SCALE
  5
64
102
{ACAD_REACTORS
330
47
102
}
330
47
100
AcDbScale
 70
     0
300
1" = 1'-0"
140
1.0
141
12.0
290
     0
  0
SCALE
  5
65
102
{ACAD_REACTORS
330
47
102
}
330
47
100
AcDbScale
 70
     0
300
1-1/2" = 1'-0"
140
1.5
141
12.0
290
     0
  0
SCALE
  5
66
102
{ACAD_REACTORS
330
47
102
}
330
47
100
AcDbScale
 70
     0
300
3" = 1'-0"
140
3.0
141
12.0
290
     0
  0
SCALE
  5
67
102
{ACAD_REACTORS
330
47
102
}
330
47
100
AcDbScale
 70
     0
300
6" = 1'-0"
140
6.0
141
12.0
290
     0
  0
SCALE
  5
68
102
{ACAD_REACTORS
330
47
102
}
330
47
100
AcDbScale
 70
     0
300
1'-0" = 1'-0"
140
12.0
141
12.0
290
     0
  0
ENDSEC
  0
EOF
