  0
SECTION
  2
HEADER
  9
$ACADVER
  1
AC1015
  9
$ACADMAINTVER
 70
     6
  9
$DWGCODEPAGE
  3
ANSI_950
  9
$INSBASE
 10
0.0
 20
0.0
 30
0.0
  9
$EXTMIN
 10
0.0
 20
0.0
 30
0.0
  9
$EXTMAX
 10
445.5
 20
315.0
 30
0.0
  9
$LIMMIN
 10
0.0
 20
0.0
  9
$LIMMAX
 10
445.5
 20
315.0
  9
$ORTHOMODE
 70
     0
  9
$REGENMODE
 70
     1
  9
$FILLMODE
 70
     1
  9
$QTEXTMODE
 70
     0
  9
$MIRRTEXT
 70
     1
  9
$LTSCALE
 40
1.5
  9
$ATTMODE
 70
     1
  9
$TEXTSIZE
 40
3.75
  9
$TRACEWID
 40
1.0
  9
$TEXTSTYLE
  7
STANDARD
  9
$CLAYER
  8
0
  9
$CELTYPE
  6
ByLayer
  9
$CECOLOR
 62
   256
  9
$CELTSCALE
 40
1.0
  9
$DISPSILH
 70
     0
  9
$DIMSCALE
 40
1.0
  9
$DIMASZ
 40
3.0
  9
$DIMEXO
 40
1.5
  9
$DIMDLI
 40
3.75
  9
$DIMRND
 40
0.0
  9
$DIMDLE
 40
0.0
  9
$DIMEXE
 40
1.5
  9
$DIMTP
 40
0.0
  9
$DIMTM
 40
0.0
  9
$DIMTXT
 40
3.75
  9
$DIMCEN
 40
2.5
  9
$DIMTSZ
 40
0.0
  9
$DIMTOL
 70
     0
  9
$DIMLIM
 70
     0
  9
$DIMTIH
 70
     1
  9
$DIMTOH
 70
     1
  9
$DIMSE1
 70
     0
  9
$DIMSE2
 70
     0
  9
$DIMTAD
 70
     1
  9
$DIMZIN
 70
     0
  9
$DIMBLK
  1

  9
$DIMASO
 70
     1
  9
$DIMSHO
 70
     1
  9
$DIMPOST
  1

  9
$DIMAPOST
  1

  9
$DIMALT
 70
     0
  9
$DIMALTD
 70
     3
  9
$DIMALTF
 40
0.0393700787
  9
$DIMLFAC
 40
1.0
  9
$DIMTOFL
 70
     1
  9
$DIMTVP
 40
0.0
  9
$DIMTIX
 70
     0
  9
$DIMSOXD
 70
     0
  9
$DIMSAH
 70
     0
  9
$DIMBLK1
  1

  9
$DIMBLK2
  1

  9
$DIMSTYLE
  2
ISO-25
  9
$DIMCLRD
 70
     0
  9
$DIMCLRE
 70
     0
  9
$DIMCLRT
 70
     0
  9
$DIMTFAC
 40
1.0
  9
$DIMGAP
 40
1.5
  9
$DIMJUST
 70
     0
  9
$DIMSD1
 70
     0
  9
$DIMSD2
 70
     0
  9
$DIMTOLJ
 70
     0
  9
$DIMTZIN
 70
     0
  9
$DIMALTZ
 70
     0
  9
$DIMALTTZ
 70
     0
  9
$DIMUPT
 70
     0
  9
$DIMDEC
 70
     2
  9
$DIMTDEC
 70
     2
  9
$DIMALTU
 70
     2
  9
$DIMALTTD
 70
     3
  9
$DIMTXSTY
  7
STANDARD
  9
$DIMAUNIT
 70
     0
  9
$DIMADEC
 70
     1
  9
$DIMALTRND
 40
0.0
  9
$DIMAZIN
 70
     0
  9
$DIMDSEP
 70
    44
  9
$DIMATFIT
 70
     3
  9
$DIMFRAC
 70
     0
  9
$DIMLDRBLK
  1

  9
$DIMLUNIT
 70
     2
  9
$DIMLWD
 70
    -2
  9
$DIMLWE
 70
    -2
  9
$DIMTMOVE
 70
     0
  9
$LUNITS
 70
     2
  9
$LUPREC
 70
     2
  9
$SKETCHINC
 40
1.0
  9
$FILLETRAD
 40
10.0
  9
$AUNITS
 70
     0
  9
$AUPREC
 70
     1
  9
$MENU
  1
.
  9
$ELEVATION
 40
0.0
  9
$PELEVATION
 40
0.0
  9
$THICKNESS
 40
0.0
  9
$LIMCHECK
 70
     0
  9
$CHAMFERA
 40
0.0
  9
$CHAMFERB
 40
0.0
  9
$CHAMFERC
 40
0.0
  9
$CHAMFERD
 40
0.0
  9
$SKPOLY
 70
     0
  9
$TDCREATE
 40
2457498.61390279
  9
$TDUCREATE
 40
2457498.280569456
  9
$TDUPDATE
 40
2457498.613908438
  9
$TDUUPDATE
 40
2457498.280575104
  9
$TDINDWG
 40
0.0000000116
  9
$TDUSRTIMER
 40
0.0000000116
  9
$USRTIMER
 70
     1
  9
$ANGBASE
 50
0.0
  9
$ANGDIR
 70
     0
  9
$PDMODE
 70
     0
  9
$PDSIZE
 40
-1.0
  9
$PLINEWID
 40
0.0
  9
$SPLFRAME
 70
     0
  9
$SPLINETYPE
 70
     6
  9
$SPLINESEGS
 70
     8
  9
$HANDSEED
  5
365
  9
$SURFTAB1
 70
     6
  9
$SURFTAB2
 70
     6
  9
$SURFTYPE
 70
     6
  9
$SURFU
 70
     6
  9
$SURFV
 70
     6
  9
$UCSBASE
  2

  9
$UCSNAME
  2

  9
$UCSORG
 10
0.0
 20
0.0
 30
0.0
  9
$UCSXDIR
 10
1.0
 20
0.0
 30
0.0
  9
$UCSYDIR
 10
0.0
 20
1.0
 30
0.0
  9
$UCSORTHOREF
  2

  9
$UCSORTHOVIEW
 70
     0
  9
$UCSORGTOP
 10
0.0
 20
0.0
 30
0.0
  9
$UCSORGBOTTOM
 10
0.0
 20
0.0
 30
0.0
  9
$UCSORGLEFT
 10
0.0
 20
0.0
 30
0.0
  9
$UCSORGRIGHT
 10
0.0
 20
0.0
 30
0.0
  9
$UCSORGFRONT
 10
0.0
 20
0.0
 30
0.0
  9
$UCSORGBACK
 10
0.0
 20
0.0
 30
0.0
  9
$PUCSBASE
  2

  9
$PUCSNAME
  2

  9
$PUCSORG
 10
0.0
 20
0.0
 30
0.0
  9
$PUCSXDIR
 10
1.0
 20
0.0
 30
0.0
  9
$PUCSYDIR
 10
0.0
 20
1.0
 30
0.0
  9
$PUCSORTHOREF
  2

  9
$PUCSORTHOVIEW
 70
     0
  9
$PUCSORGTOP
 10
0.0
 20
0.0
 30
0.0
  9
$PUCSORGBOTTOM
 10
0.0
 20
0.0
 30
0.0
  9
$PUCSORGLEFT
 10
0.0
 20
0.0
 30
0.0
  9
$PUCSORGRIGHT
 10
0.0
 20
0.0
 30
0.0
  9
$PUCSORGFRONT
 10
0.0
 20
0.0
 30
0.0
  9
$PUCSORGBACK
 10
0.0
 20
0.0
 30
0.0
  9
$USERI1
 70
     0
  9
$USERI2
 70
     0
  9
$USERI3
 70
     0
  9
$USERI4
 70
     0
  9
$USERI5
 70
     0
  9
$USERR1
 40
0.0
  9
$USERR2
 40
0.0
  9
$USERR3
 40
0.0
  9
$USERR4
 40
0.0
  9
$USERR5
 40
0.0
  9
$WORLDVIEW
 70
     1
  9
$SHADEDGE
 70
     3
  9
$SHADEDIF
 70
    70
  9
$TILEMODE
 70
     1
  9
$MAXACTVP
 70
    64
  9
$PINSBASE
 10
0.0
 20
0.0
 30
0.0
  9
$PLIMCHECK
 70
     0
  9
$PEXTMIN
 10
1.0000000000E+20
 20
1.0000000000E+20
 30
1.0000000000E+20
  9
$PEXTMAX
 10
-1.0000000000E+20
 20
-1.0000000000E+20
 30
-1.0000000000E+20
  9
$PLIMMIN
 10
0.0
 20
0.0
  9
$PLIMMAX
 10
420.0
 20
297.0
  9
$UNITMODE
 70
     0
  9
$VISRETAIN
 70
     1
  9
$PLINEGEN
 70
     0
  9
$PSLTSCALE
 70
     1
  9
$TREEDEPTH
 70
  3020
  9
$CMLSTYLE
  2
Standard
  9
$CMLJUST
 70
     0
  9
$CMLSCALE
 40
20.0
  9
$PROXYGRAPHICS
 70
     1
  9
$MEASUREMENT
 70
     1
  9
$CELWEIGHT
370
    -1
  9
$ENDCAPS
280
     0
  9
$JOINSTYLE
280
     0
  9
$LWDISPLAY
290
     1
  9
$INSUNITS
 70
     4
  9
$HYPERLINKBASE
  1

  9
$STYLESHEET
  1

  9
$XEDIT
290
     1
  9
$CEPSNTYPE
380
     0
  9
$PSTYLEMODE
290
     1
  9
$FINGERPRINTGUID
  2
{211E50B1-8127-42B6-AC45-FFC765D911C4}
  9
$VERSIONGUID
  2
{FAEB1C32-E019-11D5-929B-00C0DF256EC4}
  9
$EXTNAMES
290
     1
  9
$PSVPSCALE
 40
0.0
  9
$OLESTARTUP
290
     0
  0
ENDSEC
  0
SECTION
  2
CLASSES
  0
CLASS
  1
ACDBDICTIONARYWDFLT
  2
AcDbDictionaryWithDefault
  3
ObjectDBX Classes
 90
        0
280
     0
281
     0
  0
CLASS
  1
VISUALSTYLE
  2
AcDbVisualStyle
  3
ObjectDBX Classes
 90
     4095
280
     0
281
     0
  0
CLASS
  1
MATERIAL
  2
AcDbMaterial
  3
ObjectDBX Classes
 90
     1153
280
     0
281
     0
  0
CLASS
  1
SCALE
  2
AcDbScale
  3
ObjectDBX Classes
 90
     1153
280
     0
281
     0
  0
CLASS
  1
TABLESTYLE
  2
AcDbTableStyle
  3
ObjectDBX Classes
 90
     4095
280
     0
281
     0
  0
CLASS
  1
MLEADERSTYLE
  2
AcDbMLeaderStyle
  3
ACDB_MLEADERSTYLE_CLASS
 90
     4095
280
     0
281
     0
  0
CLASS
  1
SUN
  2
AcDbSun
  3
SCENEOE
 90
     1153
280
     0
281
     0
  0
CLASS
  1
ACDBPLACEHOLDER
  2
AcDbPlaceHolder
  3
ObjectDBX Classes
 90
        0
280
     0
281
     0
  0
CLASS
  1
LAYOUT
  2
AcDbLayout
  3
ObjectDBX Classes
 90
        0
280
     0
281
     0
  0
ENDSEC
  0
SECTION
  2
TABLES
  0
TABLE
  2
VPORT
  5
8
330
0
100
AcDbSymbolTable
 70
     1
  0
VPORT
  5
29
330
8
100
AcDbSymbolTableRecord
100
AcDbViewportTableRecord
  2
*Active
 70
     0
 10
0.0
 20
0.0
 11
1.0
 21
1.0
 12
222.75
 22
157.5
 13
0.0
 23
0.0
 14
10.0
 24
10.0
 15
10.0
 25
10.0
 16
0.0
 26
0.0
 36
1.0
 17
0.0
 27
0.0
 37
0.0
 40
315.0
 41
1.4142857143
 42
50.0
 43
0.0
 44
0.0
 50
0.0
 51
0.0
 71
     0
 72
  2000
 73
     1
 74
     3
 75
     0
 76
     0
 77
     0
 78
     0
281
     0
 65
     1
110
0.0
120
0.0
130
0.0
111
1.0
121
0.0
131
0.0
112
0.0
122
1.0
132
0.0
 79
     0
146
0.0
  0
ENDTAB
  0
TABLE
  2
LTYPE
  5
5
330
0
100
AcDbSymbolTable
 70
     6
  0
LTYPE
  5
14
330
5
100
AcDbSymbolTableRecord
100
AcDbLinetypeTableRecord
  2
ByBlock
 70
     0
  3

 72
    65
 73
     0
 40
0.0
  0
LTYPE
  5
15
330
5
100
AcDbSymbolTableRecord
100
AcDbLinetypeTableRecord
  2
ByLayer
 70
     0
  3

 72
    65
 73
     0
 40
0.0
  0
LTYPE
  5
16
330
5
100
AcDbSymbolTableRecord
100
AcDbLinetypeTableRecord
  2
Continuous
 70
     0
  3
Solid line
 72
    65
 73
     0
 40
0.0
  0
LTYPE
  5
6E
330
5
100
AcDbSymbolTableRecord
100
AcDbLinetypeTableRecord
  2
HIDDEN
 70
     0
  3
Hidden __ __ __ __ __ __ __ __ __ __ __ __ __ __
 72
    65
 73
     2
 40
1.905
 49
1.27
 74
     0
 49
-0.635
 74
     0
  0
LTYPE
  5
6F
330
5
100
AcDbSymbolTableRecord
100
AcDbLinetypeTableRecord
  2
PHANTOM
 70
     0
  3
Phantom ______  __  __  ______  __  __  ______
 72
    65
 73
     6
 40
12.7
 49
6.35
 74
     0
 49
-1.27
 74
     0
 49
1.27
 74
     0
 49
-1.27
 74
     0
 49
1.27
 74
     0
 49
-1.27
 74
     0
  0
LTYPE
  5
70
330
5
100
AcDbSymbolTableRecord
100
AcDbLinetypeTableRecord
  2
CENTER
 70
     0
  3
Center ____ _ ____ _ ____ _ ____ _ ____ _ ____
 72
    65
 73
     4
 40
10.16
 49
6.35
 74
     0
 49
-1.27
 74
     0
 49
1.27
 74
     0
 49
-1.27
 74
     0
  0
LTYPE
  5
71
330
5
100
AcDbSymbolTableRecord
100
AcDbLinetypeTableRecord
  2
CENTERX2
 70
     0
  3
Center (2x) ________  __  ________  __  _____
 72
    65
 73
     4
 40
20.32
 49
12.7
 74
     0
 49
-2.54
 74
     0
 49
2.54
 74
     0
 49
-2.54
 74
     0
  0
LTYPE
  5
72
330
5
100
AcDbSymbolTableRecord
100
AcDbLinetypeTableRecord
  2
DOT2
 70
     0
  3
Dot (.5x) ........................................
 72
    65
 73
     2
 40
0.635
 49
0.0
 74
     0
 49
-0.635
 74
     0
  0
ENDTAB
  0
TABLE
  2
LAYER
  5
2
330
0
100
AcDbSymbolTable
 70
     3
  0
LAYER
  5
10
330
2
100
AcDbSymbolTableRecord
100
AcDbLayerTableRecord
  2
0
 70
     0
 62
     7
  6
Continuous
370
    -3
390
F
  0
LAYER
  5
73
330
2
100
AcDbSymbolTableRecord
100
AcDbLayerTableRecord
  2
SLD-0
 70
     0
 62
     7
  6
Continuous
370
    15
390
F
  0
LAYER
  5
74
330
2
100
AcDbSymbolTableRecord
100
AcDbLayerTableRecord
  2
DIM
 70
     0
 62
     7
  6
Continuous
370
    -3
390
F
  0
ENDTAB
  0
TABLE
  2
STYLE
  5
3
330
0
100
AcDbSymbolTable
 70
     4
  0
STYLE
  5
11
330
3
100
AcDbSymbolTableRecord
100
AcDbTextStyleTableRecord
  2
STANDARD
 70
     0
 40
0.0
 41
1.0
 50
0.0
 71
     0
 42
3.75
  3
ARIAL.TTF
  4

1001
ACAD
1000
ARIAL
1071
       34
  0
STYLE
  5
C5
330
3
100
AcDbSymbolTableRecord
100
AcDbTextStyleTableRecord
  2
SLDTEXTSTYLE0
 70
     0
 40
0.0
 41
0.948
 50
0.0
 71
     0
 42
3.75
  3
ARIAL.TTF
  4

1001
ACAD
1000
Arial
1071
      290
  0
STYLE
  5
CE
330
3
100
AcDbSymbolTableRecord
100
AcDbTextStyleTableRecord
  2
SLDTEXTSTYLE1
 70
     0
 40
0.0
 41
1.0
 50
0.0
 71
     0
 42
3.75
  3
ARIALBD.TTF
  4

1001
ACAD
1000
Arial CE
1071
 33554722
  0
STYLE
  5
101
330
3
100
AcDbSymbolTableRecord
100
AcDbTextStyleTableRecord
  2
SLDTEXTSTYLE2
 70
     0
 40
0.0
 41
1.0
 50
0.0
 71
     0
 42
3.75
  3
ARIAL.TTF
  4

1001
ACAD
1000
Arial CE
1071
      290
  0
ENDTAB
  0
TABLE
  2
VIEW
  5
6
330
0
100
AcDbSymbolTable
 70
     0
  0
ENDTAB
  0
TABLE
  2
UCS
  5
7
330
0
100
AcDbSymbolTable
 70
     0
  0
ENDTAB
  0
TABLE
  2
APPID
  5
9
330
0
100
AcDbSymbolTable
 70
     1
  0
APPID
  5
12
330
9
100
AcDbSymbolTableRecord
100
AcDbRegAppTableRecord
  2
ACAD
 70
     0
  0
ENDTAB
  0
TABLE
  2
DIMSTYLE
  5
A
330
0
100
AcDbSymbolTable
 70
     5
100
AcDbDimStyleTable
  0
DIMSTYLE
105
27
330
A
100
AcDbSymbolTableRecord
100
AcDbDimStyleTableRecord
  2
ISO-25
 70
     0
 41
2.5
 42
0.625
 43
3.75
 44
1.25
 73
     0
 74
     0
 77
     1
 78
     8
140
2.5
141
2.5
143
0.0393700787
147
0.625
171
     3
172
     1
178
     0
271
     2
272
     2
274
     3
278
    44
283
     0
284
     8
340
11
  0
DIMSTYLE
105
12A
102
{ACAD_REACTORS
330
129
330
134
330
166
330
170
330
17A
330
184
330
18E
330
198
330
1A2
330
1AC
330
1B6
330
1C0
330
35B
102
}
330
A
100
AcDbSymbolTableRecord
100
AcDbDimStyleTableRecord
  2
SLDDIMSTYLE0
 70
     0
 41
3.0
 44
0.0
 45
0.000000001
 73
     0
 74
     0
 77
     1
 78
    12
 79
     3
140
3.75
147
0.9375
173
     1
178
     0
271
     2
272
     2
276
     2
284
    12
340
C5
  0
DIMSTYLE
105
13F
102
{ACAD_REACTORS
330
13E
330
148
102
}
330
A
100
AcDbSymbolTableRecord
100
AcDbDimStyleTableRecord
  2
SLDDIMSTYLE1
 70
     0
  3
<>
 41
3.0
 44
0.0
 45
0.000000001
 78
    12
 79
     3
140
3.75
141
0.0
147
0.9375
173
     1
178
     0
271
     2
272
     2
276
     2
284
    12
340
C5
  0
DIMSTYLE
105
152
102
{ACAD_REACTORS
330
151
330
15C
102
}
330
A
100
AcDbSymbolTableRecord
100
AcDbDimStyleTableRecord
  2
SLDDIMSTYLE2
 70
     0
 41
3.0
 44
0.0
 45
0.000000001
 73
     0
 74
     0
 77
     1
 78
    12
 79
     3
140
3.3
147
0.825
173
     1
178
     0
271
     2
272
     2
276
     2
284
    12
340
C5
  0
DIMSTYLE
105
1CB
102
{ACAD_REACTORS
330
1CA
102
}
330
A
100
AcDbSymbolTableRecord
100
AcDbDimStyleTableRecord
  2
SLDDIMSTYLE3
 70
     0
  3
<>
 41
3.0
 44
0.0
 45
0.000000001
 78
    12
 79
     3
140
3.75
141
0.0
147
0.9375
173
     1
178
     0
271
     2
272
     2
276
     2
284
    12
340
C5
  0
ENDTAB
  0
TABLE
  2
BLOCK_RECORD
  5
1
330
0
100
AcDbSymbolTable
 70
    45
  0
BLOCK_RECORD
  5
1F
330
1
100
AcDbSymbolTableRecord
100
AcDbBlockTableRecord
  2
*Model_Space
340
22
  0
BLOCK_RECORD
  5
1B
330
1
100
AcDbSymbolTableRecord
100
AcDbBlockTableRecord
  2
*Paper_Space
340
1E
  0
BLOCK_RECORD
  5
23
330
1
100
AcDbSymbolTableRecord
100
AcDbBlockTableRecord
  2
*Paper_Space0
340
26
  0
BLOCK_RECORD
  5
C7
330
1
100
AcDbSymbolTableRecord
100
AcDbBlockTableRecord
  2
SW_NOTE_0
340
0
102
{BLKREFS
331
CD
102
}
  0
BLOCK_RECORD
  5
FE
330
1
100
AcDbSymbolTableRecord
100
AcDbBlockTableRecord
  2
SW_NOTE_1
340
0
102
{BLKREFS
331
104
102
}
  0
BLOCK_RECORD
  5
12B
330
1
100
AcDbSymbolTableRecord
100
AcDbBlockTableRecord
  2
_D
340
0
  0
BLOCK_RECORD
  5
135
330
1
100
AcDbSymbolTableRecord
100
AcDbBlockTableRecord
  2
_D_1
340
0
  0
BLOCK_RECORD
  5
140
330
1
100
AcDbSymbolTableRecord
100
AcDbBlockTableRecord
  2
_D_2
340
0
  0
BLOCK_RECORD
  5
149
330
1
100
AcDbSymbolTableRecord
100
AcDbBlockTableRecord
  2
_D_3
340
0
  0
BLOCK_RECORD
  5
153
330
1
100
AcDbSymbolTableRecord
100
AcDbBlockTableRecord
  2
_D_4
340
0
  0
BLOCK_RECORD
  5
15D
330
1
100
AcDbSymbolTableRecord
100
AcDbBlockTableRecord
  2
_D_5
340
0
  0
BLOCK_RECORD
  5
167
330
1
100
AcDbSymbolTableRecord
100
AcDbBlockTableRecord
  2
_D_6
340
0
  0
BLOCK_RECORD
  5
171
330
1
100
AcDbSymbolTableRecord
100
AcDbBlockTableRecord
  2
_D_7
340
0
  0
BLOCK_RECORD
  5
17B
330
1
100
AcDbSymbolTableRecord
100
AcDbBlockTableRecord
  2
_D_8
340
0
  0
BLOCK_RECORD
  5
185
330
1
100
AcDbSymbolTableRecord
100
AcDbBlockTableRecord
  2
_D_9
340
0
  0
BLOCK_RECORD
  5
18F
330
1
100
AcDbSymbolTableRecord
100
AcDbBlockTableRecord
  2
_D_10
340
0
  0
BLOCK_RECORD
  5
199
330
1
100
AcDbSymbolTableRecord
100
AcDbBlockTableRecord
  2
_D_11
340
0
  0
BLOCK_RECORD
  5
1A3
330
1
100
AcDbSymbolTableRecord
100
AcDbBlockTableRecord
  2
_D_12
340
0
  0
BLOCK_RECORD
  5
1AD
330
1
100
AcDbSymbolTableRecord
100
AcDbBlockTableRecord
  2
_D_13
340
0
  0
BLOCK_RECORD
  5
1B7
330
1
100
AcDbSymbolTableRecord
100
AcDbBlockTableRecord
  2
_D_14
340
0
  0
BLOCK_RECORD
  5
1C1
330
1
100
AcDbSymbolTableRecord
100
AcDbBlockTableRecord
  2
_D_15
340
0
  0
BLOCK_RECORD
  5
1CC
330
1
100
AcDbSymbolTableRecord
100
AcDbBlockTableRecord
  2
_D_16
340
0
  0
BLOCK_RECORD
  5
1D4
330
1
100
AcDbSymbolTableRecord
100
AcDbBlockTableRecord
  2
SW_CENTERMARKSYMBOL_0
340
0
102
{BLKREFS
331
1DF
102
}
  0
BLOCK_RECORD
  5
1E0
330
1
100
AcDbSymbolTableRecord
100
AcDbBlockTableRecord
  2
SW_CENTERMARKSYMBOL_1
340
0
102
{BLKREFS
331
1EB
102
}
  0
BLOCK_RECORD
  5
1EC
330
1
100
AcDbSymbolTableRecord
100
AcDbBlockTableRecord
  2
SW_CENTERMARKSYMBOL_2
340
0
102
{BLKREFS
331
1F7
102
}
  0
BLOCK_RECORD
  5
1F8
330
1
100
AcDbSymbolTableRecord
100
AcDbBlockTableRecord
  2
SW_CENTERMARKSYMBOL_3
340
0
102
{BLKREFS
331
203
102
}
  0
BLOCK_RECORD
  5
204
330
1
100
AcDbSymbolTableRecord
100
AcDbBlockTableRecord
  2
SW_CENTERMARKSYMBOL_4
340
0
102
{BLKREFS
331
20F
102
}
  0
BLOCK_RECORD
  5
210
330
1
100
AcDbSymbolTableRecord
100
AcDbBlockTableRecord
  2
SW_CENTERMARKSYMBOL_5
340
0
102
{BLKREFS
331
21B
102
}
  0
BLOCK_RECORD
  5
21C
330
1
100
AcDbSymbolTableRecord
100
AcDbBlockTableRecord
  2
SW_CENTERMARKSYMBOL_6
340
0
102
{BLKREFS
331
227
102
}
  0
BLOCK_RECORD
  5
228
330
1
100
AcDbSymbolTableRecord
100
AcDbBlockTableRecord
  2
SW_CENTERMARKSYMBOL_7
340
0
102
{BLKREFS
331
233
102
}
  0
BLOCK_RECORD
  5
234
330
1
100
AcDbSymbolTableRecord
100
AcDbBlockTableRecord
  2
SW_CENTERMARKSYMBOL_8
340
0
102
{BLKREFS
331
23F
102
}
  0
BLOCK_RECORD
  5
240
330
1
100
AcDbSymbolTableRecord
100
AcDbBlockTableRecord
  2
SW_CENTERMARKSYMBOL_9
340
0
102
{BLKREFS
331
24B
102
}
  0
BLOCK_RECORD
  5
24C
330
1
100
AcDbSymbolTableRecord
100
AcDbBlockTableRecord
  2
SW_CENTERMARKSYMBOL_10
340
0
102
{BLKREFS
331
257
102
}
  0
BLOCK_RECORD
  5
258
330
1
100
AcDbSymbolTableRecord
100
AcDbBlockTableRecord
  2
SW_CENTERMARKSYMBOL_11
340
0
102
{BLKREFS
331
263
102
}
  0
BLOCK_RECORD
  5
264
330
1
100
AcDbSymbolTableRecord
100
AcDbBlockTableRecord
  2
SW_CENTERMARKSYMBOL_12
340
0
102
{BLKREFS
331
26F
102
}
  0
BLOCK_RECORD
  5
270
330
1
100
AcDbSymbolTableRecord
100
AcDbBlockTableRecord
  2
SW_CENTERMARKSYMBOL_13
340
0
102
{BLKREFS
331
27B
102
}
  0
BLOCK_RECORD
  5
27C
330
1
100
AcDbSymbolTableRecord
100
AcDbBlockTableRecord
  2
SW_CENTERMARKSYMBOL_14
340
0
102
{BLKREFS
331
287
102
}
  0
BLOCK_RECORD
  5
288
330
1
100
AcDbSymbolTableRecord
100
AcDbBlockTableRecord
  2
SW_CENTERMARKSYMBOL_15
340
0
102
{BLKREFS
331
293
102
}
  0
BLOCK_RECORD
  5
294
330
1
100
AcDbSymbolTableRecord
100
AcDbBlockTableRecord
  2
SW_CENTERMARKSYMBOL_16
340
0
102
{BLKREFS
331
29F
102
}
  0
BLOCK_RECORD
  5
2A0
330
1
100
AcDbSymbolTableRecord
100
AcDbBlockTableRecord
  2
SW_CENTERMARKSYMBOL_17
340
0
102
{BLKREFS
331
2AB
102
}
  0
BLOCK_RECORD
  5
2AC
330
1
100
AcDbSymbolTableRecord
100
AcDbBlockTableRecord
  2
SW_CENTERMARKSYMBOL_18
340
0
102
{BLKREFS
331
2B7
102
}
  0
BLOCK_RECORD
  5
2B8
330
1
100
AcDbSymbolTableRecord
100
AcDbBlockTableRecord
  2
SW_CENTERMARKSYMBOL_19
340
0
102
{BLKREFS
331
2C3
102
}
  0
BLOCK_RECORD
  5
2C4
330
1
100
AcDbSymbolTableRecord
100
AcDbBlockTableRecord
  2
SW_CENTERMARKSYMBOL_20
340
0
102
{BLKREFS
331
2CF
102
}
  0
BLOCK_RECORD
  5
2D0
330
1
100
AcDbSymbolTableRecord
100
AcDbBlockTableRecord
  2
SW_CENTERMARKSYMBOL_21
340
0
102
{BLKREFS
331
2DB
102
}
  0
BLOCK_RECORD
  5
2DC
330
1
100
AcDbSymbolTableRecord
100
AcDbBlockTableRecord
  2
SW_CENTERMARKSYMBOL_22
340
0
102
{BLKREFS
331
2E7
102
}
  0
BLOCK_RECORD
  5
2E8
330
1
100
AcDbSymbolTableRecord
100
AcDbBlockTableRecord
  2
SW_CENTERMARKSYMBOL_23
340
0
102
{BLKREFS
331
2F3
102
}
  0
BLOCK_RECORD
  5
35C
330
1
100
AcDbSymbolTableRecord
100
AcDbBlockTableRecord
  2
_D_17
340
0
  0
ENDTAB
  0
ENDSEC
  0
SECTION
  2
BLOCKS
  0
BLOCK
  5
20
330
1F
100
AcDbEntity
  8
0
100
AcDbBlockBegin
  2
*Model_Space
 70
     0
 10
0.0
 20
0.0
 30
0.0
  3
*Model_Space
  1

  0
ENDBLK
  5
21
330
1F
100
AcDbEntity
  8
0
100
AcDbBlockEnd
  0
BLOCK
  5
1C
330
1B
100
AcDbEntity
 67
     1
  8
0
100
AcDbBlockBegin
  2
*Paper_Space
 70
     0
 10
0.0
 20
0.0
 30
0.0
  3
*Paper_Space
  1

  0
ENDBLK
  5
1D
330
1B
100
AcDbEntity
 67
     1
  8
0
100
AcDbBlockEnd
  0
BLOCK
  5
24
330
23
100
AcDbEntity
  8
0
100
AcDbBlockBegin
  2
*Paper_Space0
 70
     0
 10
0.0
 20
0.0
 30
0.0
  3
*Paper_Space0
  1

  0
ENDBLK
  5
25
330
23
100
AcDbEntity
  8
0
100
AcDbBlockEnd
  0
BLOCK
  5
C8
330
C7
100
AcDbEntity
  8
0
100
AcDbBlockBegin
  2
SW_NOTE_0
 70
     0
 10
0.0
 20
0.0
 30
0.0
  3
SW_NOTE_0
  1

  0
MTEXT
  5
CA
330
C7
100
AcDbEntity
  8
0
  6
Continuous
 62
     0
370
     0
100
AcDbMText
 10
0.0
 20
5.1159875922
 30
0.0
 40
3.96875
 41
0.0
 71
     1
 72
     1
  1
PROPRIETARY AND CONFIDENTIAL
  7
SLDTEXTSTYLE0
 73
     1
 44
1.0
  0
MTEXT
  5
CB
330
C7
100
AcDbEntity
  8
0
  6
Continuous
 62
     0
370
     0
100
AcDbMText
 10
0.0
 20
-0.12297522
 30
0.0
 40
2.778125
 41
0.0
 71
     1
 72
     1
  1
THE INFORMATION CONTAINED IN THIS DRAWING IS THE SOLE PROPERTY OF UNICE E-O SERVICES INC. ANY REPRODUCTION IN PART OR AS A WHOLE WITHOUT THE WRITTEN PERMISSION OF UNICE E-O SERVICES INC IS 
  7
SLDTEXTSTYLE0
 73
     1
 44
1.0
  0
MTEXT
  5
CC
330
C7
100
AcDbEntity
  8
0
  6
Continuous
 62
     0
370
     0
100
AcDbMText
 10
0.0
 20
-3.8271418419
 30
0.0
 40
2.778125
 41
0.0
 71
     1
 72
     1
  1
PROHIBITED.
  7
SLDTEXTSTYLE0
 73
     1
 44
1.0
  0
ENDBLK
  5
C9
330
C7
100
AcDbEntity
  8
0
100
AcDbBlockEnd
  0
BLOCK
  5
FF
330
FE
100
AcDbEntity
  8
0
100
AcDbBlockBegin
  2
SW_NOTE_1
 70
     0
 10
0.0
 20
0.0
 30
0.0
  3
SW_NOTE_1
  1

  0
MTEXT
  5
102
330
FE
100
AcDbEntity
  8
SLD-0
 62
     0
100
AcDbMText
 10
0.0
 20
3.5811913146
 30
0.0
 40
2.778125
 41
0.0
 71
     1
 72
     1
  1
No.5, Andong Rd., Chung Li District,
  7
SLDTEXTSTYLE2
 73
     1
 44
1.0
  0
MTEXT
  5
103
330
FE
100
AcDbEntity
  8
SLD-0
 62
     0
100
AcDbMText
 10
0.0
 20
-0.1229753073
 30
0.0
 40
2.778125
 41
0.0
 71
     1
 72
     1
  1
Taoyuan City 32063, Taiwan, R.O.C.
  7
SLDTEXTSTYLE2
 73
     1
 44
1.0
  0
ENDBLK
  5
100
330
FE
100
AcDbEntity
  8
0
100
AcDbBlockEnd
  0
BLOCK
  5
12C
330
12B
100
AcDbEntity
  8
0
100
AcDbBlockBegin
  2
_D
 70
     0
 10
0.0
 20
0.0
 30
0.0
  3
_D
  1

  0
SOLID
  5
12E
330
12B
100
AcDbEntity
  8
SLD-0
100
AcDbTrace
 10
172.7353717073
 20
64.0119786288
 30
0.0
 11
169.7353717073
 21
64.3869786288
 31
0.0
 12
169.7353717073
 22
63.6369786288
 32
0.0
 13
169.7353717073
 23
63.6369786288
 33
0.0
  0
SOLID
  5
12F
330
12B
100
AcDbEntity
  8
SLD-0
100
AcDbTrace
 10
96.7353717073
 20
64.0119786288
 30
0.0
 11
99.7353717073
 21
63.6369786288
 31
0.0
 12
99.7353717073
 22
64.3869786288
 32
0.0
 13
99.7353717073
 23
64.3869786288
 33
0.0
  0
LINE
  5
130
330
12B
100
AcDbEntity
  8
SLD-0
100
AcDbLine
 10
172.7353717073
 20
99.0119786288
 30
0.0
 11
172.7353717073
 21
62.5119786288
 31
0.0
  0
LINE
  5
131
330
12B
100
AcDbEntity
  8
SLD-0
100
AcDbLine
 10
96.7353717073
 20
99.0119786288
 30
0.0
 11
96.7353717073
 21
62.5119786288
 31
0.0
  0
LINE
  5
132
330
12B
100
AcDbEntity
  8
SLD-0
100
AcDbLine
 10
172.7353717073
 20
64.0119786288
 30
0.0
 11
96.7353717073
 21
64.0119786288
 31
0.0
  0
MTEXT
  5
133
330
12B
100
AcDbEntity
  8
SLD-0
100
AcDbMText
 10
131.8721547727
 20
68.845982391
 30
0.0
 40
3.75
 41
0.0
 71
     1
 72
     1
  1
76
  7
SLDTEXTSTYLE0
 73
     1
 44
1.0
  0
ENDBLK
  5
12D
330
12B
100
AcDbEntity
  8
0
100
AcDbBlockEnd
  0
BLOCK
  5
136
330
135
100
AcDbEntity
  8
0
100
AcDbBlockBegin
  2
_D_1
 70
     0
 10
0.0
 20
0.0
 30
0.0
  3
_D_1
  1

  0
SOLID
  5
138
330
135
100
AcDbEntity
  8
SLD-0
100
AcDbTrace
 10
46.7251885492
 20
222.5119786288
 30
0.0
 11
46.3501885492
 21
219.5119786288
 31
0.0
 12
47.1001885492
 22
219.5119786288
 32
0.0
 13
47.1001885492
 23
219.5119786288
 33
0.0
  0
SOLID
  5
139
330
135
100
AcDbEntity
  8
SLD-0
100
AcDbTrace
 10
46.7251885492
 20
95.5119786288
 30
0.0
 11
47.1001885492
 21
98.5119786288
 31
0.0
 12
46.3501885492
 22
98.5119786288
 32
0.0
 13
46.3501885492
 23
98.5119786288
 33
0.0
  0
LINE
  5
13A
330
135
100
AcDbEntity
  8
SLD-0
100
AcDbLine
 10
100.2353717073
 20
222.5119786288
 30
0.0
 11
45.2251885492
 21
222.5119786288
 31
0.0
  0
LINE
  5
13B
330
135
100
AcDbEntity
  8
SLD-0
100
AcDbLine
 10
100.2353717073
 20
95.5119786288
 30
0.0
 11
45.2251885492
 21
95.5119786288
 31
0.0
  0
LINE
  5
13C
330
135
100
AcDbEntity
  8
SLD-0
100
AcDbLine
 10
46.7251885492
 20
222.5119786288
 30
0.0
 11
46.7251885492
 21
95.5119786288
 31
0.0
  0
MTEXT
  5
13D
330
135
100
AcDbEntity
  8
SLD-0
100
AcDbMText
 10
41.891184787
 20
154.7161105404
 30
0.0
 40
3.75
 41
0.0
 71
     1
 72
     1
  1
127
  7
SLDTEXTSTYLE0
 11
-3.491481338843133E-15
 21
1.0
 31
0.0
 73
     1
 44
1.0
  0
ENDBLK
  5
137
330
135
100
AcDbEntity
  8
0
100
AcDbBlockEnd
  0
BLOCK
  5
141
330
140
100
AcDbEntity
  8
0
100
AcDbBlockBegin
  2
_D_2
 70
     0
 10
0.0
 20
0.0
 30
0.0
  3
_D_2
  1

  0
SOLID
  5
143
330
140
100
AcDbEntity
  8
SLD-0
100
AcDbTrace
 10
148.6640669433
 20
195.6865515134
 30
0.0
 11
151.0740975733
 21
193.8610714773
 31
0.0
 12
151.4492917167
 22
194.5104784027
 32
0.0
 13
151.4492917167
 23
194.5104784027
 33
0.0
  0
LINE
  5
144
330
140
100
AcDbEntity
  8
SLD-0
100
AcDbLine
 10
148.6640669433
 20
195.6865515134
 30
0.0
 11
178.6356041932
 21
178.3705285341
 31
0.0
  0
LINE
  5
145
330
140
100
AcDbEntity
  8
SLD-0
100
AcDbLine
 10
178.6356041932
 20
178.3705285341
 30
0.0
 11
208.4624503789
 21
178.3705285341
 31
0.0
  0
MTEXT
  5
146
330
140
100
AcDbEntity
  8
SLD-0
100
AcDbMText
 10
182.8918541932
 20
183.2045322963
 30
0.0
 40
3.75
 41
0.0
 71
     1
 72
     1
  1
 M4
  7
SLDTEXTSTYLE0
 73
     1
 44
1.0
  0
MTEXT
  5
147
330
140
100
AcDbEntity
  8
SLD-0
100
AcDbMText
 10
182.8918541932
 20
188.9559906398
 30
0.0
 40
3.75
 41
0.0
 71
     1
 72
     1
  1
8 HOLES,
  7
SLDTEXTSTYLE0
 73
     1
 44
1.0
  0
ENDBLK
  5
142
330
140
100
AcDbEntity
  8
0
100
AcDbBlockEnd
  0
BLOCK
  5
14A
330
149
100
AcDbEntity
  8
0
100
AcDbBlockBegin
  2
_D_3
 70
     0
 10
0.0
 20
0.0
 30
0.0
  3
_D_3
  1

  0
SOLID
  5
14C
330
149
100
AcDbEntity
  8
SLD-0
100
AcDbTrace
 10
162.1505038
 20
209.6578400498
 30
0.0
 11
165.1455415243
 21
210.0706039411
 31
0.0
 12
164.951783098
 22
210.7951435688
 32
0.0
 13
164.951783098
 23
210.7951435688
 33
0.0
  0
LINE
  5
14D
330
149
100
AcDbEntity
  8
SLD-0
100
AcDbLine
 10
162.1505038
 20
209.6578400498
 30
0.0
 11
180.0291409814
 21
214.4389955196
 31
0.0
  0
LINE
  5
14E
330
149
100
AcDbEntity
  8
SLD-0
100
AcDbLine
 10
180.0291409814
 20
214.4389955196
 30
0.0
 11
212.7212894746
 21
214.4389955196
 31
0.0
  0
MTEXT
  5
14F
330
149
100
AcDbEntity
  8
SLD-0
100
AcDbMText
 10
184.2853909814
 20
219.2729992818
 30
0.0
 40
3.75
 41
0.0
 71
     1
 72
     1
  1
 M6
  7
SLDTEXTSTYLE0
 73
     1
 44
1.0
  0
MTEXT
  5
150
330
149
100
AcDbEntity
  8
SLD-0
100
AcDbMText
 10
184.2853909814
 20
225.0244576254
 30
0.0
 40
3.75
 41
0.0
 71
     1
 72
     1
  1
14 HOLES,
  7
SLDTEXTSTYLE0
 73
     1
 44
1.0
  0
ENDBLK
  5
14B
330
149
100
AcDbEntity
  8
0
100
AcDbBlockEnd
  0
BLOCK
  5
154
330
153
100
AcDbEntity
  8
0
100
AcDbBlockBegin
  2
_D_4
 70
     0
 10
0.0
 20
0.0
 30
0.0
  3
_D_4
  1

  0
SOLID
  5
156
330
153
100
AcDbEntity
  8
SLD-0
 62
     7
100
AcDbTrace
 10
87.7807264276
 20
171.5119786288
 30
0.0
 11
87.4057264276
 21
168.5119786288
 31
0.0
 12
88.1557264276
 22
168.5119786288
 32
0.0
 13
88.1557264276
 23
168.5119786288
 33
0.0
  0
SOLID
  5
157
330
153
100
AcDbEntity
  8
SLD-0
 62
     7
100
AcDbTrace
 10
87.7807264276
 20
159.0119786288
 30
0.0
 11
88.1557264276
 21
162.0119786288
 31
0.0
 12
87.4057264276
 22
162.0119786288
 32
0.0
 13
87.4057264276
 23
162.0119786288
 33
0.0
  0
LINE
  5
158
330
153
100
AcDbEntity
  8
SLD-0
 62
     7
100
AcDbLine
 10
120.7353717073
 20
171.5119786288
 30
0.0
 11
86.2807264276
 21
171.5119786288
 31
0.0
  0
LINE
  5
159
330
153
100
AcDbEntity
  8
SLD-0
 62
     7
100
AcDbLine
 10
114.2353717073
 20
159.0119786288
 30
0.0
 11
86.2807264276
 21
159.0119786288
 31
0.0
  0
LINE
  5
15A
330
153
100
AcDbEntity
  8
SLD-0
 62
     7
100
AcDbLine
 10
87.7807264276
 20
171.5119786288
 30
0.0
 11
87.7807264276
 21
159.0119786288
 31
0.0
  0
MTEXT
  5
15B
330
153
100
AcDbEntity
  8
SLD-0
 62
     7
100
AcDbMText
 10
83.5268029736
 20
160.8505201254
 30
0.0
 40
3.3
 41
0.0
 71
     1
 72
     1
  1
12.5
  7
SLDTEXTSTYLE0
 11
-3.491481338843133E-15
 21
1.0
 31
0.0
 73
     1
 44
1.0
  0
ENDBLK
  5
155
330
153
100
AcDbEntity
  8
0
100
AcDbBlockEnd
  0
BLOCK
  5
15E
330
15D
100
AcDbEntity
  8
0
100
AcDbBlockBegin
  2
_D_5
 70
     0
 10
0.0
 20
0.0
 30
0.0
  3
_D_5
  1

  0
SOLID
  5
160
330
15D
100
AcDbEntity
  8
SLD-0
 62
     7
100
AcDbTrace
 10
87.7807264276
 20
159.0119786288
 30
0.0
 11
87.4057264276
 21
156.0119786288
 31
0.0
 12
88.1557264276
 22
156.0119786288
 32
0.0
 13
88.1557264276
 23
156.0119786288
 33
0.0
  0
SOLID
  5
161
330
15D
100
AcDbEntity
  8
SLD-0
 62
     7
100
AcDbTrace
 10
87.7807264276
 20
146.5119786288
 30
0.0
 11
88.1557264276
 21
149.5119786288
 31
0.0
 12
87.4057264276
 22
149.5119786288
 32
0.0
 13
87.4057264276
 23
149.5119786288
 33
0.0
  0
LINE
  5
162
330
15D
100
AcDbEntity
  8
SLD-0
 62
     7
100
AcDbLine
 10
114.2353717073
 20
159.0119786288
 30
0.0
 11
86.2807264276
 21
159.0119786288
 31
0.0
  0
LINE
  5
163
330
15D
100
AcDbEntity
  8
SLD-0
 62
     7
100
AcDbLine
 10
120.7353717073
 20
146.5119786288
 30
0.0
 11
86.2807264276
 21
146.5119786288
 31
0.0
  0
LINE
  5
164
330
15D
100
AcDbEntity
  8
SLD-0
 62
     7
100
AcDbLine
 10
87.7807264276
 20
159.0119786288
 30
0.0
 11
87.7807264276
 21
146.5119786288
 31
0.0
  0
MTEXT
  5
165
330
15D
100
AcDbEntity
  8
SLD-0
 62
     7
100
AcDbMText
 10
83.5268029736
 20
148.3505201254
 30
0.0
 40
3.3
 41
0.0
 71
     1
 72
     1
  1
12.5
  7
SLDTEXTSTYLE0
 11
-3.491481338843133E-15
 21
1.0
 31
0.0
 73
     1
 44
1.0
  0
ENDBLK
  5
15F
330
15D
100
AcDbEntity
  8
0
100
AcDbBlockEnd
  0
BLOCK
  5
168
330
167
100
AcDbEntity
  8
0
100
AcDbBlockBegin
  2
_D_6
 70
     0
 10
0.0
 20
0.0
 30
0.0
  3
_D_6
  1

  0
SOLID
  5
16A
330
167
100
AcDbEntity
  8
SLD-0
 62
     7
100
AcDbTrace
 10
77.4842581978
 20
184.0119786288
 30
0.0
 11
77.1092581978
 21
181.0119786288
 31
0.0
 12
77.8592581978
 22
181.0119786288
 32
0.0
 13
77.8592581978
 23
181.0119786288
 33
0.0
  0
SOLID
  5
16B
330
167
100
AcDbEntity
  8
SLD-0
 62
     7
100
AcDbTrace
 10
77.4842581978
 20
159.0119786288
 30
0.0
 11
77.8592581978
 21
162.0119786288
 31
0.0
 12
77.1092581978
 22
162.0119786288
 32
0.0
 13
77.1092581978
 23
162.0119786288
 33
0.0
  0
LINE
  5
16C
330
167
100
AcDbEntity
  8
SLD-0
 62
     7
100
AcDbLine
 10
108.2353717073
 20
184.0119786288
 30
0.0
 11
75.9842581978
 21
184.0119786288
 31
0.0
  0
LINE
  5
16D
330
167
100
AcDbEntity
  8
SLD-0
 62
     7
100
AcDbLine
 10
108.2353717073
 20
159.0119786288
 30
0.0
 11
75.9842581978
 21
159.0119786288
 31
0.0
  0
LINE
  5
16E
330
167
100
AcDbEntity
  8
SLD-0
 62
     7
100
AcDbLine
 10
77.4842581978
 20
184.0119786288
 30
0.0
 11
77.4842581978
 21
159.0119786288
 31
0.0
  0
MTEXT
  5
16F
330
167
100
AcDbEntity
  8
SLD-0
 62
     7
100
AcDbMText
 10
72.6502544356
 20
168.6473952916
 30
0.0
 40
3.75
 41
0.0
 71
     1
 72
     1
  1
25
  7
SLDTEXTSTYLE0
 11
-3.491481338843133E-15
 21
1.0
 31
0.0
 73
     1
 44
1.0
  0
ENDBLK
  5
169
330
167
100
AcDbEntity
  8
0
100
AcDbBlockEnd
  0
BLOCK
  5
172
330
171
100
AcDbEntity
  8
0
100
AcDbBlockBegin
  2
_D_7
 70
     0
 10
0.0
 20
0.0
 30
0.0
  3
_D_7
  1

  0
SOLID
  5
174
330
171
100
AcDbEntity
  8
SLD-0
 62
     7
100
AcDbTrace
 10
77.4842581978
 20
159.0119786288
 30
0.0
 11
77.1092581978
 21
156.0119786288
 31
0.0
 12
77.8592581978
 22
156.0119786288
 32
0.0
 13
77.8592581978
 23
156.0119786288
 33
0.0
  0
SOLID
  5
175
330
171
100
AcDbEntity
  8
SLD-0
 62
     7
100
AcDbTrace
 10
77.4842581978
 20
134.0119786288
 30
0.0
 11
77.8592581978
 21
137.0119786288
 31
0.0
 12
77.1092581978
 22
137.0119786288
 32
0.0
 13
77.1092581978
 23
137.0119786288
 33
0.0
  0
LINE
  5
176
330
171
100
AcDbEntity
  8
SLD-0
 62
     7
100
AcDbLine
 10
108.2353717073
 20
159.0119786288
 30
0.0
 11
75.9842581978
 21
159.0119786288
 31
0.0
  0
LINE
  5
177
330
171
100
AcDbEntity
  8
SLD-0
 62
     7
100
AcDbLine
 10
108.2353717073
 20
134.0119786288
 30
0.0
 11
75.9842581978
 21
134.0119786288
 31
0.0
  0
LINE
  5
178
330
171
100
AcDbEntity
  8
SLD-0
 62
     7
100
AcDbLine
 10
77.4842581978
 20
159.0119786288
 30
0.0
 11
77.4842581978
 21
134.0119786288
 31
0.0
  0
MTEXT
  5
179
330
171
100
AcDbEntity
  8
SLD-0
 62
     7
100
AcDbMText
 10
72.6502544356
 20
143.6473952916
 30
0.0
 40
3.75
 41
0.0
 71
     1
 72
     1
  1
25
  7
SLDTEXTSTYLE0
 11
-4.379659758543259E-15
 21
1.0
 31
0.0
 73
     1
 44
1.0
  0
ENDBLK
  5
173
330
171
100
AcDbEntity
  8
0
100
AcDbBlockEnd
  0
BLOCK
  5
17C
330
17B
100
AcDbEntity
  8
0
100
AcDbBlockBegin
  2
_D_8
 70
     0
 10
0.0
 20
0.0
 30
0.0
  3
_D_8
  1

  0
SOLID
  5
17E
330
17B
100
AcDbEntity
  8
SLD-0
 62
     7
100
AcDbTrace
 10
68.1001352541
 20
159.0119786288
 30
0.0
 11
68.4751352541
 21
162.0119786288
 31
0.0
 12
67.7251352541
 22
162.0119786288
 32
0.0
 13
67.7251352541
 23
162.0119786288
 33
0.0
  0
SOLID
  5
17F
330
17B
100
AcDbEntity
  8
SLD-0
 62
     7
100
AcDbTrace
 10
68.1001352541
 20
196.5119786288
 30
0.0
 11
67.7251352541
 21
193.5119786288
 31
0.0
 12
68.4751352541
 22
193.5119786288
 32
0.0
 13
68.4751352541
 23
193.5119786288
 33
0.0
  0
LINE
  5
180
330
17B
100
AcDbEntity
  8
SLD-0
 62
     7
100
AcDbLine
 10
114.2353717073
 20
159.0119786288
 30
0.0
 11
66.6001352541
 21
159.0119786288
 31
0.0
  0
LINE
  5
181
330
17B
100
AcDbEntity
  8
SLD-0
 62
     7
100
AcDbLine
 10
120.7353717073
 20
196.5119786288
 30
0.0
 11
66.6001352541
 21
196.5119786288
 31
0.0
  0
LINE
  5
182
330
17B
100
AcDbEntity
  8
SLD-0
 62
     7
100
AcDbLine
 10
68.1001352541
 20
159.0119786288
 30
0.0
 11
68.1001352541
 21
196.5119786288
 31
0.0
  0
MTEXT
  5
183
330
17B
100
AcDbEntity
  8
SLD-0
 62
     7
100
AcDbMText
 10
63.2661314919
 20
172.7489579196
 30
0.0
 40
3.75
 41
0.0
 71
     1
 72
     1
  1
37.5
  7
SLDTEXTSTYLE0
 11
3.391901413832837E-15
 21
1.0
 31
0.0
 73
     1
 44
1.0
  0
ENDBLK
  5
17D
330
17B
100
AcDbEntity
  8
0
100
AcDbBlockEnd
  0
BLOCK
  5
186
330
185
100
AcDbEntity
  8
0
100
AcDbBlockBegin
  2
_D_9
 70
     0
 10
0.0
 20
0.0
 30
0.0
  3
_D_9
  1

  0
SOLID
  5
188
330
185
100
AcDbEntity
  8
SLD-0
 62
     7
100
AcDbTrace
 10
68.1001352541
 20
159.0119786288
 30
0.0
 11
67.7251352541
 21
156.0119786288
 31
0.0
 12
68.4751352541
 22
156.0119786288
 32
0.0
 13
68.4751352541
 23
156.0119786288
 33
0.0
  0
SOLID
  5
189
330
185
100
AcDbEntity
  8
SLD-0
 62
     7
100
AcDbTrace
 10
68.1001352541
 20
121.5119786288
 30
0.0
 11
68.4751352541
 21
124.5119786288
 31
0.0
 12
67.7251352541
 22
124.5119786288
 32
0.0
 13
67.7251352541
 23
124.5119786288
 33
0.0
  0
LINE
  5
18A
330
185
100
AcDbEntity
  8
SLD-0
 62
     7
100
AcDbLine
 10
114.2353717073
 20
159.0119786288
 30
0.0
 11
66.6001352541
 21
159.0119786288
 31
0.0
  0
LINE
  5
18B
330
185
100
AcDbEntity
  8
SLD-0
 62
     7
100
AcDbLine
 10
120.7353717073
 20
121.5119786288
 30
0.0
 11
66.6001352541
 21
121.5119786288
 31
0.0
  0
LINE
  5
18C
330
185
100
AcDbEntity
  8
SLD-0
 62
     7
100
AcDbLine
 10
68.1001352541
 20
159.0119786288
 30
0.0
 11
68.1001352541
 21
121.5119786288
 31
0.0
  0
MTEXT
  5
18D
330
185
100
AcDbEntity
  8
SLD-0
 62
     7
100
AcDbMText
 10
63.2661314919
 20
135.2489579196
 30
0.0
 40
3.75
 41
0.0
 71
     1
 72
     1
  1
37.5
  7
SLDTEXTSTYLE0
 11
-3.491481338843133E-15
 21
1.0
 31
0.0
 73
     1
 44
1.0
  0
ENDBLK
  5
187
330
185
100
AcDbEntity
  8
0
100
AcDbBlockEnd
  0
BLOCK
  5
190
330
18F
100
AcDbEntity
  8
0
100
AcDbBlockBegin
  2
_D_10
 70
     0
 10
0.0
 20
0.0
 30
0.0
  3
_D_10
  1

  0
SOLID
  5
192
330
18F
100
AcDbEntity
  8
SLD-0
 62
     7
100
AcDbTrace
 10
57.9340020652
 20
159.0119786288
 30
0.0
 11
58.3090020652
 21
162.0119786288
 31
0.0
 12
57.5590020652
 22
162.0119786288
 32
0.0
 13
57.5590020652
 23
162.0119786288
 33
0.0
  0
SOLID
  5
193
330
18F
100
AcDbEntity
  8
SLD-0
 62
     7
100
AcDbTrace
 10
57.9340020652
 20
209.0119786288
 30
0.0
 11
57.5590020652
 21
206.0119786288
 31
0.0
 12
58.3090020652
 22
206.0119786288
 32
0.0
 13
58.3090020652
 23
206.0119786288
 33
0.0
  0
LINE
  5
194
330
18F
100
AcDbEntity
  8
SLD-0
 62
     7
100
AcDbLine
 10
114.2353717073
 20
159.0119786288
 30
0.0
 11
56.4340020652
 21
159.0119786288
 31
0.0
  0
LINE
  5
195
330
18F
100
AcDbEntity
  8
SLD-0
 62
     7
100
AcDbLine
 10
108.2353717073
 20
209.0119786288
 30
0.0
 11
56.4340020652
 21
209.0119786288
 31
0.0
  0
LINE
  5
196
330
18F
100
AcDbEntity
  8
SLD-0
 62
     7
100
AcDbLine
 10
57.9340020652
 20
159.0119786288
 30
0.0
 11
57.9340020652
 21
209.0119786288
 31
0.0
  0
MTEXT
  5
197
330
18F
100
AcDbEntity
  8
SLD-0
 62
     7
100
AcDbMText
 10
53.099998303
 20
181.1473952916
 30
0.0
 40
3.75
 41
0.0
 71
     1
 72
     1
  1
50
  7
SLDTEXTSTYLE0
 11
3.391901413832837E-15
 21
1.0
 31
0.0
 73
     1
 44
1.0
  0
ENDBLK
  5
191
330
18F
100
AcDbEntity
  8
0
100
AcDbBlockEnd
  0
BLOCK
  5
19A
330
199
100
AcDbEntity
  8
0
100
AcDbBlockBegin
  2
_D_11
 70
     0
 10
0.0
 20
0.0
 30
0.0
  3
_D_11
  1

  0
SOLID
  5
19C
330
199
100
AcDbEntity
  8
SLD-0
 62
     7
100
AcDbTrace
 10
57.9340020652
 20
159.0119786288
 30
0.0
 11
57.5590020652
 21
156.0119786288
 31
0.0
 12
58.3090020652
 22
156.0119786288
 32
0.0
 13
58.3090020652
 23
156.0119786288
 33
0.0
  0
SOLID
  5
19D
330
199
100
AcDbEntity
  8
SLD-0
 62
     7
100
AcDbTrace
 10
57.9340020652
 20
109.0119786288
 30
0.0
 11
58.3090020652
 21
112.0119786288
 31
0.0
 12
57.5590020652
 22
112.0119786288
 32
0.0
 13
57.5590020652
 23
112.0119786288
 33
0.0
  0
LINE
  5
19E
330
199
100
AcDbEntity
  8
SLD-0
 62
     7
100
AcDbLine
 10
133.2353717073
 20
159.0119786288
 30
0.0
 11
56.4340020652
 21
159.0119786288
 31
0.0
  0
LINE
  5
19F
330
199
100
AcDbEntity
  8
SLD-0
 62
     7
100
AcDbLine
 10
133.2353717073
 20
109.0119786288
 30
0.0
 11
56.4340020652
 21
109.0119786288
 31
0.0
  0
LINE
  5
1A0
330
199
100
AcDbEntity
  8
SLD-0
 62
     7
100
AcDbLine
 10
57.9340020652
 20
159.0119786288
 30
0.0
 11
57.9340020652
 21
109.0119786288
 31
0.0
  0
MTEXT
  5
1A1
330
199
100
AcDbEntity
  8
SLD-0
 62
     7
100
AcDbMText
 10
53.099998303
 20
131.1473952916
 30
0.0
 40
3.75
 41
0.0
 71
     1
 72
     1
  1
50
  7
SLDTEXTSTYLE0
 11
-4.379659758543259E-15
 21
1.0
 31
0.0
 73
     1
 44
1.0
  0
ENDBLK
  5
19B
330
199
100
AcDbEntity
  8
0
100
AcDbBlockEnd
  0
BLOCK
  5
1A4
330
1A3
100
AcDbEntity
  8
0
100
AcDbBlockBegin
  2
_D_12
 70
     0
 10
0.0
 20
0.0
 30
0.0
  3
_D_12
  1

  0
SOLID
  5
1A6
330
1A3
100
AcDbEntity
  8
SLD-0
 62
     7
100
AcDbTrace
 10
147.2353717073
 20
83.444697918
 30
0.0
 11
144.2353717073
 21
83.819697918
 31
0.0
 12
144.2353717073
 22
83.069697918
 32
0.0
 13
144.2353717073
 23
83.069697918
 33
0.0
  0
SOLID
  5
1A7
330
1A3
100
AcDbEntity
  8
SLD-0
 62
     7
100
AcDbTrace
 10
134.7353717073
 20
83.444697918
 30
0.0
 11
137.7353717073
 21
83.069697918
 31
0.0
 12
137.7353717073
 22
83.819697918
 32
0.0
 13
137.7353717073
 23
83.819697918
 33
0.0
  0
LINE
  5
1A8
330
1A3
100
AcDbEntity
  8
SLD-0
 62
     7
100
AcDbLine
 10
147.2353717073
 20
120.0119786288
 30
0.0
 11
147.2353717073
 21
81.944697918
 31
0.0
  0
LINE
  5
1A9
330
1A3
100
AcDbEntity
  8
SLD-0
 62
     7
100
AcDbLine
 10
134.7353717073
 20
107.5119786288
 30
0.0
 11
134.7353717073
 21
81.944697918
 31
0.0
  0
LINE
  5
1AA
330
1A3
100
AcDbEntity
  8
SLD-0
 62
     7
100
AcDbLine
 10
147.2353717073
 20
83.444697918
 30
0.0
 11
134.7353717073
 21
83.444697918
 31
0.0
  0
MTEXT
  5
1AB
330
1A3
100
AcDbEntity
  8
SLD-0
 62
     7
100
AcDbMText
 10
135.9723509982
 20
88.2787016802
 30
0.0
 40
3.75
 41
0.0
 71
     1
 72
     1
  1
12.5
  7
SLDTEXTSTYLE0
 73
     1
 44
1.0
  0
ENDBLK
  5
1A5
330
1A3
100
AcDbEntity
  8
0
100
AcDbBlockEnd
  0
BLOCK
  5
1AE
330
1AD
100
AcDbEntity
  8
0
100
AcDbBlockBegin
  2
_D_13
 70
     0
 10
0.0
 20
0.0
 30
0.0
  3
_D_13
  1

  0
SOLID
  5
1B0
330
1AD
100
AcDbEntity
  8
SLD-0
 62
     7
100
AcDbTrace
 10
134.7353717073
 20
83.444697918
 30
0.0
 11
131.7353717073
 21
83.819697918
 31
0.0
 12
131.7353717073
 22
83.069697918
 32
0.0
 13
131.7353717073
 23
83.069697918
 33
0.0
  0
SOLID
  5
1B1
330
1AD
100
AcDbEntity
  8
SLD-0
 62
     7
100
AcDbTrace
 10
122.2353717073
 20
83.444697918
 30
0.0
 11
125.2353717073
 21
83.069697918
 31
0.0
 12
125.2353717073
 22
83.819697918
 32
0.0
 13
125.2353717073
 23
83.819697918
 33
0.0
  0
LINE
  5
1B2
330
1AD
100
AcDbEntity
  8
SLD-0
 62
     7
100
AcDbLine
 10
134.7353717073
 20
107.5119786288
 30
0.0
 11
134.7353717073
 21
81.944697918
 31
0.0
  0
LINE
  5
1B3
330
1AD
100
AcDbEntity
  8
SLD-0
 62
     7
100
AcDbLine
 10
122.2353717073
 20
120.0119786288
 30
0.0
 11
122.2353717073
 21
81.944697918
 31
0.0
  0
LINE
  5
1B4
330
1AD
100
AcDbEntity
  8
SLD-0
 62
     7
100
AcDbLine
 10
134.7353717073
 20
83.444697918
 30
0.0
 11
122.2353717073
 21
83.444697918
 31
0.0
  0
MTEXT
  5
1B5
330
1AD
100
AcDbEntity
  8
SLD-0
 62
     7
100
AcDbMText
 10
123.4723509982
 20
88.2787016802
 30
0.0
 40
3.75
 41
0.0
 71
     1
 72
     1
  1
12.5
  7
SLDTEXTSTYLE0
 73
     1
 44
1.0
  0
ENDBLK
  5
1AF
330
1AD
100
AcDbEntity
  8
0
100
AcDbBlockEnd
  0
BLOCK
  5
1B8
330
1B7
100
AcDbEntity
  8
0
100
AcDbBlockBegin
  2
_D_14
 70
     0
 10
0.0
 20
0.0
 30
0.0
  3
_D_14
  1

  0
SOLID
  5
1BA
330
1B7
100
AcDbEntity
  8
SLD-0
 62
     7
100
AcDbTrace
 10
159.7353717073
 20
74.5119786288
 30
0.0
 11
156.7353717073
 21
74.8869786288
 31
0.0
 12
156.7353717073
 22
74.1369786288
 32
0.0
 13
156.7353717073
 23
74.1369786288
 33
0.0
  0
SOLID
  5
1BB
330
1B7
100
AcDbEntity
  8
SLD-0
 62
     7
100
AcDbTrace
 10
134.7353717073
 20
74.5119786288
 30
0.0
 11
137.7353717073
 21
74.1369786288
 31
0.0
 12
137.7353717073
 22
74.8869786288
 32
0.0
 13
137.7353717073
 23
74.8869786288
 33
0.0
  0
LINE
  5
1BC
330
1B7
100
AcDbEntity
  8
SLD-0
 62
     7
100
AcDbLine
 10
159.7353717073
 20
107.5119786288
 30
0.0
 11
159.7353717073
 21
73.0119786288
 31
0.0
  0
LINE
  5
1BD
330
1B7
100
AcDbEntity
  8
SLD-0
 62
     7
100
AcDbLine
 10
134.7353717073
 20
132.5119786288
 30
0.0
 11
134.7353717073
 21
73.0119786288
 31
0.0
  0
LINE
  5
1BE
330
1B7
100
AcDbEntity
  8
SLD-0
 62
     7
100
AcDbLine
 10
159.7353717073
 20
74.5119786288
 30
0.0
 11
134.7353717073
 21
74.5119786288
 31
0.0
  0
MTEXT
  5
1BF
330
1B7
100
AcDbEntity
  8
SLD-0
 62
     7
100
AcDbMText
 10
144.3707883701
 20
79.345982391
 30
0.0
 40
3.75
 41
0.0
 71
     1
 72
     1
  1
25
  7
SLDTEXTSTYLE0
 73
     1
 44
1.0
  0
ENDBLK
  5
1B9
330
1B7
100
AcDbEntity
  8
0
100
AcDbBlockEnd
  0
BLOCK
  5
1C2
330
1C1
100
AcDbEntity
  8
0
100
AcDbBlockBegin
  2
_D_15
 70
     0
 10
0.0
 20
0.0
 30
0.0
  3
_D_15
  1

  0
SOLID
  5
1C4
330
1C1
100
AcDbEntity
  8
SLD-0
 62
     7
100
AcDbTrace
 10
134.7353717073
 20
74.5119786288
 30
0.0
 11
131.7353717073
 21
74.8869786288
 31
0.0
 12
131.7353717073
 22
74.1369786288
 32
0.0
 13
131.7353717073
 23
74.1369786288
 33
0.0
  0
SOLID
  5
1C5
330
1C1
100
AcDbEntity
  8
SLD-0
 62
     7
100
AcDbTrace
 10
109.7353717073
 20
74.5119786288
 30
0.0
 11
112.7353717073
 21
74.1369786288
 31
0.0
 12
112.7353717073
 22
74.8869786288
 32
0.0
 13
112.7353717073
 23
74.8869786288
 33
0.0
  0
LINE
  5
1C6
330
1C1
100
AcDbEntity
  8
SLD-0
 62
     7
100
AcDbLine
 10
134.7353717073
 20
107.5119786288
 30
0.0
 11
134.7353717073
 21
73.0119786288
 31
0.0
  0
LINE
  5
1C7
330
1C1
100
AcDbEntity
  8
SLD-0
 62
     7
100
AcDbLine
 10
109.7353717073
 20
107.5119786288
 30
0.0
 11
109.7353717073
 21
73.0119786288
 31
0.0
  0
LINE
  5
1C8
330
1C1
100
AcDbEntity
  8
SLD-0
 62
     7
100
AcDbLine
 10
134.7353717073
 20
74.5119786288
 30
0.0
 11
109.7353717073
 21
74.5119786288
 31
0.0
  0
MTEXT
  5
1C9
330
1C1
100
AcDbEntity
  8
SLD-0
 62
     7
100
AcDbMText
 10
119.3707883701
 20
79.345982391
 30
0.0
 40
3.75
 41
0.0
 71
     1
 72
     1
  1
25
  7
SLDTEXTSTYLE0
 73
     1
 44
1.0
  0
ENDBLK
  5
1C3
330
1C1
100
AcDbEntity
  8
0
100
AcDbBlockEnd
  0
BLOCK
  5
1CD
330
1CC
100
AcDbEntity
  8
0
100
AcDbBlockBegin
  2
_D_16
 70
     0
 10
0.0
 20
0.0
 30
0.0
  3
_D_16
  1

  0
SOLID
  5
1CF
330
1CC
100
AcDbEntity
  8
SLD-0
100
AcDbTrace
 10
151.5502088991
 20
155.6013804396
 30
0.0
 11
153.6712156727
 21
153.4468607097
 31
0.0
 12
154.1362972439
 22
154.0352475994
 32
0.0
 13
154.1362972439
 23
154.0352475994
 33
0.0
  0
LINE
  5
1D0
330
1CC
100
AcDbEntity
  8
SLD-0
100
AcDbLine
 10
151.5502088991
 20
155.6013804396
 30
0.0
 11
181.0151733286
 21
132.311242281
 31
0.0
  0
LINE
  5
1D1
330
1CC
100
AcDbEntity
  8
SLD-0
100
AcDbLine
 10
181.0151733286
 20
132.311242281
 30
0.0
 11
206.0828812435
 21
132.311242281
 31
0.0
  0
MTEXT
  5
1D2
330
1CC
100
AcDbEntity
  8
SLD-0
100
AcDbMText
 10
182.8901733286
 20
142.900454243
 30
0.0
 40
3.75
 41
0.0
 71
     1
 72
     1
  1
3 HOLES,
  7
SLDTEXTSTYLE0
 73
     1
 44
1.0
  0
MTEXT
  5
1D3
330
1CC
100
AcDbEntity
  8
SLD-0
100
AcDbMText
 10
184.3250685386
 20
137.1452460432
 30
0.0
 40
3.75
 41
0.0
 71
     1
 72
     1
  1
 M6 CLR
  7
SLDTEXTSTYLE0
 73
     1
 44
1.0
  0
ENDBLK
  5
1CE
330
1CC
100
AcDbEntity
  8
0
100
AcDbBlockEnd
  0
BLOCK
  5
1D5
330
1D4
100
AcDbEntity
  8
0
100
AcDbBlockBegin
  2
SW_CENTERMARKSYMBOL_0
 70
     0
 10
0.0
 20
0.0
 30
0.0
  3
SW_CENTERMARKSYMBOL_0
  1

  0
LINE
  5
1D7
330
1D4
100
AcDbEntity
  8
SLD-0
 62
     0
100
AcDbLine
 10
0.0
 20
0.0
 30
0.0
 11
1.0
 21
0.0
 31
0.0
  0
LINE
  5
1D8
330
1D4
100
AcDbEntity
  8
SLD-0
 62
     0
100
AcDbLine
 10
0.0
 20
0.0
 30
0.0
 11
0.0
 21
1.0
 31
0.0
  0
LINE
  5
1D9
330
1D4
100
AcDbEntity
  8
SLD-0
 62
     0
100
AcDbLine
 10
0.0
 20
0.0
 30
0.0
 11
-1.0
 21
0.0
 31
0.0
  0
LINE
  5
1DA
330
1D4
100
AcDbEntity
  8
SLD-0
 62
     0
100
AcDbLine
 10
0.0
 20
0.0
 30
0.0
 11
0.0
 21
-1.0
 31
0.0
  0
LINE
  5
1DB
330
1D4
100
AcDbEntity
  8
SLD-0
 62
     0
100
AcDbLine
 10
2.0
 20
0.0
 30
0.0
 11
6.5
 21
0.0
 31
0.0
  0
LINE
  5
1DC
330
1D4
100
AcDbEntity
  8
SLD-0
 62
     0
100
AcDbLine
 10
0.0
 20
2.0
 30
0.0
 11
0.0
 21
6.5
 31
0.0
  0
LINE
  5
1DD
330
1D4
100
AcDbEntity
  8
SLD-0
 62
     0
100
AcDbLine
 10
-2.0
 20
0.0
 30
0.0
 11
-6.5
 21
0.0
 31
0.0
  0
LINE
  5
1DE
330
1D4
100
AcDbEntity
  8
SLD-0
 62
     0
100
AcDbLine
 10
0.0
 20
-2.0
 30
0.0
 11
0.0
 21
-6.5
 31
0.0
  0
ENDBLK
  5
1D6
330
1D4
100
AcDbEntity
  8
0
100
AcDbBlockEnd
  0
BLOCK
  5
1E1
330
1E0
100
AcDbEntity
  8
0
100
AcDbBlockBegin
  2
SW_CENTERMARKSYMBOL_1
 70
     0
 10
0.0
 20
0.0
 30
0.0
  3
SW_CENTERMARKSYMBOL_1
  1

  0
LINE
  5
1E3
330
1E0
100
AcDbEntity
  8
SLD-0
 62
     0
100
AcDbLine
 10
0.0
 20
0.0
 30
0.0
 11
1.0
 21
0.0
 31
0.0
  0
LINE
  5
1E4
330
1E0
100
AcDbEntity
  8
SLD-0
 62
     0
100
AcDbLine
 10
0.0
 20
0.0
 30
0.0
 11
0.0
 21
1.0
 31
0.0
  0
LINE
  5
1E5
330
1E0
100
AcDbEntity
  8
SLD-0
 62
     0
100
AcDbLine
 10
0.0
 20
0.0
 30
0.0
 11
-1.0
 21
0.0
 31
0.0
  0
LINE
  5
1E6
330
1E0
100
AcDbEntity
  8
SLD-0
 62
     0
100
AcDbLine
 10
0.0
 20
0.0
 30
0.0
 11
0.0
 21
-1.0
 31
0.0
  0
LINE
  5
1E7
330
1E0
100
AcDbEntity
  8
SLD-0
 62
     0
100
AcDbLine
 10
2.0
 20
0.0
 30
0.0
 11
6.5
 21
0.0
 31
0.0
  0
LINE
  5
1E8
330
1E0
100
AcDbEntity
  8
SLD-0
 62
     0
100
AcDbLine
 10
0.0
 20
2.0
 30
0.0
 11
0.0
 21
6.5
 31
0.0
  0
LINE
  5
1E9
330
1E0
100
AcDbEntity
  8
SLD-0
 62
     0
100
AcDbLine
 10
-2.0
 20
0.0
 30
0.0
 11
-6.5
 21
0.0
 31
0.0
  0
LINE
  5
1EA
330
1E0
100
AcDbEntity
  8
SLD-0
 62
     0
100
AcDbLine
 10
0.0
 20
-2.0
 30
0.0
 11
0.0
 21
-6.5
 31
0.0
  0
ENDBLK
  5
1E2
330
1E0
100
AcDbEntity
  8
0
100
AcDbBlockEnd
  0
BLOCK
  5
1ED
330
1EC
100
AcDbEntity
  8
0
100
AcDbBlockBegin
  2
SW_CENTERMARKSYMBOL_2
 70
     0
 10
0.0
 20
0.0
 30
0.0
  3
SW_CENTERMARKSYMBOL_2
  1

  0
LINE
  5
1EF
330
1EC
100
AcDbEntity
  8
SLD-0
 62
     0
100
AcDbLine
 10
0.0
 20
0.0
 30
0.0
 11
1.0
 21
0.0
 31
0.0
  0
LINE
  5
1F0
330
1EC
100
AcDbEntity
  8
SLD-0
 62
     0
100
AcDbLine
 10
0.0
 20
0.0
 30
0.0
 11
0.0
 21
1.0
 31
0.0
  0
LINE
  5
1F1
330
1EC
100
AcDbEntity
  8
SLD-0
 62
     0
100
AcDbLine
 10
0.0
 20
0.0
 30
0.0
 11
-1.0
 21
0.0
 31
0.0
  0
LINE
  5
1F2
330
1EC
100
AcDbEntity
  8
SLD-0
 62
     0
100
AcDbLine
 10
0.0
 20
0.0
 30
0.0
 11
0.0
 21
-1.0
 31
0.0
  0
LINE
  5
1F3
330
1EC
100
AcDbEntity
  8
SLD-0
 62
     0
100
AcDbLine
 10
2.0
 20
0.0
 30
0.0
 11
2.65
 21
0.0
 31
0.0
  0
LINE
  5
1F4
330
1EC
100
AcDbEntity
  8
SLD-0
 62
     0
100
AcDbLine
 10
0.0
 20
2.0
 30
0.0
 11
0.0
 21
2.65
 31
0.0
  0
LINE
  5
1F5
330
1EC
100
AcDbEntity
  8
SLD-0
 62
     0
100
AcDbLine
 10
-2.0
 20
0.0
 30
0.0
 11
-2.65
 21
0.0
 31
0.0
  0
LINE
  5
1F6
330
1EC
100
AcDbEntity
  8
SLD-0
 62
     0
100
AcDbLine
 10
0.0
 20
-2.0
 30
0.0
 11
0.0
 21
-2.65
 31
0.0
  0
ENDBLK
  5
1EE
330
1EC
100
AcDbEntity
  8
0
100
AcDbBlockEnd
  0
BLOCK
  5
1F9
330
1F8
100
AcDbEntity
  8
0
100
AcDbBlockBegin
  2
SW_CENTERMARKSYMBOL_3
 70
     0
 10
0.0
 20
0.0
 30
0.0
  3
SW_CENTERMARKSYMBOL_3
  1

  0
LINE
  5
1FB
330
1F8
100
AcDbEntity
  8
SLD-0
 62
     0
100
AcDbLine
 10
0.0
 20
0.0
 30
0.0
 11
1.0
 21
0.0
 31
0.0
  0
LINE
  5
1FC
330
1F8
100
AcDbEntity
  8
SLD-0
 62
     0
100
AcDbLine
 10
0.0
 20
0.0
 30
0.0
 11
0.0
 21
1.0
 31
0.0
  0
LINE
  5
1FD
330
1F8
100
AcDbEntity
  8
SLD-0
 62
     0
100
AcDbLine
 10
0.0
 20
0.0
 30
0.0
 11
-1.0
 21
0.0
 31
0.0
  0
LINE
  5
1FE
330
1F8
100
AcDbEntity
  8
SLD-0
 62
     0
100
AcDbLine
 10
0.0
 20
0.0
 30
0.0
 11
0.0
 21
-1.0
 31
0.0
  0
LINE
  5
1FF
330
1F8
100
AcDbEntity
  8
SLD-0
 62
     0
100
AcDbLine
 10
2.0
 20
0.0
 30
0.0
 11
2.65
 21
0.0
 31
0.0
  0
LINE
  5
200
330
1F8
100
AcDbEntity
  8
SLD-0
 62
     0
100
AcDbLine
 10
0.0
 20
2.0
 30
0.0
 11
0.0
 21
2.65
 31
0.0
  0
LINE
  5
201
330
1F8
100
AcDbEntity
  8
SLD-0
 62
     0
100
AcDbLine
 10
-2.0
 20
0.0
 30
0.0
 11
-2.65
 21
0.0
 31
0.0
  0
LINE
  5
202
330
1F8
100
AcDbEntity
  8
SLD-0
 62
     0
100
AcDbLine
 10
0.0
 20
-2.0
 30
0.0
 11
0.0
 21
-2.65
 31
0.0
  0
ENDBLK
  5
1FA
330
1F8
100
AcDbEntity
  8
0
100
AcDbBlockEnd
  0
BLOCK
  5
205
330
204
100
AcDbEntity
  8
0
100
AcDbBlockBegin
  2
SW_CENTERMARKSYMBOL_4
 70
     0
 10
0.0
 20
0.0
 30
0.0
  3
SW_CENTERMARKSYMBOL_4
  1

  0
LINE
  5
207
330
204
100
AcDbEntity
  8
SLD-0
 62
     0
100
AcDbLine
 10
0.0
 20
0.0
 30
0.0
 11
1.0
 21
0.0
 31
0.0
  0
LINE
  5
208
330
204
100
AcDbEntity
  8
SLD-0
 62
     0
100
AcDbLine
 10
0.0
 20
0.0
 30
0.0
 11
0.0
 21
1.0
 31
0.0
  0
LINE
  5
209
330
204
100
AcDbEntity
  8
SLD-0
 62
     0
100
AcDbLine
 10
0.0
 20
0.0
 30
0.0
 11
-1.0
 21
0.0
 31
0.0
  0
LINE
  5
20A
330
204
100
AcDbEntity
  8
SLD-0
 62
     0
100
AcDbLine
 10
0.0
 20
0.0
 30
0.0
 11
0.0
 21
-1.0
 31
0.0
  0
LINE
  5
20B
330
204
100
AcDbEntity
  8
SLD-0
 62
     0
100
AcDbLine
 10
2.0
 20
0.0
 30
0.0
 11
3.5
 21
0.0
 31
0.0
  0
LINE
  5
20C
330
204
100
AcDbEntity
  8
SLD-0
 62
     0
100
AcDbLine
 10
0.0
 20
2.0
 30
0.0
 11
0.0
 21
3.5
 31
0.0
  0
LINE
  5
20D
330
204
100
AcDbEntity
  8
SLD-0
 62
     0
100
AcDbLine
 10
-2.0
 20
0.0
 30
0.0
 11
-3.5
 21
0.0
 31
0.0
  0
LINE
  5
20E
330
204
100
AcDbEntity
  8
SLD-0
 62
     0
100
AcDbLine
 10
0.0
 20
-2.0
 30
0.0
 11
0.0
 21
-3.5
 31
0.0
  0
ENDBLK
  5
206
330
204
100
AcDbEntity
  8
0
100
AcDbBlockEnd
  0
BLOCK
  5
211
330
210
100
AcDbEntity
  8
0
100
AcDbBlockBegin
  2
SW_CENTERMARKSYMBOL_5
 70
     0
 10
0.0
 20
0.0
 30
0.0
  3
SW_CENTERMARKSYMBOL_5
  1

  0
LINE
  5
213
330
210
100
AcDbEntity
  8
SLD-0
 62
     0
100
AcDbLine
 10
0.0
 20
0.0
 30
0.0
 11
1.0
 21
0.0
 31
0.0
  0
LINE
  5
214
330
210
100
AcDbEntity
  8
SLD-0
 62
     0
100
AcDbLine
 10
0.0
 20
0.0
 30
0.0
 11
0.0
 21
1.0
 31
0.0
  0
LINE
  5
215
330
210
100
AcDbEntity
  8
SLD-0
 62
     0
100
AcDbLine
 10
0.0
 20
0.0
 30
0.0
 11
-1.0
 21
0.0
 31
0.0
  0
LINE
  5
216
330
210
100
AcDbEntity
  8
SLD-0
 62
     0
100
AcDbLine
 10
0.0
 20
0.0
 30
0.0
 11
0.0
 21
-1.0
 31
0.0
  0
LINE
  5
217
330
210
100
AcDbEntity
  8
SLD-0
 62
     0
100
AcDbLine
 10
2.0
 20
0.0
 30
0.0
 11
3.5
 21
0.0
 31
0.0
  0
LINE
  5
218
330
210
100
AcDbEntity
  8
SLD-0
 62
     0
100
AcDbLine
 10
0.0
 20
2.0
 30
0.0
 11
0.0
 21
3.5
 31
0.0
  0
LINE
  5
219
330
210
100
AcDbEntity
  8
SLD-0
 62
     0
100
AcDbLine
 10
-2.0
 20
0.0
 30
0.0
 11
-3.5
 21
0.0
 31
0.0
  0
LINE
  5
21A
330
210
100
AcDbEntity
  8
SLD-0
 62
     0
100
AcDbLine
 10
0.0
 20
-2.0
 30
0.0
 11
0.0
 21
-3.5
 31
0.0
  0
ENDBLK
  5
212
330
210
100
AcDbEntity
  8
0
100
AcDbBlockEnd
  0
BLOCK
  5
21D
330
21C
100
AcDbEntity
  8
0
100
AcDbBlockBegin
  2
SW_CENTERMARKSYMBOL_6
 70
     0
 10
0.0
 20
0.0
 30
0.0
  3
SW_CENTERMARKSYMBOL_6
  1

  0
LINE
  5
21F
330
21C
100
AcDbEntity
  8
SLD-0
 62
     0
100
AcDbLine
 10
0.0
 20
0.0
 30
0.0
 11
1.0
 21
0.0
 31
0.0
  0
LINE
  5
220
330
21C
100
AcDbEntity
  8
SLD-0
 62
     0
100
AcDbLine
 10
0.0
 20
0.0
 30
0.0
 11
0.0
 21
1.0
 31
0.0
  0
LINE
  5
221
330
21C
100
AcDbEntity
  8
SLD-0
 62
     0
100
AcDbLine
 10
0.0
 20
0.0
 30
0.0
 11
-1.0
 21
0.0
 31
0.0
  0
LINE
  5
222
330
21C
100
AcDbEntity
  8
SLD-0
 62
     0
100
AcDbLine
 10
0.0
 20
0.0
 30
0.0
 11
0.0
 21
-1.0
 31
0.0
  0
LINE
  5
223
330
21C
100
AcDbEntity
  8
SLD-0
 62
     0
100
AcDbLine
 10
2.0
 20
0.0
 30
0.0
 11
2.65
 21
0.0
 31
0.0
  0
LINE
  5
224
330
21C
100
AcDbEntity
  8
SLD-0
 62
     0
100
AcDbLine
 10
0.0
 20
2.0
 30
0.0
 11
0.0
 21
2.65
 31
0.0
  0
LINE
  5
225
330
21C
100
AcDbEntity
  8
SLD-0
 62
     0
100
AcDbLine
 10
-2.0
 20
0.0
 30
0.0
 11
-2.65
 21
0.0
 31
0.0
  0
LINE
  5
226
330
21C
100
AcDbEntity
  8
SLD-0
 62
     0
100
AcDbLine
 10
0.0
 20
-2.0
 30
0.0
 11
0.0
 21
-2.65
 31
0.0
  0
ENDBLK
  5
21E
330
21C
100
AcDbEntity
  8
0
100
AcDbBlockEnd
  0
BLOCK
  5
229
330
228
100
AcDbEntity
  8
0
100
AcDbBlockBegin
  2
SW_CENTERMARKSYMBOL_7
 70
     0
 10
0.0
 20
0.0
 30
0.0
  3
SW_CENTERMARKSYMBOL_7
  1

  0
LINE
  5
22B
330
228
100
AcDbEntity
  8
SLD-0
 62
     0
100
AcDbLine
 10
0.0
 20
0.0
 30
0.0
 11
1.0
 21
0.0
 31
0.0
  0
LINE
  5
22C
330
228
100
AcDbEntity
  8
SLD-0
 62
     0
100
AcDbLine
 10
0.0
 20
0.0
 30
0.0
 11
0.0
 21
1.0
 31
0.0
  0
LINE
  5
22D
330
228
100
AcDbEntity
  8
SLD-0
 62
     0
100
AcDbLine
 10
0.0
 20
0.0
 30
0.0
 11
-1.0
 21
0.0
 31
0.0
  0
LINE
  5
22E
330
228
100
AcDbEntity
  8
SLD-0
 62
     0
100
AcDbLine
 10
0.0
 20
0.0
 30
0.0
 11
0.0
 21
-1.0
 31
0.0
  0
LINE
  5
22F
330
228
100
AcDbEntity
  8
SLD-0
 62
     0
100
AcDbLine
 10
2.0
 20
0.0
 30
0.0
 11
3.5
 21
0.0
 31
0.0
  0
LINE
  5
230
330
228
100
AcDbEntity
  8
SLD-0
 62
     0
100
AcDbLine
 10
0.0
 20
2.0
 30
0.0
 11
0.0
 21
3.5
 31
0.0
  0
LINE
  5
231
330
228
100
AcDbEntity
  8
SLD-0
 62
     0
100
AcDbLine
 10
-2.0
 20
0.0
 30
0.0
 11
-3.5
 21
0.0
 31
0.0
  0
LINE
  5
232
330
228
100
AcDbEntity
  8
SLD-0
 62
     0
100
AcDbLine
 10
0.0
 20
-2.0
 30
0.0
 11
0.0
 21
-3.5
 31
0.0
  0
ENDBLK
  5
22A
330
228
100
AcDbEntity
  8
0
100
AcDbBlockEnd
  0
BLOCK
  5
235
330
234
100
AcDbEntity
  8
0
100
AcDbBlockBegin
  2
SW_CENTERMARKSYMBOL_8
 70
     0
 10
0.0
 20
0.0
 30
0.0
  3
SW_CENTERMARKSYMBOL_8
  1

  0
LINE
  5
237
330
234
100
AcDbEntity
  8
SLD-0
 62
     0
100
AcDbLine
 10
0.0
 20
0.0
 30
0.0
 11
1.0
 21
0.0
 31
0.0
  0
LINE
  5
238
330
234
100
AcDbEntity
  8
SLD-0
 62
     0
100
AcDbLine
 10
0.0
 20
0.0
 30
0.0
 11
0.0
 21
1.0
 31
0.0
  0
LINE
  5
239
330
234
100
AcDbEntity
  8
SLD-0
 62
     0
100
AcDbLine
 10
0.0
 20
0.0
 30
0.0
 11
-1.0
 21
0.0
 31
0.0
  0
LINE
  5
23A
330
234
100
AcDbEntity
  8
SLD-0
 62
     0
100
AcDbLine
 10
0.0
 20
0.0
 30
0.0
 11
0.0
 21
-1.0
 31
0.0
  0
LINE
  5
23B
330
234
100
AcDbEntity
  8
SLD-0
 62
     0
100
AcDbLine
 10
2.0
 20
0.0
 30
0.0
 11
3.5
 21
0.0
 31
0.0
  0
LINE
  5
23C
330
234
100
AcDbEntity
  8
SLD-0
 62
     0
100
AcDbLine
 10
0.0
 20
2.0
 30
0.0
 11
0.0
 21
3.5
 31
0.0
  0
LINE
  5
23D
330
234
100
AcDbEntity
  8
SLD-0
 62
     0
100
AcDbLine
 10
-2.0
 20
0.0
 30
0.0
 11
-3.5
 21
0.0
 31
0.0
  0
LINE
  5
23E
330
234
100
AcDbEntity
  8
SLD-0
 62
     0
100
AcDbLine
 10
0.0
 20
-2.0
 30
0.0
 11
0.0
 21
-3.5
 31
0.0
  0
ENDBLK
  5
236
330
234
100
AcDbEntity
  8
0
100
AcDbBlockEnd
  0
BLOCK
  5
241
330
240
100
AcDbEntity
  8
0
100
AcDbBlockBegin
  2
SW_CENTERMARKSYMBOL_9
 70
     0
 10
0.0
 20
0.0
 30
0.0
  3
SW_CENTERMARKSYMBOL_9
  1

  0
LINE
  5
243
330
240
100
AcDbEntity
  8
SLD-0
 62
     0
100
AcDbLine
 10
0.0
 20
0.0
 30
0.0
 11
1.0
 21
0.0
 31
0.0
  0
LINE
  5
244
330
240
100
AcDbEntity
  8
SLD-0
 62
     0
100
AcDbLine
 10
0.0
 20
0.0
 30
0.0
 11
0.0
 21
1.0
 31
0.0
  0
LINE
  5
245
330
240
100
AcDbEntity
  8
SLD-0
 62
     0
100
AcDbLine
 10
0.0
 20
0.0
 30
0.0
 11
-1.0
 21
0.0
 31
0.0
  0
LINE
  5
246
330
240
100
AcDbEntity
  8
SLD-0
 62
     0
100
AcDbLine
 10
0.0
 20
0.0
 30
0.0
 11
0.0
 21
-1.0
 31
0.0
  0
LINE
  5
247
330
240
100
AcDbEntity
  8
SLD-0
 62
     0
100
AcDbLine
 10
2.0
 20
0.0
 30
0.0
 11
2.65
 21
0.0
 31
0.0
  0
LINE
  5
248
330
240
100
AcDbEntity
  8
SLD-0
 62
     0
100
AcDbLine
 10
0.0
 20
2.0
 30
0.0
 11
0.0
 21
2.65
 31
0.0
  0
LINE
  5
249
330
240
100
AcDbEntity
  8
SLD-0
 62
     0
100
AcDbLine
 10
-2.0
 20
0.0
 30
0.0
 11
-2.65
 21
0.0
 31
0.0
  0
LINE
  5
24A
330
240
100
AcDbEntity
  8
SLD-0
 62
     0
100
AcDbLine
 10
0.0
 20
-2.0
 30
0.0
 11
0.0
 21
-2.65
 31
0.0
  0
ENDBLK
  5
242
330
240
100
AcDbEntity
  8
0
100
AcDbBlockEnd
  0
BLOCK
  5
24D
330
24C
100
AcDbEntity
  8
0
100
AcDbBlockBegin
  2
SW_CENTERMARKSYMBOL_10
 70
     0
 10
0.0
 20
0.0
 30
0.0
  3
SW_CENTERMARKSYMBOL_10
  1

  0
LINE
  5
24F
330
24C
100
AcDbEntity
  8
SLD-0
 62
     0
100
AcDbLine
 10
0.0
 20
0.0
 30
0.0
 11
1.0
 21
0.0
 31
0.0
  0
LINE
  5
250
330
24C
100
AcDbEntity
  8
SLD-0
 62
     0
100
AcDbLine
 10
0.0
 20
0.0
 30
0.0
 11
0.0
 21
1.0
 31
0.0
  0
LINE
  5
251
330
24C
100
AcDbEntity
  8
SLD-0
 62
     0
100
AcDbLine
 10
0.0
 20
0.0
 30
0.0
 11
-1.0
 21
0.0
 31
0.0
  0
LINE
  5
252
330
24C
100
AcDbEntity
  8
SLD-0
 62
     0
100
AcDbLine
 10
0.0
 20
0.0
 30
0.0
 11
0.0
 21
-1.0
 31
0.0
  0
LINE
  5
253
330
24C
100
AcDbEntity
  8
SLD-0
 62
     0
100
AcDbLine
 10
2.0
 20
0.0
 30
0.0
 11
3.5
 21
0.0
 31
0.0
  0
LINE
  5
254
330
24C
100
AcDbEntity
  8
SLD-0
 62
     0
100
AcDbLine
 10
0.0
 20
2.0
 30
0.0
 11
0.0
 21
3.5
 31
0.0
  0
LINE
  5
255
330
24C
100
AcDbEntity
  8
SLD-0
 62
     0
100
AcDbLine
 10
-2.0
 20
0.0
 30
0.0
 11
-3.5
 21
0.0
 31
0.0
  0
LINE
  5
256
330
24C
100
AcDbEntity
  8
SLD-0
 62
     0
100
AcDbLine
 10
0.0
 20
-2.0
 30
0.0
 11
0.0
 21
-3.5
 31
0.0
  0
ENDBLK
  5
24E
330
24C
100
AcDbEntity
  8
0
100
AcDbBlockEnd
  0
BLOCK
  5
259
330
258
100
AcDbEntity
  8
0
100
AcDbBlockBegin
  2
SW_CENTERMARKSYMBOL_11
 70
     0
 10
0.0
 20
0.0
 30
0.0
  3
SW_CENTERMARKSYMBOL_11
  1

  0
LINE
  5
25B
330
258
100
AcDbEntity
  8
SLD-0
 62
     0
100
AcDbLine
 10
0.0
 20
0.0
 30
0.0
 11
1.0
 21
0.0
 31
0.0
  0
LINE
  5
25C
330
258
100
AcDbEntity
  8
SLD-0
 62
     0
100
AcDbLine
 10
0.0
 20
0.0
 30
0.0
 11
0.0
 21
1.0
 31
0.0
  0
LINE
  5
25D
330
258
100
AcDbEntity
  8
SLD-0
 62
     0
100
AcDbLine
 10
0.0
 20
0.0
 30
0.0
 11
-1.0
 21
0.0
 31
0.0
  0
LINE
  5
25E
330
258
100
AcDbEntity
  8
SLD-0
 62
     0
100
AcDbLine
 10
0.0
 20
0.0
 30
0.0
 11
0.0
 21
-1.0
 31
0.0
  0
LINE
  5
25F
330
258
100
AcDbEntity
  8
SLD-0
 62
     0
100
AcDbLine
 10
2.0
 20
0.0
 30
0.0
 11
3.5
 21
0.0
 31
0.0
  0
LINE
  5
260
330
258
100
AcDbEntity
  8
SLD-0
 62
     0
100
AcDbLine
 10
0.0
 20
2.0
 30
0.0
 11
0.0
 21
3.5
 31
0.0
  0
LINE
  5
261
330
258
100
AcDbEntity
  8
SLD-0
 62
     0
100
AcDbLine
 10
-2.0
 20
0.0
 30
0.0
 11
-3.5
 21
0.0
 31
0.0
  0
LINE
  5
262
330
258
100
AcDbEntity
  8
SLD-0
 62
     0
100
AcDbLine
 10
0.0
 20
-2.0
 30
0.0
 11
0.0
 21
-3.5
 31
0.0
  0
ENDBLK
  5
25A
330
258
100
AcDbEntity
  8
0
100
AcDbBlockEnd
  0
BLOCK
  5
265
330
264
100
AcDbEntity
  8
0
100
AcDbBlockBegin
  2
SW_CENTERMARKSYMBOL_12
 70
     0
 10
0.0
 20
0.0
 30
0.0
  3
SW_CENTERMARKSYMBOL_12
  1

  0
LINE
  5
267
330
264
100
AcDbEntity
  8
SLD-0
 62
     0
100
AcDbLine
 10
0.0
 20
0.0
 30
0.0
 11
1.0
 21
0.0
 31
0.0
  0
LINE
  5
268
330
264
100
AcDbEntity
  8
SLD-0
 62
     0
100
AcDbLine
 10
0.0
 20
0.0
 30
0.0
 11
0.0
 21
1.0
 31
0.0
  0
LINE
  5
269
330
264
100
AcDbEntity
  8
SLD-0
 62
     0
100
AcDbLine
 10
0.0
 20
0.0
 30
0.0
 11
-1.0
 21
0.0
 31
0.0
  0
LINE
  5
26A
330
264
100
AcDbEntity
  8
SLD-0
 62
     0
100
AcDbLine
 10
0.0
 20
0.0
 30
0.0
 11
0.0
 21
-1.0
 31
0.0
  0
LINE
  5
26B
330
264
100
AcDbEntity
  8
SLD-0
 62
     0
100
AcDbLine
 10
2.0
 20
0.0
 30
0.0
 11
3.5
 21
0.0
 31
0.0
  0
LINE
  5
26C
330
264
100
AcDbEntity
  8
SLD-0
 62
     0
100
AcDbLine
 10
0.0
 20
2.0
 30
0.0
 11
0.0
 21
3.5
 31
0.0
  0
LINE
  5
26D
330
264
100
AcDbEntity
  8
SLD-0
 62
     0
100
AcDbLine
 10
-2.0
 20
0.0
 30
0.0
 11
-3.5
 21
0.0
 31
0.0
  0
LINE
  5
26E
330
264
100
AcDbEntity
  8
SLD-0
 62
     0
100
AcDbLine
 10
0.0
 20
-2.0
 30
0.0
 11
0.0
 21
-3.5
 31
0.0
  0
ENDBLK
  5
266
330
264
100
AcDbEntity
  8
0
100
AcDbBlockEnd
  0
BLOCK
  5
271
330
270
100
AcDbEntity
  8
0
100
AcDbBlockBegin
  2
SW_CENTERMARKSYMBOL_13
 70
     0
 10
0.0
 20
0.0
 30
0.0
  3
SW_CENTERMARKSYMBOL_13
  1

  0
LINE
  5
273
330
270
100
AcDbEntity
  8
SLD-0
 62
     0
100
AcDbLine
 10
0.0
 20
0.0
 30
0.0
 11
1.0
 21
0.0
 31
0.0
  0
LINE
  5
274
330
270
100
AcDbEntity
  8
SLD-0
 62
     0
100
AcDbLine
 10
0.0
 20
0.0
 30
0.0
 11
0.0
 21
1.0
 31
0.0
  0
LINE
  5
275
330
270
100
AcDbEntity
  8
SLD-0
 62
     0
100
AcDbLine
 10
0.0
 20
0.0
 30
0.0
 11
-1.0
 21
0.0
 31
0.0
  0
LINE
  5
276
330
270
100
AcDbEntity
  8
SLD-0
 62
     0
100
AcDbLine
 10
0.0
 20
0.0
 30
0.0
 11
0.0
 21
-1.0
 31
0.0
  0
LINE
  5
277
330
270
100
AcDbEntity
  8
SLD-0
 62
     0
100
AcDbLine
 10
2.0
 20
0.0
 30
0.0
 11
3.5
 21
0.0
 31
0.0
  0
LINE
  5
278
330
270
100
AcDbEntity
  8
SLD-0
 62
     0
100
AcDbLine
 10
0.0
 20
2.0
 30
0.0
 11
0.0
 21
3.5
 31
0.0
  0
LINE
  5
279
330
270
100
AcDbEntity
  8
SLD-0
 62
     0
100
AcDbLine
 10
-2.0
 20
0.0
 30
0.0
 11
-3.5
 21
0.0
 31
0.0
  0
LINE
  5
27A
330
270
100
AcDbEntity
  8
SLD-0
 62
     0
100
AcDbLine
 10
0.0
 20
-2.0
 30
0.0
 11
0.0
 21
-3.5
 31
0.0
  0
ENDBLK
  5
272
330
270
100
AcDbEntity
  8
0
100
AcDbBlockEnd
  0
BLOCK
  5
27D
330
27C
100
AcDbEntity
  8
0
100
AcDbBlockBegin
  2
SW_CENTERMARKSYMBOL_14
 70
     0
 10
0.0
 20
0.0
 30
0.0
  3
SW_CENTERMARKSYMBOL_14
  1

  0
LINE
  5
27F
330
27C
100
AcDbEntity
  8
SLD-0
 62
     0
100
AcDbLine
 10
0.0
 20
0.0
 30
0.0
 11
1.0
 21
0.0
 31
0.0
  0
LINE
  5
280
330
27C
100
AcDbEntity
  8
SLD-0
 62
     0
100
AcDbLine
 10
0.0
 20
0.0
 30
0.0
 11
0.0
 21
1.0
 31
0.0
  0
LINE
  5
281
330
27C
100
AcDbEntity
  8
SLD-0
 62
     0
100
AcDbLine
 10
0.0
 20
0.0
 30
0.0
 11
-1.0
 21
0.0
 31
0.0
  0
LINE
  5
282
330
27C
100
AcDbEntity
  8
SLD-0
 62
     0
100
AcDbLine
 10
0.0
 20
0.0
 30
0.0
 11
0.0
 21
-1.0
 31
0.0
  0
LINE
  5
283
330
27C
100
AcDbEntity
  8
SLD-0
 62
     0
100
AcDbLine
 10
2.0
 20
0.0
 30
0.0
 11
3.5
 21
0.0
 31
0.0
  0
LINE
  5
284
330
27C
100
AcDbEntity
  8
SLD-0
 62
     0
100
AcDbLine
 10
0.0
 20
2.0
 30
0.0
 11
0.0
 21
3.5
 31
0.0
  0
LINE
  5
285
330
27C
100
AcDbEntity
  8
SLD-0
 62
     0
100
AcDbLine
 10
-2.0
 20
0.0
 30
0.0
 11
-3.5
 21
0.0
 31
0.0
  0
LINE
  5
286
330
27C
100
AcDbEntity
  8
SLD-0
 62
     0
100
AcDbLine
 10
0.0
 20
-2.0
 30
0.0
 11
0.0
 21
-3.5
 31
0.0
  0
ENDBLK
  5
27E
330
27C
100
AcDbEntity
  8
0
100
AcDbBlockEnd
  0
BLOCK
  5
289
330
288
100
AcDbEntity
  8
0
100
AcDbBlockBegin
  2
SW_CENTERMARKSYMBOL_15
 70
     0
 10
0.0
 20
0.0
 30
0.0
  3
SW_CENTERMARKSYMBOL_15
  1

  0
LINE
  5
28B
330
288
100
AcDbEntity
  8
SLD-0
 62
     0
100
AcDbLine
 10
0.0
 20
0.0
 30
0.0
 11
1.0
 21
0.0
 31
0.0
  0
LINE
  5
28C
330
288
100
AcDbEntity
  8
SLD-0
 62
     0
100
AcDbLine
 10
0.0
 20
0.0
 30
0.0
 11
0.0
 21
1.0
 31
0.0
  0
LINE
  5
28D
330
288
100
AcDbEntity
  8
SLD-0
 62
     0
100
AcDbLine
 10
0.0
 20
0.0
 30
0.0
 11
-1.0
 21
0.0
 31
0.0
  0
LINE
  5
28E
330
288
100
AcDbEntity
  8
SLD-0
 62
     0
100
AcDbLine
 10
0.0
 20
0.0
 30
0.0
 11
0.0
 21
-1.0
 31
0.0
  0
LINE
  5
28F
330
288
100
AcDbEntity
  8
SLD-0
 62
     0
100
AcDbLine
 10
2.0
 20
0.0
 30
0.0
 11
2.65
 21
0.0
 31
0.0
  0
LINE
  5
290
330
288
100
AcDbEntity
  8
SLD-0
 62
     0
100
AcDbLine
 10
0.0
 20
2.0
 30
0.0
 11
0.0
 21
2.65
 31
0.0
  0
LINE
  5
291
330
288
100
AcDbEntity
  8
SLD-0
 62
     0
100
AcDbLine
 10
-2.0
 20
0.0
 30
0.0
 11
-2.65
 21
0.0
 31
0.0
  0
LINE
  5
292
330
288
100
AcDbEntity
  8
SLD-0
 62
     0
100
AcDbLine
 10
0.0
 20
-2.0
 30
0.0
 11
0.0
 21
-2.65
 31
0.0
  0
ENDBLK
  5
28A
330
288
100
AcDbEntity
  8
0
100
AcDbBlockEnd
  0
BLOCK
  5
295
330
294
100
AcDbEntity
  8
0
100
AcDbBlockBegin
  2
SW_CENTERMARKSYMBOL_16
 70
     0
 10
0.0
 20
0.0
 30
0.0
  3
SW_CENTERMARKSYMBOL_16
  1

  0
LINE
  5
297
330
294
100
AcDbEntity
  8
SLD-0
 62
     0
100
AcDbLine
 10
0.0
 20
0.0
 30
0.0
 11
1.0
 21
0.0
 31
0.0
  0
LINE
  5
298
330
294
100
AcDbEntity
  8
SLD-0
 62
     0
100
AcDbLine
 10
0.0
 20
0.0
 30
0.0
 11
0.0
 21
1.0
 31
0.0
  0
LINE
  5
299
330
294
100
AcDbEntity
  8
SLD-0
 62
     0
100
AcDbLine
 10
0.0
 20
0.0
 30
0.0
 11
-1.0
 21
0.0
 31
0.0
  0
LINE
  5
29A
330
294
100
AcDbEntity
  8
SLD-0
 62
     0
100
AcDbLine
 10
0.0
 20
0.0
 30
0.0
 11
0.0
 21
-1.0
 31
0.0
  0
LINE
  5
29B
330
294
100
AcDbEntity
  8
SLD-0
 62
     0
100
AcDbLine
 10
2.0
 20
0.0
 30
0.0
 11
2.65
 21
0.0
 31
0.0
  0
LINE
  5
29C
330
294
100
AcDbEntity
  8
SLD-0
 62
     0
100
AcDbLine
 10
0.0
 20
2.0
 30
0.0
 11
0.0
 21
2.65
 31
0.0
  0
LINE
  5
29D
330
294
100
AcDbEntity
  8
SLD-0
 62
     0
100
AcDbLine
 10
-2.0
 20
0.0
 30
0.0
 11
-2.65
 21
0.0
 31
0.0
  0
LINE
  5
29E
330
294
100
AcDbEntity
  8
SLD-0
 62
     0
100
AcDbLine
 10
0.0
 20
-2.0
 30
0.0
 11
0.0
 21
-2.65
 31
0.0
  0
ENDBLK
  5
296
330
294
100
AcDbEntity
  8
0
100
AcDbBlockEnd
  0
BLOCK
  5
2A1
330
2A0
100
AcDbEntity
  8
0
100
AcDbBlockBegin
  2
SW_CENTERMARKSYMBOL_17
 70
     0
 10
0.0
 20
0.0
 30
0.0
  3
SW_CENTERMARKSYMBOL_17
  1

  0
LINE
  5
2A3
330
2A0
100
AcDbEntity
  8
SLD-0
 62
     0
100
AcDbLine
 10
0.0
 20
0.0
 30
0.0
 11
1.0
 21
0.0
 31
0.0
  0
LINE
  5
2A4
330
2A0
100
AcDbEntity
  8
SLD-0
 62
     0
100
AcDbLine
 10
0.0
 20
0.0
 30
0.0
 11
0.0
 21
1.0
 31
0.0
  0
LINE
  5
2A5
330
2A0
100
AcDbEntity
  8
SLD-0
 62
     0
100
AcDbLine
 10
0.0
 20
0.0
 30
0.0
 11
-1.0
 21
0.0
 31
0.0
  0
LINE
  5
2A6
330
2A0
100
AcDbEntity
  8
SLD-0
 62
     0
100
AcDbLine
 10
0.0
 20
0.0
 30
0.0
 11
0.0
 21
-1.0
 31
0.0
  0
LINE
  5
2A7
330
2A0
100
AcDbEntity
  8
SLD-0
 62
     0
100
AcDbLine
 10
2.0
 20
0.0
 30
0.0
 11
3.5
 21
0.0
 31
0.0
  0
LINE
  5
2A8
330
2A0
100
AcDbEntity
  8
SLD-0
 62
     0
100
AcDbLine
 10
0.0
 20
2.0
 30
0.0
 11
0.0
 21
3.5
 31
0.0
  0
LINE
  5
2A9
330
2A0
100
AcDbEntity
  8
SLD-0
 62
     0
100
AcDbLine
 10
-2.0
 20
0.0
 30
0.0
 11
-3.5
 21
0.0
 31
0.0
  0
LINE
  5
2AA
330
2A0
100
AcDbEntity
  8
SLD-0
 62
     0
100
AcDbLine
 10
0.0
 20
-2.0
 30
0.0
 11
0.0
 21
-3.5
 31
0.0
  0
ENDBLK
  5
2A2
330
2A0
100
AcDbEntity
  8
0
100
AcDbBlockEnd
  0
BLOCK
  5
2AD
330
2AC
100
AcDbEntity
  8
0
100
AcDbBlockBegin
  2
SW_CENTERMARKSYMBOL_18
 70
     0
 10
0.0
 20
0.0
 30
0.0
  3
SW_CENTERMARKSYMBOL_18
  1

  0
LINE
  5
2AF
330
2AC
100
AcDbEntity
  8
SLD-0
 62
     0
100
AcDbLine
 10
0.0
 20
0.0
 30
0.0
 11
1.0
 21
0.0
 31
0.0
  0
LINE
  5
2B0
330
2AC
100
AcDbEntity
  8
SLD-0
 62
     0
100
AcDbLine
 10
0.0
 20
0.0
 30
0.0
 11
0.0
 21
1.0
 31
0.0
  0
LINE
  5
2B1
330
2AC
100
AcDbEntity
  8
SLD-0
 62
     0
100
AcDbLine
 10
0.0
 20
0.0
 30
0.0
 11
-1.0
 21
0.0
 31
0.0
  0
LINE
  5
2B2
330
2AC
100
AcDbEntity
  8
SLD-0
 62
     0
100
AcDbLine
 10
0.0
 20
0.0
 30
0.0
 11
0.0
 21
-1.0
 31
0.0
  0
LINE
  5
2B3
330
2AC
100
AcDbEntity
  8
SLD-0
 62
     0
100
AcDbLine
 10
2.0
 20
0.0
 30
0.0
 11
3.5
 21
0.0
 31
0.0
  0
LINE
  5
2B4
330
2AC
100
AcDbEntity
  8
SLD-0
 62
     0
100
AcDbLine
 10
0.0
 20
2.0
 30
0.0
 11
0.0
 21
3.5
 31
0.0
  0
LINE
  5
2B5
330
2AC
100
AcDbEntity
  8
SLD-0
 62
     0
100
AcDbLine
 10
-2.0
 20
0.0
 30
0.0
 11
-3.5
 21
0.0
 31
0.0
  0
LINE
  5
2B6
330
2AC
100
AcDbEntity
  8
SLD-0
 62
     0
100
AcDbLine
 10
0.0
 20
-2.0
 30
0.0
 11
0.0
 21
-3.5
 31
0.0
  0
ENDBLK
  5
2AE
330
2AC
100
AcDbEntity
  8
0
100
AcDbBlockEnd
  0
BLOCK
  5
2B9
330
2B8
100
AcDbEntity
  8
0
100
AcDbBlockBegin
  2
SW_CENTERMARKSYMBOL_19
 70
     0
 10
0.0
 20
0.0
 30
0.0
  3
SW_CENTERMARKSYMBOL_19
  1

  0
LINE
  5
2BB
330
2B8
100
AcDbEntity
  8
SLD-0
 62
     0
100
AcDbLine
 10
0.0
 20
0.0
 30
0.0
 11
1.0
 21
0.0
 31
0.0
  0
LINE
  5
2BC
330
2B8
100
AcDbEntity
  8
SLD-0
 62
     0
100
AcDbLine
 10
0.0
 20
0.0
 30
0.0
 11
0.0
 21
1.0
 31
0.0
  0
LINE
  5
2BD
330
2B8
100
AcDbEntity
  8
SLD-0
 62
     0
100
AcDbLine
 10
0.0
 20
0.0
 30
0.0
 11
-1.0
 21
0.0
 31
0.0
  0
LINE
  5
2BE
330
2B8
100
AcDbEntity
  8
SLD-0
 62
     0
100
AcDbLine
 10
0.0
 20
0.0
 30
0.0
 11
0.0
 21
-1.0
 31
0.0
  0
LINE
  5
2BF
330
2B8
100
AcDbEntity
  8
SLD-0
 62
     0
100
AcDbLine
 10
2.0
 20
0.0
 30
0.0
 11
2.65
 21
0.0
 31
0.0
  0
LINE
  5
2C0
330
2B8
100
AcDbEntity
  8
SLD-0
 62
     0
100
AcDbLine
 10
0.0
 20
2.0
 30
0.0
 11
0.0
 21
2.65
 31
0.0
  0
LINE
  5
2C1
330
2B8
100
AcDbEntity
  8
SLD-0
 62
     0
100
AcDbLine
 10
-2.0
 20
0.0
 30
0.0
 11
-2.65
 21
0.0
 31
0.0
  0
LINE
  5
2C2
330
2B8
100
AcDbEntity
  8
SLD-0
 62
     0
100
AcDbLine
 10
0.0
 20
-2.0
 30
0.0
 11
0.0
 21
-2.65
 31
0.0
  0
ENDBLK
  5
2BA
330
2B8
100
AcDbEntity
  8
0
100
AcDbBlockEnd
  0
BLOCK
  5
2C5
330
2C4
100
AcDbEntity
  8
0
100
AcDbBlockBegin
  2
SW_CENTERMARKSYMBOL_20
 70
     0
 10
0.0
 20
0.0
 30
0.0
  3
SW_CENTERMARKSYMBOL_20
  1

  0
LINE
  5
2C7
330
2C4
100
AcDbEntity
  8
SLD-0
 62
     0
100
AcDbLine
 10
0.0
 20
0.0
 30
0.0
 11
1.0
 21
0.0
 31
0.0
  0
LINE
  5
2C8
330
2C4
100
AcDbEntity
  8
SLD-0
 62
     0
100
AcDbLine
 10
0.0
 20
0.0
 30
0.0
 11
0.0
 21
1.0
 31
0.0
  0
LINE
  5
2C9
330
2C4
100
AcDbEntity
  8
SLD-0
 62
     0
100
AcDbLine
 10
0.0
 20
0.0
 30
0.0
 11
-1.0
 21
0.0
 31
0.0
  0
LINE
  5
2CA
330
2C4
100
AcDbEntity
  8
SLD-0
 62
     0
100
AcDbLine
 10
0.0
 20
0.0
 30
0.0
 11
0.0
 21
-1.0
 31
0.0
  0
LINE
  5
2CB
330
2C4
100
AcDbEntity
  8
SLD-0
 62
     0
100
AcDbLine
 10
2.0
 20
0.0
 30
0.0
 11
2.65
 21
0.0
 31
0.0
  0
LINE
  5
2CC
330
2C4
100
AcDbEntity
  8
SLD-0
 62
     0
100
AcDbLine
 10
0.0
 20
2.0
 30
0.0
 11
0.0
 21
2.65
 31
0.0
  0
LINE
  5
2CD
330
2C4
100
AcDbEntity
  8
SLD-0
 62
     0
100
AcDbLine
 10
-2.0
 20
0.0
 30
0.0
 11
-2.65
 21
0.0
 31
0.0
  0
LINE
  5
2CE
330
2C4
100
AcDbEntity
  8
SLD-0
 62
     0
100
AcDbLine
 10
0.0
 20
-2.0
 30
0.0
 11
0.0
 21
-2.65
 31
0.0
  0
ENDBLK
  5
2C6
330
2C4
100
AcDbEntity
  8
0
100
AcDbBlockEnd
  0
BLOCK
  5
2D1
330
2D0
100
AcDbEntity
  8
0
100
AcDbBlockBegin
  2
SW_CENTERMARKSYMBOL_21
 70
     0
 10
0.0
 20
0.0
 30
0.0
  3
SW_CENTERMARKSYMBOL_21
  1

  0
LINE
  5
2D3
330
2D0
100
AcDbEntity
  8
SLD-0
 62
     0
100
AcDbLine
 10
0.0
 20
0.0
 30
0.0
 11
1.0
 21
0.0
 31
0.0
  0
LINE
  5
2D4
330
2D0
100
AcDbEntity
  8
SLD-0
 62
     0
100
AcDbLine
 10
0.0
 20
0.0
 30
0.0
 11
0.0
 21
1.0
 31
0.0
  0
LINE
  5
2D5
330
2D0
100
AcDbEntity
  8
SLD-0
 62
     0
100
AcDbLine
 10
0.0
 20
0.0
 30
0.0
 11
-1.0
 21
0.0
 31
0.0
  0
LINE
  5
2D6
330
2D0
100
AcDbEntity
  8
SLD-0
 62
     0
100
AcDbLine
 10
0.0
 20
0.0
 30
0.0
 11
0.0
 21
-1.0
 31
0.0
  0
LINE
  5
2D7
330
2D0
100
AcDbEntity
  8
SLD-0
 62
     0
100
AcDbLine
 10
2.0
 20
0.0
 30
0.0
 11
3.5
 21
0.0
 31
0.0
  0
LINE
  5
2D8
330
2D0
100
AcDbEntity
  8
SLD-0
 62
     0
100
AcDbLine
 10
0.0
 20
2.0
 30
0.0
 11
0.0
 21
3.5
 31
0.0
  0
LINE
  5
2D9
330
2D0
100
AcDbEntity
  8
SLD-0
 62
     0
100
AcDbLine
 10
-2.0
 20
0.0
 30
0.0
 11
-3.5
 21
0.0
 31
0.0
  0
LINE
  5
2DA
330
2D0
100
AcDbEntity
  8
SLD-0
 62
     0
100
AcDbLine
 10
0.0
 20
-2.0
 30
0.0
 11
0.0
 21
-3.5
 31
0.0
  0
ENDBLK
  5
2D2
330
2D0
100
AcDbEntity
  8
0
100
AcDbBlockEnd
  0
BLOCK
  5
2DD
330
2DC
100
AcDbEntity
  8
0
100
AcDbBlockBegin
  2
SW_CENTERMARKSYMBOL_22
 70
     0
 10
0.0
 20
0.0
 30
0.0
  3
SW_CENTERMARKSYMBOL_22
  1

  0
LINE
  5
2DF
330
2DC
100
AcDbEntity
  8
SLD-0
 62
     0
100
AcDbLine
 10
0.0
 20
0.0
 30
0.0
 11
1.0
 21
0.0
 31
0.0
  0
LINE
  5
2E0
330
2DC
100
AcDbEntity
  8
SLD-0
 62
     0
100
AcDbLine
 10
0.0
 20
0.0
 30
0.0
 11
0.0
 21
1.0
 31
0.0
  0
LINE
  5
2E1
330
2DC
100
AcDbEntity
  8
SLD-0
 62
     0
100
AcDbLine
 10
0.0
 20
0.0
 30
0.0
 11
-1.0
 21
0.0
 31
0.0
  0
LINE
  5
2E2
330
2DC
100
AcDbEntity
  8
SLD-0
 62
     0
100
AcDbLine
 10
0.0
 20
0.0
 30
0.0
 11
0.0
 21
-1.0
 31
0.0
  0
LINE
  5
2E3
330
2DC
100
AcDbEntity
  8
SLD-0
 62
     0
100
AcDbLine
 10
2.0
 20
0.0
 30
0.0
 11
3.5
 21
0.0
 31
0.0
  0
LINE
  5
2E4
330
2DC
100
AcDbEntity
  8
SLD-0
 62
     0
100
AcDbLine
 10
0.0
 20
2.0
 30
0.0
 11
0.0
 21
3.5
 31
0.0
  0
LINE
  5
2E5
330
2DC
100
AcDbEntity
  8
SLD-0
 62
     0
100
AcDbLine
 10
-2.0
 20
0.0
 30
0.0
 11
-3.5
 21
0.0
 31
0.0
  0
LINE
  5
2E6
330
2DC
100
AcDbEntity
  8
SLD-0
 62
     0
100
AcDbLine
 10
0.0
 20
-2.0
 30
0.0
 11
0.0
 21
-3.5
 31
0.0
  0
ENDBLK
  5
2DE
330
2DC
100
AcDbEntity
  8
0
100
AcDbBlockEnd
  0
BLOCK
  5
2E9
330
2E8
100
AcDbEntity
  8
0
100
AcDbBlockBegin
  2
SW_CENTERMARKSYMBOL_23
 70
     0
 10
0.0
 20
0.0
 30
0.0
  3
SW_CENTERMARKSYMBOL_23
  1

  0
LINE
  5
2EB
330
2E8
100
AcDbEntity
  8
SLD-0
 62
     0
100
AcDbLine
 10
0.0
 20
0.0
 30
0.0
 11
1.0
 21
0.0
 31
0.0
  0
LINE
  5
2EC
330
2E8
100
AcDbEntity
  8
SLD-0
 62
     0
100
AcDbLine
 10
0.0
 20
0.0
 30
0.0
 11
0.0
 21
1.0
 31
0.0
  0
LINE
  5
2ED
330
2E8
100
AcDbEntity
  8
SLD-0
 62
     0
100
AcDbLine
 10
0.0
 20
0.0
 30
0.0
 11
-1.0
 21
0.0
 31
0.0
  0
LINE
  5
2EE
330
2E8
100
AcDbEntity
  8
SLD-0
 62
     0
100
AcDbLine
 10
0.0
 20
0.0
 30
0.0
 11
0.0
 21
-1.0
 31
0.0
  0
LINE
  5
2EF
330
2E8
100
AcDbEntity
  8
SLD-0
 62
     0
100
AcDbLine
 10
2.0
 20
0.0
 30
0.0
 11
3.5
 21
0.0
 31
0.0
  0
LINE
  5
2F0
330
2E8
100
AcDbEntity
  8
SLD-0
 62
     0
100
AcDbLine
 10
0.0
 20
2.0
 30
0.0
 11
0.0
 21
3.5
 31
0.0
  0
LINE
  5
2F1
330
2E8
100
AcDbEntity
  8
SLD-0
 62
     0
100
AcDbLine
 10
-2.0
 20
0.0
 30
0.0
 11
-3.5
 21
0.0
 31
0.0
  0
LINE
  5
2F2
330
2E8
100
AcDbEntity
  8
SLD-0
 62
     0
100
AcDbLine
 10
0.0
 20
-2.0
 30
0.0
 11
0.0
 21
-3.5
 31
0.0
  0
ENDBLK
  5
2EA
330
2E8
100
AcDbEntity
  8
0
100
AcDbBlockEnd
  0
BLOCK
  5
35D
330
35C
100
AcDbEntity
  8
0
100
AcDbBlockBegin
  2
_D_17
 70
     0
 10
0.0
 20
0.0
 30
0.0
  3
_D_17
  1

  0
SOLID
  5
35F
330
35C
100
AcDbEntity
  8
SLD-0
 62
     7
100
AcDbTrace
 10
231.073083752
 20
80.9987821366
 30
0.0
 11
234.073083752
 21
80.6237821366
 31
0.0
 12
234.073083752
 22
81.3737821366
 32
0.0
 13
234.073083752
 23
81.3737821366
 33
0.0
  0
SOLID
  5
360
330
35C
100
AcDbEntity
  8
SLD-0
 62
     7
100
AcDbTrace
 10
243.773083752
 20
80.9987821366
 30
0.0
 11
240.773083752
 21
81.3737821366
 31
0.0
 12
240.773083752
 22
80.6237821366
 32
0.0
 13
240.773083752
 23
80.6237821366
 33
0.0
  0
LINE
  5
361
330
35C
100
AcDbEntity
  8
SLD-0
 62
     7
100
AcDbLine
 10
231.073083752
 20
94.0119786288
 30
0.0
 11
231.073083752
 21
79.4987821366
 31
0.0
  0
LINE
  5
362
330
35C
100
AcDbEntity
  8
SLD-0
 62
     7
100
AcDbLine
 10
243.773083752
 20
94.0119786288
 30
0.0
 11
243.773083752
 21
79.4987821366
 31
0.0
  0
LINE
  5
363
330
35C
100
AcDbEntity
  8
SLD-0
 62
     7
100
AcDbLine
 10
231.073083752
 20
80.9987821366
 30
0.0
 11
243.773083752
 21
80.9987821366
 31
0.0
  0
MTEXT
  5
364
330
35C
100
AcDbEntity
  8
SLD-0
 62
     7
100
AcDbMText
 10
232.4100630428
 20
85.8327858988
 30
0.0
 40
3.75
 41
0.0
 71
     1
 72
     1
  1
12.7
  7
SLDTEXTSTYLE0
 73
     1
 44
1.0
  0
ENDBLK
  5
35E
330
35C
100
AcDbEntity
  8
0
100
AcDbBlockEnd
  0
ENDSEC
  0
SECTION
  2
ENTITIES
  0
HATCH
  5
75
330
1F
100
AcDbEntity
  8
DIM
 62
     7
100
AcDbHatch
 10
0.0
 20
0.0
 30
0.0
210
0.0
220
0.0
230
1.0
  2
SOLID
 70
     1
 71
     0
 91
        1
 92
        0
 93
       10
 72
     2
 10
288.2077688606998
 20
53.57307026712701
 40
4.568627093596871
 50
249.211220914341
 51
308.9221353953367
 73
     1
 72
     1
 10
291.0780713025516
 20
50.01867616789619
 11
292.5253007943773
 21
48.74774599243267
 72
     1
 10
292.5253007943773
 20
48.74774599243267
 11
287.7100908346436
 21
44.07218642328906
 72
     1
 10
287.7100908346436
 20
44.07218642328906
 11
286.2988901514026
 21
45.28718202845406
 72
     1
 10
286.2988901514026
 20
45.28718202845406
 11
287.2454680320254
 21
46.2110326141606
 72
     1
 10
287.2454680320254
 20
46.2110326141606
 11
281.2316645667319
 21
51.43793837457263
 72
     2
 10
282.754076711043
 20
53.1592789382134
 40
2.297988701708712
 50
131.4906380929596
 51
229.7089352075136
 73
     0
 72
     1
 10
281.2680344397697
 20
54.91211391081346
 11
283.2279768220922
 21
56.80449452557474
 72
     1
 10
283.2279768220922
 20
56.80449452557474
 11
284.750767593196
 21
55.46119667434806
 72
     2
 10
287.710673048255
 20
52.99010764325587
 40
3.855816554566925
 50
140.1430462780654
 51
253.0452525074006
 73
     1
 97
        0
 75
     0
 76
     1
 98
        1
 10
0.0
 20
0.0
  0
HATCH
  5
76
330
1F
100
AcDbEntity
  8
DIM
 62
     1
100
AcDbHatch
 10
0.0
 20
0.0
 30
0.0
210
0.0
220
0.0
230
1.0
  2
SOLID
 70
     1
 71
     0
 91
        1
 92
        0
 93
       10
 72
     2
 10
288.4075170191456
 20
52.44177080907394
 40
4.772455056791806
 50
234.1674444878509
 51
314.4407074583993
 73
     0
 72
     2
 10
288.8840014552323
 20
53.25300351729121
 40
3.866351232519375
 50
317.8184992995784
 51
398.0564711573081
 73
     0
 72
     1
 10
291.9283802198035
 20
50.86963829327874
 11
293.4065535592778
 21
49.58159288344451
 72
     1
 10
293.4065535592778
 20
49.58159288344451
 11
295.2690755314684
 21
51.38824229705533
 72
     2
 10
293.9289870429752
 20
53.23016239478673
 40
2.277829406127398
 50
306.0377529468133
 51
403.4396461533869
 73
     1
 72
     1
 10
295.5829168399837
 20
54.79637535284394
 11
289.3927830524687
 21
60.18013975579487
 72
     1
 10
289.3927830524687
 20
60.18013975579487
 11
290.3291600053596
 21
61.09372740205085
 72
     1
 10
290.3291600053596
 20
61.09372740205085
 11
288.9334002400835
 21
62.33901573181765
 72
     1
 10
288.9334002400835
 20
62.33901573181765
 11
284.0800220674687
 21
57.6486353618965
 72
     1
 10
284.0800220674687
 20
57.6486353618965
 11
285.6136338834916
 21
56.31094957121529
 97
        0
 75
     0
 76
     1
 98
        1
 10
0.0
 20
0.0
  0
LINE
  5
77
330
1F
100
AcDbEntity
  8
0
  6
Continuous
 62
     7
370
     0
100
AcDbLine
 10
251.7890662777
 20
26.6617788769
 30
0.0
 11
253.2890662777
 21
26.6617788769
 31
0.0
  0
LINE
  5
78
330
1F
100
AcDbEntity
  8
0
  6
Continuous
 62
     7
370
     0
100
AcDbLine
 10
247.2890662777
 20
26.6617788769
 30
0.0
 11
251.0390662777
 21
26.6617788769
 31
0.0
  0
LINE
  5
79
330
1F
100
AcDbEntity
  8
0
  6
Continuous
 62
     7
370
     0
100
AcDbLine
 10
272.0390662777
 20
22.9117788769
 30
0.0
 11
272.0390662777
 21
30.4117788769
 31
0.0
  0
LINE
  5
7A
330
1F
100
AcDbEntity
  8
0
  6
Continuous
 62
     7
370
     0
100
AcDbLine
 10
261.5390662777
 20
24.4117788769
 30
0.0
 11
272.0390662777
 21
22.9117788769
 31
0.0
  0
LINE
  5
7B
330
1F
100
AcDbEntity
  8
0
  6
Continuous
 62
     7
370
     0
100
AcDbLine
 10
252.5390662777
 20
25.1617788769
 30
0.0
 11
252.5390662777
 21
21.4117788769
 31
0.0
  0
LINE
  5
7C
330
1F
100
AcDbEntity
  8
0
  6
Continuous
 62
     7
370
     0
100
AcDbLine
 10
272.0390662777
 20
30.4117788769
 30
0.0
 11
261.5390662777
 21
28.9117788769
 31
0.0
  0
LINE
  5
7D
330
1F
100
AcDbEntity
  8
0
  6
Continuous
 62
     7
370
     0
100
AcDbLine
 10
260.0390662777
 20
26.6617788769
 30
0.0
 11
273.5390662777
 21
26.6617788769
 31
0.0
  0
LINE
  5
7E
330
1F
100
AcDbEntity
  8
0
  6
Continuous
 62
     7
370
     0
100
AcDbLine
 10
252.5390662777
 20
27.4117788769
 30
0.0
 11
252.5390662777
 21
25.9117788769
 31
0.0
  0
LINE
  5
7F
330
1F
100
AcDbEntity
  8
0
  6
Continuous
 62
     7
370
     0
100
AcDbLine
 10
254.0390662777
 20
26.6617788769
 30
0.0
 11
257.7890662777
 21
26.6617788769
 31
0.0
  0
LINE
  5
80
330
1F
100
AcDbEntity
  8
0
  6
Continuous
 62
     7
370
     0
100
AcDbLine
 10
252.5390662777
 20
31.9117788769
 30
0.0
 11
252.5390662777
 21
28.1617788769
 31
0.0
  0
LINE
  5
81
330
1F
100
AcDbEntity
  8
0
  6
Continuous
 62
     7
370
     0
100
AcDbLine
 10
261.5390662777
 20
28.9117788769
 30
0.0
 11
261.5390662777
 21
24.4117788769
 31
0.0
  0
LINE
  5
82
330
1F
100
AcDbEntity
  8
0
370
     0
100
AcDbLine
 10
292.5253007944
 20
48.7477459924
 30
0.0
 11
287.7100908346
 21
44.0721864233
 31
0.0
  0
LINE
  5
83
330
1F
100
AcDbEntity
  8
0
370
     0
100
AcDbLine
 10
287.7100908346
 20
44.0721864233
 30
0.0
 11
286.2988901514
 21
45.2871820285
 31
0.0
  0
LINE
  5
84
330
1F
100
AcDbEntity
  8
0
370
     0
100
AcDbLine
 10
286.2988901514
 20
45.2871820285
 30
0.0
 11
287.245468032
 21
46.2110326142
 31
0.0
  0
LINE
  5
85
330
1F
100
AcDbEntity
  8
0
370
     0
100
AcDbLine
 10
281.2316645667
 20
51.4379383746
 30
0.0
 11
287.245468032
 21
46.2110326142
 31
0.0
  0
LINE
  5
86
330
1F
100
AcDbEntity
  8
0
370
     0
100
AcDbLine
 10
283.2279768221
 20
56.8044945256
 30
0.0
 11
281.2680344398
 21
54.9121139108
 31
0.0
  0
LINE
  5
87
330
1F
100
AcDbEntity
  8
0
370
     0
100
AcDbLine
 10
283.2279768221
 20
56.8044945256
 30
0.0
 11
284.7507675932
 21
55.4611966743
 31
0.0
  0
LINE
  5
88
330
1F
100
AcDbEntity
  8
0
370
     0
100
AcDbLine
 10
291.0780713026
 20
50.0186761679
 30
0.0
 11
292.5253007944
 21
48.7477459924
 31
0.0
  0
LINE
  5
89
330
1F
100
AcDbEntity
  8
0
 62
     1
370
     0
100
AcDbLine
 10
285.6136338835
 20
56.3109495712
 30
0.0
 11
284.0800220675
 21
57.6486353619
 31
0.0
  0
LINE
  5
8A
330
1F
100
AcDbEntity
  8
0
 62
     1
370
     0
100
AcDbLine
 10
284.0800220675
 20
57.6486353619
 30
0.0
 11
288.9334002401
 21
62.3390157318
 31
0.0
  0
LINE
  5
8B
330
1F
100
AcDbEntity
  8
0
 62
     1
370
     0
100
AcDbLine
 10
288.9334002401
 20
62.3390157318
 30
0.0
 11
290.3291600054
 21
61.0937274021
 31
0.0
  0
LINE
  5
8C
330
1F
100
AcDbEntity
  8
0
 62
     1
370
     0
100
AcDbLine
 10
290.3291600054
 20
61.0937274021
 30
0.0
 11
289.3927830525
 21
60.1801397558
 31
0.0
  0
LINE
  5
8D
330
1F
100
AcDbEntity
  8
0
 62
     1
370
     0
100
AcDbLine
 10
289.3927830525
 20
60.1801397558
 30
0.0
 11
295.58291684
 21
54.7963753528
 31
0.0
  0
LINE
  5
8E
330
1F
100
AcDbEntity
  8
0
 62
     1
370
     0
100
AcDbLine
 10
291.9283802198
 20
50.8696382933
 30
0.0
 11
293.4065535593
 21
49.5815928834
 31
0.0
  0
LINE
  5
8F
330
1F
100
AcDbEntity
  8
0
 62
     1
370
     0
100
AcDbLine
 10
293.4065535593
 20
49.5815928834
 30
0.0
 11
295.2690755315
 21
51.3882422971
 31
0.0
  0
LINE
  5
90
330
1F
100
AcDbEntity
  8
0
  6
Continuous
 62
     7
370
     0
100
AcDbLine
 10
278.5361947814
 20
19.6728696119
 30
0.0
 11
428.5361947814
 21
19.6728696119
 31
0.0
  0
LINE
  5
91
330
1F
100
AcDbEntity
  8
0
  6
Continuous
 62
     7
370
     0
100
AcDbLine
 10
278.5361947814
 20
27.1728696119
 30
0.0
 11
353.5361947814
 21
27.1728696119
 31
0.0
  0
LINE
  5
92
330
1F
100
AcDbEntity
  8
0
  6
Continuous
 62
     7
370
     0
100
AcDbLine
 10
278.5361947814
 20
34.6728696119
 30
0.0
 11
353.5361947814
 21
34.6728696119
 31
0.0
  0
LINE
  5
93
330
1F
100
AcDbEntity
  8
0
  6
Continuous
 62
     7
370
     0
100
AcDbLine
 10
278.5361947814
 20
42.1728696119
 30
0.0
 11
428.5361947814
 21
42.1728696119
 31
0.0
  0
LINE
  5
94
330
1F
100
AcDbEntity
  8
0
  6
Continuous
 62
     7
370
     0
100
AcDbLine
 10
353.5361947814
 20
49.6728696119
 30
0.0
 11
428.5361947814
 21
49.6728696119
 31
0.0
  0
LINE
  5
95
330
1F
100
AcDbEntity
  8
0
  6
Continuous
 62
     7
370
    15
100
AcDbLine
 10
353.5361947814
 20
27.1728696119
 30
0.0
 11
428.5361947814
 21
27.1728696119
 31
0.0
  0
LINE
  5
96
330
1F
100
AcDbEntity
  8
0
  6
Continuous
 62
     7
370
     0
100
AcDbLine
 10
278.5361947814
 20
64.6728696119
 30
0.0
 11
428.5361947814
 21
64.6728696119
 31
0.0
  0
LINE
  5
97
330
1F
100
AcDbEntity
  8
0
  6
Continuous
 62
     7
370
     0
100
AcDbLine
 10
376.8558265126
 20
12.1728696119
 30
0.0
 11
376.8558265126
 21
27.1728696119
 31
0.0
  0
LINE
  5
98
330
1F
100
AcDbEntity
  8
0
  6
Continuous
 62
     7
370
     0
100
AcDbLine
 10
353.5361947814
 20
12.1728696119
 30
0.0
 11
353.5361947814
 21
64.6728696119
 31
0.0
  0
LINE
  5
99
330
1F
100
AcDbEntity
  8
0
  6
Continuous
 62
     7
370
     0
100
AcDbLine
 10
376.8558265126
 20
42.1728696119
 30
0.0
 11
376.8558265126
 21
49.6728696119
 31
0.0
  0
LINE
  5
9A
330
1F
100
AcDbEntity
  8
0
  6
Continuous
 62
     7
370
     0
100
AcDbLine
 10
321.624612953
 20
12.1728696119
 30
0.0
 11
321.624612953
 21
42.1728696119
 31
0.0
  0
LINE
  5
9B
330
1F
100
AcDbEntity
  8
0
  6
Continuous
 62
     7
370
     0
100
AcDbLine
 10
299.6678831259
 20
12.1728696119
 30
0.0
 11
299.6678831259
 21
42.1728696119
 31
0.0
  0
LINE
  5
9C
330
1F
100
AcDbEntity
  8
0
  6
Continuous
 62
     7
370
     0
100
AcDbLine
 10
278.5361947814
 20
12.1728696119
 30
0.0
 11
278.5361947814
 21
64.6728696119
 31
0.0
  0
LINE
  5
9D
330
1F
100
AcDbEntity
  8
0
  6
Continuous
 62
     7
370
    15
100
AcDbLine
 10
13.0361947814
 20
157.1154554872
 30
0.0
 11
22.0361947814
 21
157.1154554872
 31
0.0
  0
LINE
  5
9E
330
1F
100
AcDbEntity
  8
0
  6
Continuous
 62
     7
370
    15
100
AcDbLine
 10
428.5361947814
 20
157.1154554872
 30
0.0
 11
419.5361947814
 21
157.1154554872
 31
0.0
  0
LINE
  5
9F
330
1F
100
AcDbEntity
  8
0
  6
Continuous
 62
     7
370
    15
100
AcDbLine
 10
220.7861947814
 20
12.1728696119
 30
0.0
 11
220.7861947814
 21
21.1728696119
 31
0.0
  0
LINE
  5
A0
330
1F
100
AcDbEntity
  8
0
  6
Continuous
 62
     7
370
    15
100
AcDbLine
 10
220.7861947814
 20
302.0580413626
 30
0.0
 11
220.7861947814
 21
293.0580413626
 31
0.0
  0
LINE
  5
A1
330
1F
100
AcDbEntity
  8
0
  6
Continuous
 62
     7
370
    15
100
AcDbLine
 10
64.9811947814
 20
302.0580413626
 30
0.0
 11
64.9811947814
 21
304.3080413626
 31
0.0
  0
LINE
  5
A2
330
1F
100
AcDbEntity
  8
0
  6
Continuous
 62
     7
370
    15
100
AcDbLine
 10
116.9261947814
 20
302.0580413626
 30
0.0
 11
116.9261947814
 21
304.3080413626
 31
0.0
  0
LINE
  5
A3
330
1F
100
AcDbEntity
  8
0
  6
Continuous
 62
     7
370
    15
100
AcDbLine
 10
168.8711947814
 20
302.0580413626
 30
0.0
 11
168.8711947814
 21
304.3080413626
 31
0.0
  0
LINE
  5
A4
330
1F
100
AcDbEntity
  8
0
  6
Continuous
 62
     7
370
    15
100
AcDbLine
 10
220.8161947814
 20
302.0580413626
 30
0.0
 11
220.8161947814
 21
304.3080413626
 31
0.0
  0
LINE
  5
A5
330
1F
100
AcDbEntity
  8
0
  6
Continuous
 62
     7
370
    15
100
AcDbLine
 10
272.7611947814
 20
302.0580413626
 30
0.0
 11
272.7611947814
 21
304.3080413626
 31
0.0
  0
LINE
  5
A6
330
1F
100
AcDbEntity
  8
0
  6
Continuous
 62
     7
370
    15
100
AcDbLine
 10
324.7061947814
 20
302.0580413626
 30
0.0
 11
324.7061947814
 21
304.3080413626
 31
0.0
  0
LINE
  5
A7
330
1F
100
AcDbEntity
  8
0
  6
Continuous
 62
     7
370
    15
100
AcDbLine
 10
376.6511947814
 20
302.0580413626
 30
0.0
 11
376.6511947814
 21
304.3080413626
 31
0.0
  0
LINE
  5
A8
330
1F
100
AcDbEntity
  8
0
  6
Continuous
 62
     7
370
    15
100
AcDbLine
 10
64.9736947814
 20
12.1728696119
 30
0.0
 11
64.9736947814
 21
9.9228696119
 31
0.0
  0
LINE
  5
A9
330
1F
100
AcDbEntity
  8
0
  6
Continuous
 62
     7
370
    15
100
AcDbLine
 10
116.9111947814
 20
12.1728696119
 30
0.0
 11
116.9111947814
 21
9.9228696119
 31
0.0
  0
LINE
  5
AA
330
1F
100
AcDbEntity
  8
0
  6
Continuous
 62
     7
370
    15
100
AcDbLine
 10
168.8486947814
 20
12.1728696119
 30
0.0
 11
168.8486947814
 21
9.9228696119
 31
0.0
  0
LINE
  5
AB
330
1F
100
AcDbEntity
  8
0
  6
Continuous
 62
     7
370
    15
100
AcDbLine
 10
220.7861947814
 20
12.1728696119
 30
0.0
 11
220.7861947814
 21
9.9228696119
 31
0.0
  0
LINE
  5
AC
330
1F
100
AcDbEntity
  8
0
  6
Continuous
 62
     7
370
    15
100
AcDbLine
 10
272.7236947814
 20
12.1728696119
 30
0.0
 11
272.7236947814
 21
9.9228696119
 31
0.0
  0
LINE
  5
AD
330
1F
100
AcDbEntity
  8
0
  6
Continuous
 62
     7
370
    15
100
AcDbLine
 10
324.6611947814
 20
12.1728696119
 30
0.0
 11
324.6611947814
 21
9.9228696119
 31
0.0
  0
LINE
  5
AE
330
1F
100
AcDbEntity
  8
0
  6
Continuous
 62
     7
370
     0
100
AcDbLine
 10
428.5361947814
 20
302.0580413626
 30
0.0
 11
13.0361947814
 21
302.0580413626
 31
0.0
  0
LINE
  5
AF
330
1F
100
AcDbEntity
  8
0
  6
Continuous
 62
     7
370
     0
100
AcDbLine
 10
428.5361947814
 20
12.1728696119
 30
0.0
 11
428.5361947814
 21
302.0580413626
 31
0.0
  0
LINE
  5
B0
330
1F
100
AcDbEntity
  8
0
  6
Continuous
 62
     7
370
     0
100
AcDbLine
 10
13.0361947814
 20
302.0580413626
 30
0.0
 11
13.0361947814
 21
12.1728696119
 31
0.0
  0
LINE
  5
B1
330
1F
100
AcDbEntity
  8
0
  6
Continuous
 62
     7
370
     0
100
AcDbLine
 10
13.0361947814
 20
12.1728696119
 30
0.0
 11
428.5361947814
 21
12.1728696119
 31
0.0
  0
LINE
  5
B2
330
1F
100
AcDbEntity
  8
0
  6
Continuous
 62
     7
370
    15
100
AcDbLine
 10
376.5986947814
 20
12.1728696119
 30
0.0
 11
376.5986947814
 21
9.9228696119
 31
0.0
  0
LINE
  5
B3
330
1F
100
AcDbEntity
  8
0
  6
Continuous
 62
     7
370
    15
100
AcDbLine
 10
13.0361947814
 20
60.4878696119
 30
0.0
 11
10.7861947814
 21
60.4878696119
 31
0.0
  0
LINE
  5
B4
330
1F
100
AcDbEntity
  8
0
  6
Continuous
 62
     7
370
    15
100
AcDbLine
 10
13.0361947814
 20
108.8028696119
 30
0.0
 11
10.7861947814
 21
108.8028696119
 31
0.0
  0
LINE
  5
B5
330
1F
100
AcDbEntity
  8
0
  6
Continuous
 62
     7
370
    15
100
AcDbLine
 10
13.0361947814
 20
157.1178696119
 30
0.0
 11
10.7861947814
 21
157.1178696119
 31
0.0
  0
LINE
  5
B6
330
1F
100
AcDbEntity
  8
0
  6
Continuous
 62
     7
370
    15
100
AcDbLine
 10
13.0361947814
 20
205.4328696119
 30
0.0
 11
10.7861947814
 21
205.4328696119
 31
0.0
  0
LINE
  5
B7
330
1F
100
AcDbEntity
  8
0
  6
Continuous
 62
     7
370
    15
100
AcDbLine
 10
13.0361947814
 20
253.7478696119
 30
0.0
 11
10.7861947814
 21
253.7478696119
 31
0.0
  0
LINE
  5
B8
330
1F
100
AcDbEntity
  8
0
  6
Continuous
 62
     7
370
    15
100
AcDbLine
 10
428.5361947814
 20
60.4878696119
 30
0.0
 11
430.7861947814
 21
60.4878696119
 31
0.0
  0
LINE
  5
B9
330
1F
100
AcDbEntity
  8
0
  6
Continuous
 62
     7
370
    15
100
AcDbLine
 10
428.5361947814
 20
108.8028696119
 30
0.0
 11
430.7861947814
 21
108.8028696119
 31
0.0
  0
LINE
  5
BA
330
1F
100
AcDbEntity
  8
0
  6
Continuous
 62
     7
370
    15
100
AcDbLine
 10
428.5361947814
 20
157.1178696119
 30
0.0
 11
430.7861947814
 21
157.1178696119
 31
0.0
  0
LINE
  5
BB
330
1F
100
AcDbEntity
  8
0
  6
Continuous
 62
     7
370
    15
100
AcDbLine
 10
428.5361947814
 20
205.4328696119
 30
0.0
 11
430.7861947814
 21
205.4328696119
 31
0.0
  0
LINE
  5
BC
330
1F
100
AcDbEntity
  8
0
  6
Continuous
 62
     7
370
    15
100
AcDbLine
 10
428.5361947814
 20
253.7478696119
 30
0.0
 11
430.7861947814
 21
253.7478696119
 31
0.0
  0
CIRCLE
  5
BD
330
1F
100
AcDbEntity
  8
0
  6
Continuous
 62
     7
370
     0
100
AcDbCircle
 10
252.5390662777
 20
26.6617788769
 30
0.0
 40
2.249999999999943
  0
CIRCLE
  5
BE
330
1F
100
AcDbEntity
  8
0
  6
Continuous
 62
     7
370
     0
100
AcDbCircle
 10
252.5390662777
 20
26.6617788769
 30
0.0
 40
3.749999999999943
  0
ARC
  5
BF
330
1F
100
AcDbEntity
  8
0
370
     0
100
AcDbCircle
 10
282.754076711
 20
53.1592789382
 30
0.0
 40
2.297988701708746
100
AcDbArc
 50
130.2910647925
 51
228.509361907
  0
ARC
  5
C0
330
1F
100
AcDbEntity
  8
0
370
     0
100
AcDbCircle
 10
287.7106730483
 20
52.9901076433
 30
0.0
 40
3.855816554566954
100
AcDbArc
 50
140.1430462781
 51
253.0452525074
  0
ARC
  5
C1
330
1F
100
AcDbEntity
  8
0
370
     0
100
AcDbCircle
 10
288.2077688607
 20
53.5730702671
 30
0.0
 40
4.568627093596868
100
AcDbArc
 50
249.2112209143
 51
308.9221353953
  0
ARC
  5
C2
330
1F
100
AcDbEntity
  8
0
 62
     1
370
     0
100
AcDbCircle
 10
293.928987043
 20
53.2301623948
 30
0.0
 40
2.277829406127415
100
AcDbArc
 50
306.0377529468
 51
43.4396461534
  0
ARC
  5
C3
330
1F
100
AcDbEntity
  8
0
 62
     1
370
     0
100
AcDbCircle
 10
288.4075170191
 20
52.4417708091
 30
0.0
 40
4.7724550567918
100
AcDbArc
 50
45.5592925416
 51
125.8325555121
  0
ARC
  5
C4
330
1F
100
AcDbEntity
  8
0
 62
     1
370
     0
100
AcDbCircle
 10
288.8840014552
 20
53.2530035173
 30
0.0
 40
3.866351232519357
100
AcDbArc
 50
321.9435288427
 51
42.1815007004
  0
MTEXT
  5
C6
330
1F
100
AcDbEntity
  8
0
  6
Continuous
 62
     7
370
     0
100
AcDbMText
 10
248.3140276206
 20
19.8312660554
 30
0.0
 40
3.96875
 41
0.0
 71
     1
 72
     1
  1
UNIT:m/m
  7
SLDTEXTSTYLE0
 73
     1
 44
1.0
  0
INSERT
  5
CD
330
1F
100
AcDbEntity
  8
0
  6
Continuous
 62
     7
370
     0
100
AcDbBlockReference
  2
SW_NOTE_0
 10
18.347261408
 20
290.8356456377
 30
0.0
  0
MTEXT
  5
CF
330
1F
100
AcDbEntity
  8
0
  6
Continuous
 62
     7
370
     0
100
AcDbMText
 10
298.0877840902
 20
60.6610161208
 30
0.0
 40
3.571875
 41
0.0
 71
     1
 72
     1
  1
Unice E-O Services Inc.
  7
SLDTEXTSTYLE1
 73
     1
 44
1.0
  0
MTEXT
  5
D0
330
1F
100
AcDbEntity
  8
0
  6
Continuous
 62
     7
370
     0
100
AcDbMText
 10
326.3385807224
 20
32.3800722766
 30
0.0
 40
2.778125
 41
0.0
 71
     1
 72
     1
  1
2010/12/30
  7
SLDTEXTSTYLE0
 73
     1
 44
1.0
  0
MTEXT
  5
D1
330
1F
100
AcDbEntity
  8
0
  6
Continuous
 62
     7
370
     0
100
AcDbMText
 10
378.913347376
 20
25.30676661
 30
0.0
 40
3.75
 41
0.0
 71
     1
 72
     1
  1
1:1.5
  7
SLDTEXTSTYLE0
 73
     1
 44
1.0
  0
MTEXT
  5
D2
330
1F
100
AcDbEntity
  8
0
  6
Continuous
 62
     7
370
     0
100
AcDbMText
 10
378.4613399977
 20
48.2278793156
 30
0.0
 40
3.75
 41
0.0
 71
     1
 72
     1
  1
05NTP-1M
  7
SLDTEXTSTYLE0
 73
     1
 44
1.0
  0
MTEXT
  5
D3
330
1F
100
AcDbEntity
  8
0
  6
Continuous
 62
     7
370
     0
100
AcDbMText
 10
378.4613399977
 20
57.1623176818
 30
0.0
 40
3.75
 41
0.0
 71
     1
 72
     1
  1
05NTP-1M
  7
SLDTEXTSTYLE0
 73
     1
 44
1.0
  0
MTEXT
  5
D4
330
1F
100
AcDbEntity
  8
0
  6
Continuous
 62
     7
370
     0
100
AcDbMText
 10
354.588280018
 20
24.7597193593
 30
0.0
 40
3.175
 41
0.0
 71
     1
 72
     1
  1
SCALE:
  7
SLDTEXTSTYLE0
 73
     1
 44
1.0
  0
MTEXT
  5
D5
330
1F
100
AcDbEntity
  8
0
  6
Continuous
 62
     7
370
     0
100
AcDbMText
 10
279.5004130184
 20
32.3800722766
 30
0.0
 40
2.778125
 41
0.0
 71
     1
 72
     1
  1
DRAWN
  7
SLDTEXTSTYLE0
 73
     1
 44
1.0
  0
MTEXT
  5
D6
330
1F
100
AcDbEntity
  8
0
  6
Continuous
 62
     7
370
     0
100
AcDbMText
 10
304.8342551905
 20
40.024812462
 30
0.0
 40
2.778125
 41
0.0
 71
     1
 72
     1
  1
NAME
  7
SLDTEXTSTYLE0
 73
     1
 44
1.0
  0
MTEXT
  5
D7
330
1F
100
AcDbEntity
  8
0
  6
Continuous
 62
     7
370
     0
100
AcDbMText
 10
331.3065233636
 20
40.024812462
 30
0.0
 40
2.778125
 41
0.0
 71
     1
 72
     1
  1
DATE
  7
SLDTEXTSTYLE0
 73
     1
 44
1.0
  0
MTEXT
  5
D8
330
1F
100
AcDbEntity
  8
0
  6
Continuous
 62
     7
370
     0
100
AcDbMText
 10
354.4134474968
 20
47.6808320649
 30
0.0
 40
3.175
 41
0.0
 71
     1
 72
     1
  1
DWG. NO.
  7
SLDTEXTSTYLE0
 73
     1
 44
1.0
  0
MTEXT
  5
D9
330
1F
100
AcDbEntity
  8
0
  6
Continuous
 62
     7
370
     0
100
AcDbMText
 10
354.5444860632
 20
62.8260987365
 30
0.0
 40
3.175
 41
0.0
 71
     1
 72
     1
  1
TITLE:
  7
SLDTEXTSTYLE0
 73
     1
 44
1.0
  0
MTEXT
  5
DA
330
1F
100
AcDbEntity
  8
0
  6
Continuous
 62
     7
370
     0
100
AcDbMText
 10
304.5471314703
 20
24.3605684586
 30
0.0
 40
2.778125
 41
0.0
 71
     1
 72
     1
  1
Johnny
  7
SLDTEXTSTYLE0
 73
     1
 44
1.0
  0
MTEXT
  5
DB
330
1F
100
AcDbEntity
  8
0
  6
Continuous
 62
     7
370
     0
100
AcDbMText
 10
326.3385807224
 20
24.3605684586
 30
0.0
 40
2.778125
 41
0.0
 71
     1
 72
     1
  1
2010/12/30
  7
SLDTEXTSTYLE0
 73
     1
 44
1.0
  0
MTEXT
  5
DC
330
1F
100
AcDbEntity
  8
0
  6
Continuous
 62
     7
370
     0
100
AcDbMText
 10
279.5004130184
 20
24.3605684586
 30
0.0
 40
2.778125
 41
0.0
 71
     1
 72
     1
  1
ENG APPR.
  7
SLDTEXTSTYLE0
 73
     1
 44
1.0
  0
MTEXT
  5
DD
330
1F
100
AcDbEntity
  8
0
  6
Continuous
 62
     7
370
     0
100
AcDbMText
 10
354.588280018
 20
17.5280083932
 30
0.0
 40
3.175
 41
0.0
 71
     1
 72
     1
  1
REV
  7
SLDTEXTSTYLE0
 73
     1
 44
1.0
  0
MTEXT
  5
DE
330
1F
100
AcDbEntity
  8
0
  6
Continuous
 62
     7
370
     0
100
AcDbMText
 10
354.5444860632
 20
40.4239633627
 30
0.0
 40
3.175
 41
0.0
 71
     1
 72
     1
  1
MATERIAL:
  7
SLDTEXTSTYLE0
 73
     1
 44
1.0
  0
MTEXT
  5
DF
330
1F
100
AcDbEntity
  8
0
  6
Continuous
 62
     7
370
     0
100
AcDbMText
 10
378.913347376
 20
33.326270428
 30
0.0
 40
3.75
 41
0.0
 71
     1
 72
     1
  1
N/A
  7
SLDTEXTSTYLE0
 73
     1
 44
1.0
  0
MTEXT
  5
E0
330
1F
100
AcDbEntity
  8
0
  6
Continuous
 62
     7
370
     0
100
AcDbMText
 10
39.90448973
 20
306.6800274854
 30
0.0
 40
3.175
 41
0.0
 71
     1
 72
     1
  1
1
  7
SLDTEXTSTYLE0
 73
     1
 44
1.0
  0
MTEXT
  5
E1
330
1F
100
AcDbEntity
  8
0
  6
Continuous
 62
     7
370
     0
100
AcDbMText
 10
91.0756493586
 20
306.6800274854
 30
0.0
 40
3.175
 41
0.0
 71
     1
 72
     1
  1
2
  7
SLDTEXTSTYLE0
 73
     1
 44
1.0
  0
MTEXT
  5
E2
330
1F
100
AcDbEntity
  8
0
  6
Continuous
 62
     7
370
     0
100
AcDbMText
 10
142.3514915859
 20
306.6800274854
 30
0.0
 40
3.175
 41
0.0
 71
     1
 72
     1
  1
3
  7
SLDTEXTSTYLE0
 73
     1
 44
1.0
  0
MTEXT
  5
E3
330
1F
100
AcDbEntity
  8
0
  6
Continuous
 62
     7
370
     0
100
AcDbMText
 10
193.8800044277
 20
306.4488876546
 30
0.0
 40
3.175
 41
0.0
 71
     1
 72
     1
  1
4
  7
SLDTEXTSTYLE0
 73
     1
 44
1.0
  0
MTEXT
  5
E4
330
1F
100
AcDbEntity
  8
0
  6
Continuous
 62
     7
370
     0
100
AcDbMText
 10
245.5534851959
 20
306.6800274854
 30
0.0
 40
3.175
 41
0.0
 71
     1
 72
     1
  1
5
  7
SLDTEXTSTYLE0
 73
     1
 44
1.0
  0
MTEXT
  5
E5
330
1F
100
AcDbEntity
  8
0
  6
Continuous
 62
     7
370
     0
100
AcDbMText
 10
297.9573255623
 20
306.6800274854
 30
0.0
 40
3.175
 41
0.0
 71
     1
 72
     1
  1
6
  7
SLDTEXTSTYLE0
 73
     1
 44
1.0
  0
MTEXT
  5
E6
330
1F
100
AcDbEntity
  8
0
  6
Continuous
 62
     7
370
     0
100
AcDbMText
 10
351.544598611
 20
306.6800274854
 30
0.0
 40
3.175
 41
0.0
 71
     1
 72
     1
  1
7
  7
SLDTEXTSTYLE0
 73
     1
 44
1.0
  0
MTEXT
  5
E7
330
1F
100
AcDbEntity
  8
0
  6
Continuous
 62
     7
370
     0
100
AcDbMText
 10
399.4181730741
 20
306.6800274854
 30
0.0
 40
3.175
 41
0.0
 71
     1
 72
     1
  1
8
  7
SLDTEXTSTYLE0
 73
     1
 44
1.0
  0
MTEXT
  5
E8
330
1F
100
AcDbEntity
  8
0
  6
Continuous
 62
     7
370
     0
100
AcDbMText
 10
8.0352354832
 20
278.7169534319
 30
0.0
 40
3.175
 41
0.0
 71
     1
 72
     1
  1
A
  7
SLDTEXTSTYLE0
 73
     1
 44
1.0
  0
MTEXT
  5
E9
330
1F
100
AcDbEntity
  8
0
  6
Continuous
 62
     7
370
     0
100
AcDbMText
 10
8.3865647747
 20
231.4489572357
 30
0.0
 40
3.175
 41
0.0
 71
     1
 72
     1
  1
B
  7
SLDTEXTSTYLE0
 73
     1
 44
1.0
  0
MTEXT
  5
EA
330
1F
100
AcDbEntity
  8
0
  6
Continuous
 62
     7
370
     0
100
AcDbMText
 10
8.3865647747
 20
181.9115271345
 30
0.0
 40
3.175
 41
0.0
 71
     1
 72
     1
  1
C
  7
SLDTEXTSTYLE0
 73
     1
 44
1.0
  0
MTEXT
  5
EB
330
1F
100
AcDbEntity
  8
0
  6
Continuous
 62
     7
370
     0
100
AcDbMText
 10
8.3865647747
 20
133.1179830331
 30
0.0
 40
3.175
 41
0.0
 71
     1
 72
     1
  1
D
  7
SLDTEXTSTYLE0
 73
     1
 44
1.0
  0
MTEXT
  5
EC
330
1F
100
AcDbEntity
  8
0
  6
Continuous
 62
     7
370
     0
100
AcDbMText
 10
8.3865647747
 20
86.3338273796
 30
0.0
 40
3.175
 41
0.0
 71
     1
 72
     1
  1
E
  7
SLDTEXTSTYLE0
 73
     1
 44
1.0
  0
MTEXT
  5
ED
330
1F
100
AcDbEntity
  8
0
  6
Continuous
 62
     7
370
     0
100
AcDbMText
 10
8.3865647747
 20
38.3541318378
 30
0.0
 40
3.175
 41
0.0
 71
     1
 72
     1
  1
F
  7
SLDTEXTSTYLE0
 73
     1
 44
1.0
  0
MTEXT
  5
EE
330
1F
100
AcDbEntity
  8
0
  6
Continuous
 62
     7
370
     0
100
AcDbMText
 10
399.2787925446
 20
9.9354335945
 30
0.0
 40
3.175
 41
0.0
 71
     1
 72
     1
  1
8
  7
SLDTEXTSTYLE0
 73
     1
 44
1.0
  0
MTEXT
  5
EF
330
1F
100
AcDbEntity
  8
0
  6
Continuous
 62
     7
370
     0
100
AcDbMText
 10
351.4052180815
 20
9.9354335945
 30
0.0
 40
3.175
 41
0.0
 71
     1
 72
     1
  1
7
  7
SLDTEXTSTYLE0
 73
     1
 44
1.0
  0
MTEXT
  5
F0
330
1F
100
AcDbEntity
  8
0
  6
Continuous
 62
     7
370
     0
100
AcDbMText
 10
297.8179450327
 20
9.9354335945
 30
0.0
 40
3.175
 41
0.0
 71
     1
 72
     1
  1
6
  7
SLDTEXTSTYLE0
 73
     1
 44
1.0
  0
MTEXT
  5
F1
330
1F
100
AcDbEntity
  8
0
  6
Continuous
 62
     7
370
     0
100
AcDbMText
 10
245.4141046664
 20
9.9354335945
 30
0.0
 40
3.175
 41
0.0
 71
     1
 72
     1
  1
5
  7
SLDTEXTSTYLE0
 73
     1
 44
1.0
  0
MTEXT
  5
F2
330
1F
100
AcDbEntity
  8
0
  6
Continuous
 62
     7
370
     0
100
AcDbMText
 10
193.7406238981
 20
9.7042937637
 30
0.0
 40
3.175
 41
0.0
 71
     1
 72
     1
  1
4
  7
SLDTEXTSTYLE0
 73
     1
 44
1.0
  0
MTEXT
  5
F3
330
1F
100
AcDbEntity
  8
0
  6
Continuous
 62
     7
370
     0
100
AcDbMText
 10
142.2121110564
 20
9.9354335945
 30
0.0
 40
3.175
 41
0.0
 71
     1
 72
     1
  1
3
  7
SLDTEXTSTYLE0
 73
     1
 44
1.0
  0
MTEXT
  5
F4
330
1F
100
AcDbEntity
  8
0
  6
Continuous
 62
     7
370
     0
100
AcDbMText
 10
90.9362688291
 20
9.9354335945
 30
0.0
 40
3.175
 41
0.0
 71
     1
 72
     1
  1
2
  7
SLDTEXTSTYLE0
 73
     1
 44
1.0
  0
MTEXT
  5
F5
330
1F
100
AcDbEntity
  8
0
  6
Continuous
 62
     7
370
     0
100
AcDbMText
 10
39.7651092004
 20
9.9354335945
 30
0.0
 40
3.175
 41
0.0
 71
     1
 72
     1
  1
1
  7
SLDTEXTSTYLE0
 73
     1
 44
1.0
  0
MTEXT
  5
F6
330
1F
100
AcDbEntity
  8
0
  6
Continuous
 62
     7
370
     0
100
AcDbMText
 10
430.6535769217
 20
279.9637363637
 30
0.0
 40
3.175
 41
0.0
 71
     1
 72
     1
  1
A
  7
SLDTEXTSTYLE0
 73
     1
 44
1.0
  0
MTEXT
  5
F7
330
1F
100
AcDbEntity
  8
0
  6
Continuous
 62
     7
370
     0
100
AcDbMText
 10
431.0049062132
 20
232.6957401676
 30
0.0
 40
3.175
 41
0.0
 71
     1
 72
     1
  1
B
  7
SLDTEXTSTYLE0
 73
     1
 44
1.0
  0
MTEXT
  5
F8
330
1F
100
AcDbEntity
  8
0
  6
Continuous
 62
     7
370
     0
100
AcDbMText
 10
431.0049062132
 20
183.1583100664
 30
0.0
 40
3.175
 41
0.0
 71
     1
 72
     1
  1
C
  7
SLDTEXTSTYLE0
 73
     1
 44
1.0
  0
MTEXT
  5
F9
330
1F
100
AcDbEntity
  8
0
  6
Continuous
 62
     7
370
     0
100
AcDbMText
 10
431.0049062132
 20
134.364765965
 30
0.0
 40
3.175
 41
0.0
 71
     1
 72
     1
  1
D
  7
SLDTEXTSTYLE0
 73
     1
 44
1.0
  0
MTEXT
  5
FA
330
1F
100
AcDbEntity
  8
0
  6
Continuous
 62
     7
370
     0
100
AcDbMText
 10
431.0049062132
 20
87.5806103114
 30
0.0
 40
3.175
 41
0.0
 71
     1
 72
     1
  1
E
  7
SLDTEXTSTYLE0
 73
     1
 44
1.0
  0
MTEXT
  5
FB
330
1F
100
AcDbEntity
  8
0
  6
Continuous
 62
     7
370
     0
100
AcDbMText
 10
431.0049062132
 20
39.6009147696
 30
0.0
 40
3.175
 41
0.0
 71
     1
 72
     1
  1
F
  7
SLDTEXTSTYLE0
 73
     1
 44
1.0
  0
MTEXT
  5
FC
330
1F
100
AcDbEntity
  8
0
  6
Continuous
 62
     7
370
     0
100
AcDbMText
 10
304.7329693203
 20
32.3800722766
 30
0.0
 40
2.778125
 41
0.0
 71
     1
 72
     1
  1
Miki
  7
SLDTEXTSTYLE0
 73
     1
 44
1.0
  0
MTEXT
  5
FD
330
1F
100
AcDbEntity
  8
0
  6
Continuous
 62
     7
370
     0
100
AcDbMText
 10
379.2723359468
 20
18.0750556439
 30
0.0
 40
3.75
 41
0.0
 71
     1
 72
     1
  1
0
  7
SLDTEXTSTYLE0
 73
     1
 44
1.0
  0
INSERT
  5
104
330
1F
100
AcDbEntity
  8
SLD-0
 62
     7
100
AcDbBlockReference
  2
SW_NOTE_1
 10
298.0877840902
 20
49.8172852271
 30
0.0
  0
ARC
  5
105
330
1F
100
AcDbEntity
  8
0
  6
Continuous
 62
     7
370
    30
100
AcDbCircle
 10
101.7353717073
 20
100.5119786288
 30
0.0
 40
5.0
100
AcDbArc
 50
180.0
 51
270.0
  0
LINE
  5
106
330
1F
100
AcDbEntity
  8
0
  6
Continuous
 62
     7
370
    30
100
AcDbLine
 10
96.7353717073
 20
217.5119786288
 30
0.0
 11
96.7353717073
 21
100.5119786288
 31
0.0
  0
ARC
  5
107
330
1F
100
AcDbEntity
  8
0
  6
Continuous
 62
     7
370
    30
100
AcDbCircle
 10
101.7353717073
 20
217.5119786288
 30
0.0
 40
5.000000000000057
100
AcDbArc
 50
90.0
 51
180.0
  0
LINE
  5
108
330
1F
100
AcDbEntity
  8
0
  6
Continuous
 62
     7
370
    30
100
AcDbLine
 10
167.7353717073
 20
222.5119786288
 30
0.0
 11
101.7353717073
 21
222.5119786288
 31
0.0
  0
ARC
  5
109
330
1F
100
AcDbEntity
  8
0
  6
Continuous
 62
     7
370
    30
100
AcDbCircle
 10
167.7353717073
 20
217.5119786288
 30
0.0
 40
5.0
100
AcDbArc
 50
0.0
 51
90.0
  0
LINE
  5
10A
330
1F
100
AcDbEntity
  8
0
  6
Continuous
 62
     7
370
    30
100
AcDbLine
 10
172.7353717073
 20
100.5119786288
 30
0.0
 11
172.7353717073
 21
217.5119786288
 31
0.0
  0
ARC
  5
10B
330
1F
100
AcDbEntity
  8
0
  6
Continuous
 62
     7
370
    30
100
AcDbCircle
 10
167.7353717073
 20
100.5119786288
 30
0.0
 40
5.000000000000014
100
AcDbArc
 50
270.0
 51
0.0
  0
LINE
  5
10C
330
1F
100
AcDbEntity
  8
0
  6
Continuous
 62
     7
370
    30
100
AcDbLine
 10
101.7353717073
 20
95.5119786288
 30
0.0
 11
167.7353717073
 21
95.5119786288
 31
0.0
  0
CIRCLE
  5
10D
330
1F
100
AcDbEntity
  8
0
  6
Continuous
 62
     7
370
    30
100
AcDbCircle
 10
147.2353717073
 20
159.0119786288
 30
0.0
 40
5.5
  0
CIRCLE
  5
10E
330
1F
100
AcDbEntity
  8
0
  6
Continuous
 62
     7
370
    30
100
AcDbCircle
 10
134.7353717073
 20
159.0119786288
 30
0.0
 40
5.499999999999972
  0
CIRCLE
  5
10F
330
1F
100
AcDbEntity
  8
0
  6
Continuous
 62
     7
370
    30
100
AcDbCircle
 10
122.2353717073
 20
159.0119786288
 30
0.0
 40
5.5
  0
CIRCLE
  5
110
330
1F
100
AcDbEntity
  8
0
  6
Continuous
 62
     7
370
    30
100
AcDbCircle
 10
147.2353717073
 20
171.5119786288
 30
0.0
 40
1.649999999999977
  0
CIRCLE
  5
111
330
1F
100
AcDbEntity
  8
0
  6
Continuous
 62
     7
370
    30
100
AcDbCircle
 10
147.2353717073
 20
196.5119786288
 30
0.0
 40
1.649999999999977
  0
CIRCLE
  5
112
330
1F
100
AcDbEntity
  8
0
  6
Continuous
 62
     7
370
    30
100
AcDbCircle
 10
122.2353717073
 20
196.5119786288
 30
0.0
 40
1.649999999999977
  0
CIRCLE
  5
113
330
1F
100
AcDbEntity
  8
0
  6
Continuous
 62
     7
370
    30
100
AcDbCircle
 10
122.2353717073
 20
171.5119786288
 30
0.0
 40
1.649999999999977
  0
CIRCLE
  5
114
330
1F
100
AcDbEntity
  8
0
  6
Continuous
 62
     7
370
    30
100
AcDbCircle
 10
122.2353717073
 20
146.5119786288
 30
0.0
 40
1.649999999999977
  0
CIRCLE
  5
115
330
1F
100
AcDbEntity
  8
0
  6
Continuous
 62
     7
370
    30
100
AcDbCircle
 10
122.2353717073
 20
121.5119786288
 30
0.0
 40
1.649999999999977
  0
CIRCLE
  5
116
330
1F
100
AcDbEntity
  8
0
  6
Continuous
 62
     7
370
    30
100
AcDbCircle
 10
147.2353717073
 20
121.5119786288
 30
0.0
 40
1.649999999999977
  0
CIRCLE
  5
117
330
1F
100
AcDbEntity
  8
0
  6
Continuous
 62
     7
370
    30
100
AcDbCircle
 10
147.2353717073
 20
146.5119786288
 30
0.0
 40
1.649999999999977
  0
CIRCLE
  5
118
330
1F
100
AcDbEntity
  8
0
  6
Continuous
 62
     7
370
    30
100
AcDbCircle
 10
109.7353717073
 20
134.0119786288
 30
0.0
 40
2.499999999999972
  0
CIRCLE
  5
119
330
1F
100
AcDbEntity
  8
0
  6
Continuous
 62
     7
370
    30
100
AcDbCircle
 10
109.7353717073
 20
109.0119786288
 30
0.0
 40
2.499999999999986
  0
CIRCLE
  5
11A
330
1F
100
AcDbEntity
  8
0
  6
Continuous
 62
     7
370
    30
100
AcDbCircle
 10
134.7353717073
 20
109.0119786288
 30
0.0
 40
2.5
  0
CIRCLE
  5
11B
330
1F
100
AcDbEntity
  8
0
  6
Continuous
 62
     7
370
    30
100
AcDbCircle
 10
134.7353717073
 20
134.0119786288
 30
0.0
 40
2.5
  0
CIRCLE
  5
11C
330
1F
100
AcDbEntity
  8
0
  6
Continuous
 62
     7
370
    30
100
AcDbCircle
 10
159.7353717073
 20
109.0119786288
 30
0.0
 40
2.5
  0
CIRCLE
  5
11D
330
1F
100
AcDbEntity
  8
0
  6
Continuous
 62
     7
370
    30
100
AcDbCircle
 10
159.7353717073
 20
134.0119786288
 30
0.0
 40
2.5
  0
CIRCLE
  5
11E
330
1F
100
AcDbEntity
  8
0
  6
Continuous
 62
     7
370
    30
100
AcDbCircle
 10
159.7353717073
 20
159.0119786288
 30
0.0
 40
2.499999999999972
  0
CIRCLE
  5
11F
330
1F
100
AcDbEntity
  8
0
  6
Continuous
 62
     7
370
    30
100
AcDbCircle
 10
159.7353717073
 20
184.0119786288
 30
0.0
 40
2.499999999999972
  0
CIRCLE
  5
120
330
1F
100
AcDbEntity
  8
0
  6
Continuous
 62
     7
370
    30
100
AcDbCircle
 10
159.7353717073
 20
209.0119786288
 30
0.0
 40
2.499999999999972
  0
CIRCLE
  5
121
330
1F
100
AcDbEntity
  8
0
  6
Continuous
 62
     7
370
    30
100
AcDbCircle
 10
134.7353717073
 20
184.0119786288
 30
0.0
 40
2.499999999999972
  0
CIRCLE
  5
122
330
1F
100
AcDbEntity
  8
0
  6
Continuous
 62
     7
370
    30
100
AcDbCircle
 10
134.7353717073
 20
209.0119786288
 30
0.0
 40
2.499999999999972
  0
CIRCLE
  5
123
330
1F
100
AcDbEntity
  8
0
  6
Continuous
 62
     7
370
    30
100
AcDbCircle
 10
109.7353717073
 20
209.0119786288
 30
0.0
 40
2.499999999999986
  0
CIRCLE
  5
124
330
1F
100
AcDbEntity
  8
0
  6
Continuous
 62
     7
370
    30
100
AcDbCircle
 10
109.7353717073
 20
184.0119786288
 30
0.0
 40
2.499999999999986
  0
CIRCLE
  5
125
330
1F
100
AcDbEntity
  8
0
  6
Continuous
 62
     7
370
    30
100
AcDbCircle
 10
109.7353717073
 20
159.0119786288
 30
0.0
 40
2.499999999999986
  0
CIRCLE
  5
126
330
1F
100
AcDbEntity
  8
0
  6
Continuous
 62
     7
370
    30
100
AcDbCircle
 10
147.2353717073
 20
159.0119786288
 30
0.0
 40
3.299999999999983
  0
CIRCLE
  5
127
330
1F
100
AcDbEntity
  8
0
  6
Continuous
 62
     7
370
    30
100
AcDbCircle
 10
134.7353717073
 20
159.0119786288
 30
0.0
 40
3.299999999999983
  0
CIRCLE
  5
128
330
1F
100
AcDbEntity
  8
0
  6
Continuous
 62
     7
370
    30
100
AcDbCircle
 10
122.2353717073
 20
159.0119786288
 30
0.0
 40
3.299999999999997
  0
DIMENSION
  5
129
330
1F
100
AcDbEntity
  8
SLD-0
100
AcDbDimension
  2
_D
 10
96.7353717073
 20
64.0119786288
 30
0.0
 11
134.7353717073
 21
64.0119786288
 31
0.0
 70
   160
  1
<>
 71
     2
 42
-1.0
  3
SLDDIMSTYLE0
100
AcDbAlignedDimension
 13
172.7353717073
 23
100.5119786288
 33
0.0
 14
96.7353717073
 24
100.5119786288
 34
0.0
 50
0.0
100
AcDbRotatedDimension
  0
DIMENSION
  5
134
330
1F
100
AcDbEntity
  8
SLD-0
100
AcDbDimension
  2
_D_1
 10
46.7251885492
 20
95.5119786288
 30
0.0
 11
46.7251885492
 21
159.0119786288
 31
0.0
 70
   160
  1
<>
 71
     2
 42
-1.0
  3
SLDDIMSTYLE0
100
AcDbAlignedDimension
 13
101.7353717073
 23
222.5119786288
 33
0.0
 14
101.7353717073
 24
95.5119786288
 34
0.0
 50
90.0
100
AcDbRotatedDimension
  0
DIMENSION
  5
13E
330
1F
100
AcDbEntity
  8
SLD-0
100
AcDbDimension
  2
_D_2
 10
145.8066764714
 20
197.3374057442
 30
0.0
 11
194.4865272861
 21
184.1219868776
 31
0.0
 70
   163
  1
8 HOLES,\P M4
 71
     1
 42
-1.0
  3
SLDDIMSTYLE1
100
AcDbDiametricDimension
 15
148.6640669433
 25
195.6865515134
 35
0.0
 40
0.0
  0
DIMENSION
  5
148
330
1F
100
AcDbEntity
  8
SLD-0
100
AcDbDimension
  2
_D_3
 10
157.3202396147
 20
208.3661172078
 30
0.0
 11
197.312715228
 21
220.1904538632
 31
0.0
 70
   163
  1
14 HOLES,\P M6
 71
     1
 42
-1.0
  3
SLDDIMSTYLE1
100
AcDbDiametricDimension
 15
162.1505038
 25
209.6578400498
 35
0.0
 40
0.0
  0
DIMENSION
  5
151
330
1F
100
AcDbEntity
  8
SLD-0
 62
     7
100
AcDbDimension
  2
_D_4
 10
87.7807264276
 20
159.0119786288
 30
0.0
 11
87.7807264276
 21
165.2619786288
 31
0.0
 70
   160
  1
<>
 71
     2
 42
-1.0
  3
SLDDIMSTYLE2
100
AcDbAlignedDimension
 13
122.2353717073
 23
171.5119786288
 33
0.0
 14
115.7353717073
 24
159.0119786288
 34
0.0
 50
90.0
100
AcDbRotatedDimension
  0
DIMENSION
  5
15C
330
1F
100
AcDbEntity
  8
SLD-0
 62
     7
100
AcDbDimension
  2
_D_5
 10
87.7807264276
 20
146.5119786288
 30
0.0
 11
87.7807264276
 21
152.7619786288
 31
0.0
 70
   160
  1
<>
 71
     2
 42
-1.0
  3
SLDDIMSTYLE2
100
AcDbAlignedDimension
 13
115.7353717073
 23
159.0119786288
 33
0.0
 14
122.2353717073
 24
146.5119786288
 34
0.0
 50
90.0
100
AcDbRotatedDimension
  0
DIMENSION
  5
166
330
1F
100
AcDbEntity
  8
SLD-0
 62
     7
100
AcDbDimension
  2
_D_6
 10
77.4842581978
 20
159.0119786288
 30
0.0
 11
77.4842581978
 21
171.5119786288
 31
0.0
 70
   160
  1
<>
 71
     2
 42
-1.0
  3
SLDDIMSTYLE0
100
AcDbAlignedDimension
 13
109.7353717073
 23
184.0119786288
 33
0.0
 14
109.7353717073
 24
159.0119786288
 34
0.0
 50
90.0
100
AcDbRotatedDimension
  0
DIMENSION
  5
170
330
1F
100
AcDbEntity
  8
SLD-0
 62
     7
100
AcDbDimension
  2
_D_7
 10
77.4842581978
 20
134.0119786288
 30
0.0
 11
77.4842581978
 21
146.5119786288
 31
0.0
 70
   160
  1
<>
 71
     2
 42
-1.0
  3
SLDDIMSTYLE0
100
AcDbAlignedDimension
 13
109.7353717073
 23
159.0119786288
 33
0.0
 14
109.7353717073
 24
134.0119786288
 34
0.0
 50
90.0
100
AcDbRotatedDimension
  0
DIMENSION
  5
17A
330
1F
100
AcDbEntity
  8
SLD-0
 62
     7
100
AcDbDimension
  2
_D_8
 10
68.1001352541
 20
196.5119786288
 30
0.0
 11
68.1001352541
 21
177.7619786288
 31
0.0
 70
   160
  1
<>
 71
     2
 42
-1.0
  3
SLDDIMSTYLE0
100
AcDbAlignedDimension
 13
115.7353717073
 23
159.0119786288
 33
0.0
 14
122.2353717073
 24
196.5119786288
 34
0.0
 50
90.0
100
AcDbRotatedDimension
  0
DIMENSION
  5
184
330
1F
100
AcDbEntity
  8
SLD-0
 62
     7
100
AcDbDimension
  2
_D_9
 10
68.1001352541
 20
121.5119786288
 30
0.0
 11
68.1001352541
 21
140.2619786288
 31
0.0
 70
   160
  1
<>
 71
     2
 42
-1.0
  3
SLDDIMSTYLE0
100
AcDbAlignedDimension
 13
115.7353717073
 23
159.0119786288
 33
0.0
 14
122.2353717073
 24
121.5119786288
 34
0.0
 50
90.0
100
AcDbRotatedDimension
  0
DIMENSION
  5
18E
330
1F
100
AcDbEntity
  8
SLD-0
 62
     7
100
AcDbDimension
  2
_D_10
 10
57.9340020652
 20
209.0119786288
 30
0.0
 11
57.9340020652
 21
184.0119786288
 31
0.0
 70
   160
  1
<>
 71
     2
 42
-1.0
  3
SLDDIMSTYLE0
100
AcDbAlignedDimension
 13
115.7353717073
 23
159.0119786288
 33
0.0
 14
109.7353717073
 24
209.0119786288
 34
0.0
 50
90.0
100
AcDbRotatedDimension
  0
DIMENSION
  5
198
330
1F
100
AcDbEntity
  8
SLD-0
 62
     7
100
AcDbDimension
  2
_D_11
 10
57.9340020652
 20
109.0119786288
 30
0.0
 11
57.9340020652
 21
134.0119786288
 31
0.0
 70
   160
  1
<>
 71
     2
 42
-1.0
  3
SLDDIMSTYLE0
100
AcDbAlignedDimension
 13
134.7353717073
 23
159.0119786288
 33
0.0
 14
134.7353717073
 24
109.0119786288
 34
0.0
 50
90.0
100
AcDbRotatedDimension
  0
DIMENSION
  5
1A2
330
1F
100
AcDbEntity
  8
SLD-0
 62
     7
100
AcDbDimension
  2
_D_12
 10
134.7353717073
 20
83.444697918
 30
0.0
 11
140.9853717073
 21
83.444697918
 31
0.0
 70
   160
  1
<>
 71
     2
 42
-1.0
  3
SLDDIMSTYLE0
100
AcDbAlignedDimension
 13
147.2353717073
 23
121.5119786288
 33
0.0
 14
134.7353717073
 24
109.0119786288
 34
0.0
 50
0.0
100
AcDbRotatedDimension
  0
DIMENSION
  5
1AC
330
1F
100
AcDbEntity
  8
SLD-0
 62
     7
100
AcDbDimension
  2
_D_13
 10
122.2353717073
 20
83.444697918
 30
0.0
 11
128.4853717073
 21
83.444697918
 31
0.0
 70
   160
  1
<>
 71
     2
 42
-1.0
  3
SLDDIMSTYLE0
100
AcDbAlignedDimension
 13
134.7353717073
 23
109.0119786288
 33
0.0
 14
122.2353717073
 24
121.5119786288
 34
0.0
 50
0.0
100
AcDbRotatedDimension
  0
DIMENSION
  5
1B6
330
1F
100
AcDbEntity
  8
SLD-0
 62
     7
100
AcDbDimension
  2
_D_14
 10
134.7353717073
 20
74.5119786288
 30
0.0
 11
147.2353717073
 21
74.5119786288
 31
0.0
 70
   160
  1
<>
 71
     2
 42
-1.0
  3
SLDDIMSTYLE0
100
AcDbAlignedDimension
 13
159.7353717073
 23
109.0119786288
 33
0.0
 14
134.7353717073
 24
134.0119786288
 34
0.0
 50
0.0
100
AcDbRotatedDimension
  0
DIMENSION
  5
1C0
330
1F
100
AcDbEntity
  8
SLD-0
 62
     7
100
AcDbDimension
  2
_D_15
 10
109.7353717073
 20
74.5119786288
 30
0.0
 11
122.2353717073
 21
74.5119786288
 31
0.0
 70
   160
  1
<>
 71
     2
 42
-1.0
  3
SLDDIMSTYLE0
100
AcDbAlignedDimension
 13
134.7353717073
 23
109.0119786288
 33
0.0
 14
109.7353717073
 24
109.0119786288
 34
0.0
 50
0.0
100
AcDbRotatedDimension
  0
DIMENSION
  5
1CA
330
1F
100
AcDbEntity
  8
SLD-0
100
AcDbDimension
  2
_D_16
 10
142.9205345156
 20
162.422576818
 30
0.0
 11
194.4865272861
 21
138.0664504808
 31
0.0
 70
   163
  1
3 HOLES,\P M6 CLR
 71
     1
 42
-1.0
  3
SLDDIMSTYLE3
100
AcDbDiametricDimension
 15
151.5502088991
 25
155.6013804396
 35
0.0
 40
0.0
  0
INSERT
  5
1DF
330
1F
100
AcDbEntity
  8
SLD-0
100
AcDbBlockReference
  2
SW_CENTERMARKSYMBOL_0
 10
147.2353717073
 20
159.0119786288
 30
0.0
  0
INSERT
  5
1EB
330
1F
100
AcDbEntity
  8
SLD-0
100
AcDbBlockReference
  2
SW_CENTERMARKSYMBOL_1
 10
122.2353717073
 20
159.0119786288
 30
0.0
  0
INSERT
  5
1F7
330
1F
100
AcDbEntity
  8
SLD-0
100
AcDbBlockReference
  2
SW_CENTERMARKSYMBOL_2
 10
122.2353717073
 20
171.5119786288
 30
0.0
  0
INSERT
  5
203
330
1F
100
AcDbEntity
  8
SLD-0
100
AcDbBlockReference
  2
SW_CENTERMARKSYMBOL_3
 10
147.2353717073
 20
171.5119786288
 30
0.0
  0
INSERT
  5
20F
330
1F
100
AcDbEntity
  8
SLD-0
100
AcDbBlockReference
  2
SW_CENTERMARKSYMBOL_4
 10
159.7353717073
 20
184.0119786288
 30
0.0
  0
INSERT
  5
21B
330
1F
100
AcDbEntity
  8
SLD-0
100
AcDbBlockReference
  2
SW_CENTERMARKSYMBOL_5
 10
159.7353717073
 20
209.0119786288
 30
0.0
  0
INSERT
  5
227
330
1F
100
AcDbEntity
  8
SLD-0
100
AcDbBlockReference
  2
SW_CENTERMARKSYMBOL_6
 10
147.2353717073
 20
196.5119786288
 30
0.0
  0
INSERT
  5
233
330
1F
100
AcDbEntity
  8
SLD-0
100
AcDbBlockReference
  2
SW_CENTERMARKSYMBOL_7
 10
134.7353717073
 20
184.0119786288
 30
0.0
  0
INSERT
  5
23F
330
1F
100
AcDbEntity
  8
SLD-0
100
AcDbBlockReference
  2
SW_CENTERMARKSYMBOL_8
 10
134.7353717073
 20
209.0119786288
 30
0.0
  0
INSERT
  5
24B
330
1F
100
AcDbEntity
  8
SLD-0
100
AcDbBlockReference
  2
SW_CENTERMARKSYMBOL_9
 10
122.2353717073
 20
196.5119786288
 30
0.0
  0
INSERT
  5
257
330
1F
100
AcDbEntity
  8
SLD-0
100
AcDbBlockReference
  2
SW_CENTERMARKSYMBOL_10
 10
109.7353717073
 20
209.0119786288
 30
0.0
  0
INSERT
  5
263
330
1F
100
AcDbEntity
  8
SLD-0
100
AcDbBlockReference
  2
SW_CENTERMARKSYMBOL_11
 10
109.7353717073
 20
184.0119786288
 30
0.0
  0
INSERT
  5
26F
330
1F
100
AcDbEntity
  8
SLD-0
100
AcDbBlockReference
  2
SW_CENTERMARKSYMBOL_12
 10
109.7353717073
 20
159.0119786288
 30
0.0
  0
INSERT
  5
27B
330
1F
100
AcDbEntity
  8
SLD-0
100
AcDbBlockReference
  2
SW_CENTERMARKSYMBOL_13
 10
109.7353717073
 20
134.0119786288
 30
0.0
  0
INSERT
  5
287
330
1F
100
AcDbEntity
  8
SLD-0
100
AcDbBlockReference
  2
SW_CENTERMARKSYMBOL_14
 10
109.7353717073
 20
109.0119786288
 30
0.0
  0
INSERT
  5
293
330
1F
100
AcDbEntity
  8
SLD-0
100
AcDbBlockReference
  2
SW_CENTERMARKSYMBOL_15
 10
122.2353717073
 20
146.5119786288
 30
0.0
  0
INSERT
  5
29F
330
1F
100
AcDbEntity
  8
SLD-0
100
AcDbBlockReference
  2
SW_CENTERMARKSYMBOL_16
 10
122.2353717073
 20
121.5119786288
 30
0.0
  0
INSERT
  5
2AB
330
1F
100
AcDbEntity
  8
SLD-0
100
AcDbBlockReference
  2
SW_CENTERMARKSYMBOL_17
 10
134.7353717073
 20
134.0119786288
 30
0.0
  0
INSERT
  5
2B7
330
1F
100
AcDbEntity
  8
SLD-0
100
AcDbBlockReference
  2
SW_CENTERMARKSYMBOL_18
 10
134.7353717073
 20
109.0119786288
 30
0.0
  0
INSERT
  5
2C3
330
1F
100
AcDbEntity
  8
SLD-0
100
AcDbBlockReference
  2
SW_CENTERMARKSYMBOL_19
 10
147.2353717073
 20
121.5119786288
 30
0.0
  0
INSERT
  5
2CF
330
1F
100
AcDbEntity
  8
SLD-0
100
AcDbBlockReference
  2
SW_CENTERMARKSYMBOL_20
 10
147.2353717073
 20
146.5119786288
 30
0.0
  0
INSERT
  5
2DB
330
1F
100
AcDbEntity
  8
SLD-0
100
AcDbBlockReference
  2
SW_CENTERMARKSYMBOL_21
 10
159.7353717073
 20
159.0119786288
 30
0.0
  0
INSERT
  5
2E7
330
1F
100
AcDbEntity
  8
SLD-0
100
AcDbBlockReference
  2
SW_CENTERMARKSYMBOL_22
 10
159.7353717073
 20
134.0119786288
 30
0.0
  0
INSERT
  5
2F3
330
1F
100
AcDbEntity
  8
SLD-0
100
AcDbBlockReference
  2
SW_CENTERMARKSYMBOL_23
 10
159.7353717073
 20
109.0119786288
 30
0.0
  0
ARC
  5
2F4
330
1F
100
AcDbEntity
  8
0
  6
Continuous
 62
     7
370
     0
100
AcDbCircle
 10
147.2353717073
 20
171.5119786288
 30
0.0
 40
2.000000000000026
100
AcDbArc
 50
255.0
 51
195.0
  0
ARC
  5
2F5
330
1F
100
AcDbEntity
  8
0
  6
Continuous
 62
     7
370
     0
100
AcDbCircle
 10
147.2353717073
 20
196.5119786288
 30
0.0
 40
2.000000000000046
100
AcDbArc
 50
255.0
 51
195.0
  0
ARC
  5
2F6
330
1F
100
AcDbEntity
  8
0
  6
Continuous
 62
     7
370
     0
100
AcDbCircle
 10
122.2353717073
 20
196.5119786288
 30
0.0
 40
2.000000000000012
100
AcDbArc
 50
255.0
 51
195.0
  0
ARC
  5
2F7
330
1F
100
AcDbEntity
  8
0
  6
Continuous
 62
     7
370
     0
100
AcDbCircle
 10
122.2353717073
 20
171.5119786288
 30
0.0
 40
2.000000000000002
100
AcDbArc
 50
255.0
 51
195.0
  0
ARC
  5
2F8
330
1F
100
AcDbEntity
  8
0
  6
Continuous
 62
     7
370
     0
100
AcDbCircle
 10
122.2353717073
 20
146.5119786288
 30
0.0
 40
2.000000000000046
100
AcDbArc
 50
255.0
 51
195.0
  0
ARC
  5
2F9
330
1F
100
AcDbEntity
  8
0
  6
Continuous
 62
     7
370
     0
100
AcDbCircle
 10
122.2353717073
 20
121.5119786288
 30
0.0
 40
2.000000000000015
100
AcDbArc
 50
255.0
 51
195.0
  0
ARC
  5
2FA
330
1F
100
AcDbEntity
  8
0
  6
Continuous
 62
     7
370
     0
100
AcDbCircle
 10
147.2353717073
 20
121.5119786288
 30
0.0
 40
2.000000000000026
100
AcDbArc
 50
255.0
 51
195.0
  0
ARC
  5
2FB
330
1F
100
AcDbEntity
  8
0
  6
Continuous
 62
     7
370
     0
100
AcDbCircle
 10
147.2353717073
 20
146.5119786288
 30
0.0
 40
1.999999999999999
100
AcDbArc
 50
255.0
 51
195.0
  0
ARC
  5
2FC
330
1F
100
AcDbEntity
  8
0
  6
Continuous
 62
     7
370
     0
100
AcDbCircle
 10
109.7353717073
 20
134.0119786288
 30
0.0
 40
2.999999999999994
100
AcDbArc
 50
255.0
 51
195.0
  0
ARC
  5
2FD
330
1F
100
AcDbEntity
  8
0
  6
Continuous
 62
     7
370
     0
100
AcDbCircle
 10
109.7353717073
 20
109.0119786288
 30
0.0
 40
3.000000000000025
100
AcDbArc
 50
255.0
 51
195.0
  0
ARC
  5
2FE
330
1F
100
AcDbEntity
  8
0
  6
Continuous
 62
     7
370
     0
100
AcDbCircle
 10
134.7353717073
 20
109.0119786288
 30
0.0
 40
3.000000000000001
100
AcDbArc
 50
255.0
 51
195.0
  0
ARC
  5
2FF
330
1F
100
AcDbEntity
  8
0
  6
Continuous
 62
     7
370
     0
100
AcDbCircle
 10
134.7353717073
 20
134.0119786288
 30
0.0
 40
3.000000000000015
100
AcDbArc
 50
255.0
 51
195.0
  0
ARC
  5
300
330
1F
100
AcDbEntity
  8
0
  6
Continuous
 62
     7
370
     0
100
AcDbCircle
 10
159.7353717073
 20
109.0119786288
 30
0.0
 40
3.000000000000008
100
AcDbArc
 50
255.0
 51
195.0
  0
ARC
  5
301
330
1F
100
AcDbEntity
  8
0
  6
Continuous
 62
     7
370
     0
100
AcDbCircle
 10
159.7353717073
 20
134.0119786288
 30
0.0
 40
2.999999999999987
100
AcDbArc
 50
255.0
 51
195.0
  0
ARC
  5
302
330
1F
100
AcDbEntity
  8
0
  6
Continuous
 62
     7
370
     0
100
AcDbCircle
 10
159.7353717073
 20
159.0119786288
 30
0.0
 40
3.000000000000057
100
AcDbArc
 50
255.0
 51
195.0
  0
ARC
  5
303
330
1F
100
AcDbEntity
  8
0
  6
Continuous
 62
     7
370
     0
100
AcDbCircle
 10
159.7353717073
 20
184.0119786288
 30
0.0
 40
2.999999999999987
100
AcDbArc
 50
255.0
 51
195.0
  0
ARC
  5
304
330
1F
100
AcDbEntity
  8
0
  6
Continuous
 62
     7
370
     0
100
AcDbCircle
 10
159.7353717073
 20
209.0119786288
 30
0.0
 40
3.000000000000049
100
AcDbArc
 50
255.0
 51
195.0
  0
ARC
  5
305
330
1F
100
AcDbEntity
  8
0
  6
Continuous
 62
     7
370
     0
100
AcDbCircle
 10
134.7353717073
 20
184.0119786288
 30
0.0
 40
3.000000000000049
100
AcDbArc
 50
255.0
 51
195.0
  0
ARC
  5
306
330
1F
100
AcDbEntity
  8
0
  6
Continuous
 62
     7
370
     0
100
AcDbCircle
 10
134.7353717073
 20
209.0119786288
 30
0.0
 40
2.999999999999994
100
AcDbArc
 50
255.0
 51
195.0
  0
ARC
  5
307
330
1F
100
AcDbEntity
  8
0
  6
Continuous
 62
     7
370
     0
100
AcDbCircle
 10
109.7353717073
 20
209.0119786288
 30
0.0
 40
3.000000000000043
100
AcDbArc
 50
255.0
 51
195.0
  0
ARC
  5
308
330
1F
100
AcDbEntity
  8
0
  6
Continuous
 62
     7
370
     0
100
AcDbCircle
 10
109.7353717073
 20
184.0119786288
 30
0.0
 40
3.000000000000036
100
AcDbArc
 50
255.0
 51
195.0
  0
ARC
  5
309
330
1F
100
AcDbEntity
  8
0
  6
Continuous
 62
     7
370
     0
100
AcDbCircle
 10
109.7353717073
 20
159.0119786288
 30
0.0
 40
2.999999999999994
100
AcDbArc
 50
255.0
 51
195.0
  0
LINE
  5
30A
330
1F
100
AcDbEntity
  8
SLD-0
  6
CENTERX2
370
     0
100
AcDbLine
 10
134.7353717073
 20
226.5587807501
 30
0.0
 11
134.7353717073
 21
91.8503290101
 31
0.0
  0
LINE
  5
30B
330
1F
100
AcDbEntity
  8
SLD-0
  6
CENTERX2
370
     0
100
AcDbLine
 10
90.865670151
 20
159.0119786288
 30
0.0
 11
177.7214845331
 21
159.0119786288
 31
0.0
  0
LINE
  5
30C
330
1F
100
AcDbEntity
  8
0
  6
Continuous
 62
     7
370
    30
100
AcDbLine
 10
407.8010173277
 20
212.6654276591
 30
0.0
 11
407.8010173277
 21
220.4429788923
 31
0.0
  0
LINE
  5
30D
330
1F
100
AcDbEntity
  8
0
  6
Continuous
 62
     7
370
    30
100
AcDbLine
 10
303.2506116099
 20
236.0567840309
 30
0.0
 11
303.2506116099
 21
228.2792327977
 31
0.0
  0
ARC
  5
30E
330
1F
100
AcDbEntity
  8
0
  6
Continuous
 62
     7
370
    30
100
AcDbCircle
 10
369.049231659
 20
203.7763211001
 30
0.0
 40
5.72173584147353
100
AcDbArc
 50
242.3910402158
 51
297.6089597842
  0
LINE
  5
30F
330
1F
100
AcDbEntity
  8
0
  6
Continuous
 62
     7
370
    30
100
AcDbLine
 10
304.3489611804
 20
234.5260188213
 30
0.0
 11
366.3975812295
 21
198.7061129151
 31
0.0
  0
LWPOLYLINE
  5
310
330
1F
100
AcDbEntity
  8
0
  6
Continuous
 62
     7
370
    30
100
AcDbPolyline
 90
       11
 70
   128
 43
0.0
 10
304.3489611804
 20
237.5875492406
 10
303.9667978809
 20
237.329238544
 10
303.6593371441
 20
237.0395957943
 10
303.4341496737
 20
236.7257529572
 10
303.2967803326
 20
236.395437885
 10
303.2506116099
 20
236.0567840309
 10
303.2967803326
 20
235.7181301769
 10
303.4341496737
 20
235.3878151047
 10
303.6593371441
 20
235.0739722676
 10
303.9667978809
 20
234.7843295178
 10
304.3489611804
 20
234.5260188213
  0
LINE
  5
311
330
1F
100
AcDbEntity
  8
0
  6
Continuous
 62
     7
370
    30
100
AcDbLine
 10
339.3507468491
 20
257.7936500082
 30
0.0
 11
304.3489611804
 21
237.5875492406
 31
0.0
  0
ARC
  5
312
330
1F
100
AcDbEntity
  8
0
  6
Continuous
 62
     7
370
    30
100
AcDbCircle
 10
342.0023972786
 20
252.7234418232
 30
0.0
 40
5.721735841473603
100
AcDbArc
 50
62.3910402158
 51
117.6089597842
  0
LINE
  5
313
330
1F
100
AcDbEntity
  8
0
  6
Continuous
 62
     7
370
    30
100
AcDbLine
 10
406.7026677572
 20
221.973744102
 30
0.0
 11
344.654047708
 21
257.7936500082
 31
0.0
  0
LWPOLYLINE
  5
314
330
1F
100
AcDbEntity
  8
0
  6
Continuous
 62
     7
370
    30
100
AcDbPolyline
 90
       11
 70
   128
 43
0.0
 10
406.7026677572
 20
218.9122136827
 10
407.0848310566
 20
219.1705243792
 10
407.3922917934
 20
219.4601671289
 10
407.6174792638
 20
219.774009966
 10
407.7548486049
 20
220.1043250383
 10
407.8010173277
 20
220.4429788923
 10
407.7548486049
 20
220.7816327464
 10
407.6174792638
 20
221.1119478186
 10
407.3922917934
 20
221.4257906557
 10
407.0848310566
 20
221.7154334054
 10
406.7026677572
 20
221.973744102
  0
LINE
  5
315
330
1F
100
AcDbEntity
  8
0
  6
Continuous
 62
     7
370
    30
100
AcDbLine
 10
371.7008820884
 20
198.7061129151
 30
0.0
 11
406.7026677572
 21
218.9122136827
 31
0.0
  0
LWPOLYLINE
  5
316
330
1F
100
AcDbEntity
  8
0
  6
Continuous
 62
     7
370
    30
100
AcDbPolyline
 90
       43
 70
   128
 43
0.0
 10
359.23812507
 20
230.3929527552
 10
359.7054322769
 20
230.1607962887
 10
360.2274574508
 20
229.9714400558
 10
360.7925394118
 20
229.8291139619
 10
361.3880551629
 20
229.7369973367
 10
362.000701866
 20
229.6971479134
 10
362.6167940063
 20
229.7104558623
 10
363.2225691035
 20
229.7766239058
 10
363.8044951427
 20
229.8941739592
 10
364.349572858
 20
230.0604801484
 10
364.8456261139
 20
230.2718274681
 10
365.2815739004
 20
230.5234947683
 10
365.6476778642
 20
230.8098602175
 10
365.9357598479
 20
231.1245268846
 10
366.1393845758
 20
231.4604656364
 10
366.2540034082
 20
231.8101721563
 10
366.2770559497
 20
232.1658345784
 10
366.2080272445
 20
232.519507992
 10
366.0484592799
 20
232.8632919174
 10
365.8019165406
 20
233.1895067899
 10
365.4739063839
 20
233.4908655081
 10
365.0717560148
 20
233.7606362164
 10
364.6044488079
 20
233.992792683
 10
364.082423634
 20
234.1821489158
 10
363.517341673
 20
234.3244750098
 10
362.921825922
 20
234.4165916349
 10
362.3091792188
 20
234.4564410582
 10
361.6930870785
 20
234.4431331093
 10
361.0873119814
 20
234.3769650658
 10
360.5053859421
 20
234.2594150125
 10
359.9603082268
 20
234.0931088232
 10
359.4642549709
 20
233.8817615036
 10
359.0283071844
 20
233.6300942033
 10
358.6622032206
 20
233.3437287542
 10
358.3741212369
 20
233.029062087
 10
358.170496509
 20
232.6931233352
 10
358.0558776766
 20
232.3434168153
 10
358.0328251352
 20
231.9877543932
 10
358.1018538403
 20
231.6340809796
 10
358.2614218049
 20
231.2902970542
 10
358.5079645442
 20
230.9640821818
 10
358.8359747009
 20
230.6627234635
 10
359.23812507
 20
230.3929527552
  0
LWPOLYLINE
  5
317
330
1F
100
AcDbEntity
  8
0
  6
Continuous
 62
     7
370
    30
100
AcDbPolyline
 90
       43
 70
   128
 43
0.0
 10
352.6089989964
 20
226.566039731
 10
353.0763062033
 20
226.3338832645
 10
353.5983313772
 20
226.1445270316
 10
354.1634133382
 20
226.0022009377
 10
354.7589290892
 20
225.9100843125
 10
355.3715757924
 20
225.8702348892
 10
355.9876679327
 20
225.8835428381
 10
356.5934430298
 20
225.9497108816
 10
357.1753690691
 20
226.067260935
 10
357.7204467844
 20
226.2335671242
 10
358.2165000403
 20
226.4449144439
 10
358.6524478268
 20
226.6965817441
 10
359.0185517906
 20
226.9829471933
 10
359.3066337742
 20
227.2976138605
 10
359.5102585022
 20
227.6335526123
 10
359.6248773346
 20
227.9832591321
 10
359.647929876
 20
228.3389215542
 10
359.5789011709
 20
228.6925949678
 10
359.4193332063
 20
229.0363788932
 10
359.172790467
 20
229.3625937657
 10
358.8447803103
 20
229.663952484
 10
358.4426299412
 20
229.9337231923
 10
357.9753227343
 20
230.1658796588
 10
357.4532975604
 20
230.3552358917
 10
356.8882155993
 20
230.4975619856
 10
356.2926998483
 20
230.5896786108
 10
355.6800531452
 20
230.629528034
 10
355.0639610049
 20
230.6162200851
 10
354.4581859077
 20
230.5500520416
 10
353.8762598685
 20
230.4325019883
 10
353.3311821532
 20
230.2661957991
 10
352.8351288973
 20
230.0548484794
 10
352.3991811108
 20
229.8031811792
 10
352.033077147
 20
229.51681573
 10
351.7449951633
 20
229.2021490628
 10
351.5413704353
 20
228.866210311
 10
351.426751603
 20
228.5165037912
 10
351.4036990615
 20
228.160841369
 10
351.4727277667
 20
227.8071679555
 10
351.6322957313
 20
227.46338403
 10
351.8788384706
 20
227.1371691576
 10
352.2068486272
 20
226.8358104393
 10
352.6089989964
 20
226.566039731
  0
LWPOLYLINE
  5
318
330
1F
100
AcDbEntity
  8
0
  6
Continuous
 62
     7
370
    30
100
AcDbPolyline
 90
       43
 70
   128
 43
0.0
 10
345.9798729228
 20
222.7391267068
 10
346.4471801297
 20
222.5069702403
 10
346.9692053035
 20
222.3176140074
 10
347.5342872646
 20
222.1752879135
 10
348.1298030156
 20
222.0831712883
 10
348.7424497188
 20
222.0433218651
 10
349.3585418591
 20
222.056629814
 10
349.9643169562
 20
222.1227978575
 10
350.5462429955
 20
222.2403479108
 10
351.0913207108
 20
222.4066541
 10
351.5873739667
 20
222.6180014197
 10
352.0233217531
 20
222.8696687199
 10
352.389425717
 20
223.1560341691
 10
352.6775077006
 20
223.4707008363
 10
352.8811324286
 20
223.8066395881
 10
352.995751261
 20
224.156346108
 10
353.0188038024
 20
224.5120085301
 10
352.9497750972
 20
224.8656819437
 10
352.7902071327
 20
225.2094658691
 10
352.5436643934
 20
225.5356807415
 10
352.2156542367
 20
225.8370394598
 10
351.8135038676
 20
226.1068101681
 10
351.3461966606
 20
226.3389666346
 10
350.8241714868
 20
226.5283228675
 10
350.2590895257
 20
226.6706489614
 10
349.6635737747
 20
226.7627655866
 10
349.0509270715
 20
226.8026150099
 10
348.4348349312
 20
226.789307061
 10
347.8290598341
 20
226.7231390175
 10
347.2471337948
 20
226.6055889641
 10
346.7020560795
 20
226.4392827749
 10
346.2060028236
 20
226.2279354552
 10
345.7700550372
 20
225.976268155
 10
345.4039510733
 20
225.6899027058
 10
345.1158690897
 20
225.3752360387
 10
344.9122443617
 20
225.0392972868
 10
344.7976255293
 20
224.689590767
 10
344.7745729879
 20
224.3339283449
 10
344.8436016931
 20
223.9802549313
 10
345.0031696576
 20
223.6364710059
 10
345.249712397
 20
223.3102561334
 10
345.5777225536
 20
223.0088974152
 10
345.9798729228
 20
222.7391267068
  0
LWPOLYLINE
  5
319
330
1F
100
AcDbEntity
  8
0
  6
Continuous
 62
     7
370
    30
100
AcDbPolyline
 90
       24
 70
   128
 43
0.0
 10
354.6507698271
 20
235.3985549908
 10
354.919303075
 20
235.2809988979
 10
355.2328184985
 20
235.209626254
 10
355.5680640926
 20
235.1897304417
 10
355.9001762255
 20
235.2227870424
 10
356.2045236595
 20
235.306344399
 10
356.4585343376
 20
235.4342054449
 10
356.64336945
 20
235.5968873111
 10
356.745320622
 20
235.7823246279
 10
356.7568266014
 20
235.9767643577
 10
356.6770340424
 20
236.1657857954
 10
356.5118607942
 20
236.3353700855
 10
356.2735570008
 20
236.4729399372
 10
355.9797965646
 20
236.5682924237
 10
355.6523663531
 20
236.6143556875
 10
355.3155503673
 20
236.607713427
 10
354.994328708
 20
236.5488582682
 10
354.7125249162
 20
236.4421552291
 10
354.49103909
 20
236.2955179858
 10
354.3462978198
 20
236.119821952
 10
354.2890359036
 20
235.9280976987
 10
354.3235001957
 20
235.7345645366
 10
354.4471346371
 20
235.5535759351
 10
354.6507698271
 20
235.3985549908
  0
LWPOLYLINE
  5
31A
330
1F
100
AcDbEntity
  8
0
  6
Continuous
 62
     7
370
    30
100
AcDbPolyline
 90
       24
 70
   128
 43
0.0
 10
341.3925176798
 20
243.0523810391
 10
341.6610509278
 20
242.9348249462
 10
341.9745663512
 20
242.8634523024
 10
342.3098119454
 20
242.8435564901
 10
342.6419240782
 20
242.8766130907
 10
342.9462715122
 20
242.9601704474
 10
343.2002821904
 20
243.0880314933
 10
343.3851173028
 20
243.2507133595
 10
343.4870684747
 20
243.4361506762
 10
343.4985744541
 20
243.6305904061
 10
343.4187818952
 20
243.8196118437
 10
343.2536086469
 20
243.9891961339
 10
343.0153048536
 20
244.1267659855
 10
342.7215444173
 20
244.2221184721
 10
342.3941142058
 20
244.2681817359
 10
342.0572982201
 20
244.2615394754
 10
341.7360765608
 20
244.2026843166
 10
341.454272769
 20
244.0959812774
 10
341.2327869428
 20
243.9493440342
 10
341.0880456726
 20
243.7736480003
 10
341.0307837564
 20
243.581923747
 10
341.0652480484
 20
243.388390585
 10
341.1888824899
 20
243.2074019835
 10
341.3925176798
 20
243.0523810391
  0
LWPOLYLINE
  5
31B
330
1F
100
AcDbEntity
  8
0
  6
Continuous
 62
     7
370
    30
100
AcDbPolyline
 90
       24
 70
   128
 43
0.0
 10
328.1342655326
 20
235.3985549908
 10
328.4027987805
 20
235.2809988979
 10
328.716314204
 20
235.209626254
 10
329.0515597981
 20
235.1897304417
 10
329.383671931
 20
235.2227870424
 10
329.688019365
 20
235.306344399
 10
329.9420300431
 20
235.4342054449
 10
330.1268651555
 20
235.5968873112
 10
330.2288163275
 20
235.7823246279
 10
330.2403223069
 20
235.9767643577
 10
330.1605297479
 20
236.1657857954
 10
329.9953564997
 20
236.3353700855
 10
329.7570527063
 20
236.4729399372
 10
329.4632922701
 20
236.5682924237
 10
329.1358620586
 20
236.6143556875
 10
328.7990460728
 20
236.607713427
 10
328.4778244135
 20
236.5488582682
 10
328.1960206217
 20
236.4421552291
 10
327.9745347955
 20
236.2955179858
 10
327.8297935254
 20
236.119821952
 10
327.7725316091
 20
235.9280976987
 10
327.8069959012
 20
235.7345645366
 10
327.9306303426
 20
235.5535759351
 10
328.1342655326
 20
235.3985549908
  0
LWPOLYLINE
  5
31C
330
1F
100
AcDbEntity
  8
0
  6
Continuous
 62
     7
370
    30
100
AcDbPolyline
 90
       24
 70
   128
 43
0.0
 10
341.3925176798
 20
227.7447289425
 10
341.6610509278
 20
227.6271728495
 10
341.9745663512
 20
227.5558002057
 10
342.3098119454
 20
227.5359043934
 10
342.6419240782
 20
227.568960994
 10
342.9462715122
 20
227.6525183507
 10
343.2002821904
 20
227.7803793966
 10
343.3851173028
 20
227.9430612628
 10
343.4870684747
 20
228.1284985796
 10
343.4985744541
 20
228.3229383094
 10
343.4187818952
 20
228.511959747
 10
343.2536086469
 20
228.6815440372
 10
343.0153048536
 20
228.8191138888
 10
342.7215444173
 20
228.9144663754
 10
342.3941142058
 20
228.9605296392
 10
342.0572982201
 20
228.9538873787
 10
341.7360765608
 20
228.8950322199
 10
341.454272769
 20
228.7883291807
 10
341.2327869428
 20
228.6416919375
 10
341.0880456726
 20
228.4659959037
 10
341.0307837564
 20
228.2742716503
 10
341.0652480484
 20
228.0807384883
 10
341.1888824899
 20
227.8997498868
 10
341.3925176798
 20
227.7447289425
  0
LWPOLYLINE
  5
31D
330
1F
100
AcDbEntity
  8
0
  6
Continuous
 62
     7
370
    30
100
AcDbPolyline
 90
       24
 70
   128
 43
0.0
 10
354.6507698271
 20
220.0909028941
 10
354.919303075
 20
219.9733468012
 10
355.2328184985
 20
219.9019741574
 10
355.5680640926
 20
219.8820783451
 10
355.9001762255
 20
219.9151349457
 10
356.2045236595
 20
219.9986923024
 10
356.4585343376
 20
220.1265533483
 10
356.64336945
 20
220.2892352145
 10
356.745320622
 20
220.4746725312
 10
356.7568266014
 20
220.6691122611
 10
356.6770340424
 20
220.8581336987
 10
356.5118607942
 20
221.0277179888
 10
356.2735570008
 20
221.1652878405
 10
355.9797965646
 20
221.2606403271
 10
355.6523663531
 20
221.3067035909
 10
355.3155503673
 20
221.3000613303
 10
354.994328708
 20
221.2412061716
 10
354.7125249162
 20
221.1345031324
 10
354.49103909
 20
220.9878658892
 10
354.3462978198
 20
220.8121698553
 10
354.2890359036
 20
220.620445602
 10
354.3235001957
 20
220.4269124399
 10
354.4471346371
 20
220.2459238384
 10
354.6507698271
 20
220.0909028941
  0
LWPOLYLINE
  5
31E
330
1F
100
AcDbEntity
  8
0
  6
Continuous
 62
     7
370
    30
100
AcDbPolyline
 90
       24
 70
   128
 43
0.0
 10
367.9090219743
 20
212.4370768458
 10
368.1775552223
 20
212.3195207529
 10
368.4910706457
 20
212.248148109
 10
368.8263162399
 20
212.2282522967
 10
369.1584283727
 20
212.2613088973
 10
369.4627758067
 20
212.344866254
 10
369.7167864849
 20
212.4727272999
 10
369.9016215973
 20
212.6354091661
 10
370.0035727692
 20
212.8208464829
 10
370.0150787486
 20
213.0152862127
 10
369.9352861897
 20
213.2043076504
 10
369.7701129414
 20
213.3738919405
 10
369.5318091481
 20
213.5114617922
 10
369.2380487118
 20
213.6068142787
 10
368.9106185003
 20
213.6528775425
 10
368.5738025146
 20
213.646235282
 10
368.2525808553
 20
213.5873801232
 10
367.9707770635
 20
213.4806770841
 10
367.7492912373
 20
213.3340398408
 10
367.6045499671
 20
213.158343807
 10
367.5472880509
 20
212.9666195537
 10
367.5817523429
 20
212.7730863916
 10
367.7053867844
 20
212.5920977901
 10
367.9090219743
 20
212.4370768458
  0
LWPOLYLINE
  5
31F
330
1F
100
AcDbEntity
  8
0
  6
Continuous
 62
     7
370
    30
100
AcDbPolyline
 90
       24
 70
   128
 43
0.0
 10
381.1672741216
 20
220.0909028941
 10
381.4358073695
 20
219.9733468012
 10
381.7493227929
 20
219.9019741574
 10
382.0845683871
 20
219.8820783451
 10
382.41668052
 20
219.9151349457
 10
382.7210279539
 20
219.9986923024
 10
382.9750386321
 20
220.1265533483
 10
383.1598737445
 20
220.2892352145
 10
383.2618249165
 20
220.4746725312
 10
383.2733308959
 20
220.6691122611
 10
383.1935383369
 20
220.8581336987
 10
383.0283650887
 20
221.0277179888
 10
382.7900612953
 20
221.1652878405
 10
382.4963008591
 20
221.2606403271
 10
382.1688706476
 20
221.3067035909
 10
381.8320546618
 20
221.3000613303
 10
381.5108330025
 20
221.2412061716
 10
381.2290292107
 20
221.1345031324
 10
381.0075433845
 20
220.9878658892
 10
380.8628021143
 20
220.8121698553
 10
380.8055401981
 20
220.620445602
 10
380.8400044901
 20
220.4269124399
 10
380.9636389316
 20
220.2459238384
 10
381.1672741216
 20
220.0909028941
  0
LWPOLYLINE
  5
320
330
1F
100
AcDbEntity
  8
0
  6
Continuous
 62
     7
370
    30
100
AcDbPolyline
 90
       24
 70
   128
 43
0.0
 10
367.9090219743
 20
227.7447289425
 10
368.1775552223
 20
227.6271728495
 10
368.4910706457
 20
227.5558002057
 10
368.8263162399
 20
227.5359043934
 10
369.1584283727
 20
227.568960994
 10
369.4627758067
 20
227.6525183507
 10
369.7167864849
 20
227.7803793966
 10
369.9016215973
 20
227.9430612628
 10
370.0035727692
 20
228.1284985796
 10
370.0150787486
 20
228.3229383094
 10
369.9352861897
 20
228.511959747
 10
369.7701129414
 20
228.6815440372
 10
369.5318091481
 20
228.8191138888
 10
369.2380487118
 20
228.9144663754
 10
368.9106185003
 20
228.9605296392
 10
368.5738025146
 20
228.9538873787
 10
368.2525808553
 20
228.8950322199
 10
367.9707770635
 20
228.7883291807
 10
367.7492912373
 20
228.6416919375
 10
367.6045499671
 20
228.4659959037
 10
367.5472880509
 20
228.2742716503
 10
367.5817523429
 20
228.0807384883
 10
367.7053867844
 20
227.8997498868
 10
367.9090219743
 20
227.7447289425
  0
LWPOLYLINE
  5
321
330
1F
100
AcDbEntity
  8
0
  6
Continuous
 62
     7
370
    30
100
AcDbPolyline
 90
       29
 70
   128
 43
0.0
 10
354.1999892541
 20
212.1768467601
 10
354.5282543253
 20
212.025722848
 10
354.9065412276
 20
211.9205563995
 10
355.3158810761
 20
211.8666208997
 10
355.7357478615
 20
211.8666208997
 10
356.1450877099
 20
211.9205563995
 10
356.5233746122
 20
212.025722848
 10
356.8516396835
 20
212.1768467601
 10
357.1134223423
 20
212.3663501521
 10
357.2955957131
 20
212.5847305324
 10
357.3890248623
 20
212.821037397
 10
357.3890248623
 20
213.0634213329
 10
357.2955957131
 20
213.2997281975
 10
357.1134223423
 20
213.5181085779
 10
356.8516396835
 20
213.7076119698
 10
356.5233746122
 20
213.858735882
 10
356.1450877099
 20
213.9639023304
 10
355.7357478615
 20
214.0178378302
 10
355.3158810761
 20
214.0178378302
 10
354.9065412276
 20
213.9639023304
 10
354.5282543253
 20
213.858735882
 10
354.1999892541
 20
213.7076119698
 10
353.9382065952
 20
213.5181085779
 10
353.7560332245
 20
213.2997281975
 10
353.6626040752
 20
213.0634213329
 10
353.6626040752
 20
212.821037397
 10
353.7560332245
 20
212.5847305324
 10
353.9382065952
 20
212.3663501521
 10
354.1999892541
 20
212.1768467601
  0
LWPOLYLINE
  5
322
330
1F
100
AcDbEntity
  8
0
  6
Continuous
 62
     7
370
    30
100
AcDbPolyline
 90
       29
 70
   128
 43
0.0
 10
367.4582414013
 20
204.5230207118
 10
367.7865064726
 20
204.3718967996
 10
368.1647933749
 20
204.2667303512
 10
368.5741332233
 20
204.2127948514
 10
368.9940000087
 20
204.2127948514
 10
369.4033398572
 20
204.2667303512
 10
369.7816267595
 20
204.3718967996
 10
370.1098918308
 20
204.5230207118
 10
370.3716744896
 20
204.7125241037
 10
370.5538478604
 20
204.9309044841
 10
370.6472770096
 20
205.1672113487
 10
370.6472770096
 20
205.4095952846
 10
370.5538478604
 20
205.6459021492
 10
370.3716744896
 20
205.8642825295
 10
370.1098918308
 20
206.0537859215
 10
369.7816267595
 20
206.2049098336
 10
369.4033398572
 20
206.3100762821
 10
368.9940000087
 20
206.3640117819
 10
368.5741332233
 20
206.3640117819
 10
368.1647933749
 20
206.3100762821
 10
367.7865064726
 20
206.2049098336
 10
367.4582414013
 20
206.0537859215
 10
367.1964587425
 20
205.8642825295
 10
367.0142853717
 20
205.6459021492
 10
366.9208562225
 20
205.4095952846
 10
366.9208562225
 20
205.1672113487
 10
367.0142853717
 20
204.9309044841
 10
367.1964587425
 20
204.7125241037
 10
367.4582414013
 20
204.5230207118
  0
LWPOLYLINE
  5
323
330
1F
100
AcDbEntity
  8
0
  6
Continuous
 62
     7
370
    30
100
AcDbPolyline
 90
       29
 70
   128
 43
0.0
 10
380.7164935486
 20
212.1768467601
 10
381.0447586198
 20
212.025722848
 10
381.4230455221
 20
211.9205563995
 10
381.8323853706
 20
211.8666208997
 10
382.252252156
 20
211.8666208997
 10
382.6615920044
 20
211.9205563995
 10
383.0398789067
 20
212.025722848
 10
383.368143978
 20
212.1768467601
 10
383.6299266368
 20
212.3663501521
 10
383.8121000076
 20
212.5847305324
 10
383.9055291568
 20
212.821037397
 10
383.9055291568
 20
213.0634213329
 10
383.8121000076
 20
213.2997281975
 10
383.6299266368
 20
213.5181085779
 10
383.368143978
 20
213.7076119698
 10
383.0398789067
 20
213.858735882
 10
382.6615920044
 20
213.9639023304
 10
382.252252156
 20
214.0178378302
 10
381.8323853706
 20
214.0178378302
 10
381.4230455221
 20
213.9639023304
 10
381.0447586198
 20
213.858735882
 10
380.7164935486
 20
213.7076119698
 10
380.4547108897
 20
213.5181085779
 10
380.2725375189
 20
213.2997281975
 10
380.1791083697
 20
213.0634213329
 10
380.1791083697
 20
212.821037397
 10
380.2725375189
 20
212.5847305324
 10
380.4547108897
 20
212.3663501521
 10
380.7164935486
 20
212.1768467601
  0
LWPOLYLINE
  5
324
330
1F
100
AcDbEntity
  8
0
  6
Continuous
 62
     7
370
    30
100
AcDbPolyline
 90
       29
 70
   128
 43
0.0
 10
367.4582414013
 20
219.8306728085
 10
367.7865064726
 20
219.6795488963
 10
368.1647933749
 20
219.5743824479
 10
368.5741332233
 20
219.5204469481
 10
368.9940000087
 20
219.5204469481
 10
369.4033398572
 20
219.5743824479
 10
369.7816267595
 20
219.6795488963
 10
370.1098918308
 20
219.8306728085
 10
370.3716744896
 20
220.0201762004
 10
370.5538478604
 20
220.2385565808
 10
370.6472770096
 20
220.4748634453
 10
370.6472770096
 20
220.7172473813
 10
370.5538478604
 20
220.9535542459
 10
370.3716744896
 20
221.1719346262
 10
370.1098918308
 20
221.3614380181
 10
369.7816267595
 20
221.5125619303
 10
369.4033398572
 20
221.6177283787
 10
368.9940000087
 20
221.6716638785
 10
368.5741332233
 20
221.6716638785
 10
368.1647933749
 20
221.6177283787
 10
367.7865064726
 20
221.5125619303
 10
367.4582414013
 20
221.3614380181
 10
367.1964587425
 20
221.1719346262
 10
367.0142853717
 20
220.9535542459
 10
366.9208562225
 20
220.7172473813
 10
366.9208562225
 20
220.4748634453
 10
367.0142853717
 20
220.2385565808
 10
367.1964587425
 20
220.0201762004
 10
367.4582414013
 20
219.8306728085
  0
LWPOLYLINE
  5
325
330
1F
100
AcDbEntity
  8
0
  6
Continuous
 62
     7
370
    30
100
AcDbPolyline
 90
       29
 70
   128
 43
0.0
 10
393.9747456958
 20
219.8306728085
 10
394.3030107671
 20
219.6795488963
 10
394.6812976694
 20
219.5743824479
 10
395.0906375178
 20
219.5204469481
 10
395.5105043032
 20
219.5204469481
 10
395.9198441517
 20
219.5743824479
 10
396.298131054
 20
219.6795488963
 10
396.6263961252
 20
219.8306728085
 10
396.8881787841
 20
220.0201762004
 10
397.0703521549
 20
220.2385565808
 10
397.1637813041
 20
220.4748634453
 10
397.1637813041
 20
220.7172473813
 10
397.0703521549
 20
220.9535542459
 10
396.8881787841
 20
221.1719346262
 10
396.6263961252
 20
221.3614380181
 10
396.298131054
 20
221.5125619303
 10
395.9198441517
 20
221.6177283787
 10
395.5105043032
 20
221.6716638785
 10
395.0906375178
 20
221.6716638785
 10
394.6812976694
 20
221.6177283787
 10
394.3030107671
 20
221.5125619303
 10
393.9747456958
 20
221.3614380181
 10
393.712963037
 20
221.1719346262
 10
393.5307896662
 20
220.9535542459
 10
393.437360517
 20
220.7172473813
 10
393.437360517
 20
220.4748634453
 10
393.5307896662
 20
220.2385565808
 10
393.712963037
 20
220.0201762004
 10
393.9747456958
 20
219.8306728085
  0
LWPOLYLINE
  5
326
330
1F
100
AcDbEntity
  8
0
  6
Continuous
 62
     7
370
    30
100
AcDbPolyline
 90
       29
 70
   128
 43
0.0
 10
380.7164935486
 20
227.4844988568
 10
381.0447586198
 20
227.3333749446
 10
381.4230455221
 20
227.2282084962
 10
381.8323853706
 20
227.1742729964
 10
382.252252156
 20
227.1742729964
 10
382.6615920044
 20
227.2282084962
 10
383.0398789067
 20
227.3333749446
 10
383.368143978
 20
227.4844988568
 10
383.6299266368
 20
227.6740022488
 10
383.8121000076
 20
227.8923826291
 10
383.9055291568
 20
228.1286894937
 10
383.9055291568
 20
228.3710734296
 10
383.8121000076
 20
228.6073802942
 10
383.6299266368
 20
228.8257606745
 10
383.368143978
 20
229.0152640665
 10
383.0398789067
 20
229.1663879787
 10
382.6615920044
 20
229.2715544271
 10
382.252252156
 20
229.3254899269
 10
381.8323853706
 20
229.3254899269
 10
381.4230455221
 20
229.2715544271
 10
381.0447586198
 20
229.1663879787
 10
380.7164935486
 20
229.0152640665
 10
380.4547108897
 20
228.8257606745
 10
380.2725375189
 20
228.6073802942
 10
380.1791083697
 20
228.3710734296
 10
380.1791083697
 20
228.1286894937
 10
380.2725375189
 20
227.8923826291
 10
380.4547108897
 20
227.6740022488
 10
380.7164935486
 20
227.4844988568
  0
LWPOLYLINE
  5
327
330
1F
100
AcDbEntity
  8
0
  6
Continuous
 62
     7
370
    30
100
AcDbPolyline
 90
       29
 70
   128
 43
0.0
 10
367.4582414013
 20
235.1383249051
 10
367.7865064726
 20
234.987200993
 10
368.1647933749
 20
234.8820345445
 10
368.5741332233
 20
234.8280990448
 10
368.9940000087
 20
234.8280990448
 10
369.4033398572
 20
234.8820345445
 10
369.7816267595
 20
234.987200993
 10
370.1098918308
 20
235.1383249051
 10
370.3716744896
 20
235.3278282971
 10
370.5538478604
 20
235.5462086774
 10
370.6472770096
 20
235.782515542
 10
370.6472770096
 20
236.0248994779
 10
370.5538478604
 20
236.2612063425
 10
370.3716744896
 20
236.4795867229
 10
370.1098918308
 20
236.6690901148
 10
369.7816267595
 20
236.820214027
 10
369.4033398572
 20
236.9253804754
 10
368.9940000087
 20
236.9793159752
 10
368.5741332233
 20
236.9793159752
 10
368.1647933749
 20
236.9253804754
 10
367.7865064726
 20
236.820214027
 10
367.4582414013
 20
236.6690901148
 10
367.1964587425
 20
236.4795867229
 10
367.0142853717
 20
236.2612063425
 10
366.9208562225
 20
236.0248994779
 10
366.9208562225
 20
235.782515542
 10
367.0142853717
 20
235.5462086774
 10
367.1964587425
 20
235.3278282971
 10
367.4582414013
 20
235.1383249051
  0
LWPOLYLINE
  5
328
330
1F
100
AcDbEntity
  8
0
  6
Continuous
 62
     7
370
    30
100
AcDbPolyline
 90
       29
 70
   128
 43
0.0
 10
354.1999892541
 20
242.7921509535
 10
354.5282543253
 20
242.6410270413
 10
354.9065412276
 20
242.5358605929
 10
355.3158810761
 20
242.4819250931
 10
355.7357478615
 20
242.4819250931
 10
356.1450877099
 20
242.5358605929
 10
356.5233746122
 20
242.6410270413
 10
356.8516396835
 20
242.7921509535
 10
357.1134223423
 20
242.9816543454
 10
357.2955957131
 20
243.2000347258
 10
357.3890248623
 20
243.4363415904
 10
357.3890248623
 20
243.6787255263
 10
357.2955957131
 20
243.9150323909
 10
357.1134223423
 20
244.1334127712
 10
356.8516396835
 20
244.3229161632
 10
356.5233746122
 20
244.4740400753
 10
356.1450877099
 20
244.5792065237
 10
355.7357478615
 20
244.6331420235
 10
355.3158810761
 20
244.6331420235
 10
354.9065412276
 20
244.5792065237
 10
354.5282543253
 20
244.4740400753
 10
354.1999892541
 20
244.3229161632
 10
353.9382065952
 20
244.1334127712
 10
353.7560332245
 20
243.9150323909
 10
353.6626040752
 20
243.6787255263
 10
353.6626040752
 20
243.4363415904
 10
353.7560332245
 20
243.2000347258
 10
353.9382065952
 20
242.9816543454
 10
354.1999892541
 20
242.7921509535
  0
LWPOLYLINE
  5
329
330
1F
100
AcDbEntity
  8
0
  6
Continuous
 62
     7
370
    30
100
AcDbPolyline
 90
       29
 70
   128
 43
0.0
 10
340.9417371068
 20
250.4459770018
 10
341.2700021781
 20
250.2948530896
 10
341.6482890804
 20
250.1896866412
 10
342.0576289288
 20
250.1357511414
 10
342.4774957142
 20
250.1357511414
 10
342.8868355627
 20
250.1896866412
 10
343.265122465
 20
250.2948530896
 10
343.5933875363
 20
250.4459770018
 10
343.8551701951
 20
250.6354803938
 10
344.0373435659
 20
250.8538607741
 10
344.1307727151
 20
251.0901676387
 10
344.1307727151
 20
251.3325515746
 10
344.0373435659
 20
251.5688584392
 10
343.8551701951
 20
251.7872388195
 10
343.5933875363
 20
251.9767422115
 10
343.265122465
 20
252.1278661237
 10
342.8868355627
 20
252.2330325721
 10
342.4774957142
 20
252.2869680719
 10
342.0576289288
 20
252.2869680719
 10
341.6482890804
 20
252.2330325721
 10
341.2700021781
 20
252.1278661237
 10
340.9417371068
 20
251.9767422115
 10
340.679954448
 20
251.7872388195
 10
340.4977810772
 20
251.5688584392
 10
340.404351928
 20
251.3325515746
 10
340.404351928
 20
251.0901676387
 10
340.4977810772
 20
250.8538607741
 10
340.679954448
 20
250.6354803938
 10
340.9417371068
 20
250.4459770018
  0
LWPOLYLINE
  5
32A
330
1F
100
AcDbEntity
  8
0
  6
Continuous
 62
     7
370
    30
100
AcDbPolyline
 90
       29
 70
   128
 43
0.0
 10
340.9417371068
 20
235.1383249051
 10
341.2700021781
 20
234.987200993
 10
341.6482890804
 20
234.8820345445
 10
342.0576289288
 20
234.8280990448
 10
342.4774957142
 20
234.8280990448
 10
342.8868355627
 20
234.8820345445
 10
343.265122465
 20
234.987200993
 10
343.5933875363
 20
235.1383249051
 10
343.8551701951
 20
235.3278282971
 10
344.0373435659
 20
235.5462086774
 10
344.1307727151
 20
235.782515542
 10
344.1307727151
 20
236.0248994779
 10
344.0373435659
 20
236.2612063425
 10
343.8551701951
 20
236.4795867229
 10
343.5933875363
 20
236.6690901148
 10
343.265122465
 20
236.820214027
 10
342.8868355627
 20
236.9253804754
 10
342.4774957142
 20
236.9793159752
 10
342.0576289288
 20
236.9793159752
 10
341.6482890804
 20
236.9253804754
 10
341.2700021781
 20
236.820214027
 10
340.9417371068
 20
236.6690901148
 10
340.679954448
 20
236.4795867229
 10
340.4977810772
 20
236.2612063425
 10
340.404351928
 20
236.0248994779
 10
340.404351928
 20
235.782515542
 10
340.4977810772
 20
235.5462086774
 10
340.679954448
 20
235.3278282971
 10
340.9417371068
 20
235.1383249051
  0
LWPOLYLINE
  5
32B
330
1F
100
AcDbEntity
  8
0
  6
Continuous
 62
     7
370
    30
100
AcDbPolyline
 90
       29
 70
   128
 43
0.0
 10
327.6834849596
 20
242.7921509535
 10
328.0117500308
 20
242.6410270413
 10
328.3900369331
 20
242.5358605929
 10
328.7993767816
 20
242.4819250931
 10
329.219243567
 20
242.4819250931
 10
329.6285834155
 20
242.5358605929
 10
330.0068703178
 20
242.6410270413
 10
330.335135389
 20
242.7921509535
 10
330.5969180478
 20
242.9816543454
 10
330.7790914186
 20
243.2000347258
 10
330.8725205678
 20
243.4363415904
 10
330.8725205678
 20
243.6787255263
 10
330.7790914186
 20
243.9150323909
 10
330.5969180478
 20
244.1334127712
 10
330.335135389
 20
244.3229161632
 10
330.0068703178
 20
244.4740400753
 10
329.6285834155
 20
244.5792065237
 10
329.219243567
 20
244.6331420235
 10
328.7993767816
 20
244.6331420235
 10
328.3900369331
 20
244.5792065237
 10
328.0117500308
 20
244.4740400753
 10
327.6834849596
 20
244.3229161632
 10
327.4217023007
 20
244.1334127712
 10
327.23952893
 20
243.9150323909
 10
327.1460997807
 20
243.6787255263
 10
327.1460997807
 20
243.4363415904
 10
327.23952893
 20
243.2000347258
 10
327.4217023007
 20
242.9816543454
 10
327.6834849596
 20
242.7921509535
  0
LWPOLYLINE
  5
32C
330
1F
100
AcDbEntity
  8
0
  6
Continuous
 62
     7
370
    30
100
AcDbPolyline
 90
       29
 70
   128
 43
0.0
 10
314.4252328123
 20
235.1383249051
 10
314.7534978836
 20
234.987200993
 10
315.1317847859
 20
234.8820345445
 10
315.5411246343
 20
234.8280990448
 10
315.9609914197
 20
234.8280990448
 10
316.3703312682
 20
234.8820345445
 10
316.7486181705
 20
234.987200993
 10
317.0768832418
 20
235.1383249051
 10
317.3386659006
 20
235.3278282971
 10
317.5208392714
 20
235.5462086774
 10
317.6142684206
 20
235.782515542
 10
317.6142684206
 20
236.0248994779
 10
317.5208392714
 20
236.2612063425
 10
317.3386659006
 20
236.4795867229
 10
317.0768832418
 20
236.6690901148
 10
316.7486181705
 20
236.820214027
 10
316.3703312682
 20
236.9253804754
 10
315.9609914197
 20
236.9793159752
 10
315.5411246343
 20
236.9793159752
 10
315.1317847859
 20
236.9253804754
 10
314.7534978836
 20
236.820214027
 10
314.4252328123
 20
236.6690901148
 10
314.1634501535
 20
236.4795867229
 10
313.9812767827
 20
236.2612063425
 10
313.8878476335
 20
236.0248994779
 10
313.8878476335
 20
235.782515542
 10
313.9812767827
 20
235.5462086774
 10
314.1634501535
 20
235.3278282971
 10
314.4252328123
 20
235.1383249051
  0
LWPOLYLINE
  5
32D
330
1F
100
AcDbEntity
  8
0
  6
Continuous
 62
     7
370
    30
100
AcDbPolyline
 90
       29
 70
   128
 43
0.0
 10
327.6834849596
 20
227.4844988568
 10
328.0117500308
 20
227.3333749446
 10
328.3900369331
 20
227.2282084962
 10
328.7993767816
 20
227.1742729964
 10
329.219243567
 20
227.1742729964
 10
329.6285834155
 20
227.2282084962
 10
330.0068703178
 20
227.3333749446
 10
330.335135389
 20
227.4844988568
 10
330.5969180478
 20
227.6740022488
 10
330.7790914186
 20
227.8923826291
 10
330.8725205678
 20
228.1286894937
 10
330.8725205678
 20
228.3710734296
 10
330.7790914186
 20
228.6073802942
 10
330.5969180478
 20
228.8257606745
 10
330.335135389
 20
229.0152640665
 10
330.0068703178
 20
229.1663879787
 10
329.6285834155
 20
229.2715544271
 10
329.219243567
 20
229.3254899269
 10
328.7993767816
 20
229.3254899269
 10
328.3900369331
 20
229.2715544271
 10
328.0117500308
 20
229.1663879787
 10
327.6834849596
 20
229.0152640665
 10
327.4217023007
 20
228.8257606745
 10
327.23952893
 20
228.6073802942
 10
327.1460997807
 20
228.3710734296
 10
327.1460997807
 20
228.1286894937
 10
327.23952893
 20
227.8923826291
 10
327.4217023007
 20
227.6740022488
 10
327.6834849596
 20
227.4844988568
  0
LWPOLYLINE
  5
32E
330
1F
100
AcDbEntity
  8
0
  6
Continuous
 62
     7
370
    30
100
AcDbPolyline
 90
       29
 70
   128
 43
0.0
 10
340.9417371068
 20
219.8306728085
 10
341.2700021781
 20
219.6795488963
 10
341.6482890804
 20
219.5743824479
 10
342.0576289288
 20
219.5204469481
 10
342.4774957142
 20
219.5204469481
 10
342.8868355627
 20
219.5743824479
 10
343.265122465
 20
219.6795488963
 10
343.5933875363
 20
219.8306728085
 10
343.8551701951
 20
220.0201762004
 10
344.0373435659
 20
220.2385565808
 10
344.1307727151
 20
220.4748634453
 10
344.1307727151
 20
220.7172473813
 10
344.0373435659
 20
220.9535542459
 10
343.8551701951
 20
221.1719346262
 10
343.5933875363
 20
221.3614380181
 10
343.265122465
 20
221.5125619303
 10
342.8868355627
 20
221.6177283787
 10
342.4774957142
 20
221.6716638785
 10
342.0576289288
 20
221.6716638785
 10
341.6482890804
 20
221.6177283787
 10
341.2700021781
 20
221.5125619303
 10
340.9417371068
 20
221.3614380181
 10
340.679954448
 20
221.1719346262
 10
340.4977810772
 20
220.9535542459
 10
340.404351928
 20
220.7172473813
 10
340.404351928
 20
220.4748634453
 10
340.4977810772
 20
220.2385565808
 10
340.679954448
 20
220.0201762004
 10
340.9417371068
 20
219.8306728085
  0
LINE
  5
32F
330
1F
100
AcDbEntity
  8
0
  6
Continuous
 62
     7
370
    30
100
AcDbLine
 10
371.7008820884
 20
198.7061129151
 30
0.0
 11
371.7008820884
 21
190.9285616818
 31
0.0
  0
ARC
  5
330
330
1F
100
AcDbEntity
  8
0
  6
Continuous
 62
     7
370
    30
100
AcDbCircle
 10
369.049231659
 20
195.9987698669
 30
0.0
 40
5.721735841473654
100
AcDbArc
 50
242.3910402158
 51
297.6089597842
  0
LINE
  5
331
330
1F
100
AcDbEntity
  8
0
  6
Continuous
 62
     7
370
    30
100
AcDbLine
 10
366.3975812295
 20
190.9285616818
 30
0.0
 11
366.3975812295
 21
198.7061129151
 31
0.0
  0
LINE
  5
332
330
1F
100
AcDbEntity
  8
0
  6
Continuous
 62
     7
370
    30
100
AcDbLine
 10
406.7026677572
 20
211.1346624495
 30
0.0
 11
406.7026677572
 21
218.9122136827
 31
0.0
  0
LINE
  5
333
330
1F
100
AcDbEntity
  8
0
  6
Continuous
 62
     7
370
    30
100
AcDbLine
 10
371.7008820884
 20
190.9285616818
 30
0.0
 11
406.7026677572
 21
211.1346624495
 31
0.0
  0
LINE
  5
334
330
1F
100
AcDbEntity
  8
0
  6
Continuous
 62
     7
370
    30
100
AcDbLine
 10
304.3489611804
 20
234.5260188213
 30
0.0
 11
304.3489611804
 21
226.7484675881
 31
0.0
  0
LINE
  5
335
330
1F
100
AcDbEntity
  8
0
  6
Continuous
 62
     7
370
    30
100
AcDbLine
 10
304.3489611804
 20
226.7484675881
 30
0.0
 11
366.3975812295
 21
190.9285616818
 31
0.0
  0
ARC
  5
336
330
1F
100
AcDbEntity
  8
0
  6
Continuous
 62
     7
370
    30
100
AcDbCircle
 10
405.8975233918
 20
212.8717916344
 30
0.0
 40
1.914647553544393
100
AcDbArc
 50
294.86731528
 51
353.8125437624
  0
ARC
  5
337
330
1F
100
AcDbEntity
  8
0
  6
Continuous
 62
     7
370
    30
100
AcDbCircle
 10
348.8966883952
 20
215.6950140665
 30
0.0
 40
6.825393199648036
100
AcDbArc
 50
74.7334738734
 51
105.2665261266
  0
ARC
  5
338
330
1F
100
AcDbEntity
  8
0
  6
Continuous
 62
     7
370
    30
100
AcDbCircle
 10
355.5258144688
 20
219.5219270907
 30
0.0
 40
6.825393199651558
100
AcDbArc
 50
74.7334738734
 51
105.2665261266
  0
ARC
  5
339
330
1F
100
AcDbEntity
  8
0
  6
Continuous
 62
     7
370
    30
100
AcDbCircle
 10
362.1549405424
 20
223.3488401148
 30
0.0
 40
6.825393199648269
100
AcDbArc
 50
74.7334738734
 51
105.2665261266
  0
ARC
  5
33A
330
1F
100
AcDbEntity
  8
0
  6
Continuous
 62
     7
370
    30
100
AcDbCircle
 10
305.1113876893
 20
228.4549459985
 30
0.0
 40
1.869053971061089
100
AcDbArc
 50
185.3944478058
 51
245.9256931518
  0
LWPOLYLINE
  5
33B
330
1F
100
AcDbEntity
  8
0
  6
Continuous
 62
     7
370
     0
100
AcDbPolyline
 90
       23
 70
   128
 43
0.0
 10
356.5864562988
 20
235.2914013928
 10
356.2446882391
 20
235.1436974993
 10
355.8446619632
 20
235.0575651224
 10
355.4188057607
 20
235.0399821809
 10
355.0016181441
 20
235.0923731706
 10
354.626897758
 20
235.2104934023
 10
354.325002187
 20
235.3847740057
 10
354.1203897742
 20
235.6010954801
 10
354.0296360849
 20
235.8419327648
 10
354.060093933
 20
236.0877743176
 10
354.2092962463
 20
236.3187042861
 10
354.4651546171
 20
236.5160134761
 10
354.8069411923
 20
236.6637173696
 10
355.2069664804
 20
236.7498497466
 10
355.6328231769
 20
236.7674329732
 10
356.0500107934
 20
236.7150419835
 10
356.4247306856
 20
236.5969214667
 10
356.7266262566
 20
236.4226408632
 10
356.9312391633
 20
236.206319674
 10
357.0219928527
 20
235.9654823893
 10
356.9915345107
 20
235.7196405513
 10
356.8423331852
 20
235.4887105829
 10
356.5864748144
 20
235.2914013928
  0
LWPOLYLINE
  5
33C
330
1F
100
AcDbEntity
  8
0
  6
Continuous
 62
     7
370
     0
100
AcDbPolyline
 90
       23
 70
   128
 43
0.0
 10
343.3281183243
 20
242.9452278403
 10
342.9864354004
 20
242.7975239468
 10
342.5864101123
 20
242.7113909996
 10
342.1605534159
 20
242.6938083433
 10
341.7433667872
 20
242.7461987627
 10
341.3686454132
 20
242.8643195647
 10
341.0667508301
 20
243.0385995979
 10
340.8621374294
 20
243.2549216425
 10
340.7713847279
 20
243.4957583569
 10
340.8018420821
 20
243.7416001949
 10
340.9510448893
 20
243.9725298782
 10
341.2069012844
 20
244.1698402088
 10
341.5486898353
 20
244.3175429618
 10
341.9487146295
 20
244.4036756238
 10
342.3745718199
 20
244.4212585653
 10
342.7917584486
 20
244.3688681458
 10
343.1664793286
 20
244.2507470588
 10
343.4683739118
 20
244.0764670256
 10
343.6729878063
 20
243.8601452661
 10
343.7637405079
 20
243.6193085517
 10
343.7332826598
 20
243.3734664286
 10
343.5840803465
 20
243.1425370304
 10
343.3282219757
 20
242.9452278403
  0
LWPOLYLINE
  5
33D
330
1F
100
AcDbEntity
  8
0
  6
Continuous
 62
     7
370
     0
100
AcDbPolyline
 90
       23
 70
   128
 43
0.0
 10
330.0699591637
 20
235.2914016779
 10
329.7281830556
 20
235.1436977844
 10
329.3281582614
 20
235.0575651224
 10
328.9023010711
 20
235.0399821809
 10
328.4851144423
 20
235.0923726004
 10
328.1103935623
 20
235.2104936874
 10
327.8084989792
 20
235.3847737206
 10
327.6038850846
 20
235.6010954801
 10
327.5131323831
 20
235.8419321945
 10
327.5435902312
 20
236.0877743176
 10
327.6927925445
 20
236.3187037158
 10
327.9486489396
 20
236.5160140464
 10
328.2904374905
 20
236.6637167994
 10
328.6904627786
 20
236.7498497466
 10
329.1163194751
 20
236.7674324029
 10
329.5335061038
 20
236.7150419835
 10
329.9082274777
 20
236.5969211815
 10
330.2101220609
 20
236.4226411483
 10
330.4147354615
 20
236.2063191037
 10
330.5054881631
 20
235.9654823893
 10
330.4750308089
 20
235.7196405513
 10
330.3258280017
 20
235.488710868
 10
330.0699696309
 20
235.2914016779
  0
LWPOLYLINE
  5
33E
330
1F
100
AcDbEntity
  8
0
  6
Continuous
 62
     7
370
     0
100
AcDbPolyline
 90
       23
 70
   128
 43
0.0
 10
343.3281183243
 20
227.6375752304
 10
342.9864358943
 20
227.4898713369
 10
342.5864101123
 20
227.4037392451
 10
342.1605534159
 20
227.3861560185
 10
341.7433657993
 20
227.4385470082
 10
341.3686459071
 20
227.556667525
 10
341.0667503361
 20
227.7309481285
 10
340.8621374294
 20
227.9472693177
 10
340.7713837401
 20
228.1881066024
 10
340.8018420821
 20
228.4339484403
 10
340.9510439015
 20
228.6648781237
 10
341.2069022722
 20
228.8621873137
 10
341.5486888475
 20
229.0098912072
 10
341.9487146295
 20
229.0960238693
 10
342.3745708321
 20
229.1136068108
 10
342.7917584486
 20
229.0612158211
 10
343.1664788347
 20
228.9430955894
 10
343.4683744057
 20
228.768814986
 10
343.6729868185
 20
228.5524935116
 10
343.7637405079
 20
228.3116562269
 10
343.7332826598
 20
228.0658146741
 10
343.5840808404
 20
227.8348844205
 10
343.3282224696
 20
227.6375752304
  0
LWPOLYLINE
  5
33F
330
1F
100
AcDbEntity
  8
0
  6
Continuous
 62
     7
370
     0
100
AcDbPolyline
 90
       23
 70
   128
 43
0.0
 10
356.5864562988
 20
219.9837493532
 10
356.2446877452
 20
219.8360454597
 10
355.8446624571
 20
219.7499130827
 10
355.4188057607
 20
219.7323298561
 10
355.0016181441
 20
219.7847208458
 10
354.6268982519
 20
219.9028413626
 10
354.325002681
 20
220.0771219661
 10
354.1203897742
 20
220.2934431553
 10
354.0296360849
 20
220.53428044
 10
354.0600944269
 20
220.7801222779
 10
354.2092957524
 20
221.0110522464
 10
354.4651541231
 20
221.2083614365
 10
354.8069406984
 20
221.35606533
 10
355.2069669744
 20
221.4421977069
 10
355.6328231769
 20
221.4597806484
 10
356.0500107934
 20
221.4073896587
 10
356.4247311795
 20
221.289269427
 10
356.7266267505
 20
221.1149888236
 10
356.9312391633
 20
220.8986673492
 10
357.0219928527
 20
220.6578300645
 10
356.9915350046
 20
220.4119885117
 10
356.8423326913
 20
220.1810585432
 10
356.5864743205
 20
219.9837493532
  0
LWPOLYLINE
  5
340
330
1F
100
AcDbEntity
  8
0
  6
Continuous
 62
     7
370
     0
100
AcDbPolyline
 90
       23
 70
   128
 43
0.0
 10
369.8446154594
 20
212.3299226205
 10
369.5029391022
 20
212.1822198675
 10
369.102914308
 20
212.0960872055
 10
368.6770571177
 20
212.078504264
 10
368.259870489
 20
212.1308946834
 10
367.8851496089
 20
212.2490157705
 10
367.5832550258
 20
212.4232958037
 10
367.3786411312
 20
212.6396175632
 10
367.2878884297
 20
212.8804542776
 10
367.3183462778
 20
213.1262964007
 10
367.4675485911
 20
213.3572257989
 10
367.7234069619
 20
213.554534989
 10
368.0651935371
 20
213.7022388825
 10
368.4652188253
 20
213.7883718297
 10
368.8910755217
 20
213.805954486
 10
369.3082621504
 20
213.7535640665
 10
369.6829835243
 20
213.6354432646
 10
369.9848781075
 20
213.4611632314
 10
370.1894915081
 20
213.2448411868
 10
370.2802442097
 20
213.0040044724
 10
370.2497868555
 20
212.7581626344
 10
370.1005840483
 20
212.5272329511
 10
369.8447276531
 20
212.3299226205
  0
LWPOLYLINE
  5
341
330
1F
100
AcDbEntity
  8
0
  6
Continuous
 62
     7
370
     0
100
AcDbPolyline
 90
       23
 70
   128
 43
0.0
 10
383.1027746201
 20
219.9837487829
 10
382.761191447
 20
219.8360460299
 10
382.3611661589
 20
219.7499130827
 10
381.9353094625
 20
219.7323304264
 10
381.5181228338
 20
219.7847208458
 10
381.1434014598
 20
219.9028416477
 10
380.8415068767
 20
220.0771216809
 10
380.636893476
 20
220.2934437256
 10
380.5461407745
 20
220.53428044
 10
380.5765981287
 20
220.7801222779
 10
380.7258009359
 20
221.0110519613
 10
380.9816593067
 20
221.2083611514
 10
381.323445882
 20
221.3560650448
 10
381.7234706762
 20
221.4421977069
 10
382.1493278665
 20
221.4597806484
 10
382.5665144952
 20
221.4073902289
 10
382.9412353752
 20
221.2892691419
 10
383.2431299584
 20
221.1149891087
 10
383.4477438529
 20
220.8986673492
 10
383.5384965545
 20
220.6578306348
 10
383.5080387064
 20
220.4119885117
 10
383.3588363931
 20
220.1810591135
 10
383.1029799979
 20
219.9837487829
  0
LWPOLYLINE
  5
342
330
1F
100
AcDbEntity
  8
0
  6
Continuous
 62
     7
370
     0
100
AcDbPolyline
 90
       23
 70
   128
 43
0.0
 10
369.8446154594
 20
227.6375755155
 10
369.50294009
 20
227.4898716221
 10
369.102914308
 20
227.40373896
 10
368.6770581055
 20
227.3861560185
 10
368.259870489
 20
227.4385470082
 10
367.8851501028
 20
227.5566672399
 10
367.5832545319
 20
227.7309478433
 10
367.3786421191
 20
227.9472693177
 10
367.2878884297
 20
228.1881066024
 10
367.3183462778
 20
228.4339481552
 10
367.4675480972
 20
228.6648784088
 10
367.723406468
 20
228.8621875989
 10
368.0651930432
 20
229.0098914924
 10
368.4652188253
 20
229.0960235842
 10
368.8910755217
 20
229.1136068108
 10
369.3082631382
 20
229.0612158211
 10
369.6829830304
 20
228.9430953043
 10
369.9848786014
 20
228.7688147008
 10
370.1894915081
 20
228.5524935116
 10
370.2802451975
 20
228.3116562269
 10
370.2497868555
 20
228.065814389
 10
370.1005850361
 20
227.8348847056
 10
369.8447266653
 20
227.6375755155
  0
LWPOLYLINE
  5
343
330
1F
100
AcDbEntity
  8
0
  6
Continuous
 62
     7
370
     0
100
AcDbPolyline
 90
       29
 70
   128
 43
0.0
 10
357.1166396141
 20
212.0237698135
 10
356.7228863823
 20
211.8424214761
 10
356.2689430919
 20
211.7162218789
 10
355.777735402
 20
211.6514991362
 10
355.2738935356
 20
211.6514991362
 10
354.7826858456
 20
211.7162218789
 10
354.3287425552
 20
211.8424214761
 10
353.9348239503
 20
212.0237698135
 10
353.6206853784
 20
212.2511741837
 10
353.4020765899
 20
212.5132306375
 10
353.289961363
 20
212.796798801
 10
353.2899623509
 20
213.087659949
 10
353.4020775777
 20
213.3712281125
 10
353.6206843906
 20
213.6332845663
 10
353.9348239503
 20
213.8606883662
 10
354.3287415674
 20
214.0420372739
 10
354.7826868335
 20
214.168236871
 10
355.2738945234
 20
214.2329596138
 10
355.7777344141
 20
214.2329596138
 10
356.2689421041
 20
214.168236871
 10
356.7228873702
 20
214.0420372739
 10
357.1168049872
 20
213.8606883662
 10
357.430944547
 20
213.6332845663
 10
357.6495513599
 20
213.3712281125
 10
357.7616665867
 20
213.087659949
 10
357.7616675745
 20
212.796798801
 10
357.6495523477
 20
212.5132306375
 10
357.4309435592
 20
212.2511741837
 10
357.1168049872
 20
212.0237698135
  0
LWPOLYLINE
  5
344
330
1F
100
AcDbEntity
  8
0
  6
Continuous
 62
     7
370
     0
100
AcDbPolyline
 90
       29
 70
   128
 43
0.0
 10
370.3749775887
 20
204.3699442214
 10
369.9811377393
 20
204.1885958839
 10
369.5271954367
 20
204.0623957166
 10
369.0359877468
 20
203.9976729738
 10
368.5321458804
 20
203.9976729738
 10
368.0409381905
 20
204.0623957166
 10
367.5869939122
 20
204.1885958839
 10
367.1930762951
 20
204.3699436511
 10
366.8789367354
 20
204.5973485915
 10
366.6603279469
 20
204.8594050454
 10
366.54821272
 20
205.1429732088
 10
366.5482146957
 20
205.4338337866
 10
366.6603299225
 20
205.7174019501
 10
366.8789367354
 20
205.9794584039
 10
367.1930753073
 20
206.2068627741
 10
367.5869939122
 20
206.3882111115
 10
368.0409391783
 20
206.5144107087
 10
368.5321468682
 20
206.5791334514
 10
369.0359857711
 20
206.5791340217
 10
369.5271934611
 20
206.5144112789
 10
369.9811387272
 20
206.3882116818
 10
370.375057332
 20
206.2068622038
 10
370.689195904
 20
205.9794589742
 10
370.9078037047
 20
205.7174019501
 10
371.0199189315
 20
205.4338337866
 10
371.0199199193
 20
205.1429726386
 10
370.9078046925
 20
204.8594044751
 10
370.6891949162
 20
204.5973485915
 10
370.3750563442
 20
204.3699442214
  0
LWPOLYLINE
  5
345
330
1F
100
AcDbEntity
  8
0
  6
Continuous
 62
     7
370
     0
100
AcDbPolyline
 90
       29
 70
   128
 43
0.0
 10
383.6331367493
 20
212.0237703838
 10
383.2393900224
 20
211.8424220107
 10
382.7854471024
 20
211.7162214869
 10
382.2942394742
 20
211.6514987797
 10
381.7903984722
 20
211.6514992787
 10
381.2991906587
 20
211.7162219502
 10
380.8452460101
 20
211.8424219037
 10
380.4513288869
 20
212.0237699561
 10
380.1371888333
 20
212.2511746114
 10
379.9185804152
 20
212.513231279
 10
379.8064653118
 20
212.7967995138
 10
379.8064664231
 20
213.0876595926
 10
379.9185815882
 20
213.3712277205
 10
380.1371890185
 20
213.6332845307
 10
380.4513276521
 20
213.8606889365
 10
380.8452463188
 20
214.0420373096
 10
381.2991912144
 20
214.1682366928
 10
381.7903988426
 20
214.2329594
 10
382.294237869
 20
214.2329600415
 10
382.7854456824
 20
214.16823737
 10
383.2393903311
 20
214.0420374165
 10
383.6333094299
 20
213.8606882237
 10
383.9474475079
 20
213.6332847089
 10
384.166055926
 20
213.3712280412
 10
384.2781710294
 20
213.0876598064
 10
384.2781718937
 20
212.7967985871
 10
384.1660567286
 20
212.5132304593
 10
383.9474473227
 20
212.2511747896
 10
383.633308689
 20
212.0237703838
  0
LWPOLYLINE
  5
346
330
1F
100
AcDbEntity
  8
0
  6
Continuous
 62
     7
370
     0
100
AcDbPolyline
 90
       29
 70
   128
 43
0.0
 10
370.3749775887
 20
219.6775959759
 10
369.9811386654
 20
219.4962476028
 10
369.5271947576
 20
219.3700476493
 10
369.0359871294
 20
219.3053249421
 10
368.5321461274
 20
219.3053254411
 10
368.0409383139
 20
219.3700481126
 10
367.5869946531
 20
219.4962474959
 10
367.1930765421
 20
219.6775961185
 10
366.8789374763
 20
219.9050002035
 10
366.6603290582
 20
220.1670568712
 10
366.5482139548
 20
220.4506251059
 10
366.5482140783
 20
220.741485755
 10
366.6603292434
 20
221.0250538828
 10
366.8789366737
 20
221.2871106931
 10
367.1930762951
 20
221.5145145286
 10
367.5869939739
 20
221.695863472
 10
368.0409388696
 20
221.8220628552
 10
368.5321464978
 20
221.8867855624
 10
369.035986512
 20
221.8867856337
 10
369.5271943254
 20
221.8220629621
 10
369.9811389741
 20
221.6958630086
 10
370.3750570851
 20
221.514514386
 10
370.6891961509
 20
221.287110301
 10
370.9078035812
 20
221.0250542036
 10
371.0199186846
 20
220.7414859688
 10
371.0199195489
 20
220.4506247495
 10
370.9078043838
 20
220.1670566217
 10
370.6891959657
 20
219.9050003817
 10
370.375057332
 20
219.6775959759
  0
LWPOLYLINE
  5
347
330
1F
100
AcDbEntity
  8
0
  6
Continuous
 62
     7
370
     0
100
AcDbPolyline
 90
       29
 70
   128
 43
0.0
 10
396.8914747238
 20
219.6775965462
 10
396.497642429
 20
219.4962482087
 10
396.0436991385
 20
219.3700474711
 10
395.5524914486
 20
219.3053247283
 10
395.04865057
 20
219.3053252985
 10
394.5574428801
 20
219.3700480413
 10
394.103497614
 20
219.4962476384
 10
393.7095809848
 20
219.6775959759
 10
393.3954404372
 20
219.9050003461
 10
393.1768326365
 20
220.1670573701
 10
393.0647174097
 20
220.4506255336
 10
393.0647183975
 20
220.7414855411
 10
393.1768336243
 20
221.0250537046
 10
393.395441425
 20
221.2871107287
 10
393.7095799969
 20
221.5145150989
 10
394.1034986018
 20
221.6958634363
 10
394.5574428801
 20
221.8220624632
 10
395.04865057
 20
221.886785206
 10
395.5524904608
 20
221.8867863465
 10
396.0436981507
 20
221.8220636037
 10
396.497642429
 20
221.6958634363
 10
396.8915620217
 20
221.5145145286
 10
397.2056996058
 20
221.2871107287
 10
397.4243083943
 20
221.0250542749
 10
397.5364236211
 20
220.7414861114
 10
397.5364236211
 20
220.4506243931
 10
397.4243083943
 20
220.1670562296
 10
397.2056996058
 20
219.9050009163
 10
396.8915610339
 20
219.6775965462
  0
LWPOLYLINE
  5
348
330
1F
100
AcDbEntity
  8
0
  6
Continuous
 62
     7
370
     0
100
AcDbPolyline
 90
       29
 70
   128
 43
0.0
 10
383.6331367493
 20
227.3314221383
 10
383.239391072
 20
227.1500738008
 10
382.7854467937
 20
227.0238736335
 10
382.2942391038
 20
226.9591508907
 10
381.7903982252
 20
226.9591514609
 10
381.2991905353
 20
227.0238742037
 10
380.845246257
 20
227.1500732306
 10
380.4513286399
 20
227.3314221383
 10
380.1371890802
 20
227.5588259382
 10
379.9185812795
 20
227.8208829623
 10
379.8064660527
 20
228.1044511258
 10
379.8064660527
 20
228.3953117035
 10
379.9185812795
 20
228.678879867
 10
380.1371890802
 20
228.9409368911
 10
380.4513286399
 20
229.168340691
 10
380.845246257
 20
229.3496895987
 10
381.2991905353
 20
229.4758886256
 10
381.7903982252
 20
229.5406113684
 10
382.2942391038
 20
229.5406119386
 10
382.7854467937
 20
229.4758891958
 10
383.239391072
 20
229.3496890285
 10
383.6333096769
 20
229.168340691
 10
383.9474482488
 20
228.9409363208
 10
384.1660560495
 20
228.6788804373
 10
384.2781712763
 20
228.3953122738
 10
384.2781712763
 20
228.1044505555
 10
384.1660560495
 20
227.820882392
 10
383.9474482488
 20
227.5588265085
 10
383.6333096769
 20
227.3314221383
  0
LWPOLYLINE
  5
349
330
1F
100
AcDbEntity
  8
0
  6
Continuous
 62
     7
370
     0
100
AcDbPolyline
 90
       29
 70
   128
 43
0.0
 10
370.3749775887
 20
234.9852484432
 10
369.9811389741
 20
234.8038998207
 10
369.5271943254
 20
234.6776998671
 10
369.035986512
 20
234.6129771956
 10
368.5321464978
 20
234.6129772669
 10
368.0409388696
 20
234.6776999741
 10
367.5869939739
 20
234.8038993573
 10
367.1930762951
 20
234.9852483007
 10
366.8789366737
 20
235.2126521362
 10
366.6603292434
 20
235.4747089465
 10
366.5482140783
 20
235.7582770743
 10
366.5482139548
 20
236.0491377234
 10
366.6603290582
 20
236.3327059581
 10
366.8789374763
 20
236.5947626258
 10
367.1930765421
 20
236.8221667108
 10
367.5869946531
 20
237.0035153334
 10
368.0409383139
 20
237.1297147167
 10
368.5321461274
 20
237.1944373882
 10
369.0359871294
 20
237.1944378872
 10
369.5271947576
 20
237.12971518
 10
369.9811386654
 20
237.0035152265
 10
370.375057332
 20
236.8221668534
 10
370.6891959657
 20
236.5947624476
 10
370.9078043838
 20
236.3327062076
 10
371.0199195489
 20
236.0491380798
 10
371.0199186846
 20
235.7582768605
 10
370.9078035812
 20
235.4747086257
 10
370.6891961509
 20
235.2126525283
 10
370.3750570851
 20
234.9852484432
  0
LWPOLYLINE
  5
34A
330
1F
100
AcDbEntity
  8
0
  6
Continuous
 62
     7
370
     0
100
AcDbPolyline
 90
       29
 70
   128
 43
0.0
 10
357.1166396141
 20
242.6390744631
 10
356.7228873702
 20
242.4577255554
 10
356.2689421041
 20
242.3315259582
 10
355.7777344141
 20
242.2668032155
 10
355.2738945234
 20
242.2668032155
 10
354.7826868335
 20
242.3315259582
 10
354.3287415674
 20
242.4577255554
 10
353.9348239503
 20
242.6390744631
 10
353.6206843906
 20
242.866478263
 10
353.4020775777
 20
243.1285347168
 10
353.2899623509
 20
243.4121028803
 10
353.289961363
 20
243.7029640283
 10
353.4020765899
 20
243.9865321918
 10
353.6206853784
 20
244.2485886456
 10
353.9348239503
 20
244.4759930158
 10
354.3287425552
 20
244.6573413532
 10
354.7826858456
 20
244.7835409503
 10
355.2738935356
 20
244.8482636931
 10
355.777735402
 20
244.8482636931
 10
356.2689430919
 20
244.7835409503
 10
356.7228863823
 20
244.6573413532
 10
357.1168049872
 20
244.4759930158
 10
357.4309435592
 20
244.2485886456
 10
357.6495523477
 20
243.9865321918
 10
357.7616675745
 20
243.7029640283
 10
357.7616665867
 20
243.4121028803
 10
357.6495513599
 20
243.1285347168
 10
357.430944547
 20
242.866478263
 10
357.1168049872
 20
242.6390744631
  0
LWPOLYLINE
  5
34B
330
1F
100
AcDbEntity
  8
0
  6
Continuous
 62
     7
370
     0
100
AcDbPolyline
 90
       29
 70
   128
 43
0.0
 10
343.8584804535
 20
250.2929000552
 10
343.4646350253
 20
250.1115517177
 10
343.0106897593
 20
249.9853521206
 10
342.5194820693
 20
249.9206293778
 10
342.0156431664
 20
249.9206288076
 10
341.5244354765
 20
249.9853515504
 10
341.0704902104
 20
250.1115511475
 10
340.6765716055
 20
250.2929006255
 10
340.3624330336
 20
250.5203038551
 10
340.1438252329
 20
250.7823608792
 10
340.031710006
 20
251.0659290427
 10
340.0317090182
 20
251.3567901907
 10
340.1438242451
 20
251.6403583542
 10
340.3624340214
 20
251.9024142377
 10
340.6765725933
 20
252.1298186079
 10
341.0704911982
 20
252.3111669454
 10
341.5244335008
 20
252.4373671127
 10
342.0156411908
 20
252.5020898555
 10
342.5194830571
 20
252.5020898555
 10
343.0106907471
 20
252.4373671127
 10
343.4646350253
 20
252.3111669454
 10
343.8585526424
 20
252.1298191782
 10
344.1726922022
 20
251.9024142377
 10
344.3913009907
 20
251.6403577839
 10
344.5034162175
 20
251.3567896204
 10
344.5034142419
 20
251.0659290427
 10
344.391299015
 20
250.7823608792
 10
344.1726922022
 20
250.5203044254
 10
343.8585536302
 20
250.2929000552
  0
LWPOLYLINE
  5
34C
330
1F
100
AcDbEntity
  8
0
  6
Continuous
 62
     7
370
     0
100
AcDbPolyline
 90
       29
 70
   128
 43
0.0
 10
343.8584804535
 20
234.9852483007
 10
343.4646349636
 20
234.8038993573
 10
343.010690068
 20
234.6776999741
 10
342.5194824398
 20
234.6129772669
 10
342.0156424256
 20
234.6129771956
 10
341.5244346121
 20
234.6776998671
 10
341.0704899635
 20
234.8038998207
 10
340.6765718525
 20
234.9852484432
 10
340.3624327866
 20
235.2126525283
 10
340.1438253564
 20
235.4747086257
 10
340.031710253
 20
235.7582768605
 10
340.0317093887
 20
236.0491380798
 10
340.1438245538
 20
236.3327062076
 10
340.3624329719
 20
236.5947624476
 10
340.6765716055
 20
236.8221668534
 10
341.0704902721
 20
237.0035152265
 10
341.52443418
 20
237.12971518
 10
342.0156418082
 20
237.1944378872
 10
342.5194828102
 20
237.1944373882
 10
343.0106906236
 20
237.1297147167
 10
343.4646342845
 20
237.0035153334
 10
343.8585523955
 20
236.8221667108
 10
344.1726914613
 20
236.5947626258
 10
344.3912998794
 20
236.3327059581
 10
344.5034149828
 20
236.0491377234
 10
344.5034148593
 20
235.7582770743
 10
344.3912996942
 20
235.4747089465
 10
344.1726922639
 20
235.2126521362
 10
343.8585526424
 20
234.9852483007
  0
LWPOLYLINE
  5
34D
330
1F
100
AcDbEntity
  8
0
  6
Continuous
 62
     7
370
     0
100
AcDbPolyline
 90
       29
 70
   128
 43
0.0
 10
330.6001424789
 20
242.6390738928
 10
330.2063826188
 20
242.4577255197
 10
329.7524377232
 20
242.3315261365
 10
329.2612300949
 20
242.2668034293
 10
328.7573910686
 20
242.2668027878
 10
328.2661832551
 20
242.3315254593
 10
327.8122386065
 20
242.4577254128
 10
327.4183195077
 20
242.6390746056
 10
327.1041814296
 20
242.8664781204
 10
326.8855730116
 20
243.1285347881
 10
326.7734579082
 20
243.4121030228
 10
326.7734570439
 20
243.7029642422
 10
326.885572209
 20
243.98653237
 10
327.1041816149
 20
244.2485880397
 10
327.4183202485
 20
244.4759924455
 10
327.8122389152
 20
244.6573408186
 10
328.2661818351
 20
244.7835413424
 10
328.7573894634
 20
244.8482640495
 10
329.2612304654
 20
244.8482635506
 10
329.7524382788
 20
244.7835408791
 10
330.2063829275
 20
244.6573409255
 10
330.6003000507
 20
244.4759928732
 10
330.9144401043
 20
244.2485882179
 10
331.1330485224
 20
243.9865315503
 10
331.2451636258
 20
243.7029633155
 10
331.2451625145
 20
243.4121032367
 10
331.1330473494
 20
243.1285351088
 10
330.9144399191
 20
242.8664782986
 10
330.6003012854
 20
242.6390738928
  0
LWPOLYLINE
  5
34E
330
1F
100
AcDbEntity
  8
0
  6
Continuous
 62
     7
370
     0
100
AcDbPolyline
 90
       29
 70
   128
 43
0.0
 10
317.3419833183
 20
234.9852477304
 10
316.9481303357
 20
234.803899393
 10
316.4941860575
 20
234.6777003661
 10
316.0029783675
 20
234.6129776233
 10
315.4991384768
 20
234.6129764828
 10
315.0079307868
 20
234.6776992256
 10
314.5539865086
 20
234.803899393
 10
314.1600669159
 20
234.9852483007
 10
313.8459293318
 20
235.2126521006
 10
313.6273205433
 20
235.4747085544
 10
313.5152053164
 20
235.7582767179
 10
313.5152053164
 20
236.0491384362
 10
313.6273205433
 20
236.3327065997
 10
313.8459293318
 20
236.594761913
 10
314.1600679037
 20
236.8221662831
 10
314.5539865086
 20
237.0035146206
 10
315.007929799
 20
237.1297153582
 10
315.499137489
 20
237.194438101
 10
316.0029783675
 20
237.1944375308
 10
316.4941860575
 20
237.129714788
 10
316.9481313235
 20
237.0035151908
 10
317.3420479528
 20
236.8221668534
 10
317.6561885004
 20
236.5947624832
 10
317.8747963011
 20
236.3327054592
 10
317.9869115279
 20
236.0491372957
 10
317.9869105401
 20
235.7582772882
 10
317.8747953132
 20
235.4747091247
 10
317.6561875125
 20
235.2126521006
 10
317.3420489406
 20
234.9852477304
  0
LWPOLYLINE
  5
34F
330
1F
100
AcDbEntity
  8
0
  6
Continuous
 62
     7
370
     0
100
AcDbPolyline
 90
       29
 70
   128
 43
0.0
 10
330.6001424789
 20
227.3314221383
 10
330.2063826805
 20
227.1500732306
 10
329.7524384023
 20
227.0238742037
 10
329.2612307123
 20
226.9591514609
 10
328.7573898338
 20
226.9591508907
 10
328.2661821438
 20
227.0238736335
 10
327.8122378656
 20
227.1500738008
 10
327.4183192607
 20
227.3314221383
 10
327.1041806888
 20
227.5588265085
 10
326.8855728881
 20
227.820882392
 10
326.7734576612
 20
228.1044505555
 10
326.7734576612
 20
228.3953122738
 10
326.8855728881
 20
228.6788804373
 10
327.1041806888
 20
228.9409363208
 10
327.4183192607
 20
229.168340691
 10
327.8122378656
 20
229.3496890285
 10
328.2661821438
 20
229.4758891958
 10
328.7573898338
 20
229.5406119386
 10
329.2612307123
 20
229.5406113684
 10
329.7524384023
 20
229.4758886256
 10
330.2063826805
 20
229.3496895987
 10
330.6003002976
 20
229.168340691
 10
330.9144398574
 20
228.9409368911
 10
331.133047658
 20
228.678879867
 10
331.2451628849
 20
228.3953117035
 10
331.2451628849
 20
228.1044511258
 10
331.133047658
 20
227.8208829623
 10
330.9144398574
 20
227.5588259382
 10
330.6003002976
 20
227.3314221383
  0
LWPOLYLINE
  5
350
330
1F
100
AcDbEntity
  8
0
  6
Continuous
 62
     7
370
     0
100
AcDbPolyline
 90
       29
 70
   128
 43
0.0
 10
343.8584804535
 20
219.6775961185
 10
343.4646342845
 20
219.4962474959
 10
343.0106906236
 20
219.3700481126
 10
342.5194828102
 20
219.3053254411
 10
342.0156418082
 20
219.3053249421
 10
341.52443418
 20
219.3700476493
 10
341.0704902721
 20
219.4962476028
 10
340.6765716055
 20
219.6775959759
 10
340.3624329719
 20
219.9050003817
 10
340.1438245538
 20
220.1670566217
 10
340.0317093887
 20
220.4506247495
 10
340.031710253
 20
220.7414859688
 10
340.1438253564
 20
221.0250542036
 10
340.3624327866
 20
221.287110301
 10
340.6765718525
 20
221.514514386
 10
341.0704899635
 20
221.6958630086
 10
341.5244346121
 20
221.8220629621
 10
342.0156424256
 20
221.8867856337
 10
342.5194824398
 20
221.8867855624
 10
343.010690068
 20
221.8220628552
 10
343.4646349636
 20
221.695863472
 10
343.8585526424
 20
221.5145145286
 10
344.1726922639
 20
221.2871106931
 10
344.3912996942
 20
221.0250538828
 10
344.5034148593
 20
220.741485755
 10
344.5034149828
 20
220.4506251059
 10
344.3912998794
 20
220.1670568712
 10
344.1726914613
 20
219.9050002035
 10
343.8585523955
 20
219.6775961185
  0
LINE
  5
351
330
1F
100
AcDbEntity
  8
0
  6
Continuous
 62
     7
370
    30
100
AcDbLine
 10
231.073083752
 20
222.5119786288
 30
0.0
 11
243.773083752
 21
222.5119786288
 31
0.0
  0
LINE
  5
352
330
1F
100
AcDbEntity
  8
0
  6
Continuous
 62
     7
370
    30
100
AcDbLine
 10
243.773083752
 20
222.5119786288
 30
0.0
 11
243.773083752
 21
217.5119786288
 31
0.0
  0
LINE
  5
353
330
1F
100
AcDbEntity
  8
0
  6
Continuous
 62
     7
370
    30
100
AcDbLine
 10
243.773083752
 20
217.5119786288
 30
0.0
 11
231.073083752
 21
217.5119786288
 31
0.0
  0
LINE
  5
354
330
1F
100
AcDbEntity
  8
0
  6
Continuous
 62
     7
370
    30
100
AcDbLine
 10
231.073083752
 20
217.5119786288
 30
0.0
 11
231.073083752
 21
222.5119786288
 31
0.0
  0
LINE
  5
355
330
1F
100
AcDbEntity
  8
0
  6
Continuous
 62
     7
370
    30
100
AcDbLine
 10
231.073083752
 20
100.5119786288
 30
0.0
 11
243.773083752
 21
100.5119786288
 31
0.0
  0
LINE
  5
356
330
1F
100
AcDbEntity
  8
0
  6
Continuous
 62
     7
370
    30
100
AcDbLine
 10
231.073083752
 20
100.5119786288
 30
0.0
 11
231.073083752
 21
217.5119786288
 31
0.0
  0
LINE
  5
357
330
1F
100
AcDbEntity
  8
0
  6
Continuous
 62
     7
370
    30
100
AcDbLine
 10
243.773083752
 20
100.5119786288
 30
0.0
 11
243.773083752
 21
217.5119786288
 31
0.0
  0
LINE
  5
358
330
1F
100
AcDbEntity
  8
0
  6
Continuous
 62
     7
370
    30
100
AcDbLine
 10
243.773083752
 20
95.5119786288
 30
0.0
 11
231.073083752
 21
95.5119786288
 31
0.0
  0
LINE
  5
359
330
1F
100
AcDbEntity
  8
0
  6
Continuous
 62
     7
370
    30
100
AcDbLine
 10
231.073083752
 20
95.5119786288
 30
0.0
 11
231.073083752
 21
100.5119786288
 31
0.0
  0
LINE
  5
35A
330
1F
100
AcDbEntity
  8
0
  6
Continuous
 62
     7
370
    30
100
AcDbLine
 10
243.773083752
 20
100.5119786288
 30
0.0
 11
243.773083752
 21
95.5119786288
 31
0.0
  0
DIMENSION
  5
35B
330
1F
100
AcDbEntity
  8
SLD-0
 62
     7
100
AcDbDimension
  2
_D_17
 10
243.773083752
 20
80.9987821366
 30
0.0
 11
237.423083752
 21
80.9987821366
 31
0.0
 70
   160
  1
<>
 71
     2
 42
-1.0
  3
SLDDIMSTYLE0
100
AcDbAlignedDimension
 13
231.073083752
 23
95.5119786288
 33
0.0
 14
243.773083752
 24
95.5119786288
 34
0.0
100
AcDbRotatedDimension
  0
ENDSEC
  0
SECTION
  2
OBJECTS
  0
DICTIONARY
  5
C
330
0
100
AcDbDictionary
281
     1
  3
ACAD_GROUP
350
D
  3
ACAD_LAYOUT
350
1A
  3
ACAD_MLINESTYLE
350
17
  3
ACAD_PLOTSETTINGS
350
19
  3
ACAD_PLOTSTYLENAME
350
E
  3
ACAD_SCALELIST
350
47
  0
DICTIONARY
  5
D
102
{ACAD_REACTORS
330
C
102
}
330
C
100
AcDbDictionary
281
     1
  0
DICTIONARY
  5
1A
102
{ACAD_REACTORS
330
C
102
}
330
C
100
AcDbDictionary
281
     1
  3
Layout1
350
1E
  3
Layout2
350
26
  3
Model
350
22
  0
DICTIONARY
  5
17
102
{ACAD_REACTORS
330
C
102
}
330
C
100
AcDbDictionary
281
     1
  3
Standard
350
18
  0
DICTIONARY
  5
19
102
{ACAD_REACTORS
330
C
102
}
330
C
100
AcDbDictionary
281
     1
  0
ACDBDICTIONARYWDFLT
  5
E
102
{ACAD_REACTORS
330
C
102
}
330
C
100
AcDbDictionary
281
     1
  3
Normal
350
F
100
AcDbDictionaryWithDefault
340
F
  0
DICTIONARY
  5
47
102
{ACAD_REACTORS
330
C
102
}
330
C
100
AcDbDictionary
281
     1
  3
A0
350
48
  3
A1
350
49
  3
A2
350
4A
  3
A3
350
4B
  3
A4
350
4C
  3
A5
350
4D
  3
A6
350
4E
  3
A7
350
4F
  3
A8
350
50
  3
A9
350
51
  3
B0
350
52
  3
B1
350
53
  3
B2
350
54
  3
B3
350
55
  3
B4
350
56
  3
B5
350
57
  3
B6
350
58
  3
B7
350
59
  3
B8
350
5A
  3
B9
350
5B
  3
C0
350
5C
  3
C1
350
5D
  3
C2
350
5E
  3
C3
350
5F
  3
C4
350
60
  3
C5
350
61
  3
C6
350
62
  3
C7
350
63
  3
C8
350
64
  3
C9
350
65
  3
D0
350
66
  3
D1
350
67
  3
D2
350
68
  0
LAYOUT
  5
1E
102
{ACAD_REACTORS
330
1A
102
}
330
1A
100
AcDbPlotSettings
  1

  2
none_device
  4

  6

 40
0.0
 41
0.0
 42
0.0
 43
0.0
 44
0.0
 45
0.0
 46
0.0
 47
0.0
 48
0.0
 49
0.0
140
0.0
141
0.0
142
1.0
143
1.0
 70
   688
 72
     1
 73
     0
 74
     5
  7

 75
    16
147
1.0
148
0.0
149
0.0
100
AcDbLayout
  1
Layout1
 70
     1
 71
     1
 10
0.0
 20
0.0
 11
420.0
 21
297.0
 12
0.0
 22
0.0
 32
0.0
 14
1.0000000000E+20
 24
1.0000000000E+20
 34
1.0000000000E+20
 15
-1.0000000000E+20
 25
-1.0000000000E+20
 35
-1.0000000000E+20
146
0.0
 13
0.0
 23
0.0
 33
0.0
 16
1.0
 26
0.0
 36
0.0
 17
0.0
 27
1.0
 37
0.0
 76
     0
330
1B
  0
LAYOUT
  5
26
102
{ACAD_REACTORS
330
1A
102
}
330
1A
100
AcDbPlotSettings
  1

  2
none_device
  4

  6

 40
0.0
 41
0.0
 42
0.0
 43
0.0
 44
0.0
 45
0.0
 46
0.0
 47
0.0
 48
0.0
 49
0.0
140
0.0
141
0.0
142
1.0
143
1.0
 70
   688
 72
     1
 73
     0
 74
     5
  7

 75
    16
147
1.0
148
0.0
149
0.0
100
AcDbLayout
  1
Layout2
 70
     1
 71
     2
 10
0.0
 20
0.0
 11
0.0
 21
0.0
 12
0.0
 22
0.0
 32
0.0
 14
0.0
 24
0.0
 34
0.0
 15
0.0
 25
0.0
 35
0.0
146
0.0
 13
0.0
 23
0.0
 33
0.0
 16
1.0
 26
0.0
 36
0.0
 17
0.0
 27
1.0
 37
0.0
 76
     0
330
23
  0
LAYOUT
  5
22
102
{ACAD_REACTORS
330
1A
102
}
330
1A
100
AcDbPlotSettings
  1

  2
none_device
  4
Letter_(8.50_x_11.00_Inches)
  6

 40
6.35
 41
6.35
 42
6.35000508
 43
6.35000508
 44
215.9
 45
279.4
 46
0.0
 47
0.0
 48
0.0
 49
0.0
140
0.0
141
0.0
142
1.0
143
1.0
 70
  1712
 72
     1
 73
     0
 74
     0
  7

 75
     0
147
1.0
148
0.0
149
0.0
100
AcDbLayout
  1
Model
 70
     1
 71
     0
 10
0.0
 20
0.0
 11
445.5
 21
315.0
 12
0.0
 22
0.0
 32
0.0
 14
0.0
 24
0.0
 34
0.0
 15
445.5
 25
315.0
 35
0.0
146
0.0
 13
0.0
 23
0.0
 33
0.0
 16
1.0
 26
0.0
 36
0.0
 17
0.0
 27
1.0
 37
0.0
 76
     0
330
1F
331
29
  0
MLINESTYLE
  5
18
102
{ACAD_REACTORS
330
17
102
}
330
17
100
AcDbMlineStyle
  2
Standard
 70
     0
  3

 62
   256
 51
90.0
 52
90.0
 71
     2
 49
0.5
 62
   256
  6
BYLAYER
 49
-0.5
 62
   256
  6
BYLAYER
  0
ACDBPLACEHOLDER
  5
F
102
{ACAD_REACTORS
330
E
102
}
330
E
  0
SCALE
  5
48
102
{ACAD_REACTORS
330
47
102
}
330
47
100
AcDbScale
 70
     0
300
1:1
140
1.0
141
1.0
290
     1
  0
SCALE
  5
49
102
{ACAD_REACTORS
330
47
102
}
330
47
100
AcDbScale
 70
     0
300
1:2
140
1.0
141
2.0
290
     0
  0
SCALE
  5
4A
102
{ACAD_REACTORS
330
47
102
}
330
47
100
AcDbScale
 70
     0
300
1:4
140
1.0
141
4.0
290
     0
  0
SCALE
  5
4B
102
{ACAD_REACTORS
330
47
102
}
330
47
100
AcDbScale
 70
     0
300
1:5
140
1.0
141
5.0
290
     0
  0
SCALE
  5
4C
102
{ACAD_REACTORS
330
47
102
}
330
47
100
AcDbScale
 70
     0
300
1:8
140
1.0
141
8.0
290
     0
  0
SCALE
  5
4D
102
{ACAD_REACTORS
330
47
102
}
330
47
100
AcDbScale
 70
     0
300
1:10
140
1.0
141
10.0
290
     0
  0
SCALE
  5
4E
102
{ACAD_REACTORS
330
47
102
}
330
47
100
AcDbScale
 70
     0
300
1:16
140
1.0
141
16.0
290
     0
  0
SCALE
  5
4F
102
{ACAD_REACTORS
330
47
102
}
330
47
100
AcDbScale
 70
     0
300
1:20
140
1.0
141
20.0
290
     0
  0
SCALE
  5
50
102
{ACAD_REACTORS
330
47
102
}
330
47
100
AcDbScale
 70
     0
300
1:30
140
1.0
141
30.0
290
     0
  0
SCALE
  5
51
102
{ACAD_REACTORS
330
47
102
}
330
47
100
AcDbScale
 70
     0
300
1:40
140
1.0
141
40.0
290
     0
  0
SCALE
  5
52
102
{ACAD_REACTORS
330
47
102
}
330
47
100
AcDbScale
 70
     0
300
1:50
140
1.0
141
50.0
290
     0
  0
SCALE
  5
53
102
{ACAD_REACTORS
330
47
102
}
330
47
100
AcDbScale
 70
     0
300
1:100
140
1.0
141
100.0
290
     0
  0
SCALE
  5
54
102
{ACAD_REACTORS
330
47
102
}
330
47
100
AcDbScale
 70
     0
300
2:1
140
2.0
141
1.0
290
     0
  0
SCALE
  5
55
102
{ACAD_REACTORS
330
47
102
}
330
47
100
AcDbScale
 70
     0
300
4:1
140
4.0
141
1.0
290
     0
  0
SCALE
  5
56
102
{ACAD_REACTORS
330
47
102
}
330
47
100
AcDbScale
 70
     0
300
8:1
140
8.0
141
1.0
290
     0
  0
SCALE
  5
57
102
{ACAD_REACTORS
330
47
102
}
330
47
100
AcDbScale
 70
     0
300
10:1
140
10.0
141
1.0
290
     0
  0
SCALE
  5
58
102
{ACAD_REACTORS
330
47
102
}
330
47
100
AcDbScale
 70
     0
300
100:1
140
100.0
141
1.0
290
     0
  0
SCALE
  5
59
102
{ACAD_REACTORS
330
47
102
}
330
47
100
AcDbScale
 70
     0
300
1/128" = 1'-0"
140
0.0078125
141
12.0
290
     0
  0
SCALE
  5
5A
102
{ACAD_REACTORS
330
47
102
}
330
47
100
AcDbScale
 70
     0
300
1/64" = 1'-0"
140
0.015625
141
12.0
290
     0
  0
SCALE
  5
5B
102
{ACAD_REACTORS
330
47
102
}
330
47
100
AcDbScale
 70
     0
300
1/32" = 1'-0"
140
0.03125
141
12.0
290
     0
  0
SCALE
  5
5C
102
{ACAD_REACTORS
330
47
102
}
330
47
100
AcDbScale
 70
     0
300
1/16" = 1'-0"
140
0.0625
141
12.0
290
     0
  0
SCALE
  5
5D
102
{ACAD_REACTORS
330
47
102
}
330
47
100
AcDbScale
 70
     0
300
3/32" = 1'-0"
140
0.09375
141
12.0
290
     0
  0
SCALE
  5
5E
102
{ACAD_REACTORS
330
47
102
}
330
47
100
AcDbScale
 70
     0
300
1/8" = 1'-0"
140
0.125
141
12.0
290
     0
  0
SCALE
  5
5F
102
{ACAD_REACTORS
330
47
102
}
330
47
100
AcDbScale
 70
     0
300
3/16" = 1'-0"
140
0.1875
141
12.0
290
     0
  0
SCALE
  5
60
102
{ACAD_REACTORS
330
47
102
}
330
47
100
AcDbScale
 70
     0
300
1/4" = 1'-0"
140
0.25
141
12.0
290
     0
  0
SCALE
  5
61
102
{ACAD_REACTORS
330
47
102
}
330
47
100
AcDbScale
 70
     0
300
3/8" = 1'-0"
140
0.375
141
12.0
290
     0
  0
SCALE
  5
62
102
{ACAD_REACTORS
330
47
102
}
330
47
100
AcDbScale
 70
     0
300
1/2" = 1'-0"
140
0.5
141
12.0
290
     0
  0
SCALE
  5
63
102
{ACAD_REACTORS
330
47
102
}
330
47
100
AcDbScale
 70
     0
300
3/4" = 1'-0"
140
0.75
141
12.0
290
     0
  0
SCALE
  5
64
102
{ACAD_REACTORS
330
47
102
}
330
47
100
AcDbScale
 70
     0
300
1" = 1'-0"
140
1.0
141
12.0
290
     0
  0
SCALE
  5
65
102
{ACAD_REACTORS
330
47
102
}
330
47
100
AcDbScale
 70
     0
300
1-1/2" = 1'-0"
140
1.5
141
12.0
290
     0
  0
SCALE
  5
66
102
{ACAD_REACTORS
330
47
102
}
330
47
100
AcDbScale
 70
     0
300
3" = 1'-0"
140
3.0
141
12.0
290
     0
  0
SCALE
  5
67
102
{ACAD_REACTORS
330
47
102
}
330
47
100
AcDbScale
 70
     0
300
6" = 1'-0"
140
6.0
141
12.0
290
     0
  0
SCALE
  5
68
102
{ACAD_REACTORS
330
47
102
}
330
47
100
AcDbScale
 70
     0
300
1'-0" = 1'-0"
140
12.0
141
12.0
290
     0
  0
ENDSEC
  0
EOF
