  0
SECTION
  2
HEADER
  9
$ACADVER
  1
AC1015
  9
$ACADMAINTVER
 70
     6
  9
$DWGCODEPAGE
  3
ANSI_950
  9
$INSBASE
 10
0.0
 20
0.0
 30
0.0
  9
$EXTMIN
 10
0.0
 20
0.0
 30
0.0
  9
$EXTMAX
 10
445.5
 20
315.0
 30
0.0
  9
$LIMMIN
 10
0.0
 20
0.0
  9
$LIMMAX
 10
445.5
 20
315.0
  9
$ORTHOMODE
 70
     0
  9
$REGENMODE
 70
     1
  9
$FILLMODE
 70
     1
  9
$QTEXTMODE
 70
     0
  9
$MIRRTEXT
 70
     1
  9
$LTSCALE
 40
1.5
  9
$ATTMODE
 70
     1
  9
$TEXTSIZE
 40
3.75
  9
$TRACEWID
 40
1.0
  9
$TEXTSTYLE
  7
STANDARD
  9
$CLAYER
  8
0
  9
$CELTYPE
  6
ByLayer
  9
$CECOLOR
 62
   256
  9
$CELTSCALE
 40
1.0
  9
$DISPSILH
 70
     0
  9
$DIMSCALE
 40
1.0
  9
$DIMASZ
 40
3.0
  9
$DIMEXO
 40
1.5
  9
$DIMDLI
 40
3.75
  9
$DIMRND
 40
0.0
  9
$DIMDLE
 40
0.0
  9
$DIMEXE
 40
1.5
  9
$DIMTP
 40
0.0
  9
$DIMTM
 40
0.0
  9
$DIMTXT
 40
3.75
  9
$DIMCEN
 40
2.5
  9
$DIMTSZ
 40
0.0
  9
$DIMTOL
 70
     0
  9
$DIMLIM
 70
     0
  9
$DIMTIH
 70
     1
  9
$DIMTOH
 70
     1
  9
$DIMSE1
 70
     0
  9
$DIMSE2
 70
     0
  9
$DIMTAD
 70
     1
  9
$DIMZIN
 70
     0
  9
$DIMBLK
  1

  9
$DIMASO
 70
     1
  9
$DIMSHO
 70
     1
  9
$DIMPOST
  1

  9
$DIMAPOST
  1

  9
$DIMALT
 70
     0
  9
$DIMALTD
 70
     3
  9
$DIMALTF
 40
0.0393700787
  9
$DIMLFAC
 40
1.0
  9
$DIMTOFL
 70
     1
  9
$DIMTVP
 40
0.0
  9
$DIMTIX
 70
     0
  9
$DIMSOXD
 70
     0
  9
$DIMSAH
 70
     0
  9
$DIMBLK1
  1

  9
$DIMBLK2
  1

  9
$DIMSTYLE
  2
ISO-25
  9
$DIMCLRD
 70
     0
  9
$DIMCLRE
 70
     0
  9
$DIMCLRT
 70
     0
  9
$DIMTFAC
 40
1.0
  9
$DIMGAP
 40
1.5
  9
$DIMJUST
 70
     0
  9
$DIMSD1
 70
     0
  9
$DIMSD2
 70
     0
  9
$DIMTOLJ
 70
     0
  9
$DIMTZIN
 70
     0
  9
$DIMALTZ
 70
     0
  9
$DIMALTTZ
 70
     0
  9
$DIMUPT
 70
     0
  9
$DIMDEC
 70
     2
  9
$DIMTDEC
 70
     2
  9
$DIMALTU
 70
     2
  9
$DIMALTTD
 70
     3
  9
$DIMTXSTY
  7
STANDARD
  9
$DIMAUNIT
 70
     0
  9
$DIMADEC
 70
     1
  9
$DIMALTRND
 40
0.0
  9
$DIMAZIN
 70
     0
  9
$DIMDSEP
 70
    44
  9
$DIMATFIT
 70
     3
  9
$DIMFRAC
 70
     0
  9
$DIMLDRBLK
  1

  9
$DIMLUNIT
 70
     2
  9
$DIMLWD
 70
    -2
  9
$DIMLWE
 70
    -2
  9
$DIMTMOVE
 70
     0
  9
$LUNITS
 70
     2
  9
$LUPREC
 70
     2
  9
$SKETCHINC
 40
1.0
  9
$FILLETRAD
 40
10.0
  9
$AUNITS
 70
     0
  9
$AUPREC
 70
     1
  9
$MENU
  1
.
  9
$ELEVATION
 40
0.0
  9
$PELEVATION
 40
0.0
  9
$THICKNESS
 40
0.0
  9
$LIMCHECK
 70
     0
  9
$CHAMFERA
 40
0.0
  9
$CHAMFERB
 40
0.0
  9
$CHAMFERC
 40
0.0
  9
$CHAMFERD
 40
0.0
  9
$SKPOLY
 70
     0
  9
$TDCREATE
 40
2457498.621782917
  9
$TDUCREATE
 40
2457498.288449583
  9
$TDUPDATE
 40
2457498.621788519
  9
$TDUUPDATE
 40
2457498.288455185
  9
$TDINDWG
 40
0.0000000116
  9
$TDUSRTIMER
 40
0.0000000116
  9
$USRTIMER
 70
     1
  9
$ANGBASE
 50
0.0
  9
$ANGDIR
 70
     0
  9
$PDMODE
 70
     0
  9
$PDSIZE
 40
-1.0
  9
$PLINEWID
 40
0.0
  9
$SPLFRAME
 70
     0
  9
$SPLINETYPE
 70
     6
  9
$SPLINESEGS
 70
     8
  9
$HANDSEED
  5
363
  9
$SURFTAB1
 70
     6
  9
$SURFTAB2
 70
     6
  9
$SURFTYPE
 70
     6
  9
$SURFU
 70
     6
  9
$SURFV
 70
     6
  9
$UCSBASE
  2

  9
$UCSNAME
  2

  9
$UCSORG
 10
0.0
 20
0.0
 30
0.0
  9
$UCSXDIR
 10
1.0
 20
0.0
 30
0.0
  9
$UCSYDIR
 10
0.0
 20
1.0
 30
0.0
  9
$UCSORTHOREF
  2

  9
$UCSORTHOVIEW
 70
     0
  9
$UCSORGTOP
 10
0.0
 20
0.0
 30
0.0
  9
$UCSORGBOTTOM
 10
0.0
 20
0.0
 30
0.0
  9
$UCSORGLEFT
 10
0.0
 20
0.0
 30
0.0
  9
$UCSORGRIGHT
 10
0.0
 20
0.0
 30
0.0
  9
$UCSORGFRONT
 10
0.0
 20
0.0
 30
0.0
  9
$UCSORGBACK
 10
0.0
 20
0.0
 30
0.0
  9
$PUCSBASE
  2

  9
$PUCSNAME
  2

  9
$PUCSORG
 10
0.0
 20
0.0
 30
0.0
  9
$PUCSXDIR
 10
1.0
 20
0.0
 30
0.0
  9
$PUCSYDIR
 10
0.0
 20
1.0
 30
0.0
  9
$PUCSORTHOREF
  2

  9
$PUCSORTHOVIEW
 70
     0
  9
$PUCSORGTOP
 10
0.0
 20
0.0
 30
0.0
  9
$PUCSORGBOTTOM
 10
0.0
 20
0.0
 30
0.0
  9
$PUCSORGLEFT
 10
0.0
 20
0.0
 30
0.0
  9
$PUCSORGRIGHT
 10
0.0
 20
0.0
 30
0.0
  9
$PUCSORGFRONT
 10
0.0
 20
0.0
 30
0.0
  9
$PUCSORGBACK
 10
0.0
 20
0.0
 30
0.0
  9
$USERI1
 70
     0
  9
$USERI2
 70
     0
  9
$USERI3
 70
     0
  9
$USERI4
 70
     0
  9
$USERI5
 70
     0
  9
$USERR1
 40
0.0
  9
$USERR2
 40
0.0
  9
$USERR3
 40
0.0
  9
$USERR4
 40
0.0
  9
$USERR5
 40
0.0
  9
$WORLDVIEW
 70
     1
  9
$SHADEDGE
 70
     3
  9
$SHADEDIF
 70
    70
  9
$TILEMODE
 70
     1
  9
$MAXACTVP
 70
    64
  9
$PINSBASE
 10
0.0
 20
0.0
 30
0.0
  9
$PLIMCHECK
 70
     0
  9
$PEXTMIN
 10
1.0000000000E+20
 20
1.0000000000E+20
 30
1.0000000000E+20
  9
$PEXTMAX
 10
-1.0000000000E+20
 20
-1.0000000000E+20
 30
-1.0000000000E+20
  9
$PLIMMIN
 10
0.0
 20
0.0
  9
$PLIMMAX
 10
420.0
 20
297.0
  9
$UNITMODE
 70
     0
  9
$VISRETAIN
 70
     1
  9
$PLINEGEN
 70
     0
  9
$PSLTSCALE
 70
     1
  9
$TREEDEPTH
 70
  3020
  9
$CMLSTYLE
  2
Standard
  9
$CMLJUST
 70
     0
  9
$CMLSCALE
 40
20.0
  9
$PROXYGRAPHICS
 70
     1
  9
$MEASUREMENT
 70
     1
  9
$CELWEIGHT
370
    -1
  9
$ENDCAPS
280
     0
  9
$JOINSTYLE
280
     0
  9
$LWDISPLAY
290
     1
  9
$INSUNITS
 70
     4
  9
$HYPERLINKBASE
  1

  9
$STYLESHEET
  1

  9
$XEDIT
290
     1
  9
$CEPSNTYPE
380
     0
  9
$PSTYLEMODE
290
     1
  9
$FINGERPRINTGUID
  2
{93FA7DDE-B800-4C9F-824A-68B6DB9126BB}
  9
$VERSIONGUID
  2
{FAEB1C32-E019-11D5-929B-00C0DF256EC4}
  9
$EXTNAMES
290
     1
  9
$PSVPSCALE
 40
0.0
  9
$OLESTARTUP
290
     0
  0
ENDSEC
  0
SECTION
  2
CLASSES
  0
CLASS
  1
ACDBDICTIONARYWDFLT
  2
AcDbDictionaryWithDefault
  3
ObjectDBX Classes
 90
        0
280
     0
281
     0
  0
CLASS
  1
VISUALSTYLE
  2
AcDbVisualStyle
  3
ObjectDBX Classes
 90
     4095
280
     0
281
     0
  0
CLASS
  1
MATERIAL
  2
AcDbMaterial
  3
ObjectDBX Classes
 90
     1153
280
     0
281
     0
  0
CLASS
  1
SCALE
  2
AcDbScale
  3
ObjectDBX Classes
 90
     1153
280
     0
281
     0
  0
CLASS
  1
TABLESTYLE
  2
AcDbTableStyle
  3
ObjectDBX Classes
 90
     4095
280
     0
281
     0
  0
CLASS
  1
MLEADERSTYLE
  2
AcDbMLeaderStyle
  3
ACDB_MLEADERSTYLE_CLASS
 90
     4095
280
     0
281
     0
  0
CLASS
  1
SUN
  2
AcDbSun
  3
SCENEOE
 90
     1153
280
     0
281
     0
  0
CLASS
  1
ACDBPLACEHOLDER
  2
AcDbPlaceHolder
  3
ObjectDBX Classes
 90
        0
280
     0
281
     0
  0
CLASS
  1
LAYOUT
  2
AcDbLayout
  3
ObjectDBX Classes
 90
        0
280
     0
281
     0
  0
ENDSEC
  0
SECTION
  2
TABLES
  0
TABLE
  2
VPORT
  5
8
330
0
100
AcDbSymbolTable
 70
     1
  0
VPORT
  5
29
330
8
100
AcDbSymbolTableRecord
100
AcDbViewportTableRecord
  2
*Active
 70
     0
 10
0.0
 20
0.0
 11
1.0
 21
1.0
 12
222.75
 22
157.5
 13
0.0
 23
0.0
 14
10.0
 24
10.0
 15
10.0
 25
10.0
 16
0.0
 26
0.0
 36
1.0
 17
0.0
 27
0.0
 37
0.0
 40
315.0
 41
1.4142857143
 42
50.0
 43
0.0
 44
0.0
 50
0.0
 51
0.0
 71
     0
 72
  2000
 73
     1
 74
     3
 75
     0
 76
     0
 77
     0
 78
     0
281
     0
 65
     1
110
0.0
120
0.0
130
0.0
111
1.0
121
0.0
131
0.0
112
0.0
122
1.0
132
0.0
 79
     0
146
0.0
  0
ENDTAB
  0
TABLE
  2
LTYPE
  5
5
330
0
100
AcDbSymbolTable
 70
     6
  0
LTYPE
  5
14
330
5
100
AcDbSymbolTableRecord
100
AcDbLinetypeTableRecord
  2
ByBlock
 70
     0
  3

 72
    65
 73
     0
 40
0.0
  0
LTYPE
  5
15
330
5
100
AcDbSymbolTableRecord
100
AcDbLinetypeTableRecord
  2
ByLayer
 70
     0
  3

 72
    65
 73
     0
 40
0.0
  0
LTYPE
  5
16
330
5
100
AcDbSymbolTableRecord
100
AcDbLinetypeTableRecord
  2
Continuous
 70
     0
  3
Solid line
 72
    65
 73
     0
 40
0.0
  0
LTYPE
  5
6E
330
5
100
AcDbSymbolTableRecord
100
AcDbLinetypeTableRecord
  2
HIDDEN
 70
     0
  3
Hidden __ __ __ __ __ __ __ __ __ __ __ __ __ __
 72
    65
 73
     2
 40
1.905
 49
1.27
 74
     0
 49
-0.635
 74
     0
  0
LTYPE
  5
6F
330
5
100
AcDbSymbolTableRecord
100
AcDbLinetypeTableRecord
  2
PHANTOM
 70
     0
  3
Phantom ______  __  __  ______  __  __  ______
 72
    65
 73
     6
 40
12.7
 49
6.35
 74
     0
 49
-1.27
 74
     0
 49
1.27
 74
     0
 49
-1.27
 74
     0
 49
1.27
 74
     0
 49
-1.27
 74
     0
  0
LTYPE
  5
70
330
5
100
AcDbSymbolTableRecord
100
AcDbLinetypeTableRecord
  2
CENTER
 70
     0
  3
Center ____ _ ____ _ ____ _ ____ _ ____ _ ____
 72
    65
 73
     4
 40
10.16
 49
6.35
 74
     0
 49
-1.27
 74
     0
 49
1.27
 74
     0
 49
-1.27
 74
     0
  0
LTYPE
  5
71
330
5
100
AcDbSymbolTableRecord
100
AcDbLinetypeTableRecord
  2
CENTERX2
 70
     0
  3
Center (2x) ________  __  ________  __  _____
 72
    65
 73
     4
 40
20.32
 49
12.7
 74
     0
 49
-2.54
 74
     0
 49
2.54
 74
     0
 49
-2.54
 74
     0
  0
LTYPE
  5
72
330
5
100
AcDbSymbolTableRecord
100
AcDbLinetypeTableRecord
  2
DOT2
 70
     0
  3
Dot (.5x) ........................................
 72
    65
 73
     2
 40
0.635
 49
0.0
 74
     0
 49
-0.635
 74
     0
  0
ENDTAB
  0
TABLE
  2
LAYER
  5
2
330
0
100
AcDbSymbolTable
 70
     3
  0
LAYER
  5
10
330
2
100
AcDbSymbolTableRecord
100
AcDbLayerTableRecord
  2
0
 70
     0
 62
     7
  6
Continuous
370
    -3
390
F
  0
LAYER
  5
73
330
2
100
AcDbSymbolTableRecord
100
AcDbLayerTableRecord
  2
SLD-0
 70
     0
 62
     7
  6
Continuous
370
    15
390
F
  0
LAYER
  5
74
330
2
100
AcDbSymbolTableRecord
100
AcDbLayerTableRecord
  2
DIM
 70
     0
 62
     7
  6
Continuous
370
    -3
390
F
  0
ENDTAB
  0
TABLE
  2
STYLE
  5
3
330
0
100
AcDbSymbolTable
 70
     4
  0
STYLE
  5
11
330
3
100
AcDbSymbolTableRecord
100
AcDbTextStyleTableRecord
  2
STANDARD
 70
     0
 40
0.0
 41
1.0
 50
0.0
 71
     0
 42
3.75
  3
ARIAL.TTF
  4

1001
ACAD
1000
ARIAL
1071
       34
  0
STYLE
  5
C5
330
3
100
AcDbSymbolTableRecord
100
AcDbTextStyleTableRecord
  2
SLDTEXTSTYLE0
 70
     0
 40
0.0
 41
0.948
 50
0.0
 71
     0
 42
3.75
  3
ARIAL.TTF
  4

1001
ACAD
1000
Arial
1071
      290
  0
STYLE
  5
CE
330
3
100
AcDbSymbolTableRecord
100
AcDbTextStyleTableRecord
  2
SLDTEXTSTYLE1
 70
     0
 40
0.0
 41
1.0
 50
0.0
 71
     0
 42
3.75
  3
ARIALBD.TTF
  4

1001
ACAD
1000
Arial CE
1071
 33554722
  0
STYLE
  5
101
330
3
100
AcDbSymbolTableRecord
100
AcDbTextStyleTableRecord
  2
SLDTEXTSTYLE2
 70
     0
 40
0.0
 41
1.0
 50
0.0
 71
     0
 42
3.75
  3
ARIAL.TTF
  4

1001
ACAD
1000
Arial CE
1071
      290
  0
ENDTAB
  0
TABLE
  2
VIEW
  5
6
330
0
100
AcDbSymbolTable
 70
     0
  0
ENDTAB
  0
TABLE
  2
UCS
  5
7
330
0
100
AcDbSymbolTable
 70
     0
  0
ENDTAB
  0
TABLE
  2
APPID
  5
9
330
0
100
AcDbSymbolTable
 70
     1
  0
APPID
  5
12
330
9
100
AcDbSymbolTableRecord
100
AcDbRegAppTableRecord
  2
ACAD
 70
     0
  0
ENDTAB
  0
TABLE
  2
DIMSTYLE
  5
A
330
0
100
AcDbSymbolTable
 70
     3
100
AcDbDimStyleTable
  0
DIMSTYLE
105
27
330
A
100
AcDbSymbolTableRecord
100
AcDbDimStyleTableRecord
  2
ISO-25
 70
     0
 41
2.5
 42
0.625
 43
3.75
 44
1.25
 73
     0
 74
     0
 77
     1
 78
     8
140
2.5
141
2.5
143
0.0393700787
147
0.625
171
     3
172
     1
178
     0
271
     2
272
     2
274
     3
278
    44
283
     0
284
     8
340
11
  0
DIMSTYLE
105
12A
102
{ACAD_REACTORS
330
129
330
134
330
13E
330
148
330
152
330
15C
330
166
330
170
330
17A
330
184
330
18E
330
198
330
1A2
330
1AC
330
314
102
}
330
A
100
AcDbSymbolTableRecord
100
AcDbDimStyleTableRecord
  2
SLDDIMSTYLE0
 70
     0
 41
3.0
 44
0.0
 45
0.000000001
 73
     0
 74
     0
 77
     1
 78
    12
 79
     3
140
3.75
147
0.9375
173
     1
178
     0
271
     2
272
     2
276
     2
284
    12
340
C5
  0
DIMSTYLE
105
1B7
102
{ACAD_REACTORS
330
1B6
330
1C0
330
1C9
102
}
330
A
100
AcDbSymbolTableRecord
100
AcDbDimStyleTableRecord
  2
SLDDIMSTYLE1
 70
     0
  3
<>
 41
3.0
 44
0.0
 45
0.000000001
 78
    12
 79
     3
140
3.75
141
0.0
147
0.9375
173
     1
178
     0
271
     2
272
     2
276
     2
284
    12
340
C5
  0
ENDTAB
  0
TABLE
  2
BLOCK_RECORD
  5
1
330
0
100
AcDbSymbolTable
 70
    45
  0
BLOCK_RECORD
  5
1F
330
1
100
AcDbSymbolTableRecord
100
AcDbBlockTableRecord
  2
*Model_Space
340
22
  0
BLOCK_RECORD
  5
1B
330
1
100
AcDbSymbolTableRecord
100
AcDbBlockTableRecord
  2
*Paper_Space
340
1E
  0
BLOCK_RECORD
  5
23
330
1
100
AcDbSymbolTableRecord
100
AcDbBlockTableRecord
  2
*Paper_Space0
340
26
  0
BLOCK_RECORD
  5
C7
330
1
100
AcDbSymbolTableRecord
100
AcDbBlockTableRecord
  2
SW_NOTE_0
340
0
102
{BLKREFS
331
CD
102
}
  0
BLOCK_RECORD
  5
FE
330
1
100
AcDbSymbolTableRecord
100
AcDbBlockTableRecord
  2
SW_NOTE_1
340
0
102
{BLKREFS
331
104
102
}
  0
BLOCK_RECORD
  5
12B
330
1
100
AcDbSymbolTableRecord
100
AcDbBlockTableRecord
  2
_D
340
0
  0
BLOCK_RECORD
  5
135
330
1
100
AcDbSymbolTableRecord
100
AcDbBlockTableRecord
  2
_D_1
340
0
  0
BLOCK_RECORD
  5
13F
330
1
100
AcDbSymbolTableRecord
100
AcDbBlockTableRecord
  2
_D_2
340
0
  0
BLOCK_RECORD
  5
149
330
1
100
AcDbSymbolTableRecord
100
AcDbBlockTableRecord
  2
_D_3
340
0
  0
BLOCK_RECORD
  5
153
330
1
100
AcDbSymbolTableRecord
100
AcDbBlockTableRecord
  2
_D_4
340
0
  0
BLOCK_RECORD
  5
15D
330
1
100
AcDbSymbolTableRecord
100
AcDbBlockTableRecord
  2
_D_5
340
0
  0
BLOCK_RECORD
  5
167
330
1
100
AcDbSymbolTableRecord
100
AcDbBlockTableRecord
  2
_D_6
340
0
  0
BLOCK_RECORD
  5
171
330
1
100
AcDbSymbolTableRecord
100
AcDbBlockTableRecord
  2
_D_7
340
0
  0
BLOCK_RECORD
  5
17B
330
1
100
AcDbSymbolTableRecord
100
AcDbBlockTableRecord
  2
_D_8
340
0
  0
BLOCK_RECORD
  5
185
330
1
100
AcDbSymbolTableRecord
100
AcDbBlockTableRecord
  2
_D_9
340
0
  0
BLOCK_RECORD
  5
18F
330
1
100
AcDbSymbolTableRecord
100
AcDbBlockTableRecord
  2
_D_10
340
0
  0
BLOCK_RECORD
  5
199
330
1
100
AcDbSymbolTableRecord
100
AcDbBlockTableRecord
  2
_D_11
340
0
  0
BLOCK_RECORD
  5
1A3
330
1
100
AcDbSymbolTableRecord
100
AcDbBlockTableRecord
  2
_D_12
340
0
  0
BLOCK_RECORD
  5
1AD
330
1
100
AcDbSymbolTableRecord
100
AcDbBlockTableRecord
  2
_D_13
340
0
  0
BLOCK_RECORD
  5
1B8
330
1
100
AcDbSymbolTableRecord
100
AcDbBlockTableRecord
  2
_D_14
340
0
  0
BLOCK_RECORD
  5
1C1
330
1
100
AcDbSymbolTableRecord
100
AcDbBlockTableRecord
  2
_D_15
340
0
  0
BLOCK_RECORD
  5
1CA
330
1
100
AcDbSymbolTableRecord
100
AcDbBlockTableRecord
  2
_D_16
340
0
  0
BLOCK_RECORD
  5
1D2
330
1
100
AcDbSymbolTableRecord
100
AcDbBlockTableRecord
  2
SW_CENTERMARKSYMBOL_0
340
0
102
{BLKREFS
331
1DD
102
}
  0
BLOCK_RECORD
  5
1DE
330
1
100
AcDbSymbolTableRecord
100
AcDbBlockTableRecord
  2
SW_CENTERMARKSYMBOL_1
340
0
102
{BLKREFS
331
1E9
102
}
  0
BLOCK_RECORD
  5
1EA
330
1
100
AcDbSymbolTableRecord
100
AcDbBlockTableRecord
  2
SW_CENTERMARKSYMBOL_2
340
0
102
{BLKREFS
331
1F5
102
}
  0
BLOCK_RECORD
  5
1F6
330
1
100
AcDbSymbolTableRecord
100
AcDbBlockTableRecord
  2
SW_CENTERMARKSYMBOL_3
340
0
102
{BLKREFS
331
201
102
}
  0
BLOCK_RECORD
  5
202
330
1
100
AcDbSymbolTableRecord
100
AcDbBlockTableRecord
  2
SW_CENTERMARKSYMBOL_4
340
0
102
{BLKREFS
331
20D
102
}
  0
BLOCK_RECORD
  5
20E
330
1
100
AcDbSymbolTableRecord
100
AcDbBlockTableRecord
  2
SW_CENTERMARKSYMBOL_5
340
0
102
{BLKREFS
331
219
102
}
  0
BLOCK_RECORD
  5
21A
330
1
100
AcDbSymbolTableRecord
100
AcDbBlockTableRecord
  2
SW_CENTERMARKSYMBOL_6
340
0
102
{BLKREFS
331
225
102
}
  0
BLOCK_RECORD
  5
226
330
1
100
AcDbSymbolTableRecord
100
AcDbBlockTableRecord
  2
SW_CENTERMARKSYMBOL_7
340
0
102
{BLKREFS
331
231
102
}
  0
BLOCK_RECORD
  5
232
330
1
100
AcDbSymbolTableRecord
100
AcDbBlockTableRecord
  2
SW_CENTERMARKSYMBOL_8
340
0
102
{BLKREFS
331
23D
102
}
  0
BLOCK_RECORD
  5
23E
330
1
100
AcDbSymbolTableRecord
100
AcDbBlockTableRecord
  2
SW_CENTERMARKSYMBOL_9
340
0
102
{BLKREFS
331
249
102
}
  0
BLOCK_RECORD
  5
24A
330
1
100
AcDbSymbolTableRecord
100
AcDbBlockTableRecord
  2
SW_CENTERMARKSYMBOL_10
340
0
102
{BLKREFS
331
255
102
}
  0
BLOCK_RECORD
  5
256
330
1
100
AcDbSymbolTableRecord
100
AcDbBlockTableRecord
  2
SW_CENTERMARKSYMBOL_11
340
0
102
{BLKREFS
331
261
102
}
  0
BLOCK_RECORD
  5
262
330
1
100
AcDbSymbolTableRecord
100
AcDbBlockTableRecord
  2
SW_CENTERMARKSYMBOL_12
340
0
102
{BLKREFS
331
26D
102
}
  0
BLOCK_RECORD
  5
26E
330
1
100
AcDbSymbolTableRecord
100
AcDbBlockTableRecord
  2
SW_CENTERMARKSYMBOL_13
340
0
102
{BLKREFS
331
279
102
}
  0
BLOCK_RECORD
  5
27A
330
1
100
AcDbSymbolTableRecord
100
AcDbBlockTableRecord
  2
SW_CENTERMARKSYMBOL_14
340
0
102
{BLKREFS
331
285
102
}
  0
BLOCK_RECORD
  5
286
330
1
100
AcDbSymbolTableRecord
100
AcDbBlockTableRecord
  2
SW_CENTERMARKSYMBOL_15
340
0
102
{BLKREFS
331
291
102
}
  0
BLOCK_RECORD
  5
292
330
1
100
AcDbSymbolTableRecord
100
AcDbBlockTableRecord
  2
SW_CENTERMARKSYMBOL_16
340
0
102
{BLKREFS
331
29D
102
}
  0
BLOCK_RECORD
  5
29E
330
1
100
AcDbSymbolTableRecord
100
AcDbBlockTableRecord
  2
SW_CENTERMARKSYMBOL_17
340
0
102
{BLKREFS
331
2A9
102
}
  0
BLOCK_RECORD
  5
2AA
330
1
100
AcDbSymbolTableRecord
100
AcDbBlockTableRecord
  2
SW_CENTERMARKSYMBOL_18
340
0
102
{BLKREFS
331
2B5
102
}
  0
BLOCK_RECORD
  5
2B6
330
1
100
AcDbSymbolTableRecord
100
AcDbBlockTableRecord
  2
SW_CENTERMARKSYMBOL_19
340
0
102
{BLKREFS
331
2C1
102
}
  0
BLOCK_RECORD
  5
2C2
330
1
100
AcDbSymbolTableRecord
100
AcDbBlockTableRecord
  2
SW_CENTERMARKSYMBOL_20
340
0
102
{BLKREFS
331
2CD
102
}
  0
BLOCK_RECORD
  5
2CE
330
1
100
AcDbSymbolTableRecord
100
AcDbBlockTableRecord
  2
SW_CENTERMARKSYMBOL_21
340
0
102
{BLKREFS
331
2D9
102
}
  0
BLOCK_RECORD
  5
2DA
330
1
100
AcDbSymbolTableRecord
100
AcDbBlockTableRecord
  2
SW_CENTERMARKSYMBOL_22
340
0
102
{BLKREFS
331
2E5
102
}
  0
BLOCK_RECORD
  5
2E6
330
1
100
AcDbSymbolTableRecord
100
AcDbBlockTableRecord
  2
SW_CENTERMARKSYMBOL_23
340
0
102
{BLKREFS
331
2F1
102
}
  0
BLOCK_RECORD
  5
315
330
1
100
AcDbSymbolTableRecord
100
AcDbBlockTableRecord
  2
_D_17
340
0
  0
ENDTAB
  0
ENDSEC
  0
SECTION
  2
BLOCKS
  0
BLOCK
  5
20
330
1F
100
AcDbEntity
  8
0
100
AcDbBlockBegin
  2
*Model_Space
 70
     0
 10
0.0
 20
0.0
 30
0.0
  3
*Model_Space
  1

  0
ENDBLK
  5
21
330
1F
100
AcDbEntity
  8
0
100
AcDbBlockEnd
  0
BLOCK
  5
1C
330
1B
100
AcDbEntity
 67
     1
  8
0
100
AcDbBlockBegin
  2
*Paper_Space
 70
     0
 10
0.0
 20
0.0
 30
0.0
  3
*Paper_Space
  1

  0
ENDBLK
  5
1D
330
1B
100
AcDbEntity
 67
     1
  8
0
100
AcDbBlockEnd
  0
BLOCK
  5
24
330
23
100
AcDbEntity
  8
0
100
AcDbBlockBegin
  2
*Paper_Space0
 70
     0
 10
0.0
 20
0.0
 30
0.0
  3
*Paper_Space0
  1

  0
ENDBLK
  5
25
330
23
100
AcDbEntity
  8
0
100
AcDbBlockEnd
  0
BLOCK
  5
C8
330
C7
100
AcDbEntity
  8
0
100
AcDbBlockBegin
  2
SW_NOTE_0
 70
     0
 10
0.0
 20
0.0
 30
0.0
  3
SW_NOTE_0
  1

  0
MTEXT
  5
CA
330
C7
100
AcDbEntity
  8
0
  6
Continuous
 62
     0
370
     0
100
AcDbMText
 10
0.0
 20
5.1159875922
 30
0.0
 40
3.96875
 41
0.0
 71
     1
 72
     1
  1
PROPRIETARY AND CONFIDENTIAL
  7
SLDTEXTSTYLE0
 73
     1
 44
1.0
  0
MTEXT
  5
CB
330
C7
100
AcDbEntity
  8
0
  6
Continuous
 62
     0
370
     0
100
AcDbMText
 10
0.0
 20
-0.12297522
 30
0.0
 40
2.778125
 41
0.0
 71
     1
 72
     1
  1
THE INFORMATION CONTAINED IN THIS DRAWING IS THE SOLE PROPERTY OF UNICE E-O SERVICES INC. ANY REPRODUCTION IN PART OR AS A WHOLE WITHOUT THE WRITTEN PERMISSION OF UNICE E-O SERVICES INC IS 
  7
SLDTEXTSTYLE0
 73
     1
 44
1.0
  0
MTEXT
  5
CC
330
C7
100
AcDbEntity
  8
0
  6
Continuous
 62
     0
370
     0
100
AcDbMText
 10
0.0
 20
-3.8271418419
 30
0.0
 40
2.778125
 41
0.0
 71
     1
 72
     1
  1
PROHIBITED.
  7
SLDTEXTSTYLE0
 73
     1
 44
1.0
  0
ENDBLK
  5
C9
330
C7
100
AcDbEntity
  8
0
100
AcDbBlockEnd
  0
BLOCK
  5
FF
330
FE
100
AcDbEntity
  8
0
100
AcDbBlockBegin
  2
SW_NOTE_1
 70
     0
 10
0.0
 20
0.0
 30
0.0
  3
SW_NOTE_1
  1

  0
MTEXT
  5
102
330
FE
100
AcDbEntity
  8
SLD-0
 62
     0
100
AcDbMText
 10
0.0
 20
3.5811913146
 30
0.0
 40
2.778125
 41
0.0
 71
     1
 72
     1
  1
No.5, Andong Rd., Chung Li District,
  7
SLDTEXTSTYLE2
 73
     1
 44
1.0
  0
MTEXT
  5
103
330
FE
100
AcDbEntity
  8
SLD-0
 62
     0
100
AcDbMText
 10
0.0
 20
-0.1229753073
 30
0.0
 40
2.778125
 41
0.0
 71
     1
 72
     1
  1
Taoyuan City 32063, Taiwan, R.O.C.
  7
SLDTEXTSTYLE2
 73
     1
 44
1.0
  0
ENDBLK
  5
100
330
FE
100
AcDbEntity
  8
0
100
AcDbBlockEnd
  0
BLOCK
  5
12C
330
12B
100
AcDbEntity
  8
0
100
AcDbBlockBegin
  2
_D
 70
     0
 10
0.0
 20
0.0
 30
0.0
  3
_D
  1

  0
SOLID
  5
12E
330
12B
100
AcDbEntity
  8
SLD-0
100
AcDbTrace
 10
179.6294591561
 20
62.9735483566
 30
0.0
 11
176.6294591561
 21
63.3485483566
 31
0.0
 12
176.6294591561
 22
62.5985483566
 32
0.0
 13
176.6294591561
 23
62.5985483566
 33
0.0
  0
SOLID
  5
12F
330
12B
100
AcDbEntity
  8
SLD-0
100
AcDbTrace
 10
103.6294591561
 20
62.9735483566
 30
0.0
 11
106.6294591561
 21
62.5985483566
 31
0.0
 12
106.6294591561
 22
63.3485483566
 32
0.0
 13
106.6294591561
 23
63.3485483566
 33
0.0
  0
LINE
  5
130
330
12B
100
AcDbEntity
  8
SLD-0
100
AcDbLine
 10
179.6294591561
 20
99.9538423276
 30
0.0
 11
179.6294591561
 21
61.4735483566
 31
0.0
  0
LINE
  5
131
330
12B
100
AcDbEntity
  8
SLD-0
100
AcDbLine
 10
103.6294591561
 20
99.9538423276
 30
0.0
 11
103.6294591561
 21
61.4735483566
 31
0.0
  0
LINE
  5
132
330
12B
100
AcDbEntity
  8
SLD-0
100
AcDbLine
 10
179.6294591561
 20
62.9735483566
 30
0.0
 11
103.6294591561
 21
62.9735483566
 31
0.0
  0
MTEXT
  5
133
330
12B
100
AcDbEntity
  8
SLD-0
100
AcDbMText
 10
138.7652396625
 20
67.8075521188
 30
0.0
 40
3.75
 41
0.0
 71
     1
 72
     1
  1
76
  7
SLDTEXTSTYLE0
 73
     1
 44
1.0
  0
ENDBLK
  5
12D
330
12B
100
AcDbEntity
  8
0
100
AcDbBlockEnd
  0
BLOCK
  5
136
330
135
100
AcDbEntity
  8
0
100
AcDbBlockBegin
  2
_D_1
 70
     0
 10
0.0
 20
0.0
 30
0.0
  3
_D_1
  1

  0
SOLID
  5
138
330
135
100
AcDbEntity
  8
SLD-0
100
AcDbTrace
 10
53.3669643224
 20
223.4538423276
 30
0.0
 11
52.9919643224
 21
220.4538423276
 31
0.0
 12
53.7419643224
 22
220.4538423276
 32
0.0
 13
53.7419643224
 23
220.4538423276
 33
0.0
  0
SOLID
  5
139
330
135
100
AcDbEntity
  8
SLD-0
100
AcDbTrace
 10
53.3669643224
 20
96.4538423276
 30
0.0
 11
53.7419643224
 21
99.4538423276
 31
0.0
 12
52.9919643224
 22
99.4538423276
 32
0.0
 13
52.9919643224
 23
99.4538423276
 33
0.0
  0
LINE
  5
13A
330
135
100
AcDbEntity
  8
SLD-0
100
AcDbLine
 10
107.1294591561
 20
223.4538423276
 30
0.0
 11
51.8669643224
 21
223.4538423276
 31
0.0
  0
LINE
  5
13B
330
135
100
AcDbEntity
  8
SLD-0
100
AcDbLine
 10
107.1294591561
 20
96.4538423276
 30
0.0
 11
51.8669643224
 21
96.4538423276
 31
0.0
  0
LINE
  5
13C
330
135
100
AcDbEntity
  8
SLD-0
100
AcDbLine
 10
53.3669643224
 20
223.4538423276
 30
0.0
 11
53.3669643224
 21
96.4538423276
 31
0.0
  0
MTEXT
  5
13D
330
135
100
AcDbEntity
  8
SLD-0
100
AcDbMText
 10
48.5329605602
 20
155.6585382194
 30
0.0
 40
3.75
 41
0.0
 71
     1
 72
     1
  1
127
  7
SLDTEXTSTYLE0
 11
-3.491481338843133E-15
 21
1.0
 31
0.0
 73
     1
 44
1.0
  0
ENDBLK
  5
137
330
135
100
AcDbEntity
  8
0
100
AcDbBlockEnd
  0
BLOCK
  5
140
330
13F
100
AcDbEntity
  8
0
100
AcDbBlockBegin
  2
_D_2
 70
     0
 10
0.0
 20
0.0
 30
0.0
  3
_D_2
  1

  0
SOLID
  5
142
330
13F
100
AcDbEntity
  8
SLD-0
100
AcDbTrace
 10
141.6294591561
 20
83.8644346355
 30
0.0
 11
138.6294591561
 21
84.2394346355
 31
0.0
 12
138.6294591561
 22
83.4894346355
 32
0.0
 13
138.6294591561
 23
83.4894346355
 33
0.0
  0
SOLID
  5
143
330
13F
100
AcDbEntity
  8
SLD-0
100
AcDbTrace
 10
128.9294591561
 20
83.8644346355
 30
0.0
 11
131.9294591561
 21
83.4894346355
 31
0.0
 12
131.9294591561
 22
84.2394346355
 32
0.0
 13
131.9294591561
 23
84.2394346355
 33
0.0
  0
LINE
  5
144
330
13F
100
AcDbEntity
  8
SLD-0
100
AcDbLine
 10
141.6294591561
 20
107.6538423276
 30
0.0
 11
141.6294591561
 21
82.3644346355
 31
0.0
  0
LINE
  5
145
330
13F
100
AcDbEntity
  8
SLD-0
100
AcDbLine
 10
128.9294591561
 20
120.3538423276
 30
0.0
 11
128.9294591561
 21
82.3644346355
 31
0.0
  0
LINE
  5
146
330
13F
100
AcDbEntity
  8
SLD-0
100
AcDbLine
 10
141.6294591561
 20
83.8644346355
 30
0.0
 11
128.9294591561
 21
83.8644346355
 31
0.0
  0
MTEXT
  5
147
330
13F
100
AcDbEntity
  8
SLD-0
100
AcDbMText
 10
130.266438447
 20
88.6984383977
 30
0.0
 40
3.75
 41
0.0
 71
     1
 72
     1
  1
12.7
  7
SLDTEXTSTYLE0
 73
     1
 44
1.0
  0
ENDBLK
  5
141
330
13F
100
AcDbEntity
  8
0
100
AcDbBlockEnd
  0
BLOCK
  5
14A
330
149
100
AcDbEntity
  8
0
100
AcDbBlockBegin
  2
_D_3
 70
     0
 10
0.0
 20
0.0
 30
0.0
  3
_D_3
  1

  0
SOLID
  5
14C
330
149
100
AcDbEntity
  8
SLD-0
100
AcDbTrace
 10
141.6294591561
 20
83.8644346355
 30
0.0
 11
144.6294591561
 21
83.4894346355
 31
0.0
 12
144.6294591561
 22
84.2394346355
 32
0.0
 13
144.6294591561
 23
84.2394346355
 33
0.0
  0
SOLID
  5
14D
330
149
100
AcDbEntity
  8
SLD-0
100
AcDbTrace
 10
154.3294591561
 20
83.8644346355
 30
0.0
 11
151.3294591561
 21
84.2394346355
 31
0.0
 12
151.3294591561
 22
83.4894346355
 32
0.0
 13
151.3294591561
 23
83.4894346355
 33
0.0
  0
LINE
  5
14E
330
149
100
AcDbEntity
  8
SLD-0
100
AcDbLine
 10
141.6294591561
 20
107.6538423276
 30
0.0
 11
141.6294591561
 21
82.3644346355
 31
0.0
  0
LINE
  5
14F
330
149
100
AcDbEntity
  8
SLD-0
100
AcDbLine
 10
154.3294591561
 20
120.3538423276
 30
0.0
 11
154.3294591561
 21
82.3644346355
 31
0.0
  0
LINE
  5
150
330
149
100
AcDbEntity
  8
SLD-0
100
AcDbLine
 10
141.6294591561
 20
83.8644346355
 30
0.0
 11
154.3294591561
 21
83.8644346355
 31
0.0
  0
MTEXT
  5
151
330
149
100
AcDbEntity
  8
SLD-0
100
AcDbMText
 10
142.966438447
 20
88.6984383977
 30
0.0
 40
3.75
 41
0.0
 71
     1
 72
     1
  1
12.7
  7
SLDTEXTSTYLE0
 73
     1
 44
1.0
  0
ENDBLK
  5
14B
330
149
100
AcDbEntity
  8
0
100
AcDbBlockEnd
  0
BLOCK
  5
154
330
153
100
AcDbEntity
  8
0
100
AcDbBlockBegin
  2
_D_4
 70
     0
 10
0.0
 20
0.0
 30
0.0
  3
_D_4
  1

  0
SOLID
  5
156
330
153
100
AcDbEntity
  8
SLD-0
100
AcDbTrace
 10
141.6294591561
 20
73.5622474031
 30
0.0
 11
138.6294591561
 21
73.9372474031
 31
0.0
 12
138.6294591561
 22
73.1872474031
 32
0.0
 13
138.6294591561
 23
73.1872474031
 33
0.0
  0
SOLID
  5
157
330
153
100
AcDbEntity
  8
SLD-0
100
AcDbTrace
 10
116.2294591561
 20
73.5622474031
 30
0.0
 11
119.2294591561
 21
73.1872474031
 31
0.0
 12
119.2294591561
 22
73.9372474031
 32
0.0
 13
119.2294591561
 23
73.9372474031
 33
0.0
  0
LINE
  5
158
330
153
100
AcDbEntity
  8
SLD-0
100
AcDbLine
 10
141.6294591561
 20
107.6538423276
 30
0.0
 11
141.6294591561
 21
72.0622474031
 31
0.0
  0
LINE
  5
159
330
153
100
AcDbEntity
  8
SLD-0
100
AcDbLine
 10
116.2294591561
 20
107.6538423276
 30
0.0
 11
116.2294591561
 21
72.0622474031
 31
0.0
  0
LINE
  5
15A
330
153
100
AcDbEntity
  8
SLD-0
100
AcDbLine
 10
141.6294591561
 20
73.5622474031
 30
0.0
 11
116.2294591561
 21
73.5622474031
 31
0.0
  0
MTEXT
  5
15B
330
153
100
AcDbEntity
  8
SLD-0
100
AcDbMText
 10
123.916438447
 20
78.3962511653
 30
0.0
 40
3.75
 41
0.0
 71
     1
 72
     1
  1
25.4
  7
SLDTEXTSTYLE0
 73
     1
 44
1.0
  0
ENDBLK
  5
155
330
153
100
AcDbEntity
  8
0
100
AcDbBlockEnd
  0
BLOCK
  5
15E
330
15D
100
AcDbEntity
  8
0
100
AcDbBlockBegin
  2
_D_5
 70
     0
 10
0.0
 20
0.0
 30
0.0
  3
_D_5
  1

  0
SOLID
  5
160
330
15D
100
AcDbEntity
  8
SLD-0
100
AcDbTrace
 10
141.6294591561
 20
73.5622474031
 30
0.0
 11
144.6294591561
 21
73.1872474031
 31
0.0
 12
144.6294591561
 22
73.9372474031
 32
0.0
 13
144.6294591561
 23
73.9372474031
 33
0.0
  0
SOLID
  5
161
330
15D
100
AcDbEntity
  8
SLD-0
100
AcDbTrace
 10
167.0294591561
 20
73.5622474031
 30
0.0
 11
164.0294591561
 21
73.9372474031
 31
0.0
 12
164.0294591561
 22
73.1872474031
 32
0.0
 13
164.0294591561
 23
73.1872474031
 33
0.0
  0
LINE
  5
162
330
15D
100
AcDbEntity
  8
SLD-0
100
AcDbLine
 10
141.6294591561
 20
107.6538423276
 30
0.0
 11
141.6294591561
 21
72.0622474031
 31
0.0
  0
LINE
  5
163
330
15D
100
AcDbEntity
  8
SLD-0
100
AcDbLine
 10
167.0294591561
 20
107.6538423276
 30
0.0
 11
167.0294591561
 21
72.0622474031
 31
0.0
  0
LINE
  5
164
330
15D
100
AcDbEntity
  8
SLD-0
100
AcDbLine
 10
141.6294591561
 20
73.5622474031
 30
0.0
 11
167.0294591561
 21
73.5622474031
 31
0.0
  0
MTEXT
  5
165
330
15D
100
AcDbEntity
  8
SLD-0
100
AcDbMText
 10
149.316438447
 20
78.3962511653
 30
0.0
 40
3.75
 41
0.0
 71
     1
 72
     1
  1
25.4
  7
SLDTEXTSTYLE0
 73
     1
 44
1.0
  0
ENDBLK
  5
15F
330
15D
100
AcDbEntity
  8
0
100
AcDbBlockEnd
  0
BLOCK
  5
168
330
167
100
AcDbEntity
  8
0
100
AcDbBlockBegin
  2
_D_6
 70
     0
 10
0.0
 20
0.0
 30
0.0
  3
_D_6
  1

  0
SOLID
  5
16A
330
167
100
AcDbEntity
  8
SLD-0
100
AcDbTrace
 10
95.4108195043
 20
159.9538423276
 30
0.0
 11
95.7858195043
 21
162.9538423276
 31
0.0
 12
95.0358195043
 22
162.9538423276
 32
0.0
 13
95.0358195043
 23
162.9538423276
 33
0.0
  0
SOLID
  5
16B
330
167
100
AcDbEntity
  8
SLD-0
100
AcDbTrace
 10
95.4108195043
 20
172.6538423276
 30
0.0
 11
95.0358195043
 21
169.6538423276
 31
0.0
 12
95.7858195043
 22
169.6538423276
 32
0.0
 13
95.7858195043
 23
169.6538423276
 33
0.0
  0
LINE
  5
16C
330
167
100
AcDbEntity
  8
SLD-0
100
AcDbLine
 10
111.1767591561
 20
159.9538423276
 30
0.0
 11
93.9108195043
 21
159.9538423276
 31
0.0
  0
LINE
  5
16D
330
167
100
AcDbEntity
  8
SLD-0
100
AcDbLine
 10
127.4294591561
 20
172.6538423276
 30
0.0
 11
93.9108195043
 21
172.6538423276
 31
0.0
  0
LINE
  5
16E
330
167
100
AcDbEntity
  8
SLD-0
100
AcDbLine
 10
95.4108195043
 20
159.9538423276
 30
0.0
 11
95.4108195043
 21
172.6538423276
 31
0.0
  0
MTEXT
  5
16F
330
167
100
AcDbEntity
  8
SLD-0
100
AcDbMText
 10
90.5768157421
 20
161.2908216185
 30
0.0
 40
3.75
 41
0.0
 71
     1
 72
     1
  1
12.7
  7
SLDTEXTSTYLE0
 11
6.123233995736766E-17
 21
1.0
 31
0.0
 73
     1
 44
1.0
  0
ENDBLK
  5
169
330
167
100
AcDbEntity
  8
0
100
AcDbBlockEnd
  0
BLOCK
  5
172
330
171
100
AcDbEntity
  8
0
100
AcDbBlockBegin
  2
_D_7
 70
     0
 10
0.0
 20
0.0
 30
0.0
  3
_D_7
  1

  0
SOLID
  5
174
330
171
100
AcDbEntity
  8
SLD-0
100
AcDbTrace
 10
95.4108195043
 20
159.9538423276
 30
0.0
 11
95.0358195043
 21
156.9538423276
 31
0.0
 12
95.7858195043
 22
156.9538423276
 32
0.0
 13
95.7858195043
 23
156.9538423276
 33
0.0
  0
SOLID
  5
175
330
171
100
AcDbEntity
  8
SLD-0
100
AcDbTrace
 10
95.4108195043
 20
147.2538423276
 30
0.0
 11
95.7858195043
 21
150.2538423276
 31
0.0
 12
95.0358195043
 22
150.2538423276
 32
0.0
 13
95.0358195043
 23
150.2538423276
 33
0.0
  0
LINE
  5
176
330
171
100
AcDbEntity
  8
SLD-0
100
AcDbLine
 10
111.1767591561
 20
159.9538423276
 30
0.0
 11
93.9108195043
 21
159.9538423276
 31
0.0
  0
LINE
  5
177
330
171
100
AcDbEntity
  8
SLD-0
100
AcDbLine
 10
127.4294591561
 20
147.2538423276
 30
0.0
 11
93.9108195043
 21
147.2538423276
 31
0.0
  0
LINE
  5
178
330
171
100
AcDbEntity
  8
SLD-0
100
AcDbLine
 10
95.4108195043
 20
159.9538423276
 30
0.0
 11
95.4108195043
 21
147.2538423276
 31
0.0
  0
MTEXT
  5
179
330
171
100
AcDbEntity
  8
SLD-0
100
AcDbMText
 10
90.5768157421
 20
148.5908216185
 30
0.0
 40
3.75
 41
0.0
 71
     1
 72
     1
  1
12.7
  7
SLDTEXTSTYLE0
 11
-7.044195017643634E-15
 21
1.0
 31
0.0
 73
     1
 44
1.0
  0
ENDBLK
  5
173
330
171
100
AcDbEntity
  8
0
100
AcDbBlockEnd
  0
BLOCK
  5
17C
330
17B
100
AcDbEntity
  8
0
100
AcDbBlockBegin
  2
_D_8
 70
     0
 10
0.0
 20
0.0
 30
0.0
  3
_D_8
  1

  0
SOLID
  5
17E
330
17B
100
AcDbEntity
  8
SLD-0
100
AcDbTrace
 10
84.9369091848
 20
159.9538423276
 30
0.0
 11
84.5619091848
 21
156.9538423276
 31
0.0
 12
85.3119091848
 22
156.9538423276
 32
0.0
 13
85.3119091848
 23
156.9538423276
 33
0.0
  0
SOLID
  5
17F
330
17B
100
AcDbEntity
  8
SLD-0
100
AcDbTrace
 10
84.9369091848
 20
134.5538423276
 30
0.0
 11
85.3119091848
 21
137.5538423276
 31
0.0
 12
84.5619091848
 22
137.5538423276
 32
0.0
 13
84.5619091848
 23
137.5538423276
 33
0.0
  0
LINE
  5
180
330
17B
100
AcDbEntity
  8
SLD-0
100
AcDbLine
 10
111.1767591561
 20
159.9538423276
 30
0.0
 11
83.4369091848
 21
159.9538423276
 31
0.0
  0
LINE
  5
181
330
17B
100
AcDbEntity
  8
SLD-0
100
AcDbLine
 10
111.1767591561
 20
134.5538423276
 30
0.0
 11
83.4369091848
 21
134.5538423276
 31
0.0
  0
LINE
  5
182
330
17B
100
AcDbEntity
  8
SLD-0
100
AcDbLine
 10
84.9369091848
 20
159.9538423276
 30
0.0
 11
84.9369091848
 21
134.5538423276
 31
0.0
  0
MTEXT
  5
183
330
17B
100
AcDbEntity
  8
SLD-0
100
AcDbMText
 10
80.1029054226
 20
142.2408216185
 30
0.0
 40
3.75
 41
0.0
 71
     1
 72
     1
  1
25.4
  7
SLDTEXTSTYLE0
 11
-7.044195017643634E-15
 21
1.0
 31
0.0
 73
     1
 44
1.0
  0
ENDBLK
  5
17D
330
17B
100
AcDbEntity
  8
0
100
AcDbBlockEnd
  0
BLOCK
  5
186
330
185
100
AcDbEntity
  8
0
100
AcDbBlockBegin
  2
_D_9
 70
     0
 10
0.0
 20
0.0
 30
0.0
  3
_D_9
  1

  0
SOLID
  5
188
330
185
100
AcDbEntity
  8
SLD-0
100
AcDbTrace
 10
84.9369091848
 20
159.9538423276
 30
0.0
 11
85.3119091848
 21
162.9538423276
 31
0.0
 12
84.5619091848
 22
162.9538423276
 32
0.0
 13
84.5619091848
 23
162.9538423276
 33
0.0
  0
SOLID
  5
189
330
185
100
AcDbEntity
  8
SLD-0
100
AcDbTrace
 10
84.9369091848
 20
185.3538423276
 30
0.0
 11
84.5619091848
 21
182.3538423276
 31
0.0
 12
85.3119091848
 22
182.3538423276
 32
0.0
 13
85.3119091848
 23
182.3538423276
 33
0.0
  0
LINE
  5
18A
330
185
100
AcDbEntity
  8
SLD-0
100
AcDbLine
 10
111.1767591561
 20
159.9538423276
 30
0.0
 11
83.4369091848
 21
159.9538423276
 31
0.0
  0
LINE
  5
18B
330
185
100
AcDbEntity
  8
SLD-0
100
AcDbLine
 10
111.1767591561
 20
185.3538423276
 30
0.0
 11
83.4369091848
 21
185.3538423276
 31
0.0
  0
LINE
  5
18C
330
185
100
AcDbEntity
  8
SLD-0
100
AcDbLine
 10
84.9369091848
 20
159.9538423276
 30
0.0
 11
84.9369091848
 21
185.3538423276
 31
0.0
  0
MTEXT
  5
18D
330
185
100
AcDbEntity
  8
SLD-0
100
AcDbMText
 10
80.1029054226
 20
167.6408216185
 30
0.0
 40
3.75
 41
0.0
 71
     1
 72
     1
  1
25.4
  7
SLDTEXTSTYLE0
 11
-3.828568698926949E-16
 21
1.0
 31
0.0
 73
     1
 44
1.0
  0
ENDBLK
  5
187
330
185
100
AcDbEntity
  8
0
100
AcDbBlockEnd
  0
BLOCK
  5
190
330
18F
100
AcDbEntity
  8
0
100
AcDbBlockBegin
  2
_D_10
 70
     0
 10
0.0
 20
0.0
 30
0.0
  3
_D_10
  1

  0
SOLID
  5
192
330
18F
100
AcDbEntity
  8
SLD-0
100
AcDbTrace
 10
74.3827340695
 20
159.9538423276
 30
0.0
 11
74.7577340695
 21
162.9538423276
 31
0.0
 12
74.0077340695
 22
162.9538423276
 32
0.0
 13
74.0077340695
 23
162.9538423276
 33
0.0
  0
SOLID
  5
193
330
18F
100
AcDbEntity
  8
SLD-0
100
AcDbTrace
 10
74.3827340695
 20
198.0538423276
 30
0.0
 11
74.0077340695
 21
195.0538423276
 31
0.0
 12
74.7577340695
 22
195.0538423276
 32
0.0
 13
74.7577340695
 23
195.0538423276
 33
0.0
  0
LINE
  5
194
330
18F
100
AcDbEntity
  8
SLD-0
100
AcDbLine
 10
111.1767591561
 20
159.9538423276
 30
0.0
 11
72.8827340695
 21
159.9538423276
 31
0.0
  0
LINE
  5
195
330
18F
100
AcDbEntity
  8
SLD-0
100
AcDbLine
 10
127.4294591561
 20
198.0538423276
 30
0.0
 11
72.8827340695
 21
198.0538423276
 31
0.0
  0
LINE
  5
196
330
18F
100
AcDbEntity
  8
SLD-0
100
AcDbLine
 10
74.3827340695
 20
159.9538423276
 30
0.0
 11
74.3827340695
 21
198.0538423276
 31
0.0
  0
MTEXT
  5
197
330
18F
100
AcDbEntity
  8
SLD-0
100
AcDbMText
 10
69.5487303073
 20
173.9908216185
 30
0.0
 40
3.75
 41
0.0
 71
     1
 72
     1
  1
38.1
  7
SLDTEXTSTYLE0
 11
6.123233995736766E-17
 21
1.0
 31
0.0
 73
     1
 44
1.0
  0
ENDBLK
  5
191
330
18F
100
AcDbEntity
  8
0
100
AcDbBlockEnd
  0
BLOCK
  5
19A
330
199
100
AcDbEntity
  8
0
100
AcDbBlockBegin
  2
_D_11
 70
     0
 10
0.0
 20
0.0
 30
0.0
  3
_D_11
  1

  0
SOLID
  5
19C
330
199
100
AcDbEntity
  8
SLD-0
100
AcDbTrace
 10
74.3827340695
 20
159.9538423276
 30
0.0
 11
74.0077340695
 21
156.9538423276
 31
0.0
 12
74.7577340695
 22
156.9538423276
 32
0.0
 13
74.7577340695
 23
156.9538423276
 33
0.0
  0
SOLID
  5
19D
330
199
100
AcDbEntity
  8
SLD-0
100
AcDbTrace
 10
74.3827340695
 20
121.8538423276
 30
0.0
 11
74.7577340695
 21
124.8538423276
 31
0.0
 12
74.0077340695
 22
124.8538423276
 32
0.0
 13
74.0077340695
 23
124.8538423276
 33
0.0
  0
LINE
  5
19E
330
199
100
AcDbEntity
  8
SLD-0
100
AcDbLine
 10
111.1767591561
 20
159.9538423276
 30
0.0
 11
72.8827340695
 21
159.9538423276
 31
0.0
  0
LINE
  5
19F
330
199
100
AcDbEntity
  8
SLD-0
100
AcDbLine
 10
124.7022591561
 20
121.8538423276
 30
0.0
 11
72.8827340695
 21
121.8538423276
 31
0.0
  0
LINE
  5
1A0
330
199
100
AcDbEntity
  8
SLD-0
100
AcDbLine
 10
74.3827340695
 20
159.9538423276
 30
0.0
 11
74.3827340695
 21
121.8538423276
 31
0.0
  0
MTEXT
  5
1A1
330
199
100
AcDbEntity
  8
SLD-0
100
AcDbMText
 10
69.5487303073
 20
135.8908216185
 30
0.0
 40
3.75
 41
0.0
 71
     1
 72
     1
  1
38.1
  7
SLDTEXTSTYLE0
 11
-7.044195017643634E-15
 21
1.0
 31
0.0
 73
     1
 44
1.0
  0
ENDBLK
  5
19B
330
199
100
AcDbEntity
  8
0
100
AcDbBlockEnd
  0
BLOCK
  5
1A4
330
1A3
100
AcDbEntity
  8
0
100
AcDbBlockBegin
  2
_D_12
 70
     0
 10
0.0
 20
0.0
 30
0.0
  3
_D_12
  1

  0
SOLID
  5
1A6
330
1A3
100
AcDbEntity
  8
SLD-0
100
AcDbTrace
 10
63.2730760534
 20
159.9538423276
 30
0.0
 11
62.8980760534
 21
156.9538423276
 31
0.0
 12
63.6480760534
 22
156.9538423276
 32
0.0
 13
63.6480760534
 23
156.9538423276
 33
0.0
  0
SOLID
  5
1A7
330
1A3
100
AcDbEntity
  8
SLD-0
100
AcDbTrace
 10
63.2730760534
 20
109.1538423276
 30
0.0
 11
63.6480760534
 21
112.1538423276
 31
0.0
 12
62.8980760534
 22
112.1538423276
 32
0.0
 13
62.8980760534
 23
112.1538423276
 33
0.0
  0
LINE
  5
1A8
330
1A3
100
AcDbEntity
  8
SLD-0
100
AcDbLine
 10
111.1767591561
 20
159.9538423276
 30
0.0
 11
61.7730760534
 21
159.9538423276
 31
0.0
  0
LINE
  5
1A9
330
1A3
100
AcDbEntity
  8
SLD-0
100
AcDbLine
 10
114.7294591561
 20
109.1538423276
 30
0.0
 11
61.7730760534
 21
109.1538423276
 31
0.0
  0
LINE
  5
1AA
330
1A3
100
AcDbEntity
  8
SLD-0
100
AcDbLine
 10
63.2730760534
 20
159.9538423276
 30
0.0
 11
63.2730760534
 21
109.1538423276
 31
0.0
  0
MTEXT
  5
1AB
330
1A3
100
AcDbEntity
  8
SLD-0
100
AcDbMText
 10
58.4390722912
 20
129.5408216185
 30
0.0
 40
3.75
 41
0.0
 71
     1
 72
     1
  1
50.8
  7
SLDTEXTSTYLE0
 11
-7.044195017643634E-15
 21
1.0
 31
0.0
 73
     1
 44
1.0
  0
ENDBLK
  5
1A5
330
1A3
100
AcDbEntity
  8
0
100
AcDbBlockEnd
  0
BLOCK
  5
1AE
330
1AD
100
AcDbEntity
  8
0
100
AcDbBlockBegin
  2
_D_13
 70
     0
 10
0.0
 20
0.0
 30
0.0
  3
_D_13
  1

  0
SOLID
  5
1B0
330
1AD
100
AcDbEntity
  8
SLD-0
100
AcDbTrace
 10
63.2730760534
 20
159.9538423276
 30
0.0
 11
63.6480760534
 21
162.9538423276
 31
0.0
 12
62.8980760534
 22
162.9538423276
 32
0.0
 13
62.8980760534
 23
162.9538423276
 33
0.0
  0
SOLID
  5
1B1
330
1AD
100
AcDbEntity
  8
SLD-0
100
AcDbTrace
 10
63.2730760534
 20
210.7538423276
 30
0.0
 11
62.8980760534
 21
207.7538423276
 31
0.0
 12
63.6480760534
 22
207.7538423276
 32
0.0
 13
63.6480760534
 23
207.7538423276
 33
0.0
  0
LINE
  5
1B2
330
1AD
100
AcDbEntity
  8
SLD-0
100
AcDbLine
 10
111.1767591561
 20
159.9538423276
 30
0.0
 11
61.7730760534
 21
159.9538423276
 31
0.0
  0
LINE
  5
1B3
330
1AD
100
AcDbEntity
  8
SLD-0
100
AcDbLine
 10
111.1767591561
 20
210.7538423276
 30
0.0
 11
61.7730760534
 21
210.7538423276
 31
0.0
  0
LINE
  5
1B4
330
1AD
100
AcDbEntity
  8
SLD-0
100
AcDbLine
 10
63.2730760534
 20
159.9538423276
 30
0.0
 11
63.2730760534
 21
210.7538423276
 31
0.0
  0
MTEXT
  5
1B5
330
1AD
100
AcDbEntity
  8
SLD-0
100
AcDbMText
 10
58.4390722912
 20
180.3408216185
 30
0.0
 40
3.75
 41
0.0
 71
     1
 72
     1
  1
50.8
  7
SLDTEXTSTYLE0
 11
-3.828568698926949E-16
 21
1.0
 31
0.0
 73
     1
 44
1.0
  0
ENDBLK
  5
1AF
330
1AD
100
AcDbEntity
  8
0
100
AcDbBlockEnd
  0
BLOCK
  5
1B9
330
1B8
100
AcDbEntity
  8
0
100
AcDbBlockBegin
  2
_D_14
 70
     0
 10
0.0
 20
0.0
 30
0.0
  3
_D_14
  1

  0
SOLID
  5
1BB
330
1B8
100
AcDbEntity
  8
SLD-0
100
AcDbTrace
 10
169.2401622043
 20
212.0301923276
 30
0.0
 11
172.0257384157
 21
213.2054328012
 31
0.0
 12
171.6507384157
 22
213.8549518541
 32
0.0
 13
171.6507384157
 23
213.8549518541
 33
0.0
  0
LINE
  5
1BC
330
1B8
100
AcDbEntity
  8
SLD-0
100
AcDbLine
 10
169.2401622043
 20
212.0301923276
 30
0.0
 11
184.6497122301
 21
220.9269001831
 31
0.0
  0
LINE
  5
1BD
330
1B8
100
AcDbEntity
  8
SLD-0
100
AcDbLine
 10
184.6497122301
 20
220.9269001831
 30
0.0
 11
212.5820040061
 21
220.9269001831
 31
0.0
  0
MTEXT
  5
1BE
330
1B8
100
AcDbEntity
  8
SLD-0
100
AcDbMText
 10
186.5247122301
 20
231.5161121452
 30
0.0
 40
3.75
 41
0.0
 71
     1
 72
     1
  1
14 HOLES,
  7
SLDTEXTSTYLE0
 73
     1
 44
1.0
  0
MTEXT
  5
1BF
330
1B8
100
AcDbEntity
  8
SLD-0
100
AcDbMText
 10
186.5247122301
 20
225.7609039453
 30
0.0
 40
3.75
 41
0.0
 71
     1
 72
     1
  1
 1/4"-20
  7
SLDTEXTSTYLE0
 73
     1
 44
1.0
  0
ENDBLK
  5
1BA
330
1B8
100
AcDbEntity
  8
0
100
AcDbBlockEnd
  0
BLOCK
  5
1C2
330
1C1
100
AcDbEntity
  8
0
100
AcDbBlockBegin
  2
_D_15
 70
     0
 10
0.0
 20
0.0
 30
0.0
  3
_D_15
  1

  0
SOLID
  5
1C4
330
1C1
100
AcDbEntity
  8
SLD-0
100
AcDbTrace
 10
156.3412894671
 20
197.5147740205
 30
0.0
 11
159.1420098041
 21
196.3760947003
 31
0.0
 12
159.3361240879
 22
197.10053907
 32
0.0
 13
159.3361240879
 23
197.10053907
 33
0.0
  0
LINE
  5
1C5
330
1C1
100
AcDbEntity
  8
SLD-0
100
AcDbLine
 10
156.3412894671
 20
197.5147740205
 30
0.0
 11
186.0820041607
 21
189.545773536
 31
0.0
  0
LINE
  5
1C6
330
1C1
100
AcDbEntity
  8
SLD-0
100
AcDbLine
 10
186.0820041607
 20
189.545773536
 30
0.0
 11
211.1497120755
 21
189.545773536
 31
0.0
  0
MTEXT
  5
1C7
330
1C1
100
AcDbEntity
  8
SLD-0
100
AcDbMText
 10
187.9570041607
 20
200.1349854981
 30
0.0
 40
3.75
 41
0.0
 71
     1
 72
     1
  1
8 HOLES,
  7
SLDTEXTSTYLE0
 73
     1
 44
1.0
  0
MTEXT
  5
1C8
330
1C1
100
AcDbEntity
  8
SLD-0
100
AcDbMText
 10
187.9570041607
 20
194.3797772982
 30
0.0
 40
3.75
 41
0.0
 71
     1
 72
     1
  1
 8-32
  7
SLDTEXTSTYLE0
 73
     1
 44
1.0
  0
ENDBLK
  5
1C3
330
1C1
100
AcDbEntity
  8
0
100
AcDbBlockEnd
  0
BLOCK
  5
1CB
330
1CA
100
AcDbEntity
  8
0
100
AcDbBlockBegin
  2
_D_16
 70
     0
 10
0.0
 20
0.0
 30
0.0
  3
_D_16
  1

  0
SOLID
  5
1CD
330
1CA
100
AcDbEntity
  8
SLD-0
100
AcDbTrace
 10
159.4855665641
 20
156.9769623276
 30
0.0
 11
161.8961427755
 21
155.1522028012
 31
0.0
 12
162.2711427755
 22
155.8017218541
 32
0.0
 13
162.2711427755
 23
155.8017218541
 33
0.0
  0
LINE
  5
1CE
330
1CA
100
AcDbEntity
  8
SLD-0
100
AcDbLine
 10
159.4855665641
 20
156.9769623276
 30
0.0
 11
187.3250270403
 21
140.9038423276
 31
0.0
  0
LINE
  5
1CF
330
1CA
100
AcDbEntity
  8
SLD-0
100
AcDbLine
 10
187.3250270403
 20
140.9038423276
 30
0.0
 11
218.7989858306
 21
140.9038423276
 31
0.0
  0
MTEXT
  5
1D0
330
1CA
100
AcDbEntity
  8
SLD-0
100
AcDbMText
 10
189.2000270403
 20
151.4930542897
 30
0.0
 40
3.75
 41
0.0
 71
     1
 72
     1
  1
3 HOLES,
  7
SLDTEXTSTYLE0
 73
     1
 44
1.0
  0
MTEXT
  5
1D1
330
1CA
100
AcDbEntity
  8
SLD-0
100
AcDbMText
 10
189.2000270403
 20
145.7378460898
 30
0.0
 40
3.75
 41
0.0
 71
     1
 72
     1
  1
 1/4"-20 CLR
  7
SLDTEXTSTYLE0
 73
     1
 44
1.0
  0
ENDBLK
  5
1CC
330
1CA
100
AcDbEntity
  8
0
100
AcDbBlockEnd
  0
BLOCK
  5
1D3
330
1D2
100
AcDbEntity
  8
0
100
AcDbBlockBegin
  2
SW_CENTERMARKSYMBOL_0
 70
     0
 10
0.0
 20
0.0
 30
0.0
  3
SW_CENTERMARKSYMBOL_0
  1

  0
LINE
  5
1D5
330
1D2
100
AcDbEntity
  8
SLD-0
 62
     0
100
AcDbLine
 10
0.0
 20
0.0
 30
0.0
 11
0.0
 21
1.0
 31
0.0
  0
LINE
  5
1D6
330
1D2
100
AcDbEntity
  8
SLD-0
 62
     0
100
AcDbLine
 10
0.0
 20
0.0
 30
0.0
 11
-1.0
 21
0.0
 31
0.0
  0
LINE
  5
1D7
330
1D2
100
AcDbEntity
  8
SLD-0
 62
     0
100
AcDbLine
 10
0.0
 20
0.0
 30
0.0
 11
0.0
 21
-1.0
 31
0.0
  0
LINE
  5
1D8
330
1D2
100
AcDbEntity
  8
SLD-0
 62
     0
100
AcDbLine
 10
0.0
 20
0.0
 30
0.0
 11
1.0
 21
0.0
 31
0.0
  0
LINE
  5
1D9
330
1D2
100
AcDbEntity
  8
SLD-0
 62
     0
100
AcDbLine
 10
0.0
 20
2.0
 30
0.0
 11
0.0
 21
3.5527
 31
0.0
  0
LINE
  5
1DA
330
1D2
100
AcDbEntity
  8
SLD-0
 62
     0
100
AcDbLine
 10
-2.0
 20
0.0
 30
0.0
 11
-3.5527
 21
0.0
 31
0.0
  0
LINE
  5
1DB
330
1D2
100
AcDbEntity
  8
SLD-0
 62
     0
100
AcDbLine
 10
0.0
 20
-2.0
 30
0.0
 11
0.0
 21
-3.5527
 31
0.0
  0
LINE
  5
1DC
330
1D2
100
AcDbEntity
  8
SLD-0
 62
     0
100
AcDbLine
 10
2.0
 20
0.0
 30
0.0
 11
3.5527
 21
0.0
 31
0.0
  0
ENDBLK
  5
1D4
330
1D2
100
AcDbEntity
  8
0
100
AcDbBlockEnd
  0
BLOCK
  5
1DF
330
1DE
100
AcDbEntity
  8
0
100
AcDbBlockBegin
  2
SW_CENTERMARKSYMBOL_1
 70
     0
 10
0.0
 20
0.0
 30
0.0
  3
SW_CENTERMARKSYMBOL_1
  1

  0
LINE
  5
1E1
330
1DE
100
AcDbEntity
  8
SLD-0
 62
     0
100
AcDbLine
 10
0.0
 20
0.0
 30
0.0
 11
0.0
 21
1.0
 31
0.0
  0
LINE
  5
1E2
330
1DE
100
AcDbEntity
  8
SLD-0
 62
     0
100
AcDbLine
 10
0.0
 20
0.0
 30
0.0
 11
-1.0
 21
0.0
 31
0.0
  0
LINE
  5
1E3
330
1DE
100
AcDbEntity
  8
SLD-0
 62
     0
100
AcDbLine
 10
0.0
 20
0.0
 30
0.0
 11
0.0
 21
-1.0
 31
0.0
  0
LINE
  5
1E4
330
1DE
100
AcDbEntity
  8
SLD-0
 62
     0
100
AcDbLine
 10
0.0
 20
0.0
 30
0.0
 11
1.0
 21
0.0
 31
0.0
  0
LINE
  5
1E5
330
1DE
100
AcDbEntity
  8
SLD-0
 62
     0
100
AcDbLine
 10
0.0
 20
2.0
 30
0.0
 11
0.0
 21
3.5527
 31
0.0
  0
LINE
  5
1E6
330
1DE
100
AcDbEntity
  8
SLD-0
 62
     0
100
AcDbLine
 10
-2.0
 20
0.0
 30
0.0
 11
-3.5527
 21
0.0
 31
0.0
  0
LINE
  5
1E7
330
1DE
100
AcDbEntity
  8
SLD-0
 62
     0
100
AcDbLine
 10
0.0
 20
-2.0
 30
0.0
 11
0.0
 21
-3.5527
 31
0.0
  0
LINE
  5
1E8
330
1DE
100
AcDbEntity
  8
SLD-0
 62
     0
100
AcDbLine
 10
2.0
 20
0.0
 30
0.0
 11
3.5527
 21
0.0
 31
0.0
  0
ENDBLK
  5
1E0
330
1DE
100
AcDbEntity
  8
0
100
AcDbBlockEnd
  0
BLOCK
  5
1EB
330
1EA
100
AcDbEntity
  8
0
100
AcDbBlockBegin
  2
SW_CENTERMARKSYMBOL_2
 70
     0
 10
0.0
 20
0.0
 30
0.0
  3
SW_CENTERMARKSYMBOL_2
  1

  0
LINE
  5
1ED
330
1EA
100
AcDbEntity
  8
SLD-0
 62
     0
100
AcDbLine
 10
0.0
 20
0.0
 30
0.0
 11
0.0
 21
1.0
 31
0.0
  0
LINE
  5
1EE
330
1EA
100
AcDbEntity
  8
SLD-0
 62
     0
100
AcDbLine
 10
0.0
 20
0.0
 30
0.0
 11
-1.0
 21
0.0
 31
0.0
  0
LINE
  5
1EF
330
1EA
100
AcDbEntity
  8
SLD-0
 62
     0
100
AcDbLine
 10
0.0
 20
0.0
 30
0.0
 11
0.0
 21
-1.0
 31
0.0
  0
LINE
  5
1F0
330
1EA
100
AcDbEntity
  8
SLD-0
 62
     0
100
AcDbLine
 10
0.0
 20
0.0
 30
0.0
 11
1.0
 21
0.0
 31
0.0
  0
LINE
  5
1F1
330
1EA
100
AcDbEntity
  8
SLD-0
 62
     0
100
AcDbLine
 10
0.0
 20
2.0
 30
0.0
 11
0.0
 21
3.5527
 31
0.0
  0
LINE
  5
1F2
330
1EA
100
AcDbEntity
  8
SLD-0
 62
     0
100
AcDbLine
 10
-2.0
 20
0.0
 30
0.0
 11
-3.5527
 21
0.0
 31
0.0
  0
LINE
  5
1F3
330
1EA
100
AcDbEntity
  8
SLD-0
 62
     0
100
AcDbLine
 10
0.0
 20
-2.0
 30
0.0
 11
0.0
 21
-3.5527
 31
0.0
  0
LINE
  5
1F4
330
1EA
100
AcDbEntity
  8
SLD-0
 62
     0
100
AcDbLine
 10
2.0
 20
0.0
 30
0.0
 11
3.5527
 21
0.0
 31
0.0
  0
ENDBLK
  5
1EC
330
1EA
100
AcDbEntity
  8
0
100
AcDbBlockEnd
  0
BLOCK
  5
1F7
330
1F6
100
AcDbEntity
  8
0
100
AcDbBlockBegin
  2
SW_CENTERMARKSYMBOL_3
 70
     0
 10
0.0
 20
0.0
 30
0.0
  3
SW_CENTERMARKSYMBOL_3
  1

  0
LINE
  5
1F9
330
1F6
100
AcDbEntity
  8
SLD-0
 62
     0
100
AcDbLine
 10
0.0
 20
0.0
 30
0.0
 11
0.0
 21
1.0
 31
0.0
  0
LINE
  5
1FA
330
1F6
100
AcDbEntity
  8
SLD-0
 62
     0
100
AcDbLine
 10
0.0
 20
0.0
 30
0.0
 11
-1.0
 21
0.0
 31
0.0
  0
LINE
  5
1FB
330
1F6
100
AcDbEntity
  8
SLD-0
 62
     0
100
AcDbLine
 10
0.0
 20
0.0
 30
0.0
 11
0.0
 21
-1.0
 31
0.0
  0
LINE
  5
1FC
330
1F6
100
AcDbEntity
  8
SLD-0
 62
     0
100
AcDbLine
 10
0.0
 20
0.0
 30
0.0
 11
1.0
 21
0.0
 31
0.0
  0
LINE
  5
1FD
330
1F6
100
AcDbEntity
  8
SLD-0
 62
     0
100
AcDbLine
 10
0.0
 20
2.0
 30
0.0
 11
0.0
 21
2.7272
 31
0.0
  0
LINE
  5
1FE
330
1F6
100
AcDbEntity
  8
SLD-0
 62
     0
100
AcDbLine
 10
-2.0
 20
0.0
 30
0.0
 11
-2.7272
 21
0.0
 31
0.0
  0
LINE
  5
1FF
330
1F6
100
AcDbEntity
  8
SLD-0
 62
     0
100
AcDbLine
 10
0.0
 20
-2.0
 30
0.0
 11
0.0
 21
-2.7272
 31
0.0
  0
LINE
  5
200
330
1F6
100
AcDbEntity
  8
SLD-0
 62
     0
100
AcDbLine
 10
2.0
 20
0.0
 30
0.0
 11
2.7272
 21
0.0
 31
0.0
  0
ENDBLK
  5
1F8
330
1F6
100
AcDbEntity
  8
0
100
AcDbBlockEnd
  0
BLOCK
  5
203
330
202
100
AcDbEntity
  8
0
100
AcDbBlockBegin
  2
SW_CENTERMARKSYMBOL_4
 70
     0
 10
0.0
 20
0.0
 30
0.0
  3
SW_CENTERMARKSYMBOL_4
  1

  0
LINE
  5
205
330
202
100
AcDbEntity
  8
SLD-0
 62
     0
100
AcDbLine
 10
0.0
 20
0.0
 30
0.0
 11
0.0
 21
1.0
 31
0.0
  0
LINE
  5
206
330
202
100
AcDbEntity
  8
SLD-0
 62
     0
100
AcDbLine
 10
0.0
 20
0.0
 30
0.0
 11
-1.0
 21
0.0
 31
0.0
  0
LINE
  5
207
330
202
100
AcDbEntity
  8
SLD-0
 62
     0
100
AcDbLine
 10
0.0
 20
0.0
 30
0.0
 11
0.0
 21
-1.0
 31
0.0
  0
LINE
  5
208
330
202
100
AcDbEntity
  8
SLD-0
 62
     0
100
AcDbLine
 10
0.0
 20
0.0
 30
0.0
 11
1.0
 21
0.0
 31
0.0
  0
LINE
  5
209
330
202
100
AcDbEntity
  8
SLD-0
 62
     0
100
AcDbLine
 10
0.0
 20
2.0
 30
0.0
 11
0.0
 21
2.7272
 31
0.0
  0
LINE
  5
20A
330
202
100
AcDbEntity
  8
SLD-0
 62
     0
100
AcDbLine
 10
-2.0
 20
0.0
 30
0.0
 11
-2.7272
 21
0.0
 31
0.0
  0
LINE
  5
20B
330
202
100
AcDbEntity
  8
SLD-0
 62
     0
100
AcDbLine
 10
0.0
 20
-2.0
 30
0.0
 11
0.0
 21
-2.7272
 31
0.0
  0
LINE
  5
20C
330
202
100
AcDbEntity
  8
SLD-0
 62
     0
100
AcDbLine
 10
2.0
 20
0.0
 30
0.0
 11
2.7272
 21
0.0
 31
0.0
  0
ENDBLK
  5
204
330
202
100
AcDbEntity
  8
0
100
AcDbBlockEnd
  0
BLOCK
  5
20F
330
20E
100
AcDbEntity
  8
0
100
AcDbBlockBegin
  2
SW_CENTERMARKSYMBOL_5
 70
     0
 10
0.0
 20
0.0
 30
0.0
  3
SW_CENTERMARKSYMBOL_5
  1

  0
LINE
  5
211
330
20E
100
AcDbEntity
  8
SLD-0
 62
     0
100
AcDbLine
 10
0.0
 20
0.0
 30
0.0
 11
0.0
 21
1.0
 31
0.0
  0
LINE
  5
212
330
20E
100
AcDbEntity
  8
SLD-0
 62
     0
100
AcDbLine
 10
0.0
 20
0.0
 30
0.0
 11
-1.0
 21
0.0
 31
0.0
  0
LINE
  5
213
330
20E
100
AcDbEntity
  8
SLD-0
 62
     0
100
AcDbLine
 10
0.0
 20
0.0
 30
0.0
 11
0.0
 21
-1.0
 31
0.0
  0
LINE
  5
214
330
20E
100
AcDbEntity
  8
SLD-0
 62
     0
100
AcDbLine
 10
0.0
 20
0.0
 30
0.0
 11
1.0
 21
0.0
 31
0.0
  0
LINE
  5
215
330
20E
100
AcDbEntity
  8
SLD-0
 62
     0
100
AcDbLine
 10
0.0
 20
2.0
 30
0.0
 11
0.0
 21
3.5527
 31
0.0
  0
LINE
  5
216
330
20E
100
AcDbEntity
  8
SLD-0
 62
     0
100
AcDbLine
 10
-2.0
 20
0.0
 30
0.0
 11
-3.5527
 21
0.0
 31
0.0
  0
LINE
  5
217
330
20E
100
AcDbEntity
  8
SLD-0
 62
     0
100
AcDbLine
 10
0.0
 20
-2.0
 30
0.0
 11
0.0
 21
-3.5527
 31
0.0
  0
LINE
  5
218
330
20E
100
AcDbEntity
  8
SLD-0
 62
     0
100
AcDbLine
 10
2.0
 20
0.0
 30
0.0
 11
3.5527
 21
0.0
 31
0.0
  0
ENDBLK
  5
210
330
20E
100
AcDbEntity
  8
0
100
AcDbBlockEnd
  0
BLOCK
  5
21B
330
21A
100
AcDbEntity
  8
0
100
AcDbBlockBegin
  2
SW_CENTERMARKSYMBOL_6
 70
     0
 10
0.0
 20
0.0
 30
0.0
  3
SW_CENTERMARKSYMBOL_6
  1

  0
LINE
  5
21D
330
21A
100
AcDbEntity
  8
SLD-0
 62
     0
100
AcDbLine
 10
0.0
 20
0.0
 30
0.0
 11
0.0
 21
1.0
 31
0.0
  0
LINE
  5
21E
330
21A
100
AcDbEntity
  8
SLD-0
 62
     0
100
AcDbLine
 10
0.0
 20
0.0
 30
0.0
 11
-1.0
 21
0.0
 31
0.0
  0
LINE
  5
21F
330
21A
100
AcDbEntity
  8
SLD-0
 62
     0
100
AcDbLine
 10
0.0
 20
0.0
 30
0.0
 11
0.0
 21
-1.0
 31
0.0
  0
LINE
  5
220
330
21A
100
AcDbEntity
  8
SLD-0
 62
     0
100
AcDbLine
 10
0.0
 20
0.0
 30
0.0
 11
1.0
 21
0.0
 31
0.0
  0
LINE
  5
221
330
21A
100
AcDbEntity
  8
SLD-0
 62
     0
100
AcDbLine
 10
0.0
 20
2.0
 30
0.0
 11
0.0
 21
3.5527
 31
0.0
  0
LINE
  5
222
330
21A
100
AcDbEntity
  8
SLD-0
 62
     0
100
AcDbLine
 10
-2.0
 20
0.0
 30
0.0
 11
-3.5527
 21
0.0
 31
0.0
  0
LINE
  5
223
330
21A
100
AcDbEntity
  8
SLD-0
 62
     0
100
AcDbLine
 10
0.0
 20
-2.0
 30
0.0
 11
0.0
 21
-3.5527
 31
0.0
  0
LINE
  5
224
330
21A
100
AcDbEntity
  8
SLD-0
 62
     0
100
AcDbLine
 10
2.0
 20
0.0
 30
0.0
 11
3.5527
 21
0.0
 31
0.0
  0
ENDBLK
  5
21C
330
21A
100
AcDbEntity
  8
0
100
AcDbBlockEnd
  0
BLOCK
  5
227
330
226
100
AcDbEntity
  8
0
100
AcDbBlockBegin
  2
SW_CENTERMARKSYMBOL_7
 70
     0
 10
0.0
 20
0.0
 30
0.0
  3
SW_CENTERMARKSYMBOL_7
  1

  0
LINE
  5
229
330
226
100
AcDbEntity
  8
SLD-0
 62
     0
100
AcDbLine
 10
0.0
 20
0.0
 30
0.0
 11
0.0
 21
1.0
 31
0.0
  0
LINE
  5
22A
330
226
100
AcDbEntity
  8
SLD-0
 62
     0
100
AcDbLine
 10
0.0
 20
0.0
 30
0.0
 11
-1.0
 21
0.0
 31
0.0
  0
LINE
  5
22B
330
226
100
AcDbEntity
  8
SLD-0
 62
     0
100
AcDbLine
 10
0.0
 20
0.0
 30
0.0
 11
0.0
 21
-1.0
 31
0.0
  0
LINE
  5
22C
330
226
100
AcDbEntity
  8
SLD-0
 62
     0
100
AcDbLine
 10
0.0
 20
0.0
 30
0.0
 11
1.0
 21
0.0
 31
0.0
  0
LINE
  5
22D
330
226
100
AcDbEntity
  8
SLD-0
 62
     0
100
AcDbLine
 10
0.0
 20
2.0
 30
0.0
 11
0.0
 21
3.5527
 31
0.0
  0
LINE
  5
22E
330
226
100
AcDbEntity
  8
SLD-0
 62
     0
100
AcDbLine
 10
-2.0
 20
0.0
 30
0.0
 11
-3.5527
 21
0.0
 31
0.0
  0
LINE
  5
22F
330
226
100
AcDbEntity
  8
SLD-0
 62
     0
100
AcDbLine
 10
0.0
 20
-2.0
 30
0.0
 11
0.0
 21
-3.5527
 31
0.0
  0
LINE
  5
230
330
226
100
AcDbEntity
  8
SLD-0
 62
     0
100
AcDbLine
 10
2.0
 20
0.0
 30
0.0
 11
3.5527
 21
0.0
 31
0.0
  0
ENDBLK
  5
228
330
226
100
AcDbEntity
  8
0
100
AcDbBlockEnd
  0
BLOCK
  5
233
330
232
100
AcDbEntity
  8
0
100
AcDbBlockBegin
  2
SW_CENTERMARKSYMBOL_8
 70
     0
 10
0.0
 20
0.0
 30
0.0
  3
SW_CENTERMARKSYMBOL_8
  1

  0
LINE
  5
235
330
232
100
AcDbEntity
  8
SLD-0
 62
     0
100
AcDbLine
 10
0.0
 20
0.0
 30
0.0
 11
0.0
 21
1.0
 31
0.0
  0
LINE
  5
236
330
232
100
AcDbEntity
  8
SLD-0
 62
     0
100
AcDbLine
 10
0.0
 20
0.0
 30
0.0
 11
-1.0
 21
0.0
 31
0.0
  0
LINE
  5
237
330
232
100
AcDbEntity
  8
SLD-0
 62
     0
100
AcDbLine
 10
0.0
 20
0.0
 30
0.0
 11
0.0
 21
-1.0
 31
0.0
  0
LINE
  5
238
330
232
100
AcDbEntity
  8
SLD-0
 62
     0
100
AcDbLine
 10
0.0
 20
0.0
 30
0.0
 11
1.0
 21
0.0
 31
0.0
  0
LINE
  5
239
330
232
100
AcDbEntity
  8
SLD-0
 62
     0
100
AcDbLine
 10
0.0
 20
2.0
 30
0.0
 11
0.0
 21
2.7272
 31
0.0
  0
LINE
  5
23A
330
232
100
AcDbEntity
  8
SLD-0
 62
     0
100
AcDbLine
 10
-2.0
 20
0.0
 30
0.0
 11
-2.7272
 21
0.0
 31
0.0
  0
LINE
  5
23B
330
232
100
AcDbEntity
  8
SLD-0
 62
     0
100
AcDbLine
 10
0.0
 20
-2.0
 30
0.0
 11
0.0
 21
-2.7272
 31
0.0
  0
LINE
  5
23C
330
232
100
AcDbEntity
  8
SLD-0
 62
     0
100
AcDbLine
 10
2.0
 20
0.0
 30
0.0
 11
2.7272
 21
0.0
 31
0.0
  0
ENDBLK
  5
234
330
232
100
AcDbEntity
  8
0
100
AcDbBlockEnd
  0
BLOCK
  5
23F
330
23E
100
AcDbEntity
  8
0
100
AcDbBlockBegin
  2
SW_CENTERMARKSYMBOL_9
 70
     0
 10
0.0
 20
0.0
 30
0.0
  3
SW_CENTERMARKSYMBOL_9
  1

  0
LINE
  5
241
330
23E
100
AcDbEntity
  8
SLD-0
 62
     0
100
AcDbLine
 10
0.0
 20
0.0
 30
0.0
 11
0.0
 21
1.0
 31
0.0
  0
LINE
  5
242
330
23E
100
AcDbEntity
  8
SLD-0
 62
     0
100
AcDbLine
 10
0.0
 20
0.0
 30
0.0
 11
-1.0
 21
0.0
 31
0.0
  0
LINE
  5
243
330
23E
100
AcDbEntity
  8
SLD-0
 62
     0
100
AcDbLine
 10
0.0
 20
0.0
 30
0.0
 11
0.0
 21
-1.0
 31
0.0
  0
LINE
  5
244
330
23E
100
AcDbEntity
  8
SLD-0
 62
     0
100
AcDbLine
 10
0.0
 20
0.0
 30
0.0
 11
1.0
 21
0.0
 31
0.0
  0
LINE
  5
245
330
23E
100
AcDbEntity
  8
SLD-0
 62
     0
100
AcDbLine
 10
0.0
 20
2.0
 30
0.0
 11
0.0
 21
2.7272
 31
0.0
  0
LINE
  5
246
330
23E
100
AcDbEntity
  8
SLD-0
 62
     0
100
AcDbLine
 10
-2.0
 20
0.0
 30
0.0
 11
-2.7272
 21
0.0
 31
0.0
  0
LINE
  5
247
330
23E
100
AcDbEntity
  8
SLD-0
 62
     0
100
AcDbLine
 10
0.0
 20
-2.0
 30
0.0
 11
0.0
 21
-2.7272
 31
0.0
  0
LINE
  5
248
330
23E
100
AcDbEntity
  8
SLD-0
 62
     0
100
AcDbLine
 10
2.0
 20
0.0
 30
0.0
 11
2.7272
 21
0.0
 31
0.0
  0
ENDBLK
  5
240
330
23E
100
AcDbEntity
  8
0
100
AcDbBlockEnd
  0
BLOCK
  5
24B
330
24A
100
AcDbEntity
  8
0
100
AcDbBlockBegin
  2
SW_CENTERMARKSYMBOL_10
 70
     0
 10
0.0
 20
0.0
 30
0.0
  3
SW_CENTERMARKSYMBOL_10
  1

  0
LINE
  5
24D
330
24A
100
AcDbEntity
  8
SLD-0
 62
     0
100
AcDbLine
 10
0.0
 20
0.0
 30
0.0
 11
0.0
 21
1.0
 31
0.0
  0
LINE
  5
24E
330
24A
100
AcDbEntity
  8
SLD-0
 62
     0
100
AcDbLine
 10
0.0
 20
0.0
 30
0.0
 11
-1.0
 21
0.0
 31
0.0
  0
LINE
  5
24F
330
24A
100
AcDbEntity
  8
SLD-0
 62
     0
100
AcDbLine
 10
0.0
 20
0.0
 30
0.0
 11
0.0
 21
-1.0
 31
0.0
  0
LINE
  5
250
330
24A
100
AcDbEntity
  8
SLD-0
 62
     0
100
AcDbLine
 10
0.0
 20
0.0
 30
0.0
 11
1.0
 21
0.0
 31
0.0
  0
LINE
  5
251
330
24A
100
AcDbEntity
  8
SLD-0
 62
     0
100
AcDbLine
 10
0.0
 20
2.0
 30
0.0
 11
0.0
 21
3.5527
 31
0.0
  0
LINE
  5
252
330
24A
100
AcDbEntity
  8
SLD-0
 62
     0
100
AcDbLine
 10
-2.0
 20
0.0
 30
0.0
 11
-3.5527
 21
0.0
 31
0.0
  0
LINE
  5
253
330
24A
100
AcDbEntity
  8
SLD-0
 62
     0
100
AcDbLine
 10
0.0
 20
-2.0
 30
0.0
 11
0.0
 21
-3.5527
 31
0.0
  0
LINE
  5
254
330
24A
100
AcDbEntity
  8
SLD-0
 62
     0
100
AcDbLine
 10
2.0
 20
0.0
 30
0.0
 11
3.5527
 21
0.0
 31
0.0
  0
ENDBLK
  5
24C
330
24A
100
AcDbEntity
  8
0
100
AcDbBlockEnd
  0
BLOCK
  5
257
330
256
100
AcDbEntity
  8
0
100
AcDbBlockBegin
  2
SW_CENTERMARKSYMBOL_11
 70
     0
 10
0.0
 20
0.0
 30
0.0
  3
SW_CENTERMARKSYMBOL_11
  1

  0
LINE
  5
259
330
256
100
AcDbEntity
  8
SLD-0
 62
     0
100
AcDbLine
 10
0.0
 20
0.0
 30
0.0
 11
0.0
 21
1.0
 31
0.0
  0
LINE
  5
25A
330
256
100
AcDbEntity
  8
SLD-0
 62
     0
100
AcDbLine
 10
0.0
 20
0.0
 30
0.0
 11
-1.0
 21
0.0
 31
0.0
  0
LINE
  5
25B
330
256
100
AcDbEntity
  8
SLD-0
 62
     0
100
AcDbLine
 10
0.0
 20
0.0
 30
0.0
 11
0.0
 21
-1.0
 31
0.0
  0
LINE
  5
25C
330
256
100
AcDbEntity
  8
SLD-0
 62
     0
100
AcDbLine
 10
0.0
 20
0.0
 30
0.0
 11
1.0
 21
0.0
 31
0.0
  0
LINE
  5
25D
330
256
100
AcDbEntity
  8
SLD-0
 62
     0
100
AcDbLine
 10
0.0
 20
2.0
 30
0.0
 11
0.0
 21
6.95376
 31
0.0
  0
LINE
  5
25E
330
256
100
AcDbEntity
  8
SLD-0
 62
     0
100
AcDbLine
 10
-2.0
 20
0.0
 30
0.0
 11
-6.95376
 21
0.0
 31
0.0
  0
LINE
  5
25F
330
256
100
AcDbEntity
  8
SLD-0
 62
     0
100
AcDbLine
 10
0.0
 20
-2.0
 30
0.0
 11
0.0
 21
-6.95376
 31
0.0
  0
LINE
  5
260
330
256
100
AcDbEntity
  8
SLD-0
 62
     0
100
AcDbLine
 10
2.0
 20
0.0
 30
0.0
 11
6.95376
 21
0.0
 31
0.0
  0
ENDBLK
  5
258
330
256
100
AcDbEntity
  8
0
100
AcDbBlockEnd
  0
BLOCK
  5
263
330
262
100
AcDbEntity
  8
0
100
AcDbBlockBegin
  2
SW_CENTERMARKSYMBOL_12
 70
     0
 10
0.0
 20
0.0
 30
0.0
  3
SW_CENTERMARKSYMBOL_12
  1

  0
LINE
  5
265
330
262
100
AcDbEntity
  8
SLD-0
 62
     0
100
AcDbLine
 10
0.0
 20
0.0
 30
0.0
 11
0.0
 21
1.0
 31
0.0
  0
LINE
  5
266
330
262
100
AcDbEntity
  8
SLD-0
 62
     0
100
AcDbLine
 10
0.0
 20
0.0
 30
0.0
 11
-1.0
 21
0.0
 31
0.0
  0
LINE
  5
267
330
262
100
AcDbEntity
  8
SLD-0
 62
     0
100
AcDbLine
 10
0.0
 20
0.0
 30
0.0
 11
0.0
 21
-1.0
 31
0.0
  0
LINE
  5
268
330
262
100
AcDbEntity
  8
SLD-0
 62
     0
100
AcDbLine
 10
0.0
 20
0.0
 30
0.0
 11
1.0
 21
0.0
 31
0.0
  0
LINE
  5
269
330
262
100
AcDbEntity
  8
SLD-0
 62
     0
100
AcDbLine
 10
0.0
 20
2.0
 30
0.0
 11
0.0
 21
3.5527
 31
0.0
  0
LINE
  5
26A
330
262
100
AcDbEntity
  8
SLD-0
 62
     0
100
AcDbLine
 10
-2.0
 20
0.0
 30
0.0
 11
-3.5527
 21
0.0
 31
0.0
  0
LINE
  5
26B
330
262
100
AcDbEntity
  8
SLD-0
 62
     0
100
AcDbLine
 10
0.0
 20
-2.0
 30
0.0
 11
0.0
 21
-3.5527
 31
0.0
  0
LINE
  5
26C
330
262
100
AcDbEntity
  8
SLD-0
 62
     0
100
AcDbLine
 10
2.0
 20
0.0
 30
0.0
 11
3.5527
 21
0.0
 31
0.0
  0
ENDBLK
  5
264
330
262
100
AcDbEntity
  8
0
100
AcDbBlockEnd
  0
BLOCK
  5
26F
330
26E
100
AcDbEntity
  8
0
100
AcDbBlockBegin
  2
SW_CENTERMARKSYMBOL_13
 70
     0
 10
0.0
 20
0.0
 30
0.0
  3
SW_CENTERMARKSYMBOL_13
  1

  0
LINE
  5
271
330
26E
100
AcDbEntity
  8
SLD-0
 62
     0
100
AcDbLine
 10
0.0
 20
0.0
 30
0.0
 11
0.0
 21
1.0
 31
0.0
  0
LINE
  5
272
330
26E
100
AcDbEntity
  8
SLD-0
 62
     0
100
AcDbLine
 10
0.0
 20
0.0
 30
0.0
 11
-1.0
 21
0.0
 31
0.0
  0
LINE
  5
273
330
26E
100
AcDbEntity
  8
SLD-0
 62
     0
100
AcDbLine
 10
0.0
 20
0.0
 30
0.0
 11
0.0
 21
-1.0
 31
0.0
  0
LINE
  5
274
330
26E
100
AcDbEntity
  8
SLD-0
 62
     0
100
AcDbLine
 10
0.0
 20
0.0
 30
0.0
 11
1.0
 21
0.0
 31
0.0
  0
LINE
  5
275
330
26E
100
AcDbEntity
  8
SLD-0
 62
     0
100
AcDbLine
 10
0.0
 20
2.0
 30
0.0
 11
0.0
 21
2.7272
 31
0.0
  0
LINE
  5
276
330
26E
100
AcDbEntity
  8
SLD-0
 62
     0
100
AcDbLine
 10
-2.0
 20
0.0
 30
0.0
 11
-2.7272
 21
0.0
 31
0.0
  0
LINE
  5
277
330
26E
100
AcDbEntity
  8
SLD-0
 62
     0
100
AcDbLine
 10
0.0
 20
-2.0
 30
0.0
 11
0.0
 21
-2.7272
 31
0.0
  0
LINE
  5
278
330
26E
100
AcDbEntity
  8
SLD-0
 62
     0
100
AcDbLine
 10
2.0
 20
0.0
 30
0.0
 11
2.7272
 21
0.0
 31
0.0
  0
ENDBLK
  5
270
330
26E
100
AcDbEntity
  8
0
100
AcDbBlockEnd
  0
BLOCK
  5
27B
330
27A
100
AcDbEntity
  8
0
100
AcDbBlockBegin
  2
SW_CENTERMARKSYMBOL_14
 70
     0
 10
0.0
 20
0.0
 30
0.0
  3
SW_CENTERMARKSYMBOL_14
  1

  0
LINE
  5
27D
330
27A
100
AcDbEntity
  8
SLD-0
 62
     0
100
AcDbLine
 10
0.0
 20
0.0
 30
0.0
 11
0.0
 21
1.0
 31
0.0
  0
LINE
  5
27E
330
27A
100
AcDbEntity
  8
SLD-0
 62
     0
100
AcDbLine
 10
0.0
 20
0.0
 30
0.0
 11
-1.0
 21
0.0
 31
0.0
  0
LINE
  5
27F
330
27A
100
AcDbEntity
  8
SLD-0
 62
     0
100
AcDbLine
 10
0.0
 20
0.0
 30
0.0
 11
0.0
 21
-1.0
 31
0.0
  0
LINE
  5
280
330
27A
100
AcDbEntity
  8
SLD-0
 62
     0
100
AcDbLine
 10
0.0
 20
0.0
 30
0.0
 11
1.0
 21
0.0
 31
0.0
  0
LINE
  5
281
330
27A
100
AcDbEntity
  8
SLD-0
 62
     0
100
AcDbLine
 10
0.0
 20
2.0
 30
0.0
 11
0.0
 21
3.5527
 31
0.0
  0
LINE
  5
282
330
27A
100
AcDbEntity
  8
SLD-0
 62
     0
100
AcDbLine
 10
-2.0
 20
0.0
 30
0.0
 11
-3.5527
 21
0.0
 31
0.0
  0
LINE
  5
283
330
27A
100
AcDbEntity
  8
SLD-0
 62
     0
100
AcDbLine
 10
0.0
 20
-2.0
 30
0.0
 11
0.0
 21
-3.5527
 31
0.0
  0
LINE
  5
284
330
27A
100
AcDbEntity
  8
SLD-0
 62
     0
100
AcDbLine
 10
2.0
 20
0.0
 30
0.0
 11
3.5527
 21
0.0
 31
0.0
  0
ENDBLK
  5
27C
330
27A
100
AcDbEntity
  8
0
100
AcDbBlockEnd
  0
BLOCK
  5
287
330
286
100
AcDbEntity
  8
0
100
AcDbBlockBegin
  2
SW_CENTERMARKSYMBOL_15
 70
     0
 10
0.0
 20
0.0
 30
0.0
  3
SW_CENTERMARKSYMBOL_15
  1

  0
LINE
  5
289
330
286
100
AcDbEntity
  8
SLD-0
 62
     0
100
AcDbLine
 10
0.0
 20
0.0
 30
0.0
 11
0.0
 21
1.0
 31
0.0
  0
LINE
  5
28A
330
286
100
AcDbEntity
  8
SLD-0
 62
     0
100
AcDbLine
 10
0.0
 20
0.0
 30
0.0
 11
-1.0
 21
0.0
 31
0.0
  0
LINE
  5
28B
330
286
100
AcDbEntity
  8
SLD-0
 62
     0
100
AcDbLine
 10
0.0
 20
0.0
 30
0.0
 11
0.0
 21
-1.0
 31
0.0
  0
LINE
  5
28C
330
286
100
AcDbEntity
  8
SLD-0
 62
     0
100
AcDbLine
 10
0.0
 20
0.0
 30
0.0
 11
1.0
 21
0.0
 31
0.0
  0
LINE
  5
28D
330
286
100
AcDbEntity
  8
SLD-0
 62
     0
100
AcDbLine
 10
0.0
 20
2.0
 30
0.0
 11
0.0
 21
2.7272
 31
0.0
  0
LINE
  5
28E
330
286
100
AcDbEntity
  8
SLD-0
 62
     0
100
AcDbLine
 10
-2.0
 20
0.0
 30
0.0
 11
-2.7272
 21
0.0
 31
0.0
  0
LINE
  5
28F
330
286
100
AcDbEntity
  8
SLD-0
 62
     0
100
AcDbLine
 10
0.0
 20
-2.0
 30
0.0
 11
0.0
 21
-2.7272
 31
0.0
  0
LINE
  5
290
330
286
100
AcDbEntity
  8
SLD-0
 62
     0
100
AcDbLine
 10
2.0
 20
0.0
 30
0.0
 11
2.7272
 21
0.0
 31
0.0
  0
ENDBLK
  5
288
330
286
100
AcDbEntity
  8
0
100
AcDbBlockEnd
  0
BLOCK
  5
293
330
292
100
AcDbEntity
  8
0
100
AcDbBlockBegin
  2
SW_CENTERMARKSYMBOL_16
 70
     0
 10
0.0
 20
0.0
 30
0.0
  3
SW_CENTERMARKSYMBOL_16
  1

  0
LINE
  5
295
330
292
100
AcDbEntity
  8
SLD-0
 62
     0
100
AcDbLine
 10
0.0
 20
0.0
 30
0.0
 11
0.0
 21
1.0
 31
0.0
  0
LINE
  5
296
330
292
100
AcDbEntity
  8
SLD-0
 62
     0
100
AcDbLine
 10
0.0
 20
0.0
 30
0.0
 11
-1.0
 21
0.0
 31
0.0
  0
LINE
  5
297
330
292
100
AcDbEntity
  8
SLD-0
 62
     0
100
AcDbLine
 10
0.0
 20
0.0
 30
0.0
 11
0.0
 21
-1.0
 31
0.0
  0
LINE
  5
298
330
292
100
AcDbEntity
  8
SLD-0
 62
     0
100
AcDbLine
 10
0.0
 20
0.0
 30
0.0
 11
1.0
 21
0.0
 31
0.0
  0
LINE
  5
299
330
292
100
AcDbEntity
  8
SLD-0
 62
     0
100
AcDbLine
 10
0.0
 20
2.0
 30
0.0
 11
0.0
 21
3.5527
 31
0.0
  0
LINE
  5
29A
330
292
100
AcDbEntity
  8
SLD-0
 62
     0
100
AcDbLine
 10
-2.0
 20
0.0
 30
0.0
 11
-3.5527
 21
0.0
 31
0.0
  0
LINE
  5
29B
330
292
100
AcDbEntity
  8
SLD-0
 62
     0
100
AcDbLine
 10
0.0
 20
-2.0
 30
0.0
 11
0.0
 21
-3.5527
 31
0.0
  0
LINE
  5
29C
330
292
100
AcDbEntity
  8
SLD-0
 62
     0
100
AcDbLine
 10
2.0
 20
0.0
 30
0.0
 11
3.5527
 21
0.0
 31
0.0
  0
ENDBLK
  5
294
330
292
100
AcDbEntity
  8
0
100
AcDbBlockEnd
  0
BLOCK
  5
29F
330
29E
100
AcDbEntity
  8
0
100
AcDbBlockBegin
  2
SW_CENTERMARKSYMBOL_17
 70
     0
 10
0.0
 20
0.0
 30
0.0
  3
SW_CENTERMARKSYMBOL_17
  1

  0
LINE
  5
2A1
330
29E
100
AcDbEntity
  8
SLD-0
 62
     0
100
AcDbLine
 10
0.0
 20
0.0
 30
0.0
 11
0.0
 21
1.0
 31
0.0
  0
LINE
  5
2A2
330
29E
100
AcDbEntity
  8
SLD-0
 62
     0
100
AcDbLine
 10
0.0
 20
0.0
 30
0.0
 11
-1.0
 21
0.0
 31
0.0
  0
LINE
  5
2A3
330
29E
100
AcDbEntity
  8
SLD-0
 62
     0
100
AcDbLine
 10
0.0
 20
0.0
 30
0.0
 11
0.0
 21
-1.0
 31
0.0
  0
LINE
  5
2A4
330
29E
100
AcDbEntity
  8
SLD-0
 62
     0
100
AcDbLine
 10
0.0
 20
0.0
 30
0.0
 11
1.0
 21
0.0
 31
0.0
  0
LINE
  5
2A5
330
29E
100
AcDbEntity
  8
SLD-0
 62
     0
100
AcDbLine
 10
0.0
 20
2.0
 30
0.0
 11
0.0
 21
3.5527
 31
0.0
  0
LINE
  5
2A6
330
29E
100
AcDbEntity
  8
SLD-0
 62
     0
100
AcDbLine
 10
-2.0
 20
0.0
 30
0.0
 11
-3.5527
 21
0.0
 31
0.0
  0
LINE
  5
2A7
330
29E
100
AcDbEntity
  8
SLD-0
 62
     0
100
AcDbLine
 10
0.0
 20
-2.0
 30
0.0
 11
0.0
 21
-3.5527
 31
0.0
  0
LINE
  5
2A8
330
29E
100
AcDbEntity
  8
SLD-0
 62
     0
100
AcDbLine
 10
2.0
 20
0.0
 30
0.0
 11
3.5527
 21
0.0
 31
0.0
  0
ENDBLK
  5
2A0
330
29E
100
AcDbEntity
  8
0
100
AcDbBlockEnd
  0
BLOCK
  5
2AB
330
2AA
100
AcDbEntity
  8
0
100
AcDbBlockBegin
  2
SW_CENTERMARKSYMBOL_18
 70
     0
 10
0.0
 20
0.0
 30
0.0
  3
SW_CENTERMARKSYMBOL_18
  1

  0
LINE
  5
2AD
330
2AA
100
AcDbEntity
  8
SLD-0
 62
     0
100
AcDbLine
 10
0.0
 20
0.0
 30
0.0
 11
0.0
 21
1.0
 31
0.0
  0
LINE
  5
2AE
330
2AA
100
AcDbEntity
  8
SLD-0
 62
     0
100
AcDbLine
 10
0.0
 20
0.0
 30
0.0
 11
-1.0
 21
0.0
 31
0.0
  0
LINE
  5
2AF
330
2AA
100
AcDbEntity
  8
SLD-0
 62
     0
100
AcDbLine
 10
0.0
 20
0.0
 30
0.0
 11
0.0
 21
-1.0
 31
0.0
  0
LINE
  5
2B0
330
2AA
100
AcDbEntity
  8
SLD-0
 62
     0
100
AcDbLine
 10
0.0
 20
0.0
 30
0.0
 11
1.0
 21
0.0
 31
0.0
  0
LINE
  5
2B1
330
2AA
100
AcDbEntity
  8
SLD-0
 62
     0
100
AcDbLine
 10
0.0
 20
2.0
 30
0.0
 11
0.0
 21
2.7272
 31
0.0
  0
LINE
  5
2B2
330
2AA
100
AcDbEntity
  8
SLD-0
 62
     0
100
AcDbLine
 10
-2.0
 20
0.0
 30
0.0
 11
-2.7272
 21
0.0
 31
0.0
  0
LINE
  5
2B3
330
2AA
100
AcDbEntity
  8
SLD-0
 62
     0
100
AcDbLine
 10
0.0
 20
-2.0
 30
0.0
 11
0.0
 21
-2.7272
 31
0.0
  0
LINE
  5
2B4
330
2AA
100
AcDbEntity
  8
SLD-0
 62
     0
100
AcDbLine
 10
2.0
 20
0.0
 30
0.0
 11
2.7272
 21
0.0
 31
0.0
  0
ENDBLK
  5
2AC
330
2AA
100
AcDbEntity
  8
0
100
AcDbBlockEnd
  0
BLOCK
  5
2B7
330
2B6
100
AcDbEntity
  8
0
100
AcDbBlockBegin
  2
SW_CENTERMARKSYMBOL_19
 70
     0
 10
0.0
 20
0.0
 30
0.0
  3
SW_CENTERMARKSYMBOL_19
  1

  0
LINE
  5
2B9
330
2B6
100
AcDbEntity
  8
SLD-0
 62
     0
100
AcDbLine
 10
0.0
 20
0.0
 30
0.0
 11
0.0
 21
1.0
 31
0.0
  0
LINE
  5
2BA
330
2B6
100
AcDbEntity
  8
SLD-0
 62
     0
100
AcDbLine
 10
0.0
 20
0.0
 30
0.0
 11
-1.0
 21
0.0
 31
0.0
  0
LINE
  5
2BB
330
2B6
100
AcDbEntity
  8
SLD-0
 62
     0
100
AcDbLine
 10
0.0
 20
0.0
 30
0.0
 11
0.0
 21
-1.0
 31
0.0
  0
LINE
  5
2BC
330
2B6
100
AcDbEntity
  8
SLD-0
 62
     0
100
AcDbLine
 10
0.0
 20
0.0
 30
0.0
 11
1.0
 21
0.0
 31
0.0
  0
LINE
  5
2BD
330
2B6
100
AcDbEntity
  8
SLD-0
 62
     0
100
AcDbLine
 10
0.0
 20
2.0
 30
0.0
 11
0.0
 21
2.7272
 31
0.0
  0
LINE
  5
2BE
330
2B6
100
AcDbEntity
  8
SLD-0
 62
     0
100
AcDbLine
 10
-2.0
 20
0.0
 30
0.0
 11
-2.7272
 21
0.0
 31
0.0
  0
LINE
  5
2BF
330
2B6
100
AcDbEntity
  8
SLD-0
 62
     0
100
AcDbLine
 10
0.0
 20
-2.0
 30
0.0
 11
0.0
 21
-2.7272
 31
0.0
  0
LINE
  5
2C0
330
2B6
100
AcDbEntity
  8
SLD-0
 62
     0
100
AcDbLine
 10
2.0
 20
0.0
 30
0.0
 11
2.7272
 21
0.0
 31
0.0
  0
ENDBLK
  5
2B8
330
2B6
100
AcDbEntity
  8
0
100
AcDbBlockEnd
  0
BLOCK
  5
2C3
330
2C2
100
AcDbEntity
  8
0
100
AcDbBlockBegin
  2
SW_CENTERMARKSYMBOL_20
 70
     0
 10
0.0
 20
0.0
 30
0.0
  3
SW_CENTERMARKSYMBOL_20
  1

  0
LINE
  5
2C5
330
2C2
100
AcDbEntity
  8
SLD-0
 62
     0
100
AcDbLine
 10
0.0
 20
0.0
 30
0.0
 11
0.0
 21
1.0
 31
0.0
  0
LINE
  5
2C6
330
2C2
100
AcDbEntity
  8
SLD-0
 62
     0
100
AcDbLine
 10
0.0
 20
0.0
 30
0.0
 11
-1.0
 21
0.0
 31
0.0
  0
LINE
  5
2C7
330
2C2
100
AcDbEntity
  8
SLD-0
 62
     0
100
AcDbLine
 10
0.0
 20
0.0
 30
0.0
 11
0.0
 21
-1.0
 31
0.0
  0
LINE
  5
2C8
330
2C2
100
AcDbEntity
  8
SLD-0
 62
     0
100
AcDbLine
 10
0.0
 20
0.0
 30
0.0
 11
1.0
 21
0.0
 31
0.0
  0
LINE
  5
2C9
330
2C2
100
AcDbEntity
  8
SLD-0
 62
     0
100
AcDbLine
 10
0.0
 20
2.0
 30
0.0
 11
0.0
 21
3.5527
 31
0.0
  0
LINE
  5
2CA
330
2C2
100
AcDbEntity
  8
SLD-0
 62
     0
100
AcDbLine
 10
-2.0
 20
0.0
 30
0.0
 11
-3.5527
 21
0.0
 31
0.0
  0
LINE
  5
2CB
330
2C2
100
AcDbEntity
  8
SLD-0
 62
     0
100
AcDbLine
 10
0.0
 20
-2.0
 30
0.0
 11
0.0
 21
-3.5527
 31
0.0
  0
LINE
  5
2CC
330
2C2
100
AcDbEntity
  8
SLD-0
 62
     0
100
AcDbLine
 10
2.0
 20
0.0
 30
0.0
 11
3.5527
 21
0.0
 31
0.0
  0
ENDBLK
  5
2C4
330
2C2
100
AcDbEntity
  8
0
100
AcDbBlockEnd
  0
BLOCK
  5
2CF
330
2CE
100
AcDbEntity
  8
0
100
AcDbBlockBegin
  2
SW_CENTERMARKSYMBOL_21
 70
     0
 10
0.0
 20
0.0
 30
0.0
  3
SW_CENTERMARKSYMBOL_21
  1

  0
LINE
  5
2D1
330
2CE
100
AcDbEntity
  8
SLD-0
 62
     0
100
AcDbLine
 10
0.0
 20
0.0
 30
0.0
 11
0.0
 21
1.0
 31
0.0
  0
LINE
  5
2D2
330
2CE
100
AcDbEntity
  8
SLD-0
 62
     0
100
AcDbLine
 10
0.0
 20
0.0
 30
0.0
 11
-1.0
 21
0.0
 31
0.0
  0
LINE
  5
2D3
330
2CE
100
AcDbEntity
  8
SLD-0
 62
     0
100
AcDbLine
 10
0.0
 20
0.0
 30
0.0
 11
0.0
 21
-1.0
 31
0.0
  0
LINE
  5
2D4
330
2CE
100
AcDbEntity
  8
SLD-0
 62
     0
100
AcDbLine
 10
0.0
 20
0.0
 30
0.0
 11
1.0
 21
0.0
 31
0.0
  0
LINE
  5
2D5
330
2CE
100
AcDbEntity
  8
SLD-0
 62
     0
100
AcDbLine
 10
0.0
 20
2.0
 30
0.0
 11
0.0
 21
3.5527
 31
0.0
  0
LINE
  5
2D6
330
2CE
100
AcDbEntity
  8
SLD-0
 62
     0
100
AcDbLine
 10
-2.0
 20
0.0
 30
0.0
 11
-3.5527
 21
0.0
 31
0.0
  0
LINE
  5
2D7
330
2CE
100
AcDbEntity
  8
SLD-0
 62
     0
100
AcDbLine
 10
0.0
 20
-2.0
 30
0.0
 11
0.0
 21
-3.5527
 31
0.0
  0
LINE
  5
2D8
330
2CE
100
AcDbEntity
  8
SLD-0
 62
     0
100
AcDbLine
 10
2.0
 20
0.0
 30
0.0
 11
3.5527
 21
0.0
 31
0.0
  0
ENDBLK
  5
2D0
330
2CE
100
AcDbEntity
  8
0
100
AcDbBlockEnd
  0
BLOCK
  5
2DB
330
2DA
100
AcDbEntity
  8
0
100
AcDbBlockBegin
  2
SW_CENTERMARKSYMBOL_22
 70
     0
 10
0.0
 20
0.0
 30
0.0
  3
SW_CENTERMARKSYMBOL_22
  1

  0
LINE
  5
2DD
330
2DA
100
AcDbEntity
  8
SLD-0
 62
     0
100
AcDbLine
 10
0.0
 20
0.0
 30
0.0
 11
0.0
 21
1.0
 31
0.0
  0
LINE
  5
2DE
330
2DA
100
AcDbEntity
  8
SLD-0
 62
     0
100
AcDbLine
 10
0.0
 20
0.0
 30
0.0
 11
-1.0
 21
0.0
 31
0.0
  0
LINE
  5
2DF
330
2DA
100
AcDbEntity
  8
SLD-0
 62
     0
100
AcDbLine
 10
0.0
 20
0.0
 30
0.0
 11
0.0
 21
-1.0
 31
0.0
  0
LINE
  5
2E0
330
2DA
100
AcDbEntity
  8
SLD-0
 62
     0
100
AcDbLine
 10
0.0
 20
0.0
 30
0.0
 11
1.0
 21
0.0
 31
0.0
  0
LINE
  5
2E1
330
2DA
100
AcDbEntity
  8
SLD-0
 62
     0
100
AcDbLine
 10
0.0
 20
2.0
 30
0.0
 11
0.0
 21
3.5527
 31
0.0
  0
LINE
  5
2E2
330
2DA
100
AcDbEntity
  8
SLD-0
 62
     0
100
AcDbLine
 10
-2.0
 20
0.0
 30
0.0
 11
-3.5527
 21
0.0
 31
0.0
  0
LINE
  5
2E3
330
2DA
100
AcDbEntity
  8
SLD-0
 62
     0
100
AcDbLine
 10
0.0
 20
-2.0
 30
0.0
 11
0.0
 21
-3.5527
 31
0.0
  0
LINE
  5
2E4
330
2DA
100
AcDbEntity
  8
SLD-0
 62
     0
100
AcDbLine
 10
2.0
 20
0.0
 30
0.0
 11
3.9376433431
 21
0.0
 31
0.0
  0
ENDBLK
  5
2DC
330
2DA
100
AcDbEntity
  8
0
100
AcDbBlockEnd
  0
BLOCK
  5
2E7
330
2E6
100
AcDbEntity
  8
0
100
AcDbBlockBegin
  2
SW_CENTERMARKSYMBOL_23
 70
     0
 10
0.0
 20
0.0
 30
0.0
  3
SW_CENTERMARKSYMBOL_23
  1

  0
LINE
  5
2E9
330
2E6
100
AcDbEntity
  8
SLD-0
 62
     0
100
AcDbLine
 10
0.0
 20
0.0
 30
0.0
 11
0.0
 21
1.0
 31
0.0
  0
LINE
  5
2EA
330
2E6
100
AcDbEntity
  8
SLD-0
 62
     0
100
AcDbLine
 10
0.0
 20
0.0
 30
0.0
 11
-1.0
 21
0.0
 31
0.0
  0
LINE
  5
2EB
330
2E6
100
AcDbEntity
  8
SLD-0
 62
     0
100
AcDbLine
 10
0.0
 20
0.0
 30
0.0
 11
0.0
 21
-1.0
 31
0.0
  0
LINE
  5
2EC
330
2E6
100
AcDbEntity
  8
SLD-0
 62
     0
100
AcDbLine
 10
0.0
 20
0.0
 30
0.0
 11
1.0
 21
0.0
 31
0.0
  0
LINE
  5
2ED
330
2E6
100
AcDbEntity
  8
SLD-0
 62
     0
100
AcDbLine
 10
0.0
 20
2.0
 30
0.0
 11
0.0
 21
6.95376
 31
0.0
  0
LINE
  5
2EE
330
2E6
100
AcDbEntity
  8
SLD-0
 62
     0
100
AcDbLine
 10
-2.0
 20
0.0
 30
0.0
 11
-6.95376
 21
0.0
 31
0.0
  0
LINE
  5
2EF
330
2E6
100
AcDbEntity
  8
SLD-0
 62
     0
100
AcDbLine
 10
0.0
 20
-2.0
 30
0.0
 11
0.0
 21
-6.95376
 31
0.0
  0
LINE
  5
2F0
330
2E6
100
AcDbEntity
  8
SLD-0
 62
     0
100
AcDbLine
 10
2.0
 20
0.0
 30
0.0
 11
6.95376
 21
0.0
 31
0.0
  0
ENDBLK
  5
2E8
330
2E6
100
AcDbEntity
  8
0
100
AcDbBlockEnd
  0
BLOCK
  5
316
330
315
100
AcDbEntity
  8
0
100
AcDbBlockBegin
  2
_D_17
 70
     0
 10
0.0
 20
0.0
 30
0.0
  3
_D_17
  1

  0
SOLID
  5
318
330
315
100
AcDbEntity
  8
SLD-0
 62
     7
100
AcDbTrace
 10
242.7451747069
 20
81.5609863154
 30
0.0
 11
245.7451747069
 21
81.1859863154
 31
0.0
 12
245.7451747069
 22
81.9359863154
 32
0.0
 13
245.7451747069
 23
81.9359863154
 33
0.0
  0
SOLID
  5
319
330
315
100
AcDbEntity
  8
SLD-0
 62
     7
100
AcDbTrace
 10
255.4451747069
 20
81.5609863154
 30
0.0
 11
252.4451747069
 21
81.9359863154
 31
0.0
 12
252.4451747069
 22
81.1859863154
 32
0.0
 13
252.4451747069
 23
81.1859863154
 33
0.0
  0
LINE
  5
31A
330
315
100
AcDbEntity
  8
SLD-0
 62
     7
100
AcDbLine
 10
242.7451747069
 20
94.9538423276
 30
0.0
 11
242.7451747069
 21
80.0609863154
 31
0.0
  0
LINE
  5
31B
330
315
100
AcDbEntity
  8
SLD-0
 62
     7
100
AcDbLine
 10
255.4451747069
 20
94.9538423276
 30
0.0
 11
255.4451747069
 21
80.0609863154
 31
0.0
  0
LINE
  5
31C
330
315
100
AcDbEntity
  8
SLD-0
 62
     7
100
AcDbLine
 10
242.7451747069
 20
81.5609863154
 30
0.0
 11
255.4451747069
 21
81.5609863154
 31
0.0
  0
MTEXT
  5
31D
330
315
100
AcDbEntity
  8
SLD-0
 62
     7
100
AcDbMText
 10
244.0821539977
 20
86.3949900776
 30
0.0
 40
3.75
 41
0.0
 71
     1
 72
     1
  1
12.7
  7
SLDTEXTSTYLE0
 73
     1
 44
1.0
  0
ENDBLK
  5
317
330
315
100
AcDbEntity
  8
0
100
AcDbBlockEnd
  0
ENDSEC
  0
SECTION
  2
ENTITIES
  0
HATCH
  5
75
330
1F
100
AcDbEntity
  8
DIM
 62
     7
100
AcDbHatch
 10
0.0
 20
0.0
 30
0.0
210
0.0
220
0.0
230
1.0
  2
SOLID
 70
     1
 71
     0
 91
        1
 92
        0
 93
       10
 72
     2
 10
288.2077688606998
 20
53.57307026712701
 40
4.568627093596871
 50
249.211220914341
 51
308.9221353953367
 73
     1
 72
     1
 10
291.0780713025516
 20
50.01867616789619
 11
292.5253007943773
 21
48.74774599243267
 72
     1
 10
292.5253007943773
 20
48.74774599243267
 11
287.7100908346436
 21
44.07218642328906
 72
     1
 10
287.7100908346436
 20
44.07218642328906
 11
286.2988901514026
 21
45.28718202845406
 72
     1
 10
286.2988901514026
 20
45.28718202845406
 11
287.2454680320254
 21
46.2110326141606
 72
     1
 10
287.2454680320254
 20
46.2110326141606
 11
281.2316645667319
 21
51.43793837457263
 72
     2
 10
282.754076711043
 20
53.1592789382134
 40
2.297988701708712
 50
131.4906380929596
 51
229.7089352075136
 73
     0
 72
     1
 10
281.2680344397697
 20
54.91211391081346
 11
283.2279768220922
 21
56.80449452557474
 72
     1
 10
283.2279768220922
 20
56.80449452557474
 11
284.750767593196
 21
55.46119667434806
 72
     2
 10
287.710673048255
 20
52.99010764325587
 40
3.855816554566925
 50
140.1430462780654
 51
253.0452525074006
 73
     1
 97
        0
 75
     0
 76
     1
 98
        1
 10
0.0
 20
0.0
  0
HATCH
  5
76
330
1F
100
AcDbEntity
  8
DIM
 62
     1
100
AcDbHatch
 10
0.0
 20
0.0
 30
0.0
210
0.0
220
0.0
230
1.0
  2
SOLID
 70
     1
 71
     0
 91
        1
 92
        0
 93
       10
 72
     2
 10
288.4075170191456
 20
52.44177080907394
 40
4.772455056791806
 50
234.1674444878509
 51
314.4407074583993
 73
     0
 72
     2
 10
288.8840014552323
 20
53.25300351729121
 40
3.866351232519375
 50
317.8184992995784
 51
398.0564711573081
 73
     0
 72
     1
 10
291.9283802198035
 20
50.86963829327874
 11
293.4065535592778
 21
49.58159288344451
 72
     1
 10
293.4065535592778
 20
49.58159288344451
 11
295.2690755314684
 21
51.38824229705533
 72
     2
 10
293.9289870429752
 20
53.23016239478673
 40
2.277829406127398
 50
306.0377529468133
 51
403.4396461533869
 73
     1
 72
     1
 10
295.5829168399837
 20
54.79637535284394
 11
289.3927830524687
 21
60.18013975579487
 72
     1
 10
289.3927830524687
 20
60.18013975579487
 11
290.3291600053596
 21
61.09372740205085
 72
     1
 10
290.3291600053596
 20
61.09372740205085
 11
288.9334002400835
 21
62.33901573181765
 72
     1
 10
288.9334002400835
 20
62.33901573181765
 11
284.0800220674687
 21
57.6486353618965
 72
     1
 10
284.0800220674687
 20
57.6486353618965
 11
285.6136338834916
 21
56.31094957121529
 97
        0
 75
     0
 76
     1
 98
        1
 10
0.0
 20
0.0
  0
LINE
  5
77
330
1F
100
AcDbEntity
  8
0
  6
Continuous
 62
     7
370
     0
100
AcDbLine
 10
251.7890662777
 20
26.6617788769
 30
0.0
 11
253.2890662777
 21
26.6617788769
 31
0.0
  0
LINE
  5
78
330
1F
100
AcDbEntity
  8
0
  6
Continuous
 62
     7
370
     0
100
AcDbLine
 10
247.2890662777
 20
26.6617788769
 30
0.0
 11
251.0390662777
 21
26.6617788769
 31
0.0
  0
LINE
  5
79
330
1F
100
AcDbEntity
  8
0
  6
Continuous
 62
     7
370
     0
100
AcDbLine
 10
272.0390662777
 20
22.9117788769
 30
0.0
 11
272.0390662777
 21
30.4117788769
 31
0.0
  0
LINE
  5
7A
330
1F
100
AcDbEntity
  8
0
  6
Continuous
 62
     7
370
     0
100
AcDbLine
 10
261.5390662777
 20
24.4117788769
 30
0.0
 11
272.0390662777
 21
22.9117788769
 31
0.0
  0
LINE
  5
7B
330
1F
100
AcDbEntity
  8
0
  6
Continuous
 62
     7
370
     0
100
AcDbLine
 10
252.5390662777
 20
25.1617788769
 30
0.0
 11
252.5390662777
 21
21.4117788769
 31
0.0
  0
LINE
  5
7C
330
1F
100
AcDbEntity
  8
0
  6
Continuous
 62
     7
370
     0
100
AcDbLine
 10
272.0390662777
 20
30.4117788769
 30
0.0
 11
261.5390662777
 21
28.9117788769
 31
0.0
  0
LINE
  5
7D
330
1F
100
AcDbEntity
  8
0
  6
Continuous
 62
     7
370
     0
100
AcDbLine
 10
260.0390662777
 20
26.6617788769
 30
0.0
 11
273.5390662777
 21
26.6617788769
 31
0.0
  0
LINE
  5
7E
330
1F
100
AcDbEntity
  8
0
  6
Continuous
 62
     7
370
     0
100
AcDbLine
 10
252.5390662777
 20
27.4117788769
 30
0.0
 11
252.5390662777
 21
25.9117788769
 31
0.0
  0
LINE
  5
7F
330
1F
100
AcDbEntity
  8
0
  6
Continuous
 62
     7
370
     0
100
AcDbLine
 10
254.0390662777
 20
26.6617788769
 30
0.0
 11
257.7890662777
 21
26.6617788769
 31
0.0
  0
LINE
  5
80
330
1F
100
AcDbEntity
  8
0
  6
Continuous
 62
     7
370
     0
100
AcDbLine
 10
252.5390662777
 20
31.9117788769
 30
0.0
 11
252.5390662777
 21
28.1617788769
 31
0.0
  0
LINE
  5
81
330
1F
100
AcDbEntity
  8
0
  6
Continuous
 62
     7
370
     0
100
AcDbLine
 10
261.5390662777
 20
28.9117788769
 30
0.0
 11
261.5390662777
 21
24.4117788769
 31
0.0
  0
LINE
  5
82
330
1F
100
AcDbEntity
  8
0
370
     0
100
AcDbLine
 10
292.5253007944
 20
48.7477459924
 30
0.0
 11
287.7100908346
 21
44.0721864233
 31
0.0
  0
LINE
  5
83
330
1F
100
AcDbEntity
  8
0
370
     0
100
AcDbLine
 10
287.7100908346
 20
44.0721864233
 30
0.0
 11
286.2988901514
 21
45.2871820285
 31
0.0
  0
LINE
  5
84
330
1F
100
AcDbEntity
  8
0
370
     0
100
AcDbLine
 10
286.2988901514
 20
45.2871820285
 30
0.0
 11
287.245468032
 21
46.2110326142
 31
0.0
  0
LINE
  5
85
330
1F
100
AcDbEntity
  8
0
370
     0
100
AcDbLine
 10
281.2316645667
 20
51.4379383746
 30
0.0
 11
287.245468032
 21
46.2110326142
 31
0.0
  0
LINE
  5
86
330
1F
100
AcDbEntity
  8
0
370
     0
100
AcDbLine
 10
283.2279768221
 20
56.8044945256
 30
0.0
 11
281.2680344398
 21
54.9121139108
 31
0.0
  0
LINE
  5
87
330
1F
100
AcDbEntity
  8
0
370
     0
100
AcDbLine
 10
283.2279768221
 20
56.8044945256
 30
0.0
 11
284.7507675932
 21
55.4611966743
 31
0.0
  0
LINE
  5
88
330
1F
100
AcDbEntity
  8
0
370
     0
100
AcDbLine
 10
291.0780713026
 20
50.0186761679
 30
0.0
 11
292.5253007944
 21
48.7477459924
 31
0.0
  0
LINE
  5
89
330
1F
100
AcDbEntity
  8
0
 62
     1
370
     0
100
AcDbLine
 10
285.6136338835
 20
56.3109495712
 30
0.0
 11
284.0800220675
 21
57.6486353619
 31
0.0
  0
LINE
  5
8A
330
1F
100
AcDbEntity
  8
0
 62
     1
370
     0
100
AcDbLine
 10
284.0800220675
 20
57.6486353619
 30
0.0
 11
288.9334002401
 21
62.3390157318
 31
0.0
  0
LINE
  5
8B
330
1F
100
AcDbEntity
  8
0
 62
     1
370
     0
100
AcDbLine
 10
288.9334002401
 20
62.3390157318
 30
0.0
 11
290.3291600054
 21
61.0937274021
 31
0.0
  0
LINE
  5
8C
330
1F
100
AcDbEntity
  8
0
 62
     1
370
     0
100
AcDbLine
 10
290.3291600054
 20
61.0937274021
 30
0.0
 11
289.3927830525
 21
60.1801397558
 31
0.0
  0
LINE
  5
8D
330
1F
100
AcDbEntity
  8
0
 62
     1
370
     0
100
AcDbLine
 10
289.3927830525
 20
60.1801397558
 30
0.0
 11
295.58291684
 21
54.7963753528
 31
0.0
  0
LINE
  5
8E
330
1F
100
AcDbEntity
  8
0
 62
     1
370
     0
100
AcDbLine
 10
291.9283802198
 20
50.8696382933
 30
0.0
 11
293.4065535593
 21
49.5815928834
 31
0.0
  0
LINE
  5
8F
330
1F
100
AcDbEntity
  8
0
 62
     1
370
     0
100
AcDbLine
 10
293.4065535593
 20
49.5815928834
 30
0.0
 11
295.2690755315
 21
51.3882422971
 31
0.0
  0
LINE
  5
90
330
1F
100
AcDbEntity
  8
0
  6
Continuous
 62
     7
370
     0
100
AcDbLine
 10
278.5361947814
 20
19.6728696119
 30
0.0
 11
428.5361947814
 21
19.6728696119
 31
0.0
  0
LINE
  5
91
330
1F
100
AcDbEntity
  8
0
  6
Continuous
 62
     7
370
     0
100
AcDbLine
 10
278.5361947814
 20
27.1728696119
 30
0.0
 11
353.5361947814
 21
27.1728696119
 31
0.0
  0
LINE
  5
92
330
1F
100
AcDbEntity
  8
0
  6
Continuous
 62
     7
370
     0
100
AcDbLine
 10
278.5361947814
 20
34.6728696119
 30
0.0
 11
353.5361947814
 21
34.6728696119
 31
0.0
  0
LINE
  5
93
330
1F
100
AcDbEntity
  8
0
  6
Continuous
 62
     7
370
     0
100
AcDbLine
 10
278.5361947814
 20
42.1728696119
 30
0.0
 11
428.5361947814
 21
42.1728696119
 31
0.0
  0
LINE
  5
94
330
1F
100
AcDbEntity
  8
0
  6
Continuous
 62
     7
370
     0
100
AcDbLine
 10
353.5361947814
 20
49.6728696119
 30
0.0
 11
428.5361947814
 21
49.6728696119
 31
0.0
  0
LINE
  5
95
330
1F
100
AcDbEntity
  8
0
  6
Continuous
 62
     7
370
    15
100
AcDbLine
 10
353.5361947814
 20
27.1728696119
 30
0.0
 11
428.5361947814
 21
27.1728696119
 31
0.0
  0
LINE
  5
96
330
1F
100
AcDbEntity
  8
0
  6
Continuous
 62
     7
370
     0
100
AcDbLine
 10
278.5361947814
 20
64.6728696119
 30
0.0
 11
428.5361947814
 21
64.6728696119
 31
0.0
  0
LINE
  5
97
330
1F
100
AcDbEntity
  8
0
  6
Continuous
 62
     7
370
     0
100
AcDbLine
 10
376.8558265126
 20
12.1728696119
 30
0.0
 11
376.8558265126
 21
27.1728696119
 31
0.0
  0
LINE
  5
98
330
1F
100
AcDbEntity
  8
0
  6
Continuous
 62
     7
370
     0
100
AcDbLine
 10
353.5361947814
 20
12.1728696119
 30
0.0
 11
353.5361947814
 21
64.6728696119
 31
0.0
  0
LINE
  5
99
330
1F
100
AcDbEntity
  8
0
  6
Continuous
 62
     7
370
     0
100
AcDbLine
 10
376.8558265126
 20
42.1728696119
 30
0.0
 11
376.8558265126
 21
49.6728696119
 31
0.0
  0
LINE
  5
9A
330
1F
100
AcDbEntity
  8
0
  6
Continuous
 62
     7
370
     0
100
AcDbLine
 10
321.624612953
 20
12.1728696119
 30
0.0
 11
321.624612953
 21
42.1728696119
 31
0.0
  0
LINE
  5
9B
330
1F
100
AcDbEntity
  8
0
  6
Continuous
 62
     7
370
     0
100
AcDbLine
 10
299.6678831259
 20
12.1728696119
 30
0.0
 11
299.6678831259
 21
42.1728696119
 31
0.0
  0
LINE
  5
9C
330
1F
100
AcDbEntity
  8
0
  6
Continuous
 62
     7
370
     0
100
AcDbLine
 10
278.5361947814
 20
12.1728696119
 30
0.0
 11
278.5361947814
 21
64.6728696119
 31
0.0
  0
LINE
  5
9D
330
1F
100
AcDbEntity
  8
0
  6
Continuous
 62
     7
370
    15
100
AcDbLine
 10
13.0361947814
 20
157.1154554872
 30
0.0
 11
22.0361947814
 21
157.1154554872
 31
0.0
  0
LINE
  5
9E
330
1F
100
AcDbEntity
  8
0
  6
Continuous
 62
     7
370
    15
100
AcDbLine
 10
428.5361947814
 20
157.1154554872
 30
0.0
 11
419.5361947814
 21
157.1154554872
 31
0.0
  0
LINE
  5
9F
330
1F
100
AcDbEntity
  8
0
  6
Continuous
 62
     7
370
    15
100
AcDbLine
 10
220.7861947814
 20
12.1728696119
 30
0.0
 11
220.7861947814
 21
21.1728696119
 31
0.0
  0
LINE
  5
A0
330
1F
100
AcDbEntity
  8
0
  6
Continuous
 62
     7
370
    15
100
AcDbLine
 10
220.7861947814
 20
302.0580413626
 30
0.0
 11
220.7861947814
 21
293.0580413626
 31
0.0
  0
LINE
  5
A1
330
1F
100
AcDbEntity
  8
0
  6
Continuous
 62
     7
370
    15
100
AcDbLine
 10
64.9811947814
 20
302.0580413626
 30
0.0
 11
64.9811947814
 21
304.3080413626
 31
0.0
  0
LINE
  5
A2
330
1F
100
AcDbEntity
  8
0
  6
Continuous
 62
     7
370
    15
100
AcDbLine
 10
116.9261947814
 20
302.0580413626
 30
0.0
 11
116.9261947814
 21
304.3080413626
 31
0.0
  0
LINE
  5
A3
330
1F
100
AcDbEntity
  8
0
  6
Continuous
 62
     7
370
    15
100
AcDbLine
 10
168.8711947814
 20
302.0580413626
 30
0.0
 11
168.8711947814
 21
304.3080413626
 31
0.0
  0
LINE
  5
A4
330
1F
100
AcDbEntity
  8
0
  6
Continuous
 62
     7
370
    15
100
AcDbLine
 10
220.8161947814
 20
302.0580413626
 30
0.0
 11
220.8161947814
 21
304.3080413626
 31
0.0
  0
LINE
  5
A5
330
1F
100
AcDbEntity
  8
0
  6
Continuous
 62
     7
370
    15
100
AcDbLine
 10
272.7611947814
 20
302.0580413626
 30
0.0
 11
272.7611947814
 21
304.3080413626
 31
0.0
  0
LINE
  5
A6
330
1F
100
AcDbEntity
  8
0
  6
Continuous
 62
     7
370
    15
100
AcDbLine
 10
324.7061947814
 20
302.0580413626
 30
0.0
 11
324.7061947814
 21
304.3080413626
 31
0.0
  0
LINE
  5
A7
330
1F
100
AcDbEntity
  8
0
  6
Continuous
 62
     7
370
    15
100
AcDbLine
 10
376.6511947814
 20
302.0580413626
 30
0.0
 11
376.6511947814
 21
304.3080413626
 31
0.0
  0
LINE
  5
A8
330
1F
100
AcDbEntity
  8
0
  6
Continuous
 62
     7
370
    15
100
AcDbLine
 10
64.9736947814
 20
12.1728696119
 30
0.0
 11
64.9736947814
 21
9.9228696119
 31
0.0
  0
LINE
  5
A9
330
1F
100
AcDbEntity
  8
0
  6
Continuous
 62
     7
370
    15
100
AcDbLine
 10
116.9111947814
 20
12.1728696119
 30
0.0
 11
116.9111947814
 21
9.9228696119
 31
0.0
  0
LINE
  5
AA
330
1F
100
AcDbEntity
  8
0
  6
Continuous
 62
     7
370
    15
100
AcDbLine
 10
168.8486947814
 20
12.1728696119
 30
0.0
 11
168.8486947814
 21
9.9228696119
 31
0.0
  0
LINE
  5
AB
330
1F
100
AcDbEntity
  8
0
  6
Continuous
 62
     7
370
    15
100
AcDbLine
 10
220.7861947814
 20
12.1728696119
 30
0.0
 11
220.7861947814
 21
9.9228696119
 31
0.0
  0
LINE
  5
AC
330
1F
100
AcDbEntity
  8
0
  6
Continuous
 62
     7
370
    15
100
AcDbLine
 10
272.7236947814
 20
12.1728696119
 30
0.0
 11
272.7236947814
 21
9.9228696119
 31
0.0
  0
LINE
  5
AD
330
1F
100
AcDbEntity
  8
0
  6
Continuous
 62
     7
370
    15
100
AcDbLine
 10
324.6611947814
 20
12.1728696119
 30
0.0
 11
324.6611947814
 21
9.9228696119
 31
0.0
  0
LINE
  5
AE
330
1F
100
AcDbEntity
  8
0
  6
Continuous
 62
     7
370
     0
100
AcDbLine
 10
428.5361947814
 20
302.0580413626
 30
0.0
 11
13.0361947814
 21
302.0580413626
 31
0.0
  0
LINE
  5
AF
330
1F
100
AcDbEntity
  8
0
  6
Continuous
 62
     7
370
     0
100
AcDbLine
 10
428.5361947814
 20
12.1728696119
 30
0.0
 11
428.5361947814
 21
302.0580413626
 31
0.0
  0
LINE
  5
B0
330
1F
100
AcDbEntity
  8
0
  6
Continuous
 62
     7
370
     0
100
AcDbLine
 10
13.0361947814
 20
302.0580413626
 30
0.0
 11
13.0361947814
 21
12.1728696119
 31
0.0
  0
LINE
  5
B1
330
1F
100
AcDbEntity
  8
0
  6
Continuous
 62
     7
370
     0
100
AcDbLine
 10
13.0361947814
 20
12.1728696119
 30
0.0
 11
428.5361947814
 21
12.1728696119
 31
0.0
  0
LINE
  5
B2
330
1F
100
AcDbEntity
  8
0
  6
Continuous
 62
     7
370
    15
100
AcDbLine
 10
376.5986947814
 20
12.1728696119
 30
0.0
 11
376.5986947814
 21
9.9228696119
 31
0.0
  0
LINE
  5
B3
330
1F
100
AcDbEntity
  8
0
  6
Continuous
 62
     7
370
    15
100
AcDbLine
 10
13.0361947814
 20
60.4878696119
 30
0.0
 11
10.7861947814
 21
60.4878696119
 31
0.0
  0
LINE
  5
B4
330
1F
100
AcDbEntity
  8
0
  6
Continuous
 62
     7
370
    15
100
AcDbLine
 10
13.0361947814
 20
108.8028696119
 30
0.0
 11
10.7861947814
 21
108.8028696119
 31
0.0
  0
LINE
  5
B5
330
1F
100
AcDbEntity
  8
0
  6
Continuous
 62
     7
370
    15
100
AcDbLine
 10
13.0361947814
 20
157.1178696119
 30
0.0
 11
10.7861947814
 21
157.1178696119
 31
0.0
  0
LINE
  5
B6
330
1F
100
AcDbEntity
  8
0
  6
Continuous
 62
     7
370
    15
100
AcDbLine
 10
13.0361947814
 20
205.4328696119
 30
0.0
 11
10.7861947814
 21
205.4328696119
 31
0.0
  0
LINE
  5
B7
330
1F
100
AcDbEntity
  8
0
  6
Continuous
 62
     7
370
    15
100
AcDbLine
 10
13.0361947814
 20
253.7478696119
 30
0.0
 11
10.7861947814
 21
253.7478696119
 31
0.0
  0
LINE
  5
B8
330
1F
100
AcDbEntity
  8
0
  6
Continuous
 62
     7
370
    15
100
AcDbLine
 10
428.5361947814
 20
60.4878696119
 30
0.0
 11
430.7861947814
 21
60.4878696119
 31
0.0
  0
LINE
  5
B9
330
1F
100
AcDbEntity
  8
0
  6
Continuous
 62
     7
370
    15
100
AcDbLine
 10
428.5361947814
 20
108.8028696119
 30
0.0
 11
430.7861947814
 21
108.8028696119
 31
0.0
  0
LINE
  5
BA
330
1F
100
AcDbEntity
  8
0
  6
Continuous
 62
     7
370
    15
100
AcDbLine
 10
428.5361947814
 20
157.1178696119
 30
0.0
 11
430.7861947814
 21
157.1178696119
 31
0.0
  0
LINE
  5
BB
330
1F
100
AcDbEntity
  8
0
  6
Continuous
 62
     7
370
    15
100
AcDbLine
 10
428.5361947814
 20
205.4328696119
 30
0.0
 11
430.7861947814
 21
205.4328696119
 31
0.0
  0
LINE
  5
BC
330
1F
100
AcDbEntity
  8
0
  6
Continuous
 62
     7
370
    15
100
AcDbLine
 10
428.5361947814
 20
253.7478696119
 30
0.0
 11
430.7861947814
 21
253.7478696119
 31
0.0
  0
CIRCLE
  5
BD
330
1F
100
AcDbEntity
  8
0
  6
Continuous
 62
     7
370
     0
100
AcDbCircle
 10
252.5390662777
 20
26.6617788769
 30
0.0
 40
2.249999999999943
  0
CIRCLE
  5
BE
330
1F
100
AcDbEntity
  8
0
  6
Continuous
 62
     7
370
     0
100
AcDbCircle
 10
252.5390662777
 20
26.6617788769
 30
0.0
 40
3.749999999999943
  0
ARC
  5
BF
330
1F
100
AcDbEntity
  8
0
370
     0
100
AcDbCircle
 10
282.754076711
 20
53.1592789382
 30
0.0
 40
2.297988701708746
100
AcDbArc
 50
130.2910647925
 51
228.509361907
  0
ARC
  5
C0
330
1F
100
AcDbEntity
  8
0
370
     0
100
AcDbCircle
 10
287.7106730483
 20
52.9901076433
 30
0.0
 40
3.855816554566954
100
AcDbArc
 50
140.1430462781
 51
253.0452525074
  0
ARC
  5
C1
330
1F
100
AcDbEntity
  8
0
370
     0
100
AcDbCircle
 10
288.2077688607
 20
53.5730702671
 30
0.0
 40
4.568627093596868
100
AcDbArc
 50
249.2112209143
 51
308.9221353953
  0
ARC
  5
C2
330
1F
100
AcDbEntity
  8
0
 62
     1
370
     0
100
AcDbCircle
 10
293.928987043
 20
53.2301623948
 30
0.0
 40
2.277829406127415
100
AcDbArc
 50
306.0377529468
 51
43.4396461534
  0
ARC
  5
C3
330
1F
100
AcDbEntity
  8
0
 62
     1
370
     0
100
AcDbCircle
 10
288.4075170191
 20
52.4417708091
 30
0.0
 40
4.7724550567918
100
AcDbArc
 50
45.5592925416
 51
125.8325555121
  0
ARC
  5
C4
330
1F
100
AcDbEntity
  8
0
 62
     1
370
     0
100
AcDbCircle
 10
288.8840014552
 20
53.2530035173
 30
0.0
 40
3.866351232519357
100
AcDbArc
 50
321.9435288427
 51
42.1815007004
  0
MTEXT
  5
C6
330
1F
100
AcDbEntity
  8
0
  6
Continuous
 62
     7
370
     0
100
AcDbMText
 10
248.3140276206
 20
19.8312660554
 30
0.0
 40
3.96875
 41
0.0
 71
     1
 72
     1
  1
UNIT:m/m
  7
SLDTEXTSTYLE0
 73
     1
 44
1.0
  0
INSERT
  5
CD
330
1F
100
AcDbEntity
  8
0
  6
Continuous
 62
     7
370
     0
100
AcDbBlockReference
  2
SW_NOTE_0
 10
18.347261408
 20
290.8356456377
 30
0.0
  0
MTEXT
  5
CF
330
1F
100
AcDbEntity
  8
0
  6
Continuous
 62
     7
370
     0
100
AcDbMText
 10
298.0877840902
 20
60.6610161208
 30
0.0
 40
3.571875
 41
0.0
 71
     1
 72
     1
  1
Unice E-O Services Inc.
  7
SLDTEXTSTYLE1
 73
     1
 44
1.0
  0
MTEXT
  5
D0
330
1F
100
AcDbEntity
  8
0
  6
Continuous
 62
     7
370
     0
100
AcDbMText
 10
326.3385807224
 20
32.3800722766
 30
0.0
 40
2.778125
 41
0.0
 71
     1
 72
     1
  1
2010/12/30
  7
SLDTEXTSTYLE0
 73
     1
 44
1.0
  0
MTEXT
  5
D1
330
1F
100
AcDbEntity
  8
0
  6
Continuous
 62
     7
370
     0
100
AcDbMText
 10
378.913347376
 20
25.30676661
 30
0.0
 40
3.75
 41
0.0
 71
     1
 72
     1
  1
1:1.5
  7
SLDTEXTSTYLE0
 73
     1
 44
1.0
  0
MTEXT
  5
D2
330
1F
100
AcDbEntity
  8
0
  6
Continuous
 62
     7
370
     0
100
AcDbMText
 10
378.4613399977
 20
48.2278793156
 30
0.0
 40
3.75
 41
0.0
 71
     1
 72
     1
  1
05NTP-1
  7
SLDTEXTSTYLE0
 73
     1
 44
1.0
  0
MTEXT
  5
D3
330
1F
100
AcDbEntity
  8
0
  6
Continuous
 62
     7
370
     0
100
AcDbMText
 10
378.4613399977
 20
57.1623176818
 30
0.0
 40
3.75
 41
0.0
 71
     1
 72
     1
  1
05NTP-1
  7
SLDTEXTSTYLE0
 73
     1
 44
1.0
  0
MTEXT
  5
D4
330
1F
100
AcDbEntity
  8
0
  6
Continuous
 62
     7
370
     0
100
AcDbMText
 10
354.588280018
 20
24.7597193593
 30
0.0
 40
3.175
 41
0.0
 71
     1
 72
     1
  1
SCALE:
  7
SLDTEXTSTYLE0
 73
     1
 44
1.0
  0
MTEXT
  5
D5
330
1F
100
AcDbEntity
  8
0
  6
Continuous
 62
     7
370
     0
100
AcDbMText
 10
279.5004130184
 20
32.3800722766
 30
0.0
 40
2.778125
 41
0.0
 71
     1
 72
     1
  1
DRAWN
  7
SLDTEXTSTYLE0
 73
     1
 44
1.0
  0
MTEXT
  5
D6
330
1F
100
AcDbEntity
  8
0
  6
Continuous
 62
     7
370
     0
100
AcDbMText
 10
304.8342551905
 20
40.024812462
 30
0.0
 40
2.778125
 41
0.0
 71
     1
 72
     1
  1
NAME
  7
SLDTEXTSTYLE0
 73
     1
 44
1.0
  0
MTEXT
  5
D7
330
1F
100
AcDbEntity
  8
0
  6
Continuous
 62
     7
370
     0
100
AcDbMText
 10
331.3065233636
 20
40.024812462
 30
0.0
 40
2.778125
 41
0.0
 71
     1
 72
     1
  1
DATE
  7
SLDTEXTSTYLE0
 73
     1
 44
1.0
  0
MTEXT
  5
D8
330
1F
100
AcDbEntity
  8
0
  6
Continuous
 62
     7
370
     0
100
AcDbMText
 10
354.4134474968
 20
47.6808320649
 30
0.0
 40
3.175
 41
0.0
 71
     1
 72
     1
  1
DWG. NO.
  7
SLDTEXTSTYLE0
 73
     1
 44
1.0
  0
MTEXT
  5
D9
330
1F
100
AcDbEntity
  8
0
  6
Continuous
 62
     7
370
     0
100
AcDbMText
 10
354.5444860632
 20
62.8260987365
 30
0.0
 40
3.175
 41
0.0
 71
     1
 72
     1
  1
TITLE:
  7
SLDTEXTSTYLE0
 73
     1
 44
1.0
  0
MTEXT
  5
DA
330
1F
100
AcDbEntity
  8
0
  6
Continuous
 62
     7
370
     0
100
AcDbMText
 10
304.5471314703
 20
24.3605684586
 30
0.0
 40
2.778125
 41
0.0
 71
     1
 72
     1
  1
Johnny
  7
SLDTEXTSTYLE0
 73
     1
 44
1.0
  0
MTEXT
  5
DB
330
1F
100
AcDbEntity
  8
0
  6
Continuous
 62
     7
370
     0
100
AcDbMText
 10
326.3385807224
 20
24.3605684586
 30
0.0
 40
2.778125
 41
0.0
 71
     1
 72
     1
  1
2010/12/30
  7
SLDTEXTSTYLE0
 73
     1
 44
1.0
  0
MTEXT
  5
DC
330
1F
100
AcDbEntity
  8
0
  6
Continuous
 62
     7
370
     0
100
AcDbMText
 10
279.5004130184
 20
24.3605684586
 30
0.0
 40
2.778125
 41
0.0
 71
     1
 72
     1
  1
ENG APPR.
  7
SLDTEXTSTYLE0
 73
     1
 44
1.0
  0
MTEXT
  5
DD
330
1F
100
AcDbEntity
  8
0
  6
Continuous
 62
     7
370
     0
100
AcDbMText
 10
354.588280018
 20
17.5280083932
 30
0.0
 40
3.175
 41
0.0
 71
     1
 72
     1
  1
REV
  7
SLDTEXTSTYLE0
 73
     1
 44
1.0
  0
MTEXT
  5
DE
330
1F
100
AcDbEntity
  8
0
  6
Continuous
 62
     7
370
     0
100
AcDbMText
 10
354.5444860632
 20
40.4239633627
 30
0.0
 40
3.175
 41
0.0
 71
     1
 72
     1
  1
MATERIAL:
  7
SLDTEXTSTYLE0
 73
     1
 44
1.0
  0
MTEXT
  5
DF
330
1F
100
AcDbEntity
  8
0
  6
Continuous
 62
     7
370
     0
100
AcDbMText
 10
378.913347376
 20
33.326270428
 30
0.0
 40
3.75
 41
0.0
 71
     1
 72
     1
  1
N/A
  7
SLDTEXTSTYLE0
 73
     1
 44
1.0
  0
MTEXT
  5
E0
330
1F
100
AcDbEntity
  8
0
  6
Continuous
 62
     7
370
     0
100
AcDbMText
 10
39.90448973
 20
306.6800274854
 30
0.0
 40
3.175
 41
0.0
 71
     1
 72
     1
  1
1
  7
SLDTEXTSTYLE0
 73
     1
 44
1.0
  0
MTEXT
  5
E1
330
1F
100
AcDbEntity
  8
0
  6
Continuous
 62
     7
370
     0
100
AcDbMText
 10
91.0756493586
 20
306.6800274854
 30
0.0
 40
3.175
 41
0.0
 71
     1
 72
     1
  1
2
  7
SLDTEXTSTYLE0
 73
     1
 44
1.0
  0
MTEXT
  5
E2
330
1F
100
AcDbEntity
  8
0
  6
Continuous
 62
     7
370
     0
100
AcDbMText
 10
142.3514915859
 20
306.6800274854
 30
0.0
 40
3.175
 41
0.0
 71
     1
 72
     1
  1
3
  7
SLDTEXTSTYLE0
 73
     1
 44
1.0
  0
MTEXT
  5
E3
330
1F
100
AcDbEntity
  8
0
  6
Continuous
 62
     7
370
     0
100
AcDbMText
 10
193.8800044277
 20
306.4488876546
 30
0.0
 40
3.175
 41
0.0
 71
     1
 72
     1
  1
4
  7
SLDTEXTSTYLE0
 73
     1
 44
1.0
  0
MTEXT
  5
E4
330
1F
100
AcDbEntity
  8
0
  6
Continuous
 62
     7
370
     0
100
AcDbMText
 10
245.5534851959
 20
306.6800274854
 30
0.0
 40
3.175
 41
0.0
 71
     1
 72
     1
  1
5
  7
SLDTEXTSTYLE0
 73
     1
 44
1.0
  0
MTEXT
  5
E5
330
1F
100
AcDbEntity
  8
0
  6
Continuous
 62
     7
370
     0
100
AcDbMText
 10
297.9573255623
 20
306.6800274854
 30
0.0
 40
3.175
 41
0.0
 71
     1
 72
     1
  1
6
  7
SLDTEXTSTYLE0
 73
     1
 44
1.0
  0
MTEXT
  5
E6
330
1F
100
AcDbEntity
  8
0
  6
Continuous
 62
     7
370
     0
100
AcDbMText
 10
351.544598611
 20
306.6800274854
 30
0.0
 40
3.175
 41
0.0
 71
     1
 72
     1
  1
7
  7
SLDTEXTSTYLE0
 73
     1
 44
1.0
  0
MTEXT
  5
E7
330
1F
100
AcDbEntity
  8
0
  6
Continuous
 62
     7
370
     0
100
AcDbMText
 10
399.4181730741
 20
306.6800274854
 30
0.0
 40
3.175
 41
0.0
 71
     1
 72
     1
  1
8
  7
SLDTEXTSTYLE0
 73
     1
 44
1.0
  0
MTEXT
  5
E8
330
1F
100
AcDbEntity
  8
0
  6
Continuous
 62
     7
370
     0
100
AcDbMText
 10
8.0352354832
 20
278.7169534319
 30
0.0
 40
3.175
 41
0.0
 71
     1
 72
     1
  1
A
  7
SLDTEXTSTYLE0
 73
     1
 44
1.0
  0
MTEXT
  5
E9
330
1F
100
AcDbEntity
  8
0
  6
Continuous
 62
     7
370
     0
100
AcDbMText
 10
8.3865647747
 20
231.4489572357
 30
0.0
 40
3.175
 41
0.0
 71
     1
 72
     1
  1
B
  7
SLDTEXTSTYLE0
 73
     1
 44
1.0
  0
MTEXT
  5
EA
330
1F
100
AcDbEntity
  8
0
  6
Continuous
 62
     7
370
     0
100
AcDbMText
 10
8.3865647747
 20
181.9115271345
 30
0.0
 40
3.175
 41
0.0
 71
     1
 72
     1
  1
C
  7
SLDTEXTSTYLE0
 73
     1
 44
1.0
  0
MTEXT
  5
EB
330
1F
100
AcDbEntity
  8
0
  6
Continuous
 62
     7
370
     0
100
AcDbMText
 10
8.3865647747
 20
133.1179830331
 30
0.0
 40
3.175
 41
0.0
 71
     1
 72
     1
  1
D
  7
SLDTEXTSTYLE0
 73
     1
 44
1.0
  0
MTEXT
  5
EC
330
1F
100
AcDbEntity
  8
0
  6
Continuous
 62
     7
370
     0
100
AcDbMText
 10
8.3865647747
 20
86.3338273796
 30
0.0
 40
3.175
 41
0.0
 71
     1
 72
     1
  1
E
  7
SLDTEXTSTYLE0
 73
     1
 44
1.0
  0
MTEXT
  5
ED
330
1F
100
AcDbEntity
  8
0
  6
Continuous
 62
     7
370
     0
100
AcDbMText
 10
8.3865647747
 20
38.3541318378
 30
0.0
 40
3.175
 41
0.0
 71
     1
 72
     1
  1
F
  7
SLDTEXTSTYLE0
 73
     1
 44
1.0
  0
MTEXT
  5
EE
330
1F
100
AcDbEntity
  8
0
  6
Continuous
 62
     7
370
     0
100
AcDbMText
 10
399.2787925446
 20
9.9354335945
 30
0.0
 40
3.175
 41
0.0
 71
     1
 72
     1
  1
8
  7
SLDTEXTSTYLE0
 73
     1
 44
1.0
  0
MTEXT
  5
EF
330
1F
100
AcDbEntity
  8
0
  6
Continuous
 62
     7
370
     0
100
AcDbMText
 10
351.4052180815
 20
9.9354335945
 30
0.0
 40
3.175
 41
0.0
 71
     1
 72
     1
  1
7
  7
SLDTEXTSTYLE0
 73
     1
 44
1.0
  0
MTEXT
  5
F0
330
1F
100
AcDbEntity
  8
0
  6
Continuous
 62
     7
370
     0
100
AcDbMText
 10
297.8179450327
 20
9.9354335945
 30
0.0
 40
3.175
 41
0.0
 71
     1
 72
     1
  1
6
  7
SLDTEXTSTYLE0
 73
     1
 44
1.0
  0
MTEXT
  5
F1
330
1F
100
AcDbEntity
  8
0
  6
Continuous
 62
     7
370
     0
100
AcDbMText
 10
245.4141046664
 20
9.9354335945
 30
0.0
 40
3.175
 41
0.0
 71
     1
 72
     1
  1
5
  7
SLDTEXTSTYLE0
 73
     1
 44
1.0
  0
MTEXT
  5
F2
330
1F
100
AcDbEntity
  8
0
  6
Continuous
 62
     7
370
     0
100
AcDbMText
 10
193.7406238981
 20
9.7042937637
 30
0.0
 40
3.175
 41
0.0
 71
     1
 72
     1
  1
4
  7
SLDTEXTSTYLE0
 73
     1
 44
1.0
  0
MTEXT
  5
F3
330
1F
100
AcDbEntity
  8
0
  6
Continuous
 62
     7
370
     0
100
AcDbMText
 10
142.2121110564
 20
9.9354335945
 30
0.0
 40
3.175
 41
0.0
 71
     1
 72
     1
  1
3
  7
SLDTEXTSTYLE0
 73
     1
 44
1.0
  0
MTEXT
  5
F4
330
1F
100
AcDbEntity
  8
0
  6
Continuous
 62
     7
370
     0
100
AcDbMText
 10
90.9362688291
 20
9.9354335945
 30
0.0
 40
3.175
 41
0.0
 71
     1
 72
     1
  1
2
  7
SLDTEXTSTYLE0
 73
     1
 44
1.0
  0
MTEXT
  5
F5
330
1F
100
AcDbEntity
  8
0
  6
Continuous
 62
     7
370
     0
100
AcDbMText
 10
39.7651092004
 20
9.9354335945
 30
0.0
 40
3.175
 41
0.0
 71
     1
 72
     1
  1
1
  7
SLDTEXTSTYLE0
 73
     1
 44
1.0
  0
MTEXT
  5
F6
330
1F
100
AcDbEntity
  8
0
  6
Continuous
 62
     7
370
     0
100
AcDbMText
 10
430.6535769217
 20
279.9637363637
 30
0.0
 40
3.175
 41
0.0
 71
     1
 72
     1
  1
A
  7
SLDTEXTSTYLE0
 73
     1
 44
1.0
  0
MTEXT
  5
F7
330
1F
100
AcDbEntity
  8
0
  6
Continuous
 62
     7
370
     0
100
AcDbMText
 10
431.0049062132
 20
232.6957401676
 30
0.0
 40
3.175
 41
0.0
 71
     1
 72
     1
  1
B
  7
SLDTEXTSTYLE0
 73
     1
 44
1.0
  0
MTEXT
  5
F8
330
1F
100
AcDbEntity
  8
0
  6
Continuous
 62
     7
370
     0
100
AcDbMText
 10
431.0049062132
 20
183.1583100664
 30
0.0
 40
3.175
 41
0.0
 71
     1
 72
     1
  1
C
  7
SLDTEXTSTYLE0
 73
     1
 44
1.0
  0
MTEXT
  5
F9
330
1F
100
AcDbEntity
  8
0
  6
Continuous
 62
     7
370
     0
100
AcDbMText
 10
431.0049062132
 20
134.364765965
 30
0.0
 40
3.175
 41
0.0
 71
     1
 72
     1
  1
D
  7
SLDTEXTSTYLE0
 73
     1
 44
1.0
  0
MTEXT
  5
FA
330
1F
100
AcDbEntity
  8
0
  6
Continuous
 62
     7
370
     0
100
AcDbMText
 10
431.0049062132
 20
87.5806103114
 30
0.0
 40
3.175
 41
0.0
 71
     1
 72
     1
  1
E
  7
SLDTEXTSTYLE0
 73
     1
 44
1.0
  0
MTEXT
  5
FB
330
1F
100
AcDbEntity
  8
0
  6
Continuous
 62
     7
370
     0
100
AcDbMText
 10
431.0049062132
 20
39.6009147696
 30
0.0
 40
3.175
 41
0.0
 71
     1
 72
     1
  1
F
  7
SLDTEXTSTYLE0
 73
     1
 44
1.0
  0
MTEXT
  5
FC
330
1F
100
AcDbEntity
  8
0
  6
Continuous
 62
     7
370
     0
100
AcDbMText
 10
304.7329693203
 20
32.3800722766
 30
0.0
 40
2.778125
 41
0.0
 71
     1
 72
     1
  1
Miki
  7
SLDTEXTSTYLE0
 73
     1
 44
1.0
  0
MTEXT
  5
FD
330
1F
100
AcDbEntity
  8
0
  6
Continuous
 62
     7
370
     0
100
AcDbMText
 10
379.2723359468
 20
18.0750556439
 30
0.0
 40
3.75
 41
0.0
 71
     1
 72
     1
  1
0
  7
SLDTEXTSTYLE0
 73
     1
 44
1.0
  0
INSERT
  5
104
330
1F
100
AcDbEntity
  8
SLD-0
 62
     7
100
AcDbBlockReference
  2
SW_NOTE_1
 10
298.0877840902
 20
49.8172852271
 30
0.0
  0
ARC
  5
105
330
1F
100
AcDbEntity
  8
0
  6
Continuous
 62
     7
370
    30
100
AcDbCircle
 10
108.6294591561
 20
101.4538423276
 30
0.0
 40
4.999999999999986
100
AcDbArc
 50
180.0
 51
270.0
  0
LINE
  5
106
330
1F
100
AcDbEntity
  8
0
  6
Continuous
 62
     7
370
    30
100
AcDbLine
 10
103.6294591561
 20
218.4538423276
 30
0.0
 11
103.6294591561
 21
101.4538423276
 31
0.0
  0
ARC
  5
107
330
1F
100
AcDbEntity
  8
0
  6
Continuous
 62
     7
370
    30
100
AcDbCircle
 10
108.6294591561
 20
218.4538423276
 30
0.0
 40
4.999999999999986
100
AcDbArc
 50
90.0
 51
180.0
  0
LINE
  5
108
330
1F
100
AcDbEntity
  8
0
  6
Continuous
 62
     7
370
    30
100
AcDbLine
 10
174.6294591561
 20
223.4538423276
 30
0.0
 11
108.6294591561
 21
223.4538423276
 31
0.0
  0
ARC
  5
109
330
1F
100
AcDbEntity
  8
0
  6
Continuous
 62
     7
370
    30
100
AcDbCircle
 10
174.6294591561
 20
218.4538423276
 30
0.0
 40
5.0
100
AcDbArc
 50
0.0
 51
90.0
  0
LINE
  5
10A
330
1F
100
AcDbEntity
  8
0
  6
Continuous
 62
     7
370
    30
100
AcDbLine
 10
179.6294591561
 20
101.4538423276
 30
0.0
 11
179.6294591561
 21
218.4538423276
 31
0.0
  0
ARC
  5
10B
330
1F
100
AcDbEntity
  8
0
  6
Continuous
 62
     7
370
    30
100
AcDbCircle
 10
174.6294591561
 20
101.4538423276
 30
0.0
 40
5.000000000000014
100
AcDbArc
 50
270.0
 51
0.0
  0
LINE
  5
10C
330
1F
100
AcDbEntity
  8
0
  6
Continuous
 62
     7
370
    30
100
AcDbLine
 10
108.6294591561
 20
96.4538423276
 30
0.0
 11
174.6294591561
 21
96.4538423276
 31
0.0
  0
CIRCLE
  5
10D
330
1F
100
AcDbEntity
  8
0
  6
Continuous
 62
     7
370
    30
100
AcDbCircle
 10
128.9294591561
 20
159.9538423276
 30
0.0
 40
5.953760000000017
  0
CIRCLE
  5
10E
330
1F
100
AcDbEntity
  8
0
  6
Continuous
 62
     7
370
    30
100
AcDbCircle
 10
141.6294591561
 20
159.9538423276
 30
0.0
 40
5.953760000000017
  0
CIRCLE
  5
10F
330
1F
100
AcDbEntity
  8
0
  6
Continuous
 62
     7
370
    30
100
AcDbCircle
 10
154.3294591561
 20
159.9538423276
 30
0.0
 40
5.953759999999988
  0
CIRCLE
  5
110
330
1F
100
AcDbEntity
  8
0
  6
Continuous
 62
     7
370
    30
100
AcDbCircle
 10
154.3294591561
 20
121.8538423276
 30
0.0
 40
1.727199999999982
  0
CIRCLE
  5
111
330
1F
100
AcDbEntity
  8
0
  6
Continuous
 62
     7
370
    30
100
AcDbCircle
 10
154.3294591561
 20
147.2538423276
 30
0.0
 40
1.727199999999982
  0
CIRCLE
  5
112
330
1F
100
AcDbEntity
  8
0
  6
Continuous
 62
     7
370
    30
100
AcDbCircle
 10
154.3294591561
 20
172.6538423276
 30
0.0
 40
1.727199999999982
  0
CIRCLE
  5
113
330
1F
100
AcDbEntity
  8
0
  6
Continuous
 62
     7
370
    30
100
AcDbCircle
 10
154.3294591561
 20
198.0538423276
 30
0.0
 40
1.727199999999982
  0
CIRCLE
  5
114
330
1F
100
AcDbEntity
  8
0
  6
Continuous
 62
     7
370
    30
100
AcDbCircle
 10
128.9294591561
 20
198.0538423276
 30
0.0
 40
1.727199999999996
  0
CIRCLE
  5
115
330
1F
100
AcDbEntity
  8
0
  6
Continuous
 62
     7
370
    30
100
AcDbCircle
 10
128.9294591561
 20
172.6538423276
 30
0.0
 40
1.727199999999996
  0
CIRCLE
  5
116
330
1F
100
AcDbEntity
  8
0
  6
Continuous
 62
     7
370
    30
100
AcDbCircle
 10
128.9294591561
 20
147.2538423276
 30
0.0
 40
1.727199999999996
  0
CIRCLE
  5
117
330
1F
100
AcDbEntity
  8
0
  6
Continuous
 62
     7
370
    30
100
AcDbCircle
 10
128.9294591561
 20
121.8538423276
 30
0.0
 40
1.727199999999996
  0
CIRCLE
  5
118
330
1F
100
AcDbEntity
  8
0
  6
Continuous
 62
     7
370
    30
100
AcDbCircle
 10
141.6294591561
 20
134.5538423276
 30
0.0
 40
2.552699999999987
  0
CIRCLE
  5
119
330
1F
100
AcDbEntity
  8
0
  6
Continuous
 62
     7
370
    30
100
AcDbCircle
 10
141.6294591561
 20
109.1538423276
 30
0.0
 40
2.552699999999987
  0
CIRCLE
  5
11A
330
1F
100
AcDbEntity
  8
0
  6
Continuous
 62
     7
370
    30
100
AcDbCircle
 10
141.6294591561
 20
210.7538423276
 30
0.0
 40
2.552699999999987
  0
CIRCLE
  5
11B
330
1F
100
AcDbEntity
  8
0
  6
Continuous
 62
     7
370
    30
100
AcDbCircle
 10
141.6294591561
 20
185.3538423276
 30
0.0
 40
2.552699999999987
  0
CIRCLE
  5
11C
330
1F
100
AcDbEntity
  8
0
  6
Continuous
 62
     7
370
    30
100
AcDbCircle
 10
167.0294591561
 20
109.1538423276
 30
0.0
 40
2.552699999999959
  0
CIRCLE
  5
11D
330
1F
100
AcDbEntity
  8
0
  6
Continuous
 62
     7
370
    30
100
AcDbCircle
 10
167.0294591561
 20
134.5538423276
 30
0.0
 40
2.552699999999959
  0
CIRCLE
  5
11E
330
1F
100
AcDbEntity
  8
0
  6
Continuous
 62
     7
370
    30
100
AcDbCircle
 10
167.0294591561
 20
159.9538423276
 30
0.0
 40
2.552699999999959
  0
CIRCLE
  5
11F
330
1F
100
AcDbEntity
  8
0
  6
Continuous
 62
     7
370
    30
100
AcDbCircle
 10
167.0294591561
 20
185.3538423276
 30
0.0
 40
2.552699999999959
  0
CIRCLE
  5
120
330
1F
100
AcDbEntity
  8
0
  6
Continuous
 62
     7
370
    30
100
AcDbCircle
 10
167.0294591561
 20
210.7538423276
 30
0.0
 40
2.552699999999959
  0
CIRCLE
  5
121
330
1F
100
AcDbEntity
  8
0
  6
Continuous
 62
     7
370
    30
100
AcDbCircle
 10
116.2294591561
 20
210.7538423276
 30
0.0
 40
2.552699999999987
  0
CIRCLE
  5
122
330
1F
100
AcDbEntity
  8
0
  6
Continuous
 62
     7
370
    30
100
AcDbCircle
 10
116.2294591561
 20
185.3538423276
 30
0.0
 40
2.552699999999987
  0
CIRCLE
  5
123
330
1F
100
AcDbEntity
  8
0
  6
Continuous
 62
     7
370
    30
100
AcDbCircle
 10
116.2294591561
 20
159.9538423276
 30
0.0
 40
2.552699999999987
  0
CIRCLE
  5
124
330
1F
100
AcDbEntity
  8
0
  6
Continuous
 62
     7
370
    30
100
AcDbCircle
 10
116.2294591561
 20
134.5538423276
 30
0.0
 40
2.552699999999987
  0
CIRCLE
  5
125
330
1F
100
AcDbEntity
  8
0
  6
Continuous
 62
     7
370
    30
100
AcDbCircle
 10
116.2294591561
 20
109.1538423276
 30
0.0
 40
2.552699999999987
  0
CIRCLE
  5
126
330
1F
100
AcDbEntity
  8
0
  6
Continuous
 62
     7
370
    30
100
AcDbCircle
 10
154.3294591561
 20
159.9538423276
 30
0.0
 40
3.378199999999993
  0
CIRCLE
  5
127
330
1F
100
AcDbEntity
  8
0
  6
Continuous
 62
     7
370
    30
100
AcDbCircle
 10
141.6294591561
 20
159.9538423276
 30
0.0
 40
3.378200000000021
  0
CIRCLE
  5
128
330
1F
100
AcDbEntity
  8
0
  6
Continuous
 62
     7
370
    30
100
AcDbCircle
 10
128.9294591561
 20
159.9538423276
 30
0.0
 40
3.378200000000021
  0
DIMENSION
  5
129
330
1F
100
AcDbEntity
  8
SLD-0
100
AcDbDimension
  2
_D
 10
103.6294591561
 20
62.9735483566
 30
0.0
 11
141.6294591561
 21
62.9735483566
 31
0.0
 70
   160
  1
<>
 71
     2
 42
-1.0
  3
SLDDIMSTYLE0
100
AcDbAlignedDimension
 13
179.6294591561
 23
101.4538423276
 33
0.0
 14
103.6294591561
 24
101.4538423276
 34
0.0
 50
0.0
100
AcDbRotatedDimension
  0
DIMENSION
  5
134
330
1F
100
AcDbEntity
  8
SLD-0
100
AcDbDimension
  2
_D_1
 10
53.3669643224
 20
96.4538423276
 30
0.0
 11
53.3669643224
 21
159.9538423276
 31
0.0
 70
   160
  1
<>
 71
     2
 42
-1.0
  3
SLDDIMSTYLE0
100
AcDbAlignedDimension
 13
108.6294591561
 23
223.4538423276
 33
0.0
 14
108.6294591561
 24
96.4538423276
 34
0.0
 50
90.0
100
AcDbRotatedDimension
  0
DIMENSION
  5
13E
330
1F
100
AcDbEntity
  8
SLD-0
100
AcDbDimension
  2
_D_2
 10
128.9294591561
 20
83.8644346355
 30
0.0
 11
135.2794591561
 21
83.8644346355
 31
0.0
 70
   160
  1
<>
 71
     2
 42
-1.0
  3
SLDDIMSTYLE0
100
AcDbAlignedDimension
 13
141.6294591561
 23
109.1538423276
 33
0.0
 14
128.9294591561
 24
121.8538423276
 34
0.0
100
AcDbRotatedDimension
  0
DIMENSION
  5
148
330
1F
100
AcDbEntity
  8
SLD-0
100
AcDbDimension
  2
_D_3
 10
154.3294591561
 20
83.8644346355
 30
0.0
 11
147.9794591561
 21
83.8644346355
 31
0.0
 70
   160
  1
<>
 71
     2
 42
-1.0
  3
SLDDIMSTYLE0
100
AcDbAlignedDimension
 13
141.6294591561
 23
109.1538423276
 33
0.0
 14
154.3294591561
 24
121.8538423276
 34
0.0
100
AcDbRotatedDimension
  0
DIMENSION
  5
152
330
1F
100
AcDbEntity
  8
SLD-0
100
AcDbDimension
  2
_D_4
 10
116.2294591561
 20
73.5622474031
 30
0.0
 11
128.9294591561
 21
73.5622474031
 31
0.0
 70
   160
  1
<>
 71
     2
 42
-1.0
  3
SLDDIMSTYLE0
100
AcDbAlignedDimension
 13
141.6294591561
 23
109.1538423276
 33
0.0
 14
116.2294591561
 24
109.1538423276
 34
0.0
 50
0.0
100
AcDbRotatedDimension
  0
DIMENSION
  5
15C
330
1F
100
AcDbEntity
  8
SLD-0
100
AcDbDimension
  2
_D_5
 10
167.0294591561
 20
73.5622474031
 30
0.0
 11
154.3294591561
 21
73.5622474031
 31
0.0
 70
   160
  1
<>
 71
     2
 42
-1.0
  3
SLDDIMSTYLE0
100
AcDbAlignedDimension
 13
141.6294591561
 23
109.1538423276
 33
0.0
 14
167.0294591561
 24
109.1538423276
 34
0.0
 50
0.0
100
AcDbRotatedDimension
  0
DIMENSION
  5
166
330
1F
100
AcDbEntity
  8
SLD-0
100
AcDbDimension
  2
_D_6
 10
95.4108195043
 20
172.6538423276
 30
0.0
 11
95.4108195043
 21
166.3038423276
 31
0.0
 70
   160
  1
<>
 71
     2
 42
-1.0
  3
SLDDIMSTYLE0
100
AcDbAlignedDimension
 13
112.6767591561
 23
159.9538423276
 33
0.0
 14
128.9294591561
 24
172.6538423276
 34
0.0
 50
90.0
100
AcDbRotatedDimension
  0
DIMENSION
  5
170
330
1F
100
AcDbEntity
  8
SLD-0
100
AcDbDimension
  2
_D_7
 10
95.4108195043
 20
147.2538423276
 30
0.0
 11
95.4108195043
 21
153.6038423276
 31
0.0
 70
   160
  1
<>
 71
     2
 42
-1.0
  3
SLDDIMSTYLE0
100
AcDbAlignedDimension
 13
112.6767591561
 23
159.9538423276
 33
0.0
 14
128.9294591561
 24
147.2538423276
 34
0.0
 50
90.0
100
AcDbRotatedDimension
  0
DIMENSION
  5
17A
330
1F
100
AcDbEntity
  8
SLD-0
100
AcDbDimension
  2
_D_8
 10
84.9369091848
 20
134.5538423276
 30
0.0
 11
84.9369091848
 21
147.2538423276
 31
0.0
 70
   160
  1
<>
 71
     2
 42
-1.0
  3
SLDDIMSTYLE0
100
AcDbAlignedDimension
 13
112.6767591561
 23
159.9538423276
 33
0.0
 14
112.6767591561
 24
134.5538423276
 34
0.0
 50
90.0
100
AcDbRotatedDimension
  0
DIMENSION
  5
184
330
1F
100
AcDbEntity
  8
SLD-0
100
AcDbDimension
  2
_D_9
 10
84.9369091848
 20
185.3538423276
 30
0.0
 11
84.9369091848
 21
172.6538423276
 31
0.0
 70
   160
  1
<>
 71
     2
 42
-1.0
  3
SLDDIMSTYLE0
100
AcDbAlignedDimension
 13
112.6767591561
 23
159.9538423276
 33
0.0
 14
112.6767591561
 24
185.3538423276
 34
0.0
 50
90.0
100
AcDbRotatedDimension
  0
DIMENSION
  5
18E
330
1F
100
AcDbEntity
  8
SLD-0
100
AcDbDimension
  2
_D_10
 10
74.3827340695
 20
198.0538423276
 30
0.0
 11
74.3827340695
 21
179.0038423276
 31
0.0
 70
   160
  1
<>
 71
     2
 42
-1.0
  3
SLDDIMSTYLE0
100
AcDbAlignedDimension
 13
112.6767591561
 23
159.9538423276
 33
0.0
 14
128.9294591561
 24
198.0538423276
 34
0.0
 50
90.0
100
AcDbRotatedDimension
  0
DIMENSION
  5
198
330
1F
100
AcDbEntity
  8
SLD-0
100
AcDbDimension
  2
_D_11
 10
74.3827340695
 20
121.8538423276
 30
0.0
 11
74.3827340695
 21
140.9038423276
 31
0.0
 70
   160
  1
<>
 71
     2
 42
-1.0
  3
SLDDIMSTYLE0
100
AcDbAlignedDimension
 13
112.6767591561
 23
159.9538423276
 33
0.0
 14
126.2022591561
 24
121.8538423276
 34
0.0
 50
90.0
100
AcDbRotatedDimension
  0
DIMENSION
  5
1A2
330
1F
100
AcDbEntity
  8
SLD-0
100
AcDbDimension
  2
_D_12
 10
63.2730760534
 20
109.1538423276
 30
0.0
 11
63.2730760534
 21
134.5538423276
 31
0.0
 70
   160
  1
<>
 71
     2
 42
-1.0
  3
SLDDIMSTYLE0
100
AcDbAlignedDimension
 13
112.6767591561
 23
159.9538423276
 33
0.0
 14
116.2294591561
 24
109.1538423276
 34
0.0
 50
90.0
100
AcDbRotatedDimension
  0
DIMENSION
  5
1AC
330
1F
100
AcDbEntity
  8
SLD-0
100
AcDbDimension
  2
_D_13
 10
63.2730760534
 20
210.7538423276
 30
0.0
 11
63.2730760534
 21
185.3538423276
 31
0.0
 70
   160
  1
<>
 71
     2
 42
-1.0
  3
SLDDIMSTYLE0
100
AcDbAlignedDimension
 13
112.6767591561
 23
159.9538423276
 33
0.0
 14
112.6767591561
 24
210.7538423276
 34
0.0
 50
90.0
100
AcDbRotatedDimension
  0
DIMENSION
  5
1B6
330
1F
100
AcDbEntity
  8
SLD-0
100
AcDbDimension
  2
_D_14
 10
164.8187561079
 20
209.4774923276
 30
0.0
 11
199.5533581181
 21
226.682108383
 31
0.0
 70
   163
  1
14 HOLES,\P 1/4"-20
 71
     1
 42
-1.0
  3
SLDDIMSTYLE1
100
AcDbDiametricDimension
 15
169.2401622043
 25
212.0301923276
 35
0.0
 40
0.0
  0
DIMENSION
  5
1C0
330
1F
100
AcDbEntity
  8
SLD-0
100
AcDbDimension
  2
_D_15
 10
152.3176288451
 20
198.5929106348
 30
0.0
 11
199.5533581181
 21
195.3009817359
 31
0.0
 70
   163
  1
8 HOLES,\P 8-32
 71
     1
 42
-1.0
  3
SLDDIMSTYLE1
100
AcDbDiametricDimension
 15
156.3412894671
 25
197.5147740205
 35
0.0
 40
0.0
  0
DIMENSION
  5
1C9
330
1F
100
AcDbEntity
  8
SLD-0
100
AcDbDimension
  2
_D_16
 10
149.1733517481
 20
162.9307223276
 30
0.0
 11
203.9995064354
 21
146.6590505275
 31
0.0
 70
   163
  1
3 HOLES,\P 1/4"-20 CLR
 71
     1
 42
-1.0
  3
SLDDIMSTYLE1
100
AcDbDiametricDimension
 15
159.4855665641
 25
156.9769623276
 35
0.0
 40
0.0
  0
INSERT
  5
1DD
330
1F
100
AcDbEntity
  8
SLD-0
100
AcDbBlockReference
  2
SW_CENTERMARKSYMBOL_0
 10
116.2294591561
 20
109.1538423276
 30
0.0
  0
INSERT
  5
1E9
330
1F
100
AcDbEntity
  8
SLD-0
100
AcDbBlockReference
  2
SW_CENTERMARKSYMBOL_1
 10
141.6294591561
 20
109.1538423276
 30
0.0
  0
INSERT
  5
1F5
330
1F
100
AcDbEntity
  8
SLD-0
100
AcDbBlockReference
  2
SW_CENTERMARKSYMBOL_2
 10
167.0294591561
 20
109.1538423276
 30
0.0
  0
INSERT
  5
201
330
1F
100
AcDbEntity
  8
SLD-0
100
AcDbBlockReference
  2
SW_CENTERMARKSYMBOL_3
 10
154.3294591561
 20
121.8538423276
 30
0.0
  0
INSERT
  5
20D
330
1F
100
AcDbEntity
  8
SLD-0
100
AcDbBlockReference
  2
SW_CENTERMARKSYMBOL_4
 10
128.9294591561
 20
121.8538423276
 30
0.0
  0
INSERT
  5
219
330
1F
100
AcDbEntity
  8
SLD-0
100
AcDbBlockReference
  2
SW_CENTERMARKSYMBOL_5
 10
116.2294591561
 20
134.5538423276
 30
0.0
  0
INSERT
  5
225
330
1F
100
AcDbEntity
  8
SLD-0
100
AcDbBlockReference
  2
SW_CENTERMARKSYMBOL_6
 10
141.6294591561
 20
134.5538423276
 30
0.0
  0
INSERT
  5
231
330
1F
100
AcDbEntity
  8
SLD-0
100
AcDbBlockReference
  2
SW_CENTERMARKSYMBOL_7
 10
167.0294591561
 20
134.5538423276
 30
0.0
  0
INSERT
  5
23D
330
1F
100
AcDbEntity
  8
SLD-0
100
AcDbBlockReference
  2
SW_CENTERMARKSYMBOL_8
 10
154.3294591561
 20
147.2538423276
 30
0.0
  0
INSERT
  5
249
330
1F
100
AcDbEntity
  8
SLD-0
100
AcDbBlockReference
  2
SW_CENTERMARKSYMBOL_9
 10
128.9294591561
 20
147.2538423276
 30
0.0
  0
INSERT
  5
255
330
1F
100
AcDbEntity
  8
SLD-0
100
AcDbBlockReference
  2
SW_CENTERMARKSYMBOL_10
 10
116.2294591561
 20
159.9538423276
 30
0.0
  0
INSERT
  5
261
330
1F
100
AcDbEntity
  8
SLD-0
100
AcDbBlockReference
  2
SW_CENTERMARKSYMBOL_11
 10
128.9294591561
 20
159.9538423276
 30
0.0
  0
INSERT
  5
26D
330
1F
100
AcDbEntity
  8
SLD-0
100
AcDbBlockReference
  2
SW_CENTERMARKSYMBOL_12
 10
167.0294591561
 20
159.9538423276
 30
0.0
  0
INSERT
  5
279
330
1F
100
AcDbEntity
  8
SLD-0
100
AcDbBlockReference
  2
SW_CENTERMARKSYMBOL_13
 10
154.3294591561
 20
172.6538423276
 30
0.0
  0
INSERT
  5
285
330
1F
100
AcDbEntity
  8
SLD-0
100
AcDbBlockReference
  2
SW_CENTERMARKSYMBOL_14
 10
141.6294591561
 20
185.3538423276
 30
0.0
  0
INSERT
  5
291
330
1F
100
AcDbEntity
  8
SLD-0
100
AcDbBlockReference
  2
SW_CENTERMARKSYMBOL_15
 10
128.9294591561
 20
172.6538423276
 30
0.0
  0
INSERT
  5
29D
330
1F
100
AcDbEntity
  8
SLD-0
100
AcDbBlockReference
  2
SW_CENTERMARKSYMBOL_16
 10
167.0294591561
 20
185.3538423276
 30
0.0
  0
INSERT
  5
2A9
330
1F
100
AcDbEntity
  8
SLD-0
100
AcDbBlockReference
  2
SW_CENTERMARKSYMBOL_17
 10
116.2294591561
 20
185.3538423276
 30
0.0
  0
INSERT
  5
2B5
330
1F
100
AcDbEntity
  8
SLD-0
100
AcDbBlockReference
  2
SW_CENTERMARKSYMBOL_18
 10
154.3294591561
 20
198.0538423276
 30
0.0
  0
INSERT
  5
2C1
330
1F
100
AcDbEntity
  8
SLD-0
100
AcDbBlockReference
  2
SW_CENTERMARKSYMBOL_19
 10
128.9294591561
 20
198.0538423276
 30
0.0
  0
INSERT
  5
2CD
330
1F
100
AcDbEntity
  8
SLD-0
100
AcDbBlockReference
  2
SW_CENTERMARKSYMBOL_20
 10
116.2294591561
 20
210.7538423276
 30
0.0
  0
INSERT
  5
2D9
330
1F
100
AcDbEntity
  8
SLD-0
100
AcDbBlockReference
  2
SW_CENTERMARKSYMBOL_21
 10
141.6294591561
 20
210.7538423276
 30
0.0
  0
INSERT
  5
2E5
330
1F
100
AcDbEntity
  8
SLD-0
100
AcDbBlockReference
  2
SW_CENTERMARKSYMBOL_22
 10
167.0294591561
 20
210.7538423276
 30
0.0
  0
INSERT
  5
2F1
330
1F
100
AcDbEntity
  8
SLD-0
100
AcDbBlockReference
  2
SW_CENTERMARKSYMBOL_23
 10
154.3294591561
 20
159.9538423276
 30
0.0
  0
ARC
  5
2F2
330
1F
100
AcDbEntity
  8
0
  6
Continuous
 62
     7
370
     0
100
AcDbCircle
 10
154.3294591561
 20
121.8538423276
 30
0.0
 40
2.082800000000003
100
AcDbArc
 50
255.0
 51
195.0
  0
ARC
  5
2F3
330
1F
100
AcDbEntity
  8
0
  6
Continuous
 62
     7
370
     0
100
AcDbCircle
 10
154.3294591561
 20
147.2538423276
 30
0.0
 40
2.082800000000023
100
AcDbArc
 50
255.0
 51
195.0
  0
ARC
  5
2F4
330
1F
100
AcDbEntity
  8
0
  6
Continuous
 62
     7
370
     0
100
AcDbCircle
 10
154.3294591561
 20
172.6538423276
 30
0.0
 40
2.082800000000023
100
AcDbArc
 50
255.0
 51
195.0
  0
ARC
  5
2F5
330
1F
100
AcDbEntity
  8
0
  6
Continuous
 62
     7
370
     0
100
AcDbCircle
 10
154.3294591561
 20
198.0538423276
 30
0.0
 40
2.082800000000058
100
AcDbArc
 50
255.0
 51
195.0
  0
ARC
  5
2F6
330
1F
100
AcDbEntity
  8
0
  6
Continuous
 62
     7
370
     0
100
AcDbCircle
 10
128.9294591561
 20
198.0538423276
 30
0.0
 40
2.082800000000044
100
AcDbArc
 50
255.0
 51
195.0
  0
ARC
  5
2F7
330
1F
100
AcDbEntity
  8
0
  6
Continuous
 62
     7
370
     0
100
AcDbCircle
 10
128.9294591561
 20
172.6538423276
 30
0.0
 40
2.082799999999996
100
AcDbArc
 50
255.0
 51
195.0
  0
ARC
  5
2F8
330
1F
100
AcDbEntity
  8
0
  6
Continuous
 62
     7
370
     0
100
AcDbCircle
 10
128.9294591561
 20
147.2538423276
 30
0.0
 40
2.082800000000023
100
AcDbArc
 50
255.0
 51
195.0
  0
ARC
  5
2F9
330
1F
100
AcDbEntity
  8
0
  6
Continuous
 62
     7
370
     0
100
AcDbCircle
 10
128.9294591561
 20
121.8538423276
 30
0.0
 40
2.082800000000044
100
AcDbArc
 50
255.0
 51
195.0
  0
ARC
  5
2FA
330
1F
100
AcDbEntity
  8
0
  6
Continuous
 62
     7
370
     0
100
AcDbCircle
 10
141.6294591561
 20
134.5538423276
 30
0.0
 40
3.175000000000003
100
AcDbArc
 50
255.0
 51
195.0
  0
ARC
  5
2FB
330
1F
100
AcDbEntity
  8
0
  6
Continuous
 62
     7
370
     0
100
AcDbCircle
 10
141.6294591561
 20
109.1538423276
 30
0.0
 40
3.174999999999998
100
AcDbArc
 50
255.0
 51
195.0
  0
ARC
  5
2FC
330
1F
100
AcDbEntity
  8
0
  6
Continuous
 62
     7
370
     0
100
AcDbCircle
 10
141.6294591561
 20
210.7538423276
 30
0.0
 40
3.175000000000031
100
AcDbArc
 50
255.0
 51
195.0
  0
ARC
  5
2FD
330
1F
100
AcDbEntity
  8
0
  6
Continuous
 62
     7
370
     0
100
AcDbCircle
 10
141.6294591561
 20
185.3538423276
 30
0.0
 40
3.174999999999976
100
AcDbArc
 50
255.0
 51
195.0
  0
ARC
  5
2FE
330
1F
100
AcDbEntity
  8
0
  6
Continuous
 62
     7
370
     0
100
AcDbCircle
 10
167.0294591561
 20
109.1538423276
 30
0.0
 40
3.175000000000011
100
AcDbArc
 50
255.0
 51
195.0
  0
ARC
  5
2FF
330
1F
100
AcDbEntity
  8
0
  6
Continuous
 62
     7
370
     0
100
AcDbCircle
 10
167.0294591561
 20
134.5538423276
 30
0.0
 40
3.175000000000046
100
AcDbArc
 50
255.0
 51
195.0
  0
ARC
  5
300
330
1F
100
AcDbEntity
  8
0
  6
Continuous
 62
     7
370
     0
100
AcDbCircle
 10
167.0294591561
 20
159.9538423276
 30
0.0
 40
3.175000000000011
100
AcDbArc
 50
255.0
 51
195.0
  0
ARC
  5
301
330
1F
100
AcDbEntity
  8
0
  6
Continuous
 62
     7
370
     0
100
AcDbCircle
 10
167.0294591561
 20
185.3538423276
 30
0.0
 40
3.174999999999991
100
AcDbArc
 50
255.0
 51
195.0
  0
ARC
  5
302
330
1F
100
AcDbEntity
  8
0
  6
Continuous
 62
     7
370
     0
100
AcDbCircle
 10
167.0294591561
 20
210.7538423276
 30
0.0
 40
3.174999999999984
100
AcDbArc
 50
255.0
 51
195.0
  0
ARC
  5
303
330
1F
100
AcDbEntity
  8
0
  6
Continuous
 62
     7
370
     0
100
AcDbCircle
 10
116.2294591561
 20
210.7538423276
 30
0.0
 40
3.175000000000062
100
AcDbArc
 50
255.0
 51
195.0
  0
ARC
  5
304
330
1F
100
AcDbEntity
  8
0
  6
Continuous
 62
     7
370
     0
100
AcDbCircle
 10
116.2294591561
 20
185.3538423276
 30
0.0
 40
3.174999999999984
100
AcDbArc
 50
255.0
 51
195.0
  0
ARC
  5
305
330
1F
100
AcDbEntity
  8
0
  6
Continuous
 62
     7
370
     0
100
AcDbCircle
 10
116.2294591561
 20
159.9538423276
 30
0.0
 40
3.175000000000011
100
AcDbArc
 50
255.0
 51
195.0
  0
ARC
  5
306
330
1F
100
AcDbEntity
  8
0
  6
Continuous
 62
     7
370
     0
100
AcDbCircle
 10
116.2294591561
 20
134.5538423276
 30
0.0
 40
3.175000000000018
100
AcDbArc
 50
255.0
 51
195.0
  0
ARC
  5
307
330
1F
100
AcDbEntity
  8
0
  6
Continuous
 62
     7
370
     0
100
AcDbCircle
 10
116.2294591561
 20
109.1538423276
 30
0.0
 40
3.175000000000015
100
AcDbArc
 50
255.0
 51
195.0
  0
LINE
  5
308
330
1F
100
AcDbEntity
  8
SLD-0
  6
CENTERX2
370
     0
100
AcDbLine
 10
141.6294591561
 20
227.5006444489
 30
0.0
 11
141.6294591561
 21
92.792192709
 31
0.0
  0
LINE
  5
309
330
1F
100
AcDbEntity
  8
SLD-0
  6
CENTERX2
370
     0
100
AcDbLine
 10
97.7597575997
 20
159.9538423276
 30
0.0
 11
184.6155719819
 21
159.9538423276
 31
0.0
  0
LINE
  5
30A
330
1F
100
AcDbEntity
  8
0
  6
Continuous
 62
     7
370
    30
100
AcDbLine
 10
242.7451747069
 20
223.4538423276
 30
0.0
 11
255.4451747069
 21
223.4538423276
 31
0.0
  0
LINE
  5
30B
330
1F
100
AcDbEntity
  8
0
  6
Continuous
 62
     7
370
    30
100
AcDbLine
 10
255.4451747069
 20
218.4538423276
 30
0.0
 11
242.7451747069
 21
218.4538423276
 31
0.0
  0
LINE
  5
30C
330
1F
100
AcDbEntity
  8
0
  6
Continuous
 62
     7
370
    30
100
AcDbLine
 10
242.7451747069
 20
218.4538423276
 30
0.0
 11
242.7451747069
 21
223.4538423276
 31
0.0
  0
LINE
  5
30D
330
1F
100
AcDbEntity
  8
0
  6
Continuous
 62
     7
370
    30
100
AcDbLine
 10
255.4451747069
 20
223.4538423276
 30
0.0
 11
255.4451747069
 21
218.4538423276
 31
0.0
  0
LINE
  5
30E
330
1F
100
AcDbEntity
  8
0
  6
Continuous
 62
     7
370
    30
100
AcDbLine
 10
242.7451747069
 20
101.4538423276
 30
0.0
 11
255.4451747069
 21
101.4538423276
 31
0.0
  0
LINE
  5
30F
330
1F
100
AcDbEntity
  8
0
  6
Continuous
 62
     7
370
    30
100
AcDbLine
 10
242.7451747069
 20
101.4538423276
 30
0.0
 11
242.7451747069
 21
218.4538423276
 31
0.0
  0
LINE
  5
310
330
1F
100
AcDbEntity
  8
0
  6
Continuous
 62
     7
370
    30
100
AcDbLine
 10
255.4451747069
 20
101.4538423276
 30
0.0
 11
255.4451747069
 21
218.4538423276
 31
0.0
  0
LINE
  5
311
330
1F
100
AcDbEntity
  8
0
  6
Continuous
 62
     7
370
    30
100
AcDbLine
 10
255.4451747069
 20
96.4538423276
 30
0.0
 11
242.7451747069
 21
96.4538423276
 31
0.0
  0
LINE
  5
312
330
1F
100
AcDbEntity
  8
0
  6
Continuous
 62
     7
370
    30
100
AcDbLine
 10
242.7451747069
 20
96.4538423276
 30
0.0
 11
242.7451747069
 21
101.4538423276
 31
0.0
  0
LINE
  5
313
330
1F
100
AcDbEntity
  8
0
  6
Continuous
 62
     7
370
    30
100
AcDbLine
 10
255.4451747069
 20
101.4538423276
 30
0.0
 11
255.4451747069
 21
96.4538423276
 31
0.0
  0
DIMENSION
  5
314
330
1F
100
AcDbEntity
  8
SLD-0
 62
     7
100
AcDbDimension
  2
_D_17
 10
255.4451747069
 20
81.5609863154
 30
0.0
 11
249.0951747069
 21
81.5609863154
 31
0.0
 70
   160
  1
<>
 71
     2
 42
-1.0
  3
SLDDIMSTYLE0
100
AcDbAlignedDimension
 13
242.7451747069
 23
96.4538423276
 33
0.0
 14
255.4451747069
 24
96.4538423276
 34
0.0
100
AcDbRotatedDimension
  0
LINE
  5
31E
330
1F
100
AcDbEntity
  8
0
  6
Continuous
 62
     7
370
    30
100
AcDbLine
 10
401.578752645
 20
218.2645907119
 30
0.0
 11
401.578752645
 21
226.0421419451
 31
0.0
  0
LINE
  5
31F
330
1F
100
AcDbEntity
  8
0
  6
Continuous
 62
     7
370
    30
100
AcDbLine
 10
297.0283469272
 20
241.6559470837
 30
0.0
 11
297.0283469272
 21
233.8783958505
 31
0.0
  0
LINE
  5
320
330
1F
100
AcDbEntity
  8
0
  6
Continuous
 62
     7
370
    30
100
AcDbLine
 10
365.4786174057
 20
204.3052759678
 30
0.0
 11
365.4786174057
 21
196.5277247346
 31
0.0
  0
ARC
  5
321
330
1F
100
AcDbEntity
  8
0
  6
Continuous
 62
     7
370
    30
100
AcDbCircle
 10
362.8269669763
 20
201.5979329197
 30
0.0
 40
5.721735841473428
100
AcDbArc
 50
242.3910402158
 51
297.6089597842
  0
LINE
  5
322
330
1F
100
AcDbEntity
  8
0
  6
Continuous
 62
     7
370
    30
100
AcDbLine
 10
360.1753165468
 20
196.5277247346
 30
0.0
 11
360.1753165468
 21
204.3052759678
 31
0.0
  0
ARC
  5
323
330
1F
100
AcDbEntity
  8
0
  6
Continuous
 62
     7
370
    30
100
AcDbCircle
 10
362.8269669763
 20
209.3754841529
 30
0.0
 40
5.72173584147378
100
AcDbArc
 50
242.3910402158
 51
297.6089597842
  0
LINE
  5
324
330
1F
100
AcDbEntity
  8
0
  6
Continuous
 62
     7
370
    30
100
AcDbLine
 10
298.1266964977
 20
240.1251818741
 30
0.0
 11
360.1753165468
 21
204.3052759678
 31
0.0
  0
LWPOLYLINE
  5
325
330
1F
100
AcDbEntity
  8
0
  6
Continuous
 62
     7
370
    30
100
AcDbPolyline
 90
       11
 70
   128
 43
0.0
 10
298.1266964977
 20
243.1867122934
 10
297.7445331983
 20
242.9284015968
 10
297.4370724615
 20
242.6387588471
 10
297.2118849911
 20
242.32491601
 10
297.0745156499
 20
241.9946009378
 10
297.0283469272
 20
241.6559470837
 10
297.0745156499
 20
241.3172932297
 10
297.2118849911
 20
240.9869781574
 10
297.4370724615
 20
240.6731353203
 10
297.7445331983
 20
240.3834925706
 10
298.1266964977
 20
240.1251818741
  0
LINE
  5
326
330
1F
100
AcDbEntity
  8
0
  6
Continuous
 62
     7
370
    30
100
AcDbLine
 10
333.1284821664
 20
263.392813061
 30
0.0
 11
298.1266964977
 21
243.1867122934
 31
0.0
  0
ARC
  5
327
330
1F
100
AcDbEntity
  8
0
  6
Continuous
 62
     7
370
    30
100
AcDbCircle
 10
335.7801325959
 20
258.322604876
 30
0.0
 40
5.721735841473957
100
AcDbArc
 50
62.3910402158
 51
117.6089597842
  0
LINE
  5
328
330
1F
100
AcDbEntity
  8
0
  6
Continuous
 62
     7
370
    30
100
AcDbLine
 10
400.4804030745
 20
227.5729071548
 30
0.0
 11
338.4317830253
 21
263.392813061
 31
0.0
  0
LWPOLYLINE
  5
329
330
1F
100
AcDbEntity
  8
0
  6
Continuous
 62
     7
370
    30
100
AcDbPolyline
 90
       11
 70
   128
 43
0.0
 10
400.4804030745
 20
224.5113767354
 10
400.8625663739
 20
224.769687432
 10
401.1700271107
 20
225.0593301817
 10
401.3952145811
 20
225.3731730188
 10
401.5325839222
 20
225.7034880911
 10
401.578752645
 20
226.0421419451
 10
401.5325839222
 20
226.3807957992
 10
401.3952145811
 20
226.7111108714
 10
401.1700271107
 20
227.0249537085
 10
400.8625663739
 20
227.3145964582
 10
400.4804030745
 20
227.5729071548
  0
LINE
  5
32A
330
1F
100
AcDbEntity
  8
0
  6
Continuous
 62
     7
370
    30
100
AcDbLine
 10
365.4786174057
 20
204.3052759678
 30
0.0
 11
400.4804030745
 21
224.5113767354
 31
0.0
  0
LWPOLYLINE
  5
32B
330
1F
100
AcDbEntity
  8
0
  6
Continuous
 62
     7
370
    30
100
AcDbPolyline
 90
       44
 70
   128
 43
0.0
 10
339.4108996431
 20
228.1381391469
 10
339.9042770909
 20
227.8921674107
 10
340.4544347915
 20
227.6902871368
 10
341.0496470887
 20
227.5368010527
 10
341.6772280657
 20
227.4349804479
 10
342.3238019237
 20
227.3869954518
 10
342.9755880634
 20
227.3938687812
 10
343.6186947948
 20
227.4554539431
 10
344.2394154144
 20
227.5704383567
 10
344.82452034
 20
227.7363713288
 10
345.3615390759
 20
227.9497162862
 10
345.839026
 20
228.2059261515
 10
346.2468043075
 20
228.4995402563
 10
346.5761829119
 20
228.8243007257
 10
346.8201416799
 20
229.1732858541
 10
346.9734810541
 20
229.5390576294
 10
347.0329328718
 20
229.9138202613
 10
346.9972300208
 20
230.2895863349
 10
346.8671334454
 20
230.6583470486
 10
346.6454159281
 20
231.0122429082
 10
346.3368029931
 20
231.3437312378
 10
345.9478721891
 20
231.6457469392
 10
345.486912901
 20
231.9118530719
 10
344.9637496757
 20
232.1363780459
 10
344.3895328292
 20
232.3145365011
 10
343.7765007965
 20
232.4425312994
 10
343.1377192911
 20
232.5176344538
 10
342.4868028318
 20
232.5382452709
 10
341.8376245728
 20
232.5039244671
 10
341.2040206217
 20
232.4154035306
 10
340.5994951466
 20
232.2745691316
 10
340.0369325585
 20
232.0844229107
 10
339.5283229022
 20
231.8490175045
 10
339.0845063096
 20
231.5733701705
 10
338.7149419608
 20
231.2633558531
 10
338.4275064782
 20
230.9255819693
 10
338.2283260503
 20
230.5672475829
 10
338.1216458618
 20
230.1959899694
 10
338.109739616
 20
229.81972184
 10
338.1928610737
 20
229.4464626968
 10
338.3692386453
 20
229.0841679104
 10
338.6351131492
 20
228.7405591652
 10
338.9848179319
 20
228.4229598849
 10
339.4108996431
 20
228.1381391469
  0
LWPOLYLINE
  5
32C
330
1F
100
AcDbEntity
  8
0
  6
Continuous
 62
     7
370
    30
100
AcDbPolyline
 90
       44
 70
   128
 43
0.0
 10
346.1460917339
 20
232.0262827795
 10
346.6394691817
 20
231.7803110433
 10
347.1896268823
 20
231.5784307694
 10
347.7848391795
 20
231.4249446853
 10
348.4124201565
 20
231.3231240805
 10
349.0589940145
 20
231.2751390844
 10
349.7107801542
 20
231.2820124138
 10
350.3538868856
 20
231.3435975757
 10
350.9746075052
 20
231.4585819892
 10
351.5597124308
 20
231.6245149613
 10
352.0967311667
 20
231.8378599187
 10
352.5742180908
 20
232.0940697841
 10
352.9819963983
 20
232.3876838889
 10
353.3113750027
 20
232.7124443583
 10
353.5553337707
 20
233.0614294867
 10
353.7086731449
 20
233.427201262
 10
353.7681249626
 20
233.8019638939
 10
353.7324221116
 20
234.1777299674
 10
353.6023255362
 20
234.5464906812
 10
353.3806080189
 20
234.9003865408
 10
353.0719950839
 20
235.2318748704
 10
352.6830642799
 20
235.5338905717
 10
352.2221049918
 20
235.7999967045
 10
351.6989417665
 20
236.0245216785
 10
351.12472492
 20
236.2026801337
 10
350.5116928873
 20
236.330674932
 10
349.8729113819
 20
236.4057780863
 10
349.2219949226
 20
236.4263889035
 10
348.5728166636
 20
236.3920680997
 10
347.9392127125
 20
236.3035471632
 10
347.3346872374
 20
236.1627127641
 10
346.7721246493
 20
235.9725665432
 10
346.263514993
 20
235.737161137
 10
345.8196984004
 20
235.461513803
 10
345.4501340516
 20
235.1514994857
 10
345.162698569
 20
234.8137256019
 10
344.9635181411
 20
234.4553912155
 10
344.8568379526
 20
234.0841336019
 10
344.8449317068
 20
233.7078654726
 10
344.9280531645
 20
233.3346063294
 10
345.1044307361
 20
232.972311543
 10
345.37030524
 20
232.6287027977
 10
345.7200100227
 20
232.3111035175
 10
346.1460917339
 20
232.0262827795
  0
LWPOLYLINE
  5
32D
330
1F
100
AcDbEntity
  8
0
  6
Continuous
 62
     7
370
    30
100
AcDbPolyline
 90
       44
 70
   128
 43
0.0
 10
352.8812838247
 20
235.914426412
 10
353.3746612725
 20
235.6684546758
 10
353.9248189731
 20
235.4665744019
 10
354.5200312703
 20
235.3130883179
 10
355.1476122473
 20
235.211267713
 10
355.7941861053
 20
235.1632827169
 10
356.445972245
 20
235.1701560463
 10
357.0890789764
 20
235.2317412082
 10
357.709799596
 20
235.3467256218
 10
358.2949045216
 20
235.5126585939
 10
358.8319232575
 20
235.7260035513
 10
359.3094101816
 20
235.9822134166
 10
359.7171884891
 20
236.2758275214
 10
360.0465670935
 20
236.6005879908
 10
360.2905258615
 20
236.9495731192
 10
360.4438652357
 20
237.3153448946
 10
360.5033170534
 20
237.6901075264
 10
360.4676142024
 20
238.0658736
 10
360.337517627
 20
238.4346343137
 10
360.1158001098
 20
238.7885301733
 10
359.8071871747
 20
239.1200185029
 10
359.4182563707
 20
239.4220342043
 10
358.9572970826
 20
239.6881403371
 10
358.4341338573
 20
239.9126653111
 10
357.8599170108
 20
240.0908237663
 10
357.2468849781
 20
240.2188185645
 10
356.6081034727
 20
240.2939217189
 10
355.9571870134
 20
240.3145325361
 10
355.3080087544
 20
240.2802117322
 10
354.6744048033
 20
240.1916907957
 10
354.0698793282
 20
240.0508563967
 10
353.5073167401
 20
239.8607101758
 10
352.9987070838
 20
239.6253047696
 10
352.5548904912
 20
239.3496574356
 10
352.1853261424
 20
239.0396431182
 10
351.8978906598
 20
238.7018692344
 10
351.6987102319
 20
238.3435348481
 10
351.5920300434
 20
237.9722772345
 10
351.5801237976
 20
237.5960091051
 10
351.6632452553
 20
237.222749962
 10
351.8396228269
 20
236.8604551756
 10
352.1054973308
 20
236.5168464303
 10
352.4552021135
 20
236.19924715
 10
352.8812838247
 20
235.914426412
  0
LWPOLYLINE
  5
32E
330
1F
100
AcDbEntity
  8
0
  6
Continuous
 62
     7
370
    30
100
AcDbPolyline
 90
       24
 70
   128
 43
0.0
 10
375.3283320249
 20
225.5439697153
 10
375.609429374
 20
225.4209134221
 10
375.937613519
 20
225.3462014037
 10
376.2885445434
 20
225.3253747085
 10
376.6361954985
 20
225.3599779574
 10
376.9547827033
 20
225.4474447856
 10
377.2206780023
 20
225.5812881786
 10
377.4141611576
 20
225.7515815842
 10
377.5208824085
 20
225.9456951197
 10
377.5329267283
 20
226.149232272
 10
377.4494008448
 20
226.3470976218
 10
377.2764994906
 20
226.5246164011
 10
377.0270459683
 20
226.6686228543
 10
376.7195411043
 20
226.7684366815
 10
376.3767911278
 20
226.8166551477
 10
376.0242162365
 20
226.8097021099
 10
375.6879652972
 20
226.748093243
 10
375.3929765038
 20
226.636397795
 10
375.1611278255
 20
226.4828997062
 10
375.0096144184
 20
226.2989832277
 10
374.9496733385
 20
226.0982886032
 10
374.9857501417
 20
225.895700435
 10
375.1151691764
 20
225.7062437608
 10
375.3283320249
 20
225.5439697153
  0
LWPOLYLINE
  5
32F
330
1F
100
AcDbEntity
  8
0
  6
Continuous
 62
     7
370
    30
100
AcDbPolyline
 90
       24
 70
   128
 43
0.0
 10
361.8579478433
 20
233.3202569804
 10
362.1390451924
 20
233.1972006873
 10
362.4672293374
 20
233.1224886688
 10
362.8181603618
 20
233.1016619736
 10
363.1658113169
 20
233.1362652225
 10
363.4843985217
 20
233.2237320507
 10
363.7502938207
 20
233.3575754437
 10
363.9437769759
 20
233.5278688493
 10
364.0504982269
 20
233.7219823848
 10
364.0625425467
 20
233.9255195371
 10
363.9790166632
 20
234.1233848869
 10
363.806115309
 20
234.3009036662
 10
363.5566617867
 20
234.4449101194
 10
363.2491569227
 20
234.5447239466
 10
362.9064069462
 20
234.5929424128
 10
362.5538320549
 20
234.585989375
 10
362.2175811156
 20
234.5243805082
 10
361.9225923222
 20
234.4126850601
 10
361.6907436439
 20
234.2591869713
 10
361.5392302368
 20
234.0752704928
 10
361.4792891569
 20
233.8745758683
 10
361.5153659601
 20
233.6719877001
 10
361.6447849948
 20
233.4825310259
 10
361.8579478433
 20
233.3202569804
  0
LWPOLYLINE
  5
330
330
1F
100
AcDbEntity
  8
0
  6
Continuous
 62
     7
370
    30
100
AcDbPolyline
 90
       24
 70
   128
 43
0.0
 10
348.3875636617
 20
241.0965442455
 10
348.6686610108
 20
240.9734879524
 10
348.9968451558
 20
240.8987759339
 10
349.3477761802
 20
240.8779492388
 10
349.6954271353
 20
240.9125524876
 10
350.0140143401
 20
241.0000193158
 10
350.2799096391
 20
241.1338627088
 10
350.4733927943
 20
241.3041561144
 10
350.5801140453
 20
241.4982696499
 10
350.5921583651
 20
241.7018068022
 10
350.5086324816
 20
241.899672152
 10
350.3357311274
 20
242.0771909313
 10
350.0862776051
 20
242.2211973845
 10
349.7787727411
 20
242.3210112117
 10
349.4360227646
 20
242.3692296779
 10
349.0834478733
 20
242.3622766401
 10
348.747196934
 20
242.3006677733
 10
348.4522081405
 20
242.1889723252
 10
348.2203594623
 20
242.0354742364
 10
348.0688460552
 20
241.8515577579
 10
348.0089049753
 20
241.6508631334
 10
348.0449817785
 20
241.4482749652
 10
348.1744008132
 20
241.258818291
 10
348.3875636617
 20
241.0965442455
  0
LWPOLYLINE
  5
331
330
1F
100
AcDbEntity
  8
0
  6
Continuous
 62
     7
370
    30
100
AcDbPolyline
 90
       24
 70
   128
 43
0.0
 10
334.9171794801
 20
248.8728315106
 10
335.1982768292
 20
248.7497752175
 10
335.5264609742
 20
248.675063199
 10
335.8773919986
 20
248.6542365039
 10
336.2250429537
 20
248.6888397527
 10
336.5436301585
 20
248.7763065809
 10
336.8095254575
 20
248.9101499739
 10
337.0030086127
 20
249.0804433795
 10
337.1097298637
 20
249.274556915
 10
337.1217741835
 20
249.4780940673
 10
337.0382483
 20
249.6759594171
 10
336.8653469458
 20
249.8534781964
 10
336.6158934235
 20
249.9974846496
 10
336.3083885595
 20
250.0972984768
 10
335.965638583
 20
250.145516943
 10
335.6130636917
 20
250.1385639052
 10
335.2768127524
 20
250.0769550384
 10
334.9818239589
 20
249.9652595904
 10
334.7499752807
 20
249.8117615015
 10
334.5984618736
 20
249.627845023
 10
334.5385207937
 20
249.4271503985
 10
334.5745975969
 20
249.2245622303
 10
334.7040166316
 20
249.0351055561
 10
334.9171794801
 20
248.8728315106
  0
LWPOLYLINE
  5
332
330
1F
100
AcDbEntity
  8
0
  6
Continuous
 62
     7
370
    30
100
AcDbPolyline
 90
       24
 70
   128
 43
0.0
 10
321.4467952985
 20
241.0965442455
 10
321.7278926476
 20
240.9734879524
 10
322.0560767926
 20
240.8987759339
 10
322.407007817
 20
240.8779492388
 10
322.7546587721
 20
240.9125524876
 10
323.0732459769
 20
241.0000193158
 10
323.3391412759
 20
241.1338627088
 10
323.5326244311
 20
241.3041561144
 10
323.6393456821
 20
241.4982696499
 10
323.6513900019
 20
241.7018068022
 10
323.5678641184
 20
241.899672152
 10
323.3949627642
 20
242.0771909313
 10
323.1455092419
 20
242.2211973845
 10
322.8380043779
 20
242.3210112117
 10
322.4952544014
 20
242.3692296779
 10
322.1426795101
 20
242.3622766401
 10
321.8064285708
 20
242.3006677733
 10
321.5114397773
 20
242.1889723252
 10
321.2795910991
 20
242.0354742364
 10
321.128077692
 20
241.8515577579
 10
321.0681366121
 20
241.6508631334
 10
321.1042134153
 20
241.4482749652
 10
321.23363245
 20
241.258818291
 10
321.4467952985
 20
241.0965442455
  0
LWPOLYLINE
  5
333
330
1F
100
AcDbEntity
  8
0
  6
Continuous
 62
     7
370
    30
100
AcDbPolyline
 90
       24
 70
   128
 43
0.0
 10
334.9171794801
 20
233.3202569804
 10
335.1982768292
 20
233.1972006873
 10
335.5264609742
 20
233.1224886688
 10
335.8773919986
 20
233.1016619736
 10
336.2250429537
 20
233.1362652225
 10
336.5436301585
 20
233.2237320507
 10
336.8095254575
 20
233.3575754437
 10
337.0030086127
 20
233.5278688493
 10
337.1097298637
 20
233.7219823848
 10
337.1217741835
 20
233.9255195371
 10
337.0382483
 20
234.1233848869
 10
336.8653469458
 20
234.3009036662
 10
336.6158934235
 20
234.4449101194
 10
336.3083885595
 20
234.5447239466
 10
335.965638583
 20
234.5929424128
 10
335.6130636917
 20
234.585989375
 10
335.2768127524
 20
234.5243805082
 10
334.9818239589
 20
234.4126850601
 10
334.7499752807
 20
234.2591869713
 10
334.5984618736
 20
234.0752704928
 10
334.5385207937
 20
233.8745758683
 10
334.5745975969
 20
233.6719877001
 10
334.7040166316
 20
233.4825310259
 10
334.9171794801
 20
233.3202569804
  0
LWPOLYLINE
  5
334
330
1F
100
AcDbEntity
  8
0
  6
Continuous
 62
     7
370
    30
100
AcDbPolyline
 90
       24
 70
   128
 43
0.0
 10
348.3875636617
 20
225.5439697153
 10
348.6686610108
 20
225.4209134221
 10
348.9968451558
 20
225.3462014037
 10
349.3477761802
 20
225.3253747085
 10
349.6954271353
 20
225.3599779574
 10
350.0140143401
 20
225.4474447856
 10
350.2799096391
 20
225.5812881786
 10
350.4733927943
 20
225.7515815842
 10
350.5801140453
 20
225.9456951197
 10
350.5921583651
 20
226.149232272
 10
350.5086324816
 20
226.3470976218
 10
350.3357311274
 20
226.5246164011
 10
350.0862776051
 20
226.6686228543
 10
349.7787727411
 20
226.7684366815
 10
349.4360227646
 20
226.8166551477
 10
349.0834478733
 20
226.8097021099
 10
348.747196934
 20
226.748093243
 10
348.4522081405
 20
226.636397795
 10
348.2203594623
 20
226.4828997062
 10
348.0688460552
 20
226.2989832277
 10
348.0089049753
 20
226.0982886032
 10
348.0449817785
 20
225.895700435
 10
348.1744008132
 20
225.7062437608
 10
348.3875636617
 20
225.5439697153
  0
LWPOLYLINE
  5
335
330
1F
100
AcDbEntity
  8
0
  6
Continuous
 62
     7
370
    30
100
AcDbPolyline
 90
       24
 70
   128
 43
0.0
 10
361.8579478433
 20
217.7676824502
 10
362.1390451924
 20
217.644626157
 10
362.4672293374
 20
217.5699141386
 10
362.8181603618
 20
217.5490874434
 10
363.1658113169
 20
217.5836906923
 10
363.4843985217
 20
217.6711575204
 10
363.7502938207
 20
217.8050009134
 10
363.9437769759
 20
217.9752943191
 10
364.0504982269
 20
218.1694078545
 10
364.0625425467
 20
218.3729450069
 10
363.9790166632
 20
218.5708103566
 10
363.806115309
 20
218.748329136
 10
363.5566617867
 20
218.8923355892
 10
363.2491569227
 20
218.9921494164
 10
362.9064069462
 20
219.0403678826
 10
362.5538320549
 20
219.0334148447
 10
362.2175811156
 20
218.9718059779
 10
361.9225923222
 20
218.8601105299
 10
361.6907436439
 20
218.7066124411
 10
361.5392302368
 20
218.5226959625
 10
361.4792891569
 20
218.3220013381
 10
361.5153659601
 20
218.1194131699
 10
361.6447849948
 20
217.9299564957
 10
361.8579478433
 20
217.7676824502
  0
LWPOLYLINE
  5
336
330
1F
100
AcDbEntity
  8
0
  6
Continuous
 62
     7
370
    30
100
AcDbPolyline
 90
       29
 70
   128
 43
0.0
 10
361.4201603574
 20
225.2912403792
 10
361.7553452564
 20
225.1369307749
 10
362.1416064466
 20
225.0295474178
 10
362.5595751791
 20
224.9744749576
 10
362.9882927563
 20
224.9744749576
 10
363.4062614888
 20
225.0295474178
 10
363.792522679
 20
225.1369307749
 10
364.1277075779
 20
225.2912403792
 10
364.3950086152
 20
225.4847385026
 10
364.5810222007
 20
225.7077223414
 10
364.6764208363
 20
225.9490105547
 10
364.6764208363
 20
226.196503944
 10
364.5810222007
 20
226.4377921572
 10
364.3950086152
 20
226.660775996
 10
364.1277075779
 20
226.8542741195
 10
363.792522679
 20
227.0085837237
 10
363.4062614888
 20
227.1159670808
 10
362.9882927563
 20
227.171039541
 10
362.5595751791
 20
227.171039541
 10
362.1416064466
 20
227.1159670808
 10
361.7553452564
 20
227.0085837237
 10
361.4201603574
 20
226.8542741195
 10
361.1528593202
 20
226.660775996
 10
360.9668457347
 20
226.4377921572
 10
360.871447099
 20
226.196503944
 10
360.871447099
 20
225.9490105547
 10
360.9668457347
 20
225.7077223414
 10
361.1528593202
 20
225.4847385026
 10
361.4201603574
 20
225.2912403792
  0
LWPOLYLINE
  5
337
330
1F
100
AcDbEntity
  8
0
  6
Continuous
 62
     7
370
    30
100
AcDbPolyline
 90
       29
 70
   128
 43
0.0
 10
374.890544539
 20
217.5149531141
 10
375.225729438
 20
217.3606435098
 10
375.6119906282
 20
217.2532601527
 10
376.0299593607
 20
217.1981876925
 10
376.4586769379
 20
217.1981876925
 10
376.8766456704
 20
217.2532601527
 10
377.2629068606
 20
217.3606435098
 10
377.5980917595
 20
217.5149531141
 10
377.8653927968
 20
217.7084512375
 10
378.0514063823
 20
217.9314350763
 10
378.1468050179
 20
218.1727232896
 10
378.1468050179
 20
218.4202166788
 10
378.0514063823
 20
218.6615048921
 10
377.8653927968
 20
218.8844887309
 10
377.5980917595
 20
219.0779868543
 10
377.2629068606
 20
219.2322964586
 10
376.8766456704
 20
219.3396798157
 10
376.4586769379
 20
219.3947522759
 10
376.0299593607
 20
219.3947522759
 10
375.6119906282
 20
219.3396798157
 10
375.225729438
 20
219.2322964586
 10
374.890544539
 20
219.0779868543
 10
374.6232435018
 20
218.8844887309
 10
374.4372299163
 20
218.6615048921
 10
374.3418312807
 20
218.4202166788
 10
374.3418312807
 20
218.1727232896
 10
374.4372299163
 20
217.9314350763
 10
374.6232435018
 20
217.7084512375
 10
374.890544539
 20
217.5149531141
  0
LWPOLYLINE
  5
338
330
1F
100
AcDbEntity
  8
0
  6
Continuous
 62
     7
370
    30
100
AcDbPolyline
 90
       29
 70
   128
 43
0.0
 10
321.0090078126
 20
248.6201021745
 10
321.3441927116
 20
248.4657925703
 10
321.7304539018
 20
248.3584092131
 10
322.1484226343
 20
248.303336753
 10
322.5771402115
 20
248.303336753
 10
322.995108944
 20
248.3584092131
 10
323.3813701342
 20
248.4657925703
 10
323.7165550331
 20
248.6201021745
 10
323.9838560704
 20
248.8136002979
 10
324.1698696558
 20
249.0365841367
 10
324.2652682915
 20
249.27787235
 10
324.2652682915
 20
249.5253657393
 10
324.1698696558
 20
249.7666539526
 10
323.9838560704
 20
249.9896377913
 10
323.7165550331
 20
250.1831359148
 10
323.3813701342
 20
250.337445519
 10
322.995108944
 20
250.4448288762
 10
322.5771402115
 20
250.4999013363
 10
322.1484226343
 20
250.4999013363
 10
321.7304539018
 20
250.4448288762
 10
321.3441927116
 20
250.337445519
 10
321.0090078126
 20
250.1831359148
 10
320.7417067754
 20
249.9896377913
 10
320.5556931899
 20
249.7666539526
 10
320.4602945542
 20
249.5253657393
 10
320.4602945542
 20
249.27787235
 10
320.5556931899
 20
249.0365841367
 10
320.7417067754
 20
248.8136002979
 10
321.0090078126
 20
248.6201021745
  0
LWPOLYLINE
  5
339
330
1F
100
AcDbEntity
  8
0
  6
Continuous
 62
     7
370
    30
100
AcDbPolyline
 90
       29
 70
   128
 43
0.0
 10
334.4793919942
 20
240.8438149094
 10
334.8145768932
 20
240.6895053051
 10
335.2008380834
 20
240.582121948
 10
335.6188068159
 20
240.5270494879
 10
336.0475243931
 20
240.5270494879
 10
336.4654931256
 20
240.582121948
 10
336.8517543158
 20
240.6895053051
 10
337.1869392147
 20
240.8438149094
 10
337.454240252
 20
241.0373130328
 10
337.6402538374
 20
241.2602968716
 10
337.7356524731
 20
241.5015850849
 10
337.7356524731
 20
241.7490784742
 10
337.6402538374
 20
241.9903666875
 10
337.454240252
 20
242.2133505262
 10
337.1869392147
 20
242.4068486497
 10
336.8517543158
 20
242.5611582539
 10
336.4654931256
 20
242.6685416111
 10
336.0475243931
 20
242.7236140712
 10
335.6188068159
 20
242.7236140712
 10
335.2008380834
 20
242.6685416111
 10
334.8145768932
 20
242.5611582539
 10
334.4793919942
 20
242.4068486497
 10
334.212090957
 20
242.2133505262
 10
334.0260773715
 20
241.9903666875
 10
333.9306787358
 20
241.7490784742
 10
333.9306787358
 20
241.5015850849
 10
334.0260773715
 20
241.2602968716
 10
334.212090957
 20
241.0373130328
 10
334.4793919942
 20
240.8438149094
  0
LWPOLYLINE
  5
33A
330
1F
100
AcDbEntity
  8
0
  6
Continuous
 62
     7
370
    30
100
AcDbPolyline
 90
       29
 70
   128
 43
0.0
 10
388.3609287207
 20
225.2912403792
 10
388.6961136196
 20
225.1369307749
 10
389.0823748098
 20
225.0295474178
 10
389.5003435423
 20
224.9744749576
 10
389.9290611195
 20
224.9744749576
 10
390.347029852
 20
225.0295474178
 10
390.7332910422
 20
225.1369307749
 10
391.0684759412
 20
225.2912403792
 10
391.3357769784
 20
225.4847385026
 10
391.5217905639
 20
225.7077223414
 10
391.6171891995
 20
225.9490105547
 10
391.6171891995
 20
226.196503944
 10
391.5217905639
 20
226.4377921572
 10
391.3357769784
 20
226.660775996
 10
391.0684759412
 20
226.8542741195
 10
390.7332910422
 20
227.0085837237
 10
390.347029852
 20
227.1159670808
 10
389.9290611195
 20
227.171039541
 10
389.5003435423
 20
227.171039541
 10
389.0823748098
 20
227.1159670808
 10
388.6961136196
 20
227.0085837237
 10
388.3609287207
 20
226.8542741195
 10
388.0936276834
 20
226.660775996
 10
387.9076140979
 20
226.4377921572
 10
387.8122154623
 20
226.196503944
 10
387.8122154623
 20
225.9490105547
 10
387.9076140979
 20
225.7077223414
 10
388.0936276834
 20
225.4847385026
 10
388.3609287207
 20
225.2912403792
  0
LWPOLYLINE
  5
33B
330
1F
100
AcDbEntity
  8
0
  6
Continuous
 62
     7
370
    30
100
AcDbPolyline
 90
       29
 70
   128
 43
0.0
 10
374.890544539
 20
233.0675276443
 10
375.225729438
 20
232.91321804
 10
375.6119906282
 20
232.8058346829
 10
376.0299593607
 20
232.7507622227
 10
376.4586769379
 20
232.7507622227
 10
376.8766456704
 20
232.8058346829
 10
377.2629068606
 20
232.91321804
 10
377.5980917595
 20
233.0675276443
 10
377.8653927968
 20
233.2610257677
 10
378.0514063823
 20
233.4840096065
 10
378.1468050179
 20
233.7252978198
 10
378.1468050179
 20
233.9727912091
 10
378.0514063823
 20
234.2140794224
 10
377.8653927968
 20
234.4370632611
 10
377.5980917595
 20
234.6305613846
 10
377.2629068606
 20
234.7848709888
 10
376.8766456704
 20
234.892254346
 10
376.4586769379
 20
234.9473268061
 10
376.0299593607
 20
234.9473268061
 10
375.6119906282
 20
234.892254346
 10
375.225729438
 20
234.7848709888
 10
374.890544539
 20
234.6305613846
 10
374.6232435018
 20
234.4370632611
 10
374.4372299163
 20
234.2140794224
 10
374.3418312807
 20
233.9727912091
 10
374.3418312807
 20
233.7252978198
 10
374.4372299163
 20
233.4840096065
 10
374.6232435018
 20
233.2610257677
 10
374.890544539
 20
233.0675276443
  0
LWPOLYLINE
  5
33C
330
1F
100
AcDbEntity
  8
0
  6
Continuous
 62
     7
370
    30
100
AcDbPolyline
 90
       29
 70
   128
 43
0.0
 10
361.4201603574
 20
240.8438149094
 10
361.7553452564
 20
240.6895053051
 10
362.1416064466
 20
240.582121948
 10
362.5595751791
 20
240.5270494879
 10
362.9882927563
 20
240.5270494879
 10
363.4062614888
 20
240.582121948
 10
363.792522679
 20
240.6895053051
 10
364.1277075779
 20
240.8438149094
 10
364.3950086152
 20
241.0373130328
 10
364.5810222007
 20
241.2602968716
 10
364.6764208363
 20
241.5015850849
 10
364.6764208363
 20
241.7490784742
 10
364.5810222007
 20
241.9903666875
 10
364.3950086152
 20
242.2133505262
 10
364.1277075779
 20
242.4068486497
 10
363.792522679
 20
242.5611582539
 10
363.4062614888
 20
242.6685416111
 10
362.9882927563
 20
242.7236140712
 10
362.5595751791
 20
242.7236140712
 10
362.1416064466
 20
242.6685416111
 10
361.7553452564
 20
242.5611582539
 10
361.4201603574
 20
242.4068486497
 10
361.1528593202
 20
242.2133505262
 10
360.9668457347
 20
241.9903666875
 10
360.871447099
 20
241.7490784742
 10
360.871447099
 20
241.5015850849
 10
360.9668457347
 20
241.2602968716
 10
361.1528593202
 20
241.0373130328
 10
361.4201603574
 20
240.8438149094
  0
LWPOLYLINE
  5
33D
330
1F
100
AcDbEntity
  8
0
  6
Continuous
 62
     7
370
    30
100
AcDbPolyline
 90
       29
 70
   128
 43
0.0
 10
347.9497761758
 20
248.6201021745
 10
348.2849610748
 20
248.4657925703
 10
348.671222265
 20
248.3584092131
 10
349.0891909975
 20
248.303336753
 10
349.5179085747
 20
248.303336753
 10
349.9358773072
 20
248.3584092131
 10
350.3221384974
 20
248.4657925703
 10
350.6573233963
 20
248.6201021745
 10
350.9246244336
 20
248.8136002979
 10
351.110638019
 20
249.0365841367
 10
351.2060366547
 20
249.27787235
 10
351.2060366547
 20
249.5253657393
 10
351.110638019
 20
249.7666539526
 10
350.9246244336
 20
249.9896377913
 10
350.6573233963
 20
250.1831359148
 10
350.3221384974
 20
250.337445519
 10
349.9358773072
 20
250.4448288762
 10
349.5179085747
 20
250.4999013363
 10
349.0891909975
 20
250.4999013363
 10
348.671222265
 20
250.4448288762
 10
348.2849610748
 20
250.337445519
 10
347.9497761758
 20
250.1831359148
 10
347.6824751386
 20
249.9896377913
 10
347.4964615531
 20
249.7666539526
 10
347.4010629174
 20
249.5253657393
 10
347.4010629174
 20
249.27787235
 10
347.4964615531
 20
249.0365841367
 10
347.6824751386
 20
248.8136002979
 10
347.9497761758
 20
248.6201021745
  0
LWPOLYLINE
  5
33E
330
1F
100
AcDbEntity
  8
0
  6
Continuous
 62
     7
370
    30
100
AcDbPolyline
 90
       29
 70
   128
 43
0.0
 10
334.4793919942
 20
256.3963894396
 10
334.8145768932
 20
256.2420798354
 10
335.2008380834
 20
256.1346964782
 10
335.6188068159
 20
256.0796240181
 10
336.0475243931
 20
256.0796240181
 10
336.4654931256
 20
256.1346964782
 10
336.8517543158
 20
256.2420798354
 10
337.1869392147
 20
256.3963894396
 10
337.454240252
 20
256.5898875631
 10
337.6402538374
 20
256.8128714018
 10
337.7356524731
 20
257.0541596151
 10
337.7356524731
 20
257.3016530044
 10
337.6402538374
 20
257.5429412177
 10
337.454240252
 20
257.7659250564
 10
337.1869392147
 20
257.9594231799
 10
336.8517543158
 20
258.1137327841
 10
336.4654931256
 20
258.2211161413
 10
336.0475243931
 20
258.2761886014
 10
335.6188068159
 20
258.2761886014
 10
335.2008380834
 20
258.2211161413
 10
334.8145768932
 20
258.1137327841
 10
334.4793919942
 20
257.9594231799
 10
334.212090957
 20
257.7659250564
 10
334.0260773715
 20
257.5429412177
 10
333.9306787358
 20
257.3016530044
 10
333.9306787358
 20
257.0541596151
 10
334.0260773715
 20
256.8128714018
 10
334.212090957
 20
256.5898875631
 10
334.4793919942
 20
256.3963894396
  0
LWPOLYLINE
  5
33F
330
1F
100
AcDbEntity
  8
0
  6
Continuous
 62
     7
370
    30
100
AcDbPolyline
 90
       29
 70
   128
 43
0.0
 10
307.538623631
 20
240.8438149094
 10
307.87380853
 20
240.6895053051
 10
308.2600697202
 20
240.582121948
 10
308.6780384527
 20
240.5270494879
 10
309.1067560299
 20
240.5270494879
 10
309.5247247624
 20
240.582121948
 10
309.9109859526
 20
240.6895053051
 10
310.2461708515
 20
240.8438149094
 10
310.5134718888
 20
241.0373130328
 10
310.6994854742
 20
241.2602968716
 10
310.7948841099
 20
241.5015850849
 10
310.7948841099
 20
241.7490784742
 10
310.6994854742
 20
241.9903666875
 10
310.5134718888
 20
242.2133505262
 10
310.2461708515
 20
242.4068486497
 10
309.9109859526
 20
242.5611582539
 10
309.5247247624
 20
242.6685416111
 10
309.1067560299
 20
242.7236140712
 10
308.6780384527
 20
242.7236140712
 10
308.2600697202
 20
242.6685416111
 10
307.87380853
 20
242.5611582539
 10
307.538623631
 20
242.4068486497
 10
307.2713225938
 20
242.2133505262
 10
307.0853090083
 20
241.9903666875
 10
306.9899103726
 20
241.7490784742
 10
306.9899103726
 20
241.5015850849
 10
307.0853090083
 20
241.2602968716
 10
307.2713225938
 20
241.0373130328
 10
307.538623631
 20
240.8438149094
  0
LWPOLYLINE
  5
340
330
1F
100
AcDbEntity
  8
0
  6
Continuous
 62
     7
370
    30
100
AcDbPolyline
 90
       29
 70
   128
 43
0.0
 10
321.0090078126
 20
233.0675276443
 10
321.3441927116
 20
232.91321804
 10
321.7304539018
 20
232.8058346829
 10
322.1484226343
 20
232.7507622227
 10
322.5771402115
 20
232.7507622227
 10
322.995108944
 20
232.8058346829
 10
323.3813701342
 20
232.91321804
 10
323.7165550331
 20
233.0675276443
 10
323.9838560704
 20
233.2610257677
 10
324.1698696558
 20
233.4840096065
 10
324.2652682915
 20
233.7252978198
 10
324.2652682915
 20
233.9727912091
 10
324.1698696558
 20
234.2140794224
 10
323.9838560704
 20
234.4370632611
 10
323.7165550331
 20
234.6305613846
 10
323.3813701342
 20
234.7848709888
 10
322.995108944
 20
234.892254346
 10
322.5771402115
 20
234.9473268061
 10
322.1484226343
 20
234.9473268061
 10
321.7304539018
 20
234.892254346
 10
321.3441927116
 20
234.7848709888
 10
321.0090078126
 20
234.6305613846
 10
320.7417067754
 20
234.4370632611
 10
320.5556931899
 20
234.2140794224
 10
320.4602945542
 20
233.9727912091
 10
320.4602945542
 20
233.7252978198
 10
320.5556931899
 20
233.4840096065
 10
320.7417067754
 20
233.2610257677
 10
321.0090078126
 20
233.0675276443
  0
LWPOLYLINE
  5
341
330
1F
100
AcDbEntity
  8
0
  6
Continuous
 62
     7
370
    30
100
AcDbPolyline
 90
       29
 70
   128
 43
0.0
 10
334.4793919942
 20
225.2912403792
 10
334.8145768932
 20
225.1369307749
 10
335.2008380834
 20
225.0295474178
 10
335.6188068159
 20
224.9744749576
 10
336.0475243931
 20
224.9744749576
 10
336.4654931256
 20
225.0295474178
 10
336.8517543158
 20
225.1369307749
 10
337.1869392147
 20
225.2912403792
 10
337.454240252
 20
225.4847385026
 10
337.6402538374
 20
225.7077223414
 10
337.7356524731
 20
225.9490105547
 10
337.7356524731
 20
226.196503944
 10
337.6402538374
 20
226.4377921572
 10
337.454240252
 20
226.660775996
 10
337.1869392147
 20
226.8542741195
 10
336.8517543158
 20
227.0085837237
 10
336.4654931256
 20
227.1159670808
 10
336.0475243931
 20
227.171039541
 10
335.6188068159
 20
227.171039541
 10
335.2008380834
 20
227.1159670808
 10
334.8145768932
 20
227.0085837237
 10
334.4793919942
 20
226.8542741195
 10
334.212090957
 20
226.660775996
 10
334.0260773715
 20
226.4377921572
 10
333.9306787358
 20
226.196503944
 10
333.9306787358
 20
225.9490105547
 10
334.0260773715
 20
225.7077223414
 10
334.212090957
 20
225.4847385026
 10
334.4793919942
 20
225.2912403792
  0
LWPOLYLINE
  5
342
330
1F
100
AcDbEntity
  8
0
  6
Continuous
 62
     7
370
    30
100
AcDbPolyline
 90
       29
 70
   128
 43
0.0
 10
347.9497761758
 20
217.5149531141
 10
348.2849610748
 20
217.3606435098
 10
348.671222265
 20
217.2532601527
 10
349.0891909975
 20
217.1981876925
 10
349.5179085747
 20
217.1981876925
 10
349.9358773072
 20
217.2532601527
 10
350.3221384974
 20
217.3606435098
 10
350.6573233963
 20
217.5149531141
 10
350.9246244336
 20
217.7084512375
 10
351.110638019
 20
217.9314350763
 10
351.2060366547
 20
218.1727232896
 10
351.2060366547
 20
218.4202166788
 10
351.110638019
 20
218.6615048921
 10
350.9246244336
 20
218.8844887309
 10
350.6573233963
 20
219.0779868543
 10
350.3221384974
 20
219.2322964586
 10
349.9358773072
 20
219.3396798157
 10
349.5179085747
 20
219.3947522759
 10
349.0891909975
 20
219.3947522759
 10
348.671222265
 20
219.3396798157
 10
348.2849610748
 20
219.2322964586
 10
347.9497761758
 20
219.0779868543
 10
347.6824751386
 20
218.8844887309
 10
347.4964615531
 20
218.6615048921
 10
347.4010629174
 20
218.4202166788
 10
347.4010629174
 20
218.1727232896
 10
347.4964615531
 20
217.9314350763
 10
347.6824751386
 20
217.7084512375
 10
347.9497761758
 20
217.5149531141
  0
LWPOLYLINE
  5
343
330
1F
100
AcDbEntity
  8
0
  6
Continuous
 62
     7
370
    30
100
AcDbPolyline
 90
       29
 70
   128
 43
0.0
 10
361.4201603574
 20
209.7386658489
 10
361.7553452564
 20
209.5843562447
 10
362.1416064466
 20
209.4769728875
 10
362.5595751791
 20
209.4219004274
 10
362.9882927563
 20
209.4219004274
 10
363.4062614888
 20
209.4769728875
 10
363.792522679
 20
209.5843562447
 10
364.1277075779
 20
209.7386658489
 10
364.3950086152
 20
209.9321639724
 10
364.5810222007
 20
210.1551478111
 10
364.6764208363
 20
210.3964360244
 10
364.6764208363
 20
210.6439294137
 10
364.5810222007
 20
210.885217627
 10
364.3950086152
 20
211.1082014658
 10
364.1277075779
 20
211.3016995892
 10
363.792522679
 20
211.4560091935
 10
363.4062614888
 20
211.5633925506
 10
362.9882927563
 20
211.6184650108
 10
362.5595751791
 20
211.6184650108
 10
362.1416064466
 20
211.5633925506
 10
361.7553452564
 20
211.4560091935
 10
361.4201603574
 20
211.3016995892
 10
361.1528593202
 20
211.1082014658
 10
360.9668457347
 20
210.885217627
 10
360.871447099
 20
210.6439294137
 10
360.871447099
 20
210.3964360244
 10
360.9668457347
 20
210.1551478111
 10
361.1528593202
 20
209.9321639724
 10
361.4201603574
 20
209.7386658489
  0
LINE
  5
344
330
1F
100
AcDbEntity
  8
0
  6
Continuous
 62
     7
370
    30
100
AcDbLine
 10
400.4804030745
 20
216.7338255022
 30
0.0
 11
400.4804030745
 21
224.5113767354
 31
0.0
  0
LINE
  5
345
330
1F
100
AcDbEntity
  8
0
  6
Continuous
 62
     7
370
    30
100
AcDbLine
 10
365.4786174057
 20
196.5277247346
 30
0.0
 11
400.4804030745
 21
216.7338255022
 31
0.0
  0
LINE
  5
346
330
1F
100
AcDbEntity
  8
0
  6
Continuous
 62
     7
370
    30
100
AcDbLine
 10
298.1266964977
 20
240.1251818741
 30
0.0
 11
298.1266964977
 21
232.3476306408
 31
0.0
  0
LINE
  5
347
330
1F
100
AcDbEntity
  8
0
  6
Continuous
 62
     7
370
    30
100
AcDbLine
 10
298.1266964977
 20
232.3476306408
 30
0.0
 11
360.1753165468
 21
196.5277247346
 31
0.0
  0
ARC
  5
348
330
1F
100
AcDbEntity
  8
0
  6
Continuous
 62
     7
370
    30
100
AcDbCircle
 10
399.6752587091
 20
218.4709546872
 30
0.0
 40
1.914647553544495
100
AcDbArc
 50
294.86731528
 51
353.8125437624
  0
ARC
  5
349
330
1F
100
AcDbEntity
  8
0
  6
Continuous
 62
     7
370
    30
100
AcDbCircle
 10
342.5683576953
 20
221.0694302565
 30
0.0
 40
7.190834970049559
100
AcDbArc
 50
69.8047728398
 51
110.1952271602
  0
ARC
  5
34A
330
1F
100
AcDbEntity
  8
0
  6
Continuous
 62
     7
370
    30
100
AcDbCircle
 10
349.3035497861
 20
224.9575738891
 30
0.0
 40
7.190834970050065
100
AcDbArc
 50
69.8047728398
 51
110.1952271602
  0
ARC
  5
34B
330
1F
100
AcDbEntity
  8
0
  6
Continuous
 62
     7
370
    30
100
AcDbCircle
 10
356.0387418769
 20
228.8457175216
 30
0.0
 40
7.190834970051053
100
AcDbArc
 50
69.8047728398
 51
110.1952271602
  0
ARC
  5
34C
330
1F
100
AcDbEntity
  8
0
  6
Continuous
 62
     7
370
    30
100
AcDbCircle
 10
298.8891230066
 20
234.0541090513
 30
0.0
 40
1.869053971061086
100
AcDbArc
 50
185.3944478058
 51
245.9256931518
  0
LWPOLYLINE
  5
34D
330
1F
100
AcDbEntity
  8
0
  6
Continuous
 62
     7
370
     0
100
AcDbPolyline
 90
       24
 70
   128
 43
0.0
 10
377.3485422134
 20
225.4351016936
 10
377.0099193196
 20
225.2867102813
 10
376.6141678505
 20
225.1966163767
 10
376.1909863211
 20
225.1715018325
 10
375.7717601694
 20
225.2132292796
 10
375.3875814812
 20
225.3187039842
 10
375.0669430324
 20
225.4801033699
 10
374.8336251099
 20
225.6854571826
 10
374.7049318367
 20
225.9195352694
 10
374.690407804
 20
226.1649771296
 10
374.791130193
 20
226.4035794631
 10
374.9996288848
 20
226.6176462265
 10
375.3004404852
 20
226.7913010671
 10
375.6712551741
 20
226.9116647999
 10
376.0845713222
 20
226.9698105973
 10
376.5097351618
 20
226.9614260517
 10
376.9152142357
 20
226.8871330065
 10
377.270936016
 20
226.7524414368
 10
377.5505182456
 20
226.5673408003
 10
377.7332255895
 20
226.3455591644
 10
377.8055074799
 20
226.1035450584
 10
377.7620030996
 20
225.8592475615
 10
377.6059389695
 20
225.6307851014
 10
377.3488896522
 20
225.4351016936
  0
LWPOLYLINE
  5
34E
330
1F
100
AcDbEntity
  8
0
  6
Continuous
 62
     7
370
     0
100
AcDbPolyline
 90
       24
 70
   128
 43
0.0
 10
363.8784885406
 20
233.2113889587
 10
363.5395351379
 20
233.0629975464
 10
363.1437836689
 20
232.9729036418
 10
362.7206021395
 20
232.9477890976
 10
362.3013759878
 20
232.9895165447
 10
361.9171972996
 20
233.0949912493
 10
361.5965588508
 20
233.256390635
 10
361.3632409283
 20
233.4617444477
 10
361.2345476551
 20
233.6958225346
 10
361.2200236224
 20
233.9412643947
 10
361.3207460114
 20
234.1798667283
 10
361.5292447032
 20
234.3939334916
 10
361.8300563036
 20
234.5675883322
 10
362.2008709925
 20
234.687952065
 10
362.6141871406
 20
234.7460978624
 10
363.0393509801
 20
234.7377133169
 10
363.4448300541
 20
234.6634202716
 10
363.8005518344
 20
234.5287287019
 10
364.080134064
 20
234.3436280654
 10
364.2628414079
 20
234.1218464295
 10
364.3351232983
 20
233.8798323235
 10
364.291618918
 20
233.6355348266
 10
364.1355547879
 20
233.4070723665
 10
363.8785054706
 20
233.2113889587
  0
LWPOLYLINE
  5
34F
330
1F
100
AcDbEntity
  8
0
  6
Continuous
 62
     7
370
     0
100
AcDbPolyline
 90
       24
 70
   128
 43
0.0
 10
350.40807724
 20
240.9876762238
 10
350.0691509563
 20
240.8392848115
 10
349.6733994873
 20
240.7491909069
 10
349.2502179579
 20
240.7240763627
 10
348.8309918062
 20
240.7658038098
 10
348.446813118
 20
240.8712785144
 10
348.1261746692
 20
241.0326779001
 10
347.8928567467
 20
241.2380317128
 10
347.7641634735
 20
241.4721097997
 10
347.7496394408
 20
241.7175516598
 10
347.8503618298
 20
241.9561539934
 10
348.0588605215
 20
242.1702207567
 10
348.359672122
 20
242.3438755973
 10
348.7304868109
 20
242.4642393301
 10
349.143802959
 20
242.5223851276
 10
349.5689667985
 20
242.514000582
 10
349.9744458724
 20
242.4397075367
 10
350.3301676528
 20
242.305015967
 10
350.6097498824
 20
242.1199153305
 10
350.7924572263
 20
241.8981336946
 10
350.8647391167
 20
241.6561195886
 10
350.8212347364
 20
241.4118220917
 10
350.6651706063
 20
241.1833596316
 10
350.408121289
 20
240.9876762238
  0
LWPOLYLINE
  5
350
330
1F
100
AcDbEntity
  8
0
  6
Continuous
 62
     7
370
     0
100
AcDbPolyline
 90
       24
 70
   128
 43
0.0
 10
336.9376659393
 20
248.7639634889
 10
336.5987667747
 20
248.6155720766
 10
336.2030153057
 20
248.525478172
 10
335.7798337763
 20
248.5003636278
 10
335.3606076246
 20
248.542091075
 10
334.9764289364
 20
248.6475657795
 10
334.6557904876
 20
248.8089651652
 10
334.4224725651
 20
249.0143189779
 10
334.2937792919
 20
249.2483970648
 10
334.2792552592
 20
249.4938389249
 10
334.3799776481
 20
249.7324412585
 10
334.5884763399
 20
249.9465080218
 10
334.8892879404
 20
250.1201628624
 10
335.2601026293
 20
250.2405265952
 10
335.6734187774
 20
250.2986723927
 10
336.0985826169
 20
250.2902878471
 10
336.5040616908
 20
250.2159948018
 10
336.8597834712
 20
250.0813032321
 10
337.1393657008
 20
249.8962025956
 10
337.3220730447
 20
249.6744209597
 10
337.3943549351
 20
249.4324068537
 10
337.3508505548
 20
249.1881093568
 10
337.1947864247
 20
248.9596468967
 10
336.9377371074
 20
248.7639634889
  0
LWPOLYLINE
  5
351
330
1F
100
AcDbEntity
  8
0
  6
Continuous
 62
     7
370
     0
100
AcDbPolyline
 90
       24
 70
   128
 43
0.0
 10
323.4672546387
 20
240.9876762238
 10
323.1283825931
 20
240.8392848115
 10
322.7326311241
 20
240.7491909069
 10
322.3094495947
 20
240.7240763627
 10
321.890223443
 20
240.7658038098
 10
321.5060447548
 20
240.8712785144
 10
321.185406306
 20
241.0326779001
 10
320.9520883835
 20
241.2380317128
 10
320.8233951103
 20
241.4721097997
 10
320.8088710776
 20
241.7175516598
 10
320.9095934665
 20
241.9561539934
 10
321.1180921583
 20
242.1702207567
 10
321.4189037588
 20
242.3438755973
 10
321.7897184477
 20
242.4642393301
 10
322.2030345958
 20
242.5223851276
 10
322.6281984353
 20
242.514000582
 10
323.0336775092
 20
242.4397075367
 10
323.3893992896
 20
242.305015967
 10
323.6689815192
 20
242.1199153305
 10
323.8516888631
 20
241.8981336946
 10
323.9239707535
 20
241.6561195886
 10
323.8804663732
 20
241.4118220917
 10
323.7244022431
 20
241.1833596316
 10
323.4673529258
 20
240.9876762238
  0
LWPOLYLINE
  5
352
330
1F
100
AcDbEntity
  8
0
  6
Continuous
 62
     7
370
     0
100
AcDbPolyline
 90
       24
 70
   128
 43
0.0
 10
336.9376659393
 20
233.2113889587
 10
336.5987667747
 20
233.0629975464
 10
336.2030153057
 20
232.9729036418
 10
335.7798337763
 20
232.9477890976
 10
335.3606076246
 20
232.9895165447
 10
334.9764289364
 20
233.0949912493
 10
334.6557904876
 20
233.256390635
 10
334.4224725651
 20
233.4617444477
 10
334.2937792919
 20
233.6958225346
 10
334.2792552592
 20
233.9412643947
 10
334.3799776481
 20
234.1798667283
 10
334.5884763399
 20
234.3939334916
 10
334.8892879404
 20
234.5675883322
 10
335.2601026293
 20
234.687952065
 10
335.6734187774
 20
234.7460978624
 10
336.0985826169
 20
234.7377133169
 10
336.5040616908
 20
234.6634202716
 10
336.8597834712
 20
234.5287287019
 10
337.1393657008
 20
234.3436280654
 10
337.3220730447
 20
234.1218464295
 10
337.3943549351
 20
233.8798323235
 10
337.3508505548
 20
233.6355348266
 10
337.1947864247
 20
233.4070723665
 10
336.9377371074
 20
233.2113889587
  0
LWPOLYLINE
  5
353
330
1F
100
AcDbEntity
  8
0
  6
Continuous
 62
     7
370
     0
100
AcDbPolyline
 90
       24
 70
   128
 43
0.0
 10
350.40807724
 20
225.4351016936
 10
350.0691509563
 20
225.2867102813
 10
349.6733994873
 20
225.1966163767
 10
349.2502179579
 20
225.1715018325
 10
348.8309918062
 20
225.2132292796
 10
348.446813118
 20
225.3187039842
 10
348.1261746692
 20
225.4801033699
 10
347.8928567467
 20
225.6854571826
 10
347.7641634735
 20
225.9195352694
 10
347.7496394408
 20
226.1649771296
 10
347.8503618298
 20
226.4035794631
 10
348.0588605215
 20
226.6176462265
 10
348.359672122
 20
226.7913010671
 10
348.7304868109
 20
226.9116647999
 10
349.143802959
 20
226.9698105973
 10
349.5689667985
 20
226.9614260517
 10
349.9744458724
 20
226.8871330065
 10
350.3301676528
 20
226.7524414368
 10
350.6097498824
 20
226.5673408003
 10
350.7924572263
 20
226.3455591644
 10
350.8647391167
 20
226.1035450584
 10
350.8212347364
 20
225.8592475615
 10
350.6651706063
 20
225.6307851014
 10
350.408121289
 20
225.4351016936
  0
LWPOLYLINE
  5
354
330
1F
100
AcDbEntity
  8
0
  6
Continuous
 62
     7
370
     0
100
AcDbPolyline
 90
       24
 70
   128
 43
0.0
 10
363.8784885406
 20
217.6588144285
 10
363.5395351379
 20
217.5104230162
 10
363.1437836689
 20
217.4203291115
 10
362.7206021395
 20
217.3952145674
 10
362.3013759878
 20
217.4369420145
 10
361.9171972996
 20
217.5424167191
 10
361.5965588508
 20
217.7038161048
 10
361.3632409283
 20
217.9091699175
 10
361.2345476551
 20
218.1432480043
 10
361.2200236224
 20
218.3886898645
 10
361.3207460114
 20
218.627292198
 10
361.5292447032
 20
218.8413589614
 10
361.8300563036
 20
219.015013802
 10
362.2008709925
 20
219.1353775347
 10
362.6141871406
 20
219.1935233322
 10
363.0393509801
 20
219.1851387866
 10
363.4448300541
 20
219.1108457413
 10
363.8005518344
 20
218.9761541717
 10
364.080134064
 20
218.7910535352
 10
364.2628414079
 20
218.5692718993
 10
364.3351232983
 20
218.3272577933
 10
364.291618918
 20
218.0829602964
 10
364.1355547879
 20
217.8544978363
 10
363.8785054706
 20
217.6588144285
  0
LWPOLYLINE
  5
355
330
1F
100
AcDbEntity
  8
0
  6
Continuous
 62
     7
370
     0
100
AcDbPolyline
 90
       29
 70
   128
 43
0.0
 10
364.4576668739
 20
225.1007213412
 10
364.0408353499
 20
224.9087939727
 10
363.560410984
 20
224.7752325832
 10
363.0405493764
 20
224.7067344985
 10
362.507318559
 20
224.7067344985
 10
361.9874569514
 20
224.7752325832
 10
361.5070325855
 20
224.9087939727
 10
361.090135945
 20
225.1007213412
 10
360.7576719683
 20
225.3413906489
 10
360.5263117874
 20
225.618733732
 10
360.4076567679
 20
225.91884345
 10
360.4076567679
 20
226.2266710486
 10
360.5263117874
 20
226.5267807666
 10
360.7576719683
 20
226.8041238497
 10
361.090135945
 20
227.0447931574
 10
361.5070325855
 20
227.2367205259
 10
361.9874569514
 20
227.3702819154
 10
362.507318559
 20
227.4387800001
 10
363.0405493764
 20
227.4387800001
 10
363.560410984
 20
227.3702819154
 10
364.0408353499
 20
227.2367205259
 10
364.4577319904
 20
227.0447931574
 10
364.7901959671
 20
226.8041238497
 10
365.021556148
 20
226.5267807666
 10
365.1402111675
 20
226.2266710486
 10
365.1402111675
 20
225.91884345
 10
365.021556148
 20
225.618733732
 10
364.7901959671
 20
225.3413906489
 10
364.4577319904
 20
225.1007213412
  0
LWPOLYLINE
  5
356
330
1F
100
AcDbEntity
  8
0
  6
Continuous
 62
     7
370
     0
100
AcDbPolyline
 90
       29
 70
   128
 43
0.0
 10
377.9278993607
 20
217.3244340761
 10
377.5112195315
 20
217.1325067076
 10
377.0307951656
 20
216.9989453181
 10
376.510933558
 20
216.9304472334
 10
375.9777027406
 20
216.9304472334
 10
375.457841133
 20
216.9989453181
 10
374.9774167671
 20
217.1325067076
 10
374.5605201266
 20
217.3244340761
 10
374.2280561499
 20
217.5651033838
 10
373.996695969
 20
217.8424464669
 10
373.8780409495
 20
218.1425561849
 10
373.8780409495
 20
218.4503837835
 10
373.996695969
 20
218.7504935015
 10
374.2280561499
 20
219.0278365846
 10
374.5605201266
 20
219.2685058923
 10
374.9774167671
 20
219.4604332608
 10
375.457841133
 20
219.5939946503
 10
375.9777027406
 20
219.662492735
 10
376.510933558
 20
219.662492735
 10
377.0307951656
 20
219.5939946503
 10
377.5112195315
 20
219.4604332608
 10
377.928116172
 20
219.2685058923
 10
378.2605801487
 20
219.0278365846
 10
378.4919403296
 20
218.7504935015
 10
378.6105953491
 20
218.4503837835
 10
378.6105953491
 20
218.1425561849
 10
378.4919403296
 20
217.8424464669
 10
378.2605801487
 20
217.5651033838
 10
377.928116172
 20
217.3244340761
  0
LWPOLYLINE
  5
357
330
1F
100
AcDbEntity
  8
0
  6
Continuous
 62
     7
370
     0
100
AcDbPolyline
 90
       29
 70
   128
 43
0.0
 10
324.046432972
 20
248.4295831365
 10
323.6296828051
 20
248.237655768
 10
323.1492584392
 20
248.1040943785
 10
322.6293968316
 20
248.0355962938
 10
322.0961660142
 20
248.0355962938
 10
321.5763044066
 20
248.1040943785
 10
321.0958800407
 20
248.237655768
 10
320.6789834002
 20
248.4295831365
 10
320.3465194235
 20
248.6702524443
 10
320.1151592426
 20
248.9475955273
 10
319.9965042231
 20
249.2477052453
 10
319.9965042231
 20
249.5555328439
 10
320.1151592426
 20
249.855642562
 10
320.3465194235
 20
250.132985645
 10
320.6789834002
 20
250.3736549528
 10
321.0958800407
 20
250.5655823212
 10
321.5763044066
 20
250.6991437107
 10
322.0961660142
 20
250.7676417955
 10
322.6293968316
 20
250.7676417955
 10
323.1492584392
 20
250.6991437107
 10
323.6296828051
 20
250.5655823212
 10
324.0465794456
 20
250.3736549528
 10
324.3790434223
 20
250.132985645
 10
324.6104036032
 20
249.855642562
 10
324.7290586227
 20
249.5555328439
 10
324.7290586227
 20
249.2477052453
 10
324.6104036032
 20
248.9475955273
 10
324.3790434223
 20
248.6702524443
 10
324.0465794456
 20
248.4295831365
  0
LWPOLYLINE
  5
358
330
1F
100
AcDbEntity
  8
0
  6
Continuous
 62
     7
370
     0
100
AcDbPolyline
 90
       29
 70
   128
 43
0.0
 10
337.5168442726
 20
240.6532958714
 10
337.1000669867
 20
240.4613685029
 10
336.6196426208
 20
240.3278071134
 10
336.0997810132
 20
240.2593090287
 10
335.5665501958
 20
240.2593090287
 10
335.0466885882
 20
240.3278071134
 10
334.5662642223
 20
240.4613685029
 10
334.1493675818
 20
240.6532958714
 10
333.8169036051
 20
240.8939651792
 10
333.5855434242
 20
241.1713082622
 10
333.4668884047
 20
241.4714179802
 10
333.4668884047
 20
241.7792455788
 10
333.5855434242
 20
242.0793552969
 10
333.8169036051
 20
242.3566983799
 10
334.1493675818
 20
242.5973676877
 10
334.5662642223
 20
242.7892950561
 10
335.0466885882
 20
242.9228564456
 10
335.5665501958
 20
242.9913545304
 10
336.0997810132
 20
242.9913545304
 10
336.6196426208
 20
242.9228564456
 10
337.1000669867
 20
242.7892950561
 10
337.5169636272
 20
242.5973676877
 10
337.8494276039
 20
242.3566983799
 10
338.0807877848
 20
242.0793552969
 10
338.1994428043
 20
241.7792455788
 10
338.1994428043
 20
241.4714179802
 10
338.0807877848
 20
241.1713082622
 10
337.8494276039
 20
240.8939651792
 10
337.5169636272
 20
240.6532958714
  0
LWPOLYLINE
  5
359
330
1F
100
AcDbEntity
  8
0
  6
Continuous
 62
     7
370
     0
100
AcDbPolyline
 90
       29
 70
   128
 43
0.0
 10
391.3983106613
 20
225.1007213412
 10
390.9816037131
 20
224.9087939727
 10
390.5011793472
 20
224.7752325832
 10
389.9813177396
 20
224.7067344985
 10
389.4480869222
 20
224.7067344985
 10
388.9282253146
 20
224.7752325832
 10
388.4478009487
 20
224.9087939727
 10
388.0309043082
 20
225.1007213412
 10
387.6984403315
 20
225.3413906489
 10
387.4670801506
 20
225.618733732
 10
387.3484251311
 20
225.91884345
 10
387.3484251311
 20
226.2266710486
 10
387.4670801506
 20
226.5267807666
 10
387.6984403315
 20
226.8041238497
 10
388.0309043082
 20
227.0447931574
 10
388.4478009487
 20
227.2367205259
 10
388.9282253146
 20
227.3702819154
 10
389.4480869222
 20
227.4387800001
 10
389.9813177396
 20
227.4387800001
 10
390.5011793472
 20
227.3702819154
 10
390.9816037131
 20
227.2367205259
 10
391.3985003536
 20
227.0447931574
 10
391.7309643303
 20
226.8041238497
 10
391.9623245112
 20
226.5267807666
 10
392.0809795307
 20
226.2266710486
 10
392.0809795307
 20
225.91884345
 10
391.9623245112
 20
225.618733732
 10
391.7309643303
 20
225.3413906489
 10
391.3985003536
 20
225.1007213412
  0
LWPOLYLINE
  5
35A
330
1F
100
AcDbEntity
  8
0
  6
Continuous
 62
     7
370
     0
100
AcDbPolyline
 90
       29
 70
   128
 43
0.0
 10
377.9278993607
 20
232.8770086063
 10
377.5112195315
 20
232.6850812378
 10
377.0307951656
 20
232.5515198483
 10
376.510933558
 20
232.4830217636
 10
375.9777027406
 20
232.4830217636
 10
375.457841133
 20
232.5515198483
 10
374.9774167671
 20
232.6850812378
 10
374.5605201266
 20
232.8770086063
 10
374.2280561499
 20
233.117677914
 10
373.996695969
 20
233.3950209971
 10
373.8780409495
 20
233.6951307151
 10
373.8780409495
 20
234.0029583137
 10
373.996695969
 20
234.3030680318
 10
374.2280561499
 20
234.5804111148
 10
374.5605201266
 20
234.8210804226
 10
374.9774167671
 20
235.013007791
 10
375.457841133
 20
235.1465691805
 10
375.9777027406
 20
235.2150672653
 10
376.510933558
 20
235.2150672653
 10
377.0307951656
 20
235.1465691805
 10
377.5112195315
 20
235.013007791
 10
377.928116172
 20
234.8210804226
 10
378.2605801487
 20
234.5804111148
 10
378.4919403296
 20
234.3030680318
 10
378.6105953491
 20
234.0029583137
 10
378.6105953491
 20
233.6951307151
 10
378.4919403296
 20
233.3950209971
 10
378.2605801487
 20
233.117677914
 10
377.928116172
 20
232.8770086063
  0
LWPOLYLINE
  5
35B
330
1F
100
AcDbEntity
  8
0
  6
Continuous
 62
     7
370
     0
100
AcDbPolyline
 90
       29
 70
   128
 43
0.0
 10
364.4576668739
 20
240.6532958714
 10
364.0408353499
 20
240.4613685029
 10
363.560410984
 20
240.3278071134
 10
363.0405493764
 20
240.2593090287
 10
362.507318559
 20
240.2593090287
 10
361.9874569514
 20
240.3278071134
 10
361.5070325855
 20
240.4613685029
 10
361.090135945
 20
240.6532958714
 10
360.7576719683
 20
240.8939651792
 10
360.5263117874
 20
241.1713082622
 10
360.4076567679
 20
241.4714179802
 10
360.4076567679
 20
241.7792455788
 10
360.5263117874
 20
242.0793552969
 10
360.7576719683
 20
242.3566983799
 10
361.090135945
 20
242.5973676877
 10
361.5070325855
 20
242.7892950561
 10
361.9874569514
 20
242.9228564456
 10
362.507318559
 20
242.9913545304
 10
363.0405493764
 20
242.9913545304
 10
363.560410984
 20
242.9228564456
 10
364.0408353499
 20
242.7892950561
 10
364.4577319904
 20
242.5973676877
 10
364.7901959671
 20
242.3566983799
 10
365.021556148
 20
242.0793552969
 10
365.1402111675
 20
241.7792455788
 10
365.1402111675
 20
241.4714179802
 10
365.021556148
 20
241.1713082622
 10
364.7901959671
 20
240.8939651792
 10
364.4577319904
 20
240.6532958714
  0
LWPOLYLINE
  5
35C
330
1F
100
AcDbEntity
  8
0
  6
Continuous
 62
     7
370
     0
100
AcDbPolyline
 90
       29
 70
   128
 43
0.0
 10
350.9872555733
 20
248.4295831365
 10
350.5704511683
 20
248.237655768
 10
350.0900268024
 20
248.1040943785
 10
349.5701651948
 20
248.0355962938
 10
349.0369343774
 20
248.0355962938
 10
348.5170727698
 20
248.1040943785
 10
348.0366484039
 20
248.237655768
 10
347.6197517634
 20
248.4295831365
 10
347.2872877867
 20
248.6702524443
 10
347.0559276058
 20
248.9475955273
 10
346.9372725863
 20
249.2477052453
 10
346.9372725863
 20
249.5555328439
 10
347.0559276058
 20
249.855642562
 10
347.2872877867
 20
250.132985645
 10
347.6197517634
 20
250.3736549528
 10
348.0366484039
 20
250.5655823212
 10
348.5170727698
 20
250.6991437107
 10
349.0369343774
 20
250.7676417955
 10
349.5701651948
 20
250.7676417955
 10
350.0900268024
 20
250.6991437107
 10
350.5704511683
 20
250.5655823212
 10
350.9873478088
 20
250.3736549528
 10
351.3198117855
 20
250.132985645
 10
351.5511719664
 20
249.855642562
 10
351.6698269859
 20
249.5555328439
 10
351.6698269859
 20
249.2477052453
 10
351.5511719664
 20
248.9475955273
 10
351.3198117855
 20
248.6702524443
 10
350.9873478088
 20
248.4295831365
  0
LWPOLYLINE
  5
35D
330
1F
100
AcDbEntity
  8
0
  6
Continuous
 62
     7
370
     0
100
AcDbPolyline
 90
       29
 70
   128
 43
0.0
 10
337.5168442726
 20
256.2058704016
 10
337.1000669867
 20
256.0139430331
 10
336.6196426208
 20
255.8803816437
 10
336.0997810132
 20
255.8118835589
 10
335.5665501958
 20
255.8118835589
 10
335.0466885882
 20
255.8803816437
 10
334.5662642223
 20
256.0139430331
 10
334.1493675818
 20
256.2058704016
 10
333.8169036051
 20
256.4465397094
 10
333.5855434242
 20
256.7238827924
 10
333.4668884047
 20
257.0239925104
 10
333.4668884047
 20
257.3318201091
 10
333.5855434242
 20
257.6319298271
 10
333.8169036051
 20
257.9092729101
 10
334.1493675818
 20
258.1499422179
 10
334.5662642223
 20
258.3418695864
 10
335.0466885882
 20
258.4754309758
 10
335.5665501958
 20
258.5439290606
 10
336.0997810132
 20
258.5439290606
 10
336.6196426208
 20
258.4754309758
 10
337.1000669867
 20
258.3418695864
 10
337.5169636272
 20
258.1499422179
 10
337.8494276039
 20
257.9092729101
 10
338.0807877848
 20
257.6319298271
 10
338.1994428043
 20
257.3318201091
 10
338.1994428043
 20
257.0239925104
 10
338.0807877848
 20
256.7238827924
 10
337.8494276039
 20
256.4465397094
 10
337.5169636272
 20
256.2058704016
  0
LWPOLYLINE
  5
35E
330
1F
100
AcDbEntity
  8
0
  6
Continuous
 62
     7
370
     0
100
AcDbPolyline
 90
       29
 70
   128
 43
0.0
 10
310.5760216713
 20
240.6532958714
 10
310.1592986235
 20
240.4613685029
 10
309.6788742576
 20
240.3278071134
 10
309.15901265
 20
240.2593090287
 10
308.6257818326
 20
240.2593090287
 10
308.105920225
 20
240.3278071134
 10
307.6254958591
 20
240.4613685029
 10
307.2085992186
 20
240.6532958714
 10
306.8761352419
 20
240.8939651792
 10
306.644775061
 20
241.1713082622
 10
306.5261200415
 20
241.4714179802
 10
306.5261200415
 20
241.7792455788
 10
306.644775061
 20
242.0793552969
 10
306.8761352419
 20
242.3566983799
 10
307.2085992186
 20
242.5973676877
 10
307.6254958591
 20
242.7892950561
 10
308.105920225
 20
242.9228564456
 10
308.6257818326
 20
242.9913545304
 10
309.15901265
 20
242.9913545304
 10
309.6788742576
 20
242.9228564456
 10
310.1592986235
 20
242.7892950561
 10
310.576195264
 20
242.5973676877
 10
310.9086592407
 20
242.3566983799
 10
311.1400194216
 20
242.0793552969
 10
311.2586744411
 20
241.7792455788
 10
311.2586744411
 20
241.4714179802
 10
311.1400194216
 20
241.1713082622
 10
310.9086592407
 20
240.8939651792
 10
310.576195264
 20
240.6532958714
  0
LWPOLYLINE
  5
35F
330
1F
100
AcDbEntity
  8
0
  6
Continuous
 62
     7
370
     0
100
AcDbPolyline
 90
       29
 70
   128
 43
0.0
 10
324.046432972
 20
232.8770086063
 10
323.6296828051
 20
232.6850812378
 10
323.1492584392
 20
232.5515198483
 10
322.6293968316
 20
232.4830217636
 10
322.0961660142
 20
232.4830217636
 10
321.5763044066
 20
232.5515198483
 10
321.0958800407
 20
232.6850812378
 10
320.6789834002
 20
232.8770086063
 10
320.3465194235
 20
233.117677914
 10
320.1151592426
 20
233.3950209971
 10
319.9965042231
 20
233.6951307151
 10
319.9965042231
 20
234.0029583137
 10
320.1151592426
 20
234.3030680318
 10
320.3465194235
 20
234.5804111148
 10
320.6789834002
 20
234.8210804226
 10
321.0958800407
 20
235.013007791
 10
321.5763044066
 20
235.1465691805
 10
322.0961660142
 20
235.2150672653
 10
322.6293968316
 20
235.2150672653
 10
323.1492584392
 20
235.1465691805
 10
323.6296828051
 20
235.013007791
 10
324.0465794456
 20
234.8210804226
 10
324.3790434223
 20
234.5804111148
 10
324.6104036032
 20
234.3030680318
 10
324.7290586227
 20
234.0029583137
 10
324.7290586227
 20
233.6951307151
 10
324.6104036032
 20
233.3950209971
 10
324.3790434223
 20
233.117677914
 10
324.0465794456
 20
232.8770086063
  0
LWPOLYLINE
  5
360
330
1F
100
AcDbEntity
  8
0
  6
Continuous
 62
     7
370
     0
100
AcDbPolyline
 90
       29
 70
   128
 43
0.0
 10
337.5168442726
 20
225.1007213412
 10
337.1000669867
 20
224.9087939727
 10
336.6196426208
 20
224.7752325832
 10
336.0997810132
 20
224.7067344985
 10
335.5665501958
 20
224.7067344985
 10
335.0466885882
 20
224.7752325832
 10
334.5662642223
 20
224.9087939727
 10
334.1493675818
 20
225.1007213412
 10
333.8169036051
 20
225.3413906489
 10
333.5855434242
 20
225.618733732
 10
333.4668884047
 20
225.91884345
 10
333.4668884047
 20
226.2266710486
 10
333.5855434242
 20
226.5267807666
 10
333.8169036051
 20
226.8041238497
 10
334.1493675818
 20
227.0447931574
 10
334.5662642223
 20
227.2367205259
 10
335.0466885882
 20
227.3702819154
 10
335.5665501958
 20
227.4387800001
 10
336.0997810132
 20
227.4387800001
 10
336.6196426208
 20
227.3702819154
 10
337.1000669867
 20
227.2367205259
 10
337.5169636272
 20
227.0447931574
 10
337.8494276039
 20
226.8041238497
 10
338.0807877848
 20
226.5267807666
 10
338.1994428043
 20
226.2266710486
 10
338.1994428043
 20
225.91884345
 10
338.0807877848
 20
225.618733732
 10
337.8494276039
 20
225.3413906489
 10
337.5169636272
 20
225.1007213412
  0
LWPOLYLINE
  5
361
330
1F
100
AcDbEntity
  8
0
  6
Continuous
 62
     7
370
     0
100
AcDbPolyline
 90
       29
 70
   128
 43
0.0
 10
350.9872555733
 20
217.3244340761
 10
350.5704511683
 20
217.1325067076
 10
350.0900268024
 20
216.9989453181
 10
349.5701651948
 20
216.9304472334
 10
349.0369343774
 20
216.9304472334
 10
348.5170727698
 20
216.9989453181
 10
348.0366484039
 20
217.1325067076
 10
347.6197517634
 20
217.3244340761
 10
347.2872877867
 20
217.5651033838
 10
347.0559276058
 20
217.8424464669
 10
346.9372725863
 20
218.1425561849
 10
346.9372725863
 20
218.4503837835
 10
347.0559276058
 20
218.7504935015
 10
347.2872877867
 20
219.0278365846
 10
347.6197517634
 20
219.2685058923
 10
348.0366484039
 20
219.4604332608
 10
348.5170727698
 20
219.5939946503
 10
349.0369343774
 20
219.662492735
 10
349.5701651948
 20
219.662492735
 10
350.0900268024
 20
219.5939946503
 10
350.5704511683
 20
219.4604332608
 10
350.9873478088
 20
219.2685058923
 10
351.3198117855
 20
219.0278365846
 10
351.5511719664
 20
218.7504935015
 10
351.6698269859
 20
218.4503837835
 10
351.6698269859
 20
218.1425561849
 10
351.5511719664
 20
217.8424464669
 10
351.3198117855
 20
217.5651033838
 10
350.9873478088
 20
217.3244340761
  0
LWPOLYLINE
  5
362
330
1F
100
AcDbEntity
  8
0
  6
Continuous
 62
     7
370
     0
100
AcDbPolyline
 90
       29
 70
   128
 43
0.0
 10
364.4576668739
 20
209.5481468109
 10
364.0408353499
 20
209.3562194425
 10
363.560410984
 20
209.222658053
 10
363.0405493764
 20
209.1541599682
 10
362.507318559
 20
209.1541599682
 10
361.9874569514
 20
209.222658053
 10
361.5070325855
 20
209.3562194425
 10
361.090135945
 20
209.5481468109
 10
360.7576719683
 20
209.7888161187
 10
360.5263117874
 20
210.0661592017
 10
360.4076567679
 20
210.3662689198
 10
360.4076567679
 20
210.6740965184
 10
360.5263117874
 20
210.9742062364
 10
360.7576719683
 20
211.2515493195
 10
361.090135945
 20
211.4922186272
 10
361.5070325855
 20
211.6841459957
 10
361.9874569514
 20
211.8177073852
 10
362.507318559
 20
211.8862054699
 10
363.0405493764
 20
211.8862054699
 10
363.560410984
 20
211.8177073852
 10
364.0408353499
 20
211.6841459957
 10
364.4577319904
 20
211.4922186272
 10
364.7901959671
 20
211.2515493195
 10
365.021556148
 20
210.9742062364
 10
365.1402111675
 20
210.6740965184
 10
365.1402111675
 20
210.3662689198
 10
365.021556148
 20
210.0661592017
 10
364.7901959671
 20
209.7888161187
 10
364.4577319904
 20
209.5481468109
  0
ENDSEC
  0
SECTION
  2
OBJECTS
  0
DICTIONARY
  5
C
330
0
100
AcDbDictionary
281
     1
  3
ACAD_GROUP
350
D
  3
ACAD_LAYOUT
350
1A
  3
ACAD_MLINESTYLE
350
17
  3
ACAD_PLOTSETTINGS
350
19
  3
ACAD_PLOTSTYLENAME
350
E
  3
ACAD_SCALELIST
350
47
  0
DICTIONARY
  5
D
102
{ACAD_REACTORS
330
C
102
}
330
C
100
AcDbDictionary
281
     1
  0
DICTIONARY
  5
1A
102
{ACAD_REACTORS
330
C
102
}
330
C
100
AcDbDictionary
281
     1
  3
Layout1
350
1E
  3
Layout2
350
26
  3
Model
350
22
  0
DICTIONARY
  5
17
102
{ACAD_REACTORS
330
C
102
}
330
C
100
AcDbDictionary
281
     1
  3
Standard
350
18
  0
DICTIONARY
  5
19
102
{ACAD_REACTORS
330
C
102
}
330
C
100
AcDbDictionary
281
     1
  0
ACDBDICTIONARYWDFLT
  5
E
102
{ACAD_REACTORS
330
C
102
}
330
C
100
AcDbDictionary
281
     1
  3
Normal
350
F
100
AcDbDictionaryWithDefault
340
F
  0
DICTIONARY
  5
47
102
{ACAD_REACTORS
330
C
102
}
330
C
100
AcDbDictionary
281
     1
  3
A0
350
48
  3
A1
350
49
  3
A2
350
4A
  3
A3
350
4B
  3
A4
350
4C
  3
A5
350
4D
  3
A6
350
4E
  3
A7
350
4F
  3
A8
350
50
  3
A9
350
51
  3
B0
350
52
  3
B1
350
53
  3
B2
350
54
  3
B3
350
55
  3
B4
350
56
  3
B5
350
57
  3
B6
350
58
  3
B7
350
59
  3
B8
350
5A
  3
B9
350
5B
  3
C0
350
5C
  3
C1
350
5D
  3
C2
350
5E
  3
C3
350
5F
  3
C4
350
60
  3
C5
350
61
  3
C6
350
62
  3
C7
350
63
  3
C8
350
64
  3
C9
350
65
  3
D0
350
66
  3
D1
350
67
  3
D2
350
68
  0
LAYOUT
  5
1E
102
{ACAD_REACTORS
330
1A
102
}
330
1A
100
AcDbPlotSettings
  1

  2
none_device
  4

  6

 40
0.0
 41
0.0
 42
0.0
 43
0.0
 44
0.0
 45
0.0
 46
0.0
 47
0.0
 48
0.0
 49
0.0
140
0.0
141
0.0
142
1.0
143
1.0
 70
   688
 72
     1
 73
     0
 74
     5
  7

 75
    16
147
1.0
148
0.0
149
0.0
100
AcDbLayout
  1
Layout1
 70
     1
 71
     1
 10
0.0
 20
0.0
 11
420.0
 21
297.0
 12
0.0
 22
0.0
 32
0.0
 14
1.0000000000E+20
 24
1.0000000000E+20
 34
1.0000000000E+20
 15
-1.0000000000E+20
 25
-1.0000000000E+20
 35
-1.0000000000E+20
146
0.0
 13
0.0
 23
0.0
 33
0.0
 16
1.0
 26
0.0
 36
0.0
 17
0.0
 27
1.0
 37
0.0
 76
     0
330
1B
  0
LAYOUT
  5
26
102
{ACAD_REACTORS
330
1A
102
}
330
1A
100
AcDbPlotSettings
  1

  2
none_device
  4

  6

 40
0.0
 41
0.0
 42
0.0
 43
0.0
 44
0.0
 45
0.0
 46
0.0
 47
0.0
 48
0.0
 49
0.0
140
0.0
141
0.0
142
1.0
143
1.0
 70
   688
 72
     1
 73
     0
 74
     5
  7

 75
    16
147
1.0
148
0.0
149
0.0
100
AcDbLayout
  1
Layout2
 70
     1
 71
     2
 10
0.0
 20
0.0
 11
0.0
 21
0.0
 12
0.0
 22
0.0
 32
0.0
 14
0.0
 24
0.0
 34
0.0
 15
0.0
 25
0.0
 35
0.0
146
0.0
 13
0.0
 23
0.0
 33
0.0
 16
1.0
 26
0.0
 36
0.0
 17
0.0
 27
1.0
 37
0.0
 76
     0
330
23
  0
LAYOUT
  5
22
102
{ACAD_REACTORS
330
1A
102
}
330
1A
100
AcDbPlotSettings
  1

  2
none_device
  4
Letter_(8.50_x_11.00_Inches)
  6

 40
6.35
 41
6.35
 42
6.35000508
 43
6.35000508
 44
215.9
 45
279.4
 46
0.0
 47
0.0
 48
0.0
 49
0.0
140
0.0
141
0.0
142
1.0
143
1.0
 70
  1712
 72
     1
 73
     0
 74
     0
  7

 75
     0
147
1.0
148
0.0
149
0.0
100
AcDbLayout
  1
Model
 70
     1
 71
     0
 10
0.0
 20
0.0
 11
445.5
 21
315.0
 12
0.0
 22
0.0
 32
0.0
 14
0.0
 24
0.0
 34
0.0
 15
445.5
 25
315.0
 35
0.0
146
0.0
 13
0.0
 23
0.0
 33
0.0
 16
1.0
 26
0.0
 36
0.0
 17
0.0
 27
1.0
 37
0.0
 76
     0
330
1F
331
29
  0
MLINESTYLE
  5
18
102
{ACAD_REACTORS
330
17
102
}
330
17
100
AcDbMlineStyle
  2
Standard
 70
     0
  3

 62
   256
 51
90.0
 52
90.0
 71
     2
 49
0.5
 62
   256
  6
BYLAYER
 49
-0.5
 62
   256
  6
BYLAYER
  0
ACDBPLACEHOLDER
  5
F
102
{ACAD_REACTORS
330
E
102
}
330
E
  0
SCALE
  5
48
102
{ACAD_REACTORS
330
47
102
}
330
47
100
AcDbScale
 70
     0
300
1:1
140
1.0
141
1.0
290
     1
  0
SCALE
  5
49
102
{ACAD_REACTORS
330
47
102
}
330
47
100
AcDbScale
 70
     0
300
1:2
140
1.0
141
2.0
290
     0
  0
SCALE
  5
4A
102
{ACAD_REACTORS
330
47
102
}
330
47
100
AcDbScale
 70
     0
300
1:4
140
1.0
141
4.0
290
     0
  0
SCALE
  5
4B
102
{ACAD_REACTORS
330
47
102
}
330
47
100
AcDbScale
 70
     0
300
1:5
140
1.0
141
5.0
290
     0
  0
SCALE
  5
4C
102
{ACAD_REACTORS
330
47
102
}
330
47
100
AcDbScale
 70
     0
300
1:8
140
1.0
141
8.0
290
     0
  0
SCALE
  5
4D
102
{ACAD_REACTORS
330
47
102
}
330
47
100
AcDbScale
 70
     0
300
1:10
140
1.0
141
10.0
290
     0
  0
SCALE
  5
4E
102
{ACAD_REACTORS
330
47
102
}
330
47
100
AcDbScale
 70
     0
300
1:16
140
1.0
141
16.0
290
     0
  0
SCALE
  5
4F
102
{ACAD_REACTORS
330
47
102
}
330
47
100
AcDbScale
 70
     0
300
1:20
140
1.0
141
20.0
290
     0
  0
SCALE
  5
50
102
{ACAD_REACTORS
330
47
102
}
330
47
100
AcDbScale
 70
     0
300
1:30
140
1.0
141
30.0
290
     0
  0
SCALE
  5
51
102
{ACAD_REACTORS
330
47
102
}
330
47
100
AcDbScale
 70
     0
300
1:40
140
1.0
141
40.0
290
     0
  0
SCALE
  5
52
102
{ACAD_REACTORS
330
47
102
}
330
47
100
AcDbScale
 70
     0
300
1:50
140
1.0
141
50.0
290
     0
  0
SCALE
  5
53
102
{ACAD_REACTORS
330
47
102
}
330
47
100
AcDbScale
 70
     0
300
1:100
140
1.0
141
100.0
290
     0
  0
SCALE
  5
54
102
{ACAD_REACTORS
330
47
102
}
330
47
100
AcDbScale
 70
     0
300
2:1
140
2.0
141
1.0
290
     0
  0
SCALE
  5
55
102
{ACAD_REACTORS
330
47
102
}
330
47
100
AcDbScale
 70
     0
300
4:1
140
4.0
141
1.0
290
     0
  0
SCALE
  5
56
102
{ACAD_REACTORS
330
47
102
}
330
47
100
AcDbScale
 70
     0
300
8:1
140
8.0
141
1.0
290
     0
  0
SCALE
  5
57
102
{ACAD_REACTORS
330
47
102
}
330
47
100
AcDbScale
 70
     0
300
10:1
140
10.0
141
1.0
290
     0
  0
SCALE
  5
58
102
{ACAD_REACTORS
330
47
102
}
330
47
100
AcDbScale
 70
     0
300
100:1
140
100.0
141
1.0
290
     0
  0
SCALE
  5
59
102
{ACAD_REACTORS
330
47
102
}
330
47
100
AcDbScale
 70
     0
300
1/128" = 1'-0"
140
0.0078125
141
12.0
290
     0
  0
SCALE
  5
5A
102
{ACAD_REACTORS
330
47
102
}
330
47
100
AcDbScale
 70
     0
300
1/64" = 1'-0"
140
0.015625
141
12.0
290
     0
  0
SCALE
  5
5B
102
{ACAD_REACTORS
330
47
102
}
330
47
100
AcDbScale
 70
     0
300
1/32" = 1'-0"
140
0.03125
141
12.0
290
     0
  0
SCALE
  5
5C
102
{ACAD_REACTORS
330
47
102
}
330
47
100
AcDbScale
 70
     0
300
1/16" = 1'-0"
140
0.0625
141
12.0
290
     0
  0
SCALE
  5
5D
102
{ACAD_REACTORS
330
47
102
}
330
47
100
AcDbScale
 70
     0
300
3/32" = 1'-0"
140
0.09375
141
12.0
290
     0
  0
SCALE
  5
5E
102
{ACAD_REACTORS
330
47
102
}
330
47
100
AcDbScale
 70
     0
300
1/8" = 1'-0"
140
0.125
141
12.0
290
     0
  0
SCALE
  5
5F
102
{ACAD_REACTORS
330
47
102
}
330
47
100
AcDbScale
 70
     0
300
3/16" = 1'-0"
140
0.1875
141
12.0
290
     0
  0
SCALE
  5
60
102
{ACAD_REACTORS
330
47
102
}
330
47
100
AcDbScale
 70
     0
300
1/4" = 1'-0"
140
0.25
141
12.0
290
     0
  0
SCALE
  5
61
102
{ACAD_REACTORS
330
47
102
}
330
47
100
AcDbScale
 70
     0
300
3/8" = 1'-0"
140
0.375
141
12.0
290
     0
  0
SCALE
  5
62
102
{ACAD_REACTORS
330
47
102
}
330
47
100
AcDbScale
 70
     0
300
1/2" = 1'-0"
140
0.5
141
12.0
290
     0
  0
SCALE
  5
63
102
{ACAD_REACTORS
330
47
102
}
330
47
100
AcDbScale
 70
     0
300
3/4" = 1'-0"
140
0.75
141
12.0
290
     0
  0
SCALE
  5
64
102
{ACAD_REACTORS
330
47
102
}
330
47
100
AcDbScale
 70
     0
300
1" = 1'-0"
140
1.0
141
12.0
290
     0
  0
SCALE
  5
65
102
{ACAD_REACTORS
330
47
102
}
330
47
100
AcDbScale
 70
     0
300
1-1/2" = 1'-0"
140
1.5
141
12.0
290
     0
  0
SCALE
  5
66
102
{ACAD_REACTORS
330
47
102
}
330
47
100
AcDbScale
 70
     0
300
3" = 1'-0"
140
3.0
141
12.0
290
     0
  0
SCALE
  5
67
102
{ACAD_REACTORS
330
47
102
}
330
47
100
AcDbScale
 70
     0
300
6" = 1'-0"
140
6.0
141
12.0
290
     0
  0
SCALE
  5
68
102
{ACAD_REACTORS
330
47
102
}
330
47
100
AcDbScale
 70
     0
300
1'-0" = 1'-0"
140
12.0
141
12.0
290
     0
  0
ENDSEC
  0
EOF
