  0
SECTION
  2
HEADER
  9
$ACADVER
  1
AC1015
  9
$ACADMAINTVER
 70
     6
  9
$DWGCODEPAGE
  3
ANSI_950
  9
$INSBASE
 10
0.0
 20
0.0
 30
0.0
  9
$EXTMIN
 10
0.0
 20
0.0
 30
0.0
  9
$EXTMAX
 10
297.0
 20
210.0
 30
0.0
  9
$LIMMIN
 10
0.0
 20
0.0
  9
$LIMMAX
 10
297.0
 20
210.0
  9
$ORTHOMODE
 70
     0
  9
$REGENMODE
 70
     1
  9
$FILLMODE
 70
     1
  9
$QTEXTMODE
 70
     0
  9
$MIRRTEXT
 70
     1
  9
$LTSCALE
 40
1.0
  9
$ATTMODE
 70
     1
  9
$TEXTSIZE
 40
3.5277777778
  9
$TRACEWID
 40
1.0
  9
$TEXTSTYLE
  7
STANDARD
  9
$CLAYER
  8
0
  9
$CELTYPE
  6
ByLayer
  9
$CECOLOR
 62
   256
  9
$CELTSCALE
 40
1.0
  9
$DISPSILH
 70
     0
  9
$DIMSCALE
 40
1.0
  9
$DIMASZ
 40
2.0
  9
$DIMEXO
 40
1.0
  9
$DIMDLI
 40
3.75
  9
$DIMRND
 40
0.0
  9
$DIMDLE
 40
0.0
  9
$DIMEXE
 40
1.0
  9
$DIMTP
 40
0.0
  9
$DIMTM
 40
0.0
  9
$DIMTXT
 40
2.5
  9
$DIMCEN
 40
2.5
  9
$DIMTSZ
 40
0.0
  9
$DIMTOL
 70
     0
  9
$DIMLIM
 70
     0
  9
$DIMTIH
 70
     1
  9
$DIMTOH
 70
     1
  9
$DIMSE1
 70
     0
  9
$DIMSE2
 70
     0
  9
$DIMTAD
 70
     1
  9
$DIMZIN
 70
     0
  9
$DIMBLK
  1

  9
$DIMASO
 70
     1
  9
$DIMSHO
 70
     1
  9
$DIMPOST
  1

  9
$DIMAPOST
  1

  9
$DIMALT
 70
     0
  9
$DIMALTD
 70
     3
  9
$DIMALTF
 40
0.0393700787
  9
$DIMLFAC
 40
1.0
  9
$DIMTOFL
 70
     1
  9
$DIMTVP
 40
0.0
  9
$DIMTIX
 70
     0
  9
$DIMSOXD
 70
     0
  9
$DIMSAH
 70
     0
  9
$DIMBLK1
  1

  9
$DIMBLK2
  1

  9
$DIMSTYLE
  2
ISO-25
  9
$DIMCLRD
 70
     0
  9
$DIMCLRE
 70
     0
  9
$DIMCLRT
 70
     0
  9
$DIMTFAC
 40
1.0
  9
$DIMGAP
 40
1.0
  9
$DIMJUST
 70
     0
  9
$DIMSD1
 70
     0
  9
$DIMSD2
 70
     0
  9
$DIMTOLJ
 70
     0
  9
$DIMTZIN
 70
     0
  9
$DIMALTZ
 70
     0
  9
$DIMALTTZ
 70
     0
  9
$DIMUPT
 70
     0
  9
$DIMDEC
 70
     2
  9
$DIMTDEC
 70
     2
  9
$DIMALTU
 70
     2
  9
$DIMALTTD
 70
     3
  9
$DIMTXSTY
  7
STANDARD
  9
$DIMAUNIT
 70
     0
  9
$DIMADEC
 70
     1
  9
$DIMALTRND
 40
0.0
  9
$DIMAZIN
 70
     0
  9
$DIMDSEP
 70
    44
  9
$DIMATFIT
 70
     3
  9
$DIMFRAC
 70
     0
  9
$DIMLDRBLK
  1

  9
$DIMLUNIT
 70
     2
  9
$DIMLWD
 70
    -2
  9
$DIMLWE
 70
    -2
  9
$DIMTMOVE
 70
     0
  9
$LUNITS
 70
     2
  9
$LUPREC
 70
     2
  9
$SKETCHINC
 40
1.0
  9
$FILLETRAD
 40
10.0
  9
$AUNITS
 70
     0
  9
$AUPREC
 70
     1
  9
$MENU
  1
.
  9
$ELEVATION
 40
0.0
  9
$PELEVATION
 40
0.0
  9
$THICKNESS
 40
0.0
  9
$LIMCHECK
 70
     0
  9
$CHAMFERA
 40
0.0
  9
$CHAMFERB
 40
0.0
  9
$CHAMFERC
 40
0.0
  9
$CHAMFERD
 40
0.0
  9
$SKPOLY
 70
     0
  9
$TDCREATE
 40
2457497.711179167
  9
$TDUCREATE
 40
2457497.377845834
  9
$TDUPDATE
 40
2457497.711187847
  9
$TDUUPDATE
 40
2457497.377854514
  9
$TDINDWG
 40
0.0000000116
  9
$TDUSRTIMER
 40
0.0000000116
  9
$USRTIMER
 70
     1
  9
$ANGBASE
 50
0.0
  9
$ANGDIR
 70
     0
  9
$PDMODE
 70
     0
  9
$PDSIZE
 40
-1.0
  9
$PLINEWID
 40
0.0
  9
$SPLFRAME
 70
     0
  9
$SPLINETYPE
 70
     6
  9
$SPLINESEGS
 70
     8
  9
$HANDSEED
  5
450
  9
$SURFTAB1
 70
     6
  9
$SURFTAB2
 70
     6
  9
$SURFTYPE
 70
     6
  9
$SURFU
 70
     6
  9
$SURFV
 70
     6
  9
$UCSBASE
  2

  9
$UCSNAME
  2

  9
$UCSORG
 10
0.0
 20
0.0
 30
0.0
  9
$UCSXDIR
 10
1.0
 20
0.0
 30
0.0
  9
$UCSYDIR
 10
0.0
 20
1.0
 30
0.0
  9
$UCSORTHOREF
  2

  9
$UCSORTHOVIEW
 70
     0
  9
$UCSORGTOP
 10
0.0
 20
0.0
 30
0.0
  9
$UCSORGBOTTOM
 10
0.0
 20
0.0
 30
0.0
  9
$UCSORGLEFT
 10
0.0
 20
0.0
 30
0.0
  9
$UCSORGRIGHT
 10
0.0
 20
0.0
 30
0.0
  9
$UCSORGFRONT
 10
0.0
 20
0.0
 30
0.0
  9
$UCSORGBACK
 10
0.0
 20
0.0
 30
0.0
  9
$PUCSBASE
  2

  9
$PUCSNAME
  2

  9
$PUCSORG
 10
0.0
 20
0.0
 30
0.0
  9
$PUCSXDIR
 10
1.0
 20
0.0
 30
0.0
  9
$PUCSYDIR
 10
0.0
 20
1.0
 30
0.0
  9
$PUCSORTHOREF
  2

  9
$PUCSORTHOVIEW
 70
     0
  9
$PUCSORGTOP
 10
0.0
 20
0.0
 30
0.0
  9
$PUCSORGBOTTOM
 10
0.0
 20
0.0
 30
0.0
  9
$PUCSORGLEFT
 10
0.0
 20
0.0
 30
0.0
  9
$PUCSORGRIGHT
 10
0.0
 20
0.0
 30
0.0
  9
$PUCSORGFRONT
 10
0.0
 20
0.0
 30
0.0
  9
$PUCSORGBACK
 10
0.0
 20
0.0
 30
0.0
  9
$USERI1
 70
     0
  9
$USERI2
 70
     0
  9
$USERI3
 70
     0
  9
$USERI4
 70
     0
  9
$USERI5
 70
     0
  9
$USERR1
 40
0.0
  9
$USERR2
 40
0.0
  9
$USERR3
 40
0.0
  9
$USERR4
 40
0.0
  9
$USERR5
 40
0.0
  9
$WORLDVIEW
 70
     1
  9
$SHADEDGE
 70
     3
  9
$SHADEDIF
 70
    70
  9
$TILEMODE
 70
     1
  9
$MAXACTVP
 70
    64
  9
$PINSBASE
 10
0.0
 20
0.0
 30
0.0
  9
$PLIMCHECK
 70
     0
  9
$PEXTMIN
 10
1.0000000000E+20
 20
1.0000000000E+20
 30
1.0000000000E+20
  9
$PEXTMAX
 10
-1.0000000000E+20
 20
-1.0000000000E+20
 30
-1.0000000000E+20
  9
$PLIMMIN
 10
0.0
 20
0.0
  9
$PLIMMAX
 10
420.0
 20
297.0
  9
$UNITMODE
 70
     0
  9
$VISRETAIN
 70
     1
  9
$PLINEGEN
 70
     0
  9
$PSLTSCALE
 70
     1
  9
$TREEDEPTH
 70
  3020
  9
$CMLSTYLE
  2
Standard
  9
$CMLJUST
 70
     0
  9
$CMLSCALE
 40
20.0
  9
$PROXYGRAPHICS
 70
     1
  9
$MEASUREMENT
 70
     1
  9
$CELWEIGHT
370
    -1
  9
$ENDCAPS
280
     0
  9
$JOINSTYLE
280
     0
  9
$LWDISPLAY
290
     1
  9
$INSUNITS
 70
     4
  9
$HYPERLINKBASE
  1

  9
$STYLESHEET
  1

  9
$XEDIT
290
     1
  9
$CEPSNTYPE
380
     0
  9
$PSTYLEMODE
290
     1
  9
$FINGERPRINTGUID
  2
{6F2FABDB-FB50-440B-B09E-5F48C57097E5}
  9
$VERSIONGUID
  2
{FAEB1C32-E019-11D5-929B-00C0DF256EC4}
  9
$EXTNAMES
290
     1
  9
$PSVPSCALE
 40
0.0
  9
$OLESTARTUP
290
     0
  0
ENDSEC
  0
SECTION
  2
CLASSES
  0
CLASS
  1
ACDBDICTIONARYWDFLT
  2
AcDbDictionaryWithDefault
  3
ObjectDBX Classes
 90
        0
280
     0
281
     0
  0
CLASS
  1
VISUALSTYLE
  2
AcDbVisualStyle
  3
ObjectDBX Classes
 90
     4095
280
     0
281
     0
  0
CLASS
  1
MATERIAL
  2
AcDbMaterial
  3
ObjectDBX Classes
 90
     1153
280
     0
281
     0
  0
CLASS
  1
SCALE
  2
AcDbScale
  3
ObjectDBX Classes
 90
     1153
280
     0
281
     0
  0
CLASS
  1
TABLESTYLE
  2
AcDbTableStyle
  3
ObjectDBX Classes
 90
     4095
280
     0
281
     0
  0
CLASS
  1
MLEADERSTYLE
  2
AcDbMLeaderStyle
  3
ACDB_MLEADERSTYLE_CLASS
 90
     4095
280
     0
281
     0
  0
CLASS
  1
SUN
  2
AcDbSun
  3
SCENEOE
 90
     1153
280
     0
281
     0
  0
CLASS
  1
ACDBPLACEHOLDER
  2
AcDbPlaceHolder
  3
ObjectDBX Classes
 90
        0
280
     0
281
     0
  0
CLASS
  1
LAYOUT
  2
AcDbLayout
  3
ObjectDBX Classes
 90
        0
280
     0
281
     0
  0
ENDSEC
  0
SECTION
  2
TABLES
  0
TABLE
  2
VPORT
  5
8
330
0
100
AcDbSymbolTable
 70
     1
  0
VPORT
  5
29
330
8
100
AcDbSymbolTableRecord
100
AcDbViewportTableRecord
  2
*Active
 70
     0
 10
0.0
 20
0.0
 11
1.0
 21
1.0
 12
148.5
 22
105.0
 13
0.0
 23
0.0
 14
10.0
 24
10.0
 15
10.0
 25
10.0
 16
0.0
 26
0.0
 36
1.0
 17
0.0
 27
0.0
 37
0.0
 40
210.0
 41
1.4142857143
 42
50.0
 43
0.0
 44
0.0
 50
0.0
 51
0.0
 71
     0
 72
  2000
 73
     1
 74
     3
 75
     0
 76
     0
 77
     0
 78
     0
281
     0
 65
     1
110
0.0
120
0.0
130
0.0
111
1.0
121
0.0
131
0.0
112
0.0
122
1.0
132
0.0
 79
     0
146
0.0
  0
ENDTAB
  0
TABLE
  2
LTYPE
  5
5
330
0
100
AcDbSymbolTable
 70
     6
  0
LTYPE
  5
14
330
5
100
AcDbSymbolTableRecord
100
AcDbLinetypeTableRecord
  2
ByBlock
 70
     0
  3

 72
    65
 73
     0
 40
0.0
  0
LTYPE
  5
15
330
5
100
AcDbSymbolTableRecord
100
AcDbLinetypeTableRecord
  2
ByLayer
 70
     0
  3

 72
    65
 73
     0
 40
0.0
  0
LTYPE
  5
16
330
5
100
AcDbSymbolTableRecord
100
AcDbLinetypeTableRecord
  2
Continuous
 70
     0
  3
Solid line
 72
    65
 73
     0
 40
0.0
  0
LTYPE
  5
6E
330
5
100
AcDbSymbolTableRecord
100
AcDbLinetypeTableRecord
  2
HIDDEN
 70
     0
  3
Hidden __ __ __ __ __ __ __ __ __ __ __ __ __ __
 72
    65
 73
     2
 40
1.905
 49
1.27
 74
     0
 49
-0.635
 74
     0
  0
LTYPE
  5
6F
330
5
100
AcDbSymbolTableRecord
100
AcDbLinetypeTableRecord
  2
PHANTOM
 70
     0
  3
Phantom ______  __  __  ______  __  __  ______
 72
    65
 73
     6
 40
12.7
 49
6.35
 74
     0
 49
-1.27
 74
     0
 49
1.27
 74
     0
 49
-1.27
 74
     0
 49
1.27
 74
     0
 49
-1.27
 74
     0
  0
LTYPE
  5
70
330
5
100
AcDbSymbolTableRecord
100
AcDbLinetypeTableRecord
  2
CENTER
 70
     0
  3
Center ____ _ ____ _ ____ _ ____ _ ____ _ ____
 72
    65
 73
     4
 40
10.16
 49
6.35
 74
     0
 49
-1.27
 74
     0
 49
1.27
 74
     0
 49
-1.27
 74
     0
  0
LTYPE
  5
71
330
5
100
AcDbSymbolTableRecord
100
AcDbLinetypeTableRecord
  2
CENTERX2
 70
     0
  3
Center (2x) ________  __  ________  __  _____
 72
    65
 73
     4
 40
20.32
 49
12.7
 74
     0
 49
-2.54
 74
     0
 49
2.54
 74
     0
 49
-2.54
 74
     0
  0
LTYPE
  5
72
330
5
100
AcDbSymbolTableRecord
100
AcDbLinetypeTableRecord
  2
DOT2
 70
     0
  3
Dot (.5x) ........................................
 72
    65
 73
     2
 40
0.635
 49
0.0
 74
     0
 49
-0.635
 74
     0
  0
ENDTAB
  0
TABLE
  2
LAYER
  5
2
330
0
100
AcDbSymbolTable
 70
    10
  0
LAYER
  5
10
330
2
100
AcDbSymbolTableRecord
100
AcDbLayerTableRecord
  2
0
 70
     0
 62
     7
  6
Continuous
370
    -3
390
F
  0
LAYER
  5
73
330
2
100
AcDbSymbolTableRecord
100
AcDbLayerTableRecord
  2
SLD-0
 70
     0
 62
   179
  6
Continuous
370
    15
390
F
  0
LAYER
  5
74
330
2
100
AcDbSymbolTableRecord
100
AcDbLayerTableRecord
  2
輪廓線
 70
     0
 62
   219
  6
Continuous
370
    15
390
F
  0
LAYER
  5
75
330
2
100
AcDbSymbolTableRecord
100
AcDbLayerTableRecord
  2
DIM
 70
     0
 62
     7
  6
Continuous
370
    -3
390
F
  0
LAYER
  5
76
330
2
100
AcDbSymbolTableRecord
100
AcDbLayerTableRecord
  2
中心線
 70
     0
 62
     1
  6
CENTERX2
370
    -3
390
F
  0
LAYER
  5
77
330
2
100
AcDbSymbolTableRecord
100
AcDbLayerTableRecord
  2
虛線
 70
     0
 62
     6
  6
HIDDEN
370
    -3
390
F
  0
LAYER
  5
78
330
2
100
AcDbSymbolTableRecord
100
AcDbLayerTableRecord
  2
SECTION
 70
     0
 62
     5
  6
PHANTOM
370
    15
390
F
  0
LAYER
  5
79
330
2
100
AcDbSymbolTableRecord
100
AcDbLayerTableRecord
  2
假想線
 70
     0
 62
     5
  6
PHANTOM
370
    -3
390
F
  0
LAYER
  5
7A
330
2
100
AcDbSymbolTableRecord
100
AcDbLayerTableRecord
  2
工作區域參考線
 70
     0
 62
   179
  6
Continuous
370
    -3
390
F
  0
LAYER
  5
7B
330
2
100
AcDbSymbolTableRecord
100
AcDbLayerTableRecord
  2
圖層_1
 70
     0
 62
   179
  6
Continuous
370
    -3
390
F
  0
ENDTAB
  0
TABLE
  2
STYLE
  5
3
330
0
100
AcDbSymbolTable
 70
     5
  0
STYLE
  5
11
330
3
100
AcDbSymbolTableRecord
100
AcDbTextStyleTableRecord
  2
STANDARD
 70
     0
 40
0.0
 41
1.0
 50
0.0
 71
     0
 42
3.5277777778
  3
ARIALBD.TTF
  4

1001
ACAD
1000
ARIAL
1071
 33554466
  0
STYLE
  5
7C
330
3
100
AcDbSymbolTableRecord
100
AcDbTextStyleTableRecord
  2
SLDTEXTSTYLE0
 70
     0
 40
0.0
 41
1.0
 50
0.0
 71
     0
 42
2.5
  3
ARIAL.TTF
  4

1001
ACAD
1000
Arial
1071
      290
  0
STYLE
  5
CD
330
3
100
AcDbSymbolTableRecord
100
AcDbTextStyleTableRecord
  2
SLDTEXTSTYLE1
 70
     0
 40
0.0
 41
0.948
 50
0.0
 71
     0
 42
3.5277777778
  3
ARIAL.TTF
  4

1001
ACAD
1000
Arial
1071
      290
  0
STYLE
  5
D6
330
3
100
AcDbSymbolTableRecord
100
AcDbTextStyleTableRecord
  2
SLDTEXTSTYLE2
 70
     0
 40
0.0
 41
1.0
 50
0.0
 71
     0
 42
3.5277777778
  3
ARIALBD.TTF
  4

1001
ACAD
1000
Arial CE
1071
 33554722
  0
STYLE
  5
104
330
3
100
AcDbSymbolTableRecord
100
AcDbTextStyleTableRecord
  2
SLDTEXTSTYLE3
 70
     0
 40
0.0
 41
0.948
 50
0.0
 71
     0
 42
3.5277777778
  3
ARIALBD.TTF
  4

1001
ACAD
1000
Arial
1071
 33554722
  0
ENDTAB
  0
TABLE
  2
VIEW
  5
6
330
0
100
AcDbSymbolTable
 70
     0
  0
ENDTAB
  0
TABLE
  2
UCS
  5
7
330
0
100
AcDbSymbolTable
 70
     0
  0
ENDTAB
  0
TABLE
  2
APPID
  5
9
330
0
100
AcDbSymbolTable
 70
     1
  0
APPID
  5
12
330
9
100
AcDbSymbolTableRecord
100
AcDbRegAppTableRecord
  2
ACAD
 70
     0
  0
ENDTAB
  0
TABLE
  2
DIMSTYLE
  5
A
330
0
100
AcDbSymbolTable
 70
     6
100
AcDbDimStyleTable
  0
DIMSTYLE
105
27
330
A
100
AcDbSymbolTableRecord
100
AcDbDimStyleTableRecord
  2
ISO-25
 70
     0
 41
2.5
 42
0.625
 43
3.75
 44
1.25
 73
     0
 74
     0
 77
     1
 78
     8
140
2.5
141
2.5
143
0.0393700787
147
0.625
171
     3
172
     1
178
     0
271
     2
272
     2
274
     3
278
    44
283
     0
284
     8
340
7C
  0
DIMSTYLE
105
1F5
102
{ACAD_REACTORS
330
1F4
330
1FF
330
209
330
213
330
2C0
330
2D7
330
2E1
330
2EB
330
2F5
102
}
330
A
100
AcDbSymbolTableRecord
100
AcDbDimStyleTableRecord
  2
SLDDIMSTYLE0
 70
     0
 41
2.0
 44
0.0
 45
0.000000001
 73
     0
 74
     0
 77
     1
 78
    12
 79
     3
140
2.5
147
0.625
173
     1
178
     0
271
     2
272
     2
276
     2
284
    12
340
CD
  0
DIMSTYLE
105
21E
102
{ACAD_REACTORS
330
21D
102
}
330
A
100
AcDbSymbolTableRecord
100
AcDbDimStyleTableRecord
  2
SLDDIMSTYLE1
 70
     0
 41
2.0
 44
0.0
 45
0.000000001
 73
     0
 74
     0
 77
     1
 78
    12
 79
     3
140
2.5
147
0.625
173
     1
178
     0
271
     1
272
     1
276
     2
284
    12
340
CD
  0
DIMSTYLE
105
235
330
A
100
AcDbSymbolTableRecord
100
AcDbDimStyleTableRecord
  2
SLDDIMSTYLE2
 70
     0
 41
2.0
 44
0.0
 45
0.000000001
146
2.0
147
0.0
173
     1
178
     0
271
     0
272
     0
276
     2
340
11
  0
DIMSTYLE
105
2CB
102
{ACAD_REACTORS
330
2CA
102
}
330
A
100
AcDbSymbolTableRecord
100
AcDbDimStyleTableRecord
  2
SLDDIMSTYLE3
 70
     0
 41
2.0
 44
0.0
 45
0.000000001
 73
     0
 74
     0
 77
     1
 78
    12
 79
     3
140
2.5
147
0.625
172
     1
173
     1
178
     0
271
     2
272
     2
276
     2
284
    12
289
     0
340
CD
  0
DIMSTYLE
105
300
102
{ACAD_REACTORS
330
2FF
102
}
330
A
100
AcDbSymbolTableRecord
100
AcDbDimStyleTableRecord
  2
SLDDIMSTYLE4
 70
     0
  3
<>
 41
2.0
 44
0.0
 45
0.000000001
 78
    12
 79
     3
140
2.5
141
0.0
147
0.625
173
     1
178
     0
271
     2
272
     2
276
     2
284
    12
340
CD
  0
ENDTAB
  0
TABLE
  2
BLOCK_RECORD
  5
1
330
0
100
AcDbSymbolTable
 70
    20
  0
BLOCK_RECORD
  5
1F
330
1
100
AcDbSymbolTableRecord
100
AcDbBlockTableRecord
  2
*Model_Space
340
22
  0
BLOCK_RECORD
  5
1B
330
1
100
AcDbSymbolTableRecord
100
AcDbBlockTableRecord
  2
*Paper_Space
340
1E
  0
BLOCK_RECORD
  5
23
330
1
100
AcDbSymbolTableRecord
100
AcDbBlockTableRecord
  2
*Paper_Space0
340
26
  0
BLOCK_RECORD
  5
CF
330
1
100
AcDbSymbolTableRecord
100
AcDbBlockTableRecord
  2
SW_NOTE_0
340
0
102
{BLKREFS
331
D5
102
}
  0
BLOCK_RECORD
  5
107
330
1
100
AcDbSymbolTableRecord
100
AcDbBlockTableRecord
  2
SW_NOTE_1
340
0
102
{BLKREFS
331
10C
102
}
  0
BLOCK_RECORD
  5
1F6
330
1
100
AcDbSymbolTableRecord
100
AcDbBlockTableRecord
  2
_D
340
0
  0
BLOCK_RECORD
  5
200
330
1
100
AcDbSymbolTableRecord
100
AcDbBlockTableRecord
  2
_D_1
340
0
  0
BLOCK_RECORD
  5
20A
330
1
100
AcDbSymbolTableRecord
100
AcDbBlockTableRecord
  2
_D_2
340
0
  0
BLOCK_RECORD
  5
214
330
1
100
AcDbSymbolTableRecord
100
AcDbBlockTableRecord
  2
_D_3
340
0
  0
BLOCK_RECORD
  5
21F
330
1
100
AcDbSymbolTableRecord
100
AcDbBlockTableRecord
  2
_D_4
340
0
  0
BLOCK_RECORD
  5
229
330
1
100
AcDbSymbolTableRecord
100
AcDbBlockTableRecord
  2
SW_NOTE_2
340
0
102
{BLKREFS
331
234
102
}
  0
BLOCK_RECORD
  5
237
330
1
100
AcDbSymbolTableRecord
100
AcDbBlockTableRecord
  2
SW_NOTE_3
340
0
102
{BLKREFS
331
23C
102
}
  0
BLOCK_RECORD
  5
23E
330
1
100
AcDbSymbolTableRecord
100
AcDbBlockTableRecord
  2
SW_NOTE_4
340
0
102
{BLKREFS
331
244
102
}
  0
BLOCK_RECORD
  5
246
330
1
100
AcDbSymbolTableRecord
100
AcDbBlockTableRecord
  2
SW_CENTERMARKSYMBOL_0
340
0
102
{BLKREFS
331
251
102
}
  0
BLOCK_RECORD
  5
2C1
330
1
100
AcDbSymbolTableRecord
100
AcDbBlockTableRecord
  2
_D_5
340
0
  0
BLOCK_RECORD
  5
2CC
330
1
100
AcDbSymbolTableRecord
100
AcDbBlockTableRecord
  2
_D_6
340
0
  0
BLOCK_RECORD
  5
2D8
330
1
100
AcDbSymbolTableRecord
100
AcDbBlockTableRecord
  2
_D_7
340
0
  0
BLOCK_RECORD
  5
2E2
330
1
100
AcDbSymbolTableRecord
100
AcDbBlockTableRecord
  2
_D_8
340
0
  0
BLOCK_RECORD
  5
2EC
330
1
100
AcDbSymbolTableRecord
100
AcDbBlockTableRecord
  2
_D_9
340
0
  0
BLOCK_RECORD
  5
2F6
330
1
100
AcDbSymbolTableRecord
100
AcDbBlockTableRecord
  2
_D_10
340
0
  0
BLOCK_RECORD
  5
301
330
1
100
AcDbSymbolTableRecord
100
AcDbBlockTableRecord
  2
_D_11
340
0
  0
BLOCK_RECORD
  5
309
330
1
100
AcDbSymbolTableRecord
100
AcDbBlockTableRecord
  2
SW_CENTERMARKSYMBOL_1
340
0
102
{BLKREFS
331
314
102
}
  0
ENDTAB
  0
ENDSEC
  0
SECTION
  2
BLOCKS
  0
BLOCK
  5
20
330
1F
100
AcDbEntity
  8
0
100
AcDbBlockBegin
  2
*Model_Space
 70
     0
 10
0.0
 20
0.0
 30
0.0
  3
*Model_Space
  1

  0
ENDBLK
  5
21
330
1F
100
AcDbEntity
  8
0
100
AcDbBlockEnd
  0
BLOCK
  5
1C
330
1B
100
AcDbEntity
 67
     1
  8
0
100
AcDbBlockBegin
  2
*Paper_Space
 70
     0
 10
0.0
 20
0.0
 30
0.0
  3
*Paper_Space
  1

  0
ENDBLK
  5
1D
330
1B
100
AcDbEntity
 67
     1
  8
0
100
AcDbBlockEnd
  0
BLOCK
  5
24
330
23
100
AcDbEntity
  8
0
100
AcDbBlockBegin
  2
*Paper_Space0
 70
     0
 10
0.0
 20
0.0
 30
0.0
  3
*Paper_Space0
  1

  0
ENDBLK
  5
25
330
23
100
AcDbEntity
  8
0
100
AcDbBlockEnd
  0
BLOCK
  5
D0
330
CF
100
AcDbEntity
  8
0
100
AcDbBlockBegin
  2
SW_NOTE_0
 70
     0
 10
0.0
 20
0.0
 30
0.0
  3
SW_NOTE_0
  1

  0
MTEXT
  5
D2
330
CF
100
AcDbEntity
  8
0
  6
Continuous
 62
     0
370
     0
100
AcDbMText
 10
0.0
 20
3.4106583948
 30
0.0
 40
2.6458333333
 41
0.0
 71
     1
 72
     1
  1
PROPRIETARY AND CONFIDENTIAL
  7
SLDTEXTSTYLE1
 73
     1
 44
1.0
  0
MTEXT
  5
D3
330
CF
100
AcDbEntity
  8
0
  6
Continuous
 62
     0
370
     0
100
AcDbMText
 10
0.0
 20
-0.08198348
 30
0.0
 40
1.8520833333
 41
0.0
 71
     1
 72
     1
  1
THE INFORMATION CONTAINED IN THIS DRAWING IS THE SOLE PROPERTY OF UNICE E-O SERVICES INC. ANY REPRODUCTION IN PART OR AS A WHOLE WITHOUT THE WRITTEN PERMISSION OF UNICE E-O SERVICES INC IS 
  7
SLDTEXTSTYLE1
 73
     1
 44
1.0
  0
MTEXT
  5
D4
330
CF
100
AcDbEntity
  8
0
  6
Continuous
 62
     0
370
     0
100
AcDbMText
 10
0.0
 20
-2.5514278946
 30
0.0
 40
1.8520833333
 41
0.0
 71
     1
 72
     1
  1
PROHIBITED.
  7
SLDTEXTSTYLE1
 73
     1
 44
1.0
  0
ENDBLK
  5
D1
330
CF
100
AcDbEntity
  8
0
100
AcDbBlockEnd
  0
BLOCK
  5
108
330
107
100
AcDbEntity
  8
0
100
AcDbBlockBegin
  2
SW_NOTE_1
 70
     0
 10
0.0
 20
0.0
 30
0.0
  3
SW_NOTE_1
  1

  0
MTEXT
  5
10A
330
107
100
AcDbEntity
  8
DIM
 62
     0
100
AcDbMText
 10
0.0
 20
2.3874608764
 30
0.0
 40
1.8520833333
 41
0.0
 71
     1
 72
     1
  1
No.5, Andong Rd., Chung Li District,
  7
SLDTEXTSTYLE0
 73
     1
 44
1.0
  0
MTEXT
  5
10B
330
107
100
AcDbEntity
  8
DIM
 62
     0
100
AcDbMText
 10
0.0
 20
-0.0819835382
 30
0.0
 40
1.8520833333
 41
0.0
 71
     1
 72
     1
  1
Taoyuan City 32063, Taiwan, R.O.C.
  7
SLDTEXTSTYLE0
 73
     1
 44
1.0
  0
ENDBLK
  5
109
330
107
100
AcDbEntity
  8
0
100
AcDbBlockEnd
  0
BLOCK
  5
1F7
330
1F6
100
AcDbEntity
  8
0
100
AcDbBlockBegin
  2
_D
 70
     0
 10
0.0
 20
0.0
 30
0.0
  3
_D
  1

  0
SOLID
  5
1F9
330
1F6
100
AcDbEntity
  8
DIM
 62
     7
100
AcDbTrace
 10
118.3206441426
 20
64.0201985138
 30
0.0
 11
120.3206441426
 21
63.7701985138
 31
0.0
 12
120.3206441426
 22
64.2701985138
 32
0.0
 13
120.3206441426
 23
64.2701985138
 33
0.0
  0
SOLID
  5
1FA
330
1F6
100
AcDbEntity
  8
DIM
 62
     7
100
AcDbTrace
 10
143.3206441426
 20
64.0201985138
 30
0.0
 11
141.3206441426
 21
64.2701985138
 31
0.0
 12
141.3206441426
 22
63.7701985138
 32
0.0
 13
141.3206441426
 23
63.7701985138
 33
0.0
  0
LINE
  5
1FB
330
1F6
100
AcDbEntity
  8
DIM
 62
     7
100
AcDbLine
 10
118.3206441426
 20
71.0201985138
 30
0.0
 11
118.3206441426
 21
63.0201985138
 31
0.0
  0
LINE
  5
1FC
330
1F6
100
AcDbEntity
  8
DIM
 62
     7
100
AcDbLine
 10
143.3206441426
 20
71.0201985138
 30
0.0
 11
143.3206441426
 21
63.0201985138
 31
0.0
  0
LINE
  5
1FD
330
1F6
100
AcDbEntity
  8
DIM
 62
     7
100
AcDbLine
 10
118.3206441426
 20
64.0201985138
 30
0.0
 11
143.3206441426
 21
64.0201985138
 31
0.0
  0
MTEXT
  5
1FE
330
1F6
100
AcDbEntity
  8
DIM
 62
     7
100
AcDbMText
 10
128.9109219178
 20
67.2428676886
 30
0.0
 40
2.5
 41
0.0
 71
     1
 72
     1
  1
25
  7
SLDTEXTSTYLE1
 73
     1
 44
1.0
  0
ENDBLK
  5
1F8
330
1F6
100
AcDbEntity
  8
0
100
AcDbBlockEnd
  0
BLOCK
  5
201
330
200
100
AcDbEntity
  8
0
100
AcDbBlockBegin
  2
_D_1
 70
     0
 10
0.0
 20
0.0
 30
0.0
  3
_D_1
  1

  0
SOLID
  5
203
330
200
100
AcDbEntity
  8
DIM
 62
     7
100
AcDbTrace
 10
110.8206441426
 20
58.0201985138
 30
0.0
 11
112.8206441426
 21
57.7701985138
 31
0.0
 12
112.8206441426
 22
58.2701985138
 32
0.0
 13
112.8206441426
 23
58.2701985138
 33
0.0
  0
SOLID
  5
204
330
200
100
AcDbEntity
  8
DIM
 62
     7
100
AcDbTrace
 10
150.8206441426
 20
58.0201985138
 30
0.0
 11
148.8206441426
 21
58.2701985138
 31
0.0
 12
148.8206441426
 22
57.7701985138
 32
0.0
 13
148.8206441426
 23
57.7701985138
 33
0.0
  0
LINE
  5
205
330
200
100
AcDbEntity
  8
DIM
 62
     7
100
AcDbLine
 10
110.8206441426
 20
71.0201985138
 30
0.0
 11
110.8206441426
 21
57.0201985138
 31
0.0
  0
LINE
  5
206
330
200
100
AcDbEntity
  8
DIM
 62
     7
100
AcDbLine
 10
150.8206441426
 20
71.0201985138
 30
0.0
 11
150.8206441426
 21
57.0201985138
 31
0.0
  0
LINE
  5
207
330
200
100
AcDbEntity
  8
DIM
 62
     7
100
AcDbLine
 10
110.8206441426
 20
58.0201985138
 30
0.0
 11
150.8206441426
 21
58.0201985138
 31
0.0
  0
MTEXT
  5
208
330
200
100
AcDbEntity
  8
DIM
 62
     7
100
AcDbMText
 10
128.9109219178
 20
61.2428676886
 30
0.0
 40
2.5
 41
0.0
 71
     1
 72
     1
  1
40
  7
SLDTEXTSTYLE1
 73
     1
 44
1.0
  0
ENDBLK
  5
202
330
200
100
AcDbEntity
  8
0
100
AcDbBlockEnd
  0
BLOCK
  5
20B
330
20A
100
AcDbEntity
  8
0
100
AcDbBlockBegin
  2
_D_2
 70
     0
 10
0.0
 20
0.0
 30
0.0
  3
_D_2
  1

  0
SOLID
  5
20D
330
20A
100
AcDbEntity
  8
DIM
 62
     7
100
AcDbTrace
 10
158.5883051734
 20
97.0201985138
 30
0.0
 11
158.3383051734
 21
95.0201985138
 31
0.0
 12
158.8383051734
 22
95.0201985138
 32
0.0
 13
158.8383051734
 23
95.0201985138
 33
0.0
  0
SOLID
  5
20E
330
20A
100
AcDbEntity
  8
DIM
 62
     7
100
AcDbTrace
 10
158.5883051734
 20
72.0201985138
 30
0.0
 11
158.8383051734
 21
74.0201985138
 31
0.0
 12
158.3383051734
 22
74.0201985138
 32
0.0
 13
158.3383051734
 23
74.0201985138
 33
0.0
  0
LINE
  5
20F
330
20A
100
AcDbEntity
  8
DIM
 62
     7
100
AcDbLine
 10
131.8206441426
 20
97.0201985138
 30
0.0
 11
159.5883051734
 21
97.0201985138
 31
0.0
  0
LINE
  5
210
330
20A
100
AcDbEntity
  8
DIM
 62
     7
100
AcDbLine
 10
151.8206441426
 20
72.0201985138
 30
0.0
 11
159.5883051734
 21
72.0201985138
 31
0.0
  0
LINE
  5
211
330
20A
100
AcDbEntity
  8
DIM
 62
     7
100
AcDbLine
 10
158.5883051734
 20
97.0201985138
 30
0.0
 11
158.5883051734
 21
72.0201985138
 31
0.0
  0
MTEXT
  5
212
330
20A
100
AcDbEntity
  8
DIM
 62
     7
100
AcDbMText
 10
155.3656359986
 20
82.610476289
 30
0.0
 40
2.5
 41
0.0
 71
     1
 72
     1
  1
25
  7
SLDTEXTSTYLE1
 11
-7.044195017643634E-15
 21
1.0
 31
0.0
 73
     1
 44
1.0
  0
ENDBLK
  5
20C
330
20A
100
AcDbEntity
  8
0
100
AcDbBlockEnd
  0
BLOCK
  5
215
330
214
100
AcDbEntity
  8
0
100
AcDbBlockBegin
  2
_D_3
 70
     0
 10
0.0
 20
0.0
 30
0.0
  3
_D_3
  1

  0
SOLID
  5
217
330
214
100
AcDbEntity
  8
DIM
 62
     7
100
AcDbTrace
 10
165.6424946484
 20
135.0201985138
 30
0.0
 11
165.3924946484
 21
133.0201985138
 31
0.0
 12
165.8924946484
 22
133.0201985138
 32
0.0
 13
165.8924946484
 23
133.0201985138
 33
0.0
  0
SOLID
  5
218
330
214
100
AcDbEntity
  8
DIM
 62
     7
100
AcDbTrace
 10
165.6424946484
 20
72.0201985138
 30
0.0
 11
165.8924946484
 21
74.0201985138
 31
0.0
 12
165.3924946484
 22
74.0201985138
 32
0.0
 13
165.3924946484
 23
74.0201985138
 33
0.0
  0
LINE
  5
219
330
214
100
AcDbEntity
  8
DIM
 62
     7
100
AcDbLine
 10
151.8206441426
 20
135.0201985138
 30
0.0
 11
166.6424946484
 21
135.0201985138
 31
0.0
  0
LINE
  5
21A
330
214
100
AcDbEntity
  8
DIM
 62
     7
100
AcDbLine
 10
151.8206441426
 20
72.0201985138
 30
0.0
 11
166.6424946484
 21
72.0201985138
 31
0.0
  0
LINE
  5
21B
330
214
100
AcDbEntity
  8
DIM
 62
     7
100
AcDbLine
 10
165.6424946484
 20
135.0201985138
 30
0.0
 11
165.6424946484
 21
72.0201985138
 31
0.0
  0
MTEXT
  5
21C
330
214
100
AcDbEntity
  8
DIM
 62
     7
100
AcDbMText
 10
162.4198254736
 20
101.610476289
 30
0.0
 40
2.5
 41
0.0
 71
     1
 72
     1
  1
63
  7
SLDTEXTSTYLE1
 11
-7.044195017643634E-15
 21
1.0
 31
0.0
 73
     1
 44
1.0
  0
ENDBLK
  5
216
330
214
100
AcDbEntity
  8
0
100
AcDbBlockEnd
  0
BLOCK
  5
220
330
21F
100
AcDbEntity
  8
0
100
AcDbBlockBegin
  2
_D_4
 70
     0
 10
0.0
 20
0.0
 30
0.0
  3
_D_4
  1

  0
SOLID
  5
222
330
21F
100
AcDbEntity
  8
DIM
 62
     7
100
AcDbTrace
 10
174.6424946484
 20
143.6517811899
 30
0.0
 11
174.3924946484
 21
141.6517811899
 31
0.0
 12
174.8924946484
 22
141.6517811899
 32
0.0
 13
174.8924946484
 23
141.6517811899
 33
0.0
  0
SOLID
  5
223
330
21F
100
AcDbEntity
  8
DIM
 62
     7
100
AcDbTrace
 10
174.6424946484
 20
72.0201985138
 30
0.0
 11
174.8924946484
 21
74.0201985138
 31
0.0
 12
174.3924946484
 22
74.0201985138
 32
0.0
 13
174.3924946484
 23
74.0201985138
 33
0.0
  0
LINE
  5
224
330
21F
100
AcDbEntity
  8
DIM
 62
     7
100
AcDbLine
 10
151.3206441426
 20
143.6517811899
 30
0.0
 11
175.6424946484
 21
143.6517811899
 31
0.0
  0
LINE
  5
225
330
21F
100
AcDbEntity
  8
DIM
 62
     7
100
AcDbLine
 10
151.8206441426
 20
72.0201985138
 30
0.0
 11
175.6424946484
 21
72.0201985138
 31
0.0
  0
LINE
  5
226
330
21F
100
AcDbEntity
  8
DIM
 62
     7
100
AcDbLine
 10
174.6424946484
 20
143.6517811899
 30
0.0
 11
174.6424946484
 21
72.0201985138
 31
0.0
  0
MTEXT
  5
227
330
21F
100
AcDbEntity
  8
DIM
 62
     7
100
AcDbMText
 10
167.583020007
 20
104.4939760457
 30
0.0
 40
2.5
 41
0.0
 71
     1
 72
     1
  1
71.6
  7
SLDTEXTSTYLE1
 11
-7.044195017643634E-15
 21
1.0
 31
0.0
 73
     1
 44
1.0
  0
MTEXT
  5
228
330
21F
100
AcDbEntity
  8
DIM
 62
     7
100
AcDbMText
 10
171.4198254736
 20
100.0130730088
 30
0.0
 40
2.5
 41
0.0
 71
     1
 72
     1
  1
NOMINAL
  7
SLDTEXTSTYLE1
 11
-7.044195017643634E-15
 21
1.0
 31
0.0
 73
     1
 44
1.0
  0
ENDBLK
  5
221
330
21F
100
AcDbEntity
  8
0
100
AcDbBlockEnd
  0
BLOCK
  5
22A
330
229
100
AcDbEntity
  8
0
100
AcDbBlockBegin
  2
SW_NOTE_2
 70
     0
 10
0.0
 20
0.0
 30
0.0
  3
SW_NOTE_2
  1

  0
LINE
  5
22C
330
229
100
AcDbEntity
  8
DIM
 62
     0
100
AcDbLine
 10
-13.4615384615
 20
0.0
 30
0.0
 11
0.0
 21
0.0
 31
0.0
  0
LINE
  5
22D
330
229
100
AcDbEntity
  8
DIM
 62
     0
100
AcDbLine
 10
0.0
 20
0.0
 30
0.0
 11
-13.4615384615
 21
0.0
 31
0.0
  0
LINE
  5
22E
330
229
100
AcDbEntity
  8
DIM
 62
     0
100
AcDbLine
 10
-13.4615384615
 20
0.0
 30
0.0
 11
0.0
 21
0.0
 31
0.0
  0
LINE
  5
22F
330
229
100
AcDbEntity
  8
DIM
 62
     0
100
AcDbLine
 10
0.0
 20
0.0
 30
0.0
 11
-13.4615384615
 21
0.0
 31
0.0
  0
LINE
  5
230
330
229
100
AcDbEntity
  8
DIM
 62
     0
100
AcDbLine
 10
-13.4615384615
 20
0.0
 30
0.0
 11
0.0
 21
0.0
 31
0.0
  0
LINE
  5
231
330
229
100
AcDbEntity
  8
DIM
 62
     0
100
AcDbLine
 10
0.0
 20
0.0
 30
0.0
 11
-13.4615384615
 21
0.0
 31
0.0
  0
MTEXT
  5
232
330
229
100
AcDbEntity
  8
DIM
 62
     0
100
AcDbMText
 10
-13.4574646023
 20
6.6615078453
 30
0.0
 40
2.5
 41
0.0
 71
     1
 72
     1
  1
1 HOLE,
  7
SLDTEXTSTYLE1
 73
     1
 44
1.0
  0
MTEXT
  5
233
330
229
100
AcDbEntity
  8
DIM
 62
     0
100
AcDbMText
 10
-13.4574646023
 20
3.1615077373
 30
0.0
 40
2.5
 41
0.0
 71
     1
 72
     1
  1
 M6 CLR
  7
SLDTEXTSTYLE1
 73
     1
 44
1.0
  0
ENDBLK
  5
22B
330
229
100
AcDbEntity
  8
0
100
AcDbBlockEnd
  0
BLOCK
  5
238
330
237
100
AcDbEntity
  8
0
100
AcDbBlockBegin
  2
SW_NOTE_3
 70
     0
 10
0.0
 20
0.0
 30
0.0
  3
SW_NOTE_3
  1

  0
MTEXT
  5
23A
330
237
100
AcDbEntity
  8
DIM
 62
     0
100
AcDbMText
 10
0.5123171531
 20
1.1436212374
 30
0.0
 40
2.6458333333
 41
0.0
 71
     1
 72
     1
  1
2 HOLES,
  7
SLDTEXTSTYLE1
 73
     1
 44
1.0
  0
MTEXT
  5
23B
330
237
100
AcDbEntity
  8
DIM
 62
     0
100
AcDbMText
 10
0.5123171531
 20
-2.3841564977
 30
0.0
 40
2.6458333333
 41
0.0
 71
     1
 72
     1
  1
M4 CLR
  7
SLDTEXTSTYLE1
 73
     1
 44
1.0
  0
ENDBLK
  5
239
330
237
100
AcDbEntity
  8
0
100
AcDbBlockEnd
  0
BLOCK
  5
23F
330
23E
100
AcDbEntity
  8
0
100
AcDbBlockBegin
  2
SW_NOTE_4
 70
     0
 10
0.0
 20
0.0
 30
0.0
  3
SW_NOTE_4
  1

  0
MTEXT
  5
241
330
23E
100
AcDbEntity
  8
DIM
 62
     0
100
AcDbMText
 10
-23.799844846
 20
4.6826214105
 30
0.0
 40
2.5
 41
0.0
 71
     1
 72
     1
  1
ACCEPTS
  7
SLDTEXTSTYLE1
 73
     1
 44
1.0
  0
MTEXT
  5
242
330
23E
100
AcDbEntity
  8
DIM
 62
     0
100
AcDbMText
 10
-23.799844846
 20
1.1826213024
 30
0.0
 40
2.5
 41
0.0
 71
     1
 72
     1
  1
%%c
  7
SLDTEXTSTYLE1
 73
     1
 44
1.0
  0
MTEXT
  5
243
330
23E
100
AcDbEntity
  8
DIM
 62
     0
100
AcDbMText
 10
-20.1548794898
 20
1.1826213024
 30
0.0
 40
2.5
 41
0.0
 71
     1
 72
     1
  1
0.5" OPTICS
  7
SLDTEXTSTYLE1
 73
     1
 44
1.0
  0
ENDBLK
  5
240
330
23E
100
AcDbEntity
  8
0
100
AcDbBlockEnd
  0
BLOCK
  5
247
330
246
100
AcDbEntity
  8
0
100
AcDbBlockBegin
  2
SW_CENTERMARKSYMBOL_0
 70
     0
 10
0.0
 20
0.0
 30
0.0
  3
SW_CENTERMARKSYMBOL_0
  1

  0
LINE
  5
249
330
246
100
AcDbEntity
  8
DIM
 62
     0
100
AcDbLine
 10
0.0
 20
0.0
 30
0.0
 11
0.0
 21
1.0
 31
0.0
  0
LINE
  5
24A
330
246
100
AcDbEntity
  8
DIM
 62
     0
100
AcDbLine
 10
0.0
 20
0.0
 30
0.0
 11
-1.0
 21
0.0
 31
0.0
  0
LINE
  5
24B
330
246
100
AcDbEntity
  8
DIM
 62
     0
100
AcDbLine
 10
0.0
 20
0.0
 30
0.0
 11
0.0
 21
-1.0
 31
0.0
  0
LINE
  5
24C
330
246
100
AcDbEntity
  8
DIM
 62
     0
100
AcDbLine
 10
0.0
 20
0.0
 30
0.0
 11
1.0
 21
0.0
 31
0.0
  0
LINE
  5
24D
330
246
100
AcDbEntity
  8
DIM
 62
     0
100
AcDbLine
 10
0.0
 20
2.0
 30
0.0
 11
0.0
 21
8.0
 31
0.0
  0
LINE
  5
24E
330
246
100
AcDbEntity
  8
DIM
 62
     0
100
AcDbLine
 10
-2.0
 20
0.0
 30
0.0
 11
-8.0
 21
0.0
 31
0.0
  0
LINE
  5
24F
330
246
100
AcDbEntity
  8
DIM
 62
     0
100
AcDbLine
 10
0.0
 20
-2.0
 30
0.0
 11
0.0
 21
-8.0
 31
0.0
  0
LINE
  5
250
330
246
100
AcDbEntity
  8
DIM
 62
     0
100
AcDbLine
 10
2.0
 20
0.0
 30
0.0
 11
8.0
 21
0.0
 31
0.0
  0
ENDBLK
  5
248
330
246
100
AcDbEntity
  8
0
100
AcDbBlockEnd
  0
BLOCK
  5
2C2
330
2C1
100
AcDbEntity
  8
0
100
AcDbBlockBegin
  2
_D_5
 70
     0
 10
0.0
 20
0.0
 30
0.0
  3
_D_5
  1

  0
SOLID
  5
2C4
330
2C1
100
AcDbEntity
  8
DIM
 62
     7
100
AcDbTrace
 10
57.4001192764
 20
60.6573481639
 30
0.0
 11
55.4001192764
 21
60.9073481639
 31
0.0
 12
55.4001192764
 22
60.4073481639
 32
0.0
 13
55.4001192764
 23
60.4073481639
 33
0.0
  0
SOLID
  5
2C5
330
2C1
100
AcDbEntity
  8
DIM
 62
     7
100
AcDbTrace
 10
38.4001192764
 20
60.6573481639
 30
0.0
 11
40.4001192764
 21
60.4073481639
 31
0.0
 12
40.4001192764
 22
60.9073481639
 32
0.0
 13
40.4001192764
 23
60.9073481639
 33
0.0
  0
LINE
  5
2C6
330
2C1
100
AcDbEntity
  8
DIM
 62
     7
100
AcDbLine
 10
57.4001192764
 20
76.0201985138
 30
0.0
 11
57.4001192764
 21
59.6573481639
 31
0.0
  0
LINE
  5
2C7
330
2C1
100
AcDbEntity
  8
DIM
 62
     7
100
AcDbLine
 10
38.4001192764
 20
76.0201985138
 30
0.0
 11
38.4001192764
 21
59.6573481639
 31
0.0
  0
LINE
  5
2C8
330
2C1
100
AcDbEntity
  8
DIM
 62
     7
100
AcDbLine
 10
57.4001192764
 20
60.6573481639
 30
0.0
 11
38.4001192764
 21
60.6573481639
 31
0.0
  0
MTEXT
  5
2C9
330
2C1
100
AcDbEntity
  8
DIM
 62
     7
100
AcDbMText
 10
45.9903970516
 20
63.8800173387
 30
0.0
 40
2.5
 41
0.0
 71
     1
 72
     1
  1
19
  7
SLDTEXTSTYLE1
 73
     1
 44
1.0
  0
ENDBLK
  5
2C3
330
2C1
100
AcDbEntity
  8
0
100
AcDbBlockEnd
  0
BLOCK
  5
2CD
330
2CC
100
AcDbEntity
  8
0
100
AcDbBlockBegin
  2
_D_6
 70
     0
 10
0.0
 20
0.0
 30
0.0
  3
_D_6
  1

  0
SOLID
  5
2CF
330
2CC
100
AcDbEntity
  8
DIM
 62
     7
100
AcDbTrace
 10
38.4001192764
 20
65.6908263109
 30
0.0
 11
36.4001192764
 21
65.9408263109
 31
0.0
 12
36.4001192764
 22
65.4408263109
 32
0.0
 13
36.4001192764
 23
65.4408263109
 33
0.0
  0
SOLID
  5
2D0
330
2CC
100
AcDbEntity
  8
DIM
 62
     7
100
AcDbTrace
 10
43.4001192764
 20
65.6908263109
 30
0.0
 11
45.4001192764
 21
65.4408263109
 31
0.0
 12
45.4001192764
 22
65.9408263109
 32
0.0
 13
45.4001192764
 23
65.9408263109
 33
0.0
  0
LINE
  5
2D1
330
2CC
100
AcDbEntity
  8
DIM
 62
     7
100
AcDbLine
 10
38.4001192764
 20
76.0201985138
 30
0.0
 11
38.4001192764
 21
64.6908263109
 31
0.0
  0
LINE
  5
2D2
330
2CC
100
AcDbEntity
  8
DIM
 62
     7
100
AcDbLine
 10
43.4001192764
 20
96.0201985138
 30
0.0
 11
43.4001192764
 21
64.6908263109
 31
0.0
  0
LINE
  5
2D3
330
2CC
100
AcDbEntity
  8
DIM
 62
     7
100
AcDbLine
 10
38.4001192764
 20
65.6908263109
 30
0.0
 11
35.4001192764
 21
65.6908263109
 31
0.0
  0
LINE
  5
2D4
330
2CC
100
AcDbEntity
  8
DIM
 62
     7
100
AcDbLine
 10
38.4001192764
 20
65.6908263109
 30
0.0
 11
43.4001192764
 21
65.6908263109
 31
0.0
  0
LINE
  5
2D5
330
2CC
100
AcDbEntity
  8
DIM
 62
     7
100
AcDbLine
 10
43.4001192764
 20
65.6908263109
 30
0.0
 11
46.4001192764
 21
65.6908263109
 31
0.0
  0
MTEXT
  5
2D6
330
2CC
100
AcDbEntity
  8
DIM
 62
     7
100
AcDbMText
 10
39.945258164
 20
68.9134954857
 30
0.0
 40
2.5
 41
0.0
 71
     1
 72
     1
  1
5
  7
SLDTEXTSTYLE1
 73
     1
 44
1.0
  0
ENDBLK
  5
2CE
330
2CC
100
AcDbEntity
  8
0
100
AcDbBlockEnd
  0
BLOCK
  5
2D9
330
2D8
100
AcDbEntity
  8
0
100
AcDbBlockBegin
  2
_D_7
 70
     0
 10
0.0
 20
0.0
 30
0.0
  3
_D_7
  1

  0
SOLID
  5
2DB
330
2D8
100
AcDbEntity
  8
DIM
 62
     7
100
AcDbTrace
 10
65.4001192764
 20
55.7105902185
 30
0.0
 11
63.4001192764
 21
55.9605902185
 31
0.0
 12
63.4001192764
 22
55.4605902185
 32
0.0
 13
63.4001192764
 23
55.4605902185
 33
0.0
  0
SOLID
  5
2DC
330
2D8
100
AcDbEntity
  8
DIM
 62
     7
100
AcDbTrace
 10
38.4001192764
 20
55.7105902185
 30
0.0
 11
40.4001192764
 21
55.4605902185
 31
0.0
 12
40.4001192764
 22
55.9605902185
 32
0.0
 13
40.4001192764
 23
55.9605902185
 33
0.0
  0
LINE
  5
2DD
330
2D8
100
AcDbEntity
  8
DIM
 62
     7
100
AcDbLine
 10
65.4001192764
 20
69.0201985138
 30
0.0
 11
65.4001192764
 21
54.7105902185
 31
0.0
  0
LINE
  5
2DE
330
2D8
100
AcDbEntity
  8
DIM
 62
     7
100
AcDbLine
 10
38.4001192764
 20
71.0201985138
 30
0.0
 11
38.4001192764
 21
54.7105902185
 31
0.0
  0
LINE
  5
2DF
330
2D8
100
AcDbEntity
  8
DIM
 62
     7
100
AcDbLine
 10
65.4001192764
 20
55.7105902185
 30
0.0
 11
38.4001192764
 21
55.7105902185
 31
0.0
  0
MTEXT
  5
2E0
330
2D8
100
AcDbEntity
  8
DIM
 62
     7
100
AcDbMText
 10
49.9903970516
 20
58.9332593933
 30
0.0
 40
2.5
 41
0.0
 71
     1
 72
     1
  1
27
  7
SLDTEXTSTYLE1
 73
     1
 44
1.0
  0
ENDBLK
  5
2DA
330
2D8
100
AcDbEntity
  8
0
100
AcDbBlockEnd
  0
BLOCK
  5
2E3
330
2E2
100
AcDbEntity
  8
0
100
AcDbBlockBegin
  2
_D_8
 70
     0
 10
0.0
 20
0.0
 30
0.0
  3
_D_8
  1

  0
SOLID
  5
2E5
330
2E2
100
AcDbEntity
  8
DIM
 62
     7
100
AcDbTrace
 10
38.4001192764
 20
50.7421633883
 30
0.0
 11
40.4001192764
 21
50.4921633883
 31
0.0
 12
40.4001192764
 22
50.9921633883
 32
0.0
 13
40.4001192764
 23
50.9921633883
 33
0.0
  0
SOLID
  5
2E6
330
2E2
100
AcDbEntity
  8
DIM
 62
     7
100
AcDbTrace
 10
73.4001192764
 20
50.7421633883
 30
0.0
 11
71.4001192764
 21
50.9921633883
 31
0.0
 12
71.4001192764
 22
50.4921633883
 32
0.0
 13
71.4001192764
 23
50.4921633883
 33
0.0
  0
LINE
  5
2E7
330
2E2
100
AcDbEntity
  8
DIM
 62
     7
100
AcDbLine
 10
38.4001192764
 20
71.0201985138
 30
0.0
 11
38.4001192764
 21
49.7421633883
 31
0.0
  0
LINE
  5
2E8
330
2E2
100
AcDbEntity
  8
DIM
 62
     7
100
AcDbLine
 10
73.4001192764
 20
71.0201985138
 30
0.0
 11
73.4001192764
 21
49.7421633883
 31
0.0
  0
LINE
  5
2E9
330
2E2
100
AcDbEntity
  8
DIM
 62
     7
100
AcDbLine
 10
38.4001192764
 20
50.7421633883
 30
0.0
 11
73.4001192764
 21
50.7421633883
 31
0.0
  0
MTEXT
  5
2EA
330
2E2
100
AcDbEntity
  8
DIM
 62
     7
100
AcDbMText
 10
53.9903970516
 20
53.9648325632
 30
0.0
 40
2.5
 41
0.0
 71
     1
 72
     1
  1
35
  7
SLDTEXTSTYLE1
 73
     1
 44
1.0
  0
ENDBLK
  5
2E4
330
2E2
100
AcDbEntity
  8
0
100
AcDbBlockEnd
  0
BLOCK
  5
2ED
330
2EC
100
AcDbEntity
  8
0
100
AcDbBlockBegin
  2
_D_9
 70
     0
 10
0.0
 20
0.0
 30
0.0
  3
_D_9
  1

  0
SOLID
  5
2EF
330
2EC
100
AcDbEntity
  8
DIM
 62
     7
100
AcDbTrace
 10
80.0583636905
 20
78.0201985138
 30
0.0
 11
79.8083636905
 21
76.0201985138
 31
0.0
 12
80.3083636905
 22
76.0201985138
 32
0.0
 13
80.3083636905
 23
76.0201985138
 33
0.0
  0
SOLID
  5
2F0
330
2EC
100
AcDbEntity
  8
DIM
 62
     7
100
AcDbTrace
 10
80.0583636905
 20
72.0201985138
 30
0.0
 11
80.3083636905
 21
74.0201985138
 31
0.0
 12
79.8083636905
 22
74.0201985138
 32
0.0
 13
79.8083636905
 23
74.0201985138
 33
0.0
  0
LINE
  5
2F1
330
2EC
100
AcDbEntity
  8
DIM
 62
     7
100
AcDbLine
 10
74.4001192764
 20
78.0201985138
 30
0.0
 11
81.0583636905
 21
78.0201985138
 31
0.0
  0
LINE
  5
2F2
330
2EC
100
AcDbEntity
  8
DIM
 62
     7
100
AcDbLine
 10
74.4001192764
 20
72.0201985138
 30
0.0
 11
81.0583636905
 21
72.0201985138
 31
0.0
  0
LINE
  5
2F3
330
2EC
100
AcDbEntity
  8
DIM
 62
     7
100
AcDbLine
 10
80.0583636905
 20
78.0201985138
 30
0.0
 11
80.0583636905
 21
72.0201985138
 31
0.0
  0
MTEXT
  5
2F4
330
2EC
100
AcDbEntity
  8
DIM
 62
     7
100
AcDbMText
 10
76.8356945157
 20
74.0653374014
 30
0.0
 40
2.5
 41
0.0
 71
     1
 72
     1
  1
6
  7
SLDTEXTSTYLE1
 11
-7.044195017643634E-15
 21
1.0
 31
0.0
 73
     1
 44
1.0
  0
ENDBLK
  5
2EE
330
2EC
100
AcDbEntity
  8
0
100
AcDbBlockEnd
  0
BLOCK
  5
2F7
330
2F6
100
AcDbEntity
  8
0
100
AcDbBlockBegin
  2
_D_10
 70
     0
 10
0.0
 20
0.0
 30
0.0
  3
_D_10
  1

  0
SOLID
  5
2F9
330
2F6
100
AcDbEntity
  8
DIM
 62
     7
100
AcDbTrace
 10
31.8136442275
 20
97.0201985138
 30
0.0
 11
31.5636442275
 21
95.0201985138
 31
0.0
 12
32.0636442275
 22
95.0201985138
 32
0.0
 13
32.0636442275
 23
95.0201985138
 33
0.0
  0
SOLID
  5
2FA
330
2F6
100
AcDbEntity
  8
DIM
 62
     7
100
AcDbTrace
 10
31.8136442275
 20
72.0201985138
 30
0.0
 11
32.0636442275
 21
74.0201985138
 31
0.0
 12
31.5636442275
 22
74.0201985138
 32
0.0
 13
31.5636442275
 23
74.0201985138
 33
0.0
  0
LINE
  5
2FB
330
2F6
100
AcDbEntity
  8
DIM
 62
     7
100
AcDbLine
 10
42.4001192764
 20
97.0201985138
 30
0.0
 11
30.8136442275
 21
97.0201985138
 31
0.0
  0
LINE
  5
2FC
330
2F6
100
AcDbEntity
  8
DIM
 62
     7
100
AcDbLine
 10
37.4001192764
 20
72.0201985138
 30
0.0
 11
30.8136442275
 21
72.0201985138
 31
0.0
  0
LINE
  5
2FD
330
2F6
100
AcDbEntity
  8
DIM
 62
     7
100
AcDbLine
 10
31.8136442275
 20
97.0201985138
 30
0.0
 11
31.8136442275
 21
72.0201985138
 31
0.0
  0
MTEXT
  5
2FE
330
2F6
100
AcDbEntity
  8
DIM
 62
     7
100
AcDbMText
 10
28.5909750526
 20
82.610476289
 30
0.0
 40
2.5
 41
0.0
 71
     1
 72
     1
  1
25
  7
SLDTEXTSTYLE1
 11
-7.044195017643634E-15
 21
1.0
 31
0.0
 73
     1
 44
1.0
  0
ENDBLK
  5
2F8
330
2F6
100
AcDbEntity
  8
0
100
AcDbBlockEnd
  0
BLOCK
  5
302
330
301
100
AcDbEntity
  8
0
100
AcDbBlockBegin
  2
_D_11
 70
     0
 10
0.0
 20
0.0
 30
0.0
  3
_D_11
  1

  0
SOLID
  5
304
330
301
100
AcDbEntity
  8
DIM
100
AcDbTrace
 10
44.8290611926
 20
97.8451985138
 30
0.0
 11
46.6861120002
 21
98.6286921628
 31
0.0
 12
46.4361120002
 22
99.0617048647
 32
0.0
 13
46.4361120002
 23
99.0617048647
 33
0.0
  0
LINE
  5
305
330
301
100
AcDbEntity
  8
DIM
100
AcDbLine
 10
44.8290611926
 20
97.8451985138
 30
0.0
 11
61.8539317877
 21
107.6745121348
 31
0.0
  0
LINE
  5
306
330
301
100
AcDbEntity
  8
DIM
100
AcDbLine
 10
61.8539317877
 20
107.6745121348
 30
0.0
 11
76.2740707205
 21
107.6745121348
 31
0.0
  0
MTEXT
  5
307
330
301
100
AcDbEntity
  8
DIM
100
AcDbMText
 10
63.1039317877
 20
114.7339867761
 30
0.0
 40
2.5
 41
0.0
 71
     1
 72
     1
  1
1 HOLE,
  7
SLDTEXTSTYLE1
 73
     1
 44
1.0
  0
MTEXT
  5
308
330
301
100
AcDbEntity
  8
DIM
100
AcDbMText
 10
63.1039317877
 20
110.8971813096
 30
0.0
 40
2.5
 41
0.0
 71
     1
 72
     1
  1
 M4
  7
SLDTEXTSTYLE1
 73
     1
 44
1.0
  0
ENDBLK
  5
303
330
301
100
AcDbEntity
  8
0
100
AcDbBlockEnd
  0
BLOCK
  5
30A
330
309
100
AcDbEntity
  8
0
100
AcDbBlockBegin
  2
SW_CENTERMARKSYMBOL_1
 70
     0
 10
0.0
 20
0.0
 30
0.0
  3
SW_CENTERMARKSYMBOL_1
  1

  0
LINE
  5
30C
330
309
100
AcDbEntity
  8
DIM
 62
     0
100
AcDbLine
 10
0.0
 20
0.0
 30
0.0
 11
0.0
 21
1.0
 31
0.0
  0
LINE
  5
30D
330
309
100
AcDbEntity
  8
DIM
 62
     0
100
AcDbLine
 10
0.0
 20
0.0
 30
0.0
 11
-1.0
 21
0.0
 31
0.0
  0
LINE
  5
30E
330
309
100
AcDbEntity
  8
DIM
 62
     0
100
AcDbLine
 10
0.0
 20
0.0
 30
0.0
 11
0.0
 21
-1.0
 31
0.0
  0
LINE
  5
30F
330
309
100
AcDbEntity
  8
DIM
 62
     0
100
AcDbLine
 10
0.0
 20
0.0
 30
0.0
 11
1.0
 21
0.0
 31
0.0
  0
LINE
  5
310
330
309
100
AcDbEntity
  8
DIM
 62
     0
100
AcDbLine
 10
0.0
 20
2.0
 30
0.0
 11
0.0
 21
2.65
 31
0.0
  0
LINE
  5
311
330
309
100
AcDbEntity
  8
DIM
 62
     0
100
AcDbLine
 10
-2.0
 20
0.0
 30
0.0
 11
-2.65
 21
0.0
 31
0.0
  0
LINE
  5
312
330
309
100
AcDbEntity
  8
DIM
 62
     0
100
AcDbLine
 10
0.0
 20
-2.0
 30
0.0
 11
0.0
 21
-2.65
 31
0.0
  0
LINE
  5
313
330
309
100
AcDbEntity
  8
DIM
 62
     0
100
AcDbLine
 10
2.0
 20
0.0
 30
0.0
 11
2.65
 21
0.0
 31
0.0
  0
ENDBLK
  5
30B
330
309
100
AcDbEntity
  8
0
100
AcDbBlockEnd
  0
ENDSEC
  0
SECTION
  2
ENTITIES
  0
HATCH
  5
7D
330
1F
100
AcDbEntity
  8
DIM
 62
     1
100
AcDbHatch
 10
0.0
 20
0.0
 30
0.0
210
0.0
220
0.0
230
1.0
  2
SOLID
 70
     1
 71
     0
 91
        1
 92
        0
 93
       10
 72
     2
 10
195.9181335739884
 20
36.39317862024703
 40
1.518552937418269
 50
316.5603538466151
 51
413.9622470531883
 73
     0
 72
     1
 10
196.8115258996505
 20
35.16523188842609
 11
195.5698445848568
 21
33.96079894601887
 72
     1
 10
195.5698445848568
 20
33.96079894601887
 11
194.584395691874
 21
34.81949588590836
 72
     2
 10
192.5548098488265
 20
36.40840603525001
 40
2.577567488346249
 50
321.9435288426934
 51
402.1815007004193
 73
     1
 72
     2
 10
192.237153558102
 20
35.86758422977183
 40
3.181636704527865
 50
45.55929254159835
 51
125.83255551215
 73
     1
 72
     1
 10
190.3745648009993
 20
38.44703673786606
 11
189.3521569236508
 21
39.33882726498687
 72
     1
 10
189.3521569236508
 20
39.33882726498687
 11
192.5877423720606
 21
42.46574751160097
 72
     1
 10
192.5877423720606
 20
42.46574751160097
 11
193.5182488822447
 21
41.63555529175644
 72
     1
 10
193.5182488822447
 20
41.63555529175644
 11
192.8939975803174
 21
41.02649686091912
 72
     1
 10
192.8939975803174
 20
41.02649686091912
 11
197.0207534386607
 21
37.43732059228515
 97
        0
 75
     0
 76
     1
 98
        1
 10
0.0
 20
0.0
  0
HATCH
  5
7E
330
1F
100
AcDbEntity
  8
DIM
 62
     7
100
AcDbHatch
 10
0.0
 20
0.0
 30
0.0
210
0.0
220
0.0
230
1.0
  2
SOLID
 70
     1
 71
     0
 91
        1
 92
        0
 93
       10
 72
     2
 10
192.1039881191382
 20
36.62178386847388
 40
3.045751395731241
 50
51.07786460466387
 51
110.7887790856593
 73
     0
 72
     2
 10
191.7725909108416
 20
36.23314211922645
 40
2.57054436971128
 50
106.9547474925999
 51
219.8569537219352
 73
     0
 72
     1
 10
189.799320607469
 20
37.88053480662123
 11
188.7841267600665
 21
38.77606670743901
 72
     1
 10
188.7841267600665
 20
38.77606670743901
 11
187.4774985051848
 21
37.51447963093149
 72
     2
 10
188.4681933527003
 20
36.34592298253147
 40
1.531992467805808
 50
130.291064792488
 51
228.5093619070323
 73
     1
 72
     1
 10
187.4532519231594
 20
35.19836260677113
 11
191.4624542333552
 21
31.71375876649628
 72
     1
 10
191.4624542333552
 20
31.71375876649628
 11
190.8314023129401
 21
31.09785837602526
 72
     1
 10
190.8314023129401
 20
31.09785837602526
 11
191.7722027684341
 21
30.28786130591526
 72
     1
 10
191.7722027684341
 20
30.28786130591526
 11
194.9823427415898
 21
33.40490101867766
 72
     1
 10
194.9823427415898
 20
33.40490101867766
 11
194.0175230803727
 21
34.25218780231999
 97
        0
 75
     0
 76
     1
 98
        1
 10
0.0
 20
0.0
  0
LINE
  5
7F
330
1F
100
AcDbEntity
  8
0
  6
Continuous
 62
     7
370
     0
100
AcDbLine
 10
167.8593775185
 20
17.7745192513
 30
0.0
 11
168.8593775185
 21
17.7745192513
 31
0.0
  0
LINE
  5
80
330
1F
100
AcDbEntity
  8
0
  6
Continuous
 62
     7
370
     0
100
AcDbLine
 10
164.8593775185
 20
17.7745192513
 30
0.0
 11
167.3593775185
 21
17.7745192513
 31
0.0
  0
LINE
  5
81
330
1F
100
AcDbEntity
  8
0
  6
Continuous
 62
     7
370
     0
100
AcDbLine
 10
181.3593775185
 20
15.2745192513
 30
0.0
 11
181.3593775185
 21
20.2745192513
 31
0.0
  0
LINE
  5
82
330
1F
100
AcDbEntity
  8
0
  6
Continuous
 62
     7
370
     0
100
AcDbLine
 10
174.3593775185
 20
16.2745192513
 30
0.0
 11
181.3593775185
 21
15.2745192513
 31
0.0
  0
LINE
  5
83
330
1F
100
AcDbEntity
  8
0
  6
Continuous
 62
     7
370
     0
100
AcDbLine
 10
168.3593775185
 20
16.7745192513
 30
0.0
 11
168.3593775185
 21
14.2745192513
 31
0.0
  0
LINE
  5
84
330
1F
100
AcDbEntity
  8
0
  6
Continuous
 62
     7
370
     0
100
AcDbLine
 10
181.3593775185
 20
20.2745192513
 30
0.0
 11
174.3593775185
 21
19.2745192513
 31
0.0
  0
LINE
  5
85
330
1F
100
AcDbEntity
  8
0
  6
Continuous
 62
     7
370
     0
100
AcDbLine
 10
173.3593775185
 20
17.7745192513
 30
0.0
 11
182.3593775185
 21
17.7745192513
 31
0.0
  0
LINE
  5
86
330
1F
100
AcDbEntity
  8
0
  6
Continuous
 62
     7
370
     0
100
AcDbLine
 10
168.3593775185
 20
18.2745192513
 30
0.0
 11
168.3593775185
 21
17.2745192513
 31
0.0
  0
LINE
  5
87
330
1F
100
AcDbEntity
  8
0
  6
Continuous
 62
     7
370
     0
100
AcDbLine
 10
169.3593775185
 20
17.7745192513
 30
0.0
 11
171.8593775185
 21
17.7745192513
 31
0.0
  0
LINE
  5
88
330
1F
100
AcDbEntity
  8
0
  6
Continuous
 62
     7
370
     0
100
AcDbLine
 10
168.3593775185
 20
21.2745192513
 30
0.0
 11
168.3593775185
 21
18.7745192513
 31
0.0
  0
LINE
  5
89
330
1F
100
AcDbEntity
  8
0
  6
Continuous
 62
     7
370
     0
100
AcDbLine
 10
174.3593775185
 20
19.2745192513
 30
0.0
 11
174.3593775185
 21
16.2745192513
 31
0.0
  0
LINE
  5
8A
330
1F
100
AcDbEntity
  8
0
  6
Continuous
 62
     7
370
     0
100
AcDbLine
 10
185.6907965209
 20
13.1152464079
 30
0.0
 11
285.6907965209
 21
13.1152464079
 31
0.0
  0
LINE
  5
8B
330
1F
100
AcDbEntity
  8
0
  6
Continuous
 62
     7
370
     0
100
AcDbLine
 10
185.6907965209
 20
18.1152464079
 30
0.0
 11
235.6907965209
 21
18.1152464079
 31
0.0
  0
LINE
  5
8C
330
1F
100
AcDbEntity
  8
0
  6
Continuous
 62
     7
370
     0
100
AcDbLine
 10
185.6907965209
 20
23.1152464079
 30
0.0
 11
235.6907965209
 21
23.1152464079
 31
0.0
  0
LINE
  5
8D
330
1F
100
AcDbEntity
  8
0
  6
Continuous
 62
     7
370
     0
100
AcDbLine
 10
185.6907965209
 20
28.1152464079
 30
0.0
 11
285.6907965209
 21
28.1152464079
 31
0.0
  0
LINE
  5
8E
330
1F
100
AcDbEntity
  8
0
  6
Continuous
 62
     7
370
     0
100
AcDbLine
 10
235.6907965209
 20
33.1152464079
 30
0.0
 11
285.6907965209
 21
33.1152464079
 31
0.0
  0
LINE
  5
8F
330
1F
100
AcDbEntity
  8
0
  6
Continuous
 62
     7
370
    15
100
AcDbLine
 10
235.6907965209
 20
18.1152464079
 30
0.0
 11
285.6907965209
 21
18.1152464079
 31
0.0
  0
LINE
  5
90
330
1F
100
AcDbEntity
  8
0
  6
Continuous
 62
     7
370
     0
100
AcDbLine
 10
185.6907965209
 20
43.1152464079
 30
0.0
 11
285.6907965209
 21
43.1152464079
 31
0.0
  0
LINE
  5
91
330
1F
100
AcDbEntity
  8
0
  6
Continuous
 62
     7
370
     0
100
AcDbLine
 10
251.237217675
 20
8.1152464079
 30
0.0
 11
251.237217675
 21
18.1152464079
 31
0.0
  0
LINE
  5
92
330
1F
100
AcDbEntity
  8
0
  6
Continuous
 62
     7
370
     0
100
AcDbLine
 10
235.6907965209
 20
8.1152464079
 30
0.0
 11
235.6907965209
 21
43.1152464079
 31
0.0
  0
LINE
  5
93
330
1F
100
AcDbEntity
  8
0
  6
Continuous
 62
     7
370
     0
100
AcDbLine
 10
251.237217675
 20
28.1152464079
 30
0.0
 11
251.237217675
 21
33.1152464079
 31
0.0
  0
LINE
  5
94
330
1F
100
AcDbEntity
  8
0
  6
Continuous
 62
     7
370
     0
100
AcDbLine
 10
214.4164086353
 20
8.1152464079
 30
0.0
 11
214.4164086353
 21
28.1152464079
 31
0.0
  0
LINE
  5
95
330
1F
100
AcDbEntity
  8
0
  6
Continuous
 62
     7
370
     0
100
AcDbLine
 10
199.7785887506
 20
8.1152464079
 30
0.0
 11
199.7785887506
 21
28.1152464079
 31
0.0
  0
LINE
  5
96
330
1F
100
AcDbEntity
  8
0
  6
Continuous
 62
     7
370
     0
100
AcDbLine
 10
185.6907965209
 20
8.1152464079
 30
0.0
 11
185.6907965209
 21
43.1152464079
 31
0.0
  0
LINE
  5
97
330
1F
100
AcDbEntity
  8
0
  6
Continuous
 62
     7
370
    15
100
AcDbLine
 10
8.6907965209
 20
104.7436369915
 30
0.0
 11
14.6907965209
 21
104.7436369915
 31
0.0
  0
LINE
  5
98
330
1F
100
AcDbEntity
  8
0
  6
Continuous
 62
     7
370
    15
100
AcDbLine
 10
285.6907965209
 20
104.7436369915
 30
0.0
 11
279.6907965209
 21
104.7436369915
 31
0.0
  0
LINE
  5
99
330
1F
100
AcDbEntity
  8
0
  6
Continuous
 62
     7
370
    15
100
AcDbLine
 10
147.1907965209
 20
8.1152464079
 30
0.0
 11
147.1907965209
 21
14.1152464079
 31
0.0
  0
LINE
  5
9A
330
1F
100
AcDbEntity
  8
0
  6
Continuous
 62
     7
370
    15
100
AcDbLine
 10
147.1907965209
 20
201.3720275751
 30
0.0
 11
147.1907965209
 21
195.3720275751
 31
0.0
  0
LINE
  5
9B
330
1F
100
AcDbEntity
  8
工作區域參考線
 62
     1
370
     0
100
AcDbLine
 10
190.374564801
 20
38.4470367379
 30
0.0
 11
189.3521569237
 21
39.338827265
 31
0.0
  0
LINE
  5
9C
330
1F
100
AcDbEntity
  8
0
  6
Continuous
 62
     7
370
    15
100
AcDbLine
 10
43.3207965209
 20
201.3720275751
 30
0.0
 11
43.3207965209
 21
202.8720275751
 31
0.0
  0
LINE
  5
9D
330
1F
100
AcDbEntity
  8
0
  6
Continuous
 62
     7
370
    15
100
AcDbLine
 10
77.9507965209
 20
201.3720275751
 30
0.0
 11
77.9507965209
 21
202.8720275751
 31
0.0
  0
LINE
  5
9E
330
1F
100
AcDbEntity
  8
0
  6
Continuous
 62
     7
370
    15
100
AcDbLine
 10
112.5807965209
 20
201.3720275751
 30
0.0
 11
112.5807965209
 21
202.8720275751
 31
0.0
  0
LINE
  5
9F
330
1F
100
AcDbEntity
  8
0
  6
Continuous
 62
     7
370
    15
100
AcDbLine
 10
147.2107965209
 20
201.3720275751
 30
0.0
 11
147.2107965209
 21
202.8720275751
 31
0.0
  0
LINE
  5
A0
330
1F
100
AcDbEntity
  8
0
  6
Continuous
 62
     7
370
    15
100
AcDbLine
 10
181.8407965209
 20
201.3720275751
 30
0.0
 11
181.8407965209
 21
202.8720275751
 31
0.0
  0
LINE
  5
A1
330
1F
100
AcDbEntity
  8
0
  6
Continuous
 62
     7
370
    15
100
AcDbLine
 10
216.4707965209
 20
201.3720275751
 30
0.0
 11
216.4707965209
 21
202.8720275751
 31
0.0
  0
LINE
  5
A2
330
1F
100
AcDbEntity
  8
0
  6
Continuous
 62
     7
370
    15
100
AcDbLine
 10
251.1007965209
 20
201.3720275751
 30
0.0
 11
251.1007965209
 21
202.8720275751
 31
0.0
  0
LINE
  5
A3
330
1F
100
AcDbEntity
  8
0
  6
Continuous
 62
     7
370
    15
100
AcDbLine
 10
43.3157965209
 20
8.1152464079
 30
0.0
 11
43.3157965209
 21
6.6152464079
 31
0.0
  0
LINE
  5
A4
330
1F
100
AcDbEntity
  8
0
  6
Continuous
 62
     7
370
    15
100
AcDbLine
 10
77.9407965209
 20
8.1152464079
 30
0.0
 11
77.9407965209
 21
6.6152464079
 31
0.0
  0
LINE
  5
A5
330
1F
100
AcDbEntity
  8
0
  6
Continuous
 62
     7
370
    15
100
AcDbLine
 10
112.5657965209
 20
8.1152464079
 30
0.0
 11
112.5657965209
 21
6.6152464079
 31
0.0
  0
LINE
  5
A6
330
1F
100
AcDbEntity
  8
0
  6
Continuous
 62
     7
370
    15
100
AcDbLine
 10
147.1907965209
 20
8.1152464079
 30
0.0
 11
147.1907965209
 21
6.6152464079
 31
0.0
  0
LINE
  5
A7
330
1F
100
AcDbEntity
  8
0
  6
Continuous
 62
     7
370
    15
100
AcDbLine
 10
181.8157965209
 20
8.1152464079
 30
0.0
 11
181.8157965209
 21
6.6152464079
 31
0.0
  0
LINE
  5
A8
330
1F
100
AcDbEntity
  8
0
  6
Continuous
 62
     7
370
    15
100
AcDbLine
 10
216.4407965209
 20
8.1152464079
 30
0.0
 11
216.4407965209
 21
6.6152464079
 31
0.0
  0
LINE
  5
A9
330
1F
100
AcDbEntity
  8
0
  6
Continuous
 62
     7
370
     0
100
AcDbLine
 10
285.6907965209
 20
201.3720275751
 30
0.0
 11
8.6907965209
 21
201.3720275751
 31
0.0
  0
LINE
  5
AA
330
1F
100
AcDbEntity
  8
0
  6
Continuous
 62
     7
370
     0
100
AcDbLine
 10
285.6907965209
 20
8.1152464079
 30
0.0
 11
285.6907965209
 21
201.3720275751
 31
0.0
  0
LINE
  5
AB
330
1F
100
AcDbEntity
  8
0
  6
Continuous
 62
     7
370
     0
100
AcDbLine
 10
8.6907965209
 20
201.3720275751
 30
0.0
 11
8.6907965209
 21
8.1152464079
 31
0.0
  0
LINE
  5
AC
330
1F
100
AcDbEntity
  8
0
  6
Continuous
 62
     7
370
     0
100
AcDbLine
 10
8.6907965209
 20
8.1152464079
 30
0.0
 11
285.6907965209
 21
8.1152464079
 31
0.0
  0
LINE
  5
AD
330
1F
100
AcDbEntity
  8
工作區域參考線
 62
     1
370
     0
100
AcDbLine
 10
189.3521569237
 20
39.338827265
 30
0.0
 11
192.5877423721
 21
42.4657475116
 31
0.0
  0
LINE
  5
AE
330
1F
100
AcDbEntity
  8
0
  6
Continuous
 62
     7
370
    15
100
AcDbLine
 10
251.0657965209
 20
8.1152464079
 30
0.0
 11
251.0657965209
 21
6.6152464079
 31
0.0
  0
LINE
  5
AF
330
1F
100
AcDbEntity
  8
0
  6
Continuous
 62
     7
370
    15
100
AcDbLine
 10
8.6907965209
 20
40.3252464079
 30
0.0
 11
7.1907965209
 21
40.3252464079
 31
0.0
  0
LINE
  5
B0
330
1F
100
AcDbEntity
  8
工作區域參考線
 62
     1
370
     0
100
AcDbLine
 10
192.5877423721
 20
42.4657475116
 30
0.0
 11
193.5182488822
 21
41.6355552918
 31
0.0
  0
LINE
  5
B1
330
1F
100
AcDbEntity
  8
0
  6
Continuous
 62
     7
370
    15
100
AcDbLine
 10
8.6907965209
 20
72.5352464079
 30
0.0
 11
7.1907965209
 21
72.5352464079
 31
0.0
  0
LINE
  5
B2
330
1F
100
AcDbEntity
  8
0
  6
Continuous
 62
     7
370
    15
100
AcDbLine
 10
8.6907965209
 20
104.7452464079
 30
0.0
 11
7.1907965209
 21
104.7452464079
 31
0.0
  0
LINE
  5
B3
330
1F
100
AcDbEntity
  8
0
  6
Continuous
 62
     7
370
    15
100
AcDbLine
 10
8.6907965209
 20
136.9552464079
 30
0.0
 11
7.1907965209
 21
136.9552464079
 31
0.0
  0
LINE
  5
B4
330
1F
100
AcDbEntity
  8
0
  6
Continuous
 62
     7
370
    15
100
AcDbLine
 10
8.6907965209
 20
169.1652464079
 30
0.0
 11
7.1907965209
 21
169.1652464079
 31
0.0
  0
LINE
  5
B5
330
1F
100
AcDbEntity
  8
0
  6
Continuous
 62
     7
370
    15
100
AcDbLine
 10
285.6907965209
 20
40.3252464079
 30
0.0
 11
287.1907965209
 21
40.3252464079
 31
0.0
  0
LINE
  5
B6
330
1F
100
AcDbEntity
  8
工作區域參考線
 62
     1
370
     0
100
AcDbLine
 10
193.5182488822
 20
41.6355552918
 30
0.0
 11
192.8939975803
 21
41.0264968609
 31
0.0
  0
LINE
  5
B7
330
1F
100
AcDbEntity
  8
0
  6
Continuous
 62
     7
370
    15
100
AcDbLine
 10
285.6907965209
 20
72.5352464079
 30
0.0
 11
287.1907965209
 21
72.5352464079
 31
0.0
  0
LINE
  5
B8
330
1F
100
AcDbEntity
  8
0
  6
Continuous
 62
     7
370
    15
100
AcDbLine
 10
285.6907965209
 20
104.7452464079
 30
0.0
 11
287.1907965209
 21
104.7452464079
 31
0.0
  0
LINE
  5
B9
330
1F
100
AcDbEntity
  8
0
  6
Continuous
 62
     7
370
    15
100
AcDbLine
 10
285.6907965209
 20
136.9552464079
 30
0.0
 11
287.1907965209
 21
136.9552464079
 31
0.0
  0
LINE
  5
BA
330
1F
100
AcDbEntity
  8
0
  6
Continuous
 62
     7
370
    15
100
AcDbLine
 10
285.6907965209
 20
169.1652464079
 30
0.0
 11
287.1907965209
 21
169.1652464079
 31
0.0
  0
LINE
  5
BB
330
1F
100
AcDbEntity
  8
工作區域參考線
 62
     1
370
     0
100
AcDbLine
 10
192.8939975803
 20
41.0264968609
 30
0.0
 11
197.0207534387
 21
37.4373205923
 31
0.0
  0
LINE
  5
BC
330
1F
100
AcDbEntity
  8
工作區域參考線
 62
     1
370
     0
100
AcDbLine
 10
194.5843956919
 20
34.8194958859
 30
0.0
 11
195.5698445849
 21
33.960798946
 31
0.0
  0
LINE
  5
BD
330
1F
100
AcDbEntity
  8
工作區域參考線
 62
     1
370
     0
100
AcDbLine
 10
195.5698445849
 20
33.960798946
 30
0.0
 11
196.8115258997
 21
35.1652318884
 31
0.0
  0
LINE
  5
BE
330
1F
100
AcDbEntity
  8
圖層_1
370
    30
100
AcDbLine
 10
194.9823427416
 20
33.4049010187
 30
0.0
 11
191.7722027684
 21
30.2878613059
 31
0.0
  0
LINE
  5
BF
330
1F
100
AcDbEntity
  8
圖層_1
370
    30
100
AcDbLine
 10
191.7722027684
 20
30.2878613059
 30
0.0
 11
190.8314023129
 21
31.097858376
 31
0.0
  0
LINE
  5
C0
330
1F
100
AcDbEntity
  8
圖層_1
370
    30
100
AcDbLine
 10
190.8314023129
 20
31.097858376
 30
0.0
 11
191.4624542334
 21
31.7137587665
 31
0.0
  0
LINE
  5
C1
330
1F
100
AcDbEntity
  8
圖層_1
370
    30
100
AcDbLine
 10
187.4532519232
 20
35.1983626068
 30
0.0
 11
191.4624542334
 21
31.7137587665
 31
0.0
  0
LINE
  5
C2
330
1F
100
AcDbEntity
  8
圖層_1
370
    30
100
AcDbLine
 10
188.7841267601
 20
38.7760667074
 30
0.0
 11
187.4774985052
 21
37.5144796309
 31
0.0
  0
LINE
  5
C3
330
1F
100
AcDbEntity
  8
圖層_1
370
    30
100
AcDbLine
 10
188.7841267601
 20
38.7760667074
 30
0.0
 11
189.7993206075
 21
37.8805348066
 31
0.0
  0
LINE
  5
C4
330
1F
100
AcDbEntity
  8
圖層_1
370
    30
100
AcDbLine
 10
194.0175230804
 20
34.2521878023
 30
0.0
 11
194.9823427416
 21
33.4049010187
 31
0.0
  0
CIRCLE
  5
C5
330
1F
100
AcDbEntity
  8
0
  6
Continuous
 62
     7
370
     0
100
AcDbCircle
 10
168.3593775185
 20
17.7745192513
 30
0.0
 40
1.5
  0
CIRCLE
  5
C6
330
1F
100
AcDbEntity
  8
0
  6
Continuous
 62
     7
370
     0
100
AcDbCircle
 10
168.3593775185
 20
17.7745192513
 30
0.0
 40
2.5
  0
ARC
  5
C7
330
1F
100
AcDbEntity
  8
工作區域參考線
 62
     1
370
     0
100
AcDbCircle
 10
195.918133574
 20
36.3931786202
 30
0.0
 40
1.518552937418286
100
AcDbArc
 50
306.0377529468
 51
43.4396461534
  0
ARC
  5
C8
330
1F
100
AcDbEntity
  8
工作區域參考線
 62
     1
370
     0
100
AcDbCircle
 10
192.2371535581
 20
35.8675842298
 30
0.0
 40
3.181636704527879
100
AcDbArc
 50
45.5592925416
 51
125.8325555121
  0
ARC
  5
C9
330
1F
100
AcDbEntity
  8
工作區域參考線
 62
     1
370
     0
100
AcDbCircle
 10
192.5548098488
 20
36.4084060353
 30
0.0
 40
2.577567488346265
100
AcDbArc
 50
321.9435288427
 51
42.1815007004
  0
ARC
  5
CA
330
1F
100
AcDbEntity
  8
圖層_1
370
    30
100
AcDbCircle
 10
188.4681933527
 20
36.3459229825
 30
0.0
 40
1.531992467805816
100
AcDbArc
 50
130.2910647925
 51
228.509361907
  0
ARC
  5
CB
330
1F
100
AcDbEntity
  8
圖層_1
370
    30
100
AcDbCircle
 10
191.7725909108
 20
36.2331421192
 30
0.0
 40
2.570544369711281
100
AcDbArc
 50
140.1430462781
 51
253.0452525074
  0
ARC
  5
CC
330
1F
100
AcDbEntity
  8
圖層_1
370
    30
100
AcDbCircle
 10
192.1039881191
 20
36.6217838685
 30
0.0
 40
3.045751395731255
100
AcDbArc
 50
249.2112209143
 51
308.9221353953
  0
MTEXT
  5
CE
330
1F
100
AcDbEntity
  8
0
  6
Continuous
 62
     7
370
     0
100
AcDbMText
 10
165.5426850804
 20
13.2208440369
 30
0.0
 40
2.6458333333
 41
0.0
 71
     1
 72
     1
  1
UNIT:m/m
  7
SLDTEXTSTYLE1
 73
     1
 44
1.0
  0
INSERT
  5
D5
330
1F
100
AcDbEntity
  8
0
  6
Continuous
 62
     7
370
     0
100
AcDbBlockReference
  2
SW_NOTE_0
 10
12.2315076053
 20
193.8904304251
 30
0.0
  0
MTEXT
  5
D7
330
1F
100
AcDbEntity
  8
0
  6
Continuous
 62
     7
370
     0
100
AcDbMText
 10
198.7251893935
 20
40.4406774139
 30
0.0
 40
2.38125
 41
0.0
 71
     1
 72
     1
  1
Unice E-O Services Inc.
  7
SLDTEXTSTYLE2
 73
     1
 44
1.0
  0
MTEXT
  5
D8
330
1F
100
AcDbEntity
  8
0
  6
Continuous
 62
     7
370
     0
100
AcDbMText
 10
252.6088982507
 20
16.87117774
 30
0.0
 40
2.5
 41
0.0
 71
     1
 72
     1
  1
1:1
  7
SLDTEXTSTYLE1
 73
     1
 44
1.0
  0
MTEXT
  5
D9
330
1F
100
AcDbEntity
  8
0
  6
Continuous
 62
     7
370
     0
100
AcDbMText
 10
252.3075599985
 20
32.1519195438
 30
0.0
 40
2.5
 41
0.0
 71
     1
 72
     1
  1
04VMT-0.5M
  7
SLDTEXTSTYLE1
 73
     1
 44
1.0
  0
MTEXT
  5
DA
330
1F
100
AcDbEntity
  8
0
  6
Continuous
 62
     7
370
     0
100
AcDbMText
 10
252.3075599985
 20
38.1082117879
 30
0.0
 40
2.5
 41
0.0
 71
     1
 72
     1
  1
04VMT-0.5M
  7
SLDTEXTSTYLE1
 73
     1
 44
1.0
  0
MTEXT
  5
DB
330
1F
100
AcDbEntity
  8
0
  6
Continuous
 62
     7
370
     0
100
AcDbMText
 10
236.3921866786
 20
16.5064795728
 30
0.0
 40
2.1166666667
 41
0.0
 71
     1
 72
     1
  1
SCALE:
  7
SLDTEXTSTYLE1
 73
     1
 44
1.0
  0
MTEXT
  5
DC
330
1F
100
AcDbEntity
  8
0
  6
Continuous
 62
     7
370
     0
100
AcDbMText
 10
186.3336086789
 20
21.5867148511
 30
0.0
 40
1.8520833333
 41
0.0
 71
     1
 72
     1
  1
DRAWN
  7
SLDTEXTSTYLE1
 73
     1
 44
1.0
  0
MTEXT
  5
DD
330
1F
100
AcDbEntity
  8
0
  6
Continuous
 62
     7
370
     0
100
AcDbMText
 10
203.2228367937
 20
26.683208308
 30
0.0
 40
1.8520833333
 41
0.0
 71
     1
 72
     1
  1
NAME
  7
SLDTEXTSTYLE1
 73
     1
 44
1.0
  0
MTEXT
  5
DE
330
1F
100
AcDbEntity
  8
0
  6
Continuous
 62
     7
370
     0
100
AcDbMText
 10
220.8710155758
 20
26.683208308
 30
0.0
 40
1.8520833333
 41
0.0
 71
     1
 72
     1
  1
DATE
  7
SLDTEXTSTYLE1
 73
     1
 44
1.0
  0
MTEXT
  5
DF
330
1F
100
AcDbEntity
  8
0
  6
Continuous
 62
     7
370
     0
100
AcDbMText
 10
236.2756316645
 20
31.7872213766
 30
0.0
 40
2.1166666667
 41
0.0
 71
     1
 72
     1
  1
DWG. NO.
  7
SLDTEXTSTYLE1
 73
     1
 44
1.0
  0
MTEXT
  5
E0
330
1F
100
AcDbEntity
  8
0
  6
Continuous
 62
     7
370
     0
100
AcDbMText
 10
236.3629907088
 20
41.8840658243
 30
0.0
 40
2.1166666667
 41
0.0
 71
     1
 72
     1
  1
TITLE:
  7
SLDTEXTSTYLE1
 73
     1
 44
1.0
  0
MTEXT
  5
E1
330
1F
100
AcDbEntity
  8
0
  6
Continuous
 62
     7
370
     0
100
AcDbMText
 10
203.0314209802
 20
16.2403789724
 30
0.0
 40
1.8520833333
 41
0.0
 71
     1
 72
     1
  1
Johnny
  7
SLDTEXTSTYLE1
 73
     1
 44
1.0
  0
MTEXT
  5
E2
330
1F
100
AcDbEntity
  8
0
  6
Continuous
 62
     7
370
     0
100
AcDbMText
 10
217.5590538149
 20
16.2403789724
 30
0.0
 40
1.8520833333
 41
0.0
 71
     1
 72
     1
  1
2016/4/18
  7
SLDTEXTSTYLE1
 73
     1
 44
1.0
  0
MTEXT
  5
E3
330
1F
100
AcDbEntity
  8
0
  6
Continuous
 62
     7
370
     0
100
AcDbMText
 10
186.3336086789
 20
16.2403789724
 30
0.0
 40
1.8520833333
 41
0.0
 71
     1
 72
     1
  1
ENG APPR.
  7
SLDTEXTSTYLE1
 73
     1
 44
1.0
  0
MTEXT
  5
E4
330
1F
100
AcDbEntity
  8
0
  6
Continuous
 62
     7
370
     0
100
AcDbMText
 10
236.3921866786
 20
11.6853389288
 30
0.0
 40
2.1166666667
 41
0.0
 71
     1
 72
     1
  1
REV
  7
SLDTEXTSTYLE1
 73
     1
 44
1.0
  0
MTEXT
  5
E5
330
1F
100
AcDbEntity
  8
0
  6
Continuous
 62
     7
370
     0
100
AcDbMText
 10
236.3629907088
 20
26.9493089085
 30
0.0
 40
2.1166666667
 41
0.0
 71
     1
 72
     1
  1
MATERIAL:
  7
SLDTEXTSTYLE1
 73
     1
 44
1.0
  0
MTEXT
  5
E6
330
1F
100
AcDbEntity
  8
0
  6
Continuous
 62
     7
370
     0
100
AcDbMText
 10
252.6088982507
 20
22.2175136187
 30
0.0
 40
2.5
 41
0.0
 71
     1
 72
     1
  1
N/A
  7
SLDTEXTSTYLE1
 73
     1
 44
1.0
  0
MTEXT
  5
E7
330
1F
100
AcDbEntity
  8
0
  6
Continuous
 62
     7
370
     0
100
AcDbMText
 10
26.6029931533
 20
204.453351657
 30
0.0
 40
2.1166666667
 41
0.0
 71
     1
 72
     1
  1
1
  7
SLDTEXTSTYLE1
 73
     1
 44
1.0
  0
MTEXT
  5
E8
330
1F
100
AcDbEntity
  8
0
  6
Continuous
 62
     7
370
     0
100
AcDbMText
 10
60.7170995724
 20
204.453351657
 30
0.0
 40
2.1166666667
 41
0.0
 71
     1
 72
     1
  1
2
  7
SLDTEXTSTYLE1
 73
     1
 44
1.0
  0
MTEXT
  5
E9
330
1F
100
AcDbEntity
  8
0
  6
Continuous
 62
     7
370
     0
100
AcDbMText
 10
94.9009943906
 20
204.453351657
 30
0.0
 40
2.1166666667
 41
0.0
 71
     1
 72
     1
  1
3
  7
SLDTEXTSTYLE1
 73
     1
 44
1.0
  0
MTEXT
  5
EA
330
1F
100
AcDbEntity
  8
0
  6
Continuous
 62
     7
370
     0
100
AcDbMText
 10
129.2533362851
 20
204.2992584364
 30
0.0
 40
2.1166666667
 41
0.0
 71
     1
 72
     1
  1
4
  7
SLDTEXTSTYLE1
 73
     1
 44
1.0
  0
MTEXT
  5
EB
330
1F
100
AcDbEntity
  8
0
  6
Continuous
 62
     7
370
     0
100
AcDbMText
 10
163.702323464
 20
204.453351657
 30
0.0
 40
2.1166666667
 41
0.0
 71
     1
 72
     1
  1
5
  7
SLDTEXTSTYLE1
 73
     1
 44
1.0
  0
MTEXT
  5
EC
330
1F
100
AcDbEntity
  8
0
  6
Continuous
 62
     7
370
     0
100
AcDbMText
 10
198.6382170415
 20
204.453351657
 30
0.0
 40
2.1166666667
 41
0.0
 71
     1
 72
     1
  1
6
  7
SLDTEXTSTYLE1
 73
     1
 44
1.0
  0
MTEXT
  5
ED
330
1F
100
AcDbEntity
  8
0
  6
Continuous
 62
     7
370
     0
100
AcDbMText
 10
234.3630657407
 20
204.453351657
 30
0.0
 40
2.1166666667
 41
0.0
 71
     1
 72
     1
  1
7
  7
SLDTEXTSTYLE1
 73
     1
 44
1.0
  0
MTEXT
  5
EE
330
1F
100
AcDbEntity
  8
0
  6
Continuous
 62
     7
370
     0
100
AcDbMText
 10
266.2787820494
 20
204.453351657
 30
0.0
 40
2.1166666667
 41
0.0
 71
     1
 72
     1
  1
8
  7
SLDTEXTSTYLE1
 73
     1
 44
1.0
  0
MTEXT
  5
EF
330
1F
100
AcDbEntity
  8
0
  6
Continuous
 62
     7
370
     0
100
AcDbMText
 10
5.3568236555
 20
185.8113022879
 30
0.0
 40
2.1166666667
 41
0.0
 71
     1
 72
     1
  1
A
  7
SLDTEXTSTYLE1
 73
     1
 44
1.0
  0
MTEXT
  5
F0
330
1F
100
AcDbEntity
  8
0
  6
Continuous
 62
     7
370
     0
100
AcDbMText
 10
5.5910431831
 20
154.2993048238
 30
0.0
 40
2.1166666667
 41
0.0
 71
     1
 72
     1
  1
B
  7
SLDTEXTSTYLE1
 73
     1
 44
1.0
  0
MTEXT
  5
F1
330
1F
100
AcDbEntity
  8
0
  6
Continuous
 62
     7
370
     0
100
AcDbMText
 10
5.5910431831
 20
121.274351423
 30
0.0
 40
2.1166666667
 41
0.0
 71
     1
 72
     1
  1
C
  7
SLDTEXTSTYLE1
 73
     1
 44
1.0
  0
MTEXT
  5
F2
330
1F
100
AcDbEntity
  8
0
  6
Continuous
 62
     7
370
     0
100
AcDbMText
 10
5.5910431831
 20
88.7453220221
 30
0.0
 40
2.1166666667
 41
0.0
 71
     1
 72
     1
  1
D
  7
SLDTEXTSTYLE1
 73
     1
 44
1.0
  0
MTEXT
  5
F3
330
1F
100
AcDbEntity
  8
0
  6
Continuous
 62
     7
370
     0
100
AcDbMText
 10
5.5910431831
 20
57.5558849197
 30
0.0
 40
2.1166666667
 41
0.0
 71
     1
 72
     1
  1
E
  7
SLDTEXTSTYLE1
 73
     1
 44
1.0
  0
MTEXT
  5
F4
330
1F
100
AcDbEntity
  8
0
  6
Continuous
 62
     7
370
     0
100
AcDbMText
 10
5.5910431831
 20
25.5694212252
 30
0.0
 40
2.1166666667
 41
0.0
 71
     1
 72
     1
  1
F
  7
SLDTEXTSTYLE1
 73
     1
 44
1.0
  0
MTEXT
  5
F5
330
1F
100
AcDbEntity
  8
0
  6
Continuous
 62
     7
370
     0
100
AcDbMText
 10
266.1858616964
 20
6.6236223963
 30
0.0
 40
2.1166666667
 41
0.0
 71
     1
 72
     1
  1
8
  7
SLDTEXTSTYLE1
 73
     1
 44
1.0
  0
MTEXT
  5
F6
330
1F
100
AcDbEntity
  8
0
  6
Continuous
 62
     7
370
     0
100
AcDbMText
 10
234.2701453876
 20
6.6236223963
 30
0.0
 40
2.1166666667
 41
0.0
 71
     1
 72
     1
  1
7
  7
SLDTEXTSTYLE1
 73
     1
 44
1.0
  0
MTEXT
  5
F7
330
1F
100
AcDbEntity
  8
0
  6
Continuous
 62
     7
370
     0
100
AcDbMText
 10
198.5452966885
 20
6.6236223963
 30
0.0
 40
2.1166666667
 41
0.0
 71
     1
 72
     1
  1
6
  7
SLDTEXTSTYLE1
 73
     1
 44
1.0
  0
MTEXT
  5
F8
330
1F
100
AcDbEntity
  8
0
  6
Continuous
 62
     7
370
     0
100
AcDbMText
 10
163.6094031109
 20
6.6236223963
 30
0.0
 40
2.1166666667
 41
0.0
 71
     1
 72
     1
  1
5
  7
SLDTEXTSTYLE1
 73
     1
 44
1.0
  0
MTEXT
  5
F9
330
1F
100
AcDbEntity
  8
0
  6
Continuous
 62
     7
370
     0
100
AcDbMText
 10
129.1604159321
 20
6.4695291758
 30
0.0
 40
2.1166666667
 41
0.0
 71
     1
 72
     1
  1
4
  7
SLDTEXTSTYLE1
 73
     1
 44
1.0
  0
MTEXT
  5
FA
330
1F
100
AcDbEntity
  8
0
  6
Continuous
 62
     7
370
     0
100
AcDbMText
 10
94.8080740376
 20
6.6236223963
 30
0.0
 40
2.1166666667
 41
0.0
 71
     1
 72
     1
  1
3
  7
SLDTEXTSTYLE1
 73
     1
 44
1.0
  0
MTEXT
  5
FB
330
1F
100
AcDbEntity
  8
0
  6
Continuous
 62
     7
370
     0
100
AcDbMText
 10
60.6241792194
 20
6.6236223963
 30
0.0
 40
2.1166666667
 41
0.0
 71
     1
 72
     1
  1
2
  7
SLDTEXTSTYLE1
 73
     1
 44
1.0
  0
MTEXT
  5
FC
330
1F
100
AcDbEntity
  8
0
  6
Continuous
 62
     7
370
     0
100
AcDbMText
 10
26.5100728003
 20
6.6236223963
 30
0.0
 40
2.1166666667
 41
0.0
 71
     1
 72
     1
  1
1
  7
SLDTEXTSTYLE1
 73
     1
 44
1.0
  0
MTEXT
  5
FD
330
1F
100
AcDbEntity
  8
0
  6
Continuous
 62
     7
370
     0
100
AcDbMText
 10
287.1023846145
 20
186.6424909092
 30
0.0
 40
2.1166666667
 41
0.0
 71
     1
 72
     1
  1
A
  7
SLDTEXTSTYLE1
 73
     1
 44
1.0
  0
MTEXT
  5
FE
330
1F
100
AcDbEntity
  8
0
  6
Continuous
 62
     7
370
     0
100
AcDbMText
 10
287.3366041421
 20
155.1304934451
 30
0.0
 40
2.1166666667
 41
0.0
 71
     1
 72
     1
  1
B
  7
SLDTEXTSTYLE1
 73
     1
 44
1.0
  0
MTEXT
  5
FF
330
1F
100
AcDbEntity
  8
0
  6
Continuous
 62
     7
370
     0
100
AcDbMText
 10
287.3366041421
 20
122.1055400442
 30
0.0
 40
2.1166666667
 41
0.0
 71
     1
 72
     1
  1
C
  7
SLDTEXTSTYLE1
 73
     1
 44
1.0
  0
MTEXT
  5
100
330
1F
100
AcDbEntity
  8
0
  6
Continuous
 62
     7
370
     0
100
AcDbMText
 10
287.3366041421
 20
89.5765106433
 30
0.0
 40
2.1166666667
 41
0.0
 71
     1
 72
     1
  1
D
  7
SLDTEXTSTYLE1
 73
     1
 44
1.0
  0
MTEXT
  5
101
330
1F
100
AcDbEntity
  8
0
  6
Continuous
 62
     7
370
     0
100
AcDbMText
 10
287.3366041421
 20
58.3870735409
 30
0.0
 40
2.1166666667
 41
0.0
 71
     1
 72
     1
  1
E
  7
SLDTEXTSTYLE1
 73
     1
 44
1.0
  0
MTEXT
  5
102
330
1F
100
AcDbEntity
  8
0
  6
Continuous
 62
     7
370
     0
100
AcDbMText
 10
287.3366041421
 20
26.4006098464
 30
0.0
 40
2.1166666667
 41
0.0
 71
     1
 72
     1
  1
F
  7
SLDTEXTSTYLE1
 73
     1
 44
1.0
  0
MTEXT
  5
103
330
1F
100
AcDbEntity
  8
0
  6
Continuous
 62
     7
370
     0
100
AcDbMText
 10
203.1553128802
 20
21.5867148511
 30
0.0
 40
1.8520833333
 41
0.0
 71
     1
 72
     1
  1
Yuhan
  7
SLDTEXTSTYLE1
 73
     1
 44
1.0
  0
MTEXT
  5
105
330
1F
100
AcDbEntity
  8
0
  6
Continuous
 62
     7
370
     0
100
AcDbMText
 10
252.8482239645
 20
12.210248456
 30
0.0
 40
2.6458333333
 41
0.0
 71
     1
 72
     1
  1
0
  7
SLDTEXTSTYLE3
 73
     1
 44
1.0
  0
MTEXT
  5
106
330
1F
100
AcDbEntity
  8
DIM
 62
     7
100
AcDbMText
 10
217.5590538149
 20
21.5867148511
 30
0.0
 40
1.8520833333
 41
0.0
 71
     1
 72
     1
  1
2016/4/18
  7
SLDTEXTSTYLE1
 73
     1
 44
1.0
  0
INSERT
  5
10C
330
1F
100
AcDbEntity
  8
DIM
 62
     7
100
AcDbBlockReference
  2
SW_NOTE_1
 10
198.7251893935
 20
33.0722881696
 30
0.0
  0
ARC
  5
10D
330
1F
100
AcDbEntity
  8
0
  6
Continuous
 62
     7
370
    15
100
AcDbCircle
 10
111.3206441426
 20
136.6517811899
 30
0.0
 40
1.0
100
AcDbArc
 50
180.0
 51
270.0
  0
ARC
  5
10E
330
1F
100
AcDbEntity
  8
0
  6
Continuous
 62
     7
370
    15
100
AcDbCircle
 10
124.3206441426
 20
136.6517811899
 30
0.0
 40
1.000000000000014
100
AcDbArc
 50
270.0
 51
0.0
  0
ARC
  5
10F
330
1F
100
AcDbEntity
  8
0
  6
Continuous
 62
     7
370
    15
100
AcDbCircle
 10
111.3206441426
 20
142.6517811899
 30
0.0
 40
1.000000000000028
100
AcDbArc
 50
90.0
 51
180.0
  0
ARC
  5
110
330
1F
100
AcDbEntity
  8
0
  6
Continuous
 62
     7
370
    15
100
AcDbCircle
 10
124.3206441426
 20
142.6517811899
 30
0.0
 40
1.000000000000028
100
AcDbArc
 50
0.0
 51
90.0
  0
LINE
  5
111
330
1F
100
AcDbEntity
  8
0
  6
Continuous
 62
     7
370
    15
100
AcDbLine
 10
113.3206435506
 20
135.6517804749
 30
0.0
 11
113.3206435506
 21
135.0201984829
 31
0.0
  0
LINE
  5
112
330
1F
100
AcDbEntity
  8
0
  6
Continuous
 62
     7
370
    15
100
AcDbLine
 10
122.3206440944
 20
135.0201984829
 30
0.0
 11
122.3206440944
 21
135.6517804749
 31
0.0
  0
LINE
  5
113
330
1F
100
AcDbEntity
  8
0
  6
Continuous
 62
     7
370
    15
100
AcDbLine
 10
110.9750964705
 20
142.8760310597
 30
0.0
 11
110.9750964705
 21
136.4275312013
 31
0.0
  0
LINE
  5
114
330
1F
100
AcDbEntity
  8
0
  6
Continuous
 62
     7
370
    15
100
AcDbLine
 10
124.7165598933
 20
136.4359913356
 30
0.0
 11
124.7165598933
 21
142.8675709254
 31
0.0
  0
LINE
  5
115
330
1F
100
AcDbEntity
  8
0
  6
Continuous
 62
     7
370
    15
100
AcDbLine
 10
110.3206449215
 20
142.6517797596
 30
0.0
 11
110.3206449215
 21
136.6517825014
 31
0.0
  0
LINE
  5
116
330
1F
100
AcDbEntity
  8
0
  6
Continuous
 62
     7
370
    15
100
AcDbLine
 10
125.3206445862
 20
136.6517825014
 30
0.0
 11
125.3206445862
 21
142.6517797596
 31
0.0
  0
LINE
  5
117
330
1F
100
AcDbEntity
  8
0
  6
Continuous
 62
     7
370
    15
100
AcDbLine
 10
136.3206441773
 20
136.6517825014
 30
0.0
 11
136.3263890406
 21
136.5447437353
 31
0.0
  0
ARC
  5
118
330
1F
100
AcDbEntity
  8
0
  6
Continuous
 62
     7
370
    15
100
AcDbCircle
 10
137.3206441426
 20
136.6517811899
 30
0.0
 40
1.000000000000004
100
AcDbArc
 50
194.3059057856
 51
270.0
  0
ARC
  5
119
330
1F
100
AcDbEntity
  8
0
  6
Continuous
 62
     7
370
    15
100
AcDbCircle
 10
150.3206441426
 20
136.6517811899
 30
0.0
 40
1.0
100
AcDbArc
 50
270.0
 51
0.0
  0
ARC
  5
11A
330
1F
100
AcDbEntity
  8
0
  6
Continuous
 62
     7
370
    15
100
AcDbCircle
 10
137.3206441426
 20
142.6517811899
 30
0.0
 40
1.000000000000028
100
AcDbArc
 50
90.0
 51
166.7914971854
  0
ARC
  5
11B
330
1F
100
AcDbEntity
  8
0
  6
Continuous
 62
     7
370
    15
100
AcDbCircle
 10
150.3206441426
 20
142.6517811899
 30
0.0
 40
1.000000000000028
100
AcDbArc
 50
0.0
 51
90.0
  0
LINE
  5
11C
330
1F
100
AcDbEntity
  8
0
  6
Continuous
 62
     7
370
    15
100
AcDbLine
 10
139.320644087
 20
135.6517804749
 30
0.0
 11
139.320644087
 21
135.0201984829
 31
0.0
  0
LINE
  5
11D
330
1F
100
AcDbEntity
  8
0
  6
Continuous
 62
     7
370
    15
100
AcDbLine
 10
148.3206436996
 20
135.0201984829
 30
0.0
 11
148.3206436996
 21
135.6517804749
 31
0.0
  0
LINE
  5
11E
330
1F
100
AcDbEntity
  8
0
  6
Continuous
 62
     7
370
    15
100
AcDbLine
 10
150.4969853003
 20
136.4010220355
 30
0.0
 11
150.4969853003
 21
142.9025402255
 31
0.0
  0
LINE
  5
11F
330
1F
100
AcDbEntity
  8
0
  6
Continuous
 62
     7
370
    15
100
AcDbLine
 10
136.7802049525
 20
142.8413709588
 30
0.0
 11
136.7802049525
 21
136.4621950275
 31
0.0
  0
LINE
  5
120
330
1F
100
AcDbEntity
  8
0
  6
Continuous
 62
     7
370
    15
100
AcDbLine
 10
151.3206441913
 20
136.6517825014
 30
0.0
 11
151.3206441913
 21
142.6517797596
 31
0.0
  0
LINE
  5
121
330
1F
100
AcDbEntity
  8
0
  6
Continuous
 62
     7
370
    15
100
AcDbLine
 10
136.3206441773
 20
142.6517797596
 30
0.0
 11
136.3206441773
 21
136.6517825014
 31
0.0
  0
SPLINE
  5
122
330
1F
100
AcDbEntity
  8
0
  6
Continuous
 62
     7
370
    15
100
AcDbSpline
210
0.0
220
0.0
230
1.0
 70
     8
 71
     3
 72
    10
 73
     6
 74
     0
 42
0.000000001
 43
0.00000001
 40
0.0
 40
0.0
 40
0.0
 40
0.0
 40
0.6068373243235874
 40
0.9873408416008274
 40
1.0
 40
1.0
 40
1.0
 40
1.0
 10
110.4923901174473
 20
136.2203380054921
 30
0.0
 10
110.4537329986366
 20
136.3065797343993
 30
0.0
 10
110.3908368142877
 20
136.4468973743784
 30
0.0
 10
110.370610626611
 20
136.5927894576185
 30
0.0
 10
110.3669543832335
 20
136.6499422793625
 30
0.0
 10
110.3668366585182
 20
136.6517825014085
 30
0.0
  0
SPLINE
  5
123
330
1F
100
AcDbEntity
  8
0
  6
Continuous
 62
     7
370
    15
100
AcDbSpline
210
0.0
220
0.0
230
1.0
 70
     8
 71
     3
 72
    16
 73
    12
 74
     0
 42
0.000000001
 43
0.00000001
 40
0.0
 40
0.0
 40
0.0
 40
0.0
 40
0.0316448795058378
 40
0.1442302467051592
 40
0.2602600652391034
 40
0.391827017589732
 40
0.5492077313579262
 40
0.7249906665193505
 40
0.8558653915046041
 40
0.9874193654009573
 40
1.0
 40
1.0
 40
1.0
 40
1.0
 10
110.4923901174473
 20
136.2203380054921
 30
0.0
 10
110.5038084643241
 20
136.200240714183
 30
0.0
 10
110.5558507224311
 20
136.1086417784662
 30
0.0
 10
110.6753467662663
 20
135.9724658373394
 30
0.0
 10
110.8459478419439
 20
135.8531215461021
 30
0.0
 10
111.0066783307299
 20
135.7889086869777
 30
0.0
 10
111.1206957604202
 20
135.7781414456168
 30
0.0
 10
111.1405319926626
 20
135.8312597263198
 30
0.0
 10
111.084276257013
 20
135.9700007954096
 30
0.0
 10
111.0280616913015
 20
136.1196865380033
 30
0.0
 10
111.0030013749095
 20
136.2122580044065
 30
0.0
 10
111.0008140120911
 20
136.2203380054921
 30
0.0
  0
SPLINE
  5
124
330
1F
100
AcDbEntity
  8
0
  6
Continuous
 62
     7
370
    15
100
AcDbSpline
210
0.0
220
0.0
230
1.0
 70
     8
 71
     3
 72
    10
 73
     6
 74
     0
 42
0.000000001
 43
0.00000001
 40
0.0
 40
0.0
 40
0.0
 40
0.0
 40
0.0126594544828072
 40
0.3931631106300143
 40
1.0
 40
1.0
 40
1.0
 40
1.0
 10
111.0023655955004
 20
136.6517825014085
 30
0.0
 10
111.0019402688164
 20
136.6499422801114
 30
0.0
 10
110.9887309506481
 20
136.5927907551093
 30
0.0
 10
110.9644396144542
 20
136.4468966431739
 30
0.0
 10
110.9869677953327
 20
136.3065794337936
 30
0.0
 10
111.0008140120911
 20
136.2203380054921
 30
0.0
  0
LINE
  5
125
330
1F
100
AcDbEntity
  8
0
  6
Continuous
 62
     7
370
    15
100
AcDbLine
 10
111.0023655955
 20
136.6517825014
 30
0.0
 11
111.7810164605
 21
136.6517825014
 31
0.0
  0
SPLINE
  5
126
330
1F
100
AcDbEntity
  8
0
  6
Continuous
 62
     7
370
    15
100
AcDbSpline
210
0.0
220
0.0
230
1.0
 70
     8
 71
     3
 72
    10
 73
     6
 74
     0
 42
0.000000001
 43
0.00000001
 40
0.0
 40
0.0
 40
0.0
 40
0.0
 40
0.6068375348804216
 40
0.9873402271697433
 40
1.0
 40
1.0
 40
1.0
 40
1.0
 10
111.9958166990685
 20
136.2203380054921
 30
0.0
 10
111.9435978620632
 20
136.3065789254445
 30
0.0
 10
111.8586364754848
 20
136.446895113226
 30
0.0
 10
111.8006588268472
 20
136.5927923159195
 30
0.0
 10
111.7816292112477
 20
136.6499422810418
 30
0.0
 10
111.7810164604591
 20
136.6517825014085
 30
0.0
  0
SPLINE
  5
127
330
1F
100
AcDbEntity
  8
0
  6
Continuous
 62
     7
370
    15
100
AcDbSpline
210
0.0
220
0.0
230
1.0
 70
     8
 71
     3
 72
    16
 73
    12
 74
     0
 42
0.000000001
 43
0.00000001
 40
0.0
 40
0.0
 40
0.0
 40
0.0
 40
0.0316443211296998
 40
0.1442304147812261
 40
0.2602600994112191
 40
0.3918269026340351
 40
0.5492074315070447
 40
0.7249902979547754
 40
0.8558654827091184
 40
0.9874191937934491
 40
1.0
 40
1.0
 40
1.0
 40
1.0
 10
111.9958166990685
 20
136.2203380054921
 30
0.0
 10
112.0097875434675
 20
136.2002406642391
 30
0.0
 10
112.0734647092457
 20
136.1086397778418
 30
0.0
 10
112.2261697011566
 20
135.9724671694628
 30
0.0
 10
112.4694586077647
 20
135.853121214194
 30
0.0
 10
112.7419602373143
 20
135.7889088271862
 30
0.0
 10
113.0138984862469
 20
135.7781412747707
 30
0.0
 10
113.212717146985
 20
135.8312603310142
 30
0.0
 10
113.319405484911
 20
135.9699996498344
 30
0.0
 10
113.345952213153
 20
136.119687927458
 30
0.0
 10
113.3527884268932
 20
136.2122580098786
 30
0.0
 10
113.3533851269888
 20
136.2203380054921
 30
0.0
  0
SPLINE
  5
128
330
1F
100
AcDbEntity
  8
0
  6
Continuous
 62
     7
370
    15
100
AcDbSpline
210
0.0
220
0.0
230
1.0
 70
     8
 71
     3
 72
    10
 73
     6
 74
     0
 42
0.000000001
 43
0.00000001
 40
0.0
 40
0.0
 40
0.0
 40
0.0
 40
0.012659349644473
 40
0.3931627809101155
 40
1.0
 40
1.0
 40
1.0
 40
1.0
 10
113.4779774610209
 20
136.6517825014085
 30
0.0
 10
113.4771410569055
 20
136.649942279866
 30
0.0
 10
113.4511647645049
 20
136.5927903218712
 30
0.0
 10
113.3902269251611
 20
136.4468967846689
 30
0.0
 10
113.3674092674424
 20
136.3065795110048
 30
0.0
 10
113.3533851269888
 20
136.2203380054921
 30
0.0
  0
LINE
  5
129
330
1F
100
AcDbEntity
  8
0
  6
Continuous
 62
     7
370
    15
100
AcDbLine
 10
113.477977461
 20
136.6517825014
 30
0.0
 11
114.8135107968
 21
136.6517825014
 31
0.0
  0
SPLINE
  5
12A
330
1F
100
AcDbEntity
  8
0
  6
Continuous
 62
     7
370
    15
100
AcDbSpline
210
0.0
220
0.0
230
1.0
 70
     8
 71
     3
 72
    10
 73
     6
 74
     0
 42
0.000000001
 43
0.00000001
 40
0.0
 40
0.0
 40
0.0
 40
0.0
 40
0.6068370691452573
 40
0.9873408898751529
 40
1.0
 40
1.0
 40
1.0
 40
1.0
 10
115.0599983547138
 20
136.2203380054921
 30
0.0
 10
115.0082102635278
 20
136.3065798376524
 30
0.0
 10
114.9239495902164
 20
136.4468977114922
 30
0.0
 10
114.8437602358929
 20
136.5927891974877
 30
0.0
 10
114.8144543901788
 20
136.6499422792038
 30
0.0
 10
114.8135107968258
 20
136.6517825014085
 30
0.0
  0
SPLINE
  5
12B
330
1F
100
AcDbEntity
  8
0
  6
Continuous
 62
     7
370
    15
100
AcDbSpline
210
0.0
220
0.0
230
1.0
 70
     8
 71
     3
 72
    16
 73
    12
 74
     0
 42
0.000000001
 43
0.00000001
 40
0.0
 40
0.0
 40
0.0
 40
0.0
 40
0.0316447828461381
 40
0.1442303454258917
 40
0.2602599710864823
 40
0.3918275622826499
 40
0.5492077184710021
 40
0.724990496643646
 40
0.8558655067499511
 40
0.987419586804677
 40
1.0
 40
1.0
 40
1.0
 40
1.0
 10
115.0599983547138
 20
136.2203380054921
 30
0.0
 10
115.0727798252198
 20
136.2002407034173
 30
0.0
 10
115.1310351121999
 20
136.1086413761453
 30
0.0
 10
115.2760234891263
 20
135.972466299298
 30
0.0
 10
115.5268146283131
 20
135.8531210731122
 30
0.0
 10
115.8380715139391
 20
135.7889090162143
 30
0.0
 10
116.1950673549168
 20
135.7781413890415
 30
0.0
 10
116.5195931383116
 20
135.8312597485811
 30
0.0
 10
116.7606361677936
 20
135.970001277359
 30
0.0
 10
116.8628447922913
 20
136.1196849079493
 30
0.0
 10
116.8997337252437
 20
136.2122579983939
 30
0.0
 10
116.9029534820723
 20
136.2203380054921
 30
0.0
  0
SPLINE
  5
12C
330
1F
100
AcDbEntity
  8
0
  6
Continuous
 62
     7
370
    15
100
AcDbSpline
210
0.0
220
0.0
230
1.0
 70
     8
 71
     3
 72
    10
 73
     6
 74
     0
 42
0.000000001
 43
0.00000001
 40
0.0
 40
0.0
 40
0.0
 40
0.0
 40
0.0126599946108427
 40
0.3931632075182802
 40
1.0
 40
1.0
 40
1.0
 40
1.0
 10
117.1172042403626
 20
136.6517825014085
 30
0.0
 10
117.1161804570498
 20
136.649942281556
 30
0.0
 10
117.084386294145
 20
136.5927932256544
 30
0.0
 10
117.003146049952
 20
136.446894843951
 30
0.0
 10
116.9410926248598
 20
136.3065787695961
 30
0.0
 10
116.9029534820723
 20
136.2203380054921
 30
0.0
  0
LINE
  5
12D
330
1F
100
AcDbEntity
  8
0
  6
Continuous
 62
     7
370
    15
100
AcDbLine
 10
117.1172042404
 20
136.6517825014
 30
0.0
 11
118.651763073
 21
136.6517825014
 31
0.0
  0
SPLINE
  5
12E
330
1F
100
AcDbEntity
  8
0
  6
Continuous
 62
     7
370
    15
100
AcDbSpline
210
0.0
220
0.0
230
1.0
 70
     8
 71
     3
 72
    10
 73
     6
 74
     0
 42
0.000000001
 43
0.00000001
 40
0.0
 40
0.0
 40
0.0
 40
0.0
 40
0.6068378083887783
 40
0.9873416291880668
 40
1.0
 40
1.0
 40
1.0
 40
1.0
 10
118.8638941411184
 20
136.2203380054921
 30
0.0
 10
118.8264144319955
 20
136.3065806460246
 30
0.0
 10
118.7654339252516
 20
136.4468997692431
 30
0.0
 10
118.6845059521501
 20
136.5927859057315
 30
0.0
 10
118.6527843901713
 20
136.649942277295
 30
0.0
 10
118.651763073008
 20
136.6517825014085
 30
0.0
  0
SPLINE
  5
12F
330
1F
100
AcDbEntity
  8
0
  6
Continuous
 62
     7
370
    15
100
AcDbSpline
210
0.0
220
0.0
230
1.0
 70
     8
 71
     3
 72
    16
 73
    12
 74
     0
 42
0.000000001
 43
0.00000001
 40
0.0
 40
0.0
 40
0.0
 40
0.0
 40
0.0316448391912573
 40
0.1442305712497984
 40
0.2602604339919026
 40
0.39182723587174
 40
0.5492074384755837
 40
0.7249908352040345
 40
0.8558656100534596
 40
0.9874193606076489
 40
1.0
 40
1.0
 40
1.0
 40
1.0
 10
118.8638941411184
 20
136.2203380054921
 30
0.0
 10
118.8720607695667
 20
136.2002407044358
 30
0.0
 10
118.90928255727
 20
136.1086414014842
 30
0.0
 10
119.007709157845
 20
135.9724662124904
 30
0.0
 10
119.1988012960141
 20
135.853121553275
 30
0.0
 10
119.4654117763724
 20
135.7889087276124
 30
0.0
 10
119.8118073922321
 20
135.7781415133654
 30
0.0
 10
120.1750835930329
 20
135.8312596639371
 30
0.0
 10
120.4858989119394
 20
135.9700005049983
 30
0.0
 10
120.6363664044502
 20
136.1196867234327
 30
0.0
 10
120.6934358216125
 20
136.2122580051928
 30
0.0
 10
120.6984170738863
 20
136.2203380054921
 30
0.0
  0
SPLINE
  5
130
330
1F
100
AcDbEntity
  8
0
  6
Continuous
 62
     7
370
    15
100
AcDbSpline
210
0.0
220
0.0
230
1.0
 70
     8
 71
     3
 72
    10
 73
     6
 74
     0
 42
0.000000001
 43
0.00000001
 40
0.0
 40
0.0
 40
0.0
 40
0.0
 40
0.0126598988794138
 40
0.3931626240507471
 40
1.0
 40
1.0
 40
1.0
 40
1.0
 10
120.9449158076452
 20
136.6517825014085
 30
0.0
 10
120.9439790616422
 20
136.6499422813636
 30
0.0
 10
120.9148877142211
 20
136.5927928721506
 30
0.0
 10
120.8351146830521
 20
136.4468947844379
 30
0.0
 10
120.7504521952187
 20
136.3065787931186
 30
0.0
 10
120.6984170738863
 20
136.2203380054921
 30
0.0
  0
LINE
  5
131
330
1F
100
AcDbEntity
  8
0
  6
Continuous
 62
     7
370
    15
100
AcDbLine
 10
120.9449158076
 20
136.6517825014
 30
0.0
 11
122.2673174951
 21
136.6517825014
 31
0.0
  0
SPLINE
  5
132
330
1F
100
AcDbEntity
  8
0
  6
Continuous
 62
     7
370
    15
100
AcDbSpline
210
0.0
220
0.0
230
1.0
 70
     8
 71
     3
 72
    10
 73
     6
 74
     0
 42
0.000000001
 43
0.00000001
 40
0.0
 40
0.0
 40
0.0
 40
0.0
 40
0.6068376362279317
 40
0.987340936013364
 40
1.0
 40
1.0
 40
1.0
 40
1.0
 10
122.3882525254296
 20
136.2203380054921
 30
0.0
 10
122.3751211603331
 20
136.3065798014469
 30
0.0
 10
122.3537560808926
 20
136.4468974918109
 30
0.0
 10
122.2937930070606
 20
136.5927890696771
 30
0.0
 10
122.2681433638097
 20
136.6499422791432
 30
0.0
 10
122.2673174951481
 20
136.6517825014085
 30
0.0
  0
SPLINE
  5
133
330
1F
100
AcDbEntity
  8
0
  6
Continuous
 62
     7
370
    15
100
AcDbSpline
210
0.0
220
0.0
230
1.0
 70
     8
 71
     3
 72
    16
 73
    12
 74
     0
 42
0.000000001
 43
0.00000001
 40
0.0
 40
0.0
 40
0.0
 40
0.0
 40
0.0316447817891864
 40
0.1442302654121847
 40
0.2602602643625847
 40
0.3918273782259787
 40
0.5492078699542527
 40
0.7249906949139535
 40
0.8558655079717082
 40
0.9874194720517052
 40
1.0
 40
1.0
 40
1.0
 40
1.0
 10
122.3882525254296
 20
136.2203380054921
 30
0.0
 10
122.3896160156876
 20
136.2002407062388
 30
0.0
 10
122.3958305177532
 20
136.1086414395834
 30
0.0
 10
122.4213191521894
 20
135.9724658954664
 30
0.0
 10
122.5015109387837
 20
135.853121540748
 30
0.0
 10
122.652036867054
 20
135.7889087559514
 30
0.0
 10
122.8950175656435
 20
135.7781414408593
 30
0.0
 10
123.1997041683347
 20
135.8312597268892
 30
0.0
 10
123.4970060467267
 20
135.9700010041854
 30
0.0
 10
123.6554234651593
 20
136.1196857938874
 30
0.0
 10
123.7173763118853
 20
136.2122580016651
 30
0.0
 10
123.7227837581443
 20
136.2203380054921
 30
0.0
  0
SPLINE
  5
134
330
1F
100
AcDbEntity
  8
0
  6
Continuous
 62
     7
370
    15
100
AcDbSpline
210
0.0
220
0.0
230
1.0
 70
     8
 71
     3
 72
    10
 73
     6
 74
     0
 42
0.000000001
 43
0.00000001
 40
0.0
 40
0.0
 40
0.0
 40
0.0
 40
0.0126593339667955
 40
0.3931622940067996
 40
1.0
 40
1.0
 40
1.0
 40
1.0
 10
123.9354820017027
 20
136.6517825014085
 30
0.0
 10
123.9348835439624
 20
136.6499422798785
 30
0.0
 10
123.9162971776767
 20
136.5927903222718
 30
0.0
 10
123.8593522664612
 20
136.4468965134315
 30
0.0
 10
123.774769735217
 20
136.3065794497644
 30
0.0
 10
123.7227837581443
 20
136.2203380054921
 30
0.0
  0
LINE
  5
135
330
1F
100
AcDbEntity
  8
0
  6
Continuous
 62
     7
370
    15
100
AcDbLine
 10
123.9354820017
 20
136.6517825014
 30
0.0
 11
124.6913899694
 21
136.6517825014
 31
0.0
  0
SPLINE
  5
136
330
1F
100
AcDbEntity
  8
0
  6
Continuous
 62
     7
370
    15
100
AcDbSpline
210
0.0
220
0.0
230
1.0
 70
     8
 71
     3
 72
    10
 73
     6
 74
     0
 42
0.000000001
 43
0.00000001
 40
0.0
 40
0.0
 40
0.0
 40
0.0
 40
0.6068375108853381
 40
0.9873408969290528
 40
0.9999999999999999
 40
0.9999999999999999
 40
0.9999999999999999
 40
0.9999999999999999
 10
124.6887226615356
 20
136.2203380054921
 30
0.0
 10
124.7034597029452
 20
136.3065797730623
 30
0.0
 10
124.7274372643555
 20
136.4468974406722
 30
0.0
 10
124.7044977343639
 20
136.5927892308382
 30
0.0
 10
124.6917988499197
 20
136.6499422792344
 30
0.0
 10
124.6913899693893
 20
136.6517825014085
 30
0.0
  0
SPLINE
  5
137
330
1F
100
AcDbEntity
  8
0
  6
Continuous
 62
     7
370
    15
100
AcDbSpline
210
0.0
220
0.0
230
1.0
 70
     8
 71
     3
 72
    16
 73
    12
 74
     0
 42
0.000000001
 43
0.00000001
 40
0.0
 40
0.0
 40
0.0
 40
0.0
 40
0.0316445737687966
 40
0.1442301570591555
 40
0.2602601581856764
 40
0.3918271867377344
 40
0.5492077639880887
 40
0.7249905744967411
 40
0.8558654684749182
 40
0.9874193831184508
 40
1.0
 40
1.0
 40
1.0
 40
1.0
 10
124.6887226615356
 20
136.2203380054921
 30
0.0
 10
124.6829177759025
 20
136.2002406912806
 30
0.0
 10
124.6564601730067
 20
136.1086408231211
 30
0.0
 10
124.6021842095425
 20
135.9724661680313
 30
0.0
 10
124.5499857223361
 20
135.8531215021087
 30
0.0
 10
124.5440952038907
 20
135.7889087525288
 30
0.0
 10
124.6185524767239
 20
135.7781413942786
 30
0.0
 10
124.7830103481646
 20
135.8312598929495
 30
0.0
 10
124.9871375551584
 20
135.9700006368948
 30
0.0
 10
125.1110553228427
 20
136.1196864542927
 30
0.0
 10
125.1612922904224
 20
136.2122580041837
 30
0.0
 10
125.1656771663832
 20
136.2203380054921
 30
0.0
  0
SPLINE
  5
138
330
1F
100
AcDbEntity
  8
0
  6
Continuous
 62
     7
370
    15
100
AcDbSpline
210
0.0
220
0.0
230
1.0
 70
     8
 71
     3
 72
    10
 73
     6
 74
     0
 42
0.000000001
 43
0.00000001
 40
0.0
 40
0.0
 40
0.0
 40
0.0
 40
0.0126595579852453
 40
0.3931630438052396
 40
1.0
 40
1.0
 40
1.0
 40
1.0
 10
125.2875826347875
 20
136.6517825014085
 30
0.0
 10
125.2874822921664
 20
136.6499422803979
 30
0.0
 10
125.2843659898137
 20
136.5927912412657
 30
0.0
 10
125.2655329062262
 20
136.4468962413279
 30
0.0
 10
125.2036880886889
 20
136.3065792923086
 30
0.0
 10
125.1656771663832
 20
136.2203380054921
 30
0.0
  0
LINE
  5
139
330
1F
100
AcDbEntity
  8
0
  6
Continuous
 62
     7
370
    15
100
AcDbLine
 10
121.1186931495
 20
135.6517804749
 30
0.0
 11
111.3206432227
 21
135.6517804749
 31
0.0
  0
LINE
  5
13A
330
1F
100
AcDbEntity
  8
0
  6
Continuous
 62
     7
370
    15
100
AcDbLine
 10
124.3206444223
 20
135.6517804749
 30
0.0
 11
121.1186931495
 21
135.6517804749
 31
0.0
  0
SPLINE
  5
13B
330
1F
100
AcDbEntity
  8
0
  6
Continuous
 62
     7
370
    15
100
AcDbSpline
210
0.0
220
0.0
230
1.0
 70
     8
 71
     3
 72
    10
 73
     6
 74
     0
 42
0.000000001
 43
0.00000001
 40
0.0
 40
0.0
 40
0.0
 40
0.0
 40
0.6068369561947604
 40
0.9873404420147548
 40
1.0
 40
1.0
 40
1.0
 40
1.0
 10
125.1656771663832
 20
143.0832242555112
 30
0.0
 10
125.2036880886889
 20
142.9969829686946
 30
0.0
 10
125.2655329062262
 20
142.8566660196753
 30
0.0
 10
125.2843659898137
 20
142.7107710197376
 30
0.0
 10
125.2874822921664
 20
142.6536199806054
 30
0.0
 10
125.2875826347875
 20
142.6517797595948
 30
0.0
  0
SPLINE
  5
13C
330
1F
100
AcDbEntity
  8
0
  6
Continuous
 62
     7
370
    15
100
AcDbSpline
210
0.0
220
0.0
230
1.0
 70
     8
 71
     3
 72
    16
 73
    12
 74
     0
 42
0.000000001
 43
0.00000001
 40
0.0
 40
0.0
 40
0.0
 40
0.0
 40
0.0316445777148579
 40
0.14423014332347
 40
0.2602600918389284
 40
0.3918271106065245
 40
0.5492076749304322
 40
0.7249904770481275
 40
0.8558656518222769
 40
0.9874195082928435
 40
1.0
 40
1.0
 40
1.0
 40
1.0
 10
125.1656771663832
 20
143.0832242555112
 30
0.0
 10
125.154400941599
 20
143.1033215692778
 30
0.0
 10
125.1030059907351
 20
143.1949214152638
 30
0.0
 10
124.9852078448708
 20
143.3310960714305
 30
0.0
 10
124.8179027097834
 20
143.4504407841852
 30
0.0
 10
124.6617588970372
 20
143.5146534993854
 30
0.0
 10
124.5536866603919
 20
143.5254208823045
 30
0.0
 10
124.5400688864666
 20
143.4723022825625
 30
0.0
 10
124.6016363880368
 20
143.3335615741226
 30
0.0
 10
124.6604192691193
 20
143.1838766475879
 30
0.0
 10
124.6864505691554
 20
143.0913042598347
 30
0.0
 10
124.6887226615356
 20
143.0832242555112
 30
0.0
  0
SPLINE
  5
13D
330
1F
100
AcDbEntity
  8
0
  6
Continuous
 62
     7
370
    15
100
AcDbSpline
210
0.0
220
0.0
230
1.0
 70
     8
 71
     3
 72
    10
 73
     6
 74
     0
 42
0.000000001
 43
0.00000001
 40
0.0
 40
0.0
 40
0.0
 40
0.0
 40
0.0126591030709473
 40
0.3931624891146619
 40
0.9999999999999999
 40
0.9999999999999999
 40
0.9999999999999999
 40
0.9999999999999999
 10
124.6913899693893
 20
142.6517797595948
 30
0.0
 10
124.6917988499197
 20
142.6536199817689
 30
0.0
 10
124.7044977343639
 20
142.7107730301651
 30
0.0
 10
124.7274372643556
 20
142.856664820331
 30
0.0
 10
124.7034597029452
 20
142.9969824879409
 30
0.0
 10
124.6887226615356
 20
143.0832242555112
 30
0.0
  0
LINE
  5
13E
330
1F
100
AcDbEntity
  8
0
  6
Continuous
 62
     7
370
    15
100
AcDbLine
 10
124.6913899694
 20
142.6517797596
 30
0.0
 11
123.9354820017
 21
142.6517797596
 31
0.0
  0
SPLINE
  5
13F
330
1F
100
AcDbEntity
  8
0
  6
Continuous
 62
     7
370
    15
100
AcDbSpline
210
0.0
220
0.0
230
1.0
 70
     8
 71
     3
 72
    10
 73
     6
 74
     0
 42
0.000000001
 43
0.00000001
 40
0.0
 40
0.0
 40
0.0
 40
0.0
 40
0.6068377059932003
 40
0.9873406660332045
 40
1.0
 40
1.0
 40
1.0
 40
1.0
 10
123.7227837581443
 20
143.0832242555112
 30
0.0
 10
123.774769735217
 20
142.9969828112389
 30
0.0
 10
123.8593522664611
 20
142.8566657475718
 30
0.0
 10
123.9162971776768
 20
142.7107719387314
 30
0.0
 10
123.9348835439624
 20
142.6536199811248
 30
0.0
 10
123.9354820017027
 20
142.6517797595948
 30
0.0
  0
SPLINE
  5
140
330
1F
100
AcDbEntity
  8
0
  6
Continuous
 62
     7
370
    15
100
AcDbSpline
210
0.0
220
0.0
230
1.0
 70
     8
 71
     3
 72
    16
 73
    12
 74
     0
 42
0.000000001
 43
0.00000001
 40
0.0
 40
0.0
 40
0.0
 40
0.0
 40
0.0316444957741532
 40
0.1442301064901984
 40
0.2602600907175381
 40
0.3918270490420366
 40
0.5492075545010673
 40
0.7249905231793106
 40
0.8558655735333356
 40
0.9874193025985403
 40
1.0
 40
1.0
 40
1.0
 40
1.0
 10
123.7227837581443
 20
143.0832242555112
 30
0.0
 10
123.7088379770221
 20
143.1033215751734
 30
0.0
 10
123.6452755328391
 20
143.1949216618278
 30
0.0
 10
123.4930314610665
 20
143.3310959875459
 30
0.0
 10
123.2511488944133
 20
143.4504407661327
 30
0.0
 10
122.981263063531
 20
143.5146535007097
 30
0.0
 10
122.7135219296969
 20
143.5254208981416
 30
0.0
 10
122.5199466382149
 20
143.4723021823521
 30
0.0
 10
122.4183631245532
 20
143.3335621755163
 30
0.0
 10
122.3945249084461
 20
143.1838751128857
 30
0.0
 10
122.388756056619
 20
143.0913042541008
 30
0.0
 10
122.3882525254296
 20
143.0832242555112
 30
0.0
  0
SPLINE
  5
141
330
1F
100
AcDbEntity
  8
0
  6
Continuous
 62
     7
370
    15
100
AcDbSpline
210
0.0
220
0.0
230
1.0
 70
     8
 71
     3
 72
    10
 73
     6
 74
     0
 42
0.000000001
 43
0.00000001
 40
0.0
 40
0.0
 40
0.0
 40
0.0
 40
0.012659063986636
 40
0.3931623637720683
 40
1.0
 40
1.0
 40
1.0
 40
1.0
 10
122.2673174951481
 20
142.6517797595948
 30
0.0
 10
122.2681433638097
 20
142.6536199818601
 30
0.0
 10
122.2937930070606
 20
142.7107731913261
 30
0.0
 10
122.3537560808926
 20
142.8566647691924
 30
0.0
 10
122.3751211603331
 20
142.9969824595564
 30
0.0
 10
122.3882525254296
 20
143.0832242555112
 30
0.0
  0
LINE
  5
142
330
1F
100
AcDbEntity
  8
0
  6
Continuous
 62
     7
370
    15
100
AcDbLine
 10
122.2673174951
 20
142.6517797596
 30
0.0
 11
120.9449158076
 21
142.6517797596
 31
0.0
  0
SPLINE
  5
143
330
1F
100
AcDbEntity
  8
0
  6
Continuous
 62
     7
370
    15
100
AcDbSpline
210
0.0
220
0.0
230
1.0
 70
     8
 71
     3
 72
    10
 73
     6
 74
     0
 42
0.000000001
 43
0.00000001
 40
0.0
 40
0.0
 40
0.0
 40
0.0
 40
0.6068373759492528
 40
0.9873401011205861
 40
1.0
 40
1.0
 40
1.0
 40
1.0
 10
120.6984170738863
 20
143.0832242555112
 30
0.0
 10
120.7504521952187
 20
142.9969834678846
 30
0.0
 10
120.8351146830521
 20
142.8566674765654
 30
0.0
 10
120.914887714221
 20
142.7107693888527
 30
0.0
 10
120.9439790616422
 20
142.6536199796396
 30
0.0
 10
120.9449158076452
 20
142.6517797595948
 30
0.0
  0
SPLINE
  5
144
330
1F
100
AcDbEntity
  8
0
  6
Continuous
 62
     7
370
    15
100
AcDbSpline
210
0.0
220
0.0
230
1.0
 70
     8
 71
     3
 72
    16
 73
    12
 74
     0
 42
0.000000001
 43
0.00000001
 40
0.0
 40
0.0
 40
0.0
 40
0.0
 40
0.0316445599422107
 40
0.1442300748119498
 40
0.260259656493075
 40
0.3918265986605307
 40
0.5492076210297367
 40
0.7249904283557668
 40
0.8558653006152026
 40
0.9874193645612255
 40
1.0
 40
1.0
 40
1.0
 40
1.0
 10
120.6984170738863
 20
143.0832242555112
 30
0.0
 10
120.6855384664953
 20
143.1033215704601
 30
0.0
 10
120.6268401464403
 20
143.1949214297691
 30
0.0
 10
120.4809435869046
 20
143.3310958088741
 30
0.0
 10
120.2292966384682
 20
143.4504409806167
 30
0.0
 10
119.9179845843471
 20
143.5146535344882
 30
0.0
 10
119.5623146951064
 20
143.5254208866467
 30
0.0
 10
119.240650748167
 20
143.4723024094059
 30
0.0
 10
119.0031346149928
 20
143.3335614958466
 30
0.0
 10
118.9030668987483
 20
143.1838757773913
 30
0.0
 10
118.867038812209
 20
143.091304256773
 30
0.0
 10
118.8638941411184
 20
143.0832242555112
 30
0.0
  0
SPLINE
  5
145
330
1F
100
AcDbEntity
  8
0
  6
Continuous
 62
     7
370
    15
100
AcDbSpline
210
0.0
220
0.0
230
1.0
 70
     8
 71
     3
 72
    10
 73
     6
 74
     0
 42
0.000000001
 43
0.00000001
 40
0.0
 40
0.0
 40
0.0
 40
0.0
 40
0.0126583708119332
 40
0.3931621916112217
 40
1.0
 40
1.0
 40
1.0
 40
1.0
 10
118.651763073008
 20
142.6517797595948
 30
0.0
 10
118.6527843901713
 20
142.6536199837083
 30
0.0
 10
118.6845059521501
 20
142.7107763552717
 30
0.0
 10
118.7654339252516
 20
142.8566624917602
 30
0.0
 10
118.8264144319955
 20
142.9969816149786
 30
0.0
 10
118.8638941411184
 20
143.0832242555112
 30
0.0
  0
LINE
  5
146
330
1F
100
AcDbEntity
  8
0
  6
Continuous
 62
     7
370
    15
100
AcDbLine
 10
118.651763073
 20
142.6517797596
 30
0.0
 11
117.1172042404
 21
142.6517797596
 31
0.0
  0
SPLINE
  5
147
330
1F
100
AcDbEntity
  8
0
  6
Continuous
 62
     7
370
    15
100
AcDbSpline
210
0.0
220
0.0
230
1.0
 70
     8
 71
     3
 72
    10
 73
     6
 74
     0
 42
0.000000001
 43
0.00000001
 40
0.0
 40
0.0
 40
0.0
 40
0.0
 40
0.6068367924817197
 40
0.9873400053891572
 40
1.0
 40
1.0
 40
1.0
 40
1.0
 10
116.9029534820723
 20
143.0832242555112
 30
0.0
 10
116.9410926248598
 20
142.9969834914072
 30
0.0
 10
117.003146049952
 20
142.8566674170523
 30
0.0
 10
117.084386294145
 20
142.7107690353488
 30
0.0
 10
117.1161804570498
 20
142.6536199794473
 30
0.0
 10
117.1172042403626
 20
142.6517797595948
 30
0.0
  0
SPLINE
  5
148
330
1F
100
AcDbEntity
  8
0
  6
Continuous
 62
     7
370
    15
100
AcDbSpline
210
0.0
220
0.0
230
1.0
 70
     8
 71
     3
 72
    16
 73
    12
 74
     0
 42
0.000000001
 43
0.00000001
 40
0.0
 40
0.0
 40
0.0
 40
0.0
 40
0.0316443618823159
 40
0.1442302087176484
 40
0.2602600056314841
 40
0.3918268391330488
 40
0.5492077676213082
 40
0.7249905488900199
 40
0.8558655293557139
 40
0.9874190984143735
 40
1.0
 40
1.0
 40
1.0
 40
1.0
 10
116.9029534820723
 20
143.0832242555112
 30
0.0
 10
116.8945933196371
 20
143.103321588872
 30
0.0
 10
116.856488965458
 20
143.1949221904607
 30
0.0
 10
116.756029615502
 20
143.3310954761351
 30
0.0
 10
116.5620472290856
 20
143.4504409243471
 30
0.0
 10
116.2927245770528
 20
143.5146535190921
 30
0.0
 10
115.9444275942421
 20
143.5254210075598
 30
0.0
 10
115.5808658307667
 20
143.4723019099455
 30
0.0
 10
115.2710567477508
 20
143.3335628569144
 30
0.0
 10
115.1215787827494
 20
143.1838735664165
 30
0.0
 10
115.0649419495488
 20
143.091304248285
 30
0.0
 10
115.0599983547138
 20
143.0832242555112
 30
0.0
  0
SPLINE
  5
149
330
1F
100
AcDbEntity
  8
0
  6
Continuous
 62
     7
370
    15
100
AcDbSpline
210
0.0
220
0.0
230
1.0
 70
     8
 71
     3
 72
    10
 73
     6
 74
     0
 42
0.000000001
 43
0.00000001
 40
0.0
 40
0.0
 40
0.0
 40
0.0
 40
0.0126591101248472
 40
0.3931629308547427
 40
1.0
 40
1.0
 40
1.0
 40
1.0
 10
114.8135107968258
 20
142.6517797595948
 30
0.0
 10
114.8144543901788
 20
142.6536199817995
 30
0.0
 10
114.8437602358929
 20
142.7107730635156
 30
0.0
 10
114.9239495902164
 20
142.856664549511
 30
0.0
 10
115.0082102635278
 20
142.9969824233509
 30
0.0
 10
115.0599983547138
 20
143.0832242555112
 30
0.0
  0
LINE
  5
14A
330
1F
100
AcDbEntity
  8
0
  6
Continuous
 62
     7
370
    15
100
AcDbLine
 10
114.8135107968
 20
142.6517797596
 30
0.0
 11
113.477977461
 21
142.6517797596
 31
0.0
  0
SPLINE
  5
14B
330
1F
100
AcDbEntity
  8
0
  6
Continuous
 62
     7
370
    15
100
AcDbSpline
210
0.0
220
0.0
230
1.0
 70
     8
 71
     3
 72
    10
 73
     6
 74
     0
 42
0.000000001
 43
0.00000001
 40
0.0
 40
0.0
 40
0.0
 40
0.0
 40
0.6068372190898844
 40
0.987340650355527
 40
1.0
 40
1.0
 40
1.0
 40
1.0
 10
113.3533851269888
 20
143.0832242555112
 30
0.0
 10
113.3674092674424
 20
142.9969827499985
 30
0.0
 10
113.390226925161
 20
142.8566654763344
 30
0.0
 10
113.4511647645049
 20
142.7107719391319
 30
0.0
 10
113.4771410569055
 20
142.6536199811372
 30
0.0
 10
113.4779774610209
 20
142.6517797595948
 30
0.0
  0
SPLINE
  5
14C
330
1F
100
AcDbEntity
  8
0
  6
Continuous
 62
     7
370
    15
100
AcDbSpline
210
0.0
220
0.0
230
1.0
 70
     8
 71
     3
 72
    16
 73
    12
 74
     0
 42
0.000000001
 43
0.00000001
 40
0.0
 40
0.0
 40
0.0
 40
0.0
 40
0.0316447867442418
 40
0.144230340649847
 40
0.2602603270265507
 40
0.3918270913366838
 40
0.5492075997110645
 40
0.7249906931274738
 40
0.8558657459058561
 40
0.9874195274895083
 40
1.0
 40
1.0
 40
1.0
 40
1.0
 10
113.3533851269888
 20
143.0832242555112
 30
0.0
 10
113.351782397894
 20
143.103321555825
 30
0.0
 10
113.344477492818
 20
143.1949208607544
 30
0.0
 10
113.3163803628893
 20
143.3310962951587
 30
0.0
 10
113.2320371329692
 20
143.4504405881213
 30
0.0
 10
113.0768707582752
 20
143.5146536083499
 30
0.0
 10
112.8292726144104
 20
143.5254207857314
 30
0.0
 10
112.5212262218877
 20
143.4723024800094
 30
0.0
 10
112.222142383206
 20
143.3335614941128
 30
0.0
 10
112.0632932792739
 20
143.1838767327287
 30
0.0
 10
112.001233466725
 20
143.0913042601807
 30
0.0
 10
111.9958166990685
 20
143.0832242555112
 30
0.0
  0
SPLINE
  5
14D
330
1F
100
AcDbEntity
  8
0
  6
Continuous
 62
     7
370
    15
100
AcDbSpline
210
0.0
220
0.0
230
1.0
 70
     8
 71
     3
 72
    10
 73
     6
 74
     0
 42
0.000000001
 43
0.00000001
 40
0.0
 40
0.0
 40
0.0
 40
0.0
 40
0.0126597728302566
 40
0.3931624651195784
 40
1.0
 40
1.0
 40
1.0
 40
1.0
 10
111.7810164604591
 20
142.6517797595948
 30
0.0
 10
111.7816292112477
 20
142.6536199799614
 30
0.0
 10
111.8006588268474
 20
142.7107699450838
 30
0.0
 10
111.8586364754847
 20
142.8566671477772
 30
0.0
 10
111.9435978620632
 20
142.9969833355588
 30
0.0
 10
111.9958166990685
 20
143.0832242555112
 30
0.0
  0
LINE
  5
14E
330
1F
100
AcDbEntity
  8
0
  6
Continuous
 62
     7
370
    15
100
AcDbLine
 10
111.7810164605
 20
142.6517797596
 30
0.0
 11
111.0023655955
 21
142.6517797596
 31
0.0
  0
SPLINE
  5
14F
330
1F
100
AcDbEntity
  8
0
  6
Continuous
 62
     7
370
    15
100
AcDbSpline
210
0.0
220
0.0
230
1.0
 70
     8
 71
     3
 72
    10
 73
     6
 74
     0
 42
0.000000001
 43
0.00000001
 40
0.0
 40
0.0
 40
0.0
 40
0.0
 40
0.6068368893699857
 40
0.9873405455171927
 40
1.0
 40
1.0
 40
1.0
 40
1.0
 10
111.0008140120911
 20
143.0832242555112
 30
0.0
 10
110.9869677953327
 20
142.9969828272097
 30
0.0
 10
110.9644396144541
 20
142.8566656178295
 30
0.0
 10
110.9887309506481
 20
142.7107715058939
 30
0.0
 10
111.0019402688164
 20
142.6536199808918
 30
0.0
 10
111.0023655955004
 20
142.6517797595948
 30
0.0
  0
SPLINE
  5
150
330
1F
100
AcDbEntity
  8
0
  6
Continuous
 62
     7
370
    15
100
AcDbSpline
210
0.0
220
0.0
230
1.0
 70
     8
 71
     3
 72
    16
 73
    12
 74
     0
 42
0.000000001
 43
0.00000001
 40
0.0
 40
0.0
 40
0.0
 40
0.0
 40
0.0316446757711169
 40
0.1442302549258257
 40
0.260260160863917
 40
0.391826871289683
 40
0.549207460950372
 40
0.724990586974216
 40
0.855865562454702
 40
0.9874191836684153
 40
1.0
 40
1.0
 40
1.0
 40
1.0
 10
111.0008140120911
 20
143.0832242555112
 30
0.0
 10
111.0063989103526
 20
143.1033215634934
 30
0.0
 10
111.0318537864214
 20
143.1949211701557
 30
0.0
 10
111.0836440184417
 20
143.3310961110899
 30
0.0
 10
111.1315406574865
 20
143.4504406545586
 30
0.0
 10
111.1321068015218
 20
143.5146535924194
 30
0.0
 10
111.0515507136471
 20
143.5254208820915
 30
0.0
 10
110.8815619940002
 20
143.4723021459688
 30
0.0
 10
110.6733381440646
 20
143.3335625550977
 30
0.0
 10
110.5476945665954
 20
143.183874202428
 30
0.0
 10
110.4968298583139
 20
143.0913042506911
 30
0.0
 10
110.4923901174473
 20
143.0832242555112
 30
0.0
  0
SPLINE
  5
151
330
1F
100
AcDbEntity
  8
0
  6
Continuous
 62
     7
370
    15
100
AcDbSpline
210
0.0
220
0.0
230
1.0
 70
     8
 71
     3
 72
    10
 73
     6
 74
     0
 42
0.000000001
 43
0.00000001
 40
0.0
 40
0.0
 40
0.0
 40
0.0
 40
0.0126591583991726
 40
0.3931626756764127
 40
1.0
 40
1.0
 40
1.0
 40
1.0
 10
110.3668366585182
 20
142.6517797595948
 30
0.0
 10
110.3669543832335
 20
142.6536199816407
 30
0.0
 10
110.3706106266109
 20
142.7107728033847
 30
0.0
 10
110.3908368142878
 20
142.8566648866249
 30
0.0
 10
110.4537329986366
 20
142.996982526604
 30
0.0
 10
110.4923901174473
 20
143.0832242555112
 30
0.0
  0
LINE
  5
152
330
1F
100
AcDbEntity
  8
0
  6
Continuous
 62
     7
370
    15
100
AcDbLine
 10
121.1186931495
 20
143.6517817862
 30
0.0
 11
124.3206444223
 21
143.6517817862
 31
0.0
  0
LINE
  5
153
330
1F
100
AcDbEntity
  8
0
  6
Continuous
 62
     7
370
    15
100
AcDbLine
 10
111.3206432227
 20
143.6517817862
 30
0.0
 11
121.1186931495
 21
143.6517817862
 31
0.0
  0
LINE
  5
154
330
1F
100
AcDbEntity
  8
0
  6
Continuous
 62
     7
370
    15
100
AcDbLine
 10
115.0599983547
 20
143.0832242555
 30
0.0
 11
115.0599983547
 21
136.2203380055
 31
0.0
  0
LINE
  5
155
330
1F
100
AcDbEntity
  8
0
  6
Continuous
 62
     7
370
    15
100
AcDbLine
 10
116.9029534821
 20
136.2203380055
 30
0.0
 11
116.9029534821
 21
143.0832242555
 31
0.0
  0
LINE
  5
156
330
1F
100
AcDbEntity
  8
0
  6
Continuous
 62
     7
370
    15
100
AcDbLine
 10
118.651763073
 20
136.6517825014
 30
0.0
 11
118.651763073
 21
142.6517797596
 31
0.0
  0
LINE
  5
157
330
1F
100
AcDbEntity
  8
0
  6
Continuous
 62
     7
370
    15
100
AcDbLine
 10
117.1172042404
 20
142.6517797596
 30
0.0
 11
117.1172042404
 21
136.6517825014
 31
0.0
  0
LINE
  5
158
330
1F
100
AcDbEntity
  8
0
  6
Continuous
 62
     7
370
    15
100
AcDbLine
 10
118.8638941411
 20
143.0832242555
 30
0.0
 11
118.8638941411
 21
136.2203380055
 31
0.0
  0
LINE
  5
159
330
1F
100
AcDbEntity
  8
0
  6
Continuous
 62
     7
370
    15
100
AcDbLine
 10
120.6984170739
 20
136.2203380055
 30
0.0
 11
120.6984170739
 21
143.0832242555
 31
0.0
  0
LINE
  5
15A
330
1F
100
AcDbEntity
  8
0
  6
Continuous
 62
     7
370
    15
100
AcDbLine
 10
114.8135107968
 20
136.6517825014
 30
0.0
 11
114.8135107968
 21
142.6517797596
 31
0.0
  0
LINE
  5
15B
330
1F
100
AcDbEntity
  8
0
  6
Continuous
 62
     7
370
    15
100
AcDbLine
 10
113.477977461
 20
142.6517797596
 30
0.0
 11
113.477977461
 21
136.6517825014
 31
0.0
  0
LINE
  5
15C
330
1F
100
AcDbEntity
  8
0
  6
Continuous
 62
     7
370
    15
100
AcDbLine
 10
120.9449158076
 20
142.6517797596
 30
0.0
 11
120.9449158076
 21
136.6517825014
 31
0.0
  0
LINE
  5
15D
330
1F
100
AcDbEntity
  8
0
  6
Continuous
 62
     7
370
    15
100
AcDbLine
 10
122.2673174951
 20
136.6517825014
 30
0.0
 11
122.2673174951
 21
142.6517797596
 31
0.0
  0
LINE
  5
15E
330
1F
100
AcDbEntity
  8
0
  6
Continuous
 62
     7
370
    15
100
AcDbLine
 10
111.9958166991
 20
143.0832242555
 30
0.0
 11
111.9958166991
 21
136.2203380055
 31
0.0
  0
LINE
  5
15F
330
1F
100
AcDbEntity
  8
0
  6
Continuous
 62
     7
370
    15
100
AcDbLine
 10
113.353385127
 20
136.2203380055
 30
0.0
 11
113.353385127
 21
143.0832242555
 31
0.0
  0
LINE
  5
160
330
1F
100
AcDbEntity
  8
0
  6
Continuous
 62
     7
370
    15
100
AcDbLine
 10
122.3882525254
 20
143.0832242555
 30
0.0
 11
122.3882525254
 21
136.2203380055
 31
0.0
  0
LINE
  5
161
330
1F
100
AcDbEntity
  8
0
  6
Continuous
 62
     7
370
    15
100
AcDbLine
 10
123.7227837581
 20
136.2203380055
 30
0.0
 11
123.7227837581
 21
143.0832242555
 31
0.0
  0
LINE
  5
162
330
1F
100
AcDbEntity
  8
0
  6
Continuous
 62
     7
370
    15
100
AcDbLine
 10
111.7810164605
 20
136.6517825014
 30
0.0
 11
111.7810164605
 21
142.6517797596
 31
0.0
  0
LINE
  5
163
330
1F
100
AcDbEntity
  8
0
  6
Continuous
 62
     7
370
    15
100
AcDbLine
 10
123.9354820017
 20
142.6517797596
 30
0.0
 11
123.9354820017
 21
136.6517825014
 31
0.0
  0
LINE
  5
164
330
1F
100
AcDbEntity
  8
0
  6
Continuous
 62
     7
370
    15
100
AcDbLine
 10
111.0023655955
 20
142.6517797596
 30
0.0
 11
111.0023655955
 21
136.6517825014
 31
0.0
  0
LINE
  5
165
330
1F
100
AcDbEntity
  8
0
  6
Continuous
 62
     7
370
    15
100
AcDbLine
 10
124.6913899694
 20
136.6517825014
 30
0.0
 11
124.6913899694
 21
142.6517797596
 31
0.0
  0
LINE
  5
166
330
1F
100
AcDbEntity
  8
0
  6
Continuous
 62
     7
370
    15
100
AcDbLine
 10
110.4923901174
 20
143.0832242555
 30
0.0
 11
110.4923901174
 21
136.2203380055
 31
0.0
  0
LINE
  5
167
330
1F
100
AcDbEntity
  8
0
  6
Continuous
 62
     7
370
    15
100
AcDbLine
 10
125.1656771664
 20
136.2203380055
 30
0.0
 11
125.1656771664
 21
143.0832242555
 31
0.0
  0
LINE
  5
168
330
1F
100
AcDbEntity
  8
0
  6
Continuous
 62
     7
370
    15
100
AcDbLine
 10
110.3668366585
 20
136.6517825014
 30
0.0
 11
110.3668366585
 21
142.6517797596
 31
0.0
  0
LINE
  5
169
330
1F
100
AcDbEntity
  8
0
  6
Continuous
 62
     7
370
    15
100
AcDbLine
 10
125.2875826348
 20
142.6517797596
 30
0.0
 11
125.2875826348
 21
136.6517825014
 31
0.0
  0
SPLINE
  5
16A
330
1F
100
AcDbEntity
  8
0
  6
Continuous
 62
     7
370
    15
100
AcDbSpline
210
0.0
220
0.0
230
1.0
 70
     8
 71
     3
 72
    10
 73
     6
 74
     0
 42
0.000000001
 43
0.00000001
 40
0.0
 40
0.0
 40
0.0
 40
0.0
 40
0.6068369500816702
 40
0.9873402684333903
 40
1.0
 40
1.0
 40
1.0
 40
1.0
 10
136.4371324915694
 20
136.2203380054921
 30
0.0
 10
136.4012092780374
 20
136.30657907469
 30
0.0
 10
136.3427612298641
 20
136.4468956463826
 30
0.0
 10
136.3282827230124
 20
136.5927920389639
 30
0.0
 10
136.3268680082682
 20
136.6499422808649
 30
0.0
 10
136.3268224548804
 20
136.6517825014085
 30
0.0
  0
SPLINE
  5
16B
330
1F
100
AcDbEntity
  8
0
  6
Continuous
 62
     7
370
    15
100
AcDbSpline
210
0.0
220
0.0
230
1.0
 70
     8
 71
     3
 72
    16
 73
    12
 74
     0
 42
0.000000001
 43
0.00000001
 40
0.0
 40
0.0
 40
0.0
 40
0.0
 40
0.0316446643939785
 40
0.1442302772113927
 40
0.2602601778821422
 40
0.3918270598444034
 40
0.5492075867211473
 40
0.7249904805891835
 40
0.855865406412721
 40
0.9874194216465908
 40
1.0
 40
1.0
 40
1.0
 40
1.0
 10
136.4371324915694
 20
136.2203380054921
 30
0.0
 10
136.4479471603004
 20
136.2002406960595
 30
0.0
 10
136.4972383346229
 20
136.1086410357002
 30
0.0
 10
136.60951291671
 20
135.9724662030532
 30
0.0
 10
136.7662377328431
 20
135.8531215199682
 30
0.0
 10
136.9078023410775
 20
135.7889087207237
 30
0.0
 10
136.9971516008235
 20
135.7781414318205
 30
0.0
 10
136.9913684130536
 20
135.8312598145591
 30
0.0
 10
136.9133717764101
 20
135.9700008267925
 30
0.0
 10
136.8467049105844
 20
136.1196861147972
 30
0.0
 10
136.817689744306
 20
136.2122580028885
 30
0.0
 10
136.8151571977208
 20
136.2203380054921
 30
0.0
  0
SPLINE
  5
16C
330
1F
100
AcDbEntity
  8
0
  6
Continuous
 62
     7
370
    15
100
AcDbSpline
210
0.0
220
0.0
230
1.0
 70
     8
 71
     3
 72
    10
 73
     6
 74
     0
 42
0.000000001
 43
0.00000001
 40
0.0
 40
0.0
 40
0.0
 40
0.0
 40
0.0126593737188477
 40
0.3931627093169769
 40
1.0
 40
1.0
 40
1.0
 40
1.0
 10
136.7993532939138
 20
136.6517825014085
 30
0.0
 10
136.7989953062987
 20
136.6499422799389
 30
0.0
 10
136.7878772696721
 20
136.5927904433019
 30
0.0
 10
136.7692436863253
 20
136.446896653747
 30
0.0
 10
136.7976798317603
 20
136.3065794687722
 30
0.0
 10
136.8151571977208
 20
136.2203380054921
 30
0.0
  0
LINE
  5
16D
330
1F
100
AcDbEntity
  8
0
  6
Continuous
 62
     7
370
    15
100
AcDbLine
 10
136.7993532939
 20
136.6517825014
 30
0.0
 11
137.4829860896
 21
136.6517825014
 31
0.0
  0
SPLINE
  5
16E
330
1F
100
AcDbEntity
  8
0
  6
Continuous
 62
     7
370
    15
100
AcDbSpline
210
0.0
220
0.0
230
1.0
 70
     8
 71
     3
 72
    10
 73
     6
 74
     0
 42
0.000000001
 43
0.00000001
 40
0.0
 40
0.0
 40
0.0
 40
0.0
 40
0.6068373685085525
 40
0.9873405104676303
 40
1.0
 40
1.0
 40
1.0
 40
1.0
 10
137.6887394243525
 20
136.2203380054921
 30
0.0
 10
137.6375737493323
 20
136.3065793099488
 30
0.0
 10
137.5543258375943
 20
136.4468962020594
 30
0.0
 10
137.5007198265949
 20
136.5927909877445
 30
0.0
 10
137.4835392877901
 20
136.6499422802597
 30
0.0
 10
137.4829860896128
 20
136.6517825014085
 30
0.0
  0
SPLINE
  5
16F
330
1F
100
AcDbEntity
  8
0
  6
Continuous
 62
     7
370
    15
100
AcDbSpline
210
0.0
220
0.0
230
1.0
 70
     8
 71
     3
 72
    16
 73
    12
 74
     0
 42
0.000000001
 43
0.00000001
 40
0.0
 40
0.0
 40
0.0
 40
0.0
 40
0.0316446275557936
 40
0.1442303078907888
 40
0.2602601127662435
 40
0.3918270679969628
 40
0.5492075905168089
 40
0.7249902596795016
 40
0.8558655703354466
 40
0.9874193744225533
 40
1.0
 40
1.0
 40
1.0
 40
1.0
 10
137.6887394243525
 20
136.2203380054921
 30
0.0
 10
137.7025801061289
 20
136.2002406920609
 30
0.0
 10
137.7656633511603
 20
136.1086408873594
 30
0.0
 10
137.9161927795741
 20
135.9724663871262
 30
0.0
 10
138.1532344987434
 20
135.8531213955459
 30
0.0
 10
138.414464484377
 20
135.7889087947839
 30
0.0
 10
138.6686246342544
 20
135.7781412942838
 30
0.0
 10
138.8455021926308
 20
135.8312602767411
 30
0.0
 10
138.9309969154617
 20
135.9700001435686
 30
0.0
 10
138.9463307348639
 20
136.1196865926851
 30
0.0
 10
138.9487846912161
 20
136.212258004905
 30
0.0
 10
138.9489988822745
 20
136.2203380054921
 30
0.0
  0
SPLINE
  5
170
330
1F
100
AcDbEntity
  8
0
  6
Continuous
 62
     7
370
    15
100
AcDbSpline
210
0.0
220
0.0
230
1.0
 70
     8
 71
     3
 72
    10
 73
     6
 74
     0
 42
0.000000001
 43
0.00000001
 40
0.0
 40
0.0
 40
0.0
 40
0.0
 40
0.012659374156228
 40
0.3931626565305736
 40
1.0
 40
1.0
 40
1.0
 40
1.0
 10
139.0583104247483
 20
136.6517825014085
 30
0.0
 10
139.0575182853576
 20
136.649942279946
 30
0.0
 10
139.0329167826819
 20
136.5927904531777
 30
0.0
 10
138.9761344480447
 20
136.4468966169663
 30
0.0
 10
138.9593282651681
 20
136.3065794594411
 30
0.0
 10
138.9489988822745
 20
136.2203380054921
 30
0.0
  0
LINE
  5
171
330
1F
100
AcDbEntity
  8
0
  6
Continuous
 62
     7
370
    15
100
AcDbLine
 10
139.0583104247
 20
136.6517825014
 30
0.0
 11
140.3373200473
 21
136.6517825014
 31
0.0
  0
SPLINE
  5
172
330
1F
100
AcDbEntity
  8
0
  6
Continuous
 62
     7
370
    15
100
AcDbSpline
210
0.0
220
0.0
230
1.0
 70
     8
 71
     3
 72
    10
 73
     6
 74
     0
 42
0.000000001
 43
0.00000001
 40
0.0
 40
0.0
 40
0.0
 40
0.0
 40
0.6068374449423116
 40
0.9873408858648443
 40
1.0
 40
1.0
 40
1.0
 40
1.0
 10
140.5833852503704
 20
136.2203380054921
 30
0.0
 10
140.530686632729
 20
136.3065797700937
 30
0.0
 10
140.4449445608454
 20
136.4468974465489
 30
0.0
 10
140.3665764996519
 20
136.5927892719226
 30
0.0
 10
140.3382326667726
 20
136.6499422792568
 30
0.0
 10
140.33732004727
 20
136.6517825014085
 30
0.0
  0
SPLINE
  5
173
330
1F
100
AcDbEntity
  8
0
  6
Continuous
 62
     7
370
    15
100
AcDbSpline
210
0.0
220
0.0
230
1.0
 70
     8
 71
     3
 72
    16
 73
    12
 74
     0
 42
0.000000001
 43
0.00000001
 40
0.0
 40
0.0
 40
0.0
 40
0.0
 40
0.031644665960055
 40
0.1442303599269923
 40
0.2602601364094616
 40
0.3918271493082598
 40
0.5492076785881844
 40
0.7249905440499481
 40
0.8558655230594618
 40
0.9874194922840569
 40
1.0
 40
1.0
 40
1.0
 40
1.0
 10
140.5833852503704
 20
136.2203380054921
 30
0.0
 10
140.596543395863
 20
136.2002406940867
 30
0.0
 10
140.65651571672
 20
136.1086409767369
 30
0.0
 10
140.8049657177556
 20
135.9724663934128
 30
0.0
 10
141.0588089521615
 20
135.8531213644686
 30
0.0
 10
141.3697080312402
 20
135.7889087861275
 30
0.0
 10
141.7205772187648
 20
135.7781414144273
 30
0.0
 10
142.0327209143832
 20
135.8312598062527
 30
0.0
 10
142.2587990953805
 20
135.9700009274212
 30
0.0
 10
142.3520246511891
 20
136.1196856487108
 30
0.0
 10
142.3852903376317
 20
136.2122580011843
 30
0.0
 10
142.3881938707339
 20
136.2203380054921
 30
0.0
  0
SPLINE
  5
174
330
1F
100
AcDbEntity
  8
0
  6
Continuous
 62
     7
370
    15
100
AcDbSpline
210
0.0
220
0.0
230
1.0
 70
     8
 71
     3
 72
    10
 73
     6
 74
     0
 42
0.000000001
 43
0.00000001
 40
0.0
 40
0.0
 40
0.0
 40
0.0
 40
0.0126597463130862
 40
0.3931627614513657
 40
1.0
 40
1.0
 40
1.0
 40
1.0
 10
142.5933311719703
 20
136.6517825014085
 30
0.0
 10
142.5923170638595
 20
136.6499422809371
 30
0.0
 10
142.5608227877974
 20
136.5927921497795
 30
0.0
 10
142.4811082551314
 20
136.446895402742
 30
0.0
 10
142.4235625224203
 20
136.3065790081342
 30
0.0
 10
142.3881938707339
 20
136.2203380054921
 30
0.0
  0
LINE
  5
175
330
1F
100
AcDbEntity
  8
0
  6
Continuous
 62
     7
370
    15
100
AcDbLine
 10
142.593331172
 20
136.6517825014
 30
0.0
 11
144.1250080269
 21
136.6517825014
 31
0.0
  0
SPLINE
  5
176
330
1F
100
AcDbEntity
  8
0
  6
Continuous
 62
     7
370
    15
100
AcDbSpline
210
0.0
220
0.0
230
1.0
 70
     8
 71
     3
 72
    10
 73
     6
 74
     0
 42
0.000000001
 43
0.00000001
 40
0.0
 40
0.0
 40
0.0
 40
0.0
 40
0.6068374075085623
 40
0.987340701922885
 40
1.0
 40
1.0
 40
1.0
 40
1.0
 10
144.34545208032
 20
136.2203380054921
 30
0.0
 10
144.3053419621407
 20
136.3065795446197
 30
0.0
 10
144.2400817264542
 20
136.4468968367371
 30
0.0
 10
144.1579444611309
 20
136.5927901126782
 30
0.0
 10
144.1260354533439
 20
136.6499422797482
 30
0.0
 10
144.1250080269085
 20
136.6517825014085
 30
0.0
  0
SPLINE
  5
177
330
1F
100
AcDbEntity
  8
0
  6
Continuous
 62
     7
370
    15
100
AcDbSpline
210
0.0
220
0.0
230
1.0
 70
     8
 71
     3
 72
    16
 73
    12
 74
     0
 42
0.000000001
 43
0.00000001
 40
0.0
 40
0.0
 40
0.0
 40
0.0
 40
0.0316444628957083
 40
0.1442303980789413
 40
0.2602600801599372
 40
0.391827109430148
 40
0.5492076827969172
 40
0.7249904304286244
 40
0.8558655716706915
 40
0.9874194572425647
 40
1.0
 40
1.0
 40
1.0
 40
1.0
 10
144.34545208032
 20
136.2203380054921
 30
0.0
 10
144.3544018203083
 20
136.2002406762289
 30
0.0
 10
144.3951933030226
 20
136.1086402654554
 30
0.0
 10
144.5017873490105
 20
135.9724668936336
 30
0.0
 10
144.7044149454387
 20
135.8531211875897
 30
0.0
 10
144.9816783955251
 20
135.788908849774
 30
0.0
 10
145.3352411774208
 20
135.7781413351863
 30
0.0
 10
145.6990124493802
 20
135.8312600255952
 30
0.0
 10
146.0050963275648
 20
135.9700006024219
 30
0.0
 10
146.1512347423908
 20
136.1196859531559
 30
0.0
 10
146.2063981219768
 20
136.2122580024186
 30
0.0
 10
146.2112129692244
 20
136.2203380054921
 30
0.0
  0
SPLINE
  5
178
330
1F
100
AcDbEntity
  8
0
  6
Continuous
 62
     7
370
    15
100
AcDbSpline
210
0.0
220
0.0
230
1.0
 70
     8
 71
     3
 72
    10
 73
     6
 74
     0
 42
0.000000001
 43
0.00000001
 40
0.0
 40
0.0
 40
0.0
 40
0.0
 40
0.0126593908444244
 40
0.3931626596904858
 40
1.0
 40
1.0
 40
1.0
 40
1.0
 10
146.457208788793
 20
136.6517825014085
 30
0.0
 10
146.4562446360541
 20
136.6499422799906
 30
0.0
 10
146.4263009476228
 20
136.5927905294888
 30
0.0
 10
146.3450067756358
 20
136.4468965614844
 30
0.0
 10
146.2621427149656
 20
136.3065794389462
 30
0.0
 10
146.2112129692244
 20
136.2203380054921
 30
0.0
  0
LINE
  5
179
330
1F
100
AcDbEntity
  8
0
  6
Continuous
 62
     7
370
    15
100
AcDbLine
 10
146.4572087888
 20
136.6517825014
 30
0.0
 11
147.8311414857
 21
136.6517825014
 31
0.0
  0
SPLINE
  5
17A
330
1F
100
AcDbEntity
  8
0
  6
Continuous
 62
     7
370
    15
100
AcDbSpline
210
0.0
220
0.0
230
1.0
 70
     8
 71
     3
 72
    10
 73
     6
 74
     0
 42
0.000000001
 43
0.00000001
 40
0.0
 40
0.0
 40
0.0
 40
0.0
 40
0.6068368243667089
 40
0.9873401698703516
 40
1.0
 40
1.0
 40
1.0
 40
1.0
 10
147.9668966520833
 20
136.2203380054921
 30
0.0
 10
147.9501215577932
 20
136.3065789714575
 30
0.0
 10
147.9228280189356
 20
136.4468953902492
 30
0.0
 10
147.8589360915651
 20
136.5927924736941
 30
0.0
 10
147.8320085508312
 20
136.6499422811164
 30
0.0
 10
147.8311414856719
 20
136.6517825014085
 30
0.0
  0
SPLINE
  5
17B
330
1F
100
AcDbEntity
  8
0
  6
Continuous
 62
     7
370
    15
100
AcDbSpline
210
0.0
220
0.0
230
1.0
 70
     8
 71
     3
 72
    16
 73
    12
 74
     0
 42
0.000000001
 43
0.00000001
 40
0.0
 40
0.0
 40
0.0
 40
0.0
 40
0.0316448324461756
 40
0.1442305003178535
 40
0.2602601606826372
 40
0.3918269738325255
 40
0.5492074977496865
 40
0.7249905856422771
 40
0.8558655742355012
 40
0.9874193707859188
 40
1.0
 40
1.0
 40
1.0
 40
1.0
 10
147.9668966520833
 20
136.2203380054921
 30
0.0
 10
147.9692401187425
 20
136.200240704684
 30
0.0
 10
147.9799211476059
 20
136.1086414283878
 30
0.0
 10
148.0160973713438
 20
135.9724663193802
 30
0.0
 10
148.1132151704867
 20
135.853121425676
 30
0.0
 10
148.2825500914015
 20
135.7889087312813
 30
0.0
 10
148.5440698629308
 20
135.7781414177451
 30
0.0
 10
148.8619968459474
 20
135.831259900783
 30
0.0
 10
149.1660716329708
 20
135.9700004006841
 30
0.0
 10
149.3259640543687
 20
136.1196866216769
 30
0.0
 10
149.3882448562404
 20
136.2122580048831
 30
0.0
 10
149.3936809737491
 20
136.2203380054921
 30
0.0
  0
SPLINE
  5
17C
330
1F
100
AcDbEntity
  8
0
  6
Continuous
 62
     7
370
    15
100
AcDbSpline
210
0.0
220
0.0
230
1.0
 70
     8
 71
     3
 72
    10
 73
     6
 74
     0
 42
0.000000001
 43
0.00000001
 40
0.0
 40
0.0
 40
0.0
 40
0.0
 40
0.0126592876903862
 40
0.3931627497544302
 40
1.0
 40
1.0
 40
1.0
 40
1.0
 10
149.6146214220928
 20
136.6517825014085
 30
0.0
 10
149.613965478665
 20
136.6499422797026
 30
0.0
 10
149.5935936751252
 20
136.5927900414614
 30
0.0
 10
149.5325059055385
 20
136.4468969776648
 30
0.0
 10
149.4465258517059
 20
136.3065795838611
 30
0.0
 10
149.3936809737491
 20
136.2203380054921
 30
0.0
  0
LINE
  5
17D
330
1F
100
AcDbEntity
  8
0
  6
Continuous
 62
     7
370
    15
100
AcDbLine
 10
149.6146214221
 20
136.6517825014
 30
0.0
 11
150.4626660634
 21
136.6517825014
 31
0.0
  0
SPLINE
  5
17E
330
1F
100
AcDbEntity
  8
0
  6
Continuous
 62
     7
370
    15
100
AcDbSpline
210
0.0
220
0.0
230
1.0
 70
     8
 71
     3
 72
    10
 73
     6
 74
     0
 42
0.000000001
 43
0.00000001
 40
0.0
 40
0.0
 40
0.0
 40
0.0
 40
0.6068373437904468
 40
0.9873400709129988
 40
1.0
 40
1.0
 40
1.0
 40
1.0
 10
150.4773567457007
 20
136.2203380054921
 30
0.0
 10
150.4884115157874
 20
136.306578760421
 30
0.0
 10
150.5063979129546
 20
136.4468947016834
 30
0.0
 10
150.477870924609
 20
136.5927930063326
 30
0.0
 10
150.4631403900518
 20
136.6499422814414
 30
0.0
 10
150.4626660634088
 20
136.6517825014085
 30
0.0
  0
SPLINE
  5
17F
330
1F
100
AcDbEntity
  8
0
  6
Continuous
 62
     7
370
    15
100
AcDbSpline
210
0.0
220
0.0
230
1.0
 70
     8
 71
     3
 72
    16
 73
    12
 74
     0
 42
0.000000001
 43
0.00000001
 40
0.0
 40
0.0
 40
0.0
 40
0.0
 40
0.0316444998278014
 40
0.144230184965567
 40
0.2602601844031229
 40
0.3918270007383709
 40
0.549207721216974
 40
0.7249904149201377
 40
0.8558655244078544
 40
0.9874194924017489
 40
1.0
 40
1.0
 40
1.0
 40
1.0
 10
150.4773567457007
 20
136.2203380054921
 30
0.0
 10
150.472465824703
 20
136.2002406846544
 30
0.0
 10
150.4501738484038
 20
136.1086405545367
 30
0.0
 10
150.4062394552991
 20
135.9724663318813
 30
0.0
 10
150.3718235190269
 20
135.8531215516385
 30
0.0
 10
150.3878585065712
 20
135.7889086865604
 30
0.0
 10
150.4872602866257
 20
135.7781413870647
 30
0.0
 10
150.6741550159851
 20
135.8312599527013
 30
0.0
 10
150.8947428026886
 20
135.9700008171523
 30
0.0
 10
151.0255492727758
 20
136.1196856493812
 30
0.0
 10
151.0782574460974
 20
136.2122580012382
 30
0.0
 10
151.0828579802321
 20
136.2203380054921
 30
0.0
  0
SPLINE
  5
180
330
1F
100
AcDbEntity
  8
0
  6
Continuous
 62
     7
370
    15
100
AcDbSpline
210
0.0
220
0.0
230
1.0
 70
     8
 71
     3
 72
    10
 73
     6
 74
     0
 42
0.000000001
 43
0.00000001
 40
0.0
 40
0.0
 40
0.0
 40
0.0
 40
0.0126593027085011
 40
0.3931628891385109
 40
1.0
 40
1.0
 40
1.0
 40
1.0
 10
151.219542606573
 20
136.6517825014085
 30
0.0
 10
151.2193705535973
 20
136.6499422797274
 30
0.0
 10
151.214027064577
 20
136.5927900897962
 30
0.0
 10
151.1895178293549
 20
136.4468970189695
 30
0.0
 10
151.1234589435347
 20
136.306579588128
 30
0.0
 10
151.0828579802321
 20
136.2203380054921
 30
0.0
  0
LINE
  5
181
330
1F
100
AcDbEntity
  8
0
  6
Continuous
 62
     7
370
    15
100
AcDbLine
 10
150.3206440274
 20
135.6517804749
 30
0.0
 11
137.3206441375
 21
135.6517804749
 31
0.0
  0
SPLINE
  5
182
330
1F
100
AcDbEntity
  8
0
  6
Continuous
 62
     7
370
    15
100
AcDbSpline
210
0.0
220
0.0
230
1.0
 70
     8
 71
     3
 72
    10
 73
     6
 74
     0
 42
0.000000001
 43
0.00000001
 40
0.0
 40
0.0
 40
0.0
 40
0.0
 40
0.6068371108614892
 40
0.987340697291499
 40
1.0
 40
1.0
 40
1.0
 40
1.0
 10
151.0828579802321
 20
143.0832242555112
 30
0.0
 10
151.1234589435347
 20
142.9969826728752
 30
0.0
 10
151.1895178293549
 20
142.8566652420338
 30
0.0
 10
151.214027064577
 20
142.7107721712071
 30
0.0
 10
151.2193705535973
 20
142.6536199812759
 30
0.0
 10
151.219542606573
 20
142.6517797595948
 30
0.0
  0
SPLINE
  5
183
330
1F
100
AcDbEntity
  8
0
  6
Continuous
 62
     7
370
    15
100
AcDbSpline
210
0.0
220
0.0
230
1.0
 70
     8
 71
     3
 72
    16
 73
    12
 74
     0
 42
0.000000001
 43
0.00000001
 40
0.0
 40
0.0
 40
0.0
 40
0.0
 40
0.031644615689551
 40
0.1442302971607103
 40
0.2602599927174946
 40
0.3918271308179826
 40
0.5492075859996003
 40
0.7249904651913481
 40
0.8558656667600645
 40
0.9874194634958758
 40
1.0
 40
1.0
 40
1.0
 40
1.0
 10
151.0828579802321
 20
143.0832242555112
 30
0.0
 10
151.071021135068
 20
143.1033215700829
 30
0.0
 10
151.0170709872066
 20
143.1949214075164
 30
0.0
 10
150.8924937094131
 20
143.3310957683728
 30
0.0
 10
150.7119495875806
 20
143.4504410162031
 30
0.0
 10
150.5372336065087
 20
143.5146533983101
 30
0.0
 10
150.4049124417444
 20
143.5254209144983
 30
0.0
 10
150.3657369048884
 20
143.4723022223948
 30
0.0
 10
150.4053435767756
 20
143.3335617856887
 30
0.0
 10
150.4534556955805
 20
143.1838762913594
 30
0.0
 10
150.4754380507229
 20
143.0913042584698
 30
0.0
 10
150.4773567457007
 20
143.0832242555112
 30
0.0
  0
SPLINE
  5
184
330
1F
100
AcDbEntity
  8
0
  6
Continuous
 62
     7
370
    15
100
AcDbSpline
210
0.0
220
0.0
230
1.0
 70
     8
 71
     3
 72
    10
 73
     6
 74
     0
 42
0.000000001
 43
0.00000001
 40
0.0
 40
0.0
 40
0.0
 40
0.0
 40
0.0126599290870012
 40
0.3931626562095533
 40
1.0
 40
1.0
 40
1.0
 40
1.0
 10
150.4626660634088
 20
142.6517797595948
 30
0.0
 10
150.4631403900518
 20
142.6536199795618
 30
0.0
 10
150.477870924609
 20
142.7107692546707
 30
0.0
 10
150.5063979129546
 20
142.8566675593198
 30
0.0
 10
150.4884115157874
 20
142.9969835005822
 30
0.0
 10
150.4773567457007
 20
143.0832242555112
 30
0.0
  0
LINE
  5
185
330
1F
100
AcDbEntity
  8
0
  6
Continuous
 62
     7
370
    15
100
AcDbLine
 10
150.4626660634
 20
142.6517797596
 30
0.0
 11
149.6146214221
 21
142.6517797596
 31
0.0
  0
SPLINE
  5
186
330
1F
100
AcDbEntity
  8
0
  6
Continuous
 62
     7
370
    15
100
AcDbSpline
210
0.0
220
0.0
230
1.0
 70
     8
 71
     3
 72
    10
 73
     6
 74
     0
 42
0.000000001
 43
0.00000001
 40
0.0
 40
0.0
 40
0.0
 40
0.0
 40
0.6068372502455699
 40
0.9873407123096138
 40
1.0
 40
1.0
 40
1.0
 40
1.0
 10
149.3936809737491
 20
143.0832242555112
 30
0.0
 10
149.4465258517059
 20
142.9969826771422
 30
0.0
 10
149.5325059055386
 20
142.8566652833384
 30
0.0
 10
149.5935936751252
 20
142.7107722195419
 30
0.0
 10
149.613965478665
 20
142.6536199813007
 30
0.0
 10
149.6146214220928
 20
142.6517797595948
 30
0.0
  0
SPLINE
  5
187
330
1F
100
AcDbEntity
  8
0
  6
Continuous
 62
     7
370
    15
100
AcDbSpline
210
0.0
220
0.0
230
1.0
 70
     8
 71
     3
 72
    16
 73
    12
 74
     0
 42
0.000000001
 43
0.00000001
 40
0.0
 40
0.0
 40
0.0
 40
0.0
 40
0.0316446794717751
 40
0.1442302477794871
 40
0.2602601718608239
 40
0.3918269968450566
 40
0.5492078017617597
 40
0.724990318802563
 40
0.855865525013038
 40
0.9874193323759269
 40
1.0
 40
1.0
 40
1.0
 40
1.0
 10
149.3936809737491
 20
143.0832242555112
 30
0.0
 10
149.3796567688618
 20
143.1033215630306
 30
0.0
 10
149.3157371912406
 20
143.1949211523331
 30
0.0
 10
149.1618933021022
 20
143.3310961361778
 30
0.0
 10
148.9146735157281
 20
143.4504406946766
 30
0.0
 10
148.6345351223499
 20
143.5146535745887
 30
0.0
 10
148.3500284377923
 20
143.5254209719837
 30
0.0
 10
148.1352498518525
 20
143.4723019666743
 30
0.0
 10
148.0128642507617
 20
143.3335621431793
 30
0.0
 10
147.9779061221227
 20
143.1838753748879
 30
0.0
 10
147.9677804625497
 20
143.0913042550426
 30
0.0
 10
147.9668966520833
 20
143.0832242555112
 30
0.0
  0
SPLINE
  5
188
330
1F
100
AcDbEntity
  8
0
  6
Continuous
 62
     7
370
    15
100
AcDbSpline
210
0.0
220
0.0
230
1.0
 70
     8
 71
     3
 72
    10
 73
     6
 74
     0
 42
0.000000001
 43
0.00000001
 40
0.0
 40
0.0
 40
0.0
 40
0.0
 40
0.0126598301296485
 40
0.3931631756332911
 40
1.0
 40
1.0
 40
1.0
 40
1.0
 10
147.8311414856719
 20
142.6517797595948
 30
0.0
 10
147.8320085508312
 20
142.6536199798869
 30
0.0
 10
147.8589360915651
 20
142.7107697873093
 30
0.0
 10
147.9228280189357
 20
142.8566668707539
 30
0.0
 10
147.9501215577932
 20
142.9969832895457
 30
0.0
 10
147.9668966520833
 20
143.0832242555112
 30
0.0
  0
LINE
  5
189
330
1F
100
AcDbEntity
  8
0
  6
Continuous
 62
     7
370
    15
100
AcDbLine
 10
147.8311414857
 20
142.6517797596
 30
0.0
 11
146.4572087888
 21
142.6517797596
 31
0.0
  0
SPLINE
  5
18A
330
1F
100
AcDbEntity
  8
0
  6
Continuous
 62
     7
370
    15
100
AcDbSpline
210
0.0
220
0.0
230
1.0
 70
     8
 71
     3
 72
    10
 73
     6
 74
     0
 42
0.000000001
 43
0.00000001
 40
0.0
 40
0.0
 40
0.0
 40
0.0
 40
0.6068373403095142
 40
0.9873406091555755
 40
1.0
 40
1.0
 40
1.0
 40
1.0
 10
146.2112129692244
 20
143.0832242555112
 30
0.0
 10
146.2621427149656
 20
142.9969828220571
 30
0.0
 10
146.3450067756358
 20
142.8566656995189
 30
0.0
 10
146.4263009476227
 20
142.7107717315144
 30
0.0
 10
146.4562446360541
 20
142.6536199810126
 30
0.0
 10
146.457208788793
 20
142.6517797595948
 30
0.0
  0
SPLINE
  5
18B
330
1F
100
AcDbEntity
  8
0
  6
Continuous
 62
     7
370
    15
100
AcDbSpline
210
0.0
220
0.0
230
1.0
 70
     8
 71
     3
 72
    16
 73
    12
 74
     0
 42
0.000000001
 43
0.00000001
 40
0.0
 40
0.0
 40
0.0
 40
0.0
 40
0.0316445894550823
 40
0.144230257543863
 40
0.2602602518658775
 40
0.391826932714552
 40
0.5492077516561847
 40
0.7249904581166015
 40
0.8558656593997939
 40
0.9874195315337015
 40
1.0
 40
1.0
 40
1.0
 40
1.0
 10
146.2112129692244
 20
143.0832242555112
 30
0.0
 10
146.1987594735079
 20
143.1033215703995
 30
0.0
 10
146.1419987151779
 20
143.1949214600555
 30
0.0
 10
146.0001086496475
 20
143.3310960202489
 30
0.0
 10
145.7524574862525
 20
143.4504406268666
 30
0.0
 10
145.4419574944673
 20
143.514653636052
 30
0.0
 10
145.0814999765797
 20
143.5254208708858
 30
0.0
 10
144.748668220908
 20
143.4723022674197
 30
0.0
 10
144.4970839834365
 20
143.333561513684
 30
0.0
 10
144.388419678521
 20
143.1838768218165
 30
0.0
 10
144.3489013555829
 20
143.0913042604832
 30
0.0
 10
144.34545208032
 20
143.0832242555112
 30
0.0
  0
SPLINE
  5
18C
330
1F
100
AcDbEntity
  8
0
  6
Continuous
 62
     7
370
    15
100
AcDbSpline
210
0.0
220
0.0
230
1.0
 70
     8
 71
     3
 72
    10
 73
     6
 74
     0
 42
0.000000001
 43
0.00000001
 40
0.0
 40
0.0
 40
0.0
 40
0.0
 40
0.0126592980771149
 40
0.3931625924914376
 40
1.0
 40
1.0
 40
1.0
 40
1.0
 10
144.1250080269085
 20
142.6517797595948
 30
0.0
 10
144.1260354533439
 20
142.653619981255
 30
0.0
 10
144.1579444611309
 20
142.7107721483249
 30
0.0
 10
144.2400817264542
 20
142.8566654242662
 30
0.0
 10
144.3053419621407
 20
142.9969827163836
 30
0.0
 10
144.34545208032
 20
143.0832242555112
 30
0.0
  0
LINE
  5
18D
330
1F
100
AcDbEntity
  8
0
  6
Continuous
 62
     7
370
    15
100
AcDbLine
 10
144.1250080269
 20
142.6517797596
 30
0.0
 11
142.593331172
 21
142.6517797596
 31
0.0
  0
SPLINE
  5
18E
330
1F
100
AcDbEntity
  8
0
  6
Continuous
 62
     7
370
    15
100
AcDbSpline
210
0.0
220
0.0
230
1.0
 70
     8
 71
     3
 72
    10
 73
     6
 74
     0
 42
0.000000001
 43
0.00000001
 40
0.0
 40
0.0
 40
0.0
 40
0.0
 40
0.6068372385486344
 40
0.987340253686914
 40
1.0
 40
1.0
 40
1.0
 40
1.0
 10
142.3881938707339
 20
143.0832242555112
 30
0.0
 10
142.4235625224203
 20
142.9969832528691
 30
0.0
 10
142.4811082551314
 20
142.8566668582613
 30
0.0
 10
142.5608227877974
 20
142.7107701112237
 30
0.0
 10
142.5923170638595
 20
142.6536199800662
 30
0.0
 10
142.5933311719703
 20
142.6517797595948
 30
0.0
  0
SPLINE
  5
18F
330
1F
100
AcDbEntity
  8
0
  6
Continuous
 62
     7
370
    15
100
AcDbSpline
210
0.0
220
0.0
230
1.0
 70
     8
 71
     3
 72
    16
 73
    12
 74
     0
 42
0.000000001
 43
0.00000001
 40
0.0
 40
0.0
 40
0.0
 40
0.0
 40
0.0316445457919533
 40
0.144230205915902
 40
0.2602602606419896
 40
0.3918269931898501
 40
0.5492076053108863
 40
0.7249904958246896
 40
0.8558654918943605
 40
0.9874194129355726
 40
1.0
 40
1.0
 40
1.0
 40
1.0
 10
142.3881938707339
 20
143.0832242555112
 30
0.0
 10
142.3806478679861
 20
143.1033215727796
 30
0.0
 10
142.3462545309062
 20
143.194921566884
 30
0.0
 10
142.2543389913854
 20
143.331096041734
 30
0.0
 10
142.0726132487725
 20
143.4504406178428
 30
0.0
 10
141.8149507093133
 20
143.5146536049223
 30
0.0
 10
141.475125421144
 20
143.5254208355182
 30
0.0
 10
141.1134235145618
 20
143.472302365815
 30
0.0
 10
140.8000513300293
 20
143.3335616171287
 30
0.0
 10
140.6467996602658
 20
143.1838760206179
 30
0.0
 10
140.588475956559
 20
143.0913042575859
 30
0.0
 10
140.5833852503704
 20
143.0832242555112
 30
0.0
  0
SPLINE
  5
190
330
1F
100
AcDbEntity
  8
0
  6
Continuous
 62
     7
370
    15
100
AcDbSpline
210
0.0
220
0.0
230
1.0
 70
     8
 71
     3
 72
    10
 73
     6
 74
     0
 42
0.000000001
 43
0.00000001
 40
0.0
 40
0.0
 40
0.0
 40
0.0
 40
0.0126591141351556
 40
0.3931625550576884
 40
1.0
 40
1.0
 40
1.0
 40
1.0
 10
140.33732004727
 20
142.6517797595948
 30
0.0
 10
140.3382326667726
 20
142.6536199817464
 30
0.0
 10
140.3665764996519
 20
142.7107729890807
 30
0.0
 10
140.4449445608454
 20
142.8566648144543
 30
0.0
 10
140.530686632729
 20
142.9969824909095
 30
0.0
 10
140.5833852503704
 20
143.0832242555112
 30
0.0
  0
LINE
  5
191
330
1F
100
AcDbEntity
  8
0
  6
Continuous
 62
     7
370
    15
100
AcDbLine
 10
140.3373200473
 20
142.6517797596
 30
0.0
 11
139.0583104247
 21
142.6517797596
 31
0.0
  0
SPLINE
  5
192
330
1F
100
AcDbEntity
  8
0
  6
Continuous
 62
     7
370
    15
100
AcDbSpline
210
0.0
220
0.0
230
1.0
 70
     8
 71
     3
 72
    10
 73
     6
 74
     0
 42
0.000000001
 43
0.00000001
 40
0.0
 40
0.0
 40
0.0
 40
0.0
 40
0.6068373434694264
 40
0.987340625843772
 40
1.0
 40
1.0
 40
1.0
 40
1.0
 10
138.9489988822745
 20
143.0832242555112
 30
0.0
 10
138.9593282651681
 20
142.9969828015621
 30
0.0
 10
138.9761344480447
 20
142.856665644037
 30
0.0
 10
139.0329167826819
 20
142.7107718078255
 30
0.0
 10
139.0575182853576
 20
142.6536199810572
 30
0.0
 10
139.0583104247483
 20
142.6517797595948
 30
0.0
  0
SPLINE
  5
193
330
1F
100
AcDbEntity
  8
0
  6
Continuous
 62
     7
370
    15
100
AcDbSpline
210
0.0
220
0.0
230
1.0
 70
     8
 71
     3
 72
    16
 73
    12
 74
     0
 42
0.000000001
 43
0.00000001
 40
0.0
 40
0.0
 40
0.0
 40
0.0
 40
0.031644680374012
 40
0.1442302523847154
 40
0.2602602219675488
 40
0.3918272791319286
 40
0.5492077993723004
 40
0.724990508441588
 40
0.855865536896706
 40
0.9874194046183116
 40
1.0
 40
1.0
 40
1.0
 40
1.0
 10
138.9489988822745
 20
143.0832242555112
 30
0.0
 10
138.9483822766401
 20
143.1033215629629
 30
0.0
 10
138.9455719089818
 20
143.1949211522704
 30
0.0
 10
138.9282591330033
 20
143.331096165398
 30
0.0
 10
138.8611522577551
 20
143.4504407635619
 30
0.0
 10
138.7253680251522
 20
143.514653488965
 30
0.0
 10
138.49723092068
 20
143.5254208996928
 30
0.0
 10
138.2035760611107
 20
143.4723022447806
 30
0.0
 10
137.9123845919658
 20
143.3335617288964
 30
0.0
 10
137.7556082823702
 20
143.1838759256238
 30
0.0
 10
137.6941074474033
 20
143.0913042571933
 30
0.0
 10
137.6887394243525
 20
143.0832242555112
 30
0.0
  0
SPLINE
  5
194
330
1F
100
AcDbEntity
  8
0
  6
Continuous
 62
     7
370
    15
100
AcDbSpline
210
0.0
220
0.0
230
1.0
 70
     8
 71
     3
 72
    10
 73
     6
 74
     0
 42
0.000000001
 43
0.00000001
 40
0.0
 40
0.0
 40
0.0
 40
0.0
 40
0.0126594895323696
 40
0.3931626314914474
 40
1.0
 40
1.0
 40
1.0
 40
1.0
 10
137.4829860896128
 20
142.6517797595948
 30
0.0
 10
137.4835392877901
 20
142.6536199807435
 30
0.0
 10
137.5007198265949
 20
142.7107712732586
 30
0.0
 10
137.5543258375943
 20
142.8566660589439
 30
0.0
 10
137.6375737493323
 20
142.9969829510545
 30
0.0
 10
137.6887394243525
 20
143.0832242555112
 30
0.0
  0
LINE
  5
195
330
1F
100
AcDbEntity
  8
0
  6
Continuous
 62
     7
370
    15
100
AcDbLine
 10
137.4829860896
 20
142.6517797596
 30
0.0
 11
136.7993532939
 21
142.6517797596
 31
0.0
  0
SPLINE
  5
196
330
1F
100
AcDbEntity
  8
0
  6
Continuous
 62
     7
370
    15
100
AcDbSpline
210
0.0
220
0.0
230
1.0
 70
     8
 71
     3
 72
    10
 73
     6
 74
     0
 42
0.000000001
 43
0.00000001
 40
0.0
 40
0.0
 40
0.0
 40
0.0
 40
0.606837290683023
 40
0.9873406262811523
 40
1.0
 40
1.0
 40
1.0
 40
1.0
 10
136.8151571977208
 20
143.0832242555112
 30
0.0
 10
136.7976798317603
 20
142.9969827922311
 30
0.0
 10
136.7692436863253
 20
142.8566656072564
 30
0.0
 10
136.7878772696721
 20
142.7107718177012
 30
0.0
 10
136.7989953062987
 20
142.6536199810643
 30
0.0
 10
136.7993532939138
 20
142.6517797595948
 30
0.0
  0
SPLINE
  5
197
330
1F
100
AcDbEntity
  8
0
  6
Continuous
 62
     7
370
    15
100
AcDbSpline
210
0.0
220
0.0
230
1.0
 70
     8
 71
     3
 72
    16
 73
    12
 74
     0
 42
0.000000001
 43
0.00000001
 40
0.0
 40
0.0
 40
0.0
 40
0.0
 40
0.0316445886565796
 40
0.1442303155134059
 40
0.2602602268112131
 40
0.3918270799713646
 40
0.5492076483049787
 40
0.7249905436224733
 40
0.8558654865706457
 40
0.9874193535337235
 40
1.0
 40
1.0
 40
1.0
 40
1.0
 10
136.8151571977208
 20
143.0832242555112
 30
0.0
 10
136.821635254279
 20
143.1033215719446
 30
0.0
 10
136.8511610651986
 20
143.1949215077702
 30
0.0
 10
136.913090072218
 20
143.3310958848079
 30
0.0
 10
136.9785832782489
 20
143.450440767921
 30
0.0
 10
137.0010602202829
 20
143.5146535345118
 30
0.0
 10
136.9457405516635
 20
143.5254208649233
 30
0.0
 10
136.7988179565563
 20
143.4723023231644
 30
0.0
 10
136.6078308586456
 20
143.3335617967792
 30
0.0
 10
136.4895386374219
 20
143.1838755657489
 30
0.0
 10
136.4413395076237
 20
143.0913042558845
 30
0.0
 10
136.4371324915694
 20
143.0832242555112
 30
0.0
  0
SPLINE
  5
198
330
1F
100
AcDbEntity
  8
0
  6
Continuous
 62
     7
370
    15
100
AcDbSpline
210
0.0
220
0.0
230
1.0
 70
     8
 71
     3
 72
    10
 73
     6
 74
     0
 42
0.000000001
 43
0.00000001
 40
0.0
 40
0.0
 40
0.0
 40
0.0
 40
0.0126597315666096
 40
0.3931630499183298
 40
1.0
 40
1.0
 40
1.0
 40
1.0
 10
136.3268224548804
 20
142.6517797595948
 30
0.0
 10
136.3268680082682
 20
142.6536199801384
 30
0.0
 10
136.3282827230124
 20
142.7107702220392
 30
0.0
 10
136.3427612298641
 20
142.8566666146207
 30
0.0
 10
136.4012092780374
 20
142.9969831863133
 30
0.0
 10
136.4371324915694
 20
143.0832242555112
 30
0.0
  0
LINE
  5
199
330
1F
100
AcDbEntity
  8
0
  6
Continuous
 62
     7
370
    15
100
AcDbLine
 10
150.3081978325
 20
143.6517817862
 30
0.0
 11
150.3206440274
 21
143.6517817862
 31
0.0
  0
LINE
  5
19A
330
1F
100
AcDbEntity
  8
0
  6
Continuous
 62
     7
370
    15
100
AcDbLine
 10
137.3206441375
 20
143.6517817862
 30
0.0
 11
150.3081978325
 21
143.6517817862
 31
0.0
  0
LINE
  5
19B
330
1F
100
AcDbEntity
  8
0
  6
Continuous
 62
     7
370
    15
100
AcDbLine
 10
144.3454520803
 20
143.0832242555
 30
0.0
 11
144.3454520803
 21
136.2203380055
 31
0.0
  0
LINE
  5
19C
330
1F
100
AcDbEntity
  8
0
  6
Continuous
 62
     7
370
    15
100
AcDbLine
 10
146.2112129692
 20
136.2203380055
 30
0.0
 11
146.2112129692
 21
143.0832242555
 31
0.0
  0
LINE
  5
19D
330
1F
100
AcDbEntity
  8
0
  6
Continuous
 62
     7
370
    15
100
AcDbLine
 10
144.1250080269
 20
136.6517825014
 30
0.0
 11
144.1250080269
 21
142.6517797596
 31
0.0
  0
LINE
  5
19E
330
1F
100
AcDbEntity
  8
0
  6
Continuous
 62
     7
370
    15
100
AcDbLine
 10
142.593331172
 20
142.6517797596
 30
0.0
 11
142.593331172
 21
136.6517825014
 31
0.0
  0
LINE
  5
19F
330
1F
100
AcDbEntity
  8
0
  6
Continuous
 62
     7
370
    15
100
AcDbLine
 10
142.3881938707
 20
136.2203380055
 30
0.0
 11
142.3881938707
 21
143.0832242555
 31
0.0
  0
LINE
  5
1A0
330
1F
100
AcDbEntity
  8
0
  6
Continuous
 62
     7
370
    15
100
AcDbLine
 10
140.5833852504
 20
143.0832242555
 30
0.0
 11
140.5833852504
 21
136.2203380055
 31
0.0
  0
LINE
  5
1A1
330
1F
100
AcDbEntity
  8
0
  6
Continuous
 62
     7
370
    15
100
AcDbLine
 10
147.8311414857
 20
136.6517825014
 30
0.0
 11
147.8311414857
 21
142.6517797596
 31
0.0
  0
LINE
  5
1A2
330
1F
100
AcDbEntity
  8
0
  6
Continuous
 62
     7
370
    15
100
AcDbLine
 10
146.4572087888
 20
142.6517797596
 30
0.0
 11
146.4572087888
 21
136.6517825014
 31
0.0
  0
LINE
  5
1A3
330
1F
100
AcDbEntity
  8
0
  6
Continuous
 62
     7
370
    15
100
AcDbLine
 10
140.3373200473
 20
136.6517825014
 30
0.0
 11
140.3373200473
 21
142.6517797596
 31
0.0
  0
LINE
  5
1A4
330
1F
100
AcDbEntity
  8
0
  6
Continuous
 62
     7
370
    15
100
AcDbLine
 10
139.0583104247
 20
142.6517797596
 30
0.0
 11
139.0583104247
 21
136.6517825014
 31
0.0
  0
LINE
  5
1A5
330
1F
100
AcDbEntity
  8
0
  6
Continuous
 62
     7
370
    15
100
AcDbLine
 10
147.9668966521
 20
143.0832242555
 30
0.0
 11
147.9668966521
 21
136.2203380055
 31
0.0
  0
LINE
  5
1A6
330
1F
100
AcDbEntity
  8
0
  6
Continuous
 62
     7
370
    15
100
AcDbLine
 10
149.3936809737
 20
136.2203380055
 30
0.0
 11
149.3936809737
 21
143.0832242555
 31
0.0
  0
LINE
  5
1A7
330
1F
100
AcDbEntity
  8
0
  6
Continuous
 62
     7
370
    15
100
AcDbLine
 10
138.9489988823
 20
136.2203380055
 30
0.0
 11
138.9489988823
 21
143.0832242555
 31
0.0
  0
LINE
  5
1A8
330
1F
100
AcDbEntity
  8
0
  6
Continuous
 62
     7
370
    15
100
AcDbLine
 10
137.6887394244
 20
143.0832242555
 30
0.0
 11
137.6887394244
 21
136.2203380055
 31
0.0
  0
LINE
  5
1A9
330
1F
100
AcDbEntity
  8
0
  6
Continuous
 62
     7
370
    15
100
AcDbLine
 10
149.6146214221
 20
142.6517797596
 30
0.0
 11
149.6146214221
 21
136.6517825014
 31
0.0
  0
LINE
  5
1AA
330
1F
100
AcDbEntity
  8
0
  6
Continuous
 62
     7
370
    15
100
AcDbLine
 10
150.4626660634
 20
136.6517825014
 30
0.0
 11
150.4626660634
 21
142.6517797596
 31
0.0
  0
LINE
  5
1AB
330
1F
100
AcDbEntity
  8
0
  6
Continuous
 62
     7
370
    15
100
AcDbLine
 10
137.4829860896
 20
136.6517825014
 30
0.0
 11
137.4829860896
 21
142.6517797596
 31
0.0
  0
LINE
  5
1AC
330
1F
100
AcDbEntity
  8
0
  6
Continuous
 62
     7
370
    15
100
AcDbLine
 10
136.7993532939
 20
142.6517797596
 30
0.0
 11
136.7993532939
 21
136.6517825014
 31
0.0
  0
LINE
  5
1AD
330
1F
100
AcDbEntity
  8
0
  6
Continuous
 62
     7
370
    15
100
AcDbLine
 10
151.0828579802
 20
136.2203380055
 30
0.0
 11
151.0828579802
 21
143.0832242555
 31
0.0
  0
LINE
  5
1AE
330
1F
100
AcDbEntity
  8
0
  6
Continuous
 62
     7
370
    15
100
AcDbLine
 10
136.4371324916
 20
143.0832242555
 30
0.0
 11
136.4371324916
 21
136.2203380055
 31
0.0
  0
LINE
  5
1AF
330
1F
100
AcDbEntity
  8
0
  6
Continuous
 62
     7
370
    15
100
AcDbLine
 10
151.2195426066
 20
142.6517797596
 30
0.0
 11
151.2195426066
 21
136.6517825014
 31
0.0
  0
LINE
  5
1B0
330
1F
100
AcDbEntity
  8
0
  6
Continuous
 62
     7
370
    15
100
AcDbLine
 10
136.3268224549
 20
136.6517825014
 30
0.0
 11
136.3268224549
 21
142.6517797596
 31
0.0
  0
LINE
  5
1B1
330
1F
100
AcDbEntity
  8
0
  6
Continuous
 62
     7
370
    15
100
AcDbLine
 10
136.3206441773
 20
74.0201977975
 30
0.0
 11
136.3206441773
 21
78.0201984531
 31
0.0
  0
LINE
  5
1B2
330
1F
100
AcDbEntity
  8
0
  6
Continuous
 62
     7
370
    15
100
AcDbLine
 10
136.3206441773
 20
78.0201984531
 30
0.0
 11
145.8206442211
 21
78.0201984531
 31
0.0
  0
LINE
  5
1B3
330
1F
100
AcDbEntity
  8
0
  6
Continuous
 62
     7
370
    15
100
AcDbLine
 10
145.8206442211
 20
72.0201974697
 30
0.0
 11
145.8206442211
 21
78.0201984531
 31
0.0
  0
LINE
  5
1B4
330
1F
100
AcDbEntity
  8
0
  6
Continuous
 62
     7
370
    15
100
AcDbLine
 10
134.3206441988
 20
72.0201974697
 30
0.0
 11
145.8206442211
 21
72.0201974697
 31
0.0
  0
LINE
  5
1B5
330
1F
100
AcDbEntity
  8
0
  6
Continuous
 62
     7
370
    15
100
AcDbLine
 10
134.3206441988
 20
72.0201974697
 30
0.0
 11
134.3206441988
 21
74.0201977975
 31
0.0
  0
LINE
  5
1B6
330
1F
100
AcDbEntity
  8
0
  6
Continuous
 62
     7
370
    15
100
AcDbLine
 10
134.3206441988
 20
74.0201977975
 30
0.0
 11
136.3206441773
 21
74.0201977975
 31
0.0
  0
LINE
  5
1B7
330
1F
100
AcDbEntity
  8
0
  6
Continuous
 62
     7
370
    15
100
AcDbLine
 10
127.3206439827
 20
72.0201974697
 30
0.0
 11
127.3206439827
 21
74.0201977975
 31
0.0
  0
LINE
  5
1B8
330
1F
100
AcDbEntity
  8
0
  6
Continuous
 62
     7
370
    15
100
AcDbLine
 10
115.8206448917
 20
72.0201974697
 30
0.0
 11
127.3206439827
 21
72.0201974697
 31
0.0
  0
LINE
  5
1B9
330
1F
100
AcDbEntity
  8
0
  6
Continuous
 62
     7
370
    15
100
AcDbLine
 10
115.8206448917
 20
78.0201984531
 30
0.0
 11
115.8206448917
 21
72.0201974697
 31
0.0
  0
LINE
  5
1BA
330
1F
100
AcDbEntity
  8
0
  6
Continuous
 62
     7
370
    15
100
AcDbLine
 10
115.8206448917
 20
78.0201984531
 30
0.0
 11
125.3206445862
 21
78.0201984531
 31
0.0
  0
LINE
  5
1BB
330
1F
100
AcDbEntity
  8
0
  6
Continuous
 62
     7
370
    15
100
AcDbLine
 10
125.3206445862
 20
74.0201977975
 30
0.0
 11
125.3206445862
 21
78.0201984531
 31
0.0
  0
LINE
  5
1BC
330
1F
100
AcDbEntity
  8
0
  6
Continuous
 62
     7
370
    15
100
AcDbLine
 10
125.3206445862
 20
74.0201977975
 30
0.0
 11
127.3206439827
 21
74.0201977975
 31
0.0
  0
LINE
  5
1BD
330
1F
100
AcDbEntity
  8
0
  6
Continuous
 62
     7
370
    15
100
AcDbLine
 10
150.8206441093
 20
78.0201984531
 30
0.0
 11
150.8206441093
 21
72.0201974697
 31
0.0
  0
LINE
  5
1BE
330
1F
100
AcDbEntity
  8
0
  6
Continuous
 62
     7
370
    15
100
AcDbLine
 10
150.8206441093
 20
72.0201974697
 30
0.0
 11
145.8206442211
 21
72.0201974697
 31
0.0
  0
LINE
  5
1BF
330
1F
100
AcDbEntity
  8
0
  6
Continuous
 62
     7
370
    15
100
AcDbLine
 10
145.8206442211
 20
78.0201984531
 30
0.0
 11
150.8206441093
 21
78.0201984531
 31
0.0
  0
LINE
  5
1C0
330
1F
100
AcDbEntity
  8
0
  6
Continuous
 62
     7
370
    15
100
AcDbLine
 10
110.8206440721
 20
72.0201974697
 30
0.0
 11
110.8206440721
 21
78.0201984531
 31
0.0
  0
LINE
  5
1C1
330
1F
100
AcDbEntity
  8
0
  6
Continuous
 62
     7
370
    15
100
AcDbLine
 10
110.8206440721
 20
78.0201984531
 30
0.0
 11
115.8206448917
 21
78.0201984531
 31
0.0
  0
LINE
  5
1C2
330
1F
100
AcDbEntity
  8
0
  6
Continuous
 62
     7
370
    15
100
AcDbLine
 10
115.8206448917
 20
72.0201974697
 30
0.0
 11
110.8206440721
 21
72.0201974697
 31
0.0
  0
LINE
  5
1C3
330
1F
100
AcDbEntity
  8
0
  6
Continuous
 62
     7
370
    15
100
AcDbLine
 10
136.3206441773
 20
78.0201984531
 30
0.0
 11
125.3206445862
 21
78.0201984531
 31
0.0
  0
LINE
  5
1C4
330
1F
100
AcDbEntity
  8
0
  6
Continuous
 62
     7
370
    15
100
AcDbLine
 10
134.3206441988
 20
72.0201974697
 30
0.0
 11
127.3206439827
 21
72.0201974697
 31
0.0
  0
LINE
  5
1C5
330
1F
100
AcDbEntity
  8
0
  6
Continuous
 62
     7
370
    15
100
AcDbLine
 10
127.3206439827
 20
74.0201977975
 30
0.0
 11
134.3206441988
 21
74.0201977975
 31
0.0
  0
ARC
  5
1C6
330
1F
100
AcDbEntity
  8
0
  6
Continuous
 62
     7
370
    15
100
AcDbCircle
 10
115.8206441426
 20
112.0201985138
 30
0.0
 40
1.0
100
AcDbArc
 50
90.0
 51
180.0
  0
ARC
  5
1C7
330
1F
100
AcDbEntity
  8
0
  6
Continuous
 62
     7
370
    15
100
AcDbCircle
 10
130.8206441426
 20
97.0201985138
 30
0.0
 40
6.999999999999995
100
AcDbArc
 50
304.04773237
 51
235.95226763
  0
ARC
  5
1C8
330
1F
100
AcDbEntity
  8
0
  6
Continuous
 62
     7
370
    15
100
AcDbCircle
 10
115.8206441426
 20
82.0201985138
 30
0.0
 40
1.0
100
AcDbArc
 50
180.0
 51
270.0
  0
ARC
  5
1C9
330
1F
100
AcDbEntity
  8
0
  6
Continuous
 62
     7
370
    15
100
AcDbCircle
 10
145.8206441426
 20
82.0201985138
 30
0.0
 40
1.0
100
AcDbArc
 50
270.0
 51
0.0
  0
LINE
  5
1CA
330
1F
100
AcDbEntity
  8
0
  6
Continuous
 62
     7
370
    15
100
AcDbLine
 10
114.8206447277
 20
112.0201984382
 30
0.0
 11
114.8206447277
 21
82.0201991088
 31
0.0
  0
LINE
  5
1CB
330
1F
100
AcDbEntity
  8
0
  6
Continuous
 62
     7
370
    15
100
AcDbLine
 10
146.820644385
 20
82.0201991088
 30
0.0
 11
146.820644385
 21
112.0201984382
 31
0.0
  0
LINE
  5
1CC
330
1F
100
AcDbEntity
  8
0
  6
Continuous
 62
     7
370
    15
100
AcDbLine
 10
115.8206448917
 20
81.0201989449
 30
0.0
 11
145.8206442211
 21
81.0201989449
 31
0.0
  0
ARC
  5
1CD
330
1F
100
AcDbEntity
  8
0
  6
Continuous
 62
     7
370
    15
100
AcDbCircle
 10
130.8206441426
 20
92.0201985138
 30
0.0
 40
3.999999999999995
100
AcDbArc
 50
191.5369590328
 51
348.4630409672
  0
LINE
  5
1CE
330
1F
100
AcDbEntity
  8
0
  6
Continuous
 62
     7
370
    15
100
AcDbLine
 10
145.8206442211
 20
113.0201986021
 30
0.0
 11
115.8206448917
 21
113.0201986021
 31
0.0
  0
ARC
  5
1CF
330
1F
100
AcDbEntity
  8
0
  6
Continuous
 62
     7
370
    15
100
AcDbCircle
 10
145.8206441426
 20
112.0201985138
 30
0.0
 40
1.0
100
AcDbArc
 50
0.0
 51
90.0
  0
CIRCLE
  5
1D0
330
1F
100
AcDbEntity
  8
0
  6
Continuous
 62
     7
370
    15
100
AcDbCircle
 10
130.8206441426
 20
97.0201985138
 30
0.0
 40
5.499999999999972
  0
LINE
  5
1D1
330
1F
100
AcDbEntity
  8
0
  6
Continuous
 62
     7
370
    15
100
AcDbLine
 10
150.8206441093
 20
135.0201984829
 30
0.0
 11
145.9203134317
 21
135.0201984829
 31
0.0
  0
LINE
  5
1D2
330
1F
100
AcDbEntity
  8
0
  6
Continuous
 62
     7
370
    15
100
AcDbLine
 10
150.8206441093
 20
78.0201984531
 30
0.0
 11
150.8206441093
 21
135.0201984829
 31
0.0
  0
LINE
  5
1D3
330
1F
100
AcDbEntity
  8
0
  6
Continuous
 62
     7
370
    15
100
AcDbLine
 10
110.8206440721
 20
135.0201984829
 30
0.0
 11
110.8206440721
 21
78.0201984531
 31
0.0
  0
LINE
  5
1D4
330
1F
100
AcDbEntity
  8
0
  6
Continuous
 62
     7
370
    15
100
AcDbLine
 10
115.7209747497
 20
135.0201984829
 30
0.0
 11
110.8206440721
 21
135.0201984829
 31
0.0
  0
LINE
  5
1D5
330
1F
100
AcDbEntity
  8
0
  6
Continuous
 62
     7
370
    15
100
AcDbLine
 10
115.7209747497
 20
135.0201984829
 30
0.0
 11
115.7209747497
 21
115.02019893
 31
0.0
  0
LINE
  5
1D6
330
1F
100
AcDbEntity
  8
0
  6
Continuous
 62
     7
370
    15
100
AcDbLine
 10
115.8206448917
 20
115.02019893
 30
0.0
 11
115.7209747497
 21
115.02019893
 31
0.0
  0
ARC
  5
1D7
330
1F
100
AcDbEntity
  8
0
  6
Continuous
 62
     7
370
    15
100
AcDbCircle
 10
115.8206441426
 20
112.0201985138
 30
0.0
 40
2.999999999999986
100
AcDbArc
 50
90.0
 51
180.0
  0
LINE
  5
1D8
330
1F
100
AcDbEntity
  8
0
  6
Continuous
 62
     7
370
    15
100
AcDbLine
 10
112.8206443999
 20
112.0201984382
 30
0.0
 11
112.8206443999
 21
82.0201991088
 31
0.0
  0
ARC
  5
1D9
330
1F
100
AcDbEntity
  8
0
  6
Continuous
 62
     7
370
    15
100
AcDbCircle
 10
115.8206441426
 20
82.0201985138
 30
0.0
 40
3.0
100
AcDbArc
 50
180.0
 51
270.0
  0
ARC
  5
1DA
330
1F
100
AcDbEntity
  8
0
  6
Continuous
 62
     7
370
    15
100
AcDbCircle
 10
145.8206441426
 20
82.0201985138
 30
0.0
 40
3.0
100
AcDbArc
 50
270.0
 51
0.0
  0
ARC
  5
1DB
330
1F
100
AcDbEntity
  8
0
  6
Continuous
 62
     7
370
    15
100
AcDbCircle
 10
145.8206441426
 20
112.0201985138
 30
0.0
 40
3.0
100
AcDbArc
 50
0.0
 51
90.0
  0
LINE
  5
1DC
330
1F
100
AcDbEntity
  8
0
  6
Continuous
 62
     7
370
    15
100
AcDbLine
 10
145.9203134317
 20
115.02019893
 30
0.0
 11
145.8206442211
 21
115.02019893
 31
0.0
  0
LINE
  5
1DD
330
1F
100
AcDbEntity
  8
0
  6
Continuous
 62
     7
370
    15
100
AcDbLine
 10
145.9203134317
 20
115.02019893
 30
0.0
 11
145.9203134317
 21
135.0201984829
 31
0.0
  0
LINE
  5
1DE
330
1F
100
AcDbEntity
  8
0
  6
Continuous
 62
     7
370
    15
100
AcDbLine
 10
115.8206448917
 20
79.0201986171
 30
0.0
 11
145.8206442211
 21
79.0201986171
 31
0.0
  0
LINE
  5
1DF
330
1F
100
AcDbEntity
  8
0
  6
Continuous
 62
     7
370
    15
100
AcDbLine
 10
148.8206437815
 20
82.0201991088
 30
0.0
 11
148.8206437815
 21
112.0201984382
 31
0.0
  0
LINE
  5
1E0
330
1F
100
AcDbEntity
  8
0
  6
Continuous
 62
     7
370
    15
100
AcDbLine
 10
145.8206442211
 20
115.02019893
 30
0.0
 11
115.8206448917
 21
115.02019893
 31
0.0
  0
LINE
  5
1E1
330
1F
100
AcDbEntity
  8
0
  6
Continuous
 62
     7
370
    15
100
AcDbLine
 10
145.9203134317
 20
135.0201984829
 30
0.0
 11
115.7209747497
 21
135.0201984829
 31
0.0
  0
LINE
  5
1E2
330
1F
100
AcDbEntity
  8
0
  6
Continuous
 62
     8
370
    15
100
AcDbLine
 10
110.3206449215
 20
136.6517825014
 30
0.0
 11
110.3668366585
 21
136.6517825014
 31
0.0
  0
LINE
  5
1E3
330
1F
100
AcDbEntity
  8
0
  6
Continuous
 62
     8
370
    15
100
AcDbLine
 10
125.2875826348
 20
136.6517825014
 30
0.0
 11
125.3206445862
 21
136.6517825014
 31
0.0
  0
LINE
  5
1E4
330
1F
100
AcDbEntity
  8
0
  6
Continuous
 62
     8
370
    15
100
AcDbLine
 10
125.3206445862
 20
142.6517797596
 30
0.0
 11
125.2875826348
 21
142.6517797596
 31
0.0
  0
LINE
  5
1E5
330
1F
100
AcDbEntity
  8
0
  6
Continuous
 62
     8
370
    15
100
AcDbLine
 10
110.3668366585
 20
142.6517797596
 30
0.0
 11
110.3206449215
 21
142.6517797596
 31
0.0
  0
LINE
  5
1E6
330
1F
100
AcDbEntity
  8
0
  6
Continuous
 62
     8
370
    15
100
AcDbLine
 10
136.3206441773
 20
136.6517825014
 30
0.0
 11
136.3268224549
 21
136.6517825014
 31
0.0
  0
LINE
  5
1E7
330
1F
100
AcDbEntity
  8
0
  6
Continuous
 62
     8
370
    15
100
AcDbLine
 10
151.2195426066
 20
136.6517825014
 30
0.0
 11
151.3206441913
 21
136.6517825014
 31
0.0
  0
LINE
  5
1E8
330
1F
100
AcDbEntity
  8
0
  6
Continuous
 62
     8
370
    15
100
AcDbLine
 10
151.3206441913
 20
142.6517797596
 30
0.0
 11
151.2195426066
 21
142.6517797596
 31
0.0
  0
LINE
  5
1E9
330
1F
100
AcDbEntity
  8
0
  6
Continuous
 62
     8
370
    15
100
AcDbLine
 10
136.3268224549
 20
142.6517797596
 30
0.0
 11
136.3206441773
 21
142.6517797596
 31
0.0
  0
LINE
  5
1EA
330
1F
100
AcDbEntity
  8
DIM
  6
CENTERX2
 62
     7
100
AcDbLine
 10
114.3206441426
 20
78.0201985138
 30
0.0
 11
114.3206441426
 21
74.0201985138
 31
0.0
  0
LINE
  5
1EB
330
1F
100
AcDbEntity
  8
DIM
  6
CENTERX2
 62
     7
100
AcDbLine
 10
122.3206441426
 20
74.0201985138
 30
0.0
 11
114.3206441426
 21
74.0201985138
 31
0.0
  0
LINE
  5
1EC
330
1F
100
AcDbEntity
  8
DIM
  6
CENTERX2
 62
     7
100
AcDbLine
 10
122.3206441426
 20
74.0201985138
 30
0.0
 11
122.3206441426
 21
78.0201985138
 31
0.0
  0
LINE
  5
1ED
330
1F
100
AcDbEntity
  8
DIM
  6
CENTERX2
 62
     7
100
AcDbLine
 10
116.0706441426
 20
74.0201985138
 30
0.0
 11
116.0706441426
 21
72.0201985138
 31
0.0
  0
LINE
  5
1EE
330
1F
100
AcDbEntity
  8
DIM
  6
CENTERX2
 62
     7
100
AcDbLine
 10
120.5706441426
 20
72.0201985138
 30
0.0
 11
120.5706441426
 21
74.0201985138
 31
0.0
  0
LINE
  5
1EF
330
1F
100
AcDbEntity
  8
DIM
  6
CENTERX2
 62
     7
100
AcDbLine
 10
139.3206441426
 20
78.0201985138
 30
0.0
 11
139.3206441426
 21
74.0201985138
 31
0.0
  0
LINE
  5
1F0
330
1F
100
AcDbEntity
  8
DIM
  6
CENTERX2
 62
     7
100
AcDbLine
 10
141.0706441426
 20
74.0201985138
 30
0.0
 11
141.0706441426
 21
72.0201985138
 31
0.0
  0
LINE
  5
1F1
330
1F
100
AcDbEntity
  8
DIM
  6
CENTERX2
 62
     7
100
AcDbLine
 10
147.3206441426
 20
74.0201985138
 30
0.0
 11
139.3206441426
 21
74.0201985138
 31
0.0
  0
LINE
  5
1F2
330
1F
100
AcDbEntity
  8
DIM
  6
CENTERX2
 62
     7
100
AcDbLine
 10
145.5706441426
 20
72.0201985138
 30
0.0
 11
145.5706441426
 21
74.0201985138
 31
0.0
  0
LINE
  5
1F3
330
1F
100
AcDbEntity
  8
DIM
  6
CENTERX2
 62
     7
100
AcDbLine
 10
147.3206441426
 20
74.0201985138
 30
0.0
 11
147.3206441426
 21
78.0201985138
 31
0.0
  0
DIMENSION
  5
1F4
330
1F
100
AcDbEntity
  8
DIM
 62
     7
100
AcDbDimension
  2
_D
 10
143.3206441426
 20
64.0201985138
 30
0.0
 11
130.8206441426
 21
64.0201985138
 31
0.0
 70
   160
  1
<>
 71
     2
 42
-1.0
  3
SLDDIMSTYLE0
100
AcDbAlignedDimension
 13
118.3206441426
 23
72.0201985138
 33
0.0
 14
143.3206441426
 24
72.0201985138
 34
0.0
100
AcDbRotatedDimension
  0
DIMENSION
  5
1FF
330
1F
100
AcDbEntity
  8
DIM
 62
     7
100
AcDbDimension
  2
_D_1
 10
150.8206441426
 20
58.0201985138
 30
0.0
 11
130.8206441426
 21
58.0201985138
 31
0.0
 70
   160
  1
<>
 71
     2
 42
-1.0
  3
SLDDIMSTYLE0
100
AcDbAlignedDimension
 13
110.8206441426
 23
72.0201985138
 33
0.0
 14
150.8206441426
 24
72.0201985138
 34
0.0
100
AcDbRotatedDimension
  0
DIMENSION
  5
209
330
1F
100
AcDbEntity
  8
DIM
 62
     7
100
AcDbDimension
  2
_D_2
 10
158.5883051734
 20
72.0201985138
 30
0.0
 11
158.5883051734
 21
84.5201985138
 31
0.0
 70
   160
  1
<>
 71
     2
 42
-1.0
  3
SLDDIMSTYLE0
100
AcDbAlignedDimension
 13
130.8206441426
 23
97.0201985138
 33
0.0
 14
150.8206441426
 24
72.0201985138
 34
0.0
 50
90.0
100
AcDbRotatedDimension
  0
DIMENSION
  5
213
330
1F
100
AcDbEntity
  8
DIM
 62
     7
100
AcDbDimension
  2
_D_3
 10
165.6424946484
 20
72.0201985138
 30
0.0
 11
165.6424946484
 21
103.5201985138
 31
0.0
 70
   160
  1
<>
 71
     2
 42
-1.0
  3
SLDDIMSTYLE0
100
AcDbAlignedDimension
 13
150.8206441426
 23
135.0201985138
 33
0.0
 14
150.8206441426
 24
72.0201985138
 34
0.0
 50
90.0
100
AcDbRotatedDimension
  0
DIMENSION
  5
21D
330
1F
100
AcDbEntity
  8
DIM
 62
     7
100
AcDbDimension
  2
_D_4
 10
174.6424946484
 20
72.0201985138
 30
0.0
 11
174.6424946484
 21
107.8359898518
 31
0.0
 70
   160
  1
<>\PNOMINAL
 71
     2
 42
-1.0
  3
SLDDIMSTYLE1
100
AcDbAlignedDimension
 13
150.3206441426
 23
143.6517811899
 33
0.0
 14
150.8206441426
 24
72.0201985138
 34
0.0
 50
90.0
100
AcDbRotatedDimension
  0
INSERT
  5
234
102
{ACAD_REACTORS
330
236
102
}
330
1F
100
AcDbEntity
  8
DIM
 62
     7
100
AcDbBlockReference
  2
SW_NOTE_2
 10
104.0264423077
 20
78.2451923077
 30
0.0
  0
LEADER
  5
236
330
1F
100
AcDbEntity
  8
DIM
 62
     7
100
AcDbLeader
  3
SLDDIMSTYLE2
 73
     2
 76
     2
 10
130.9277384638
 20
72.0201985138
 30
0.0
 10
104.0264423077
 20
78.2451923077
 30
0.0
340
234
  0
INSERT
  5
23C
102
{ACAD_REACTORS
330
23D
102
}
330
1F
100
AcDbEntity
  8
DIM
 62
     7
100
AcDbBlockReference
  2
SW_NOTE_3
 10
159.7764423077
 20
64.5432692308
 30
0.0
  0
LEADER
  5
23D
330
1F
100
AcDbEntity
  8
DIM
 62
     7
100
AcDbLeader
  3
SLDDIMSTYLE2
 73
     2
 76
     3
 10
143.3428089217
 20
72.0201985138
 30
0.0
 10
158.7764423077
 20
64.5432692308
 30
0.0
 10
159.7764423077
 20
64.5432692308
 30
0.0
340
23C
  0
INSERT
  5
244
102
{ACAD_REACTORS
330
245
102
}
330
1F
100
AcDbEntity
  8
DIM
 62
     7
100
AcDbBlockReference
  2
SW_NOTE_4
 10
109.4543269231
 20
112.8605769231
 30
0.0
  0
LEADER
  5
245
330
1F
100
AcDbEntity
  8
DIM
 62
     7
100
AcDbLeader
  3
SLDDIMSTYLE2
 73
     2
 76
     3
 10
126.1091539646
 20
99.857778522
 30
0.0
 10
110.4543269231
 20
112.8605769231
 30
0.0
 10
109.4543269231
 20
112.8605769231
 30
0.0
340
244
  0
INSERT
  5
251
330
1F
100
AcDbEntity
  8
DIM
 62
     7
100
AcDbBlockReference
  2
SW_CENTERMARKSYMBOL_0
 10
130.8206441426
 20
97.0201985138
 30
0.0
  0
LINE
  5
252
330
1F
100
AcDbEntity
  8
DIM
  6
CENTERX2
 62
     7
370
     0
100
AcDbLine
 10
118.3206441426
 20
72.0201985138
 30
0.0
 11
118.3206441426
 21
80.0201985138
 31
0.0
  0
LINE
  5
253
330
1F
100
AcDbEntity
  8
DIM
  6
CENTERX2
 62
     7
370
     0
100
AcDbLine
 10
143.3206441426
 20
72.0201985138
 30
0.0
 11
143.3206441426
 21
80.0201985138
 31
0.0
  0
LINE
  5
254
330
1F
100
AcDbEntity
  8
DIM
  6
CENTERX2
 62
     7
370
     0
100
AcDbLine
 10
130.8206441426
 20
72.0201985138
 30
0.0
 11
130.8206441426
 21
80.0201985138
 31
0.0
  0
ARC
  5
255
330
1F
100
AcDbEntity
  8
0
  6
Continuous
 62
     7
370
    15
100
AcDbCircle
 10
37.4001192764
 20
136.6517811899
 30
0.0
 40
1.0
100
AcDbArc
 50
180.0
 51
270.0
  0
ARC
  5
256
330
1F
100
AcDbEntity
  8
0
  6
Continuous
 62
     7
370
    15
100
AcDbCircle
 10
50.4001192764
 20
136.6517811899
 30
0.0
 40
1.0
100
AcDbArc
 50
270.0
 51
0.0
  0
ARC
  5
257
330
1F
100
AcDbEntity
  8
0
  6
Continuous
 62
     7
370
    15
100
AcDbCircle
 10
37.4001192764
 20
142.6517811899
 30
0.0
 40
1.0
100
AcDbArc
 50
90.0
 51
180.0
  0
ARC
  5
258
330
1F
100
AcDbEntity
  8
0
  6
Continuous
 62
     7
370
    15
100
AcDbCircle
 10
50.4001192764
 20
142.6517811899
 30
0.0
 40
1.0
100
AcDbArc
 50
0.0
 51
90.0
  0
LINE
  5
259
330
1F
100
AcDbEntity
  8
0
  6
Continuous
 62
     7
370
    15
100
AcDbLine
 10
39.4001193239
 20
135.6517804749
 30
0.0
 11
39.4001193239
 21
135.0201984829
 31
0.0
  0
LINE
  5
25A
330
1F
100
AcDbEntity
  8
0
  6
Continuous
 62
     7
370
    15
100
AcDbLine
 10
48.4001190529
 20
135.0201984829
 30
0.0
 11
48.4001190529
 21
135.6517804749
 31
0.0
  0
LINE
  5
25B
330
1F
100
AcDbEntity
  8
0
  6
Continuous
 62
     7
370
    15
100
AcDbLine
 10
37.0545716617
 20
142.8760310597
 30
0.0
 11
37.0545716617
 21
136.4275312013
 31
0.0
  0
LINE
  5
25C
330
1F
100
AcDbEntity
  8
0
  6
Continuous
 62
     7
370
    15
100
AcDbLine
 10
50.7960348517
 20
136.4359913356
 30
0.0
 11
50.7960348517
 21
142.8675709254
 31
0.0
  0
LINE
  5
25D
330
1F
100
AcDbEntity
  8
0
  6
Continuous
 62
     7
370
    15
100
AcDbLine
 10
36.4001191814
 20
142.6517797596
 30
0.0
 11
36.4001191814
 21
136.6517825014
 31
0.0
  0
LINE
  5
25E
330
1F
100
AcDbEntity
  8
0
  6
Continuous
 62
     7
370
    15
100
AcDbLine
 10
51.4001195446
 20
136.6517825014
 30
0.0
 11
51.4001195446
 21
142.6517797596
 31
0.0
  0
SPLINE
  5
25F
330
1F
100
AcDbEntity
  8
0
  6
Continuous
 62
     7
370
    15
100
AcDbSpline
210
0.0
220
0.0
230
1.0
 70
     8
 71
     3
 72
    10
 73
     6
 74
     0
 42
0.000000001
 43
0.00000001
 40
0.0
 40
0.0
 40
0.0
 40
0.0
 40
0.6068368777287725
 40
0.9873399538735584
 40
1.0
 40
1.0
 40
1.0
 40
1.0
 10
36.57186612358758
 20
136.2203380054921
 30
0.0
 10
36.53320889495709
 20
136.3065786905333
 30
0.0
 10
36.47031254219133
 20
136.4468946092186
 30
0.0
 10
36.4500857863851
 20
136.5927934753508
 30
0.0
 10
36.44642980692082
 20
136.6499422817044
 30
0.0
 10
36.4463120825819
 20
136.6517825014085
 30
0.0
  0
SPLINE
  5
260
330
1F
100
AcDbEntity
  8
0
  6
Continuous
 62
     7
370
    15
100
AcDbSpline
210
0.0
220
0.0
230
1.0
 70
     8
 71
     3
 72
    16
 73
    12
 74
     0
 42
0.000000001
 43
0.00000001
 40
0.0
 40
0.0
 40
0.0
 40
0.0
 40
0.0316444766593726
 40
0.144230353651953
 40
0.2602602197498698
 40
0.3918271594295291
 40
0.5492080592466592
 40
0.7249907346303576
 40
0.8558655920838522
 40
0.9874193683305444
 40
1.0
 40
1.0
 40
1.0
 40
1.0
 10
36.57186612358758
 20
136.2203380054921
 30
0.0
 10
36.58328396083102
 20
136.200240678859
 30
0.0
 10
36.63532459722042
 20
136.1086403481296
 30
0.0
 10
36.75482333146331
 20
135.9724666667266
 30
0.0
 10
36.92542347044256
 20
135.8531213612411
 30
0.0
 10
37.08615407403052
 20
135.7889087397251
 30
0.0
 10
37.2001696065449
 20
135.7781413442975
 30
0.0
 10
37.22000782747997
 20
135.8312599690579
 30
0.0
 10
37.16375076302653
 20
135.970000476495
 30
0.0
 10
37.1075360028743
 20
136.1196866521704
 30
0.0
 10
37.08247617664752
 20
136.2122580049604
 30
0.0
 10
37.08028885407814
 20
136.2203380054921
 30
0.0
  0
SPLINE
  5
261
330
1F
100
AcDbEntity
  8
0
  6
Continuous
 62
     7
370
    15
100
AcDbSpline
210
0.0
220
0.0
230
1.0
 70
     8
 71
     3
 72
    10
 73
     6
 74
     0
 42
0.000000001
 43
0.00000001
 40
0.0
 40
0.0
 40
0.0
 40
0.0
 40
0.0126598547043972
 40
0.3931625704940442
 40
1.0
 40
1.0
 40
1.0
 40
1.0
 10
37.08184043748745
 20
136.6517825014085
 30
0.0
 10
37.0814154665434
 20
136.6499422812506
 30
0.0
 10
37.06821763191994
 20
136.5927926768966
 30
0.0
 10
37.04390706562133
 20
136.446894901095
 30
0.0
 10
37.06643981283146
 20
136.3065788398494
 30
0.0
 10
37.08028885407814
 20
136.2203380054921
 30
0.0
  0
LINE
  5
262
330
1F
100
AcDbEntity
  8
0
  6
Continuous
 62
     7
370
    15
100
AcDbLine
 10
37.0818404375
 20
136.6517825014
 30
0.0
 11
37.8604921756
 21
136.6517825014
 31
0.0
  0
SPLINE
  5
263
330
1F
100
AcDbEntity
  8
0
  6
Continuous
 62
     7
370
    15
100
AcDbSpline
210
0.0
220
0.0
230
1.0
 70
     8
 71
     3
 72
    10
 73
     6
 74
     0
 42
0.000000001
 43
0.00000001
 40
0.0
 40
0.0
 40
0.0
 40
0.0
 40
0.6068375595916015
 40
0.987340776575011
 40
1.0
 40
1.0
 40
1.0
 40
1.0
 10
38.07529125001722
 20
136.2203380054921
 30
0.0
 10
38.02307163246711
 20
136.3065796133573
 30
0.0
 10
37.93810893210448
 20
136.4468969927561
 30
0.0
 10
37.88013855527064
 20
136.5927897918563
 30
0.0
 10
37.8611050258163
 20
136.6499422795642
 30
0.0
 10
37.86049217556113
 20
136.6517825014085
 30
0.0
  0
SPLINE
  5
264
330
1F
100
AcDbEntity
  8
0
  6
Continuous
 62
     7
370
    15
100
AcDbSpline
210
0.0
220
0.0
230
1.0
 70
     8
 71
     3
 72
    16
 73
    12
 74
     0
 42
0.000000001
 43
0.00000001
 40
0.0
 40
0.0
 40
0.0
 40
0.0
 40
0.0316446117682162
 40
0.1442302344545021
 40
0.260260213366949
 40
0.39182703252571
 40
0.549207639393173
 40
0.7249907025936441
 40
0.8558655659760683
 40
0.9874192281111139
 40
0.9999999999999999
 40
0.9999999999999999
 40
0.9999999999999999
 40
0.9999999999999999
 10
38.07529125001722
 20
136.2203380054921
 30
0.0
 10
38.08926255929634
 20
136.2002406928343
 30
0.0
 10
38.15294117945842
 20
136.1086408925978
 30
0.0
 10
38.30564398862263
 20
135.9724661908712
 30
0.0
 10
38.54893340573895
 20
135.8531215803907
 30
0.0
 10
38.82143599003278
 20
135.7889086911435
 30
0.0
 10
39.09337467349033
 20
135.7781413926192
 30
0.0
 10
39.29219259577836
 20
135.8312600047865
 30
0.0
 10
39.39888016306845
 20
135.969999965517
 30
0.0
 10
39.42543163339487
 20
136.1196877172211
 30
0.0
 10
39.43226320931403
 20
136.2122580089792
 30
0.0
 10
39.43285950331458
 20
136.2203380054921
 30
0.0
  0
SPLINE
  5
265
330
1F
100
AcDbEntity
  8
0
  6
Continuous
 62
     7
370
    15
100
AcDbSpline
210
0.0
220
0.0
230
1.0
 70
     8
 71
     3
 72
    10
 73
     6
 74
     0
 42
0.000000001
 43
0.00000001
 40
0.0
 40
0.0
 40
0.0
 40
0.0
 40
0.0126591568789697
 40
0.3931621872239527
 40
1.0
 40
1.0
 40
1.0
 40
1.0
 10
39.55745253583857
 20
136.6517825014085
 30
0.0
 10
39.55661621068031
 20
136.6499422794134
 30
0.0
 10
39.53064201416812
 20
136.5927895233889
 30
0.0
 10
39.46969964113742
 20
136.446897053247
 30
0.0
 10
39.44688301854362
 20
136.3065796550686
 30
0.0
 10
39.43285950331458
 20
136.2203380054921
 30
0.0
  0
LINE
  5
266
330
1F
100
AcDbEntity
  8
0
  6
Continuous
 62
     7
370
    15
100
AcDbLine
 10
39.5574525358
 20
136.6517825014
 30
0.0
 11
40.8929855224
 21
136.6517825014
 31
0.0
  0
SPLINE
  5
267
330
1F
100
AcDbEntity
  8
0
  6
Continuous
 62
     7
370
    15
100
AcDbSpline
210
0.0
220
0.0
230
1.0
 70
     8
 71
     3
 72
    10
 73
     6
 74
     0
 42
0.000000001
 43
0.00000001
 40
0.0
 40
0.0
 40
0.0
 40
0.0
 40
0.6068372297173156
 40
0.987340336921764
 40
1.0
 40
1.0
 40
1.0
 40
1.0
 10
41.13947424443879
 20
136.2203380054921
 30
0.0
 10
41.0876855004166
 20
136.3065791144413
 30
0.0
 10
41.00342383440864
 20
136.4468956958846
 30
0.0
 10
40.92323617530247
 20
136.5927917655229
 30
0.0
 10
40.89392919392034
 20
136.6499422807118
 30
0.0
 10
40.89298552239755
 20
136.6517825014085
 30
0.0
  0
SPLINE
  5
268
330
1F
100
AcDbEntity
  8
0
  6
Continuous
 62
     7
370
    15
100
AcDbSpline
210
0.0
220
0.0
230
1.0
 70
     8
 71
     3
 72
    16
 73
    12
 74
     0
 42
0.000000001
 43
0.00000001
 40
0.0
 40
0.0
 40
0.0
 40
0.0
 40
0.0316446305018674
 40
0.1442301952227084
 40
0.2602601003760383
 40
0.3918271414375083
 40
0.5492078159994027
 40
0.7249904664066678
 40
0.8558655130316187
 40
0.9874195638939157
 40
1.0
 40
1.0
 40
1.0
 40
1.0
 10
41.13947424443879
 20
136.2203380054921
 30
0.0
 10
41.15225546063274
 20
136.200240694893
 30
0.0
 10
41.21050980829303
 20
136.1086409831827
 30
0.0
 10
41.35549942980897
 20
135.9724661814537
 30
0.0
 10
41.60628981310547
 20
135.8531214534041
 30
0.0
 10
41.91754684153022
 20
135.7889087501412
 30
0.0
 10
42.27454237462399
 20
135.7781413988766
 30
0.0
 10
42.59906782460519
 20
135.8312598325892
 30
0.0
 10
42.8401140895033
 20
135.9700011553135
 30
0.0
 10
42.94231416863558
 20
136.1196850892688
 30
0.0
 10
42.97920865829907
 20
136.212257999092
 30
0.0
 10
42.98242890613594
 20
136.2203380054921
 30
0.0
  0
SPLINE
  5
269
330
1F
100
AcDbEntity
  8
0
  6
Continuous
 62
     7
370
    15
100
AcDbSpline
210
0.0
220
0.0
230
1.0
 70
     8
 71
     3
 72
    10
 73
     6
 74
     0
 42
0.000000001
 43
0.00000001
 40
0.0
 40
0.0
 40
0.0
 40
0.0
 40
0.01265955038118
 40
0.3931628076486979
 40
1.0
 40
1.0
 40
1.0
 40
1.0
 10
43.19667873310366
 20
136.6517825014085
 30
0.0
 10
43.19565510701587
 20
136.6499422804039
 30
0.0
 10
43.16386474365095
 20
136.59279124146
 30
0.0
 10
43.08261930300163
 20
136.4468961097725
 30
0.0
 10
43.02056722744586
 20
136.3065792626058
 30
0.0
 10
42.98242890613594
 20
136.2203380054921
 30
0.0
  0
LINE
  5
26A
330
1F
100
AcDbEntity
  8
0
  6
Continuous
 62
     7
370
    15
100
AcDbLine
 10
43.1966787331
 20
136.6517825014
 30
0.0
 11
44.7312380314
 21
136.6517825014
 31
0.0
  0
SPLINE
  5
26B
330
1F
100
AcDbEntity
  8
0
  6
Continuous
 62
     7
370
    15
100
AcDbSpline
210
0.0
220
0.0
230
1.0
 70
     8
 71
     3
 72
    10
 73
     6
 74
     0
 42
0.000000001
 43
0.00000001
 40
0.0
 40
0.0
 40
0.0
 40
0.0
 40
0.6068373243235874
 40
0.9873408416008274
 40
1.0
 40
1.0
 40
1.0
 40
1.0
 10
44.9433700308434
 20
136.2203380054921
 30
0.0
 10
44.9058883871246
 20
136.3065797343993
 30
0.0
 10
44.84490473274052
 20
136.4468973743784
 30
0.0
 10
44.76398906796267
 20
136.5927894576185
 30
0.0
 10
44.73225966337947
 20
136.6499422793626
 30
0.0
 10
44.73123803141036
 20
136.6517825014085
 30
0.0
  0
SPLINE
  5
26C
330
1F
100
AcDbEntity
  8
0
  6
Continuous
 62
     7
370
    15
100
AcDbSpline
210
0.0
220
0.0
230
1.0
 70
     8
 71
     3
 72
    16
 73
    12
 74
     0
 42
0.000000001
 43
0.00000001
 40
0.0
 40
0.0
 40
0.0
 40
0.0
 40
0.0316448795058378
 40
0.1442302467051592
 40
0.2602600652391034
 40
0.391827017589732
 40
0.5492077313579262
 40
0.7249906665193505
 40
0.8558653915046041
 40
0.9874193654009573
 40
1.0
 40
1.0
 40
1.0
 40
1.0
 10
44.9433700308434
 20
136.2203380054921
 30
0.0
 10
44.95153630953715
 20
136.200240714183
 30
0.0
 10
44.98875637196292
 20
136.1086417784663
 30
0.0
 10
45.08718414201539
 20
135.9724658373394
 30
0.0
 10
45.27827591980809
 20
135.8531215461021
 30
0.0
 10
45.54488633883803
 20
135.7889086869777
 30
0.0
 10
45.89128263697996
 20
135.7781414456168
 30
0.0
 10
46.25455889153672
 20
135.8312597263198
 30
0.0
 10
46.5653738414096
 20
135.9700007954096
 30
0.0
 10
46.71584219672945
 20
136.1196865380033
 30
0.0
 10
46.77291171220703
 20
136.2122580044065
 30
0.0
 10
46.77789296361127
 20
136.2203380054921
 30
0.0
  0
SPLINE
  5
26D
330
1F
100
AcDbEntity
  8
0
  6
Continuous
 62
     7
370
    15
100
AcDbSpline
210
0.0
220
0.0
230
1.0
 70
     8
 71
     3
 72
    10
 73
     6
 74
     0
 42
0.000000001
 43
0.00000001
 40
0.0
 40
0.0
 40
0.0
 40
0.0
 40
0.0126594544828072
 40
0.3931631106300143
 40
1.0
 40
1.0
 40
1.0
 40
1.0
 10
47.02439076604762
 20
136.6517825014085
 30
0.0
 10
47.023454335543
 20
136.6499422801114
 30
0.0
 10
46.99437172929143
 20
136.5927907551093
 30
0.0
 10
46.91458338728786
 20
136.4468966431739
 30
0.0
 10
46.82992530938114
 20
136.3065794337936
 30
0.0
 10
46.77789296361127
 20
136.2203380054921
 30
0.0
  0
LINE
  5
26E
330
1F
100
AcDbEntity
  8
0
  6
Continuous
 62
     7
370
    15
100
AcDbLine
 10
47.024390766
 20
136.6517825014
 30
0.0
 11
48.3467924536
 21
136.6517825014
 31
0.0
  0
SPLINE
  5
26F
330
1F
100
AcDbEntity
  8
0
  6
Continuous
 62
     7
370
    15
100
AcDbSpline
210
0.0
220
0.0
230
1.0
 70
     8
 71
     3
 72
    10
 73
     6
 74
     0
 42
0.000000001
 43
0.00000001
 40
0.0
 40
0.0
 40
0.0
 40
0.0
 40
0.6068375348804216
 40
0.9873402271697433
 40
1.0
 40
1.0
 40
1.0
 40
1.0
 10
48.46772748383203
 20
136.2203380054921
 30
0.0
 10
48.45459382122005
 20
136.3065789254445
 30
0.0
 10
48.43322501543346
 20
136.446895113226
 30
0.0
 10
48.3732766466405
 20
136.5927923159195
 30
0.0
 10
48.34761863762015
 20
136.6499422810418
 30
0.0
 10
48.34679245355048
 20
136.6517825014085
 30
0.0
  0
SPLINE
  5
270
330
1F
100
AcDbEntity
  8
0
  6
Continuous
 62
     7
370
    15
100
AcDbSpline
210
0.0
220
0.0
230
1.0
 70
     8
 71
     3
 72
    16
 73
    12
 74
     0
 42
0.000000001
 43
0.00000001
 40
0.0
 40
0.0
 40
0.0
 40
0.0
 40
0.0316443211296998
 40
0.1442304147812261
 40
0.2602600994112191
 40
0.3918269026340351
 40
0.5492074315070447
 40
0.7249902979547754
 40
0.8558654827091184
 40
0.9874191937934491
 40
1.0
 40
1.0
 40
1.0
 40
1.0
 10
48.46772748383203
 20
136.2203380054921
 30
0.0
 10
48.46909098407193
 20
136.2002406642391
 30
0.0
 10
48.47530562853684
 20
136.1086397778418
 30
0.0
 10
48.50079379999604
 20
135.9724671694628
 30
0.0
 10
48.58098592744997
 20
135.853121214194
 30
0.0
 10
48.73151209017531
 20
135.7889088271862
 30
0.0
 10
48.97449262565016
 20
135.7781412747707
 30
0.0
 10
49.27917883727604
 20
135.8312603310142
 30
0.0
 10
49.57648267500464
 20
135.9699996498345
 30
0.0
 10
49.73489674514478
 20
136.119687927458
 30
0.0
 10
49.79685188297572
 20
136.2122580098787
 30
0.0
 10
49.80225964786926
 20
136.2203380054921
 30
0.0
  0
SPLINE
  5
271
330
1F
100
AcDbEntity
  8
0
  6
Continuous
 62
     7
370
    15
100
AcDbSpline
210
0.0
220
0.0
230
1.0
 70
     8
 71
     3
 72
    10
 73
     6
 74
     0
 42
0.000000001
 43
0.00000001
 40
0.0
 40
0.0
 40
0.0
 40
0.0
 40
0.012659349644473
 40
0.3931627809101155
 40
1.0
 40
1.0
 40
1.0
 40
1.0
 10
50.01495696010509
 20
136.6517825014085
 30
0.0
 10
50.01435850237885
 20
136.649942279866
 30
0.0
 10
49.99577213652998
 20
136.5927903218712
 30
0.0
 10
49.93882719343545
 20
136.4468967846689
 30
0.0
 10
49.85424523314033
 20
136.3065795110048
 30
0.0
 10
49.80225964786926
 20
136.2203380054921
 30
0.0
  0
LINE
  5
272
330
1F
100
AcDbEntity
  8
0
  6
Continuous
 62
     7
370
    15
100
AcDbLine
 10
50.0149569601
 20
136.6517825014
 30
0.0
 11
50.7708649278
 21
136.6517825014
 31
0.0
  0
SPLINE
  5
273
330
1F
100
AcDbEntity
  8
0
  6
Continuous
 62
     7
370
    15
100
AcDbSpline
210
0.0
220
0.0
230
1.0
 70
     8
 71
     3
 72
    10
 73
     6
 74
     0
 42
0.000000001
 43
0.00000001
 40
0.0
 40
0.0
 40
0.0
 40
0.0
 40
0.6068370691452573
 40
0.9873408898751529
 40
1.0
 40
1.0
 40
1.0
 40
1.0
 10
50.76819761993804
 20
136.2203380054921
 30
0.0
 10
50.78293531520357
 20
136.3065798376524
 30
0.0
 10
50.80691395773883
 20
136.4468977114922
 30
0.0
 10
50.78397269223741
 20
136.5927891974877
 30
0.0
 10
50.77127380808125
 20
136.6499422792038
 30
0.0
 10
50.77086492779174
 20
136.6517825014085
 30
0.0
  0
SPLINE
  5
274
330
1F
100
AcDbEntity
  8
0
  6
Continuous
 62
     7
370
    15
100
AcDbSpline
210
0.0
220
0.0
230
1.0
 70
     8
 71
     3
 72
    16
 73
    12
 74
     0
 42
0.000000001
 43
0.00000001
 40
0.0
 40
0.0
 40
0.0
 40
0.0
 40
0.0316447828461381
 40
0.1442303454258917
 40
0.2602599710864823
 40
0.3918275622826499
 40
0.5492077184710021
 40
0.724990496643646
 40
0.8558655067499511
 40
0.987419586804677
 40
1.0
 40
1.0
 40
1.0
 40
1.0
 10
50.76819761993804
 20
136.2203380054921
 30
0.0
 10
50.76239273951882
 20
136.2002407034173
 30
0.0
 10
50.73593530063893
 20
136.1086413761453
 30
0.0
 10
50.68165922597519
 20
135.972466299298
 30
0.0
 10
50.62946056618686
 20
135.8531210731122
 30
0.0
 10
50.62357005875751
 20
135.7889090162143
 30
0.0
 10
50.69802762092588
 20
135.7781413890415
 30
0.0
 10
50.86248530001157
 20
135.8312597485811
 30
0.0
 10
51.06661287360676
 20
135.970001277359
 30
0.0
 10
51.1905294178283
 20
136.1196849079493
 30
0.0
 10
51.24076724373656
 20
136.2122579983939
 30
0.0
 10
51.24515212478557
 20
136.2203380054921
 30
0.0
  0
SPLINE
  5
275
330
1F
100
AcDbEntity
  8
0
  6
Continuous
 62
     7
370
    15
100
AcDbSpline
210
0.0
220
0.0
230
1.0
 70
     8
 71
     3
 72
    10
 73
     6
 74
     0
 42
0.000000001
 43
0.00000001
 40
0.0
 40
0.0
 40
0.0
 40
0.0
 40
0.0126599946108427
 40
0.3931632075182802
 40
1.0
 40
1.0
 40
1.0
 40
1.0
 10
51.36705759318986
 20
136.6517825014085
 30
0.0
 10
51.36695725049541
 20
136.649942281556
 30
0.0
 10
51.36384105204407
 20
136.5927932256544
 30
0.0
 10
51.34500952360953
 20
136.446894843951
 30
0.0
 10
51.28316368265595
 20
136.3065787695961
 30
0.0
 10
51.24515212478557
 20
136.2203380054921
 30
0.0
  0
LINE
  5
276
330
1F
100
AcDbEntity
  8
0
  6
Continuous
 62
     7
370
    15
100
AcDbLine
 10
50.4001193807
 20
135.6517804749
 30
0.0
 11
37.4001192289
 21
135.6517804749
 31
0.0
  0
SPLINE
  5
277
330
1F
100
AcDbEntity
  8
0
  6
Continuous
 62
     7
370
    15
100
AcDbSpline
210
0.0
220
0.0
230
1.0
 70
     8
 71
     3
 72
    10
 73
     6
 74
     0
 42
0.000000001
 43
0.00000001
 40
0.0
 40
0.0
 40
0.0
 40
0.0
 40
0.6068367924817197
 40
0.9873400053891572
 40
1.0
 40
1.0
 40
1.0
 40
1.0
 10
51.24515212478557
 20
143.0832242555112
 30
0.0
 10
51.28316368265596
 20
142.9969834914072
 30
0.0
 10
51.34500952360954
 20
142.8566674170523
 30
0.0
 10
51.36384105204405
 20
142.7107690353488
 30
0.0
 10
51.36695725049541
 20
142.6536199794473
 30
0.0
 10
51.36705759318986
 20
142.6517797595948
 30
0.0
  0
SPLINE
  5
278
330
1F
100
AcDbEntity
  8
0
  6
Continuous
 62
     7
370
    15
100
AcDbSpline
210
0.0
220
0.0
230
1.0
 70
     8
 71
     3
 72
    16
 73
    12
 74
     0
 42
0.000000001
 43
0.00000001
 40
0.0
 40
0.0
 40
0.0
 40
0.0
 40
0.0316443618823159
 40
0.1442302087176484
 40
0.2602600056314841
 40
0.3918268391330488
 40
0.5492077676213082
 40
0.7249905488900199
 40
0.8558655293557139
 40
0.9874190984143735
 40
1.0
 40
1.0
 40
1.0
 40
1.0
 10
51.24515212478557
 20
143.0832242555112
 30
0.0
 10
51.23387588151405
 20
143.1033215888721
 30
0.0
 10
51.18248047254196
 20
143.1949221904607
 30
0.0
 10
51.06468330699307
 20
143.3310954761351
 30
0.0
 10
50.89737760068463
 20
143.4504409243471
 30
0.0
 10
50.74123357352079
 20
143.5146535190921
 30
0.0
 10
50.63316175326592
 20
143.5254210075599
 30
0.0
 10
50.61954391973945
 20
143.4723019099455
 30
0.0
 10
50.68111098375494
 20
143.3335628569145
 30
0.0
 10
50.73989511270408
 20
143.1838735664165
 30
0.0
 10
50.76592553231147
 20
143.091304248285
 30
0.0
 10
50.76819761993804
 20
143.0832242555112
 30
0.0
  0
SPLINE
  5
279
330
1F
100
AcDbEntity
  8
0
  6
Continuous
 62
     7
370
    15
100
AcDbSpline
210
0.0
220
0.0
230
1.0
 70
     8
 71
     3
 72
    10
 73
     6
 74
     0
 42
0.000000001
 43
0.00000001
 40
0.0
 40
0.0
 40
0.0
 40
0.0
 40
0.0126591101248472
 40
0.3931629308547427
 40
1.0
 40
1.0
 40
1.0
 40
1.0
 10
50.77086492779174
 20
142.6517797595948
 30
0.0
 10
50.77127380808125
 20
142.6536199817995
 30
0.0
 10
50.78397269223738
 20
142.7107730635156
 30
0.0
 10
50.80691395773884
 20
142.856664549511
 30
0.0
 10
50.78293531520357
 20
142.9969824233509
 30
0.0
 10
50.76819761993804
 20
143.0832242555112
 30
0.0
  0
LINE
  5
27A
330
1F
100
AcDbEntity
  8
0
  6
Continuous
 62
     7
370
    15
100
AcDbLine
 10
50.7708649278
 20
142.6517797596
 30
0.0
 11
50.0149569601
 21
142.6517797596
 31
0.0
  0
SPLINE
  5
27B
330
1F
100
AcDbEntity
  8
0
  6
Continuous
 62
     7
370
    15
100
AcDbSpline
210
0.0
220
0.0
230
1.0
 70
     8
 71
     3
 72
    10
 73
     6
 74
     0
 42
0.000000001
 43
0.00000001
 40
0.0
 40
0.0
 40
0.0
 40
0.0
 40
0.6068372190898844
 40
0.987340650355527
 40
1.0
 40
1.0
 40
1.0
 40
1.0
 10
49.80225964786926
 20
143.0832242555112
 30
0.0
 10
49.85424523314034
 20
142.9969827499985
 30
0.0
 10
49.93882719343546
 20
142.8566654763344
 30
0.0
 10
49.99577213652998
 20
142.7107719391319
 30
0.0
 10
50.01435850237885
 20
142.6536199811373
 30
0.0
 10
50.01495696010509
 20
142.6517797595948
 30
0.0
  0
SPLINE
  5
27C
330
1F
100
AcDbEntity
  8
0
  6
Continuous
 62
     7
370
    15
100
AcDbSpline
210
0.0
220
0.0
230
1.0
 70
     8
 71
     3
 72
    16
 73
    12
 74
     0
 42
0.000000001
 43
0.00000001
 40
0.0
 40
0.0
 40
0.0
 40
0.0
 40
0.0316447867442418
 40
0.144230340649847
 40
0.2602603270265507
 40
0.3918270913366838
 40
0.5492075997110645
 40
0.7249906931274738
 40
0.8558657459058561
 40
0.9874195274895083
 40
1.0
 40
1.0
 40
1.0
 40
1.0
 10
49.80225964786926
 20
143.0832242555112
 30
0.0
 10
49.78831354160235
 20
143.103321555825
 30
0.0
 10
49.72475009673317
 20
143.1949208607544
 30
0.0
 10
49.57250655027684
 20
143.3310962951587
 30
0.0
 10
49.33062402814701
 20
143.4504405881213
 30
0.0
 10
49.0607378197374
 20
143.5146536083499
 30
0.0
 10
48.79299654393675
 20
143.5254207857314
 30
0.0
 10
48.59942270936922
 20
143.4723024800094
 30
0.0
 10
48.49783929639053
 20
143.3335614941128
 30
0.0
 10
48.47399995453085
 20
143.1838767327287
 30
0.0
 10
48.46823101433557
 20
143.0913042601807
 30
0.0
 10
48.46772748383203
 20
143.0832242555112
 30
0.0
  0
SPLINE
  5
27D
330
1F
100
AcDbEntity
  8
0
  6
Continuous
 62
     7
370
    15
100
AcDbSpline
210
0.0
220
0.0
230
1.0
 70
     8
 71
     3
 72
    10
 73
     6
 74
     0
 42
0.000000001
 43
0.00000001
 40
0.0
 40
0.0
 40
0.0
 40
0.0
 40
0.0126597728302566
 40
0.3931624651195784
 40
1.0
 40
1.0
 40
1.0
 40
1.0
 10
48.34679245355048
 20
142.6517797595948
 30
0.0
 10
48.34761863762015
 20
142.6536199799614
 30
0.0
 10
48.37327664664048
 20
142.7107699450838
 30
0.0
 10
48.43322501543347
 20
142.8566671477772
 30
0.0
 10
48.45459382122005
 20
142.9969833355588
 30
0.0
 10
48.46772748383203
 20
143.0832242555112
 30
0.0
  0
LINE
  5
27E
330
1F
100
AcDbEntity
  8
0
  6
Continuous
 62
     7
370
    15
100
AcDbLine
 10
48.3467924536
 20
142.6517797596
 30
0.0
 11
47.024390766
 21
142.6517797596
 31
0.0
  0
SPLINE
  5
27F
330
1F
100
AcDbEntity
  8
0
  6
Continuous
 62
     7
370
    15
100
AcDbSpline
210
0.0
220
0.0
230
1.0
 70
     8
 71
     3
 72
    10
 73
     6
 74
     0
 42
0.000000001
 43
0.00000001
 40
0.0
 40
0.0
 40
0.0
 40
0.0
 40
0.6068368893699857
 40
0.9873405455171927
 40
1.0
 40
1.0
 40
1.0
 40
1.0
 10
46.77789296361127
 20
143.0832242555112
 30
0.0
 10
46.82992530938115
 20
142.9969828272097
 30
0.0
 10
46.91458338728789
 20
142.8566656178295
 30
0.0
 10
46.99437172929139
 20
142.7107715058939
 30
0.0
 10
47.02345433554301
 20
142.6536199808918
 30
0.0
 10
47.02439076604762
 20
142.6517797595948
 30
0.0
  0
SPLINE
  5
280
330
1F
100
AcDbEntity
  8
0
  6
Continuous
 62
     7
370
    15
100
AcDbSpline
210
0.0
220
0.0
230
1.0
 70
     8
 71
     3
 72
    16
 73
    12
 74
     0
 42
0.000000001
 43
0.00000001
 40
0.0
 40
0.0
 40
0.0
 40
0.0
 40
0.0316446757711169
 40
0.1442302549258257
 40
0.260260160863917
 40
0.391826871289683
 40
0.549207460950372
 40
0.724990586974216
 40
0.855865562454702
 40
0.9874191836684153
 40
1.0
 40
1.0
 40
1.0
 40
1.0
 10
46.77789296361127
 20
143.0832242555112
 30
0.0
 10
46.76501401353037
 20
143.1033215634934
 30
0.0
 10
46.70631427311338
 20
143.1949211701557
 30
0.0
 10
46.56041886943432
 20
143.3310961110899
 30
0.0
 10
46.30877084597257
 20
143.4504406545586
 30
0.0
 10
45.99745935500084
 20
143.5146535924194
 30
0.0
 10
45.64178927010377
 20
143.5254208820915
 30
0.0
 10
45.32012664015418
 20
143.4723021459688
 30
0.0
 10
45.08260966928884
 20
143.3335625550977
 30
0.0
 10
44.98254217455928
 20
143.183874202428
 30
0.0
 10
44.9465146994906
 20
143.0913042506911
 30
0.0
 10
44.9433700308434
 20
143.0832242555112
 30
0.0
  0
SPLINE
  5
281
330
1F
100
AcDbEntity
  8
0
  6
Continuous
 62
     7
370
    15
100
AcDbSpline
210
0.0
220
0.0
230
1.0
 70
     8
 71
     3
 72
    10
 73
     6
 74
     0
 42
0.000000001
 43
0.00000001
 40
0.0
 40
0.0
 40
0.0
 40
0.0
 40
0.0126591583991726
 40
0.3931626756764127
 40
1.0
 40
1.0
 40
1.0
 40
1.0
 10
44.73123803141036
 20
142.6517797595948
 30
0.0
 10
44.73225966337947
 20
142.6536199816407
 30
0.0
 10
44.76398906796269
 20
142.7107728033847
 30
0.0
 10
44.8449047327405
 20
142.8566648866249
 30
0.0
 10
44.90588838712458
 20
142.996982526604
 30
0.0
 10
44.9433700308434
 20
143.0832242555112
 30
0.0
  0
LINE
  5
282
330
1F
100
AcDbEntity
  8
0
  6
Continuous
 62
     7
370
    15
100
AcDbLine
 10
44.7312380314
 20
142.6517797596
 30
0.0
 11
43.1966787331
 21
142.6517797596
 31
0.0
  0
SPLINE
  5
283
330
1F
100
AcDbEntity
  8
0
  6
Continuous
 62
     7
370
    15
100
AcDbSpline
210
0.0
220
0.0
230
1.0
 70
     8
 71
     3
 72
    10
 73
     6
 74
     0
 42
0.000000001
 43
0.00000001
 40
0.0
 40
0.0
 40
0.0
 40
0.0
 40
0.6068371923513021
 40
0.9873404496188201
 40
1.0
 40
1.0
 40
1.0
 40
1.0
 10
42.98242890613594
 20
143.0832242555112
 30
0.0
 10
43.02056722744587
 20
142.9969829983976
 30
0.0
 10
43.08261930300166
 20
142.8566661512308
 30
0.0
 10
43.16386474365091
 20
142.7107710195431
 30
0.0
 10
43.19565510701588
 20
142.6536199805994
 30
0.0
 10
43.19667873310366
 20
142.6517797595948
 30
0.0
  0
SPLINE
  5
284
330
1F
100
AcDbEntity
  8
0
  6
Continuous
 62
     7
370
    15
100
AcDbSpline
210
0.0
220
0.0
230
1.0
 70
     8
 71
     3
 72
    16
 73
    12
 74
     0
 42
0.000000001
 43
0.00000001
 40
0.0
 40
0.0
 40
0.0
 40
0.0
 40
0.0316447009311339
 40
0.1442303853202122
 40
0.2602601220066905
 40
0.3918269700130488
 40
0.5492076813231497
 40
0.7249904986917198
 40
0.8558654749459496
 40
0.9874194545730995
 40
1.0
 40
1.0
 40
1.0
 40
1.0
 10
42.98242890613594
 20
143.0832242555112
 30
0.0
 10
42.97406839986095
 20
143.1033215646232
 30
0.0
 10
42.93596284012956
 20
143.194921186419
 30
0.0
 10
42.83550575046345
 20
143.3310958778077
 30
0.0
 10
42.64152188505367
 20
143.4504408397588
 30
0.0
 10
42.37219901671573
 20
143.5146535442875
 30
0.0
 10
42.02390315967298
 20
143.525420855185
 30
0.0
 10
41.66034068600162
 20
143.4723024085509
 30
0.0
 10
41.35053344330175
 20
143.333561423926
 30
0.0
 10
41.20104931472967
 20
143.1838763537297
 30
0.0
 10
41.14441727874036
 20
143.0913042588578
 30
0.0
 10
41.13947424443879
 20
143.0832242555112
 30
0.0
  0
SPLINE
  5
285
330
1F
100
AcDbEntity
  8
0
  6
Continuous
 62
     7
370
    15
100
AcDbSpline
210
0.0
220
0.0
230
1.0
 70
     8
 71
     3
 72
    10
 73
     6
 74
     0
 42
0.000000001
 43
0.00000001
 40
0.0
 40
0.0
 40
0.0
 40
0.0
 40
0.012659663078236
 40
0.3931627702826843
 40
1.0
 40
1.0
 40
1.0
 40
1.0
 10
40.89298552239755
 20
142.6517797595948
 30
0.0
 10
40.89392919392034
 20
142.6536199802915
 30
0.0
 10
40.92323617530246
 20
142.7107704954804
 30
0.0
 10
41.00342383440865
 20
142.8566665651188
 30
0.0
 10
41.0876855004166
 20
142.9969831465619
 30
0.0
 10
41.13947424443879
 20
143.0832242555112
 30
0.0
  0
LINE
  5
286
330
1F
100
AcDbEntity
  8
0
  6
Continuous
 62
     7
370
    15
100
AcDbLine
 10
40.8929855224
 20
142.6517797596
 30
0.0
 11
39.5574525358
 21
142.6517797596
 31
0.0
  0
SPLINE
  5
287
330
1F
100
AcDbEntity
  8
0
  6
Continuous
 62
     7
370
    15
100
AcDbSpline
210
0.0
220
0.0
230
1.0
 70
     8
 71
     3
 72
    10
 73
     6
 74
     0
 42
0.000000001
 43
0.00000001
 40
0.0
 40
0.0
 40
0.0
 40
0.0
 40
0.6068378127760472
 40
0.9873408431210303
 40
1.0
 40
1.0
 40
1.0
 40
1.0
 10
39.43285950331458
 20
143.0832242555112
 30
0.0
 10
39.44688301854362
 20
142.9969826059347
 30
0.0
 10
39.46969964113742
 20
142.8566652077564
 30
0.0
 10
39.53064201416812
 20
142.7107727376141
 30
0.0
 10
39.55661621068031
 20
142.6536199815899
 30
0.0
 10
39.55745253583857
 20
142.6517797595948
 30
0.0
  0
SPLINE
  5
288
330
1F
100
AcDbEntity
  8
0
  6
Continuous
 62
     7
370
    15
100
AcDbSpline
210
0.0
220
0.0
230
1.0
 70
     8
 71
     3
 72
    16
 73
    12
 74
     0
 42
0.000000001
 43
0.00000001
 40
0.0
 40
0.0
 40
0.0
 40
0.0
 40
0.0316445074574671
 40
0.1442300598199772
 40
0.2602603920645927
 40
0.3918269499985425
 40
0.5492077531830474
 40
0.7249906100420555
 40
0.8558656085615028
 40
0.9874194460210552
 40
1.0
 40
1.0
 40
1.0
 40
1.0
 10
39.43285950331458
 20
143.0832242555112
 30
0.0
 10
39.43125725543939
 20
143.1033215720726
 30
0.0
 10
39.42395449342941
 20
143.1949215811347
 30
0.0
 10
39.3958548501151
 20
143.3310963576293
 30
0.0
 10
39.31151292007057
 20
143.4504403482542
 30
0.0
 10
39.15634428864448
 20
143.5146537356077
 30
0.0
 10
38.90874717323783
 20
143.5254208119264
 30
0.0
 10
38.6007017160525
 20
143.4723023719014
 30
0.0
 10
38.3016173668733
 20
143.3335616153243
 30
0.0
 10
38.14276935256269
 20
143.1838761970067
 30
0.0
 10
38.08070816739679
 20
143.0913042582173
 30
0.0
 10
38.07529125001722
 20
143.0832242555112
 30
0.0
  0
SPLINE
  5
289
330
1F
100
AcDbEntity
  8
0
  6
Continuous
 62
     7
370
    15
100
AcDbSpline
210
0.0
220
0.0
230
1.0
 70
     8
 71
     3
 72
    10
 73
     6
 74
     0
 42
0.000000001
 43
0.00000001
 40
0.0
 40
0.0
 40
0.0
 40
0.0
 40
0.0126592234249889
 40
0.3931624404083984
 40
1.0
 40
1.0
 40
1.0
 40
1.0
 10
37.86049217556113
 20
142.6517797595948
 30
0.0
 10
37.8611050258163
 20
142.6536199814391
 30
0.0
 10
37.88013855527063
 20
142.7107724691469
 30
0.0
 10
37.93810893210448
 20
142.8566652682472
 30
0.0
 10
38.02307163246711
 20
142.996982647646
 30
0.0
 10
38.07529125001722
 20
143.0832242555112
 30
0.0
  0
LINE
  5
28A
330
1F
100
AcDbEntity
  8
0
  6
Continuous
 62
     7
370
    15
100
AcDbLine
 10
37.8604921756
 20
142.6517797596
 30
0.0
 11
37.0818404375
 21
142.6517797596
 31
0.0
  0
SPLINE
  5
28B
330
1F
100
AcDbEntity
  8
0
  6
Continuous
 62
     7
370
    15
100
AcDbSpline
210
0.0
220
0.0
230
1.0
 70
     8
 71
     3
 72
    10
 73
     6
 74
     0
 42
0.000000001
 43
0.00000001
 40
0.0
 40
0.0
 40
0.0
 40
0.0
 40
0.6068374295059559
 40
0.9873401452956029
 40
1.0
 40
1.0
 40
1.0
 40
1.0
 10
37.08028885407814
 20
143.0832242555112
 30
0.0
 10
37.06643981283146
 20
142.9969834211539
 30
0.0
 10
37.04390706562134
 20
142.8566673599083
 30
0.0
 10
37.06821763191993
 20
142.7107695841066
 30
0.0
 10
37.0814154665434
 20
142.6536199797526
 30
0.0
 10
37.08184043748745
 20
142.6517797595948
 30
0.0
  0
SPLINE
  5
28C
330
1F
100
AcDbEntity
  8
0
  6
Continuous
 62
     7
370
    15
100
AcDbSpline
210
0.0
220
0.0
230
1.0
 70
     8
 71
     3
 72
    16
 73
    12
 74
     0
 42
0.000000001
 43
0.00000001
 40
0.0
 40
0.0
 40
0.0
 40
0.0
 40
0.0316445915729437
 40
0.1442301723396102
 40
0.2602597854599227
 40
0.3918267633942794
 40
0.549207839537823
 40
0.7249907402035534
 40
0.8558657070253184
 40
0.9874194072146707
 40
1.0
 40
1.0
 40
1.0
 40
1.0
 10
37.08028885407814
 20
143.0832242555112
 30
0.0
 10
37.0858741994696
 20
143.1033215697468
 30
0.0
 10
37.11133116662715
 20
143.1949213961842
 30
0.0
 10
37.16311850756215
 20
143.3310957904182
 30
0.0
 10
37.21101672762691
 20
143.4504409835649
 30
0.0
 10
37.21158064196206
 20
143.5146535314529
 30
0.0
 10
37.13102507803985
 20
143.5254209069335
 30
0.0
 10
36.96103763418453
 20
143.472302320341
 30
0.0
 10
36.75281522827989
 20
143.333561846222
 30
0.0
 10
36.62716640226789
 20
143.1838758306581
 30
0.0
 10
36.57630546120134
 20
143.0913042568077
 30
0.0
 10
36.57186612358758
 20
143.0832242555112
 30
0.0
  0
SPLINE
  5
28D
330
1F
100
AcDbEntity
  8
0
  6
Continuous
 62
     7
370
    15
100
AcDbSpline
210
0.0
220
0.0
230
1.0
 70
     8
 71
     3
 72
    10
 73
     6
 74
     0
 42
0.000000001
 43
0.00000001
 40
0.0
 40
0.0
 40
0.0
 40
0.0
 40
0.0126600461264416
 40
0.3931631222712275
 40
1.0
 40
1.0
 40
1.0
 40
1.0
 10
36.4463120825819
 20
142.6517797595948
 30
0.0
 10
36.44642980692082
 20
142.6536199792988
 30
0.0
 10
36.45008578638509
 20
142.7107687856524
 30
0.0
 10
36.47031254219134
 20
142.8566676517847
 30
0.0
 10
36.53320889495709
 20
142.99698357047
 30
0.0
 10
36.57186612358758
 20
143.0832242555112
 30
0.0
  0
LINE
  5
28E
330
1F
100
AcDbEntity
  8
0
  6
Continuous
 62
     7
370
    15
100
AcDbLine
 10
37.4001192289
 20
143.6517817862
 30
0.0
 11
50.4001193807
 21
143.6517817862
 31
0.0
  0
LINE
  5
28F
330
1F
100
AcDbEntity
  8
0
  6
Continuous
 62
     7
370
    15
100
AcDbLine
 10
41.1394742444
 20
143.0832242555
 30
0.0
 11
41.1394742444
 21
136.2203380055
 31
0.0
  0
LINE
  5
290
330
1F
100
AcDbEntity
  8
0
  6
Continuous
 62
     7
370
    15
100
AcDbLine
 10
42.9824289061
 20
136.2203380055
 30
0.0
 11
42.9824289061
 21
143.0832242555
 31
0.0
  0
LINE
  5
291
330
1F
100
AcDbEntity
  8
0
  6
Continuous
 62
     7
370
    15
100
AcDbLine
 10
44.7312380314
 20
136.6517825014
 30
0.0
 11
44.7312380314
 21
142.6517797596
 31
0.0
  0
LINE
  5
292
330
1F
100
AcDbEntity
  8
0
  6
Continuous
 62
     7
370
    15
100
AcDbLine
 10
43.1966787331
 20
142.6517797596
 30
0.0
 11
43.1966787331
 21
136.6517825014
 31
0.0
  0
LINE
  5
293
330
1F
100
AcDbEntity
  8
0
  6
Continuous
 62
     7
370
    15
100
AcDbLine
 10
44.9433700308
 20
143.0832242555
 30
0.0
 11
44.9433700308
 21
136.2203380055
 31
0.0
  0
LINE
  5
294
330
1F
100
AcDbEntity
  8
0
  6
Continuous
 62
     7
370
    15
100
AcDbLine
 10
46.7778929636
 20
136.2203380055
 30
0.0
 11
46.7778929636
 21
143.0832242555
 31
0.0
  0
LINE
  5
295
330
1F
100
AcDbEntity
  8
0
  6
Continuous
 62
     7
370
    15
100
AcDbLine
 10
40.8929855224
 20
136.6517825014
 30
0.0
 11
40.8929855224
 21
142.6517797596
 31
0.0
  0
LINE
  5
296
330
1F
100
AcDbEntity
  8
0
  6
Continuous
 62
     7
370
    15
100
AcDbLine
 10
39.5574525358
 20
142.6517797596
 30
0.0
 11
39.5574525358
 21
136.6517825014
 31
0.0
  0
LINE
  5
297
330
1F
100
AcDbEntity
  8
0
  6
Continuous
 62
     7
370
    15
100
AcDbLine
 10
47.024390766
 20
142.6517797596
 30
0.0
 11
47.024390766
 21
136.6517825014
 31
0.0
  0
LINE
  5
298
330
1F
100
AcDbEntity
  8
0
  6
Continuous
 62
     7
370
    15
100
AcDbLine
 10
48.3467924536
 20
136.6517825014
 30
0.0
 11
48.3467924536
 21
142.6517797596
 31
0.0
  0
LINE
  5
299
330
1F
100
AcDbEntity
  8
0
  6
Continuous
 62
     7
370
    15
100
AcDbLine
 10
38.07529125
 20
143.0832242555
 30
0.0
 11
38.07529125
 21
136.2203380055
 31
0.0
  0
LINE
  5
29A
330
1F
100
AcDbEntity
  8
0
  6
Continuous
 62
     7
370
    15
100
AcDbLine
 10
39.4328595033
 20
136.2203380055
 30
0.0
 11
39.4328595033
 21
143.0832242555
 31
0.0
  0
LINE
  5
29B
330
1F
100
AcDbEntity
  8
0
  6
Continuous
 62
     7
370
    15
100
AcDbLine
 10
48.4677274838
 20
143.0832242555
 30
0.0
 11
48.4677274838
 21
136.2203380055
 31
0.0
  0
LINE
  5
29C
330
1F
100
AcDbEntity
  8
0
  6
Continuous
 62
     7
370
    15
100
AcDbLine
 10
49.8022596479
 20
136.2203380055
 30
0.0
 11
49.8022596479
 21
143.0832242555
 31
0.0
  0
LINE
  5
29D
330
1F
100
AcDbEntity
  8
0
  6
Continuous
 62
     7
370
    15
100
AcDbLine
 10
37.8604921756
 20
136.6517825014
 30
0.0
 11
37.8604921756
 21
142.6517797596
 31
0.0
  0
LINE
  5
29E
330
1F
100
AcDbEntity
  8
0
  6
Continuous
 62
     7
370
    15
100
AcDbLine
 10
50.0149569601
 20
142.6517797596
 30
0.0
 11
50.0149569601
 21
136.6517825014
 31
0.0
  0
LINE
  5
29F
330
1F
100
AcDbEntity
  8
0
  6
Continuous
 62
     7
370
    15
100
AcDbLine
 10
37.0818404375
 20
142.6517797596
 30
0.0
 11
37.0818404375
 21
136.6517825014
 31
0.0
  0
LINE
  5
2A0
330
1F
100
AcDbEntity
  8
0
  6
Continuous
 62
     7
370
    15
100
AcDbLine
 10
50.7708649278
 20
136.6517825014
 30
0.0
 11
50.7708649278
 21
142.6517797596
 31
0.0
  0
LINE
  5
2A1
330
1F
100
AcDbEntity
  8
0
  6
Continuous
 62
     7
370
    15
100
AcDbLine
 10
36.5718661236
 20
143.0832242555
 30
0.0
 11
36.5718661236
 21
136.2203380055
 31
0.0
  0
LINE
  5
2A2
330
1F
100
AcDbEntity
  8
0
  6
Continuous
 62
     7
370
    15
100
AcDbLine
 10
51.2451521248
 20
136.2203380055
 30
0.0
 11
51.2451521248
 21
143.0832242555
 31
0.0
  0
LINE
  5
2A3
330
1F
100
AcDbEntity
  8
0
  6
Continuous
 62
     7
370
    15
100
AcDbLine
 10
36.4463120826
 20
136.6517825014
 30
0.0
 11
36.4463120826
 21
142.6517797596
 31
0.0
  0
LINE
  5
2A4
330
1F
100
AcDbEntity
  8
0
  6
Continuous
 62
     7
370
    15
100
AcDbLine
 10
51.3670575932
 20
142.6517797596
 30
0.0
 11
51.3670575932
 21
136.6517825014
 31
0.0
  0
LINE
  5
2A5
330
1F
100
AcDbEntity
  8
0
  6
Continuous
 62
     7
370
    15
100
AcDbLine
 10
40.4001193714
 20
77.0201982892
 30
0.0
 11
40.4001193714
 21
72.0201974697
 31
0.0
  0
LINE
  5
2A6
330
1F
100
AcDbEntity
  8
0
  6
Continuous
 62
     7
370
    15
100
AcDbLine
 10
40.4001193714
 20
72.0201974697
 30
0.0
 11
38.4001192764
 21
72.0201974697
 31
0.0
  0
LINE
  5
2A7
330
1F
100
AcDbEntity
  8
0
  6
Continuous
 62
     7
370
    15
100
AcDbLine
 10
38.4001192764
 20
72.0201974697
 30
0.0
 11
38.4001192764
 21
77.0201982892
 31
0.0
  0
LINE
  5
2A8
330
1F
100
AcDbEntity
  8
0
  6
Continuous
 62
     7
370
    15
100
AcDbLine
 10
38.4001192764
 20
77.0201982892
 30
0.0
 11
40.4001193714
 21
77.0201982892
 31
0.0
  0
LINE
  5
2A9
330
1F
100
AcDbEntity
  8
0
  6
Continuous
 62
     7
370
    15
100
AcDbLine
 10
57.4001186654
 20
77.0201982892
 30
0.0
 11
57.4001186654
 21
78.0201984531
 31
0.0
  0
LINE
  5
2AA
330
1F
100
AcDbEntity
  8
0
  6
Continuous
 62
     7
370
    15
100
AcDbLine
 10
57.4001186654
 20
78.0201984531
 30
0.0
 11
68.4001186058
 21
78.0201984531
 31
0.0
  0
LINE
  5
2AB
330
1F
100
AcDbEntity
  8
0
  6
Continuous
 62
     7
370
    15
100
AcDbLine
 10
68.4001186058
 20
72.0201974697
 30
0.0
 11
68.4001186058
 21
78.0201984531
 31
0.0
  0
LINE
  5
2AC
330
1F
100
AcDbEntity
  8
0
  6
Continuous
 62
     7
370
    15
100
AcDbLine
 10
40.4001193714
 20
72.0201974697
 30
0.0
 11
68.4001186058
 21
72.0201974697
 31
0.0
  0
LINE
  5
2AD
330
1F
100
AcDbEntity
  8
0
  6
Continuous
 62
     7
370
    15
100
AcDbLine
 10
40.4001193714
 20
77.0201982892
 30
0.0
 11
57.4001186654
 21
77.0201982892
 31
0.0
  0
LINE
  5
2AE
330
1F
100
AcDbEntity
  8
0
  6
Continuous
 62
     7
370
    15
100
AcDbLine
 10
73.4001194254
 20
78.0201984531
 30
0.0
 11
73.4001194254
 21
72.0201974697
 31
0.0
  0
LINE
  5
2AF
330
1F
100
AcDbEntity
  8
0
  6
Continuous
 62
     7
370
    15
100
AcDbLine
 10
68.4001186058
 20
78.0201984531
 30
0.0
 11
73.4001194254
 21
78.0201984531
 31
0.0
  0
LINE
  5
2B0
330
1F
100
AcDbEntity
  8
0
  6
Continuous
 62
     7
370
    15
100
AcDbLine
 10
73.4001194254
 20
72.0201974697
 30
0.0
 11
68.4001186058
 21
72.0201974697
 31
0.0
  0
LINE
  5
2B1
330
1F
100
AcDbEntity
  8
0
  6
Continuous
 62
     7
370
    15
100
AcDbLine
 10
40.4001193714
 20
135.0201984829
 30
0.0
 11
40.4001193714
 21
77.0201982892
 31
0.0
  0
LINE
  5
2B2
330
1F
100
AcDbEntity
  8
0
  6
Continuous
 62
     7
370
    15
100
AcDbLine
 10
38.4001192764
 20
77.0201982892
 30
0.0
 11
38.4001192764
 21
135.0201984829
 31
0.0
  0
LINE
  5
2B3
330
1F
100
AcDbEntity
  8
0
  6
Continuous
 62
     7
370
    15
100
AcDbLine
 10
38.4001192764
 20
135.0201984829
 30
0.0
 11
40.4001193714
 21
135.0201984829
 31
0.0
  0
LINE
  5
2B4
330
1F
100
AcDbEntity
  8
0
  6
Continuous
 62
     7
370
    15
100
AcDbLine
 10
57.4001186654
 20
135.0201984829
 30
0.0
 11
57.4001186654
 21
77.0201982892
 31
0.0
  0
CIRCLE
  5
2B5
330
1F
100
AcDbEntity
  8
0
  6
Continuous
 62
     7
370
    15
100
AcDbCircle
 10
43.4001192764
 20
97.0201985138
 30
0.0
 40
1.649999999999999
  0
LINE
  5
2B6
330
1F
100
AcDbEntity
  8
0
  6
Continuous
 62
     7
370
    15
100
AcDbLine
 10
57.4001186654
 20
135.0201984829
 30
0.0
 11
40.4001193714
 21
135.0201984829
 31
0.0
  0
LINE
  5
2B7
330
1F
100
AcDbEntity
  8
0
  6
Continuous
 62
     8
370
    15
100
AcDbLine
 10
36.4001191814
 20
136.6517825014
 30
0.0
 11
36.4463120826
 21
136.6517825014
 31
0.0
  0
LINE
  5
2B8
330
1F
100
AcDbEntity
  8
0
  6
Continuous
 62
     8
370
    15
100
AcDbLine
 10
51.3670575932
 20
136.6517825014
 30
0.0
 11
51.4001195446
 21
136.6517825014
 31
0.0
  0
LINE
  5
2B9
330
1F
100
AcDbEntity
  8
0
  6
Continuous
 62
     8
370
    15
100
AcDbLine
 10
51.4001195446
 20
142.6517797596
 30
0.0
 11
51.3670575932
 21
142.6517797596
 31
0.0
  0
LINE
  5
2BA
330
1F
100
AcDbEntity
  8
0
  6
Continuous
 62
     8
370
    15
100
AcDbLine
 10
36.4463120826
 20
142.6517797596
 30
0.0
 11
36.4001191814
 21
142.6517797596
 31
0.0
  0
LINE
  5
2BB
330
1F
100
AcDbEntity
  8
DIM
  6
CENTERX2
 62
     7
100
AcDbLine
 10
63.1501192764
 20
74.0201985138
 30
0.0
 11
63.1501192764
 21
72.0201985138
 31
0.0
  0
LINE
  5
2BC
330
1F
100
AcDbEntity
  8
DIM
  6
CENTERX2
 62
     7
100
AcDbLine
 10
67.6501192764
 20
72.0201985138
 30
0.0
 11
67.6501192764
 21
74.0201985138
 31
0.0
  0
LINE
  5
2BD
330
1F
100
AcDbEntity
  8
DIM
  6
CENTERX2
 62
     7
100
AcDbLine
 10
69.4001192764
 20
74.0201985138
 30
0.0
 11
69.4001192764
 21
78.0201985138
 31
0.0
  0
LINE
  5
2BE
330
1F
100
AcDbEntity
  8
DIM
  6
CENTERX2
 62
     7
100
AcDbLine
 10
61.4001192764
 20
78.0201985138
 30
0.0
 11
61.4001192764
 21
74.0201985138
 31
0.0
  0
LINE
  5
2BF
330
1F
100
AcDbEntity
  8
DIM
  6
CENTERX2
 62
     7
100
AcDbLine
 10
69.4001192764
 20
74.0201985138
 30
0.0
 11
61.4001192764
 21
74.0201985138
 31
0.0
  0
DIMENSION
  5
2C0
330
1F
100
AcDbEntity
  8
DIM
 62
     7
100
AcDbDimension
  2
_D_5
 10
38.4001192764
 20
60.6573481639
 30
0.0
 11
47.9001192764
 21
60.6573481639
 31
0.0
 70
   160
  1
<>
 71
     2
 42
-1.0
  3
SLDDIMSTYLE0
100
AcDbAlignedDimension
 13
57.4001192764
 23
77.0201985138
 33
0.0
 14
38.4001192764
 24
77.0201985138
 34
0.0
100
AcDbRotatedDimension
  0
DIMENSION
  5
2CA
330
1F
100
AcDbEntity
  8
DIM
 62
     7
100
AcDbDimension
  2
_D_6
 10
43.4001192764
 20
65.6908263109
 30
0.0
 11
40.9001192764
 21
65.6908263109
 31
0.0
 70
   160
  1
<>
 71
     2
 42
-1.0
  3
SLDDIMSTYLE3
100
AcDbAlignedDimension
 13
38.4001192764
 23
77.0201985138
 33
0.0
 14
43.4001192764
 24
97.0201985138
 34
0.0
100
AcDbRotatedDimension
  0
DIMENSION
  5
2D7
330
1F
100
AcDbEntity
  8
DIM
 62
     7
100
AcDbDimension
  2
_D_7
 10
38.4001192764
 20
55.7105902185
 30
0.0
 11
51.9001192764
 21
55.7105902185
 31
0.0
 70
   160
  1
<>
 71
     2
 42
-1.0
  3
SLDDIMSTYLE0
100
AcDbAlignedDimension
 13
65.4001192764
 23
70.0201985138
 33
0.0
 14
38.4001192764
 24
72.0201985138
 34
0.0
100
AcDbRotatedDimension
  0
DIMENSION
  5
2E1
330
1F
100
AcDbEntity
  8
DIM
 62
     7
100
AcDbDimension
  2
_D_8
 10
73.4001192764
 20
50.7421633883
 30
0.0
 11
55.9001192764
 21
50.7421633883
 31
0.0
 70
   160
  1
<>
 71
     2
 42
-1.0
  3
SLDDIMSTYLE0
100
AcDbAlignedDimension
 13
38.4001192764
 23
72.0201985138
 33
0.0
 14
73.4001192764
 24
72.0201985138
 34
0.0
100
AcDbRotatedDimension
  0
DIMENSION
  5
2EB
330
1F
100
AcDbEntity
  8
DIM
 62
     7
100
AcDbDimension
  2
_D_9
 10
80.0583636905
 20
72.0201985138
 30
0.0
 11
80.0583636905
 21
75.0201985138
 31
0.0
 70
   160
  1
<>
 71
     2
 42
-1.0
  3
SLDDIMSTYLE0
100
AcDbAlignedDimension
 13
73.4001192764
 23
78.0201985138
 33
0.0
 14
73.4001192764
 24
72.0201985138
 34
0.0
 50
90.0
100
AcDbRotatedDimension
  0
DIMENSION
  5
2F5
330
1F
100
AcDbEntity
  8
DIM
 62
     7
100
AcDbDimension
  2
_D_10
 10
31.8136442275
 20
72.0201985138
 30
0.0
 11
31.8136442275
 21
84.5201985138
 31
0.0
 70
   160
  1
<>
 71
     2
 42
-1.0
  3
SLDDIMSTYLE0
100
AcDbAlignedDimension
 13
43.4001192764
 23
97.0201985138
 33
0.0
 14
38.4001192764
 24
72.0201985138
 34
0.0
 50
90.0
100
AcDbRotatedDimension
  0
DIMENSION
  5
2FF
330
1F
100
AcDbEntity
  8
DIM
100
AcDbDimension
  2
_D_11
 10
41.9711773601
 20
96.1951985138
 30
0.0
 11
69.6890012541
 21
111.5113176013
 31
0.0
 70
   163
  1
1 HOLE,\P M4
 71
     1
 42
-1.0
  3
SLDDIMSTYLE4
100
AcDbDiametricDimension
 15
44.8290611926
 25
97.8451985138
 35
0.0
 40
0.0
  0
INSERT
  5
314
330
1F
100
AcDbEntity
  8
DIM
 62
     7
100
AcDbBlockReference
  2
SW_CENTERMARKSYMBOL_1
 10
43.4001192764
 20
97.0201985138
 30
0.0
  0
LINE
  5
315
330
1F
100
AcDbEntity
  8
DIM
  6
CENTERX2
 62
     7
370
     0
100
AcDbLine
 10
65.4001192764
 20
70.0201985138
 30
0.0
 11
65.4001192764
 21
79.2918395011
 31
0.0
  0
LINE
  5
316
330
1F
100
AcDbEntity
  8
0
  6
Continuous
 62
     7
370
    15
100
AcDbLine
 10
242.1119557718
 20
145.7993101081
 30
0.0
 11
241.8243107007
 21
145.6332561432
 31
0.0
  0
LINE
  5
317
330
1F
100
AcDbEntity
  8
0
  6
Continuous
 62
     7
370
    15
100
AcDbLine
 10
246.3545964589
 20
143.3500857726
 30
0.0
 11
246.0669513878
 21
143.1840318077
 31
0.0
  0
SPLINE
  5
318
330
1F
100
AcDbEntity
  8
0
  6
Continuous
 62
     7
370
    15
100
AcDbSpline
210
0.0
220
0.0
230
1.0
 70
     8
 71
     3
 72
    10
 73
     6
 74
     0
 42
0.000000001
 43
0.00000001
 40
0.0
 40
0.0
 40
0.0
 40
0.0
 40
0.187820786617391
 40
0.7401647715430594
 40
1.0
 40
1.0
 40
1.0
 40
1.0
 10
250.721283152874
 20
169.2809984842249
 30
0.0
 10
250.6598487408955
 20
169.2143884396633
 30
0.0
 10
250.4177478088003
 20
168.9518913577197
 30
0.0
 10
250.1768194170792
 20
168.5491906963894
 30
0.0
 10
250.063774072133
 20
168.1992147496884
 30
0.0
 10
250.027608208065
 20
168.087249214783
 30
0.0
  0
SPLINE
  5
319
330
1F
100
AcDbEntity
  8
0
  6
Continuous
 62
     7
370
    15
100
AcDbSpline
210
0.0
220
0.0
230
1.0
 70
     8
 71
     3
 72
    11
 73
     7
 74
     0
 42
0.000000001
 43
0.00000001
 40
0.0
 40
0.0
 40
0.0
 40
0.0
 40
0.1348366445670864
 40
0.5616445572784179
 40
0.9912363580214547
 40
1.0
 40
1.0
 40
1.0
 40
1.0
 10
253.6631202444738
 20
171.1627941420544
 30
0.0
 10
253.5643495423775
 20
171.131966340501
 30
0.0
 10
253.1529329914165
 20
171.0035571308914
 30
0.0
 10
252.5101091061338
 20
170.6877573705248
 30
0.0
 10
251.9627125444243
 20
170.3989535337212
 30
0.0
 10
251.7378430491393
 20
170.2164085954556
 30
0.0
 10
251.7333474376867
 20
170.212759140406
 30
0.0
  0
SPLINE
  5
31A
330
1F
100
AcDbEntity
  8
0
  6
Continuous
 62
     7
370
    15
100
AcDbSpline
210
0.0
220
0.0
230
1.0
 70
     8
 71
     3
 72
    12
 73
     8
 74
     0
 42
0.000000001
 43
0.00000001
 40
0.0
 40
0.0
 40
0.0
 40
0.0
 40
0.1764842976472503
 40
0.3994570748690927
 40
0.6227161135361957
 40
0.8465893130322008
 40
1.0
 40
1.0
 40
1.0
 40
1.0
 10
258.1324397508367
 20
171.7244846516969
 30
0.0
 10
257.8604073835964
 20
171.740223282434
 30
0.0
 10
257.2446854460861
 20
171.77584632358
 30
0.0
 10
256.2793513461918
 20
171.7280658397263
 30
0.0
 10
255.2646299745805
 20
171.5965638468149
 30
0.0
 10
254.3814152329018
 20
171.4101149462189
 30
0.0
 10
253.8707615755462
 20
171.2342884748925
 30
0.0
 10
253.6631202444738
 20
171.1627941420544
 30
0.0
  0
SPLINE
  5
31B
330
1F
100
AcDbEntity
  8
0
  6
Continuous
 62
     7
370
    15
100
AcDbSpline
210
0.0
220
0.0
230
1.0
 70
     8
 71
     3
 72
    11
 73
     7
 74
     0
 42
0.000000001
 43
0.00000001
 40
0.0
 40
0.0
 40
0.0
 40
0.0
 40
0.1832526292426803
 40
0.5536708872171145
 40
0.923074945467688
 40
1.0
 40
1.0
 40
1.0
 40
1.0
 10
260.7950343580393
 20
171.2217319002575
 30
0.0
 10
260.6446854249301
 20
171.2730036571058
 30
0.0
 10
260.1904282198317
 20
171.4279137351805
 30
0.0
 10
259.366265856431
 20
171.591709195472
 30
0.0
 10
258.6211776110906
 20
171.7072640137847
 30
0.0
 10
258.2042904667993
 20
171.7219529976878
 30
0.0
 10
258.1324397508367
 20
171.7244846516969
 30
0.0
  0
SPLINE
  5
31C
330
1F
100
AcDbEntity
  8
0
  6
Continuous
 62
     7
370
    15
100
AcDbSpline
210
0.0
220
0.0
230
1.0
 70
     8
 71
     3
 72
    11
 73
     7
 74
     0
 42
0.000000001
 43
0.00000001
 40
0.0
 40
0.0
 40
0.0
 40
0.0
 40
0.2584705982537628
 40
0.5528389263843195
 40
0.84967759920832
 40
1.0
 40
1.0
 40
1.0
 40
1.0
 10
263.4417304535027
 20
169.7844068114846
 30
0.0
 10
263.256260896186
 20
169.9409620390009
 30
0.0
 10
262.8595628127805
 20
170.2758156915429
 30
0.0
 10
262.1211105175557
 20
170.7014437160403
 30
0.0
 10
261.4219456353117
 20
171.0287938127836
 30
0.0
 10
260.9527605752815
 20
171.1731901116465
 30
0.0
 10
260.7950343580393
 20
171.2217319002575
 30
0.0
  0
SPLINE
  5
31D
330
1F
100
AcDbEntity
  8
0
  6
Continuous
 62
     7
370
    15
100
AcDbSpline
210
0.0
220
0.0
230
1.0
 70
     8
 71
     3
 72
    10
 73
     6
 74
     0
 42
0.000000001
 43
0.00000001
 40
0.0
 40
0.0
 40
0.0
 40
0.0
 40
0.3321863901275521
 40
0.8519913095613612
 40
1.0
 40
1.0
 40
1.0
 40
1.0
 10
264.7609790566677
 20
167.523392096679
 30
0.0
 10
264.7375520661829
 20
167.664961933612
 30
0.0
 10
264.6774665452363
 20
168.0280601048425
 30
0.0
 10
264.5132091347634
 20
168.4395822647348
 30
0.0
 10
264.3450542482905
 20
168.6880510484057
 30
0.0
 10
264.3077857886937
 20
168.7431196165547
 30
0.0
  0
SPLINE
  5
31E
330
1F
100
AcDbEntity
  8
0
  6
Continuous
 62
     7
370
    15
100
AcDbSpline
210
0.0
220
0.0
230
1.0
 70
     8
 71
     3
 72
     9
 73
     5
 74
     0
 42
0.000000001
 43
0.00000001
 40
0.0
 40
0.0
 40
0.0
 40
0.0
 40
0.6696427729515236
 40
1.0
 40
1.0
 40
1.0
 40
1.0
 10
260.9760529269618
 20
157.9461741150351
 30
0.0
 10
261.2325871228047
 20
158.03794203107
 30
0.0
 10
261.6156782367613
 20
158.1749821362448
 30
0.0
 10
261.9625163297789
 20
158.34706686745
 30
0.0
 10
262.0770968004229
 20
158.4039163020683
 30
0.0
  0
SPLINE
  5
31F
330
1F
100
AcDbEntity
  8
0
  6
Continuous
 62
     7
370
    15
100
AcDbSpline
210
0.0
220
0.0
230
1.0
 70
     8
 71
     3
 72
    13
 73
     9
 74
     0
 42
0.000000001
 43
0.00000001
 40
0.0
 40
0.0
 40
0.0
 40
0.0
 40
0.0724810334295347
 40
0.295210196388066
 40
0.5181050686255311
 40
0.7414277898654695
 40
0.9655708436957864
 40
1.0
 40
1.0
 40
1.0
 40
1.0
 10
256.5004519124886
 20
157.3919132746704
 30
0.0
 10
256.6114761093372
 20
157.3817244542
 30
0.0
 10
257.0636699234242
 20
157.3402260987033
 30
0.0
 10
257.8706669499115
 20
157.3566894907337
 30
0.0
 10
258.8992908033968
 20
157.4403272073071
 30
0.0
 10
259.894239622123
 20
157.6241995830467
 30
0.0
 10
260.5924590243262
 20
157.7952035194589
 30
0.0
 10
260.930978685187
 20
157.9284342993626
 30
0.0
 10
260.9760529269618
 20
157.9461741150351
 30
0.0
  0
SPLINE
  5
320
330
1F
100
AcDbEntity
  8
0
  6
Continuous
 62
     7
370
    15
100
AcDbSpline
210
0.0
220
0.0
230
1.0
 70
     8
 71
     3
 72
    11
 73
     7
 74
     0
 42
0.000000001
 43
0.00000001
 40
0.0
 40
0.0
 40
0.0
 40
0.0
 40
0.0034926973582717
 40
0.3769441164992557
 40
0.7492836365953105
 40
1.0
 40
1.0
 40
1.0
 40
1.0
 10
253.8464009598113
 20
157.8788577944335
 30
0.0
 10
253.8491710088928
 20
157.8778069851595
 30
0.0
 10
254.1481243955184
 20
157.7643999725468
 30
0.0
 10
254.8059121844954
 20
157.6145263889403
 30
0.0
 10
255.6920299825061
 20
157.4455364506754
 30
0.0
 10
256.2684868814412
 20
157.4072996728191
 30
0.0
 10
256.5004519124886
 20
157.3919132746704
 30
0.0
  0
SPLINE
  5
321
330
1F
100
AcDbEntity
  8
0
  6
Continuous
 62
     7
370
    15
100
AcDbSpline
210
0.0
220
0.0
230
1.0
 70
     8
 71
     3
 72
    11
 73
     7
 74
     0
 42
0.000000001
 43
0.00000001
 40
0.0
 40
0.0
 40
0.0
 40
0.0
 40
0.1216555852877044
 40
0.4124265260570022
 40
0.707154832436765
 40
0.9999999999999999
 40
0.9999999999999999
 40
0.9999999999999999
 40
0.9999999999999999
 10
251.2032241200797
 20
159.3362248389761
 30
0.0
 10
251.284805440327
 20
159.2585857453379
 30
0.0
 10
251.5613755659086
 20
158.9953802246071
 30
0.0
 10
252.1494340574772
 20
158.616207550533
 30
0.0
 10
252.9445632840333
 20
158.1969217267101
 30
0.0
 10
253.5464313853072
 20
157.9846523348399
 30
0.0
 10
253.8464009598113
 20
157.8788577944335
 30
0.0
  0
SPLINE
  5
322
330
1F
100
AcDbEntity
  8
0
  6
Continuous
 62
     7
370
    15
100
AcDbSpline
210
0.0
220
0.0
230
1.0
 70
     8
 71
     3
 72
    10
 73
     6
 74
     0
 42
0.000000001
 43
0.00000001
 40
0.0
 40
0.0
 40
0.0
 40
0.0
 40
0.0883538520122926
 40
0.6074567679531462
 40
1.0
 40
1.0
 40
1.0
 40
1.0
 10
249.8721847875373
 20
161.5905513747113
 30
0.0
 10
249.8752448410728
 20
161.5526301469501
 30
0.0
 10
249.8962835415723
 20
161.2919113901783
 30
0.0
 10
250.0423248915423
 20
160.8743225148655
 30
0.0
 10
250.2428570723916
 20
160.5238484472234
 30
0.0
 10
250.3292036780058
 20
160.3729387729331
 30
0.0
  0
SPLINE
  5
323
330
1F
100
AcDbEntity
  8
0
  6
Continuous
 62
     7
370
    15
100
AcDbSpline
210
0.0
220
0.0
230
1.0
 70
     8
 71
     3
 72
    10
 73
     6
 74
     0
 42
0.000000001
 43
0.00000001
 40
0.0
 40
0.0
 40
0.0
 40
0.0
 40
0.4552633918520699
 40
0.9951205328531806
 40
0.9999999999999999
 40
0.9999999999999999
 40
0.9999999999999999
 40
0.9999999999999999
 10
263.9154060297612
 20
159.821033475519
 30
0.0
 10
264.0499322729145
 20
159.9914849663764
 30
0.0
 10
264.3439814522802
 20
160.3640600107208
 30
0.0
 10
264.5715731564688
 20
160.7785916885099
 30
0.0
 10
264.6292661516547
 20
161.0192273036994
 30
0.0
 10
264.6297829354919
 20
161.0213827923542
 30
0.0
  0
SPLINE
  5
324
330
1F
100
AcDbEntity
  8
0
  6
Continuous
 62
     7
370
    15
100
AcDbSpline
210
0.0
220
0.0
230
1.0
 70
     8
 71
     3
 72
     9
 73
     5
 74
     0
 42
0.000000001
 43
0.00000001
 40
0.0
 40
0.0
 40
0.0
 40
0.0
 40
0.4883311396435213
 40
1.0
 40
1.0
 40
1.0
 40
1.0
 10
262.0770968004229
 20
158.4039163020683
 30
0.0
 10
262.2215789425061
 20
158.479255601248
 30
0.0
 10
262.5174481393563
 20
158.6335347226548
 30
0.0
 10
262.7715286577054
 20
158.819332655797
 30
0.0
 10
262.9015337469679
 20
158.9143996725045
 30
0.0
  0
LINE
  5
325
330
1F
100
AcDbEntity
  8
0
  6
Continuous
 62
     7
370
    15
100
AcDbLine
 10
262.9133199439
 20
158.9782480812
 30
0.0
 11
262.9133199439
 21
164.5005462173
 31
0.0
  0
LINE
  5
326
330
1F
100
AcDbEntity
  8
0
  6
Continuous
 62
     7
370
    15
100
AcDbLine
 10
251.1640693714
 20
164.8490522787
 30
0.0
 11
251.1640693714
 21
159.4275013064
 31
0.0
  0
LINE
  5
327
330
1F
100
AcDbEntity
  8
0
  6
Continuous
 62
     7
370
    15
100
AcDbLine
 10
264.6442971315
 20
161.0988900783
 30
0.0
 11
264.6442971315
 21
166.190738498
 31
0.0
  0
LINE
  5
328
330
1F
100
AcDbEntity
  8
0
  6
Continuous
 62
     7
370
    15
100
AcDbLine
 10
249.8538743719
 20
166.6444141281
 30
0.0
 11
249.8538743719
 21
161.6605778993
 31
0.0
  0
LINE
  5
329
330
1F
100
AcDbEntity
  8
0
  6
Continuous
 62
     7
370
    15
100
AcDbLine
 10
264.7855980017
 20
162.4691306626
 30
0.0
 11
264.7855980017
 21
167.4529668915
 31
0.0
  0
LINE
  5
32A
330
1F
100
AcDbEntity
  8
0
  6
Continuous
 62
     7
370
    15
100
AcDbLine
 10
249.995175242
 20
168.0146547124
 30
0.0
 11
249.995175242
 21
167.2024030287
 31
0.0
  0
SPLINE
  5
32B
330
1F
100
AcDbEntity
  8
0
  6
Continuous
 62
     7
370
    15
100
AcDbSpline
210
0.0
220
0.0
230
1.0
 70
     8
 71
     3
 72
    10
 73
     6
 74
     0
 42
0.000000001
 43
0.00000001
 40
0.0
 40
0.0
 40
0.0
 40
0.0
 40
0.1130556215559276
 40
0.6549374415875466
 40
1.0
 40
1.0
 40
1.0
 40
1.0
 10
232.1125991325315
 20
179.6114652108503
 30
0.0
 10
232.0783350208273
 20
179.5693756870708
 30
0.0
 10
231.8798411348185
 20
179.3255487579685
 30
0.0
 10
231.6728460994269
 20
178.9043154962518
 30
0.0
 10
231.5770878559928
 20
178.5122790552483
 30
0.0
 10
231.5398334516902
 20
178.3597586710943
 30
0.0
  0
SPLINE
  5
32C
330
1F
100
AcDbEntity
  8
0
  6
Continuous
 62
     7
370
    15
100
AcDbSpline
210
0.0
220
0.0
230
1.0
 70
     8
 71
     3
 72
    12
 73
     8
 74
     0
 42
0.000000001
 43
0.00000001
 40
0.0
 40
0.0
 40
0.0
 40
0.0
 40
0.0556183031493758
 40
0.35295506369525
 40
0.6521614262278829
 40
0.9532528940574607
 40
1.0
 40
1.0
 40
1.0
 40
1.0
 10
235.7842592279375
 20
181.938768480497
 30
0.0
 10
235.7237446033339
 20
181.9238551978202
 30
0.0
 10
235.3397173681966
 20
181.8292151541828
 30
0.0
 10
234.6864212946158
 20
181.5750065373515
 30
0.0
 10
233.8602875424752
 20
181.1669500592469
 30
0.0
 10
233.3082313925247
 20
180.830868716034
 30
0.0
 10
233.0698244290135
 20
180.6134207613705
 30
0.0
 10
233.037784176951
 20
180.5841972555833
 30
0.0
  0
SPLINE
  5
32D
330
1F
100
AcDbEntity
  8
0
  6
Continuous
 62
     7
370
    15
100
AcDbSpline
210
0.0
220
0.0
230
1.0
 70
     8
 71
     3
 72
    11
 73
     7
 74
     0
 42
0.000000001
 43
0.00000001
 40
0.0
 40
0.0
 40
0.0
 40
0.0
 40
0.1870024032237404
 40
0.4755328388641316
 40
0.7645427074139725
 40
1.0
 40
1.0
 40
1.0
 40
1.0
 10
239.2670429457864
 20
182.3576020224735
 30
0.0
 10
239.0434403211316
 20
182.3641205382931
 30
0.0
 10
238.4748359125972
 20
182.3806966265113
 30
0.0
 10
237.564698382872
 20
182.305894262167
 30
0.0
 10
236.6161689291822
 20
182.1660840657125
 30
0.0
 10
236.042020647473
 20
182.0092006293709
 30
0.0
 10
235.7842592279375
 20
181.938768480497
 30
0.0
  0
SPLINE
  5
32E
330
1F
100
AcDbEntity
  8
0
  6
Continuous
 62
     7
370
    15
100
AcDbSpline
210
0.0
220
0.0
230
1.0
 70
     8
 71
     3
 72
    11
 73
     7
 74
     0
 42
0.000000001
 43
0.00000001
 40
0.0
 40
0.0
 40
0.0
 40
0.0
 40
0.1340249013193913
 40
0.5028557034320238
 40
0.8707840009555645
 40
1.0
 40
1.0
 40
1.0
 40
1.0
 10
241.9855972986469
 20
181.9628674259541
 30
0.0
 10
241.8725133515093
 20
181.9970234247988
 30
0.0
 10
241.4482272134487
 20
182.1251752731223
 30
0.0
 10
240.6560437270331
 20
182.2569650181076
 30
0.0
 10
239.8552449886143
 20
182.3549244000575
 30
0.0
 10
239.3883870270386
 20
182.3570496380744
 30
0.0
 10
239.2670429457864
 20
182.3576020224735
 30
0.0
  0
SPLINE
  5
32F
330
1F
100
AcDbEntity
  8
0
  6
Continuous
 62
     7
370
    15
100
AcDbSpline
210
0.0
220
0.0
230
1.0
 70
     8
 71
     3
 72
    11
 73
     7
 74
     0
 42
0.000000001
 43
0.00000001
 40
0.0
 40
0.0
 40
0.0
 40
0.0
 40
0.2167244324075411
 40
0.5128999065834969
 40
0.8105347140355621
 40
0.9999999999999999
 40
0.9999999999999999
 40
0.9999999999999999
 40
0.9999999999999999
 10
244.7553633229111
 20
180.6414183419151
 30
0.0
 10
244.591348220184
 20
180.7666464324609
 30
0.0
 10
244.2031901803518
 20
181.0630111534527
 30
0.0
 10
243.4714413488661
 20
181.4451737849447
 30
0.0
 10
242.7099724646682
 20
181.7664340821194
 30
0.0
 10
242.1884512314055
 20
181.9078582564092
 30
0.0
 10
241.9855972986469
 20
181.9628674259541
 30
0.0
  0
SPLINE
  5
330
330
1F
100
AcDbEntity
  8
0
  6
Continuous
 62
     7
370
    15
100
AcDbSpline
210
0.0
220
0.0
230
1.0
 70
     8
 71
     3
 72
    10
 73
     6
 74
     0
 42
0.000000001
 43
0.00000001
 40
0.0
 40
0.0
 40
0.0
 40
0.0
 40
0.2415909331970292
 40
0.7325184930552492
 40
0.9999999999999999
 40
0.9999999999999999
 40
0.9999999999999999
 40
0.9999999999999999
 10
246.3089621597447
 20
178.4437396646894
 30
0.0
 10
246.2832051314981
 20
178.5520678917439
 30
0.0
 10
246.2051082457122
 20
178.8805257050701
 30
0.0
 10
245.993871951021
 20
179.3050757638209
 30
0.0
 10
245.7695208897631
 20
179.5951067134466
 30
0.0
 10
245.6903950425434
 20
179.6973970457518
 30
0.0
  0
LINE
  5
331
330
1F
100
AcDbEntity
  8
0
  6
Continuous
 62
     7
370
    15
100
AcDbLine
 10
233.0887225426
 20
175.2591483669
 30
0.0
 11
233.0887225426
 21
169.7801037945
 31
0.0
  0
LINE
  5
332
330
1F
100
AcDbEntity
  8
0
  6
Continuous
 62
     7
370
    15
100
AcDbLine
 10
244.8589539772
 20
169.8422520452
 30
0.0
 11
244.8589539772
 21
175.307359578
 31
0.0
  0
SPLINE
  5
333
330
1F
100
AcDbEntity
  8
0
  6
Continuous
 62
     7
370
    15
100
AcDbSpline
210
0.0
220
0.0
230
1.0
 70
     8
 71
     3
 72
     9
 73
     5
 74
     0
 42
0.000000001
 43
0.00000001
 40
0.0
 40
0.0
 40
0.0
 40
0.0
 40
0.6790710014791383
 40
1.0
 40
1.0
 40
1.0
 40
1.0
 10
235.891751424823
 20
168.3691323284527
 30
0.0
 10
236.1724331379339
 20
168.2963592909781
 30
0.0
 10
236.5857650465259
 20
168.1891937113611
 30
0.0
 10
237.0194711887464
 20
168.1207191306985
 30
0.0
 10
237.1586600666215
 20
168.0987436521024
 30
0.0
  0
SPLINE
  5
334
330
1F
100
AcDbEntity
  8
0
  6
Continuous
 62
     7
370
    15
100
AcDbSpline
210
0.0
220
0.0
230
1.0
 70
     8
 71
     3
 72
    12
 73
     8
 74
     0
 42
0.000000001
 43
0.00000001
 40
0.0
 40
0.0
 40
0.0
 40
0.0
 40
0.0777942782166858
 40
0.3710955884883261
 40
0.6673176823853254
 40
0.9636608276987576
 40
1.0
 40
1.0
 40
1.0
 40
1.0
 10
233.1147159690094
 20
169.6990052989368
 30
0.0
 10
233.1702105740857
 20
169.6516409093866
 30
0.0
 10
233.4349318826549
 20
169.4257024931374
 30
0.0
 10
234.0141715755886
 20
169.0868025350511
 30
0.0
 10
234.8481687702057
 20
168.6998192571348
 30
0.0
 10
235.4865684257637
 20
168.4626087119157
 30
0.0
 10
235.8518512693613
 20
168.3783373598604
 30
0.0
 10
235.891751424823
 20
168.3691323284527
 30
0.0
  0
SPLINE
  5
335
330
1F
100
AcDbEntity
  8
0
  6
Continuous
 62
     7
370
    15
100
AcDbSpline
210
0.0
220
0.0
230
1.0
 70
     8
 71
     3
 72
    11
 73
     7
 74
     0
 42
0.000000001
 43
0.00000001
 40
0.0
 40
0.0
 40
0.0
 40
0.0
 40
0.0108111587590093
 40
0.4990380541365139
 40
0.9957878239653184
 40
1.0
 40
1.0
 40
1.0
 40
1.0
 10
231.545704126276
 20
171.892835580996
 30
0.0
 10
231.5464902967265
 20
171.8879345591326
 30
0.0
 10
231.5827795586427
 20
171.6617056720626
 30
0.0
 10
231.7916513075475
 20
171.2380171756079
 30
0.0
 10
232.0013408275888
 20
170.8219692000326
 30
0.0
 10
232.1641907433106
 20
170.6379513517762
 30
0.0
 10
232.1655600140066
 20
170.6364040973854
 30
0.0
  0
SPLINE
  5
336
330
1F
100
AcDbEntity
  8
0
  6
Continuous
 62
     7
370
    15
100
AcDbSpline
210
0.0
220
0.0
230
1.0
 70
     8
 71
     3
 72
    10
 73
     6
 74
     0
 42
0.000000001
 43
0.00000001
 40
0.0
 40
0.0
 40
0.0
 40
0.0
 40
0.3723574733542582
 40
0.9049520127585131
 40
1.0
 40
1.0
 40
1.0
 40
1.0
 10
245.7525567462297
 20
170.7292814814952
 30
0.0
 10
245.8531812572971
 20
170.8737223655945
 30
0.0
 10
246.0977321535177
 20
171.2247615635264
 30
0.0
 10
246.285742570563
 20
171.6541640797505
 30
0.0
 10
246.3291036275985
 20
171.9357068986753
 30
0.0
 10
246.3356700742953
 20
171.9783427576635
 30
0.0
  0
SPLINE
  5
337
330
1F
100
AcDbEntity
  8
0
  6
Continuous
 62
     7
370
    15
100
AcDbSpline
210
0.0
220
0.0
230
1.0
 70
     8
 71
     3
 72
    11
 73
     7
 74
     0
 42
0.000000001
 43
0.00000001
 40
0.0
 40
0.0
 40
0.0
 40
0.0
 40
0.1931877891507093
 40
0.492408446680963
 40
0.7935848628689075
 40
1.0
 40
1.0
 40
1.0
 40
1.0
 10
242.0943694915491
 20
168.4076881779293
 30
0.0
 10
242.2995428356483
 20
168.4659750639411
 30
0.0
 10
242.82250077265
 20
168.6145401214384
 30
0.0
 10
243.5841318531029
 20
168.9489174099436
 30
0.0
 10
244.3022527973906
 20
169.3376504258343
 30
0.0
 10
244.675986271247
 20
169.6375088908468
 30
0.0
 10
244.8279672207961
 20
169.7594481267753
 30
0.0
  0
SPLINE
  5
338
330
1F
100
AcDbEntity
  8
0
  6
Continuous
 62
     7
370
    15
100
AcDbSpline
210
0.0
220
0.0
230
1.0
 70
     8
 71
     3
 72
    11
 73
     7
 74
     0
 42
0.000000001
 43
0.00000001
 40
0.0
 40
0.0
 40
0.0
 40
0.0
 40
0.1443583190767635
 40
0.5076309702461085
 40
0.8717728250909129
 40
1.0
 40
1.0
 40
1.0
 40
1.0
 10
239.3505562882106
 20
167.9856172037114
 30
0.0
 10
239.4878226167103
 20
167.9875916722974
 30
0.0
 10
239.9705148506187
 20
167.9945348218882
 30
0.0
 10
240.78403716778
 20
168.1021584282363
 30
0.0
 10
241.5685760531739
 20
168.2418267658417
 30
0.0
 10
241.9857304011357
 20
168.3734180033155
 30
0.0
 10
242.0943694915491
 20
168.4076881779293
 30
0.0
  0
SPLINE
  5
339
330
1F
100
AcDbEntity
  8
0
  6
Continuous
 62
     7
370
    15
100
AcDbSpline
210
0.0
220
0.0
230
1.0
 70
     8
 71
     3
 72
     9
 73
     5
 74
     0
 42
0.000000001
 43
0.00000001
 40
0.0
 40
0.0
 40
0.0
 40
0.0
 40
0.5862654395625775
 40
1.0
 40
1.0
 40
1.0
 40
1.0
 10
237.1586600666216
 20
168.0987436521024
 30
0.0
 10
237.3378806348546
 20
168.0726608938054
 30
0.0
 10
237.6435793101282
 20
168.0281712197825
 30
0.0
 10
237.9567039976629
 20
168.013825346042
 30
0.0
 10
238.0862545026222
 20
168.0078899622759
 30
0.0
  0
LINE
  5
33A
330
1F
100
AcDbEntity
  8
0
  6
Continuous
 62
     7
370
    15
100
AcDbLine
 10
231.5361701532
 20
176.9982578447
 30
0.0
 11
231.5361701532
 21
171.9529553885
 31
0.0
  0
LINE
  5
33B
330
1F
100
AcDbEntity
  8
0
  6
Continuous
 62
     7
370
    15
100
AcDbLine
 10
246.353296708
 20
172.0306574807
 30
0.0
 11
246.353296708
 21
177.0610178767
 31
0.0
  0
LINE
  5
33C
330
1F
100
AcDbEntity
  8
0
  6
Continuous
 62
     7
370
    15
100
AcDbLine
 10
231.5166230438
 20
178.3094982175
 30
0.0
 11
231.5166230438
 21
173.2791378214
 31
0.0
  0
LINE
  5
33D
330
1F
100
AcDbEntity
  8
0
  6
Continuous
 62
     7
370
    15
100
AcDbLine
 10
246.3337495987
 20
177.4654008567
 30
0.0
 11
246.3337495987
 21
178.3872003096
 31
0.0
  0
LINE
  5
33E
330
1F
100
AcDbEntity
  8
0
  6
Continuous
 62
     7
370
    15
100
AcDbLine
 10
265.3301438268
 20
108.720518884
 30
0.0
 11
265.3301438268
 21
112.8032229434
 31
0.0
  0
LINE
  5
33F
330
1F
100
AcDbEntity
  8
0
  6
Continuous
 62
     7
370
    15
100
AcDbLine
 10
215.1966301745
 20
115.6607840349
 30
0.0
 11
215.1966301745
 21
110.7615391636
 31
0.0
  0
LINE
  5
340
330
1F
100
AcDbEntity
  8
0
  6
Continuous
 62
     7
370
    15
100
AcDbLine
 10
249.6879675694
 20
110.3050213577
 30
0.0
 11
251.3093285467
 21
111.2410131267
 31
0.0
  0
LINE
  5
341
330
1F
100
AcDbEntity
  8
0
  6
Continuous
 62
     7
370
    15
100
AcDbLine
 10
230.1129046501
 20
150.3023843046
 30
0.0
 11
227.4748454012
 21
148.7794651164
 31
0.0
  0
LINE
  5
342
330
1F
100
AcDbEntity
  8
0
  6
Continuous
 62
     7
370
    15
100
AcDbLine
 10
265.3301438268
 20
112.8032229434
 30
0.0
 11
265.3301438268
 21
160.1625900328
 31
0.0
  0
SPLINE
  5
343
330
1F
100
AcDbEntity
  8
0
  6
Continuous
 62
     7
370
    15
100
AcDbSpline
210
0.0
220
0.0
230
1.0
 70
     8
 71
     3
 72
     9
 73
     5
 74
     0
 42
0.000000001
 43
0.00000001
 40
0.0
 40
0.0
 40
0.0
 40
0.0
 40
0.2193993244747643
 40
0.9999999999999999
 40
0.9999999999999999
 40
0.9999999999999999
 40
0.9999999999999999
 10
263.4677922386083
 20
169.7384203916407
 30
0.0
 10
263.4647062290421
 20
169.747047533153
 30
0.0
 10
263.4506405085865
 20
169.7863691743336
 30
0.0
 10
263.440839250243
 20
169.7915207776771
 30
0.0
 10
263.4331883813589
 20
169.795542122727
 30
0.0
  0
SPLINE
  5
344
330
1F
100
AcDbEntity
  8
0
  6
Continuous
 62
     7
370
    15
100
AcDbSpline
210
0.0
220
0.0
230
1.0
 70
     8
 71
     3
 72
    14
 73
    10
 74
     0
 42
0.000000001
 43
0.00000001
 40
0.0
 40
0.0
 40
0.0
 40
0.0
 40
0.083562029992529
 40
0.246555851584524
 40
0.4415292244509231
 40
0.6593005014862299
 40
0.8214369516421426
 40
0.984415076378139
 40
1.0
 40
1.0
 40
1.0
 40
1.0
 10
263.434525568731
 20
169.7769640165096
 30
0.0
 10
263.4338481768168
 20
169.7701341930189
 30
0.0
 10
263.4318494826696
 20
169.7499823016985
 30
0.0
 10
263.4888981386867
 20
169.6311813380215
 30
0.0
 10
263.6335319379649
 20
169.4509485575831
 30
0.0
 10
263.8622139007257
 20
169.2428330460206
 30
0.0
 10
264.1116787569092
 20
169.0180266817379
 30
0.0
 10
264.25408693741
 20
168.8528354839084
 30
0.0
 10
264.3108741102538
 20
168.7624139124513
 30
0.0
 10
264.3158304758603
 20
168.7545219476922
 30
0.0
  0
SPLINE
  5
345
330
1F
100
AcDbEntity
  8
0
  6
Continuous
 62
     7
370
    15
100
AcDbSpline
210
0.0
220
0.0
230
1.0
 70
     8
 71
     3
 72
    10
 73
     6
 74
     0
 42
0.000000001
 43
0.00000001
 40
0.0
 40
0.0
 40
0.0
 40
0.0
 40
0.6068408479055161
 40
0.9873411522226759
 40
1.0
 40
1.0
 40
1.0
 40
1.0
 10
264.7052416977912
 20
167.6449979829327
 30
0.0
 10
264.735305205215
 20
167.6003659470546
 30
0.0
 10
264.7842190813361
 20
167.5277488088346
 30
0.0
 10
264.7872606543771
 20
167.4567333917955
 30
0.0
 10
264.7842718113738
 20
167.4284274501267
 30
0.0
 10
264.7841755772956
 20
167.4275160619399
 30
0.0
  0
SPLINE
  5
346
330
1F
100
AcDbEntity
  8
0
  6
Continuous
 62
     7
370
    15
100
AcDbSpline
210
0.0
220
0.0
230
1.0
 70
     8
 71
     3
 72
    16
 73
    12
 74
     0
 42
0.000000001
 43
0.00000001
 40
0.0
 40
0.0
 40
0.0
 40
0.0
 40
0.0316438967043511
 40
0.1442296906797941
 40
0.2602597186198051
 40
0.3918268288811906
 40
0.5492075381338438
 40
0.7249905054734749
 40
0.8558655534151708
 40
0.987419993319096
 40
1.0
 40
1.0
 40
1.0
 40
1.0
 10
264.7052416977921
 20
167.6449979829332
 30
0.0
 10
264.6957611142343
 20
167.6554311953751
 30
0.0
 10
264.6525495702587
 20
167.7029847257558
 30
0.0
 10
264.5560083615175
 20
167.7443112446865
 30
0.0
 10
264.428649418662
 20
167.7134519299442
 30
0.0
 10
264.3265752958345
 20
167.596102750888
 30
0.0
 10
264.2867165056641
 20
167.3956312417329
 30
0.0
 10
264.3424896635872
 20
167.1447142466793
 30
0.0
 10
264.4618549936085
 20
166.8626033590799
 30
0.0
 10
264.5479899627027
 20
166.6621112043284
 30
0.0
 10
264.5843200911125
 20
166.5572850967509
 30
0.0
 10
264.5874909726674
 20
166.5481359088578
 30
0.0
  0
SPLINE
  5
347
330
1F
100
AcDbEntity
  8
0
  6
Continuous
 62
     7
370
    15
100
AcDbSpline
210
0.0
220
0.0
230
1.0
 70
     8
 71
     3
 72
    10
 73
     6
 74
     0
 42
0.000000001
 43
0.00000001
 40
0.0
 40
0.0
 40
0.0
 40
0.0
 40
0.0126588477772873
 40
0.3931591520964988
 40
1.0
 40
1.0
 40
1.0
 40
1.0
 10
264.6369871708908
 20
166.0564384693443
 30
0.0
 10
264.6372091022502
 20
166.0585207427234
 30
0.0
 10
264.6441018579407
 20
166.1231920975376
 30
0.0
 10
264.6513743056059
 20
166.2902838498364
 30
0.0
 10
264.6118087832588
 20
166.4499820204575
 30
0.0
 10
264.5874909726674
 20
166.5481359088578
 30
0.0
  0
ARC
  5
348
330
1F
100
AcDbEntity
  8
0
  6
Continuous
 62
     7
370
    15
100
AcDbCircle
 10
261.5668668992
 20
167.278864747
 30
0.0
 40
3.304536954970462
100
AcDbArc
 50
321.3844768585
 51
338.2890931006
  0
SPLINE
  5
349
330
1F
100
AcDbEntity
  8
0
  6
Continuous
 62
     7
370
    15
100
AcDbSpline
210
0.0
220
0.0
230
1.0
 70
     8
 71
     3
 72
    10
 73
     6
 74
     0
 42
0.000000001
 43
0.00000001
 40
0.0
 40
0.0
 40
0.0
 40
0.0
 40
0.6068408479055141
 40
0.9873411522226719
 40
1.0
 40
1.0
 40
1.0
 40
1.0
 10
263.9637509195991
 20
165.4748588125838
 30
0.0
 10
264.0121222881269
 20
165.4180941739036
 30
0.0
 10
264.0908233889206
 20
165.325737069148
 30
0.0
 10
264.1351298003456
 20
165.2473976870734
 30
0.0
 10
264.1484428771088
 20
165.2174947539399
 30
0.0
 10
264.1488715284865
 20
165.2165319461899
 30
0.0
  0
SPLINE
  5
34A
330
1F
100
AcDbEntity
  8
0
  6
Continuous
 62
     7
370
    15
100
AcDbSpline
210
0.0
220
0.0
230
1.0
 70
     8
 71
     3
 72
    16
 73
    12
 74
     0
 42
0.000000001
 43
0.00000001
 40
0.0
 40
0.0
 40
0.0
 40
0.0
 40
0.0316438967043527
 40
0.1442296906797945
 40
0.2602597186198064
 40
0.3918268288811927
 40
0.5492075381338447
 40
0.7249905054734772
 40
0.8558655534151739
 40
0.9874199933190981
 40
1.0
 40
1.0
 40
1.0
 40
1.0
 10
263.9637509196003
 20
165.474858812584
 30
0.0
 10
263.9503641897055
 20
165.4888292274236
 30
0.0
 10
263.8893488245631
 20
165.5525049696939
 30
0.0
 10
263.7452292605149
 20
165.6310578057558
 30
0.0
 10
263.5238019679621
 20
165.6541500630118
 30
0.0
 10
263.2883520091144
 20
165.5890103834856
 30
0.0
 10
263.0725866091407
 20
165.4280797893639
 30
0.0
 10
262.9411294269153
 20
165.1888698849914
 30
0.0
 10
262.8982802460125
 20
164.894923190502
 30
0.0
 10
262.9050886780317
 20
164.6800541994884
 30
0.0
 10
262.9112267177352
 20
164.5686589552965
 30
0.0
 10
262.9117624438042
 20
164.5589364153391
 30
0.0
  0
SPLINE
  5
34B
330
1F
100
AcDbEntity
  8
0
  6
Continuous
 62
     7
370
    15
100
AcDbSpline
210
0.0
220
0.0
230
1.0
 70
     8
 71
     3
 72
    10
 73
     6
 74
     0
 42
0.000000001
 43
0.00000001
 40
0.0
 40
0.0
 40
0.0
 40
0.0
 40
0.0126588477772851
 40
0.3931591520965011
 40
1.0
 40
1.0
 40
1.0
 40
1.0
 10
262.8338859337429
 20
164.0716289496319
 30
0.0
 10
262.8345802656078
 20
164.0735694919554
 30
0.0
 10
262.8561448607506
 20
164.1338389562806
 30
0.0
 10
262.9039842166731
 20
164.2924058066843
 30
0.0
 10
262.9088015861687
 20
164.4574789528063
 30
0.0
 10
262.9117624438042
 20
164.5589364153391
 30
0.0
  0
ARC
  5
34C
330
1F
100
AcDbEntity
  8
0
  6
Continuous
 62
     7
370
    15
100
AcDbCircle
 10
258.7620734728
 20
170.6359059343
 30
0.0
 40
7.724596368012525
100
AcDbArc
 50
292.2237562641
 51
301.8112732643
  0
SPLINE
  5
34D
330
1F
100
AcDbEntity
  8
0
  6
Continuous
 62
     7
370
    15
100
AcDbSpline
210
0.0
220
0.0
230
1.0
 70
     8
 71
     3
 72
    10
 73
     6
 74
     0
 42
0.000000001
 43
0.00000001
 40
0.0
 40
0.0
 40
0.0
 40
0.0
 40
0.606840847905514
 40
0.9873411522226664
 40
1.0
 40
1.0
 40
1.0
 40
1.0
 10
261.4420017592433
 20
163.8094899187516
 30
0.0
 10
261.4957199197413
 20
163.7369336862057
 30
0.0
 10
261.5831203488069
 20
163.61888336957
 30
0.0
 10
261.6568197314543
 20
163.5222904056482
 30
0.0
 10
261.6828674998168
 20
163.4862989883542
 30
0.0
 10
261.6837061798601
 20
163.4851401449943
 30
0.0
  0
SPLINE
  5
34E
330
1F
100
AcDbEntity
  8
0
  6
Continuous
 62
     7
370
    15
100
AcDbSpline
210
0.0
220
0.0
230
1.0
 70
     8
 71
     3
 72
    16
 73
    12
 74
     0
 42
0.000000001
 43
0.00000001
 40
0.0
 40
0.0
 40
0.0
 40
0.0
 40
0.0316438967043515
 40
0.144229690679794
 40
0.2602597186198059
 40
0.3918268288811905
 40
0.5492075381338446
 40
0.724990505473477
 40
0.8558655534151752
 40
0.9874199933190997
 40
1.0
 40
1.0
 40
1.0
 40
1.0
 10
261.4420017592445
 20
163.8094899187514
 30
0.0
 10
261.4282958464772
 20
163.8276511258666
 30
0.0
 10
261.365825677984
 20
163.9104280767924
 30
0.0
 10
261.2127444794289
 20
164.0349530491193
 30
0.0
 10
260.9565801014007
 20
164.131920989488
 30
0.0
 10
260.650842932864
 20
164.1504941784856
 30
0.0
 10
260.3169850877644
 20
164.0745813834286
 30
0.0
 10
260.0335214112071
 20
163.8995530043391
 30
0.0
 10
259.8399391227995
 20
163.6421784223479
 30
0.0
 10
259.7655967038824
 20
163.4377558434531
 30
0.0
 10
259.7398979720979
 20
163.3293863209784
 30
0.0
 10
259.7376549953134
 20
163.3199278650087
 30
0.0
  0
SPLINE
  5
34F
330
1F
100
AcDbEntity
  8
0
  6
Continuous
 62
     7
370
    15
100
AcDbSpline
210
0.0
220
0.0
230
1.0
 70
     8
 71
     3
 72
    10
 73
     6
 74
     0
 42
0.000000001
 43
0.00000001
 40
0.0
 40
0.0
 40
0.0
 40
0.0
 40
0.0126588477772916
 40
0.3931591520964949
 40
1.0
 40
1.0
 40
1.0
 40
1.0
 10
259.5532727249477
 20
162.8731875778137
 30
0.0
 10
259.5542534116558
 20
162.874869021939
 30
0.0
 10
259.5847116303972
 20
162.9270914009612
 30
0.0
 10
259.6602993777908
 20
163.0665660809319
 30
0.0
 10
259.7082088288632
 20
163.2234832433386
 30
0.0
 10
259.7376549953134
 20
163.3199278650087
 30
0.0
  0
ARC
  5
350
330
1F
100
AcDbEntity
  8
0
  6
Continuous
 62
     7
370
    15
100
AcDbCircle
 10
257.3566874449
 20
175.1355590256
 30
0.0
 40
12.45755756223684
100
AcDbArc
 50
273.1867866318
 51
280.1558042462
  0
SPLINE
  5
351
330
1F
100
AcDbEntity
  8
0
  6
Continuous
 62
     7
370
    15
100
AcDbSpline
210
0.0
220
0.0
230
1.0
 70
     8
 71
     3
 72
    10
 73
     6
 74
     0
 42
0.000000001
 43
0.00000001
 40
0.0
 40
0.0
 40
0.0
 40
0.0
 40
0.6068408479055284
 40
0.9873411522226655
 40
1.0
 40
1.0
 40
1.0
 40
1.0
 10
257.8156948677549
 20
163.0951255516381
 30
0.0
 10
257.8603660824988
 20
163.0073500789866
 30
0.0
 10
257.9330469654498
 20
162.8645377805004
 30
0.0
 10
258.0163916292572
 20
162.7436526504351
 30
0.0
 10
258.0481946107215
 20
162.6987126606987
 30
0.0
 10
258.0492185957897
 20
162.6972656932654
 30
0.0
  0
SPLINE
  5
352
330
1F
100
AcDbEntity
  8
0
  6
Continuous
 62
     7
370
    15
100
AcDbSpline
210
0.0
220
0.0
230
1.0
 70
     8
 71
     3
 72
    16
 73
    12
 74
     0
 42
0.000000001
 43
0.00000001
 40
0.0
 40
0.0
 40
0.0
 40
0.0
 40
0.0316438967043512
 40
0.1442296906797932
 40
0.2602597186198063
 40
0.3918268288811926
 40
0.5492075381338446
 40
0.7249905054734767
 40
0.8558655534151743
 40
0.9874199933190979
 40
1.0
 40
1.0
 40
1.0
 40
1.0
 10
257.8156948677558
 20
163.0951255516377
 30
0.0
 10
257.8053422603737
 20
163.1170082215006
 30
0.0
 10
257.7581561197284
 20
163.216747224414
 30
0.0
 10
257.6371312701957
 20
163.3836719553532
 30
0.0
 10
257.4148688449142
 20
163.5546447603188
 30
0.0
 10
257.120766494094
 20
163.6660033913168
 30
0.0
 10
256.7582731438499
 20
163.6978048287544
 30
0.0
 10
256.3987568361777
 20
163.622235021681
 30
0.0
 10
256.1063116581132
 20
163.4400410035667
 30
0.0
 10
255.9707383793719
 20
163.2680889774807
 30
0.0
 10
255.9200888305277
 20
163.1715292953641
 30
0.0
 10
255.9156681547077
 20
163.1631015983429
 30
0.0
  0
SPLINE
  5
353
330
1F
100
AcDbEntity
  8
0
  6
Continuous
 62
     7
370
    15
100
AcDbSpline
210
0.0
220
0.0
230
1.0
 70
     8
 71
     3
 72
    10
 73
     6
 74
     0
 42
0.000000001
 43
0.00000001
 40
0.0
 40
0.0
 40
0.0
 40
0.0
 40
0.0126588477772932
 40
0.3931591520965011
 40
1.0
 40
1.0
 40
1.0
 40
1.0
 10
255.6741852044807
 20
162.7822357516443
 30
0.0
 10
255.6751894718205
 20
162.7836101555818
 30
0.0
 10
255.7063800590476
 20
162.8262964644944
 30
0.0
 10
255.7894625220377
 20
162.9412274371454
 30
0.0
 10
255.867626755963
 20
163.07864304587
 30
0.0
 10
255.9156681547077
 20
163.1631015983429
 30
0.0
  0
ARC
  5
354
330
1F
100
AcDbEntity
  8
0
  6
Continuous
 62
     7
370
    15
100
AcDbCircle
 10
257.1624426524
 20
174.3634381624
 30
0.0
 40
11.67643607909258
100
AcDbArc
 50
255.400486208
 51
262.6772643941
  0
SPLINE
  5
355
330
1F
100
AcDbEntity
  8
0
  6
Continuous
 62
     7
370
    15
100
AcDbSpline
210
0.0
220
0.0
230
1.0
 70
     8
 71
     3
 72
    10
 73
     6
 74
     0
 42
0.000000001
 43
0.00000001
 40
0.0
 40
0.0
 40
0.0
 40
0.0
 40
0.6068408479055353
 40
0.9873411522226696
 40
1.0
 40
1.0
 40
1.0
 40
1.0
 10
254.0564962482158
 20
163.5231790665133
 30
0.0
 10
254.0801509012902
 20
163.4248346906118
 30
0.0
 10
254.1186374542348
 20
163.2648265933449
 30
0.0
 10
254.1892952638409
 20
163.1201197791393
 30
0.0
 10
254.2183318752069
 20
163.0657688914383
 30
0.0
 10
254.2192667893283
 20
163.064018914081
 30
0.0
  0
SPLINE
  5
356
330
1F
100
AcDbEntity
  8
0
  6
Continuous
 62
     7
370
    15
100
AcDbSpline
210
0.0
220
0.0
230
1.0
 70
     8
 71
     3
 72
    16
 73
    12
 74
     0
 42
0.000000001
 43
0.00000001
 40
0.0
 40
0.0
 40
0.0
 40
0.0
 40
0.0316438967043491
 40
0.1442296906797944
 40
0.2602597186198052
 40
0.3918268288811924
 40
0.5492075381338434
 40
0.7249905054734768
 40
0.8558655534151747
 40
0.9874199933190976
 40
1.0
 40
1.0
 40
1.0
 40
1.0
 10
254.0564962482162
 20
163.5231790665125
 30
0.0
 10
254.0522709190067
 20
163.5473167066575
 30
0.0
 10
254.0330122944892
 20
163.6573336367586
 30
0.0
 10
253.9764723046752
 20
163.8517247675777
 30
0.0
 10
253.8476668695025
 20
164.0770020749198
 30
0.0
 10
253.6440038237933
 20
164.2653569371413
 30
0.0
 10
253.3500047688641
 20
164.398707098893
 30
0.0
 10
253.0107679343836
 20
164.431223066517
 30
0.0
 10
252.6978203159549
 20
164.3426734922811
 30
0.0
 10
252.5373429279435
 20
164.2165157012907
 30
0.0
 10
252.4753140677493
 20
164.1373855409866
 30
0.0
 10
252.4699002094098
 20
164.1304790868469
 30
0.0
  0
SPLINE
  5
357
330
1F
100
AcDbEntity
  8
0
  6
Continuous
 62
     7
370
    15
100
AcDbSpline
210
0.0
220
0.0
230
1.0
 70
     8
 71
     3
 72
    10
 73
     6
 74
     0
 42
0.000000001
 43
0.00000001
 40
0.0
 40
0.0
 40
0.0
 40
0.0
 40
0.0126588477772876
 40
0.393159152096492
 40
1.0
 40
1.0
 40
1.0
 40
1.0
 10
252.2360217408207
 20
163.823143939496
 30
0.0
 10
252.2367804961695
 20
163.8242456324265
 30
0.0
 10
252.2603459592207
 20
163.8584620687104
 30
0.0
 10
252.3286612589485
 20
163.9499742637059
 30
0.0
 10
252.4161362323681
 20
164.0617681743432
 30
0.0
 10
252.4699002094098
 20
164.1304790868469
 30
0.0
  0
ARC
  5
358
330
1F
100
AcDbEntity
  8
0
  6
Continuous
 62
     7
370
    15
100
AcDbCircle
 10
255.224464026
 20
169.5048670068
 30
0.0
 40
6.419716839937474
100
AcDbArc
 50
231.4085597128
 51
242.2567676528
  0
SPLINE
  5
359
330
1F
100
AcDbEntity
  8
0
  6
Continuous
 62
     7
370
    15
100
AcDbSpline
210
0.0
220
0.0
230
1.0
 70
     8
 71
     3
 72
    10
 73
     6
 74
     0
 42
0.000000001
 43
0.00000001
 40
0.0
 40
0.0
 40
0.0
 40
0.0
 40
0.6068408479055202
 40
0.987341152222669
 40
1.0
 40
1.0
 40
1.0
 40
1.0
 10
251.1716801349196
 20
164.9789538697487
 30
0.0
 10
251.1679799811357
 20
164.8775228565437
 30
0.0
 10
251.1619597632926
 20
164.7124927439622
 30
0.0
 10
251.200998015676
 20
164.550817728648
 30
0.0
 10
251.2194879203764
 20
164.4891152599697
 30
0.0
 10
251.220083254067
 20
164.4871285781022
 30
0.0
  0
SPLINE
  5
35A
330
1F
100
AcDbEntity
  8
0
  6
Continuous
 62
     7
370
    15
100
AcDbSpline
210
0.0
220
0.0
230
1.0
 70
     8
 71
     3
 72
    16
 73
    12
 74
     0
 42
0.000000001
 43
0.00000001
 40
0.0
 40
0.0
 40
0.0
 40
0.0
 40
0.0316438967043508
 40
0.1442296906797945
 40
0.2602597186198031
 40
0.3918268288811901
 40
0.5492075381338426
 40
0.7249905054734743
 40
0.8558655534151715
 40
0.9874199933190956
 40
1.0
 40
1.0
 40
1.0
 40
1.0
 10
251.1716801349194
 20
164.978953869748
 30
0.0
 10
251.174714257432
 20
165.0032757702431
 30
0.0
 10
251.1885434819291
 20
165.1141325404422
 30
0.0
 10
251.2116381964446
 20
165.3136971127423
 30
0.0
 10
251.2108030637159
 20
165.559027712683
 30
0.0
 10
251.1521506717434
 20
165.7879585173748
 30
0.0
 10
251.005422721473
 20
165.9894819965878
 30
0.0
 10
250.7773635960262
 20
166.1097494455468
 30
0.0
 10
250.5277675988644
 20
166.1082162420779
 30
0.0
 10
250.385385888104
 20
166.0289058401584
 30
0.0
 10
250.3285982995563
 20
165.9681546568266
 30
0.0
 10
250.3236418976673
 20
165.9628523136998
 30
0.0
  0
SPLINE
  5
35B
330
1F
100
AcDbEntity
  8
0
  6
Continuous
 62
     7
370
    15
100
AcDbSpline
210
0.0
220
0.0
230
1.0
 70
     8
 71
     3
 72
    10
 73
     6
 74
     0
 42
0.000000001
 43
0.00000001
 40
0.0
 40
0.0
 40
0.0
 40
0.0
 40
0.0126588477772981
 40
0.3931591520965053
 40
1.0
 40
1.0
 40
1.0
 40
1.0
 10
250.1600354575017
 20
165.717001633039
 30
0.0
 10
250.1603453929764
 20
165.7179380168372
 30
0.0
 10
250.1699713850594
 20
165.7470202735007
 30
0.0
 10
250.2052144921295
 20
165.8225136630716
 30
0.0
 10
250.2785613565585
 20
165.9094310445259
 30
0.0
 10
250.3236418976673
 20
165.9628523136998
 30
0.0
  0
ARC
  5
35C
330
1F
100
AcDbEntity
  8
0
  6
Continuous
 62
     7
370
    15
100
AcDbCircle
 10
252.6268695877
 20
167.0704032229
 30
0.0
 40
2.813710448732413
100
AcDbArc
 50
189.9283392715
 51
208.7508934014
  0
SPLINE
  5
35D
330
1F
100
AcDbEntity
  8
0
  6
Continuous
 62
     7
370
    15
100
AcDbSpline
210
0.0
220
0.0
230
1.0
 70
     8
 71
     3
 72
    10
 73
     6
 74
     0
 42
0.000000001
 43
0.00000001
 40
0.0
 40
0.0
 40
0.0
 40
0.0
 40
0.6068408479055266
 40
0.9873411522226738
 40
1.0
 40
1.0
 40
1.0
 40
1.0
 10
249.9342306757364
 20
167.0723762784561
 30
0.0
 10
249.9041671683127
 20
166.9761679558668
 30
0.0
 10
249.8552532921917
 20
166.8196352563847
 30
0.0
 10
249.8522117191505
 20
166.6523921387774
 30
0.0
 10
249.8552005621538
 20
166.5873672562949
 30
0.0
 10
249.8552967962321
 20
166.5852736001134
 30
0.0
  0
SPLINE
  5
35E
330
1F
100
AcDbEntity
  8
0
  6
Continuous
 62
     7
370
    15
100
AcDbSpline
210
0.0
220
0.0
230
1.0
 70
     8
 71
     3
 72
    16
 73
    12
 74
     0
 42
0.000000001
 43
0.00000001
 40
0.0
 40
0.0
 40
0.0
 40
0.0
 40
0.0316438967043529
 40
0.1442296906797969
 40
0.2602597186198058
 40
0.3918268288811914
 40
0.5492075381338454
 40
0.7249905054734762
 40
0.8558655534151726
 40
0.987419993319099
 40
1.0
 40
1.0
 40
1.0
 40
1.0
 10
249.9342306757355
 20
167.0723762784555
 30
0.0
 10
249.9437112592933
 20
167.094762356957
 30
0.0
 10
249.9869228032691
 20
167.1967958456882
 30
0.0
 10
250.0834640120102
 20
167.3778546816034
 30
0.0
 10
250.2108229548657
 20
167.6036141008077
 30
0.0
 10
250.3128970776932
 20
167.8258282681994
 30
0.0
 10
250.3527558678636
 20
168.0438826726617
 30
0.0
 10
250.2969827099404
 20
168.2080543710351
 30
0.0
 10
250.1776173799192
 20
168.2635934989464
 30
0.0
 10
250.091482410825
 20
168.2196309200038
 30
0.0
 10
250.0551522824152
 20
168.1732835367671
 30
0.0
 10
250.0519814008602
 20
168.1692383525341
 30
0.0
  0
LINE
  5
35F
330
1F
100
AcDbEntity
  8
0
  6
Continuous
 62
     7
370
    15
100
AcDbLine
 10
249.9983403419
 20
168.014553661
 30
0.0
 11
249.9966866698
 21
168.040871361
 31
0.0
  0
LINE
  5
360
330
1F
100
AcDbEntity
  8
0
  6
Continuous
 62
     7
370
    15
100
AcDbLine
 10
250.0181915787
 20
168.0907951132
 30
0.0
 11
250.0519814009
 21
168.1692383525
 31
0.0
  0
SPLINE
  5
361
330
1F
100
AcDbEntity
  8
0
  6
Continuous
 62
     7
370
    15
100
AcDbSpline
210
0.0
220
0.0
230
1.0
 70
     8
 71
     3
 72
    20
 73
    16
 74
     0
 42
0.000000001
 43
0.00000001
 40
0.0
 40
0.0
 40
0.0
 40
0.0
 40
0.0369484614969337
 40
0.102003881128494
 40
0.168848320524135
 40
0.2360073941682339
 40
0.3047012538614092
 40
0.3809213918917038
 40
0.4587009985563658
 40
0.5497861591260155
 40
0.6429851707817026
 40
0.7443958743388736
 40
0.8490673462130636
 40
0.9247223840302159
 40
1.0
 40
1.0
 40
1.0
 40
1.0
 10
250.6757214539274
 20
169.2425154488047
 30
0.0
 10
250.6890961034866
 20
169.2613743791034
 30
0.0
 10
250.7260195938974
 20
169.3134383624591
 30
0.0
 10
250.7990453809472
 20
169.3954731813706
 30
0.0
 10
250.8948390361381
 20
169.486208474983
 30
0.0
 10
250.9986508184274
 20
169.5721907059176
 30
0.0
 10
251.1086403258229
 20
169.6561678392824
 30
0.0
 10
251.2211782041014
 20
169.7389218504631
 30
0.0
 10
251.3371283546676
 20
169.8252154739248
 30
0.0
 10
251.4484087547205
 20
169.9132240704296
 30
0.0
 10
251.5512370116351
 20
170.0040286801841
 30
0.0
 10
251.6361902104572
 20
170.0912123696095
 30
0.0
 10
251.6911860333663
 20
170.1582620167461
 30
0.0
 10
251.722244047977
 20
170.2017249854398
 30
0.0
 10
251.7292232662174
 20
170.209643861829
 30
0.0
 10
251.7327041492292
 20
170.2135933990616
 30
0.0
  0
LWPOLYLINE
  5
362
330
1F
100
AcDbEntity
  8
0
  6
Continuous
 62
     7
370
    15
100
AcDbPolyline
 90
       41
 70
   128
 43
0.0
 10
261.6228339498
 20
165.0105696873
 10
262.331955673
 20
165.4337974169
 10
262.9176599178
 20
165.9158536587
 10
263.3655247019
 20
166.4448685882
 10
263.6645221079
 20
167.0078161022
 10
263.8072898274
 20
167.5908345644
 10
263.7903124453
 20
168.1795681255
 10
263.6140080012
 20
168.7595202113
 10
263.2827176954
 20
169.3164104767
 10
262.8045989949
 20
169.8365264351
 10
262.1914247689
 20
170.3070611054
 10
261.4582934018
 20
170.7164283626
 10
260.6232570209
 20
171.054548226
 10
259.7068769934
 20
171.3130950626
 10
258.7317176367
 20
171.485702591
 10
257.7217906106
 20
171.5681206412
 10
256.7019636703
 20
171.5583198071
 10
255.6973483396
 20
171.4565414179
 10
254.7326815821
 20
171.2652915953
 10
253.8317166949
 20
170.9892795445
 10
253.0166384237
 20
170.6353015985
 10
252.3075167005
 20
170.2120738689
 10
251.7218124557
 20
169.7300176271
 10
251.2739476717
 20
169.2010026976
 10
250.9749502656
 20
168.6380551837
 10
250.8321825461
 20
168.0550367214
 10
250.8491599282
 20
167.4663031603
 10
251.0254643724
 20
166.8863510745
 10
251.3567546781
 20
166.3294608092
 10
251.8348733786
 20
165.8093448508
 10
252.4480476046
 20
165.3388101804
 10
253.1811789718
 20
164.9294429232
 10
254.0162153526
 20
164.5913230598
 10
254.9325953802
 20
164.3327762233
 10
255.9077547368
 20
164.1601686948
 10
256.9176817629
 20
164.0777506447
 10
257.9375087032
 20
164.0875514787
 10
258.9421240339
 20
164.1893298679
 10
259.9067907914
 20
164.3805796906
 10
260.8077556786
 20
164.6565917413
 10
261.6228339498
 20
165.0105696873
  0
LWPOLYLINE
  5
363
330
1F
100
AcDbEntity
  8
0
  6
Continuous
 62
     7
370
    15
100
AcDbPolyline
 90
       25
 70
   128
 43
0.0
 10
258.8754715319
 20
166.806157182
 10
259.278319843
 20
167.0732502377
 10
259.5476939147
 20
167.3914331148
 10
259.6652363492
 20
167.7390221761
 10
259.6229368236
 20
168.0923298015
 10
259.4236779809
 20
168.4272786601
 10
259.0810389818
 20
168.7210425409
 10
258.618370108
 20
168.9536019208
 10
258.0672014785
 20
169.1091082623
 10
257.4650943246
 20
169.1769640654
 10
256.8530812539
 20
169.152545069
 10
256.2728699456
 20
169.0375153876
 10
255.7640008416
 20
168.8397141038
 10
255.3611525305
 20
168.5726210481
 10
255.0917784588
 20
168.254438171
 10
254.9742360244
 20
167.9068491098
 10
255.0165355499
 20
167.5535414844
 10
255.2157943926
 20
167.2185926257
 10
255.5584333917
 20
166.9248287449
 10
256.0211022655
 20
166.6922693651
 10
256.572270895
 20
166.5367630235
 10
257.1743780489
 20
166.4689072205
 10
257.7863911197
 20
166.4933262168
 10
258.3666024279
 20
166.6083558982
 10
258.8754715319
 20
166.806157182
  0
LINE
  5
364
330
1F
100
AcDbEntity
  8
0
  6
Continuous
 62
     7
370
    15
100
AcDbLine
 10
255.9156681547
 20
163.1631015983
 30
0.0
 11
255.9156681547
 21
157.5592721277
 31
0.0
  0
LINE
  5
365
330
1F
100
AcDbEntity
  8
0
  6
Continuous
 62
     7
370
    15
100
AcDbLine
 10
257.8156948678
 20
157.491296081
 30
0.0
 11
257.8156948678
 21
163.0951255516
 31
0.0
  0
SPLINE
  5
366
330
1F
100
AcDbEntity
  8
0
  6
Continuous
 62
     7
370
    15
100
AcDbSpline
210
0.0
220
0.0
230
1.0
 70
     8
 71
     3
 72
    16
 73
    12
 74
     0
 42
0.000000001
 43
0.00000001
 40
0.0
 40
0.0
 40
0.0
 40
0.0
 40
0.0316438967043527
 40
0.1442296906797967
 40
0.2602597186198107
 40
0.3918268288811966
 40
0.5492075381338473
 40
0.7249905054734798
 40
0.8558655534151752
 40
0.9874199933191011
 40
1.0
 40
1.0
 40
1.0
 40
1.0
 10
255.9156681547066
 20
157.559272127691
 30
0.0
 10
255.9271121325471
 20
157.5475557040505
 30
0.0
 10
255.9792726297039
 20
157.4941534264067
 30
0.0
 10
256.1112915540955
 20
157.429639816415
 30
0.0
 10
256.3475785204324
 20
157.3893072871152
 30
0.0
 10
256.6520337240582
 20
157.3743867170215
 30
0.0
 10
257.0166747392989
 20
157.3625910356421
 30
0.0
 10
257.3665536078138
 20
157.3483869454271
 30
0.0
 10
257.6420227090197
 20
157.3724467792021
 30
0.0
 10
257.7659233140313
 20
157.4356664547774
 30
0.0
 10
257.8116995344253
 20
157.4868305000859
 30
0.0
 10
257.8156948677549
 20
157.4912960809866
 30
0.0
  0
LINE
  5
367
330
1F
100
AcDbEntity
  8
0
  6
Continuous
 62
     7
370
    15
100
AcDbLine
 10
259.7376549953
 20
163.319927865
 30
0.0
 11
259.7376549953
 21
157.7160983944
 31
0.0
  0
LINE
  5
368
330
1F
100
AcDbEntity
  8
0
  6
Continuous
 62
     7
370
    15
100
AcDbLine
 10
261.4420017592
 20
158.2056604481
 30
0.0
 11
261.4420017592
 21
163.8094899188
 31
0.0
  0
SPLINE
  5
369
330
1F
100
AcDbEntity
  8
0
  6
Continuous
 62
     7
370
    15
100
AcDbSpline
210
0.0
220
0.0
230
1.0
 70
     8
 71
     3
 72
    16
 73
    12
 74
     0
 42
0.000000001
 43
0.00000001
 40
0.0
 40
0.0
 40
0.0
 40
0.0
 40
0.0316438967043521
 40
0.1442296906797944
 40
0.2602597186198061
 40
0.3918268288811937
 40
0.5492075381338466
 40
0.7249905054734791
 40
0.8558655534151737
 40
0.9874199933191005
 40
1.0
 40
1.0
 40
1.0
 40
1.0
 10
259.7376549953129
 20
157.7160983943565
 30
0.0
 10
259.7435008810724
 20
157.7070564321086
 30
0.0
 10
259.7701458389521
 20
157.6658440798393
 30
0.0
 10
259.8440479423996
 20
157.6331831120438
 30
0.0
 10
259.9992078717298
 20
157.6534010667686
 30
0.0
 10
260.2303840128537
 20
157.7213339757606
 30
0.0
 10
260.5487744199741
 20
157.815192174092
 30
0.0
 10
260.9016467299476
 20
157.9096922899323
 30
0.0
 10
261.2174903656166
 20
158.025218610794
 30
0.0
 10
261.3758991343864
 20
158.1321069663777
 30
0.0
 10
261.4366954748195
 20
158.19975605784
 30
0.0
 10
261.4420017592433
 20
158.2056604481
 30
0.0
  0
LINE
  5
36A
330
1F
100
AcDbEntity
  8
0
  6
Continuous
 62
     7
370
    15
100
AcDbLine
 10
259.5532727249
 20
157.9739427065
 30
0.0
 11
259.5532727249
 21
162.8731875778
 31
0.0
  0
ARC
  5
36B
330
1F
100
AcDbEntity
  8
0
  6
Continuous
 62
     7
370
    15
100
AcDbCircle
 10
257.3566874448
 20
170.2363141543
 30
0.0
 40
12.45755756224454
100
AcDbArc
 50
273.1867866318
 51
280.1558042462
  0
LINE
  5
36C
330
1F
100
AcDbEntity
  8
0
  6
Continuous
 62
     7
370
    15
100
AcDbLine
 10
258.0492185958
 20
162.6972656933
 30
0.0
 11
258.0492185958
 21
157.798020822
 31
0.0
  0
SPLINE
  5
36D
330
1F
100
AcDbEntity
  8
0
  6
Continuous
 62
     7
370
    15
100
AcDbSpline
210
0.0
220
0.0
230
1.0
 70
     8
 71
     3
 72
    10
 73
     6
 74
     0
 42
0.000000001
 43
0.00000001
 40
0.0
 40
0.0
 40
0.0
 40
0.0
 40
0.012658847777291
 40
0.3931591520964998
 40
1.0
 40
1.0
 40
1.0
 40
1.0
 10
258.0492185957897
 20
157.7980208219509
 30
0.0
 10
258.0481946107215
 20
157.7964627450158
 30
0.0
 10
258.0163916292569
 20
157.7480719106008
 30
0.0
 10
257.9330469654491
 20
157.6306985060192
 30
0.0
 10
257.8603660824985
 20
157.5443609668026
 30
0.0
 10
257.8156948677549
 20
157.4912960809866
 30
0.0
  0
LINE
  5
36E
330
1F
100
AcDbEntity
  8
0
  6
Continuous
 62
     7
370
    15
100
AcDbLine
 10
255.6741852045
 20
157.8829908803
 30
0.0
 11
255.6741852045
 21
162.7822357516
 31
0.0
  0
ARC
  5
36F
330
1F
100
AcDbEntity
  8
0
  6
Continuous
 62
     7
370
    15
100
AcDbCircle
 10
257.1624426524
 20
169.464193291
 30
0.0
 40
11.67643607909262
100
AcDbArc
 50
255.400486208
 51
262.6772643941
  0
LINE
  5
370
330
1F
100
AcDbEntity
  8
0
  6
Continuous
 62
     7
370
    15
100
AcDbLine
 10
254.2192667893
 20
163.0640189141
 30
0.0
 11
254.2192667893
 21
158.1647740428
 31
0.0
  0
SPLINE
  5
371
330
1F
100
AcDbEntity
  8
0
  6
Continuous
 62
     7
370
    15
100
AcDbSpline
210
0.0
220
0.0
230
1.0
 70
     8
 71
     3
 72
    10
 73
     6
 74
     0
 42
0.000000001
 43
0.00000001
 40
0.0
 40
0.0
 40
0.0
 40
0.0
 40
0.6068408479055252
 40
0.9873411522226683
 40
1.0
 40
1.0
 40
1.0
 40
1.0
 10
255.9156681547077
 20
157.5592721276914
 30
0.0
 10
255.8676267559629
 20
157.6156539336858
 30
0.0
 10
255.7894625220378
 20
157.7073881626637
 30
0.0
 10
255.7063800590463
 20
157.8307157246607
 30
0.0
 10
255.6751894718205
 20
157.881360239899
 30
0.0
 10
255.6741852044807
 20
157.8829908803298
 30
0.0
  0
LINE
  5
372
330
1F
100
AcDbEntity
  8
0
  6
Continuous
 62
     7
370
    15
100
AcDbLine
 10
252.4699002094
 20
164.1304790868
 30
0.0
 11
252.4699002094
 21
158.5266496162
 31
0.0
  0
LINE
  5
373
330
1F
100
AcDbEntity
  8
0
  6
Continuous
 62
     7
370
    15
100
AcDbLine
 10
254.0564962482
 20
157.9193495959
 30
0.0
 11
254.0564962482
 21
163.5231790665
 31
0.0
  0
SPLINE
  5
374
330
1F
100
AcDbEntity
  8
0
  6
Continuous
 62
     7
370
    15
100
AcDbSpline
210
0.0
220
0.0
230
1.0
 70
     8
 71
     3
 72
    16
 73
    12
 74
     0
 42
0.000000001
 43
0.00000001
 40
0.0
 40
0.0
 40
0.0
 40
0.0
 40
0.0316438967043507
 40
0.144229690679792
 40
0.2602597186198056
 40
0.3918268288811934
 40
0.549207538133842
 40
0.7249905054734762
 40
0.8558655534151711
 40
0.9874199933190979
 40
1.0
 40
1.0
 40
1.0
 40
1.0
 10
252.4699002094085
 20
158.5266496161952
 30
0.0
 10
252.4838758747094
 20
158.5110011861626
 30
0.0
 10
252.5475755480532
 20
158.4396772198285
 30
0.0
 10
252.7023369292126
 20
158.3308033492189
 30
0.0
 10
252.9564380307442
 20
158.2146157417515
 30
0.0
 10
253.252593770929
 20
158.1067904028098
 30
0.0
 10
253.5657801287289
 20
157.9901458237204
 30
0.0
 10
253.8189157955179
 20
157.8826651680487
 30
0.0
 10
253.9801986390529
 20
157.8391665617249
 30
0.0
 10
254.0363920132519
 20
157.8745286205154
 30
0.0
 10
254.0548824123194
 20
157.9157516624385
 30
0.0
 10
254.0564962482158
 20
157.9193495958617
 30
0.0
  0
SPLINE
  5
375
330
1F
100
AcDbEntity
  8
0
  6
Continuous
 62
     7
370
    15
100
AcDbSpline
210
0.0
220
0.0
230
1.0
 70
     8
 71
     3
 72
    10
 73
     6
 74
     0
 42
0.000000001
 43
0.00000001
 40
0.0
 40
0.0
 40
0.0
 40
0.0
 40
0.6068408479055152
 40
0.9873411522226672
 40
1.0
 40
1.0
 40
1.0
 40
1.0
 10
259.7376549953134
 20
157.7160983943572
 30
0.0
 10
259.708208828863
 20
157.7604941311546
 30
0.0
 10
259.6602993777904
 20
157.8327268064509
 30
0.0
 10
259.5847116303969
 20
157.931510661126
 30
0.0
 10
259.5542534116558
 20
157.9726191062562
 30
0.0
 10
259.5532727249477
 20
157.9739427064992
 30
0.0
  0
SPLINE
  5
376
330
1F
100
AcDbEntity
  8
0
  6
Continuous
 62
     7
370
    15
100
AcDbSpline
210
0.0
220
0.0
230
1.0
 70
     8
 71
     3
 72
    10
 73
     6
 74
     0
 42
0.000000001
 43
0.00000001
 40
0.0
 40
0.0
 40
0.0
 40
0.0
 40
0.0126588477772855
 40
0.3931591520965009
 40
1.0
 40
1.0
 40
1.0
 40
1.0
 10
254.2192667893283
 20
158.1647740427665
 30
0.0
 10
254.2183318752068
 20
158.1635189757555
 30
0.0
 10
254.1892952638405
 20
158.1245390393054
 30
0.0
 10
254.1186374542343
 20
158.0309873188636
 30
0.0
 10
254.0801509012899
 20
157.9618455784278
 30
0.0
 10
254.0564962482158
 20
157.9193495958617
 30
0.0
  0
LINE
  5
377
330
1F
100
AcDbEntity
  8
0
  6
Continuous
 62
     7
370
    15
100
AcDbLine
 10
261.6837061799
 20
163.485140145
 30
0.0
 11
261.6837061799
 21
158.5858952737
 31
0.0
  0
SPLINE
  5
378
330
1F
100
AcDbEntity
  8
0
  6
Continuous
 62
     7
370
    15
100
AcDbSpline
210
0.0
220
0.0
230
1.0
 70
     8
 71
     3
 72
    10
 73
     6
 74
     0
 42
0.000000001
 43
0.00000001
 40
0.0
 40
0.0
 40
0.0
 40
0.0
 40
0.0126588477772935
 40
0.3931591520964969
 40
1.0
 40
1.0
 40
1.0
 40
1.0
 10
261.6837061798601
 20
158.5858952736797
 30
0.0
 10
261.6828674998169
 20
158.5840490726714
 30
0.0
 10
261.6568197314547
 20
158.5267096658139
 30
0.0
 10
261.5831203488058
 20
158.3850440950885
 30
0.0
 10
261.4957199197407
 20
158.2739445740216
 30
0.0
 10
261.4420017592433
 20
158.2056604481
 30
0.0
  0
SPLINE
  5
379
330
1F
100
AcDbEntity
  8
0
  6
Continuous
 62
     7
370
    15
100
AcDbSpline
210
0.0
220
0.0
230
1.0
 70
     8
 71
     3
 72
     9
 73
     5
 74
     0
 42
0.000000001
 43
0.00000001
 40
0.0
 40
0.0
 40
0.0
 40
0.0
 40
0.1064920700192436
 40
1.0
 40
1.0
 40
1.0
 40
1.0
 10
249.8552967962321
 20
161.686028728799
 30
0.0
 10
249.8551931992234
 20
161.685117252463
 30
0.0
 10
249.8542203849225
 20
161.6765581519051
 30
0.0
 10
249.8555778802524
 20
161.6680576178577
 30
0.0
 10
249.8567908130947
 20
161.6604623232772
 30
0.0
  0
ARC
  5
37A
330
1F
100
AcDbEntity
  8
0
  6
Continuous
 62
     7
370
    15
100
AcDbCircle
 10
252.6268695877
 20
162.1711583516
 30
0.0
 40
2.813710448732123
100
AcDbArc
 50
189.9283392715
 51
208.7508934015
  0
SPLINE
  5
37B
330
1F
100
AcDbEntity
  8
0
  6
Continuous
 62
     7
370
    15
100
AcDbSpline
210
0.0
220
0.0
230
1.0
 70
     8
 71
     3
 72
    10
 73
     6
 74
     0
 42
0.000000001
 43
0.00000001
 40
0.0
 40
0.0
 40
0.0
 40
0.0
 40
0.6068408479055138
 40
0.9873411522226715
 40
1.0
 40
1.0
 40
1.0
 40
1.0
 10
250.3236418976673
 20
160.3590228430483
 30
0.0
 10
250.2785613565583
 20
160.4464419323419
 30
0.0
 10
250.2052144921292
 20
160.5886743885902
 30
0.0
 10
250.1699713850591
 20
160.751439533667
 30
0.0
 10
250.1603453929764
 20
160.8156881011544
 30
0.0
 10
250.1600354575016
 20
160.8177567617245
 30
0.0
  0
SPLINE
  5
37C
330
1F
100
AcDbEntity
  8
0
  6
Continuous
 62
     7
370
    15
100
AcDbSpline
210
0.0
220
0.0
230
1.0
 70
     8
 71
     3
 72
    13
 73
     9
 74
     0
 42
0.000000001
 43
0.00000001
 40
0.0
 40
0.0
 40
0.0
 40
0.0
 40
0.0477516423517353
 40
0.2176471712757056
 40
0.3927401583379186
 40
0.591279094713254
 40
0.8287715695342012
 40
1.0
 40
1.0
 40
1.0
 40
1.0
 10
250.3236418976661
 20
160.3590228430486
 30
0.0
 10
250.3364055575682
 20
160.3392376240494
 30
0.0
 10
250.3945810325046
 20
160.2490585906974
 30
0.0
 10
250.5305045902063
 20
160.095288143308
 30
0.0
 10
250.7348582328595
 20
159.907868344961
 30
0.0
 10
250.9410014181005
 20
159.7237692069513
 30
0.0
 10
251.1046507247969
 20
159.5496597717561
 30
0.0
 10
251.1465261810189
 20
159.4673970410954
 30
0.0
 10
251.1640693713749
 20
159.4329341152341
 30
0.0
  0
SPLINE
  5
37D
330
1F
100
AcDbEntity
  8
0
  6
Continuous
 62
     7
370
    15
100
AcDbSpline
210
0.0
220
0.0
230
1.0
 70
     8
 71
     3
 72
     9
 73
     5
 74
     0
 42
0.000000001
 43
0.00000001
 40
0.0
 40
0.0
 40
0.0
 40
0.0
 40
0.883888384583879
 40
1.0
 40
1.0
 40
1.0
 40
1.0
 10
251.1978691401812
 20
159.3307195109348
 30
0.0
 10
251.1910514565562
 20
159.335375105057
 30
0.0
 10
251.1833381708701
 20
159.3406422792879
 30
0.0
 10
251.172892946764
 20
159.3715371461928
 30
0.0
 10
251.1716801349196
 20
159.3751243990972
 30
0.0
  0
SPLINE
  5
37E
330
1F
100
AcDbEntity
  8
0
  6
Continuous
 62
     7
370
    15
100
AcDbSpline
210
0.0
220
0.0
230
1.0
 70
     8
 71
     3
 72
    10
 73
     6
 74
     0
 42
0.000000001
 43
0.00000001
 40
0.0
 40
0.0
 40
0.0
 40
0.0
 40
0.0171152705622527
 40
0.5315669625341037
 40
1.0
 40
1.0
 40
1.0
 40
1.0
 10
251.220083254067
 20
159.5878837067877
 30
0.0
 10
251.219488404964
 20
159.586865469275
 30
0.0
 10
251.2010135506083
 20
159.5552409956923
 30
0.0
 10
251.1695302188193
 20
159.4979249401908
 30
0.0
 10
251.1726524463604
 20
159.4503765906623
 30
0.0
 10
251.1741404687979
 20
159.4277155225543
 30
0.0
  0
ARC
  5
37F
330
1F
100
AcDbEntity
  8
0
  6
Continuous
 62
     7
370
    15
100
AcDbCircle
 10
255.224464026
 20
164.6056221355
 30
0.0
 40
6.419716839940593
100
AcDbArc
 50
231.4085597128
 51
242.2567676528
  0
SPLINE
  5
380
330
1F
100
AcDbEntity
  8
0
  6
Continuous
 62
     7
370
    15
100
AcDbSpline
210
0.0
220
0.0
230
1.0
 70
     8
 71
     3
 72
    10
 73
     6
 74
     0
 42
0.000000001
 43
0.00000001
 40
0.0
 40
0.0
 40
0.0
 40
0.0
 40
0.6068408479055158
 40
0.9873411522226697
 40
1.0
 40
1.0
 40
1.0
 40
1.0
 10
252.4699002094098
 20
158.5266496161953
 30
0.0
 10
252.4161362323678
 20
158.5987790621594
 30
0.0
 10
252.3286612589476
 20
158.7161349892251
 30
0.0
 10
252.2603459592208
 20
158.8628813288757
 30
0.0
 10
252.2367804961695
 20
158.9219957167436
 30
0.0
 10
252.2360217408207
 20
158.9238990681815
 30
0.0
  0
ARC
  5
381
330
1F
100
AcDbEntity
  8
0
  6
Continuous
 62
     7
370
    15
100
AcDbCircle
 10
258.7620734728
 20
165.736661063
 30
0.0
 40
7.724596368013623
100
AcDbArc
 50
292.2237562641
 51
301.8112732643
  0
SPLINE
  5
382
330
1F
100
AcDbEntity
  8
0
  6
Continuous
 62
     7
370
    15
100
AcDbSpline
210
0.0
220
0.0
230
1.0
 70
     8
 71
     3
 72
    10
 73
     6
 74
     0
 42
0.000000001
 43
0.00000001
 40
0.0
 40
0.0
 40
0.0
 40
0.0
 40
0.6068408479055176
 40
0.9873411522226733
 40
1.0
 40
1.0
 40
1.0
 40
1.0
 10
262.9117624438042
 20
158.9551069446876
 30
0.0
 10
262.9088015861686
 20
158.9944898406222
 30
0.0
 10
262.9039842166728
 20
159.0585665322032
 30
0.0
 10
262.8561448607505
 20
159.1382582164453
 30
0.0
 10
262.8345802656078
 20
159.1713195762726
 30
0.0
 10
262.8338859337429
 20
159.1723840783174
 30
0.0
  0
SPLINE
  5
383
330
1F
100
AcDbEntity
  8
0
  6
Continuous
 62
     7
370
    15
100
AcDbSpline
210
0.0
220
0.0
230
1.0
 70
     8
 71
     3
 72
    16
 73
    12
 74
     0
 42
0.000000001
 43
0.00000001
 40
0.0
 40
0.0
 40
0.0
 40
0.0
 40
0.0316438967043534
 40
0.1442296906797944
 40
0.2602597186198053
 40
0.3918268288811939
 40
0.5492075381338455
 40
0.724990505473477
 40
0.855865553415173
 40
0.9874199933190981
 40
1.0
 40
1.0
 40
1.0
 40
1.0
 10
262.9117624438044
 20
158.9551069446868
 30
0.0
 10
262.9104438371145
 20
158.9467652790616
 30
0.0
 10
262.904433760771
 20
158.9087448081909
 30
0.0
 10
262.9004170343367
 20
158.8868939744167
 30
0.0
 10
262.9328749488985
 20
158.9361333657272
 30
0.0
 10
263.0288285671971
 20
159.0546679412317
 30
0.0
 10
263.2156559137314
 20
159.2266751295289
 30
0.0
 10
263.4769698146748
 20
159.4161798877968
 30
0.0
 10
263.7485579376948
 20
159.6225723713838
 30
0.0
 10
263.8990293685569
 20
159.7772394826566
 30
0.0
 10
263.9585554987075
 20
159.8635005082369
 30
0.0
 10
263.9637509195991
 20
159.8710293419323
 30
0.0
  0
SPLINE
  5
384
330
1F
100
AcDbEntity
  8
0
  6
Continuous
 62
     7
370
    15
100
AcDbSpline
210
0.0
220
0.0
230
1.0
 70
     8
 71
     3
 72
    10
 73
     6
 74
     0
 42
0.000000001
 43
0.00000001
 40
0.0
 40
0.0
 40
0.0
 40
0.0
 40
0.0126588477772929
 40
0.3931591520965023
 40
1.0
 40
1.0
 40
1.0
 40
1.0
 10
264.1488715284865
 20
160.3172870748753
 30
0.0
 10
264.1484428771088
 20
160.315244838257
 30
0.0
 10
264.1351298003455
 20
160.2518169472389
 30
0.0
 10
264.0908233889202
 20
160.0918977946664
 30
0.0
 10
264.0121222881266
 20
159.9551050617194
 30
0.0
 10
263.9637509195991
 20
159.8710293419323
 30
0.0
  0
ARC
  5
385
330
1F
100
AcDbEntity
  8
0
  6
Continuous
 62
     7
370
    15
100
AcDbCircle
 10
261.5668668992
 20
162.3796198757
 30
0.0
 40
3.304536954971522
100
AcDbArc
 50
321.3844768585
 51
338.2890931006
  0
SPLINE
  5
386
330
1F
100
AcDbEntity
  8
0
  6
Continuous
 62
     7
370
    15
100
AcDbSpline
210
0.0
220
0.0
230
1.0
 70
     8
 71
     3
 72
    10
 73
     6
 74
     0
 42
0.000000001
 43
0.00000001
 40
0.0
 40
0.0
 40
0.0
 40
0.0
 40
0.3701031650414557
 40
0.9797187268649702
 40
0.9999999999999999
 40
0.9999999999999999
 40
0.9999999999999999
 40
0.9999999999999999
 10
264.6217367406314
 20
161.0238081578967
 30
0.0
 10
264.6302231777912
 20
161.040070975192
 30
0.0
 10
264.6526880529805
 20
161.0831210978624
 30
0.0
 10
264.6440731084704
 20
161.1276118584649
 30
0.0
 10
264.6372082054561
 20
161.156270842661
 30
0.0
 10
264.6369871708908
 20
161.1571935980298
 30
0.0
  0
SPLINE
  5
387
330
1F
100
AcDbEntity
  8
0
  6
Continuous
 62
     7
370
    15
100
AcDbSpline
210
0.0
220
0.0
230
1.0
 70
     8
 71
     3
 72
     9
 73
     5
 74
     0
 42
0.000000001
 43
0.00000001
 40
0.0
 40
0.0
 40
0.0
 40
0.0
 40
0.7928049206939529
 40
1.0
 40
1.0
 40
1.0
 40
1.0
 10
264.6442971315257
 20
161.9145852057488
 30
0.0
 10
264.6618247239458
 20
161.947571103404
 30
0.0
 10
264.683933053451
 20
161.9891776787346
 30
0.0
 10
264.7015844212419
 20
162.0322451451597
 30
0.0
 10
264.7052416977912
 20
162.0411685122811
 30
0.0
  0
SPLINE
  5
388
330
1F
100
AcDbEntity
  8
0
  6
Continuous
 62
     7
370
    15
100
AcDbSpline
210
0.0
220
0.0
230
1.0
 70
     8
 71
     3
 72
     9
 73
     5
 74
     0
 42
0.000000001
 43
0.00000001
 40
0.0
 40
0.0
 40
0.0
 40
0.0
 40
0.3112914965357306
 40
1.0
 40
1.0
 40
1.0
 40
1.0
 10
264.782681560433
 20
162.4692462386436
 30
0.0
 10
264.7826207197412
 20
162.4236218539427
 30
0.0
 10
264.7824252736963
 20
162.2770570257713
 30
0.0
 10
264.7367195904794
 20
162.1373712759772
 30
0.0
 10
264.7052416977912
 20
162.0411685122811
 30
0.0
  0
LINE
  5
389
330
1F
100
AcDbEntity
  8
0
  6
Continuous
 62
     7
370
    15
100
AcDbLine
 10
262.8338859337
 20
159.1723840783
 30
0.0
 11
262.8338859337
 21
164.0716289496
 31
0.0
  0
LINE
  5
38A
330
1F
100
AcDbEntity
  8
0
  6
Continuous
 62
     7
370
    15
100
AcDbLine
 10
252.2360217408
 20
158.9238990682
 30
0.0
 11
252.2360217408
 21
163.8231439395
 31
0.0
  0
LINE
  5
38B
330
1F
100
AcDbEntity
  8
0
  6
Continuous
 62
     7
370
    15
100
AcDbLine
 10
263.9637509196
 20
159.8710293419
 30
0.0
 11
263.9637509196
 21
165.4748588126
 31
0.0
  0
LINE
  5
38C
330
1F
100
AcDbEntity
  8
0
  6
Continuous
 62
     7
370
    15
100
AcDbLine
 10
251.2200832541
 20
164.4871285781
 30
0.0
 11
251.2200832541
 21
159.5878837068
 31
0.0
  0
LINE
  5
38D
330
1F
100
AcDbEntity
  8
0
  6
Continuous
 62
     7
370
    15
100
AcDbLine
 10
250.3236418977
 20
165.9628523137
 30
0.0
 11
250.3236418977
 21
160.359022843
 31
0.0
  0
ARC
  5
38E
330
1F
100
AcDbEntity
  8
0
  6
Continuous
 62
     7
370
    15
100
AcDbCircle
 10
257.3200056613
 20
163.5288723614
 30
0.0
 40
3.620871991671347
100
AcDbArc
 50
64.6933390983
 51
115.4505578957
  0
LINE
  5
38F
330
1F
100
AcDbEntity
  8
0
  6
Continuous
 62
     7
370
    15
100
AcDbLine
 10
264.1488715285
 20
165.2165319462
 30
0.0
 11
264.1488715285
 21
160.3172870749
 31
0.0
  0
LINE
  5
390
330
1F
100
AcDbEntity
  8
0
  6
Continuous
 62
     7
370
    15
100
AcDbLine
 10
264.6369871709
 20
161.157193598
 30
0.0
 11
264.6369871709
 21
166.0564384693
 31
0.0
  0
LINE
  5
391
330
1F
100
AcDbEntity
  8
0
  6
Continuous
 62
     7
370
    15
100
AcDbLine
 10
250.1600354575
 20
160.8177567617
 30
0.0
 11
250.1600354575
 21
165.717001633
 31
0.0
  0
LINE
  5
392
330
1F
100
AcDbEntity
  8
0
  6
Continuous
 62
     7
370
    15
100
AcDbLine
 10
249.8552967962
 20
166.5852736001
 30
0.0
 11
249.8552967962
 21
161.6860287288
 31
0.0
  0
LINE
  5
393
330
1F
100
AcDbEntity
  8
0
  6
Continuous
 62
     7
370
    15
100
AcDbLine
 10
264.7052416978
 20
162.0411685123
 30
0.0
 11
264.7052416978
 21
167.6449979829
 31
0.0
  0
SPLINE
  5
394
330
1F
100
AcDbEntity
  8
0
  6
Continuous
 62
     7
370
    15
100
AcDbSpline
210
0.0
220
0.0
230
1.0
 70
     8
 71
     3
 72
    10
 73
     6
 74
     0
 42
0.000000001
 43
0.00000001
 40
0.0
 40
0.0
 40
0.0
 40
0.0
 40
0.0126588477772872
 40
0.3931591520965058
 40
1.0
 40
1.0
 40
1.0
 40
1.0
 10
246.3498940759842
 20
176.9694501072431
 30
0.0
 10
246.3500447637884
 20
176.97153996105
 30
0.0
 10
246.3547248334395
 20
177.036446749188
 30
0.0
 10
246.3561308473427
 20
177.203715052933
 30
0.0
 10
246.3111612863962
 20
177.3616934727549
 30
0.0
 10
246.2835220388746
 20
177.4587903657785
 30
0.0
  0
ARC
  5
395
330
1F
100
AcDbEntity
  8
0
  6
Continuous
 62
     7
370
    15
100
AcDbCircle
 10
243.4575719029
 20
177.7510686778
 30
0.0
 40
2.996073287304512
100
AcDbArc
 50
326.8288487072
 51
344.8776565085
  0
SPLINE
  5
396
330
1F
100
AcDbEntity
  8
0
  6
Continuous
 62
     7
370
    15
100
AcDbSpline
210
0.0
220
0.0
230
1.0
 70
     8
 71
     3
 72
    10
 73
     6
 74
     0
 42
0.000000001
 43
0.00000001
 40
0.0
 40
0.0
 40
0.0
 40
0.0
 40
0.6068408479055155
 40
0.9873411522226635
 40
1.0
 40
1.0
 40
1.0
 40
1.0
 10
245.7922012677199
 20
176.3628288801485
 30
0.0
 10
245.8387875310316
 20
176.3079960247811
 30
0.0
 10
245.9145842330081
 20
176.2187819667871
 30
0.0
 10
245.9538069468875
 20
176.1421418706707
 30
0.0
 10
245.9650430351523
 20
176.1127383567668
 30
0.0
 10
245.965404812133
 20
176.111791629202
 30
0.0
  0
SPLINE
  5
397
330
1F
100
AcDbEntity
  8
0
  6
Continuous
 62
     7
370
    15
100
AcDbSpline
210
0.0
220
0.0
230
1.0
 70
     8
 71
     3
 72
    16
 73
    12
 74
     0
 42
0.000000001
 43
0.00000001
 40
0.0
 40
0.0
 40
0.0
 40
0.0
 40
0.0316438967043507
 40
0.1442296906797931
 40
0.2602597186198056
 40
0.3918268288811934
 40
0.5492075381338447
 40
0.7249905054734772
 40
0.8558655534151753
 40
0.9874199933190997
 40
1.0
 40
1.0
 40
1.0
 40
1.0
 10
245.7922012677211
 20
176.3628288801488
 30
0.0
 10
245.7791451775155
 20
176.3762613519328
 30
0.0
 10
245.7196368347398
 20
176.4374852039945
 30
0.0
 10
245.5798547780356
 20
176.5102624493765
 30
0.0
 10
245.3680437204187
 20
176.5245410641784
 30
0.0
 10
245.1475142060866
 20
176.4501251051137
 30
0.0
 10
244.9529794100364
 20
176.2808475139517
 30
0.0
 10
244.8457281000233
 20
176.0367814113676
 30
0.0
 10
244.8250144197565
 20
175.7415416172911
 30
0.0
 10
244.8431023886363
 20
175.5271791095466
 30
0.0
 10
244.8535915769668
 20
175.4161221235972
 30
0.0
 10
244.8545070698445
 20
175.406429106707
 30
0.0
  0
SPLINE
  5
398
330
1F
100
AcDbEntity
  8
0
  6
Continuous
 62
     7
370
    15
100
AcDbSpline
210
0.0
220
0.0
230
1.0
 70
     8
 71
     3
 72
    10
 73
     6
 74
     0
 42
0.000000001
 43
0.00000001
 40
0.0
 40
0.0
 40
0.0
 40
0.0
 40
0.0126588477772843
 40
0.3931591520965018
 40
1.0
 40
1.0
 40
1.0
 40
1.0
 10
244.7932870647888
 20
174.9162919123981
 30
0.0
 10
244.7939262634796
 20
174.9182595835792
 30
0.0
 10
244.8137785296357
 20
174.9793716173743
 30
0.0
 10
244.8566903194961
 20
175.1397846758778
 30
0.0
 10
244.8553381450101
 20
175.304928316659
 30
0.0
 10
244.8545070698445
 20
175.406429106707
 30
0.0
  0
ARC
  5
399
330
1F
100
AcDbEntity
  8
0
  6
Continuous
 62
     7
370
    15
100
AcDbCircle
 10
240.7391117052
 20
180.5880642183
 30
0.0
 40
6.971752931379865
100
AcDbArc
 50
295.2902733086
 51
305.5571345408
  0
SPLINE
  5
39A
330
1F
100
AcDbEntity
  8
0
  6
Continuous
 62
     7
370
    15
100
AcDbSpline
210
0.0
220
0.0
230
1.0
 70
     8
 71
     3
 72
    10
 73
     6
 74
     0
 42
0.000000001
 43
0.00000001
 40
0.0
 40
0.0
 40
0.0
 40
0.0
 40
0.606840847905516
 40
0.9873411522226767
 40
1.0
 40
1.0
 40
1.0
 40
1.0
 10
243.4797774610847
 20
174.5991153405219
 30
0.0
 10
243.5336228298304
 20
174.5287473410525
 30
0.0
 10
243.6212302290402
 20
174.4142573196316
 30
0.0
 10
243.6919987847474
 20
174.3206033585807
 30
0.0
 10
243.7166803849151
 20
174.2856439609957
 30
0.0
 10
243.7174750773896
 20
174.2845183463685
 30
0.0
  0
SPLINE
  5
39B
330
1F
100
AcDbEntity
  8
0
  6
Continuous
 62
     7
370
    15
100
AcDbSpline
210
0.0
220
0.0
230
1.0
 70
     8
 71
     3
 72
    16
 73
    12
 74
     0
 42
0.000000001
 43
0.00000001
 40
0.0
 40
0.0
 40
0.0
 40
0.0
 40
0.0316438967043507
 40
0.144229690679794
 40
0.2602597186198051
 40
0.3918268288811906
 40
0.549207538133844
 40
0.7249905054734758
 40
0.8558655534151709
 40
0.9874199933190965
 40
1.0
 40
1.0
 40
1.0
 40
1.0
 10
243.479777461086
 20
174.5991153405218
 30
0.0
 10
243.4658919678536
 20
174.6167152381703
 30
0.0
 10
243.4026032897063
 20
174.696933797141
 30
0.0
 10
243.2482761324345
 20
174.8152049663718
 30
0.0
 10
242.9928059927609
 20
174.9017644013429
 30
0.0
 10
242.6919559439373
 20
174.9079974019687
 30
0.0
 10
242.3692548463602
 20
174.8187278120471
 30
0.0
 10
242.1025480233084
 20
174.6325069656461
 30
0.0
 10
241.9270156623331
 20
174.3676232503039
 30
0.0
 10
241.8628802837892
 20
174.1603835297729
 30
0.0
 10
241.8412427292266
 20
174.0510510152114
 30
0.0
 10
241.8393542106427
 20
174.0415085096118
 30
0.0
  0
SPLINE
  5
39C
330
1F
100
AcDbEntity
  8
0
  6
Continuous
 62
     7
370
    15
100
AcDbSpline
210
0.0
220
0.0
230
1.0
 70
     8
 71
     3
 72
    10
 73
     6
 74
     0
 42
0.000000001
 43
0.00000001
 40
0.0
 40
0.0
 40
0.0
 40
0.0
 40
0.0126588477772863
 40
0.3931591520964973
 40
1.0
 40
1.0
 40
1.0
 40
1.0
 10
241.666946014337
 20
173.5875098077288
 30
0.0
 10
241.6679024511415
 20
173.589230659986
 30
0.0
 10
241.6976075151175
 20
173.6426769788152
 30
0.0
 10
241.7705269014972
 20
173.7851728335699
 30
0.0
 10
241.813154427533
 20
173.9439318471072
 30
0.0
 10
241.8393542106427
 20
174.0415085096118
 30
0.0
  0
ARC
  5
39D
330
1F
100
AcDbEntity
  8
0
  6
Continuous
 62
     7
370
    15
100
AcDbCircle
 10
239.0272181112
 20
185.3467372055
 30
0.0
 40
12.05187090849413
100
AcDbArc
 50
275.5273939181
 51
282.6520988717
  0
SPLINE
  5
39E
330
1F
100
AcDbEntity
  8
0
  6
Continuous
 62
     7
370
    15
100
AcDbSpline
210
0.0
220
0.0
230
1.0
 70
     8
 71
     3
 72
    10
 73
     6
 74
     0
 42
0.000000001
 43
0.00000001
 40
0.0
 40
0.0
 40
0.0
 40
0.0
 40
0.6068408479055148
 40
0.9873411522226744
 40
1.0
 40
1.0
 40
1.0
 40
1.0
 10
239.9495734527563
 20
173.7391615345589
 30
0.0
 10
239.9962501038644
 20
173.6532444094619
 30
0.0
 10
240.0721938684381
 20
173.5134556764163
 30
0.0
 10
240.1555458886218
 20
173.3959617626883
 30
0.0
 10
240.1870595858596
 20
173.3523098642928
 30
0.0
 10
240.1880742566211
 20
173.3509043705276
 30
0.0
  0
SPLINE
  5
39F
330
1F
100
AcDbEntity
  8
0
  6
Continuous
 62
     7
370
    15
100
AcDbSpline
210
0.0
220
0.0
230
1.0
 70
     8
 71
     3
 72
    16
 73
    12
 74
     0
 42
0.000000001
 43
0.00000001
 40
0.0
 40
0.0
 40
0.0
 40
0.0
 40
0.0316438967043528
 40
0.1442296906797944
 40
0.2602597186198069
 40
0.3918268288811924
 40
0.5492075381338443
 40
0.7249905054734767
 40
0.8558655534151735
 40
0.987419993319098
 40
1.0
 40
1.0
 40
1.0
 40
1.0
 10
239.9495734527573
 20
173.7391615345585
 30
0.0
 10
239.9385791631962
 20
173.7606099309618
 30
0.0
 10
239.8884682998768
 20
173.8583695592321
 30
0.0
 10
239.7609478791986
 20
174.0202379761481
 30
0.0
 10
239.530271675084
 20
174.1819963633884
 30
0.0
 10
239.2297136193941
 20
174.2812574406899
 30
0.0
 10
238.8653137187826
 20
174.2982712278358
 30
0.0
 10
238.5106152605448
 20
174.2081716969288
 30
0.0
 10
238.2272979732298
 20
174.0142645779167
 30
0.0
 10
238.0981242701493
 20
173.8369266361155
 30
0.0
 10
238.0501577379647
 20
173.7383607445347
 30
0.0
 10
238.0459712349487
 20
173.7297579462171
 30
0.0
  0
SPLINE
  5
3A0
330
1F
100
AcDbEntity
  8
0
  6
Continuous
 62
     7
370
    15
100
AcDbSpline
210
0.0
220
0.0
230
1.0
 70
     8
 71
     3
 72
    10
 73
     6
 74
     0
 42
0.000000001
 43
0.00000001
 40
0.0
 40
0.0
 40
0.0
 40
0.0
 40
0.0126588477772866
 40
0.3931591520965021
 40
1.0
 40
1.0
 40
1.0
 40
1.0
 10
237.8085714843616
 20
173.3391498850983
 30
0.0
 10
237.8095888828104
 20
173.3405654170648
 30
0.0
 10
237.8411872967031
 20
173.3845290824399
 30
0.0
 10
237.9245755889087
 20
173.5028466752134
 30
0.0
 10
237.9997608042897
 20
173.6433819690176
 30
0.0
 10
238.0459712349487
 20
173.7297579462171
 30
0.0
  0
ARC
  5
3A1
330
1F
100
AcDbEntity
  8
0
  6
Continuous
 62
     7
370
    15
100
AcDbCircle
 10
238.8591225168
 20
185.4539429549
 30
0.0
 40
12.16025775200111
100
AcDbArc
 50
257.961652526
 51
265.0439152501
  0
SPLINE
  5
3A2
330
1F
100
AcDbEntity
  8
0
  6
Continuous
 62
     7
370
    15
100
AcDbSpline
210
0.0
220
0.0
230
1.0
 70
     8
 71
     3
 72
    10
 73
     6
 74
     0
 42
0.000000001
 43
0.00000001
 40
0.0
 40
0.0
 40
0.0
 40
0.0
 40
0.6068408479055133
 40
0.9873411522226666
 40
1.0
 40
1.0
 40
1.0
 40
1.0
 10
236.1475045558831
 20
174.0133913900955
 30
0.0
 10
236.174505518384
 20
173.9160775335
 30
0.0
 10
236.2184365779341
 20
173.7577461099814
 30
0.0
 10
236.2920379560981
 20
173.6159740519008
 30
0.0
 10
236.3219396806808
 20
173.562822184138
 30
0.0
 10
236.3229024495182
 20
173.5611108125484
 30
0.0
  0
SPLINE
  5
3A3
330
1F
100
AcDbEntity
  8
0
  6
Continuous
 62
     7
370
    15
100
AcDbSpline
210
0.0
220
0.0
230
1.0
 70
     8
 71
     3
 72
    16
 73
    12
 74
     0
 42
0.000000001
 43
0.00000001
 40
0.0
 40
0.0
 40
0.0
 40
0.0
 40
0.031643896704351
 40
0.1442296906797937
 40
0.2602597186198061
 40
0.3918268288811894
 40
0.5492075381338446
 40
0.7249905054734771
 40
0.8558655534151755
 40
0.9874199933191002
 40
1.0
 40
1.0
 40
1.0
 40
1.0
 10
236.1475045558836
 20
174.0133913900948
 30
0.0
 10
236.142347381003
 20
174.0373381560101
 30
0.0
 10
236.1188414978701
 20
174.146485100617
 30
0.0
 10
236.0522968075247
 20
174.3383722417453
 30
0.0
 10
235.9082240415748
 20
174.5580982148224
 30
0.0
 10
235.6884922673193
 20
174.7378396877662
 30
0.0
 10
235.3800342227643
 20
174.8589336827527
 30
0.0
 10
235.0323852947816
 20
174.8774758977883
 30
0.0
 10
234.7171977194649
 20
174.7761477710343
 30
0.0
 10
234.5575976812715
 20
174.6434784420164
 30
0.0
 10
234.4961547650276
 20
174.5618364170762
 30
0.0
 10
234.4907920476817
 20
174.5547107282244
 30
0.0
  0
SPLINE
  5
3A4
330
1F
100
AcDbEntity
  8
0
  6
Continuous
 62
     7
370
    15
100
AcDbSpline
210
0.0
220
0.0
230
1.0
 70
     8
 71
     3
 72
    10
 73
     6
 74
     0
 42
0.000000001
 43
0.00000001
 40
0.0
 40
0.0
 40
0.0
 40
0.0
 40
0.0126588477772911
 40
0.3931591520964938
 40
1.0
 40
1.0
 40
1.0
 40
1.0
 10
234.2520118142664
 20
174.2377599852076
 30
0.0
 10
234.2528175632667
 20
174.238893505842
 30
0.0
 10
234.2778425575917
 20
174.2740984486095
 30
0.0
 10
234.349355930068
 20
174.3684552669423
 30
0.0
 10
234.4369530170503
 20
174.4838107795096
 30
0.0
 10
234.4907920476817
 20
174.5547107282244
 30
0.0
  0
ARC
  5
3A5
330
1F
100
AcDbEntity
  8
0
  6
Continuous
 62
     7
370
    15
100
AcDbCircle
 10
237.2213598521
 20
180.7449215418
 30
0.0
 40
7.152634430298326
100
AcDbArc
 50
235.3790567799
 51
245.471836977
  0
SPLINE
  5
3A6
330
1F
100
AcDbEntity
  8
0
  6
Continuous
 62
     7
370
    15
100
AcDbSpline
210
0.0
220
0.0
230
1.0
 70
     8
 71
     3
 72
    10
 73
     6
 74
     0
 42
0.000000001
 43
0.00000001
 40
0.0
 40
0.0
 40
0.0
 40
0.0
 40
0.6068408479055295
 40
0.9873411522226632
 40
1.0
 40
1.0
 40
1.0
 40
1.0
 10
233.09233206095
 20
175.3483252388
 30
0.0
 10
233.0924224487465
 20
175.2468207898368
 30
0.0
 10
233.0925695113437
 20
175.0816711959341
 30
0.0
 10
233.1366988176479
 20
174.9216881109992
 30
0.0
 10
233.1569764266208
 20
174.8607743144321
 30
0.0
 10
233.1576293204017
 20
174.8588130260475
 30
0.0
  0
SPLINE
  5
3A7
330
1F
100
AcDbEntity
  8
0
  6
Continuous
 62
     7
370
    15
100
AcDbSpline
210
0.0
220
0.0
230
1.0
 70
     8
 71
     3
 72
    16
 73
    12
 74
     0
 42
0.000000001
 43
0.00000001
 40
0.0
 40
0.0
 40
0.0
 40
0.0
 40
0.0316438967043508
 40
0.1442296906797938
 40
0.2602597186198063
 40
0.3918268288811925
 40
0.5492075381338446
 40
0.7249905054734765
 40
0.8558655534151738
 40
0.9874199933190979
 40
1.0
 40
1.0
 40
1.0
 40
1.0
 10
233.0923320609498
 20
175.3483252387993
 30
0.0
 10
233.0943938615943
 20
175.3727508088903
 30
0.0
 10
233.1037913410506
 20
175.4840800946548
 30
0.0
 10
233.1160529770766
 20
175.6843639436118
 30
0.0
 10
233.0971878305789
 20
175.9292937682813
 30
0.0
 10
233.0171592892212
 20
176.1554032988151
 30
0.0
 10
232.8472941846599
 20
176.3504861247766
 30
0.0
 10
232.5998470364351
 20
176.4610800481136
 30
0.0
 10
232.3372434293869
 20
176.4491268433339
 30
0.0
 10
232.1899817574266
 20
176.3639240424303
 30
0.0
 10
232.1315260369115
 20
176.3008283913917
 30
0.0
 10
232.1264240410178
 20
176.2953214239012
 30
0.0
  0
SPLINE
  5
3A8
330
1F
100
AcDbEntity
  8
0
  6
Continuous
 62
     7
370
    15
100
AcDbSpline
210
0.0
220
0.0
230
1.0
 70
     8
 71
     3
 72
    10
 73
     6
 74
     0
 42
0.000000001
 43
0.00000001
 40
0.0
 40
0.0
 40
0.0
 40
0.0
 40
0.0126588477772944
 40
0.3931591520965022
 40
1.0
 40
1.0
 40
1.0
 40
1.0
 10
231.9502442954864
 20
176.042558257422
 30
0.0
 10
231.9506224952444
 20
176.0435086403916
 30
0.0
 10
231.9623686429823
 20
176.073025684046
 30
0.0
 10
232.0028451453254
 20
176.1500594856423
 30
0.0
 10
232.0793825351928
 20
176.2400260575164
 30
0.0
 10
232.1264240410178
 20
176.2953214239012
 30
0.0
  0
ARC
  5
3A9
330
1F
100
AcDbEntity
  8
0
  6
Continuous
 62
     7
370
    15
100
AcDbCircle
 10
234.4742364107
 20
177.7795135518
 30
0.0
 40
3.063910881942928
100
AcDbArc
 50
196.7541619991
 51
214.5348846952
  0
SPLINE
  5
3AA
330
1F
100
AcDbEntity
  8
0
  6
Continuous
 62
     7
370
    15
100
AcDbSpline
210
0.0
220
0.0
230
1.0
 70
     8
 71
     3
 72
    10
 73
     6
 74
     0
 42
0.000000001
 43
0.00000001
 40
0.0
 40
0.0
 40
0.0
 40
0.0
 40
0.6068408479055328
 40
0.9873411522226672
 40
1.0
 40
1.0
 40
1.0
 40
1.0
 10
231.602686970712
 20
177.3862686339632
 30
0.0
 10
231.5758425644672
 20
177.2889025976035
 30
0.0
 10
231.5321662248074
 20
177.1304862766545
 30
0.0
 10
231.5349990472645
 20
176.9632389123019
 30
0.0
 10
231.5402191716793
 20
176.8983810300484
 30
0.0
 10
231.5403872480423
 20
176.8962927509018
 30
0.0
  0
SPLINE
  5
3AB
330
1F
100
AcDbEntity
  8
0
  6
Continuous
 62
     7
370
    15
100
AcDbSpline
210
0.0
220
0.0
230
1.0
 70
     8
 71
     3
 72
    16
 73
    12
 74
     0
 42
0.000000001
 43
0.00000001
 40
0.0
 40
0.0
 40
0.0
 40
0.0
 40
0.0316438967043497
 40
0.1442296906797939
 40
0.2602597186198055
 40
0.3918268288811922
 40
0.5492075381338432
 40
0.724990505473477
 40
0.855865553415174
 40
0.9874199933190974
 40
1.0
 40
1.0
 40
1.0
 40
1.0
 10
231.6026869707112
 20
177.3862686339626
 30
0.0
 10
231.6114152890631
 20
177.409025147701
 30
0.0
 10
231.6511980840775
 20
177.5127470428933
 30
0.0
 10
231.7389805510038
 20
177.6975556922137
 30
0.0
 10
231.8503779247276
 20
177.9281722825506
 30
0.0
 10
231.9314961992957
 20
178.1541132490364
 30
0.0
 10
231.9457392523177
 20
178.3732682815983
 30
0.0
 10
231.8647971473869
 20
178.5346586946946
 30
0.0
 10
231.7251419330454
 20
178.5849284034389
 30
0.0
 10
231.6296772733959
 20
178.5372714281048
 30
0.0
 10
231.5898719117146
 20
178.4893751723191
 30
0.0
 10
231.5863977129526
 20
178.4851948030039
 30
0.0
  0
SPLINE
  5
3AC
330
1F
100
AcDbEntity
  8
0
  6
Continuous
 62
     7
370
    15
100
AcDbSpline
210
0.0
220
0.0
230
1.0
 70
     8
 71
     3
 72
     9
 73
     5
 74
     0
 42
0.000000001
 43
0.00000001
 40
0.0
 40
0.0
 40
0.0
 40
0.0
 40
0.2560898680534341
 40
1.0
 40
1.0
 40
1.0
 40
1.0
 10
231.5202156423159
 20
178.3095297490746
 30
0.0
 10
231.5195465722297
 20
178.3244690438518
 30
0.0
 10
231.5169339343644
 20
178.3828051853431
 30
0.0
 10
231.5567661351847
 20
178.4415178539521
 30
0.0
 10
231.5863977129526
 20
178.4851948030039
 30
0.0
  0
SPLINE
  5
3AD
330
1F
100
AcDbEntity
  8
0
  6
Continuous
 62
     7
370
    15
100
AcDbSpline
210
0.0
220
0.0
230
1.0
 70
     8
 71
     3
 72
    16
 73
    12
 74
     0
 42
0.000000001
 43
0.00000001
 40
0.0
 40
0.0
 40
0.0
 40
0.0
 40
0.031643896704351
 40
0.1442296906797946
 40
0.2602597186198033
 40
0.3918268288811901
 40
0.5492075381338427
 40
0.7249905054734743
 40
0.8558655534151713
 40
0.9874199933190954
 40
1.0
 40
1.0
 40
1.0
 40
1.0
 10
232.0777184841062
 20
179.5811562886304
 30
0.0
 10
232.0907745743118
 20
179.6005431077897
 30
0.0
 10
232.1502829170875
 20
179.68890627484
 30
0.0
 10
232.2900649737916
 20
179.8385143843039
 30
0.0
 10
232.5018760314086
 20
180.019135873964
 30
0.0
 10
232.7224055457406
 20
180.1984168213642
 30
0.0
 10
232.9169403417909
 20
180.3852773078334
 30
0.0
 10
233.024191651804
 20
180.5425981137373
 30
0.0
 10
233.0449053320708
 20
180.6112661481257
 30
0.0
 10
233.026817363191
 20
180.5811739221761
 30
0.0
 10
233.0163281748605
 20
180.5410574173112
 30
0.0
 10
233.0154126819828
 20
180.5375560620754
 30
0.0
  0
SPLINE
  5
3AE
330
1F
100
AcDbEntity
  8
0
  6
Continuous
 62
     7
370
    15
100
AcDbSpline
210
0.0
220
0.0
230
1.0
 70
     8
 71
     3
 72
    15
 73
    11
 74
     0
 42
0.000000001
 43
0.00000001
 40
0.0
 40
0.0
 40
0.0
 40
0.0
 40
0.0139165702888953
 40
0.1476151651740689
 40
0.2992167642372371
 40
0.480562749088595
 40
0.6831132108553155
 40
0.8339173632457753
 40
0.9855043625624887
 40
1.0
 40
1.0
 40
1.0
 40
1.0
 10
244.7608306134104
 20
180.6482648545387
 30
0.0
 10
244.7603592511395
 20
180.6495333147064
 30
0.0
 10
244.7553594402643
 20
180.6629880634907
 30
0.0
 10
244.7745766247828
 20
180.6082518568381
 30
0.0
 10
244.8521277186979
 20
180.4952417032476
 30
0.0
 10
245.022833365168
 20
180.3149480306961
 30
0.0
 10
245.2700305214549
 20
180.1184397186248
 30
0.0
 10
245.5326867653419
 20
179.9036462126039
 30
0.0
 10
245.6799378129842
 20
179.7444295922734
 30
0.0
 10
245.7383937003528
 20
179.65635119792
 30
0.0
 10
245.7434957108095
 20
179.6486637448811
 30
0.0
  0
SPLINE
  5
3AF
330
1F
100
AcDbEntity
  8
0
  6
Continuous
 62
     7
370
    15
100
AcDbSpline
210
0.0
220
0.0
230
1.0
 70
     8
 71
     3
 72
     9
 73
     5
 74
     0
 42
0.000000001
 43
0.00000001
 40
0.0
 40
0.0
 40
0.0
 40
0.0
 40
0.7635661240829621
 40
1.0
 40
1.0
 40
1.0
 40
1.0
 10
246.2672327811152
 20
178.5577165348159
 30
0.0
 10
246.2962759484429
 20
178.5143286193732
 30
0.0
 10
246.3343121661478
 20
178.4575058844792
 30
0.0
 10
246.3309236365762
 20
178.4006410748297
 30
0.0
 10
246.330122473396
 20
178.387196307481
 30
0.0
  0
SPLINE
  5
3B0
330
1F
100
AcDbEntity
  8
0
  6
Continuous
 62
     7
370
    15
100
AcDbSpline
210
0.0
220
0.0
230
1.0
 70
     8
 71
     3
 72
    16
 73
    12
 74
     0
 42
0.000000001
 43
0.00000001
 40
0.0
 40
0.0
 40
0.0
 40
0.0
 40
0.0316438967043499
 40
0.144229690679794
 40
0.260259718619804
 40
0.391826828881192
 40
0.5492075381338445
 40
0.7249905054734762
 40
0.8558655534151737
 40
0.9874199933190994
 40
1.0
 40
1.0
 40
1.0
 40
1.0
 10
246.2672327811161
 20
178.5577165348165
 30
0.0
 10
246.2585044627642
 20
178.5677793120215
 30
0.0
 10
246.2187216677498
 20
178.6136444359412
 30
0.0
 10
246.1309392008235
 20
178.6512211414666
 30
0.0
 10
246.0195418270997
 20
178.6155046555917
 30
0.0
 10
245.9384235525316
 20
178.4944286774414
 30
0.0
 10
245.9241804995096
 20
178.2928565401868
 30
0.0
 10
246.0051226044404
 20
178.0447208304103
 30
0.0
 10
246.1447778187818
 20
177.7678793619779
 30
0.0
 10
246.2402424784314
 20
177.5710816036179
 30
0.0
 10
246.2800478401126
 20
177.4678043685892
 30
0.0
 10
246.2835220388746
 20
177.4587903657785
 30
0.0
  0
LWPOLYLINE
  5
3B1
330
1F
100
AcDbEntity
  8
0
  6
Continuous
 62
     7
370
    15
100
AcDbPolyline
 90
       41
 70
   128
 43
0.0
 10
237.3064214233
 20
174.8035523793
 10
238.3108639722
 20
174.7012072526
 10
239.3306738335
 20
174.6908310549
 10
240.3407399039
 20
174.7726792829
 10
241.3161910045
 20
174.9447365613
 10
242.2330082919
 20
175.2027662691
 10
243.0686166816
 20
175.5404148583
 10
243.802440722
 20
175.9493683003
 10
244.4164112297
 20
176.419556804
 10
244.8954102132
 20
176.9394027679
 10
245.2276431278
 20
177.4961058592
 10
245.4049292965
 20
178.0759582002
 10
245.4229033454
 20
178.6646819018
 10
245.2811226939
 20
179.2477806327
 10
244.9830784521
 20
179.8108965668
 10
244.5361094585
 20
180.340163921
 10
243.9512215729
 20
180.8225503765
 10
243.2428166763
 20
181.2461779779
 10
242.4283380484
 20
181.6006156076
 10
241.527840856
 20
181.8771358348
 10
240.5634983286
 20
182.068929814
 10
239.5590557796
 20
182.1712749407
 10
238.5392459183
 20
182.1816511383
 10
237.5291798479
 20
182.0998029103
 10
236.5537287473
 20
181.9277456319
 10
235.63691146
 20
181.6697159242
 10
234.8013030702
 20
181.3320673349
 10
234.0674790298
 20
180.9231138929
 10
233.4535085221
 20
180.4529253892
 10
232.9745095386
 20
179.9330794253
 10
232.6422766241
 20
179.376376334
 10
232.4649904554
 20
178.796523993
 10
232.4470164064
 20
178.2078002914
 10
232.5887970579
 20
177.6247015605
 10
232.8868412997
 20
177.0615856264
 10
233.3338102934
 20
176.5323182722
 10
233.9186981789
 20
176.0499318167
 10
234.6271030755
 20
175.6263042153
 10
235.4415817034
 20
175.2718665857
 10
236.3420788958
 20
174.9953463584
 10
237.3064214233
 20
174.8035523793
  0
LWPOLYLINE
  5
3B2
330
1F
100
AcDbEntity
  8
0
  6
Continuous
 62
     7
370
    15
100
AcDbPolyline
 90
       25
 70
   128
 43
0.0
 10
238.3461805892
 20
177.1228844065
 10
238.9550682546
 20
177.0796646389
 10
239.5625855673
 20
177.1288933151
 10
240.1273312263
 20
177.267215582
 10
240.6108187483
 20
177.4852050059
 10
240.9800992576
 20
177.7680059677
 10
241.2100068977
 20
178.0963460492
 10
241.2848738431
 20
178.4478494166
 10
241.199598035
 20
178.798561696
 10
240.9599908788
 20
179.1245824254
 10
240.5823812064
 20
179.4036938308
 10
240.0925024927
 20
179.6168749311
 10
239.5237391626
 20
179.7495977867
 10
238.9148514972
 20
179.7928175543
 10
238.3073341845
 20
179.7435888782
 10
237.7425885255
 20
179.6052666112
 10
237.2591010036
 20
179.3872771873
 10
236.8898204943
 20
179.1044762255
 10
236.6599128541
 20
178.776136144
 10
236.5850459087
 20
178.4246327767
 10
236.6703217168
 20
178.0739204972
 10
236.909928873
 20
177.7478997678
 10
237.2875385455
 20
177.4687883624
 10
237.7774172591
 20
177.2556072621
 10
238.3461805892
 20
177.1228844065
  0
LINE
  5
3B3
330
1F
100
AcDbEntity
  8
0
  6
Continuous
 62
     7
370
    15
100
AcDbLine
 10
238.0459712349
 20
173.7297579462
 30
0.0
 11
238.0459712349
 21
168.1259284756
 31
0.0
  0
LINE
  5
3B4
330
1F
100
AcDbEntity
  8
0
  6
Continuous
 62
     7
370
    15
100
AcDbLine
 10
239.9495734528
 20
168.1353320639
 30
0.0
 11
239.9495734528
 21
173.7391615346
 31
0.0
  0
SPLINE
  5
3B5
330
1F
100
AcDbEntity
  8
0
  6
Continuous
 62
     7
370
    15
100
AcDbSpline
210
0.0
220
0.0
230
1.0
 70
     8
 71
     3
 72
    16
 73
    12
 74
     0
 42
0.000000001
 43
0.00000001
 40
0.0
 40
0.0
 40
0.0
 40
0.0
 40
0.0316438967043531
 40
0.1442296906797942
 40
0.2602597186198058
 40
0.3918268288811929
 40
0.5492075381338456
 40
0.7249905054734764
 40
0.8558655534151727
 40
0.9874199933190977
 40
1.0
 40
1.0
 40
1.0
 40
1.0
 10
238.0459712349477
 20
168.125928475565
 30
0.0
 10
238.056814547819
 20
168.1146654564109
 30
0.0
 10
238.1062372746082
 20
168.0633297507011
 30
0.0
 10
238.2322368102217
 20
168.0040651738389
 30
0.0
 10
238.4609729042947
 20
167.9731929035068
 30
0.0
 10
238.7600987795227
 20
167.9705513660033
 30
0.0
 10
239.1242015790448
 20
167.9735809821105
 30
0.0
 10
239.4802332497144
 20
167.9737376775796
 30
0.0
 10
239.7658989530701
 20
168.0092130324735
 30
0.0
 10
239.8966874164073
 20
168.0776140092529
 30
0.0
 10
239.9453281092239
 20
168.1306988376923
 30
0.0
 10
239.9495734527563
 20
168.1353320639074
 30
0.0
  0
LINE
  5
3B6
330
1F
100
AcDbEntity
  8
0
  6
Continuous
 62
     7
370
    15
100
AcDbLine
 10
241.8393542106
 20
174.0415085096
 30
0.0
 11
241.8393542106
 21
168.437679039
 31
0.0
  0
LINE
  5
3B7
330
1F
100
AcDbEntity
  8
0
  6
Continuous
 62
     7
370
    15
100
AcDbLine
 10
243.4797774611
 20
168.9952858699
 30
0.0
 11
243.4797774611
 21
174.5991153405
 31
0.0
  0
SPLINE
  5
3B8
330
1F
100
AcDbEntity
  8
0
  6
Continuous
 62
     7
370
    15
100
AcDbSpline
210
0.0
220
0.0
230
1.0
 70
     8
 71
     3
 72
    16
 73
    12
 74
     0
 42
0.000000001
 43
0.00000001
 40
0.0
 40
0.0
 40
0.0
 40
0.0
 40
0.0316438967043497
 40
0.1442296906797923
 40
0.2602597186198031
 40
0.39182682888119
 40
0.5492075381338414
 40
0.7249905054734721
 40
0.8558655534151721
 40
0.9874199933190966
 40
1.0
 40
1.0
 40
1.0
 40
1.0
 10
241.8393542106423
 20
168.4376790389595
 30
0.0
 10
241.8442872029258
 20
168.428856358262
 30
0.0
 10
241.8667712843848
 20
168.3886434691905
 30
0.0
 10
241.9309141555998
 20
168.3587908378425
 30
0.0
 10
242.0713411253307
 20
168.3850221042729
 30
0.0
 10
242.287266826184
 20
168.4620506895231
 30
0.0
 10
242.5923506492851
 20
168.5685926194362
 30
0.0
 10
242.9381132893085
 20
168.6773055090366
 30
0.0
 10
243.252900238886
 20
168.8056611477478
 30
0.0
 10
243.4127864432326
 20
168.9190247797858
 30
0.0
 10
243.4743998623082
 20
168.9891641306002
 30
0.0
 10
243.4797774610847
 20
168.9952858698704
 30
0.0
  0
LINE
  5
3B9
330
1F
100
AcDbEntity
  8
0
  6
Continuous
 62
     7
370
    15
100
AcDbLine
 10
237.8085714844
 20
168.4399050138
 30
0.0
 11
237.8085714844
 21
173.3391498851
 31
0.0
  0
SPLINE
  5
3BA
330
1F
100
AcDbEntity
  8
0
  6
Continuous
 62
     7
370
    15
100
AcDbSpline
210
0.0
220
0.0
230
1.0
 70
     8
 71
     3
 72
    10
 73
     6
 74
     0
 42
0.000000001
 43
0.00000001
 40
0.0
 40
0.0
 40
0.0
 40
0.0
 40
0.6068408479055184
 40
0.9873411522226739
 40
1.0
 40
1.0
 40
1.0
 40
1.0
 10
238.0459712349487
 20
168.1259284755655
 30
0.0
 10
237.9997608042893
 20
168.1803928568336
 30
0.0
 10
237.9245755889079
 20
168.2690074007326
 30
0.0
 10
237.8411872967029
 20
168.3889483426048
 30
0.0
 10
237.8095888828104
 20
168.4383155013819
 30
0.0
 10
237.8085714843616
 20
168.4399050137837
 30
0.0
  0
LINE
  5
3BB
330
1F
100
AcDbEntity
  8
0
  6
Continuous
 62
     7
370
    15
100
AcDbLine
 10
241.6669460143
 20
168.6882649364
 30
0.0
 11
241.6669460143
 21
173.5875098077
 31
0.0
  0
ARC
  5
3BC
330
1F
100
AcDbEntity
  8
0
  6
Continuous
 62
     7
370
    15
100
AcDbCircle
 10
239.0272181112
 20
180.4474923342
 30
0.0
 40
12.0518709084981
100
AcDbArc
 50
275.5273939181
 51
282.6520988717
  0
LINE
  5
3BD
330
1F
100
AcDbEntity
  8
0
  6
Continuous
 62
     7
370
    15
100
AcDbLine
 10
240.1880742566
 20
173.3509043705
 30
0.0
 11
240.1880742566
 21
168.4516594992
 31
0.0
  0
SPLINE
  5
3BE
330
1F
100
AcDbEntity
  8
0
  6
Continuous
 62
     7
370
    15
100
AcDbSpline
210
0.0
220
0.0
230
1.0
 70
     8
 71
     3
 72
    10
 73
     6
 74
     0
 42
0.000000001
 43
0.00000001
 40
0.0
 40
0.0
 40
0.0
 40
0.0
 40
0.012658847777291
 40
0.3931591520965018
 40
1.0
 40
1.0
 40
1.0
 40
1.0
 10
240.1880742566211
 20
168.4516594992132
 30
0.0
 10
240.1870595858596
 20
168.4500599486099
 30
0.0
 10
240.1555458886214
 20
168.4003810228538
 30
0.0
 10
240.0721938684375
 20
168.2796164019352
 30
0.0
 10
239.9962501038641
 20
168.1902552972779
 30
0.0
 10
239.9495734527563
 20
168.1353320639074
 30
0.0
  0
LINE
  5
3BF
330
1F
100
AcDbEntity
  8
0
  6
Continuous
 62
     7
370
    15
100
AcDbLine
 10
234.4907920477
 20
174.5547107282
 30
0.0
 11
234.4907920477
 21
168.9508812576
 31
0.0
  0
LINE
  5
3C0
330
1F
100
AcDbEntity
  8
0
  6
Continuous
 62
     7
370
    15
100
AcDbLine
 10
236.1475045559
 20
168.4095619194
 30
0.0
 11
236.1475045559
 21
174.0133913901
 31
0.0
  0
SPLINE
  5
3C1
330
1F
100
AcDbEntity
  8
0
  6
Continuous
 62
     7
370
    15
100
AcDbSpline
210
0.0
220
0.0
230
1.0
 70
     8
 71
     3
 72
    16
 73
    12
 74
     0
 42
0.000000001
 43
0.00000001
 40
0.0
 40
0.0
 40
0.0
 40
0.0
 40
0.0316438967043517
 40
0.1442296906797935
 40
0.2602597186198057
 40
0.3918268288811928
 40
0.549207538133846
 40
0.7249905054734783
 40
0.855865553415174
 40
0.9874199933191
 40
1.0
 40
1.0
 40
1.0
 40
1.0
 10
234.4907920476804
 20
168.9508812575728
 30
0.0
 10
234.5046402242122
 20
168.9357988655965
 30
0.0
 10
234.5677588166008
 20
168.8670548436517
 30
0.0
 10
234.7218535427984
 20
168.7644642286656
 30
0.0
 10
234.977609109527
 20
168.6586489586772
 30
0.0
 10
235.2797846224269
 20
168.5629958517914
 30
0.0
 10
235.6053453472763
 20
168.4593457096044
 30
0.0
 10
235.8762476499562
 20
168.3625258906141
 30
0.0
 10
236.0562482125707
 20
168.3259702290136
 30
0.0
 10
236.122894271768
 20
168.3638312882846
 30
0.0
 10
236.145529003966
 20
168.4058909648286
 30
0.0
 10
236.1475045558831
 20
168.4095619194439
 30
0.0
  0
ARC
  5
3C2
330
1F
100
AcDbEntity
  8
0
  6
Continuous
 62
     7
370
    15
100
AcDbCircle
 10
238.8591225168
 20
180.5546980836
 30
0.0
 40
12.16025775200108
100
AcDbArc
 50
257.961652526
 51
265.0439152501
  0
LINE
  5
3C3
330
1F
100
AcDbEntity
  8
0
  6
Continuous
 62
     7
370
    15
100
AcDbLine
 10
236.3229024495
 20
173.5611108125
 30
0.0
 11
236.3229024495
 21
168.6618659412
 31
0.0
  0
SPLINE
  5
3C4
330
1F
100
AcDbEntity
  8
0
  6
Continuous
 62
     7
370
    15
100
AcDbSpline
210
0.0
220
0.0
230
1.0
 70
     8
 71
     3
 72
    10
 73
     6
 74
     0
 42
0.000000001
 43
0.00000001
 40
0.0
 40
0.0
 40
0.0
 40
0.0
 40
0.6068408479055217
 40
0.9873411522226647
 40
1.0
 40
1.0
 40
1.0
 40
1.0
 10
241.8393542106427
 20
168.4376790389602
 30
0.0
 10
241.8131544275325
 20
168.480942734923
 30
0.0
 10
241.7705269014963
 20
168.5513335590884
 30
0.0
 10
241.6976075151178
 20
168.6470962389807
 30
0.0
 10
241.6679024511415
 20
168.6869807443032
 30
0.0
 10
241.666946014337
 20
168.6882649364143
 30
0.0
  0
SPLINE
  5
3C5
330
1F
100
AcDbEntity
  8
0
  6
Continuous
 62
     7
370
    15
100
AcDbSpline
210
0.0
220
0.0
230
1.0
 70
     8
 71
     3
 72
    10
 73
     6
 74
     0
 42
0.000000001
 43
0.00000001
 40
0.0
 40
0.0
 40
0.0
 40
0.0
 40
0.0126588477772937
 40
0.3931591520964963
 40
1.0
 40
1.0
 40
1.0
 40
1.0
 10
236.3229024495182
 20
168.6618659412339
 30
0.0
 10
236.3219396806808
 20
168.6605722684552
 30
0.0
 10
236.2920379560985
 20
168.6203933120661
 30
0.0
 10
236.218436577933
 20
168.5239068355006
 30
0.0
 10
236.1745055183836
 20
168.4530884213162
 30
0.0
 10
236.1475045558831
 20
168.4095619194439
 30
0.0
  0
LINE
  5
3C6
330
1F
100
AcDbEntity
  8
0
  6
Continuous
 62
     7
370
    15
100
AcDbLine
 10
234.2520118143
 20
169.3385151139
 30
0.0
 11
234.2520118143
 21
174.2377599852
 31
0.0
  0
SPLINE
  5
3C7
330
1F
100
AcDbEntity
  8
0
  6
Continuous
 62
     7
370
    15
100
AcDbSpline
210
0.0
220
0.0
230
1.0
 70
     8
 71
     3
 72
    10
 73
     6
 74
     0
 42
0.000000001
 43
0.00000001
 40
0.0
 40
0.0
 40
0.0
 40
0.0
 40
0.6068408479055173
 40
0.9873411522226639
 40
1.0
 40
1.0
 40
1.0
 40
1.0
 10
234.4907920476817
 20
168.9508812575729
 30
0.0
 10
234.4369530170499
 20
169.0208216673257
 30
0.0
 10
234.3493559300675
 20
169.1346159924615
 30
0.0
 10
234.2778425575913
 20
169.2785177087746
 30
0.0
 10
234.2528175632667
 20
169.3366435901591
 30
0.0
 10
234.2520118142664
 20
169.3385151138931
 30
0.0
  0
LINE
  5
3C8
330
1F
100
AcDbEntity
  8
0
  6
Continuous
 62
     7
370
    15
100
AcDbLine
 10
243.7174750774
 20
174.2845183464
 30
0.0
 11
243.7174750774
 21
169.3852734751
 31
0.0
  0
SPLINE
  5
3C9
330
1F
100
AcDbEntity
  8
0
  6
Continuous
 62
     7
370
    15
100
AcDbSpline
210
0.0
220
0.0
230
1.0
 70
     8
 71
     3
 72
    10
 73
     6
 74
     0
 42
0.000000001
 43
0.00000001
 40
0.0
 40
0.0
 40
0.0
 40
0.0
 40
0.0126588477772863
 40
0.3931591520965019
 40
1.0
 40
1.0
 40
1.0
 40
1.0
 10
243.7174750773896
 20
169.385273475054
 30
0.0
 10
243.7166803849151
 20
169.3833940453129
 30
0.0
 10
243.6919987847473
 20
169.3250226187461
 30
0.0
 10
243.6212302290394
 20
169.1804180451504
 30
0.0
 10
243.5336228298301
 20
169.0657582288684
 30
0.0
 10
243.4797774610847
 20
168.9952858698704
 30
0.0
  0
LINE
  5
3CA
330
1F
100
AcDbEntity
  8
0
  6
Continuous
 62
     7
370
    15
100
AcDbLine
 10
244.7932870648
 20
170.0170470411
 30
0.0
 11
244.7932870648
 21
174.9162919124
 31
0.0
  0
ARC
  5
3CB
330
1F
100
AcDbEntity
  8
0
  6
Continuous
 62
     7
370
    15
100
AcDbCircle
 10
240.7391117052
 20
175.688819347
 30
0.0
 40
6.971752931382495
100
AcDbArc
 50
295.2902733086
 51
305.5571345408
  0
ARC
  5
3CC
330
1F
100
AcDbEntity
  8
0
  6
Continuous
 62
     7
370
    15
100
AcDbCircle
 10
237.2213598521
 20
175.8456766705
 30
0.0
 40
7.152634430295539
100
AcDbArc
 50
235.3790567799
 51
245.471836977
  0
LINE
  5
3CD
330
1F
100
AcDbEntity
  8
0
  6
Continuous
 62
     7
370
    15
100
AcDbLine
 10
233.1576293204
 20
174.858813026
 30
0.0
 11
233.1576293204
 21
169.9595681547
 31
0.0
  0
LINE
  5
3CE
330
1F
100
AcDbEntity
  8
0
  6
Continuous
 62
     7
370
    15
100
AcDbLine
 10
245.7922012677
 20
170.7589994095
 30
0.0
 11
245.7922012677
 21
176.3628288801
 31
0.0
  0
SPLINE
  5
3CF
330
1F
100
AcDbEntity
  8
0
  6
Continuous
 62
     7
370
    15
100
AcDbSpline
210
0.0
220
0.0
230
1.0
 70
     8
 71
     3
 72
    10
 73
     6
 74
     0
 42
0.000000001
 43
0.00000001
 40
0.0
 40
0.0
 40
0.0
 40
0.0
 40
0.2046851959960078
 40
0.932934485947048
 40
1.0
 40
1.0
 40
1.0
 40
1.0
 10
244.8545070698447
 20
169.8025996360548
 30
0.0
 10
244.8523097957571
 20
169.7943673483145
 30
0.0
 10
244.8422948420061
 20
169.7568454108157
 30
0.0
 10
244.8271374759863
 20
169.7323076238619
 30
0.0
 10
244.8333476686911
 20
169.7488908294677
 30
0.0
 10
244.8338713478229
 20
169.7502892206494
 30
0.0
  0
SPLINE
  5
3D0
330
1F
100
AcDbEntity
  8
0
  6
Continuous
 62
     7
370
    15
100
AcDbSpline
210
0.0
220
0.0
230
1.0
 70
     8
 71
     3
 72
    13
 73
     9
 74
     0
 42
0.000000001
 43
0.00000001
 40
0.0
 40
0.0
 40
0.0
 40
0.0
 40
0.0906290961743704
 40
0.3259525938461326
 40
0.5887920670059301
 40
0.7844829759225842
 40
0.9811897456369247
 40
1.0
 40
1.0
 40
1.0
 40
1.0
 10
244.8879081223552
 20
169.8511738195828
 30
0.0
 10
244.8979031109972
 20
169.8677196269525
 30
0.0
 10
244.9338506445248
 20
169.9272275450174
 30
0.0
 10
245.0835634724853
 20
170.0873875588968
 30
0.0
 10
245.3227305361402
 20
170.284213539759
 30
0.0
 10
245.5830666044816
 20
170.5020295590952
 30
0.0
 10
245.7290527871605
 20
170.6626061333455
 30
0.0
 10
245.7871321225914
 20
170.7512615905996
 30
0.0
 10
245.7922012677199
 20
170.758999409497
 30
0.0
  0
LINE
  5
3D1
330
1F
100
AcDbEntity
  8
0
  6
Continuous
 62
     7
370
    15
100
AcDbLine
 10
232.126424041
 20
176.2953214239
 30
0.0
 11
232.126424041
 21
170.6914919532
 31
0.0
  0
SPLINE
  5
3D2
330
1F
100
AcDbEntity
  8
0
  6
Continuous
 62
     7
370
    15
100
AcDbSpline
210
0.0
220
0.0
230
1.0
 70
     8
 71
     3
 72
    13
 73
     9
 74
     0
 42
0.000000001
 43
0.00000001
 40
0.0
 40
0.0
 40
0.0
 40
0.0
 40
0.0445866575031785
 40
0.2032214894458547
 40
0.3667092913490231
 40
0.5520890421020427
 40
0.7738404858832967
 40
1.0
 40
1.0
 40
1.0
 40
1.0
 10
232.1264240410166
 20
170.69149195325
 30
0.0
 10
232.1395671035395
 20
170.6722339919225
 30
0.0
 10
232.1994718573688
 20
170.5844581458774
 30
0.0
 10
232.3403065425393
 20
170.4362949523775
 30
0.0
 10
232.5548594365715
 20
170.2575049422771
 30
0.0
 10
232.7777351409767
 20
170.0816493900155
 30
0.0
 10
232.9772869830725
 20
169.8971849212121
 30
0.0
 10
233.0409927522922
 20
169.8039696682824
 30
0.0
 10
233.0731591138405
 20
169.7569033575813
 30
0.0
  0
SPLINE
  5
3D3
330
1F
100
AcDbEntity
  8
0
  6
Continuous
 62
     7
370
    15
100
AcDbSpline
210
0.0
220
0.0
230
1.0
 70
     8
 71
     3
 72
     9
 73
     5
 74
     0
 42
0.000000001
 43
0.00000001
 40
0.0
 40
0.0
 40
0.0
 40
0.0
 40
0.911136063971799
 40
1.0
 40
1.0
 40
1.0
 40
1.0
 10
233.1100690890005
 20
169.6893531797892
 30
0.0
 10
233.1064874362869
 20
169.6950876251639
 30
0.0
 10
233.102556461699
 20
169.7013813562558
 30
0.0
 10
233.0931664907296
 20
169.7409771316931
 30
0.0
 10
233.09233206095
 20
169.7444957681485
 30
0.0
  0
SPLINE
  5
3D4
330
1F
100
AcDbEntity
  8
0
  6
Continuous
 62
     7
370
    15
100
AcDbSpline
210
0.0
220
0.0
230
1.0
 70
     8
 71
     3
 72
    10
 73
     6
 74
     0
 42
0.000000001
 43
0.00000001
 40
0.0
 40
0.0
 40
0.0
 40
0.0
 40
0.015404740692381
 40
0.478441236946281
 40
1.0
 40
1.0
 40
1.0
 40
1.0
 10
233.1576293204017
 20
169.959568154733
 30
0.0
 10
233.1569767128459
 20
169.9585244863124
 30
0.0
 10
233.1367079934667
 20
169.9261101782687
 30
0.0
 10
233.0987321041279
 20
169.8612633833011
 30
0.0
 10
233.097750175774
 20
169.8085539104975
 30
0.0
 10
233.0972300297212
 20
169.7806327041167
 30
0.0
  0
SPLINE
  5
3D5
330
1F
100
AcDbEntity
  8
0
  6
Continuous
 62
     7
370
    15
100
AcDbSpline
210
0.0
220
0.0
230
1.0
 70
     8
 71
     3
 72
    10
 73
     6
 74
     0
 42
0.000000001
 43
0.00000001
 40
0.0
 40
0.0
 40
0.0
 40
0.0
 40
0.5096798230529098
 40
0.9842127839347956
 40
1.0
 40
1.0
 40
1.0
 40
1.0
 10
244.8499280876252
 20
169.8427231351665
 30
0.0
 10
244.8499868552608
 20
169.8693639996372
 30
0.0
 10
244.8501003379917
 20
169.9208086089806
 30
0.0
 10
244.8137679658783
 20
169.983793983271
 30
0.0
 10
244.7939259339601
 20
170.0160097647747
 30
0.0
 10
244.7932870647888
 20
170.0170470410836
 30
0.0
  0
SPLINE
  5
3D6
330
1F
100
AcDbEntity
  8
0
  6
Continuous
 62
     7
370
    15
100
AcDbSpline
210
0.0
220
0.0
230
1.0
 70
     8
 71
     3
 72
     9
 73
     5
 74
     0
 42
0.000000001
 43
0.00000001
 40
0.0
 40
0.0
 40
0.0
 40
0.0
 40
0.4026673806304505
 40
1.0
 40
1.0
 40
1.0
 40
1.0
 10
231.5361701531571
 20
173.1071395105899
 30
0.0
 10
231.5301272893273
 20
173.1297641090336
 30
0.0
 10
231.5151202037762
 20
173.1859509260741
 30
0.0
 10
231.5183101708988
 20
173.2443097336552
 30
0.0
 10
231.5202156423158
 20
173.2791693530509
 30
0.0
  0
SPLINE
  5
3D7
330
1F
100
AcDbEntity
  8
0
  6
Continuous
 62
     7
370
    15
100
AcDbSpline
210
0.0
220
0.0
230
1.0
 70
     8
 71
     3
 72
     9
 73
     5
 74
     0
 42
0.000000001
 43
0.00000001
 40
0.0
 40
0.0
 40
0.0
 40
0.0
 40
0.0616739531009103
 40
1.0
 40
1.0
 40
1.0
 40
1.0
 10
231.5403872480423
 20
171.9970478795873
 30
0.0
 10
231.5402155122955
 20
171.9961309705784
 30
0.0
 10
231.5374309373149
 20
171.9812639325048
 30
0.0
 10
231.538651754174
 20
171.9666613624667
 30
0.0
 10
231.5397972784314
 20
171.9529593906483
 30
0.0
  0
LINE
  5
3D8
330
1F
100
AcDbEntity
  8
0
  6
Continuous
 62
     7
370
    15
100
AcDbLine
 10
231.5397094728
 20
171.9126274406
 30
0.0
 11
231.5488750232
 21
171.8936802411
 31
0.0
  0
ARC
  5
3D9
330
1F
100
AcDbEntity
  8
0
  6
Continuous
 62
     7
370
    15
100
AcDbCircle
 10
234.4742364107
 20
172.8802686805
 30
0.0
 40
3.063910881941201
100
AcDbArc
 50
196.7541619991
 51
214.5348846952
  0
SPLINE
  5
3DA
330
1F
100
AcDbEntity
  8
0
  6
Continuous
 62
     7
370
    15
100
AcDbSpline
210
0.0
220
0.0
230
1.0
 70
     8
 71
     3
 72
    10
 73
     6
 74
     0
 42
0.000000001
 43
0.00000001
 40
0.0
 40
0.0
 40
0.0
 40
0.0
 40
0.6068408479055247
 40
0.9873411522226658
 40
1.0
 40
1.0
 40
1.0
 40
1.0
 10
232.1264240410178
 20
170.6914919532497
 30
0.0
 10
232.0793825351927
 20
170.7770369453322
 30
0.0
 10
232.0028451453252
 20
170.9162202111607
 30
0.0
 10
231.9623686429817
 20
171.0774449442129
 30
0.0
 10
231.9506224952444
 20
171.1412587247088
 30
0.0
 10
231.9502442954864
 20
171.1433133861076
 30
0.0
  0
SPLINE
  5
3DB
330
1F
100
AcDbEntity
  8
0
  6
Continuous
 62
     7
370
    15
100
AcDbSpline
210
0.0
220
0.0
230
1.0
 70
     8
 71
     3
 72
    10
 73
     6
 74
     0
 42
0.000000001
 43
0.00000001
 40
0.0
 40
0.0
 40
0.0
 40
0.0
 40
0.0126588477772861
 40
0.3931591520965004
 40
1.0
 40
1.0
 40
1.0
 40
1.0
 10
245.965404812133
 20
171.2125467578875
 30
0.0
 10
245.9650430351524
 20
171.210488441084
 30
0.0
 10
245.9538069468877
 20
171.1465611308362
 30
0.0
 10
245.9145842330074
 20
170.9849426923055
 30
0.0
 10
245.8387875310312
 20
170.8450069125969
 30
0.0
 10
245.7922012677199
 20
170.758999409497
 30
0.0
  0
ARC
  5
3DC
330
1F
100
AcDbEntity
  8
0
  6
Continuous
 62
     7
370
    15
100
AcDbCircle
 10
243.4575719029
 20
172.8518238065
 30
0.0
 40
2.996073287304708
100
AcDbArc
 50
326.8288487072
 51
344.8776565085
  0
SPLINE
  5
3DD
330
1F
100
AcDbEntity
  8
0
  6
Continuous
 62
     7
370
    15
100
AcDbSpline
210
0.0
220
0.0
230
1.0
 70
     8
 71
     3
 72
    10
 73
     6
 74
     0
 42
0.000000001
 43
0.00000001
 40
0.0
 40
0.0
 40
0.0
 40
0.0
 40
0.1031823911958679
 40
0.9711244732994351
 40
1.0
 40
1.0
 40
1.0
 40
1.0
 10
246.3440522999019
 20
171.9760317369381
 30
0.0
 10
246.3457644588441
 20
171.9792843088614
 30
0.0
 10
246.3618788309925
 20
172.0098966270997
 30
0.0
 10
246.3546585109997
 20
172.0408644644625
 30
0.0
 10
246.3500426949652
 20
172.0692899971768
 30
0.0
 10
246.3498940759842
 20
172.0702052359286
 30
0.0
  0
ARC
  5
3DE
330
1F
100
AcDbEntity
  8
0
  6
Continuous
 62
     7
370
    15
100
AcDbCircle
 10
238.9298914278
 20
174.0971018674
 30
0.0
 40
3.659646885127188
100
AcDbArc
 50
80.6613704513
 51
114.9370691606
  0
LWPOLYLINE
  5
3DF
330
1F
100
AcDbEntity
  8
0
  6
Continuous
 62
     7
370
    15
100
AcDbPolyline
 90
        3
 70
   128
 43
0.0
 10
240.4830180254
 20
177.4155650818
 10
240.0925024927
 20
177.5755229014
 10
239.5237391626
 20
177.708245757
  0
LINE
  5
3E0
330
1F
100
AcDbEntity
  8
0
  6
Continuous
 62
     7
370
    15
100
AcDbLine
 10
231.9502442955
 20
171.1433133861
 30
0.0
 11
231.9502442955
 21
176.0425582574
 31
0.0
  0
LINE
  5
3E1
330
1F
100
AcDbEntity
  8
0
  6
Continuous
 62
     7
370
    15
100
AcDbLine
 10
245.9654048121
 20
176.1117916292
 30
0.0
 11
245.9654048121
 21
171.2125467579
 31
0.0
  0
LINE
  5
3E2
330
1F
100
AcDbEntity
  8
0
  6
Continuous
 62
     7
370
    15
100
AcDbLine
 10
231.540387248
 20
176.8962927509
 30
0.0
 11
231.540387248
 21
171.9970478796
 31
0.0
  0
LINE
  5
3E3
330
1F
100
AcDbEntity
  8
0
  6
Continuous
 62
     7
370
    15
100
AcDbLine
 10
246.349894076
 20
172.0702052359
 30
0.0
 11
246.349894076
 21
176.9694501072
 31
0.0
  0
LINE
  5
3E4
330
1F
100
AcDbEntity
  8
0
  6
Continuous
 62
     7
370
    15
100
AcDbLine
 10
244.945367516
 20
101.373642078
 30
0.0
 11
244.945367516
 21
96.4743972067
 31
0.0
  0
ARC
  5
3E5
330
1F
100
AcDbEntity
  8
0
  6
Continuous
 62
     7
370
    15
100
AcDbCircle
 10
241.4098336101
 20
103.2979526314
 30
0.0
 40
7.685109539558743
100
AcDbArc
 50
242.6096722366
 51
297.3903277634
  0
LINE
  5
3E6
330
1F
100
AcDbEntity
  8
0
  6
Continuous
 62
     7
370
    15
100
AcDbLine
 10
237.8742997041
 20
96.4743972067
 30
0.0
 11
237.8742997041
 21
101.373642078
 31
0.0
  0
ARC
  5
3E7
330
1F
100
AcDbEntity
  8
0
  6
Continuous
 62
     7
370
    15
100
AcDbCircle
 10
241.4098336101
 20
108.1971975028
 30
0.0
 40
7.685109539558579
100
AcDbArc
 50
242.6096722366
 51
297.3903277634
  0
LINE
  5
3E8
330
1F
100
AcDbEntity
  8
0
  6
Continuous
 62
     7
370
    15
100
AcDbLine
 10
223.3786106898
 20
109.7418252242
 30
0.0
 11
229.0354649393
 21
113.0074576715
 31
0.0
  0
LINE
  5
3E9
330
1F
100
AcDbEntity
  8
0
  6
Continuous
 62
     7
370
    15
100
AcDbLine
 10
216.6610962685
 20
113.6197637553
 30
0.0
 11
223.3786106898
 21
109.7418252242
 31
0.0
  0
ARC
  5
3EA
330
1F
100
AcDbEntity
  8
0
  6
Continuous
 62
     7
370
    15
100
AcDbCircle
 10
217.4357314025
 20
115.6607840349
 30
0.0
 40
2.183076584171361
100
AcDbArc
 50
110.7834207995
 51
249.2165792005
  0
LINE
  5
3EB
330
1F
100
AcDbEntity
  8
0
  6
Continuous
 62
     7
370
    15
100
AcDbLine
 10
224.4392708616
 20
122.1920489295
 30
0.0
 11
216.6610962685
 21
117.7018043144
 31
0.0
  0
LINE
  5
3EC
330
1F
100
AcDbEntity
  8
0
  6
Continuous
 62
     7
370
    15
100
AcDbLine
 10
224.4392708616
 20
122.1920489295
 30
0.0
 11
252.7235421091
 21
105.863886693
 31
0.0
  0
LINE
  5
3ED
330
1F
100
AcDbEntity
  8
0
  6
Continuous
 62
     7
370
    15
100
AcDbLine
 10
244.945367516
 20
101.373642078
 30
0.0
 11
252.7235421091
 21
105.863886693
 31
0.0
  0
LINE
  5
3EE
330
1F
100
AcDbEntity
  8
0
  6
Continuous
 62
     7
370
    15
100
AcDbLine
 10
231.1567852829
 20
105.2515806091
 30
0.0
 11
237.8742997041
 21
101.373642078
 31
0.0
  0
LINE
  5
3EF
330
1F
100
AcDbEntity
  8
0
  6
Continuous
 62
     7
370
    15
100
AcDbLine
 10
231.1567852829
 20
105.2515806091
 30
0.0
 11
236.8136395324
 21
108.5172130564
 31
0.0
  0
LWPOLYLINE
  5
3F0
330
1F
100
AcDbEntity
  8
0
  6
Continuous
 62
     7
370
    15
100
AcDbPolyline
 90
       19
 70
   128
 43
0.0
 10
236.8136395324
 20
108.5172130564
 10
237.4298884794
 20
108.9411829064
 10
237.9092450645
 20
109.4204875522
 10
238.2371442804
 20
109.9405635648
 10
238.4036230753
 20
110.4856086976
 10
238.4036230753
 20
111.0390620302
 10
238.2371442804
 20
111.5841071631
 10
237.9092450645
 20
112.1041831757
 10
237.4298884794
 20
112.5834878215
 10
236.8136395324
 20
113.0074576715
 10
236.0792226358
 20
113.3632106162
 10
235.2489526754
 20
113.6399372825
 10
234.3480569839
 20
113.8292294706
 10
233.4039088209
 20
113.9253356332
 10
232.4451956507
 20
113.9253356332
 10
231.5010474878
 20
113.8292294706
 10
230.6001517963
 20
113.6399372825
 10
229.7698818359
 20
113.3632106162
 10
229.0354649393
 20
113.0074576715
  0
LWPOLYLINE
  5
3F1
330
1F
100
AcDbEntity
  8
0
  6
Continuous
 62
     7
370
    15
100
AcDbPolyline
 90
       32
 70
   128
 43
0.0
 10
238.9349598759
 20
104.0269684414
 10
239.5622161397
 20
103.731708796
 10
240.2795885972
 20
103.5153848033
 10
241.0577079356
 20
103.3868527928
 10
241.8647178579
 20
103.3513748803
 10
242.667579283
 20
103.4104035355
 10
243.4334229698
 20
103.5615221185
 10
244.1308951878
 20
103.7985438167
 10
244.7314413425
 20
104.1117649339
 10
245.2104750036
 20
104.4883621608
 10
245.5483844769
 20
104.9129175626
 10
245.7313357089
 20
105.3680497914
 10
245.7518386545
 20
105.8351256802
 10
245.6090539207
 20
106.2950230872
 10
245.3088271314
 20
106.7289137586
 10
244.8634496066
 20
107.1190341592
 10
244.2911551544
 20
107.4494127141
 10
243.6153735771
 20
107.7065236865
 10
242.8637714517
 20
107.8798409228
 10
242.0671194576
 20
107.962268795
 10
241.258032621
 20
107.9504326965
 10
240.4696350521
 20
107.8448171984
 10
239.7342038399
 20
107.6497462116
 10
239.0818476248
 20
107.3732059654
 10
238.5392739468
 20
107.0265180497
 10
238.1286958361
 20
106.6238759088
 10
237.8669224087
 20
106.181763759
 10
237.7646706995
 20
105.7182817238
 10
237.8261269055
 20
105.2524048121
 10
238.0487750024
 20
104.8032060795
 10
238.4234997509
 20
104.3890757748
 10
238.9349598759
 20
104.0269684414
  0
LWPOLYLINE
  5
3F2
330
1F
100
AcDbEntity
  8
0
  6
Continuous
 62
     7
370
    15
100
AcDbPolyline
 90
       32
 70
   128
 43
0.0
 10
221.2572903462
 20
114.2320698392
 10
221.88454661
 20
113.9368101938
 10
222.6019190675
 20
113.7204862011
 10
223.380038406
 20
113.5919541906
 10
224.1870483282
 20
113.556476278
 10
224.9899097533
 20
113.6155049333
 10
225.7557534401
 20
113.7666235163
 10
226.4532256581
 20
114.0036452145
 10
227.0537718128
 20
114.3168663317
 10
227.532805474
 20
114.6934635586
 10
227.8707149473
 20
115.1180189604
 10
228.0536661792
 20
115.5731511892
 10
228.0741691248
 20
116.040227078
 10
227.931384391
 20
116.500124485
 10
227.6311576017
 20
116.9340151563
 10
227.1857800769
 20
117.324135557
 10
226.6134856248
 20
117.6545141119
 10
225.9377040474
 20
117.9116250842
 10
225.186101922
 20
118.0849423205
 10
224.3894499279
 20
118.1673701928
 10
223.5803630913
 20
118.1555340943
 10
222.7919655224
 20
118.0499185962
 10
222.0565343103
 20
117.8548476094
 10
221.4041780952
 20
117.5783073632
 10
220.8616044172
 20
117.2316194475
 10
220.4510263064
 20
116.8289773066
 10
220.189252879
 20
116.3868651568
 10
220.0870011698
 20
115.9233831216
 10
220.1484573758
 20
115.4575062099
 10
220.3711054727
 20
115.0083074773
 10
220.7458302213
 20
114.5941771726
 10
221.2572903462
 20
114.2320698392
  0
LINE
  5
3F3
330
1F
100
AcDbEntity
  8
0
  6
Continuous
 62
     7
370
    15
100
AcDbLine
 10
252.7235421091
 20
105.0473458811
 30
0.0
 11
252.7235421091
 21
105.863886693
 31
0.0
  0
LINE
  5
3F4
330
1F
100
AcDbEntity
  8
0
  6
Continuous
 62
     7
370
    15
100
AcDbLine
 10
252.7235421091
 20
105.0473458811
 30
0.0
 11
264.7443573892
 21
111.9868148316
 31
0.0
  0
LINE
  5
3F5
330
1F
100
AcDbEntity
  8
0
  6
Continuous
 62
     7
370
    15
100
AcDbLine
 10
264.7443573892
 20
107.9041107722
 30
0.0
 11
264.7443573892
 21
111.9868148316
 31
0.0
  0
LINE
  5
3F6
330
1F
100
AcDbEntity
  8
0
  6
Continuous
 62
     7
370
    15
100
AcDbLine
 10
244.945367516
 20
96.4743972067
 30
0.0
 11
264.7443573892
 21
107.9041107722
 31
0.0
  0
LINE
  5
3F7
330
1F
100
AcDbEntity
  8
0
  6
Continuous
 62
     7
370
    15
100
AcDbLine
 10
231.1567852829
 20
101.9854173616
 30
0.0
 11
231.1567852829
 21
105.2515806091
 31
0.0
  0
LINE
  5
3F8
330
1F
100
AcDbEntity
  8
0
  6
Continuous
 62
     7
370
    15
100
AcDbLine
 10
229.7425717205
 20
101.1687438496
 30
0.0
 11
237.8742997041
 21
96.4743972067
 31
0.0
  0
LINE
  5
3F9
330
1F
100
AcDbEntity
  8
0
  6
Continuous
 62
     7
370
    15
100
AcDbLine
 10
229.7425717205
 20
101.1687438496
 30
0.0
 11
229.7425717205
 21
102.8018254734
 31
0.0
  0
LINE
  5
3FA
330
1F
100
AcDbEntity
  8
0
  6
Continuous
 62
     7
370
    15
100
AcDbLine
 10
229.7425717205
 20
102.8018254734
 30
0.0
 11
231.1567852829
 21
101.9854173616
 31
0.0
  0
ARC
  5
3FB
330
1F
100
AcDbEntity
  8
0
  6
Continuous
 62
     7
370
    15
100
AcDbCircle
 10
241.7633870007
 20
98.6502069714
 30
0.0
 40
6.074875234659028
100
AcDbArc
 50
62.2562109602
 51
117.7437890398
  0
ARC
  5
3FC
330
1F
100
AcDbEntity
  8
0
  6
Continuous
 62
     7
370
    15
100
AcDbCircle
 10
241.7633870007
 20
100.0973448326
 30
0.0
 40
3.600055961721153
100
AcDbArc
 50
69.4675369594
 51
110.5324630406
  0
ARC
  5
3FD
330
1F
100
AcDbEntity
  8
0
  6
Continuous
 62
     7
370
    15
100
AcDbCircle
 10
264.3292297019
 20
112.9030356972
 30
0.0
 40
1.005878556987482
100
AcDbArc
 50
294.3746582936
 51
354.3052007488
  0
LINE
  5
3FE
330
1F
100
AcDbEntity
  8
0
  6
Continuous
 62
     7
370
    15
100
AcDbLine
 10
229.7425717205
 20
102.8018254734
 30
0.0
 11
231.1567852829
 21
103.6182335852
 31
0.0
  0
ARC
  5
3FF
330
1F
100
AcDbEntity
  8
0
  6
Continuous
 62
     7
370
    15
100
AcDbCircle
 10
232.8585896873
 20
104.8800887722
 30
0.0
 40
4.707785067180676
100
AcDbArc
 50
44.4197366659
 51
120.7762479844
  0
LINE
  5
400
330
1F
100
AcDbEntity
  8
0
  6
Continuous
 62
     7
370
    15
100
AcDbLine
 10
224.7928242522
 20
105.6592538648
 30
0.0
 11
230.4496785017
 21
108.9248863121
 31
0.0
  0
LINE
  5
401
330
1F
100
AcDbEntity
  8
0
  6
Continuous
 62
     7
370
    15
100
AcDbLine
 10
223.3786106898
 20
106.4756619766
 30
0.0
 11
224.7928242522
 21
105.6592538648
 31
0.0
  0
LINE
  5
402
330
1F
100
AcDbEntity
  8
0
  6
Continuous
 62
     7
370
    15
100
AcDbLine
 10
223.3786106898
 20
106.4756619766
 30
0.0
 11
229.0354649393
 21
109.7412944239
 31
0.0
  0
ARC
  5
403
330
1F
100
AcDbEntity
  8
0
  6
Continuous
 62
     7
370
    15
100
AcDbCircle
 10
232.8628186456
 20
102.748681611
 30
0.0
 40
7.971528733169996
100
AcDbArc
 50
53.1702413329
 51
118.6937586126
  0
LINE
  5
404
330
1F
100
AcDbEntity
  8
0
  6
Continuous
 62
     7
370
    15
100
AcDbLine
 10
229.0354649393
 20
109.7412944239
 30
0.0
 11
229.0354649393
 21
113.0074576715
 31
0.0
  0
LINE
  5
405
330
1F
100
AcDbEntity
  8
0
  6
Continuous
 62
     7
370
    15
100
AcDbLine
 10
224.7928242522
 20
104.026172241
 30
0.0
 11
224.7928242522
 21
105.6592538648
 31
0.0
  0
LINE
  5
406
330
1F
100
AcDbEntity
  8
0
  6
Continuous
 62
     7
370
    15
100
AcDbLine
 10
216.6610962685
 20
113.6197637553
 30
0.0
 11
216.6610962685
 21
108.720518884
 31
0.0
  0
LINE
  5
407
330
1F
100
AcDbEntity
  8
0
  6
Continuous
 62
     7
370
    15
100
AcDbLine
 10
223.3786106898
 20
106.4756619766
 30
0.0
 11
223.3786106898
 21
109.7418252242
 31
0.0
  0
LINE
  5
408
330
1F
100
AcDbEntity
  8
0
  6
Continuous
 62
     7
370
    15
100
AcDbLine
 10
216.6610962685
 20
108.720518884
 30
0.0
 11
224.7928242522
 21
104.026172241
 31
0.0
  0
LINE
  5
409
330
1F
100
AcDbEntity
  8
0
  6
Continuous
 62
     7
370
    15
100
AcDbLine
 10
230.4496785017
 20
107.2918046883
 30
0.0
 11
230.4496785017
 21
108.9248863121
 31
0.0
  0
LINE
  5
40A
330
1F
100
AcDbEntity
  8
0
  6
Continuous
 62
     7
370
    15
100
AcDbLine
 10
230.4496785017
 20
107.2918046883
 30
0.0
 11
224.7928242522
 21
104.026172241
 31
0.0
  0
ARC
  5
40B
330
1F
100
AcDbEntity
  8
0
  6
Continuous
 62
     7
370
    15
100
AcDbCircle
 10
232.9381308875
 20
102.4879153358
 30
0.0
 40
5.410152325767879
100
AcDbArc
 50
67.3716374211
 51
117.3845111648
  0
ARC
  5
40C
330
1F
100
AcDbEntity
  8
0
  6
Continuous
 62
     7
370
    15
100
AcDbCircle
 10
224.085717471
 20
108.8553083692
 30
0.0
 40
6.074875234659245
100
AcDbArc
 50
62.2562109602
 51
117.7437890398
  0
ARC
  5
40D
330
1F
100
AcDbEntity
  8
0
  6
Continuous
 62
     7
370
    15
100
AcDbCircle
 10
264.3292297019
 20
108.8203316378
 30
0.0
 40
1.005878556987479
100
AcDbArc
 50
294.3746582936
 51
354.3052007488
  0
ARC
  5
40E
330
1F
100
AcDbEntity
  8
0
  6
Continuous
 62
     7
370
    15
100
AcDbCircle
 10
217.6989154869
 20
111.0110710481
 30
0.0
 40
2.514696392468762
100
AcDbArc
 50
185.6947992512
 51
245.6253417064
  0
ARC
  5
40F
330
1F
100
AcDbEntity
  8
0
  6
Continuous
 62
     7
370
    15
100
AcDbCircle
 10
224.085717471
 20
110.3024462303
 30
0.0
 40
3.600055961721726
100
AcDbArc
 50
69.4675369594
 51
110.5324630406
  0
LINE
  5
410
330
1F
100
AcDbEntity
  8
0
  6
Continuous
 62
     7
370
    15
100
AcDbLine
 10
239.7367469565
 20
148.1721672837
 30
0.0
 11
238.5817167569
 21
147.5051657822
 31
0.0
  0
ARC
  5
411
330
1F
100
AcDbEntity
  8
0
  6
Continuous
 62
     7
370
    15
100
AcDbCircle
 10
251.9415874762
 20
137.2549115543
 30
0.0
 40
12.95325792729324
100
AcDbArc
 50
190.7189380059
 51
229.2756854614
  0
LWPOLYLINE
  5
412
330
1F
100
AcDbEntity
  8
0
  6
Continuous
 62
     7
370
    15
100
AcDbPolyline
 90
        7
 70
   128
 43
0.0
 10
243.2863543619
 20
144.789236303
 10
243.2651966205
 20
144.8686065139
 10
243.1119151381
 20
145.2219989349
 10
242.8825131882
 20
145.5314336601
 10
242.6119151381
 20
145.7498020576
 10
242.341317088
 20
145.8438595185
 10
242.1119557718
 20
145.7993101081
  0
LWPOLYLINE
  5
413
330
1F
100
AcDbEntity
  8
0
  6
Continuous
 62
     7
370
    15
100
AcDbPolyline
 90
        7
 70
   128
 43
0.0
 10
247.528995049
 20
142.3400119675
 10
247.5078373076
 20
142.4193821785
 10
247.3545558252
 20
142.7727745994
 10
247.1251538753
 20
143.0822093246
 10
246.8545558252
 20
143.3005777222
 10
246.5839577751
 20
143.3946351831
 10
246.3545964589
 20
143.3500857726
  0
ARC
  5
414
330
1F
100
AcDbEntity
  8
0
  6
Continuous
 62
     7
370
    15
100
AcDbCircle
 10
252.2496241698
 20
137.4327373524
 30
0.0
 40
13.06222355177254
100
AcDbArc
 50
192.3625163093
 51
227.632107158
  0
LWPOLYLINE
  5
415
330
1F
100
AcDbEntity
  8
0
  6
Continuous
 62
     7
370
    15
100
AcDbPolyline
 90
        3
 70
   128
 43
0.0
 10
236.5478002859
 20
149.2238259793
 10
236.7057746657
 20
148.80507224
 10
236.768658154
 20
148.5518222349
  0
ARC
  5
416
330
1F
100
AcDbEntity
  8
0
  6
Continuous
 62
     7
370
    15
100
AcDbCircle
 10
228.8029140877
 20
123.8952568056
 30
0.0
 40
1.536804807572143
100
AcDbArc
 50
182.6054784857
 51
237.39452166
  0
LINE
  5
417
330
1F
100
AcDbEntity
  8
0
  6
Continuous
 62
     7
370
    15
100
AcDbLine
 10
227.2676979863
 20
148.3216203099
 30
0.0
 11
227.2676979863
 21
123.8253959534
 31
0.0
  0
ARC
  5
418
330
1F
100
AcDbEntity
  8
0
  6
Continuous
 62
     7
370
    15
100
AcDbCircle
 10
227.6987723538
 20
148.3915475068
 30
0.0
 40
0.4367091974285102
100
AcDbArc
 50
50.7967147643
 51
189.2140369905
  0
LINE
  5
419
330
1F
100
AcDbEntity
  8
0
  6
Continuous
 62
     7
370
    15
100
AcDbLine
 10
249.1880082031
 20
136.4838353886
 30
0.0
 11
227.9748047675
 21
148.7299570659
 31
0.0
  0
ARC
  5
41A
330
1F
100
AcDbEntity
  8
0
  6
Continuous
 62
     7
370
    15
100
AcDbCircle
 10
248.3598988829
 20
135.1892296685
 30
0.0
 40
1.536804807571998
100
AcDbArc
 50
2.6054784857
 51
57.39452166
  0
LINE
  5
41B
330
1F
100
AcDbEntity
  8
0
  6
Continuous
 62
     7
370
    15
100
AcDbLine
 10
249.8951149843
 20
110.7628661642
 30
0.0
 11
249.8951149843
 21
135.2590905208
 31
0.0
  0
ARC
  5
41C
330
1F
100
AcDbEntity
  8
0
  6
Continuous
 62
     7
370
    15
100
AcDbCircle
 10
249.4640406169
 20
110.6929389673
 30
0.0
 40
0.4367091974284771
100
AcDbArc
 50
230.7967147643
 51
9.2140369905
  0
LINE
  5
41D
330
1F
100
AcDbEntity
  8
0
  6
Continuous
 62
     7
370
    15
100
AcDbLine
 10
227.9748047675
 20
122.6006510856
 30
0.0
 11
249.1880082031
 21
110.3545294082
 31
0.0
  0
LWPOLYLINE
  5
41E
330
1F
100
AcDbEntity
  8
0
  6
Continuous
 62
     7
370
    15
100
AcDbPolyline
 90
       34
 70
   128
 43
0.0
 10
241.3526877774
 20
123.2064798915
 10
241.9503803987
 20
123.4098644781
 10
242.4679341132
 20
123.7591220045
 10
242.8930376982
 20
124.2459445655
 10
243.2155790727
 20
124.8587519503
 10
243.4278858376
 20
125.5829671052
 10
243.5249077809
 20
126.4013628826
 10
243.5043370092
 20
127.2944718291
 10
243.3666628465
 20
128.2410492641
 10
243.1151601939
 20
129.2185786343
 10
242.7558116289
 20
130.2038071225
 10
242.2971650959
 20
131.1732987698
 10
241.7501305729
 20
132.1039919548
 10
241.1277205526
 20
132.9737479682
 10
240.4447405099
 20
133.7618776336
 10
239.7174367191
 20
134.4496334475
 10
238.9631097979
 20
135.0206555329
 10
238.1997031727
 20
135.461360797
 10
237.4453762516
 20
135.7612660365
 10
236.7180724607
 20
135.9132373054
 10
236.035092418
 20
135.9136596126
 10
235.4126823978
 20
135.7625229123
 10
234.8656478747
 20
135.4634223437
 10
234.4070013417
 20
135.0234727119
 10
234.0476527768
 20
134.4531392455
 10
233.7961501242
 20
133.7659886571
 10
233.6584759614
 20
132.9783664269
 10
233.6379051898
 20
132.1090079878
 10
233.7349271331
 20
131.1785930591
 10
233.9472338979
 20
130.2092537311
 10
234.2697752725
 20
129.224048002
 10
234.6948788574
 20
128.246411289
 10
235.212432572
 20
127.2995989631
 10
235.8101251932
 20
126.4061331648
  0
LWPOLYLINE
  5
41F
330
1F
100
AcDbEntity
  8
0
  6
Continuous
 62
     7
370
    15
100
AcDbPolyline
 90
       14
 70
   128
 43
0.0
 10
235.8101251932
 20
126.4061331648
 10
235.9897032941
 20
125.647664156
 10
236.2838950955
 20
124.8808756375
 10
236.6796904612
 20
124.1396775377
 10
237.1595860091
 20
123.4568480917
 10
237.7023591684
 20
122.8625842796
 10
238.284006712
 20
122.3831664158
 10
238.8788062587
 20
122.0397959464
 10
239.4604538023
 20
121.8476578508
 10
240.0032269616
 20
121.8152491122
 10
240.4831225095
 20
121.9440029524
 10
240.8789178752
 20
122.22822545
 10
241.1731096765
 20
122.6553473447
 10
241.3526877774
 20
123.2064798915
  0
LINE
  5
420
330
1F
100
AcDbEntity
  8
0
  6
Continuous
 62
     7
370
    15
100
AcDbLine
 10
247.8908460303
 20
142.1311198425
 30
0.0
 11
234.9283614535
 21
149.6142029067
 31
0.0
  0
LWPOLYLINE
  5
421
330
1F
100
AcDbEntity
  8
0
  6
Continuous
 62
     7
370
    15
100
AcDbPolyline
 90
       21
 70
   128
 43
0.0
 10
239.1824472493
 20
142.9538696748
 10
239.6000891137
 20
142.7787006226
 10
240.091056571
 20
142.6866088021
 10
240.6072903056
 20
142.6866088021
 10
241.0982577629
 20
142.7787006226
 10
241.5158996272
 20
142.9538696748
 10
241.8193342032
 20
143.1949691911
 10
241.9788592003
 20
143.4783986712
 10
241.9788592003
 20
143.7764140628
 10
241.8193342032
 20
144.0598435429
 10
241.5158996272
 20
144.3009430593
 10
241.0982577629
 20
144.4761121114
 10
240.6072903056
 20
144.568203932
 10
240.091056571
 20
144.568203932
 10
239.6000891137
 20
144.4761121114
 10
239.1824472493
 20
144.3009430593
 10
238.8790126734
 20
144.0598435429
 10
238.7194876763
 20
143.7764140628
 10
238.7194876763
 20
143.4783986712
 10
238.8790126734
 20
143.1949691911
 10
239.1824472493
 20
142.9538696748
  0
LINE
  5
422
330
1F
100
AcDbEntity
  8
0
  6
Continuous
 62
     7
370
    15
100
AcDbLine
 10
235.8101251932
 20
126.4061331648
 30
0.0
 11
239.3456590991
 21
128.4471534443
 31
0.0
  0
LINE
  5
423
330
1F
100
AcDbEntity
  8
0
  6
Continuous
 62
     7
370
    15
100
AcDbLine
 10
242.6821753976
 20
123.9739767579
 30
0.0
 11
241.3526877774
 21
123.2064798915
 31
0.0
  0
ARC
  5
424
330
1F
100
AcDbEntity
  8
0
  6
Continuous
 62
     7
370
    15
100
AcDbCircle
 10
246.6677643394
 20
134.4079839738
 30
0.0
 40
9.441648465766006
100
AcDbArc
 50
171.5515090732
 51
219.148586603
  0
LWPOLYLINE
  5
425
330
1F
100
AcDbEntity
  8
0
  6
Continuous
 62
     7
370
    15
100
AcDbPolyline
 90
       16
 70
   128
 43
0.0
 10
238.494019354
 20
135.307585579
 10
238.4623937571
 20
135.2289921121
 10
238.2869370695
 20
134.5741269034
 10
238.2278530947
 20
133.8283858241
 10
238.2869370695
 20
133.0144278397
 10
238.4623937571
 20
132.1569846514
 10
238.7488919949
 20
131.2821092368
 10
239.1377266789
 20
130.4163842426
 10
239.6170832641
 20
129.5861142847
 10
240.172396743
 20
128.8165266956
 10
240.7867941967
 20
128.1310050048
 10
241.4416074694
 20
127.5503784419
 10
242.1169403913
 20
127.0922890512
 10
242.7922733131
 20
126.7706556472
 10
243.4470865858
 20
126.595250898
 10
243.5303682212
 20
126.5834281757
  0
ARC
  5
426
330
1F
100
AcDbEntity
  8
0
  6
Continuous
 62
     7
370
    15
100
AcDbCircle
 10
245.1376377375
 20
129.2864240682
 30
0.0
 40
5.852468857450599
100
AcDbArc
 50
188.2449007269
 51
245.1931829712
  0
ARC
  5
427
330
1F
100
AcDbEntity
  8
0
  6
Continuous
 62
     7
370
    15
100
AcDbCircle
 10
246.8073631047
 20
134.2909869136
 30
0.0
 40
7.842586870069043
100
AcDbArc
 50
174.8268740905
 51
245.1677493768
  0
LINE
  5
428
330
1F
100
AcDbEntity
  8
0
  6
Continuous
 62
     7
370
    15
100
AcDbLine
 10
252.7235421091
 20
152.4067129705
 30
0.0
 11
249.2584847374
 21
154.4070480128
 31
0.0
  0
LINE
  5
429
330
1F
100
AcDbEntity
  8
0
  6
Continuous
 62
     7
370
    15
100
AcDbLine
 10
252.7235421091
 20
105.0473458811
 30
0.0
 11
252.7235421091
 21
152.4067129705
 31
0.0
  0
LINE
  5
42A
330
1F
100
AcDbEntity
  8
0
  6
Continuous
 62
     7
370
    15
100
AcDbLine
 10
224.4392708616
 20
168.7348752069
 30
0.0
 11
224.4392708616
 21
122.1920489295
 31
0.0
  0
LINE
  5
42B
330
1F
100
AcDbEntity
  8
0
  6
Continuous
 62
     7
370
    15
100
AcDbLine
 10
227.9043282333
 20
166.7345401646
 30
0.0
 11
224.4392708616
 21
168.7348752069
 31
0.0
  0
LINE
  5
42C
330
1F
100
AcDbEntity
  8
0
  6
Continuous
 62
     7
370
    15
100
AcDbLine
 10
227.9043282333
 20
166.7345401646
 30
0.0
 11
227.9043282333
 21
150.4037239269
 31
0.0
  0
LINE
  5
42D
330
1F
100
AcDbEntity
  8
0
  6
Continuous
 62
     7
370
    15
100
AcDbLine
 10
227.9748047675
 20
150.3630386897
 30
0.0
 11
227.9043282333
 21
150.4037239269
 31
0.0
  0
ARC
  5
42E
330
1F
100
AcDbEntity
  8
0
  6
Continuous
 62
     7
370
    15
100
AcDbCircle
 10
227.1467075262
 20
149.3478100125
 30
0.0
 40
1.310127592285424
100
AcDbArc
 50
50.7967147643
 51
189.2140369905
  0
LINE
  5
42F
330
1F
100
AcDbEntity
  8
0
  6
Continuous
 62
     7
370
    15
100
AcDbLine
 10
225.853484424
 20
149.1380284217
 30
0.0
 11
225.853484424
 21
124.6418040652
 31
0.0
  0
ARC
  5
430
330
1F
100
AcDbEntity
  8
0
  6
Continuous
 62
     7
370
    15
100
AcDbCircle
 10
230.4591327281
 20
124.851386622
 30
0.0
 40
4.610414422716285
100
AcDbArc
 50
182.6054784857
 51
237.39452166
  0
LINE
  5
431
330
1F
100
AcDbEntity
  8
0
  6
Continuous
 62
     7
370
    15
100
AcDbLine
 10
227.9748047675
 20
120.9675694618
 30
0.0
 11
249.1880082031
 21
108.7214477844
 31
0.0
  0
ARC
  5
432
330
1F
100
AcDbEntity
  8
0
  6
Continuous
 62
     7
370
    15
100
AcDbCircle
 10
250.0161054444
 20
109.7366764617
 30
0.0
 40
1.310127592285447
100
AcDbArc
 50
230.7967147643
 51
9.2140369905
  0
LINE
  5
433
330
1F
100
AcDbEntity
  8
0
  6
Continuous
 62
     7
370
    15
100
AcDbLine
 10
251.3093285467
 20
109.9464580524
 30
0.0
 11
251.3093285467
 21
134.4426824089
 31
0.0
  0
ARC
  5
434
330
1F
100
AcDbEntity
  8
0
  6
Continuous
 62
     7
370
    15
100
AcDbCircle
 10
246.7036802426
 20
134.2330998522
 30
0.0
 40
4.610414422716199
100
AcDbArc
 50
2.6054784857
 51
57.39452166
  0
LINE
  5
435
330
1F
100
AcDbEntity
  8
0
  6
Continuous
 62
     7
370
    15
100
AcDbLine
 10
249.2584847374
 20
138.0762317751
 30
0.0
 11
249.1880082031
 21
138.1169170123
 31
0.0
  0
LINE
  5
436
330
1F
100
AcDbEntity
  8
0
  6
Continuous
 62
     7
370
    15
100
AcDbLine
 10
249.2584847374
 20
138.0762317751
 30
0.0
 11
249.2584847374
 21
154.4070480128
 31
0.0
  0
ARC
  5
437
330
1F
100
AcDbEntity
  8
0
  6
Continuous
 62
     7
370
    15
100
AcDbCircle
 10
264.4345033356
 20
160.1625900328
 30
0.0
 40
0.8732306336685107
100
AcDbArc
 50
290.7834207995
 51
69.2165792005
  0
LINE
  5
438
330
1F
100
AcDbEntity
  8
0
  6
Continuous
 62
     7
370
    15
100
AcDbLine
 10
252.7235421091
 20
152.4067129705
 30
0.0
 11
264.7443573892
 21
159.346181921
 31
0.0
  0
LWPOLYLINE
  5
439
330
1F
100
AcDbEntity
  8
0
  6
Continuous
 62
     7
370
    15
100
AcDbPolyline
 90
       18
 70
   128
 43
0.0
 10
249.2584847374
 20
154.4070480128
 10
249.114875663
 20
155.5338936685
 10
248.7983492198
 20
156.6489116374
 10
248.3114106706
 20
157.7432767077
 10
247.6579140662
 20
158.8083271322
 10
246.8430317411
 20
159.8356331852
 10
245.8732133755
 20
160.8170638823
 10
244.7561349467
 20
161.7448513362
 10
243.5006379748
 20
162.6116522384
 10
242.1166595436
 20
163.4106059805
 10
240.6151536497
 20
164.1353889549
 10
239.008004503
 20
164.7802646053
 10
237.3079324652
 20
165.3401288307
 10
235.5283933697
 20
165.8105503838
 10
233.6834720208
 20
166.1878059434
 10
231.7877707138
 20
166.4689095844
 10
229.8562936607
 20
166.6516364106
 10
227.9043282333
 20
166.7345401646
  0
LINE
  5
43A
330
1F
100
AcDbEntity
  8
0
  6
Continuous
 62
     7
370
    15
100
AcDbLine
 10
224.4392708616
 20
168.7348752069
 30
0.0
 11
231.5361701532
 21
172.8318279619
 31
0.0
  0
LINE
  5
43B
330
1F
100
AcDbEntity
  8
0
  6
Continuous
 62
     7
370
    15
100
AcDbLine
 10
264.7443573892
 20
160.9789981446
 30
0.0
 11
264.6306981889
 21
161.0446122043
 31
0.0
  0
LINE
  5
43C
330
1F
100
AcDbEntity
  8
0
  6
Continuous
 62
     7
370
    15
100
AcDbLine
 10
250.5996483095
 20
169.1445648874
 30
0.0
 11
246.2388501572
 21
171.6620000756
 31
0.0
  0
LINE
  5
43D
330
1F
100
AcDbEntity
  8
0
  6
Continuous
 62
     7
370
    15
100
AcDbLine
 10
264.7443573892
 20
111.9868148316
 30
0.0
 11
264.7443573892
 21
159.346181921
 31
0.0
  0
ARC
  5
43E
330
1F
100
AcDbEntity
  8
0
  6
Continuous
 62
     7
370
    15
100
AcDbCircle
 10
241.9133288699
 20
137.7078787215
 30
0.0
 40
7.35438635707472
100
AcDbArc
 50
2.8709274187
 51
3.4861177607
  0
LWPOLYLINE
  5
43F
330
1F
100
AcDbEntity
  8
0
  6
Continuous
 62
     7
370
    15
100
AcDbPolyline
 90
       18
 70
   128
 43
0.0
 10
249.2541063809
 20
138.1550746781
 10
249.100361058
 20
139.2721742658
 10
248.7766374689
 20
140.3771015205
 10
248.2854559646
 20
141.4612540278
 10
247.6306406402
 20
142.5161911149
 10
246.8172895625
 20
143.5336995658
 10
245.8517350787
 20
144.5058575654
 10
244.7414945164
 20
145.4250963745
 10
243.4952116568
 20
146.2842592565
 10
242.1225894391
 20
147.0766571961
 10
240.6343144178
 20
147.7961209767
 10
239.0419735627
 20
148.4370492108
 10
237.3579640485
 20
148.9944519496
 10
235.5953967365
 20
149.4639895324
 10
233.7679941
 20
149.8420063729
 10
231.8899833879
 20
150.1255594197
 10
229.9759858584
 20
150.3124410698
 10
228.0409029453
 20
150.4011963555
  0
ARC
  5
440
330
1F
100
AcDbEntity
  8
0
  6
Continuous
 62
     7
370
    15
100
AcDbCircle
 10
227.2681795801
 20
112.338987303
 30
0.0
 40
38.070052000942
100
AcDbArc
 50
88.8369643377
 51
89.0425458469
  0
LINE
  5
441
330
1F
100
AcDbEntity
  8
0
  6
Continuous
 62
     7
370
    15
100
AcDbLine
 10
249.1880082031
 20
138.1169170123
 30
0.0
 11
249.2541063809
 21
138.1550746781
 31
0.0
  0
LWPOLYLINE
  5
442
330
1F
100
AcDbEntity
  8
0
  6
Continuous
 62
     7
370
    15
100
AcDbPolyline
 90
        3
 70
   128
 43
0.0
 10
237.5207463135
 20
148.1172528818
 10
237.4605111153
 20
148.6803667047
 10
237.3829335584
 20
148.9870003814
  0
ARC
  5
443
330
1F
100
AcDbEntity
  8
0
  6
Continuous
 62
     7
370
    15
100
AcDbCircle
 10
252.2496087116
 20
137.4327284286
 30
0.0
 40
13.06220654140431
100
AcDbArc
 50
192.3624925905
 51
227.6321308768
  0
LINE
  5
444
330
1F
100
AcDbEntity
  8
0
  6
Continuous
 62
     7
370
    15
100
AcDbLine
 10
227.9748047675
 20
150.3630386897
 30
0.0
 11
228.0409029453
 21
150.4011963555
 31
0.0
  0
LINE
  5
445
330
1F
100
AcDbEntity
  8
0
  6
Continuous
 62
     8
370
    15
100
AcDbLine
 10
250.0519814009
 20
168.1692383525
 30
0.0
 11
250.0519814009
 21
167.3141252929
 31
0.0
  0
LINE
  5
446
330
1F
100
AcDbEntity
  8
0
  6
Continuous
 62
     8
370
    15
100
AcDbLine
 10
231.586397713
 20
178.485194803
 30
0.0
 11
231.586397713
 21
177.4259409864
 31
0.0
  0
LINE
  5
447
330
1F
100
AcDbEntity
  8
0
  6
Continuous
 62
     8
370
    15
100
AcDbLine
 10
246.2672327811
 20
177.4702427618
 30
0.0
 11
246.2672327811
 21
178.5577165348
 31
0.0
  0
LINE
  5
448
330
1F
100
AcDbEntity
  8
0
  6
Continuous
 62
     8
370
    15
100
AcDbLine
 10
249.1880082031
 20
136.4838353886
 30
0.0
 11
250.2923042789
 21
137.1213319436
 31
0.0
  0
LINE
  5
449
330
1F
100
AcDbEntity
  8
0
  6
Continuous
 62
     8
370
    15
100
AcDbLine
 10
250.9993675308
 20
135.8965619469
 30
0.0
 11
249.8951149843
 21
135.2590905208
 31
0.0
  0
LINE
  5
44A
330
1F
100
AcDbEntity
  8
0
  6
Continuous
 62
     8
370
    15
100
AcDbLine
 10
249.8951149843
 20
110.7628661642
 30
0.0
 11
251.3093285467
 21
111.579274276
 31
0.0
  0
LINE
  5
44B
330
1F
100
AcDbEntity
  8
0
  6
Continuous
 62
     8
370
    15
100
AcDbLine
 10
230.6256084647
 20
150.2602334674
 30
0.0
 11
227.9748047675
 21
148.7299570659
 31
0.0
  0
LINE
  5
44C
330
1F
100
AcDbEntity
  8
0
  6
Continuous
 62
     8
370
    15
100
AcDbLine
 10
249.1880082031
 20
108.7214477844
 30
0.0
 11
251.3093285187
 21
109.946059936
 31
0.0
  0
LINE
  5
44D
330
1F
100
AcDbEntity
  8
0
  6
Continuous
 62
     8
370
    15
100
AcDbLine
 10
228.0415691123
 20
150.4011828253
 30
0.0
 11
225.853484424
 21
149.1380284217
 31
0.0
  0
LINE
  5
44E
330
1F
100
AcDbEntity
  8
0
  6
Continuous
 62
     8
370
    15
100
AcDbLine
 10
229.3892481981
 20
121.7841102737
 30
0.0
 11
227.9748047675
 21
120.9675694618
 31
0.0
  0
LINE
  5
44F
330
1F
100
AcDbEntity
  8
0
  6
Continuous
 62
     8
370
    15
100
AcDbLine
 10
225.853484424
 20
124.6418040652
 30
0.0
 11
227.2676979863
 21
125.458212177
 31
0.0
  0
ENDSEC
  0
SECTION
  2
OBJECTS
  0
DICTIONARY
  5
C
330
0
100
AcDbDictionary
281
     1
  3
ACAD_GROUP
350
D
  3
ACAD_LAYOUT
350
1A
  3
ACAD_MLINESTYLE
350
17
  3
ACAD_PLOTSETTINGS
350
19
  3
ACAD_PLOTSTYLENAME
350
E
  3
ACAD_SCALELIST
350
47
  0
DICTIONARY
  5
D
102
{ACAD_REACTORS
330
C
102
}
330
C
100
AcDbDictionary
281
     1
  0
DICTIONARY
  5
1A
102
{ACAD_REACTORS
330
C
102
}
330
C
100
AcDbDictionary
281
     1
  3
Layout1
350
1E
  3
Layout2
350
26
  3
Model
350
22
  0
DICTIONARY
  5
17
102
{ACAD_REACTORS
330
C
102
}
330
C
100
AcDbDictionary
281
     1
  3
Standard
350
18
  0
DICTIONARY
  5
19
102
{ACAD_REACTORS
330
C
102
}
330
C
100
AcDbDictionary
281
     1
  0
ACDBDICTIONARYWDFLT
  5
E
102
{ACAD_REACTORS
330
C
102
}
330
C
100
AcDbDictionary
281
     1
  3
Normal
350
F
100
AcDbDictionaryWithDefault
340
F
  0
DICTIONARY
  5
47
102
{ACAD_REACTORS
330
C
102
}
330
C
100
AcDbDictionary
281
     1
  3
A0
350
48
  3
A1
350
49
  3
A2
350
4A
  3
A3
350
4B
  3
A4
350
4C
  3
A5
350
4D
  3
A6
350
4E
  3
A7
350
4F
  3
A8
350
50
  3
A9
350
51
  3
B0
350
52
  3
B1
350
53
  3
B2
350
54
  3
B3
350
55
  3
B4
350
56
  3
B5
350
57
  3
B6
350
58
  3
B7
350
59
  3
B8
350
5A
  3
B9
350
5B
  3
C0
350
5C
  3
C1
350
5D
  3
C2
350
5E
  3
C3
350
5F
  3
C4
350
60
  3
C5
350
61
  3
C6
350
62
  3
C7
350
63
  3
C8
350
64
  3
C9
350
65
  3
D0
350
66
  3
D1
350
67
  3
D2
350
68
  0
LAYOUT
  5
1E
102
{ACAD_REACTORS
330
1A
102
}
330
1A
100
AcDbPlotSettings
  1

  2
none_device
  4

  6

 40
0.0
 41
0.0
 42
0.0
 43
0.0
 44
0.0
 45
0.0
 46
0.0
 47
0.0
 48
0.0
 49
0.0
140
0.0
141
0.0
142
1.0
143
1.0
 70
   688
 72
     1
 73
     0
 74
     5
  7

 75
    16
147
1.0
148
0.0
149
0.0
100
AcDbLayout
  1
Layout1
 70
     1
 71
     1
 10
0.0
 20
0.0
 11
420.0
 21
297.0
 12
0.0
 22
0.0
 32
0.0
 14
1.0000000000E+20
 24
1.0000000000E+20
 34
1.0000000000E+20
 15
-1.0000000000E+20
 25
-1.0000000000E+20
 35
-1.0000000000E+20
146
0.0
 13
0.0
 23
0.0
 33
0.0
 16
1.0
 26
0.0
 36
0.0
 17
0.0
 27
1.0
 37
0.0
 76
     0
330
1B
  0
LAYOUT
  5
26
102
{ACAD_REACTORS
330
1A
102
}
330
1A
100
AcDbPlotSettings
  1

  2
none_device
  4

  6

 40
0.0
 41
0.0
 42
0.0
 43
0.0
 44
0.0
 45
0.0
 46
0.0
 47
0.0
 48
0.0
 49
0.0
140
0.0
141
0.0
142
1.0
143
1.0
 70
   688
 72
     1
 73
     0
 74
     5
  7

 75
    16
147
1.0
148
0.0
149
0.0
100
AcDbLayout
  1
Layout2
 70
     1
 71
     2
 10
0.0
 20
0.0
 11
0.0
 21
0.0
 12
0.0
 22
0.0
 32
0.0
 14
0.0
 24
0.0
 34
0.0
 15
0.0
 25
0.0
 35
0.0
146
0.0
 13
0.0
 23
0.0
 33
0.0
 16
1.0
 26
0.0
 36
0.0
 17
0.0
 27
1.0
 37
0.0
 76
     0
330
23
  0
LAYOUT
  5
22
102
{ACAD_REACTORS
330
1A
102
}
330
1A
100
AcDbPlotSettings
  1

  2
none_device
  4
Letter_(8.50_x_11.00_Inches)
  6

 40
6.35
 41
6.35
 42
6.35000508
 43
6.35000508
 44
215.9
 45
279.4
 46
0.0
 47
0.0
 48
0.0
 49
0.0
140
0.0
141
0.0
142
1.0
143
1.0
 70
  1712
 72
     1
 73
     0
 74
     0
  7

 75
     0
147
1.0
148
0.0
149
0.0
100
AcDbLayout
  1
Model
 70
     1
 71
     0
 10
0.0
 20
0.0
 11
297.0
 21
210.0
 12
0.0
 22
0.0
 32
0.0
 14
0.0
 24
0.0
 34
0.0
 15
297.0
 25
210.0
 35
0.0
146
0.0
 13
0.0
 23
0.0
 33
0.0
 16
1.0
 26
0.0
 36
0.0
 17
0.0
 27
1.0
 37
0.0
 76
     0
330
1F
331
29
  0
MLINESTYLE
  5
18
102
{ACAD_REACTORS
330
17
102
}
330
17
100
AcDbMlineStyle
  2
Standard
 70
     0
  3

 62
   256
 51
90.0
 52
90.0
 71
     2
 49
0.5
 62
   256
  6
BYLAYER
 49
-0.5
 62
   256
  6
BYLAYER
  0
ACDBPLACEHOLDER
  5
F
102
{ACAD_REACTORS
330
E
102
}
330
E
  0
SCALE
  5
48
102
{ACAD_REACTORS
330
47
102
}
330
47
100
AcDbScale
 70
     0
300
1:1
140
1.0
141
1.0
290
     1
  0
SCALE
  5
49
102
{ACAD_REACTORS
330
47
102
}
330
47
100
AcDbScale
 70
     0
300
1:2
140
1.0
141
2.0
290
     0
  0
SCALE
  5
4A
102
{ACAD_REACTORS
330
47
102
}
330
47
100
AcDbScale
 70
     0
300
1:4
140
1.0
141
4.0
290
     0
  0
SCALE
  5
4B
102
{ACAD_REACTORS
330
47
102
}
330
47
100
AcDbScale
 70
     0
300
1:5
140
1.0
141
5.0
290
     0
  0
SCALE
  5
4C
102
{ACAD_REACTORS
330
47
102
}
330
47
100
AcDbScale
 70
     0
300
1:8
140
1.0
141
8.0
290
     0
  0
SCALE
  5
4D
102
{ACAD_REACTORS
330
47
102
}
330
47
100
AcDbScale
 70
     0
300
1:10
140
1.0
141
10.0
290
     0
  0
SCALE
  5
4E
102
{ACAD_REACTORS
330
47
102
}
330
47
100
AcDbScale
 70
     0
300
1:16
140
1.0
141
16.0
290
     0
  0
SCALE
  5
4F
102
{ACAD_REACTORS
330
47
102
}
330
47
100
AcDbScale
 70
     0
300
1:20
140
1.0
141
20.0
290
     0
  0
SCALE
  5
50
102
{ACAD_REACTORS
330
47
102
}
330
47
100
AcDbScale
 70
     0
300
1:30
140
1.0
141
30.0
290
     0
  0
SCALE
  5
51
102
{ACAD_REACTORS
330
47
102
}
330
47
100
AcDbScale
 70
     0
300
1:40
140
1.0
141
40.0
290
     0
  0
SCALE
  5
52
102
{ACAD_REACTORS
330
47
102
}
330
47
100
AcDbScale
 70
     0
300
1:50
140
1.0
141
50.0
290
     0
  0
SCALE
  5
53
102
{ACAD_REACTORS
330
47
102
}
330
47
100
AcDbScale
 70
     0
300
1:100
140
1.0
141
100.0
290
     0
  0
SCALE
  5
54
102
{ACAD_REACTORS
330
47
102
}
330
47
100
AcDbScale
 70
     0
300
2:1
140
2.0
141
1.0
290
     0
  0
SCALE
  5
55
102
{ACAD_REACTORS
330
47
102
}
330
47
100
AcDbScale
 70
     0
300
4:1
140
4.0
141
1.0
290
     0
  0
SCALE
  5
56
102
{ACAD_REACTORS
330
47
102
}
330
47
100
AcDbScale
 70
     0
300
8:1
140
8.0
141
1.0
290
     0
  0
SCALE
  5
57
102
{ACAD_REACTORS
330
47
102
}
330
47
100
AcDbScale
 70
     0
300
10:1
140
10.0
141
1.0
290
     0
  0
SCALE
  5
58
102
{ACAD_REACTORS
330
47
102
}
330
47
100
AcDbScale
 70
     0
300
100:1
140
100.0
141
1.0
290
     0
  0
SCALE
  5
59
102
{ACAD_REACTORS
330
47
102
}
330
47
100
AcDbScale
 70
     0
300
1/128" = 1'-0"
140
0.0078125
141
12.0
290
     0
  0
SCALE
  5
5A
102
{ACAD_REACTORS
330
47
102
}
330
47
100
AcDbScale
 70
     0
300
1/64" = 1'-0"
140
0.015625
141
12.0
290
     0
  0
SCALE
  5
5B
102
{ACAD_REACTORS
330
47
102
}
330
47
100
AcDbScale
 70
     0
300
1/32" = 1'-0"
140
0.03125
141
12.0
290
     0
  0
SCALE
  5
5C
102
{ACAD_REACTORS
330
47
102
}
330
47
100
AcDbScale
 70
     0
300
1/16" = 1'-0"
140
0.0625
141
12.0
290
     0
  0
SCALE
  5
5D
102
{ACAD_REACTORS
330
47
102
}
330
47
100
AcDbScale
 70
     0
300
3/32" = 1'-0"
140
0.09375
141
12.0
290
     0
  0
SCALE
  5
5E
102
{ACAD_REACTORS
330
47
102
}
330
47
100
AcDbScale
 70
     0
300
1/8" = 1'-0"
140
0.125
141
12.0
290
     0
  0
SCALE
  5
5F
102
{ACAD_REACTORS
330
47
102
}
330
47
100
AcDbScale
 70
     0
300
3/16" = 1'-0"
140
0.1875
141
12.0
290
     0
  0
SCALE
  5
60
102
{ACAD_REACTORS
330
47
102
}
330
47
100
AcDbScale
 70
     0
300
1/4" = 1'-0"
140
0.25
141
12.0
290
     0
  0
SCALE
  5
61
102
{ACAD_REACTORS
330
47
102
}
330
47
100
AcDbScale
 70
     0
300
3/8" = 1'-0"
140
0.375
141
12.0
290
     0
  0
SCALE
  5
62
102
{ACAD_REACTORS
330
47
102
}
330
47
100
AcDbScale
 70
     0
300
1/2" = 1'-0"
140
0.5
141
12.0
290
     0
  0
SCALE
  5
63
102
{ACAD_REACTORS
330
47
102
}
330
47
100
AcDbScale
 70
     0
300
3/4" = 1'-0"
140
0.75
141
12.0
290
     0
  0
SCALE
  5
64
102
{ACAD_REACTORS
330
47
102
}
330
47
100
AcDbScale
 70
     0
300
1" = 1'-0"
140
1.0
141
12.0
290
     0
  0
SCALE
  5
65
102
{ACAD_REACTORS
330
47
102
}
330
47
100
AcDbScale
 70
     0
300
1-1/2" = 1'-0"
140
1.5
141
12.0
290
     0
  0
SCALE
  5
66
102
{ACAD_REACTORS
330
47
102
}
330
47
100
AcDbScale
 70
     0
300
3" = 1'-0"
140
3.0
141
12.0
290
     0
  0
SCALE
  5
67
102
{ACAD_REACTORS
330
47
102
}
330
47
100
AcDbScale
 70
     0
300
6" = 1'-0"
140
6.0
141
12.0
290
     0
  0
SCALE
  5
68
102
{ACAD_REACTORS
330
47
102
}
330
47
100
AcDbScale
 70
     0
300
1'-0" = 1'-0"
140
12.0
141
12.0
290
     0
  0
ENDSEC
  0
EOF
