  0
SECTION
  2
HEADER
  9
$ACADVER
  1
AC1015
  9
$ACADMAINTVER
 70
     6
  9
$DWGCODEPAGE
  3
ANSI_950
  9
$INSBASE
 10
0.0
 20
0.0
 30
0.0
  9
$EXTMIN
 10
0.0
 20
0.0
 30
0.0
  9
$EXTMAX
 10
297.0
 20
210.0
 30
0.0
  9
$LIMMIN
 10
0.0
 20
0.0
  9
$LIMMAX
 10
297.0
 20
210.0
  9
$ORTHOMODE
 70
     0
  9
$REGENMODE
 70
     1
  9
$FILLMODE
 70
     1
  9
$QTEXTMODE
 70
     0
  9
$MIRRTEXT
 70
     1
  9
$LTSCALE
 40
1.0
  9
$ATTMODE
 70
     1
  9
$TEXTSIZE
 40
3.5277777778
  9
$TRACEWID
 40
1.0
  9
$TEXTSTYLE
  7
STANDARD
  9
$CLAYER
  8
0
  9
$CELTYPE
  6
ByLayer
  9
$CECOLOR
 62
   256
  9
$CELTSCALE
 40
1.0
  9
$DISPSILH
 70
     0
  9
$DIMSCALE
 40
1.0
  9
$DIMASZ
 40
2.0
  9
$DIMEXO
 40
1.0
  9
$DIMDLI
 40
3.75
  9
$DIMRND
 40
0.0
  9
$DIMDLE
 40
0.0
  9
$DIMEXE
 40
1.0
  9
$DIMTP
 40
0.0
  9
$DIMTM
 40
0.0
  9
$DIMTXT
 40
2.5
  9
$DIMCEN
 40
2.5
  9
$DIMTSZ
 40
0.0
  9
$DIMTOL
 70
     0
  9
$DIMLIM
 70
     0
  9
$DIMTIH
 70
     1
  9
$DIMTOH
 70
     1
  9
$DIMSE1
 70
     0
  9
$DIMSE2
 70
     0
  9
$DIMTAD
 70
     1
  9
$DIMZIN
 70
     0
  9
$DIMBLK
  1

  9
$DIMASO
 70
     1
  9
$DIMSHO
 70
     1
  9
$DIMPOST
  1

  9
$DIMAPOST
  1

  9
$DIMALT
 70
     0
  9
$DIMALTD
 70
     3
  9
$DIMALTF
 40
0.0393700787
  9
$DIMLFAC
 40
1.0
  9
$DIMTOFL
 70
     1
  9
$DIMTVP
 40
0.0
  9
$DIMTIX
 70
     0
  9
$DIMSOXD
 70
     0
  9
$DIMSAH
 70
     0
  9
$DIMBLK1
  1

  9
$DIMBLK2
  1

  9
$DIMSTYLE
  2
ISO-25
  9
$DIMCLRD
 70
     0
  9
$DIMCLRE
 70
     0
  9
$DIMCLRT
 70
     0
  9
$DIMTFAC
 40
1.0
  9
$DIMGAP
 40
1.0
  9
$DIMJUST
 70
     0
  9
$DIMSD1
 70
     0
  9
$DIMSD2
 70
     0
  9
$DIMTOLJ
 70
     0
  9
$DIMTZIN
 70
     0
  9
$DIMALTZ
 70
     0
  9
$DIMALTTZ
 70
     0
  9
$DIMUPT
 70
     0
  9
$DIMDEC
 70
     2
  9
$DIMTDEC
 70
     2
  9
$DIMALTU
 70
     2
  9
$DIMALTTD
 70
     3
  9
$DIMTXSTY
  7
STANDARD
  9
$DIMAUNIT
 70
     0
  9
$DIMADEC
 70
     1
  9
$DIMALTRND
 40
0.0
  9
$DIMAZIN
 70
     0
  9
$DIMDSEP
 70
    44
  9
$DIMATFIT
 70
     3
  9
$DIMFRAC
 70
     0
  9
$DIMLDRBLK
  1

  9
$DIMLUNIT
 70
     2
  9
$DIMLWD
 70
    -2
  9
$DIMLWE
 70
    -2
  9
$DIMTMOVE
 70
     0
  9
$LUNITS
 70
     2
  9
$LUPREC
 70
     2
  9
$SKETCHINC
 40
1.0
  9
$FILLETRAD
 40
10.0
  9
$AUNITS
 70
     0
  9
$AUPREC
 70
     1
  9
$MENU
  1
.
  9
$ELEVATION
 40
0.0
  9
$PELEVATION
 40
0.0
  9
$THICKNESS
 40
0.0
  9
$LIMCHECK
 70
     0
  9
$CHAMFERA
 40
0.0
  9
$CHAMFERB
 40
0.0
  9
$CHAMFERC
 40
0.0
  9
$CHAMFERD
 40
0.0
  9
$SKPOLY
 70
     0
  9
$TDCREATE
 40
2457497.68644706
  9
$TDUCREATE
 40
2457497.353113727
  9
$TDUPDATE
 40
2457497.686454121
  9
$TDUUPDATE
 40
2457497.353120787
  9
$TDINDWG
 40
0.0000000116
  9
$TDUSRTIMER
 40
0.0000000116
  9
$USRTIMER
 70
     1
  9
$ANGBASE
 50
0.0
  9
$ANGDIR
 70
     0
  9
$PDMODE
 70
     0
  9
$PDSIZE
 40
-1.0
  9
$PLINEWID
 40
0.0
  9
$SPLFRAME
 70
     0
  9
$SPLINETYPE
 70
     6
  9
$SPLINESEGS
 70
     8
  9
$HANDSEED
  5
2BB
  9
$SURFTAB1
 70
     6
  9
$SURFTAB2
 70
     6
  9
$SURFTYPE
 70
     6
  9
$SURFU
 70
     6
  9
$SURFV
 70
     6
  9
$UCSBASE
  2

  9
$UCSNAME
  2

  9
$UCSORG
 10
0.0
 20
0.0
 30
0.0
  9
$UCSXDIR
 10
1.0
 20
0.0
 30
0.0
  9
$UCSYDIR
 10
0.0
 20
1.0
 30
0.0
  9
$UCSORTHOREF
  2

  9
$UCSORTHOVIEW
 70
     0
  9
$UCSORGTOP
 10
0.0
 20
0.0
 30
0.0
  9
$UCSORGBOTTOM
 10
0.0
 20
0.0
 30
0.0
  9
$UCSORGLEFT
 10
0.0
 20
0.0
 30
0.0
  9
$UCSORGRIGHT
 10
0.0
 20
0.0
 30
0.0
  9
$UCSORGFRONT
 10
0.0
 20
0.0
 30
0.0
  9
$UCSORGBACK
 10
0.0
 20
0.0
 30
0.0
  9
$PUCSBASE
  2

  9
$PUCSNAME
  2

  9
$PUCSORG
 10
0.0
 20
0.0
 30
0.0
  9
$PUCSXDIR
 10
1.0
 20
0.0
 30
0.0
  9
$PUCSYDIR
 10
0.0
 20
1.0
 30
0.0
  9
$PUCSORTHOREF
  2

  9
$PUCSORTHOVIEW
 70
     0
  9
$PUCSORGTOP
 10
0.0
 20
0.0
 30
0.0
  9
$PUCSORGBOTTOM
 10
0.0
 20
0.0
 30
0.0
  9
$PUCSORGLEFT
 10
0.0
 20
0.0
 30
0.0
  9
$PUCSORGRIGHT
 10
0.0
 20
0.0
 30
0.0
  9
$PUCSORGFRONT
 10
0.0
 20
0.0
 30
0.0
  9
$PUCSORGBACK
 10
0.0
 20
0.0
 30
0.0
  9
$USERI1
 70
     0
  9
$USERI2
 70
     0
  9
$USERI3
 70
     0
  9
$USERI4
 70
     0
  9
$USERI5
 70
     0
  9
$USERR1
 40
0.0
  9
$USERR2
 40
0.0
  9
$USERR3
 40
0.0
  9
$USERR4
 40
0.0
  9
$USERR5
 40
0.0
  9
$WORLDVIEW
 70
     1
  9
$SHADEDGE
 70
     3
  9
$SHADEDIF
 70
    70
  9
$TILEMODE
 70
     1
  9
$MAXACTVP
 70
    64
  9
$PINSBASE
 10
0.0
 20
0.0
 30
0.0
  9
$PLIMCHECK
 70
     0
  9
$PEXTMIN
 10
1.0000000000E+20
 20
1.0000000000E+20
 30
1.0000000000E+20
  9
$PEXTMAX
 10
-1.0000000000E+20
 20
-1.0000000000E+20
 30
-1.0000000000E+20
  9
$PLIMMIN
 10
0.0
 20
0.0
  9
$PLIMMAX
 10
420.0
 20
297.0
  9
$UNITMODE
 70
     0
  9
$VISRETAIN
 70
     1
  9
$PLINEGEN
 70
     0
  9
$PSLTSCALE
 70
     1
  9
$TREEDEPTH
 70
  3020
  9
$CMLSTYLE
  2
Standard
  9
$CMLJUST
 70
     0
  9
$CMLSCALE
 40
20.0
  9
$PROXYGRAPHICS
 70
     1
  9
$MEASUREMENT
 70
     1
  9
$CELWEIGHT
370
    -1
  9
$ENDCAPS
280
     0
  9
$JOINSTYLE
280
     0
  9
$LWDISPLAY
290
     1
  9
$INSUNITS
 70
     4
  9
$HYPERLINKBASE
  1

  9
$STYLESHEET
  1

  9
$XEDIT
290
     1
  9
$CEPSNTYPE
380
     0
  9
$PSTYLEMODE
290
     1
  9
$FINGERPRINTGUID
  2
{A834F299-39C5-4CF5-90D4-613A03D34F8B}
  9
$VERSIONGUID
  2
{FAEB1C32-E019-11D5-929B-00C0DF256EC4}
  9
$EXTNAMES
290
     1
  9
$PSVPSCALE
 40
0.0
  9
$OLESTARTUP
290
     0
  0
ENDSEC
  0
SECTION
  2
CLASSES
  0
CLASS
  1
ACDBDICTIONARYWDFLT
  2
AcDbDictionaryWithDefault
  3
ObjectDBX Classes
 90
        0
280
     0
281
     0
  0
CLASS
  1
VISUALSTYLE
  2
AcDbVisualStyle
  3
ObjectDBX Classes
 90
     4095
280
     0
281
     0
  0
CLASS
  1
MATERIAL
  2
AcDbMaterial
  3
ObjectDBX Classes
 90
     1153
280
     0
281
     0
  0
CLASS
  1
SCALE
  2
AcDbScale
  3
ObjectDBX Classes
 90
     1153
280
     0
281
     0
  0
CLASS
  1
TABLESTYLE
  2
AcDbTableStyle
  3
ObjectDBX Classes
 90
     4095
280
     0
281
     0
  0
CLASS
  1
MLEADERSTYLE
  2
AcDbMLeaderStyle
  3
ACDB_MLEADERSTYLE_CLASS
 90
     4095
280
     0
281
     0
  0
CLASS
  1
SUN
  2
AcDbSun
  3
SCENEOE
 90
     1153
280
     0
281
     0
  0
CLASS
  1
ACDBPLACEHOLDER
  2
AcDbPlaceHolder
  3
ObjectDBX Classes
 90
        0
280
     0
281
     0
  0
CLASS
  1
LAYOUT
  2
AcDbLayout
  3
ObjectDBX Classes
 90
        0
280
     0
281
     0
  0
ENDSEC
  0
SECTION
  2
TABLES
  0
TABLE
  2
VPORT
  5
8
330
0
100
AcDbSymbolTable
 70
     1
  0
VPORT
  5
29
330
8
100
AcDbSymbolTableRecord
100
AcDbViewportTableRecord
  2
*Active
 70
     0
 10
0.0
 20
0.0
 11
1.0
 21
1.0
 12
148.5
 22
105.0
 13
0.0
 23
0.0
 14
10.0
 24
10.0
 15
10.0
 25
10.0
 16
0.0
 26
0.0
 36
1.0
 17
0.0
 27
0.0
 37
0.0
 40
210.0
 41
1.4142857143
 42
50.0
 43
0.0
 44
0.0
 50
0.0
 51
0.0
 71
     0
 72
  2000
 73
     1
 74
     3
 75
     0
 76
     0
 77
     0
 78
     0
281
     0
 65
     1
110
0.0
120
0.0
130
0.0
111
1.0
121
0.0
131
0.0
112
0.0
122
1.0
132
0.0
 79
     0
146
0.0
  0
ENDTAB
  0
TABLE
  2
LTYPE
  5
5
330
0
100
AcDbSymbolTable
 70
     6
  0
LTYPE
  5
14
330
5
100
AcDbSymbolTableRecord
100
AcDbLinetypeTableRecord
  2
ByBlock
 70
     0
  3

 72
    65
 73
     0
 40
0.0
  0
LTYPE
  5
15
330
5
100
AcDbSymbolTableRecord
100
AcDbLinetypeTableRecord
  2
ByLayer
 70
     0
  3

 72
    65
 73
     0
 40
0.0
  0
LTYPE
  5
16
330
5
100
AcDbSymbolTableRecord
100
AcDbLinetypeTableRecord
  2
Continuous
 70
     0
  3
Solid line
 72
    65
 73
     0
 40
0.0
  0
LTYPE
  5
6E
330
5
100
AcDbSymbolTableRecord
100
AcDbLinetypeTableRecord
  2
HIDDEN
 70
     0
  3
Hidden __ __ __ __ __ __ __ __ __ __ __ __ __ __
 72
    65
 73
     2
 40
1.905
 49
1.27
 74
     0
 49
-0.635
 74
     0
  0
LTYPE
  5
6F
330
5
100
AcDbSymbolTableRecord
100
AcDbLinetypeTableRecord
  2
PHANTOM
 70
     0
  3
Phantom ______  __  __  ______  __  __  ______
 72
    65
 73
     6
 40
12.7
 49
6.35
 74
     0
 49
-1.27
 74
     0
 49
1.27
 74
     0
 49
-1.27
 74
     0
 49
1.27
 74
     0
 49
-1.27
 74
     0
  0
LTYPE
  5
70
330
5
100
AcDbSymbolTableRecord
100
AcDbLinetypeTableRecord
  2
CENTER
 70
     0
  3
Center ____ _ ____ _ ____ _ ____ _ ____ _ ____
 72
    65
 73
     4
 40
10.16
 49
6.35
 74
     0
 49
-1.27
 74
     0
 49
1.27
 74
     0
 49
-1.27
 74
     0
  0
LTYPE
  5
71
330
5
100
AcDbSymbolTableRecord
100
AcDbLinetypeTableRecord
  2
CENTERX2
 70
     0
  3
Center (2x) ________  __  ________  __  _____
 72
    65
 73
     4
 40
20.32
 49
12.7
 74
     0
 49
-2.54
 74
     0
 49
2.54
 74
     0
 49
-2.54
 74
     0
  0
LTYPE
  5
72
330
5
100
AcDbSymbolTableRecord
100
AcDbLinetypeTableRecord
  2
DOT2
 70
     0
  3
Dot (.5x) ........................................
 72
    65
 73
     2
 40
0.635
 49
0.0
 74
     0
 49
-0.635
 74
     0
  0
ENDTAB
  0
TABLE
  2
LAYER
  5
2
330
0
100
AcDbSymbolTable
 70
    10
  0
LAYER
  5
10
330
2
100
AcDbSymbolTableRecord
100
AcDbLayerTableRecord
  2
0
 70
     0
 62
     7
  6
Continuous
370
    -3
390
F
  0
LAYER
  5
73
330
2
100
AcDbSymbolTableRecord
100
AcDbLayerTableRecord
  2
SLD-0
 70
     0
 62
   179
  6
Continuous
370
    15
390
F
  0
LAYER
  5
74
330
2
100
AcDbSymbolTableRecord
100
AcDbLayerTableRecord
  2
輪廓線
 70
     0
 62
   219
  6
Continuous
370
    15
390
F
  0
LAYER
  5
75
330
2
100
AcDbSymbolTableRecord
100
AcDbLayerTableRecord
  2
DIM
 70
     0
 62
     7
  6
Continuous
370
    -3
390
F
  0
LAYER
  5
76
330
2
100
AcDbSymbolTableRecord
100
AcDbLayerTableRecord
  2
中心線
 70
     0
 62
     1
  6
CENTERX2
370
    -3
390
F
  0
LAYER
  5
77
330
2
100
AcDbSymbolTableRecord
100
AcDbLayerTableRecord
  2
虛線
 70
     0
 62
     6
  6
HIDDEN
370
    -3
390
F
  0
LAYER
  5
78
330
2
100
AcDbSymbolTableRecord
100
AcDbLayerTableRecord
  2
SECTION
 70
     0
 62
     5
  6
PHANTOM
370
    15
390
F
  0
LAYER
  5
79
330
2
100
AcDbSymbolTableRecord
100
AcDbLayerTableRecord
  2
假想線
 70
     0
 62
     5
  6
PHANTOM
370
    -3
390
F
  0
LAYER
  5
7A
330
2
100
AcDbSymbolTableRecord
100
AcDbLayerTableRecord
  2
工作區域參考線
 70
     0
 62
   179
  6
Continuous
370
    -3
390
F
  0
LAYER
  5
7B
330
2
100
AcDbSymbolTableRecord
100
AcDbLayerTableRecord
  2
圖層_1
 70
     0
 62
   179
  6
Continuous
370
    -3
390
F
  0
ENDTAB
  0
TABLE
  2
STYLE
  5
3
330
0
100
AcDbSymbolTable
 70
     5
  0
STYLE
  5
11
330
3
100
AcDbSymbolTableRecord
100
AcDbTextStyleTableRecord
  2
STANDARD
 70
     0
 40
0.0
 41
1.0
 50
0.0
 71
     0
 42
3.5277777778
  3
ARIALBD.TTF
  4

1001
ACAD
1000
ARIAL
1071
 33554466
  0
STYLE
  5
7C
330
3
100
AcDbSymbolTableRecord
100
AcDbTextStyleTableRecord
  2
SLDTEXTSTYLE0
 70
     0
 40
0.0
 41
1.0
 50
0.0
 71
     0
 42
2.5
  3
ARIAL.TTF
  4

1001
ACAD
1000
Arial
1071
      290
  0
STYLE
  5
CD
330
3
100
AcDbSymbolTableRecord
100
AcDbTextStyleTableRecord
  2
SLDTEXTSTYLE1
 70
     0
 40
0.0
 41
0.948
 50
0.0
 71
     0
 42
3.5277777778
  3
ARIAL.TTF
  4

1001
ACAD
1000
Arial
1071
      290
  0
STYLE
  5
D6
330
3
100
AcDbSymbolTableRecord
100
AcDbTextStyleTableRecord
  2
SLDTEXTSTYLE2
 70
     0
 40
0.0
 41
1.0
 50
0.0
 71
     0
 42
3.5277777778
  3
ARIALBD.TTF
  4

1001
ACAD
1000
Arial CE
1071
 33554722
  0
STYLE
  5
104
330
3
100
AcDbSymbolTableRecord
100
AcDbTextStyleTableRecord
  2
SLDTEXTSTYLE3
 70
     0
 40
0.0
 41
0.948
 50
0.0
 71
     0
 42
3.5277777778
  3
ARIALBD.TTF
  4

1001
ACAD
1000
Arial
1071
 33554722
  0
ENDTAB
  0
TABLE
  2
VIEW
  5
6
330
0
100
AcDbSymbolTable
 70
     0
  0
ENDTAB
  0
TABLE
  2
UCS
  5
7
330
0
100
AcDbSymbolTable
 70
     0
  0
ENDTAB
  0
TABLE
  2
APPID
  5
9
330
0
100
AcDbSymbolTable
 70
     1
  0
APPID
  5
12
330
9
100
AcDbSymbolTableRecord
100
AcDbRegAppTableRecord
  2
ACAD
 70
     0
  0
ENDTAB
  0
TABLE
  2
DIMSTYLE
  5
A
330
0
100
AcDbSymbolTable
 70
     6
100
AcDbDimStyleTable
  0
DIMSTYLE
105
27
330
A
100
AcDbSymbolTableRecord
100
AcDbDimStyleTableRecord
  2
ISO-25
 70
     0
 41
2.5
 42
0.625
 43
3.75
 44
1.25
 73
     0
 74
     0
 77
     1
 78
     8
140
2.5
141
2.5
143
0.0393700787
147
0.625
171
     3
172
     1
178
     0
271
     2
272
     2
274
     3
278
    44
283
     0
284
     8
340
7C
  0
DIMSTYLE
105
151
102
{ACAD_REACTORS
330
150
330
15B
330
165
330
16F
330
1CB
330
1E2
330
1EC
330
1F6
330
200
102
}
330
A
100
AcDbSymbolTableRecord
100
AcDbDimStyleTableRecord
  2
SLDDIMSTYLE0
 70
     0
 41
2.0
 44
0.0
 45
0.000000001
 73
     0
 74
     0
 77
     1
 78
    12
 79
     3
140
2.5
147
0.625
173
     1
178
     0
271
     2
272
     2
276
     2
284
    12
340
CD
  0
DIMSTYLE
105
17A
102
{ACAD_REACTORS
330
179
102
}
330
A
100
AcDbSymbolTableRecord
100
AcDbDimStyleTableRecord
  2
SLDDIMSTYLE1
 70
     0
 41
2.0
 44
0.0
 45
0.000000001
 73
     0
 74
     0
 77
     1
 78
    12
 79
     3
140
2.5
147
0.625
173
     1
178
     0
271
     1
272
     1
276
     2
284
    12
340
CD
  0
DIMSTYLE
105
191
330
A
100
AcDbSymbolTableRecord
100
AcDbDimStyleTableRecord
  2
SLDDIMSTYLE2
 70
     0
 41
2.0
 44
0.0
 45
0.000000001
146
2.0
147
0.0
173
     1
178
     0
271
     0
272
     0
276
     2
340
11
  0
DIMSTYLE
105
1D6
102
{ACAD_REACTORS
330
1D5
102
}
330
A
100
AcDbSymbolTableRecord
100
AcDbDimStyleTableRecord
  2
SLDDIMSTYLE3
 70
     0
 41
2.0
 44
0.0
 45
0.000000001
 73
     0
 74
     0
 77
     1
 78
    12
 79
     3
140
2.5
147
0.625
172
     1
173
     1
178
     0
271
     2
272
     2
276
     2
284
    12
289
     0
340
CD
  0
DIMSTYLE
105
20B
102
{ACAD_REACTORS
330
20A
102
}
330
A
100
AcDbSymbolTableRecord
100
AcDbDimStyleTableRecord
  2
SLDDIMSTYLE4
 70
     0
  3
<>
 41
2.0
 44
0.0
 45
0.000000001
 78
    12
 79
     3
140
2.5
141
0.0
147
0.625
173
     1
178
     0
271
     2
272
     2
276
     2
284
    12
340
CD
  0
ENDTAB
  0
TABLE
  2
BLOCK_RECORD
  5
1
330
0
100
AcDbSymbolTable
 70
    20
  0
BLOCK_RECORD
  5
1F
330
1
100
AcDbSymbolTableRecord
100
AcDbBlockTableRecord
  2
*Model_Space
340
22
  0
BLOCK_RECORD
  5
1B
330
1
100
AcDbSymbolTableRecord
100
AcDbBlockTableRecord
  2
*Paper_Space
340
1E
  0
BLOCK_RECORD
  5
23
330
1
100
AcDbSymbolTableRecord
100
AcDbBlockTableRecord
  2
*Paper_Space0
340
26
  0
BLOCK_RECORD
  5
CF
330
1
100
AcDbSymbolTableRecord
100
AcDbBlockTableRecord
  2
SW_NOTE_0
340
0
102
{BLKREFS
331
D5
102
}
  0
BLOCK_RECORD
  5
107
330
1
100
AcDbSymbolTableRecord
100
AcDbBlockTableRecord
  2
SW_NOTE_1
340
0
102
{BLKREFS
331
10C
102
}
  0
BLOCK_RECORD
  5
152
330
1
100
AcDbSymbolTableRecord
100
AcDbBlockTableRecord
  2
_D
340
0
  0
BLOCK_RECORD
  5
15C
330
1
100
AcDbSymbolTableRecord
100
AcDbBlockTableRecord
  2
_D_1
340
0
  0
BLOCK_RECORD
  5
166
330
1
100
AcDbSymbolTableRecord
100
AcDbBlockTableRecord
  2
_D_2
340
0
  0
BLOCK_RECORD
  5
170
330
1
100
AcDbSymbolTableRecord
100
AcDbBlockTableRecord
  2
_D_3
340
0
  0
BLOCK_RECORD
  5
17B
330
1
100
AcDbSymbolTableRecord
100
AcDbBlockTableRecord
  2
_D_4
340
0
  0
BLOCK_RECORD
  5
185
330
1
100
AcDbSymbolTableRecord
100
AcDbBlockTableRecord
  2
SW_NOTE_2
340
0
102
{BLKREFS
331
190
102
}
  0
BLOCK_RECORD
  5
193
330
1
100
AcDbSymbolTableRecord
100
AcDbBlockTableRecord
  2
SW_NOTE_3
340
0
102
{BLKREFS
331
198
102
}
  0
BLOCK_RECORD
  5
19A
330
1
100
AcDbSymbolTableRecord
100
AcDbBlockTableRecord
  2
SW_NOTE_4
340
0
102
{BLKREFS
331
1A0
102
}
  0
BLOCK_RECORD
  5
1A2
330
1
100
AcDbSymbolTableRecord
100
AcDbBlockTableRecord
  2
SW_CENTERMARKSYMBOL_0
340
0
102
{BLKREFS
331
1AD
102
}
  0
BLOCK_RECORD
  5
1CC
330
1
100
AcDbSymbolTableRecord
100
AcDbBlockTableRecord
  2
_D_5
340
0
  0
BLOCK_RECORD
  5
1D7
330
1
100
AcDbSymbolTableRecord
100
AcDbBlockTableRecord
  2
_D_6
340
0
  0
BLOCK_RECORD
  5
1E3
330
1
100
AcDbSymbolTableRecord
100
AcDbBlockTableRecord
  2
_D_7
340
0
  0
BLOCK_RECORD
  5
1ED
330
1
100
AcDbSymbolTableRecord
100
AcDbBlockTableRecord
  2
_D_8
340
0
  0
BLOCK_RECORD
  5
1F7
330
1
100
AcDbSymbolTableRecord
100
AcDbBlockTableRecord
  2
_D_9
340
0
  0
BLOCK_RECORD
  5
201
330
1
100
AcDbSymbolTableRecord
100
AcDbBlockTableRecord
  2
_D_10
340
0
  0
BLOCK_RECORD
  5
20C
330
1
100
AcDbSymbolTableRecord
100
AcDbBlockTableRecord
  2
_D_11
340
0
  0
BLOCK_RECORD
  5
214
330
1
100
AcDbSymbolTableRecord
100
AcDbBlockTableRecord
  2
SW_CENTERMARKSYMBOL_1
340
0
102
{BLKREFS
331
21F
102
}
  0
ENDTAB
  0
ENDSEC
  0
SECTION
  2
BLOCKS
  0
BLOCK
  5
20
330
1F
100
AcDbEntity
  8
0
100
AcDbBlockBegin
  2
*Model_Space
 70
     0
 10
0.0
 20
0.0
 30
0.0
  3
*Model_Space
  1

  0
ENDBLK
  5
21
330
1F
100
AcDbEntity
  8
0
100
AcDbBlockEnd
  0
BLOCK
  5
1C
330
1B
100
AcDbEntity
 67
     1
  8
0
100
AcDbBlockBegin
  2
*Paper_Space
 70
     0
 10
0.0
 20
0.0
 30
0.0
  3
*Paper_Space
  1

  0
ENDBLK
  5
1D
330
1B
100
AcDbEntity
 67
     1
  8
0
100
AcDbBlockEnd
  0
BLOCK
  5
24
330
23
100
AcDbEntity
  8
0
100
AcDbBlockBegin
  2
*Paper_Space0
 70
     0
 10
0.0
 20
0.0
 30
0.0
  3
*Paper_Space0
  1

  0
ENDBLK
  5
25
330
23
100
AcDbEntity
  8
0
100
AcDbBlockEnd
  0
BLOCK
  5
D0
330
CF
100
AcDbEntity
  8
0
100
AcDbBlockBegin
  2
SW_NOTE_0
 70
     0
 10
0.0
 20
0.0
 30
0.0
  3
SW_NOTE_0
  1

  0
MTEXT
  5
D2
330
CF
100
AcDbEntity
  8
0
  6
Continuous
 62
     0
370
     0
100
AcDbMText
 10
0.0
 20
3.4106583948
 30
0.0
 40
2.6458333333
 41
0.0
 71
     1
 72
     1
  1
PROPRIETARY AND CONFIDENTIAL
  7
SLDTEXTSTYLE1
 73
     1
 44
1.0
  0
MTEXT
  5
D3
330
CF
100
AcDbEntity
  8
0
  6
Continuous
 62
     0
370
     0
100
AcDbMText
 10
0.0
 20
-0.08198348
 30
0.0
 40
1.8520833333
 41
0.0
 71
     1
 72
     1
  1
THE INFORMATION CONTAINED IN THIS DRAWING IS THE SOLE PROPERTY OF UNICE E-O SERVICES INC. ANY REPRODUCTION IN PART OR AS A WHOLE WITHOUT THE WRITTEN PERMISSION OF UNICE E-O SERVICES INC IS 
  7
SLDTEXTSTYLE1
 73
     1
 44
1.0
  0
MTEXT
  5
D4
330
CF
100
AcDbEntity
  8
0
  6
Continuous
 62
     0
370
     0
100
AcDbMText
 10
0.0
 20
-2.5514278946
 30
0.0
 40
1.8520833333
 41
0.0
 71
     1
 72
     1
  1
PROHIBITED.
  7
SLDTEXTSTYLE1
 73
     1
 44
1.0
  0
ENDBLK
  5
D1
330
CF
100
AcDbEntity
  8
0
100
AcDbBlockEnd
  0
BLOCK
  5
108
330
107
100
AcDbEntity
  8
0
100
AcDbBlockBegin
  2
SW_NOTE_1
 70
     0
 10
0.0
 20
0.0
 30
0.0
  3
SW_NOTE_1
  1

  0
MTEXT
  5
10A
330
107
100
AcDbEntity
  8
DIM
 62
     0
100
AcDbMText
 10
0.0
 20
2.3874608764
 30
0.0
 40
1.8520833333
 41
0.0
 71
     1
 72
     1
  1
No.5, Andong Rd., Chung Li District,
  7
SLDTEXTSTYLE0
 73
     1
 44
1.0
  0
MTEXT
  5
10B
330
107
100
AcDbEntity
  8
DIM
 62
     0
100
AcDbMText
 10
0.0
 20
-0.0819835382
 30
0.0
 40
1.8520833333
 41
0.0
 71
     1
 72
     1
  1
Taoyuan City 32063, Taiwan, R.O.C.
  7
SLDTEXTSTYLE0
 73
     1
 44
1.0
  0
ENDBLK
  5
109
330
107
100
AcDbEntity
  8
0
100
AcDbBlockEnd
  0
BLOCK
  5
153
330
152
100
AcDbEntity
  8
0
100
AcDbBlockBegin
  2
_D
 70
     0
 10
0.0
 20
0.0
 30
0.0
  3
_D
  1

  0
SOLID
  5
155
330
152
100
AcDbEntity
  8
DIM
 62
     7
100
AcDbTrace
 10
129.0610147875
 20
66.7398246758
 30
0.0
 11
131.0610147875
 21
66.4898246758
 31
0.0
 12
131.0610147875
 22
66.9898246758
 32
0.0
 13
131.0610147875
 23
66.9898246758
 33
0.0
  0
SOLID
  5
156
330
152
100
AcDbEntity
  8
DIM
 62
     7
100
AcDbTrace
 10
154.0610147875
 20
66.7398246758
 30
0.0
 11
152.0610147875
 21
66.9898246758
 31
0.0
 12
152.0610147875
 22
66.4898246758
 32
0.0
 13
152.0610147875
 23
66.4898246758
 33
0.0
  0
LINE
  5
157
330
152
100
AcDbEntity
  8
DIM
 62
     7
100
AcDbLine
 10
129.0610147875
 20
73.7398246758
 30
0.0
 11
129.0610147875
 21
65.7398246758
 31
0.0
  0
LINE
  5
158
330
152
100
AcDbEntity
  8
DIM
 62
     7
100
AcDbLine
 10
154.0610147875
 20
73.7398246758
 30
0.0
 11
154.0610147875
 21
65.7398246758
 31
0.0
  0
LINE
  5
159
330
152
100
AcDbEntity
  8
DIM
 62
     7
100
AcDbLine
 10
129.0610147875
 20
66.7398246758
 30
0.0
 11
154.0610147875
 21
66.7398246758
 31
0.0
  0
MTEXT
  5
15A
330
152
100
AcDbEntity
  8
DIM
 62
     7
100
AcDbMText
 10
139.6512925627
 20
69.9624938506
 30
0.0
 40
2.5
 41
0.0
 71
     1
 72
     1
  1
25
  7
SLDTEXTSTYLE1
 73
     1
 44
1.0
  0
ENDBLK
  5
154
330
152
100
AcDbEntity
  8
0
100
AcDbBlockEnd
  0
BLOCK
  5
15D
330
15C
100
AcDbEntity
  8
0
100
AcDbBlockBegin
  2
_D_1
 70
     0
 10
0.0
 20
0.0
 30
0.0
  3
_D_1
  1

  0
SOLID
  5
15F
330
15C
100
AcDbEntity
  8
DIM
 62
     7
100
AcDbTrace
 10
121.5610147875
 20
60.7398246758
 30
0.0
 11
123.5610147875
 21
60.4898246758
 31
0.0
 12
123.5610147875
 22
60.9898246758
 32
0.0
 13
123.5610147875
 23
60.9898246758
 33
0.0
  0
SOLID
  5
160
330
15C
100
AcDbEntity
  8
DIM
 62
     7
100
AcDbTrace
 10
161.5610147875
 20
60.7398246758
 30
0.0
 11
159.5610147875
 21
60.9898246758
 31
0.0
 12
159.5610147875
 22
60.4898246758
 32
0.0
 13
159.5610147875
 23
60.4898246758
 33
0.0
  0
LINE
  5
161
330
15C
100
AcDbEntity
  8
DIM
 62
     7
100
AcDbLine
 10
121.5610147875
 20
73.7398246758
 30
0.0
 11
121.5610147875
 21
59.7398246758
 31
0.0
  0
LINE
  5
162
330
15C
100
AcDbEntity
  8
DIM
 62
     7
100
AcDbLine
 10
161.5610147875
 20
73.7398246758
 30
0.0
 11
161.5610147875
 21
59.7398246758
 31
0.0
  0
LINE
  5
163
330
15C
100
AcDbEntity
  8
DIM
 62
     7
100
AcDbLine
 10
121.5610147875
 20
60.7398246758
 30
0.0
 11
161.5610147875
 21
60.7398246758
 31
0.0
  0
MTEXT
  5
164
330
15C
100
AcDbEntity
  8
DIM
 62
     7
100
AcDbMText
 10
139.6512925627
 20
63.9624938506
 30
0.0
 40
2.5
 41
0.0
 71
     1
 72
     1
  1
40
  7
SLDTEXTSTYLE1
 73
     1
 44
1.0
  0
ENDBLK
  5
15E
330
15C
100
AcDbEntity
  8
0
100
AcDbBlockEnd
  0
BLOCK
  5
167
330
166
100
AcDbEntity
  8
0
100
AcDbBlockBegin
  2
_D_2
 70
     0
 10
0.0
 20
0.0
 30
0.0
  3
_D_2
  1

  0
SOLID
  5
169
330
166
100
AcDbEntity
  8
DIM
 62
     7
100
AcDbTrace
 10
169.3286758183
 20
99.7398246758
 30
0.0
 11
169.0786758183
 21
97.7398246758
 31
0.0
 12
169.5786758183
 22
97.7398246758
 32
0.0
 13
169.5786758183
 23
97.7398246758
 33
0.0
  0
SOLID
  5
16A
330
166
100
AcDbEntity
  8
DIM
 62
     7
100
AcDbTrace
 10
169.3286758183
 20
74.7398246758
 30
0.0
 11
169.5786758183
 21
76.7398246758
 31
0.0
 12
169.0786758183
 22
76.7398246758
 32
0.0
 13
169.0786758183
 23
76.7398246758
 33
0.0
  0
LINE
  5
16B
330
166
100
AcDbEntity
  8
DIM
 62
     7
100
AcDbLine
 10
142.5610147875
 20
99.7398246758
 30
0.0
 11
170.3286758183
 21
99.7398246758
 31
0.0
  0
LINE
  5
16C
330
166
100
AcDbEntity
  8
DIM
 62
     7
100
AcDbLine
 10
162.5610147875
 20
74.7398246758
 30
0.0
 11
170.3286758183
 21
74.7398246758
 31
0.0
  0
LINE
  5
16D
330
166
100
AcDbEntity
  8
DIM
 62
     7
100
AcDbLine
 10
169.3286758183
 20
99.7398246758
 30
0.0
 11
169.3286758183
 21
74.7398246758
 31
0.0
  0
MTEXT
  5
16E
330
166
100
AcDbEntity
  8
DIM
 62
     7
100
AcDbMText
 10
166.1060066435
 20
85.330102451
 30
0.0
 40
2.5
 41
0.0
 71
     1
 72
     1
  1
25
  7
SLDTEXTSTYLE1
 11
-7.044195017643634E-15
 21
1.0
 31
0.0
 73
     1
 44
1.0
  0
ENDBLK
  5
168
330
166
100
AcDbEntity
  8
0
100
AcDbBlockEnd
  0
BLOCK
  5
171
330
170
100
AcDbEntity
  8
0
100
AcDbBlockBegin
  2
_D_3
 70
     0
 10
0.0
 20
0.0
 30
0.0
  3
_D_3
  1

  0
SOLID
  5
173
330
170
100
AcDbEntity
  8
DIM
 62
     7
100
AcDbTrace
 10
176.3828652933
 20
137.7398246758
 30
0.0
 11
176.1328652933
 21
135.7398246758
 31
0.0
 12
176.6328652933
 22
135.7398246758
 32
0.0
 13
176.6328652933
 23
135.7398246758
 33
0.0
  0
SOLID
  5
174
330
170
100
AcDbEntity
  8
DIM
 62
     7
100
AcDbTrace
 10
176.3828652933
 20
74.7398246758
 30
0.0
 11
176.6328652933
 21
76.7398246758
 31
0.0
 12
176.1328652933
 22
76.7398246758
 32
0.0
 13
176.1328652933
 23
76.7398246758
 33
0.0
  0
LINE
  5
175
330
170
100
AcDbEntity
  8
DIM
 62
     7
100
AcDbLine
 10
162.5610147875
 20
137.7398246758
 30
0.0
 11
177.3828652933
 21
137.7398246758
 31
0.0
  0
LINE
  5
176
330
170
100
AcDbEntity
  8
DIM
 62
     7
100
AcDbLine
 10
162.5610147875
 20
74.7398246758
 30
0.0
 11
177.3828652933
 21
74.7398246758
 31
0.0
  0
LINE
  5
177
330
170
100
AcDbEntity
  8
DIM
 62
     7
100
AcDbLine
 10
176.3828652933
 20
137.7398246758
 30
0.0
 11
176.3828652933
 21
74.7398246758
 31
0.0
  0
MTEXT
  5
178
330
170
100
AcDbEntity
  8
DIM
 62
     7
100
AcDbMText
 10
173.1601961185
 20
104.330102451
 30
0.0
 40
2.5
 41
0.0
 71
     1
 72
     1
  1
63
  7
SLDTEXTSTYLE1
 11
-7.044195017643634E-15
 21
1.0
 31
0.0
 73
     1
 44
1.0
  0
ENDBLK
  5
172
330
170
100
AcDbEntity
  8
0
100
AcDbBlockEnd
  0
BLOCK
  5
17C
330
17B
100
AcDbEntity
  8
0
100
AcDbBlockBegin
  2
_D_4
 70
     0
 10
0.0
 20
0.0
 30
0.0
  3
_D_4
  1

  0
SOLID
  5
17E
330
17B
100
AcDbEntity
  8
DIM
 62
     7
100
AcDbTrace
 10
185.3828652933
 20
74.7398246758
 30
0.0
 11
185.6328652933
 21
76.7398246758
 31
0.0
 12
185.1328652933
 22
76.7398246758
 32
0.0
 13
185.1328652933
 23
76.7398246758
 33
0.0
  0
SOLID
  5
17F
330
17B
100
AcDbEntity
  8
DIM
 62
     7
100
AcDbTrace
 10
185.3828652933
 20
143.871407352
 30
0.0
 11
185.1328652933
 21
141.871407352
 31
0.0
 12
185.6328652933
 22
141.871407352
 32
0.0
 13
185.6328652933
 23
141.871407352
 33
0.0
  0
LINE
  5
180
330
17B
100
AcDbEntity
  8
DIM
 62
     7
100
AcDbLine
 10
162.5610147875
 20
74.7398246758
 30
0.0
 11
186.3828652933
 21
74.7398246758
 31
0.0
  0
LINE
  5
181
330
17B
100
AcDbEntity
  8
DIM
 62
     7
100
AcDbLine
 10
158.5610147875
 20
143.871407352
 30
0.0
 11
186.3828652933
 21
143.871407352
 31
0.0
  0
LINE
  5
182
330
17B
100
AcDbEntity
  8
DIM
 62
     7
100
AcDbLine
 10
185.3828652933
 20
74.7398246758
 30
0.0
 11
185.3828652933
 21
143.871407352
 31
0.0
  0
MTEXT
  5
183
330
17B
100
AcDbEntity
  8
DIM
 62
     7
100
AcDbMText
 10
178.323390652
 20
105.9636022078
 30
0.0
 40
2.5
 41
0.0
 71
     1
 72
     1
  1
69.1
  7
SLDTEXTSTYLE1
 11
6.123233995736766E-17
 21
1.0
 31
0.0
 73
     1
 44
1.0
  0
MTEXT
  5
184
330
17B
100
AcDbEntity
  8
DIM
 62
     7
100
AcDbMText
 10
182.1601961185
 20
101.4826991709
 30
0.0
 40
2.5
 41
0.0
 71
     1
 72
     1
  1
NOMINAL
  7
SLDTEXTSTYLE1
 11
6.123233995736766E-17
 21
1.0
 31
0.0
 73
     1
 44
1.0
  0
ENDBLK
  5
17D
330
17B
100
AcDbEntity
  8
0
100
AcDbBlockEnd
  0
BLOCK
  5
186
330
185
100
AcDbEntity
  8
0
100
AcDbBlockBegin
  2
SW_NOTE_2
 70
     0
 10
0.0
 20
0.0
 30
0.0
  3
SW_NOTE_2
  1

  0
LINE
  5
188
330
185
100
AcDbEntity
  8
DIM
 62
     0
100
AcDbLine
 10
-13.5817307692
 20
0.0
 30
0.0
 11
0.0
 21
0.0
 31
0.0
  0
LINE
  5
189
330
185
100
AcDbEntity
  8
DIM
 62
     0
100
AcDbLine
 10
0.0
 20
0.0
 30
0.0
 11
-13.5817307692
 21
0.0
 31
0.0
  0
LINE
  5
18A
330
185
100
AcDbEntity
  8
DIM
 62
     0
100
AcDbLine
 10
-13.5817307692
 20
0.0
 30
0.0
 11
0.0
 21
0.0
 31
0.0
  0
LINE
  5
18B
330
185
100
AcDbEntity
  8
DIM
 62
     0
100
AcDbLine
 10
0.0
 20
0.0
 30
0.0
 11
-13.5817307692
 21
0.0
 31
0.0
  0
LINE
  5
18C
330
185
100
AcDbEntity
  8
DIM
 62
     0
100
AcDbLine
 10
-13.5817307692
 20
0.0
 30
0.0
 11
0.0
 21
0.0
 31
0.0
  0
LINE
  5
18D
330
185
100
AcDbEntity
  8
DIM
 62
     0
100
AcDbLine
 10
0.0
 20
0.0
 30
0.0
 11
-13.5817307692
 21
0.0
 31
0.0
  0
MTEXT
  5
18E
330
185
100
AcDbEntity
  8
DIM
 62
     0
100
AcDbMText
 10
-13.4693386459
 20
6.7025633969
 30
0.0
 40
2.5
 41
0.0
 71
     1
 72
     1
  1
1 HOLE,
  7
SLDTEXTSTYLE1
 73
     1
 44
1.0
  0
MTEXT
  5
18F
330
185
100
AcDbEntity
  8
DIM
 62
     0
100
AcDbMText
 10
-13.4693386459
 20
3.2025632889
 30
0.0
 40
2.5
 41
0.0
 71
     1
 72
     1
  1
 M6 CLR
  7
SLDTEXTSTYLE1
 73
     1
 44
1.0
  0
ENDBLK
  5
187
330
185
100
AcDbEntity
  8
0
100
AcDbBlockEnd
  0
BLOCK
  5
194
330
193
100
AcDbEntity
  8
0
100
AcDbBlockBegin
  2
SW_NOTE_3
 70
     0
 10
0.0
 20
0.0
 30
0.0
  3
SW_NOTE_3
  1

  0
MTEXT
  5
196
330
193
100
AcDbEntity
  8
DIM
 62
     0
100
AcDbMText
 10
0.6053761853
 20
1.17120517
 30
0.0
 40
2.6458333333
 41
0.0
 71
     1
 72
     1
  1
2 HOLES,
  7
SLDTEXTSTYLE1
 73
     1
 44
1.0
  0
MTEXT
  5
197
330
193
100
AcDbEntity
  8
DIM
 62
     0
100
AcDbMText
 10
0.6053761853
 20
-2.3565725651
 30
0.0
 40
2.6458333333
 41
0.0
 71
     1
 72
     1
  1
M4 CLR
  7
SLDTEXTSTYLE1
 73
     1
 44
1.0
  0
ENDBLK
  5
195
330
193
100
AcDbEntity
  8
0
100
AcDbBlockEnd
  0
BLOCK
  5
19B
330
19A
100
AcDbEntity
  8
0
100
AcDbBlockBegin
  2
SW_NOTE_4
 70
     0
 10
0.0
 20
0.0
 30
0.0
  3
SW_NOTE_4
  1

  0
MTEXT
  5
19D
330
19A
100
AcDbEntity
  8
DIM
 62
     0
100
AcDbMText
 10
-23.7847098691
 20
4.7173932835
 30
0.0
 40
2.5
 41
0.0
 71
     1
 72
     1
  1
ACCEPTS
  7
SLDTEXTSTYLE1
 73
     1
 44
1.0
  0
MTEXT
  5
19E
330
19A
100
AcDbEntity
  8
DIM
 62
     0
100
AcDbMText
 10
-23.7847098691
 20
1.2173931755
 30
0.0
 40
2.5
 41
0.0
 71
     1
 72
     1
  1
%%c
  7
SLDTEXTSTYLE1
 73
     1
 44
1.0
  0
MTEXT
  5
19F
330
19A
100
AcDbEntity
  8
DIM
 62
     0
100
AcDbMText
 10
-20.1397445129
 20
1.2173931755
 30
0.0
 40
2.5
 41
0.0
 71
     1
 72
     1
  1
0.5" OPTICS
  7
SLDTEXTSTYLE1
 73
     1
 44
1.0
  0
ENDBLK
  5
19C
330
19A
100
AcDbEntity
  8
0
100
AcDbBlockEnd
  0
BLOCK
  5
1A3
330
1A2
100
AcDbEntity
  8
0
100
AcDbBlockBegin
  2
SW_CENTERMARKSYMBOL_0
 70
     0
 10
0.0
 20
0.0
 30
0.0
  3
SW_CENTERMARKSYMBOL_0
  1

  0
LINE
  5
1A5
330
1A2
100
AcDbEntity
  8
DIM
 62
     0
100
AcDbLine
 10
0.0
 20
0.0
 30
0.0
 11
0.0
 21
1.0
 31
0.0
  0
LINE
  5
1A6
330
1A2
100
AcDbEntity
  8
DIM
 62
     0
100
AcDbLine
 10
0.0
 20
0.0
 30
0.0
 11
-1.0
 21
0.0
 31
0.0
  0
LINE
  5
1A7
330
1A2
100
AcDbEntity
  8
DIM
 62
     0
100
AcDbLine
 10
0.0
 20
0.0
 30
0.0
 11
0.0
 21
-1.0
 31
0.0
  0
LINE
  5
1A8
330
1A2
100
AcDbEntity
  8
DIM
 62
     0
100
AcDbLine
 10
0.0
 20
0.0
 30
0.0
 11
1.0
 21
0.0
 31
0.0
  0
LINE
  5
1A9
330
1A2
100
AcDbEntity
  8
DIM
 62
     0
100
AcDbLine
 10
0.0
 20
2.0
 30
0.0
 11
0.0
 21
8.0
 31
0.0
  0
LINE
  5
1AA
330
1A2
100
AcDbEntity
  8
DIM
 62
     0
100
AcDbLine
 10
-2.0
 20
0.0
 30
0.0
 11
-8.0
 21
0.0
 31
0.0
  0
LINE
  5
1AB
330
1A2
100
AcDbEntity
  8
DIM
 62
     0
100
AcDbLine
 10
0.0
 20
-2.0
 30
0.0
 11
0.0
 21
-8.0
 31
0.0
  0
LINE
  5
1AC
330
1A2
100
AcDbEntity
  8
DIM
 62
     0
100
AcDbLine
 10
2.0
 20
0.0
 30
0.0
 11
8.0
 21
0.0
 31
0.0
  0
ENDBLK
  5
1A4
330
1A2
100
AcDbEntity
  8
0
100
AcDbBlockEnd
  0
BLOCK
  5
1CD
330
1CC
100
AcDbEntity
  8
0
100
AcDbBlockBegin
  2
_D_5
 70
     0
 10
0.0
 20
0.0
 30
0.0
  3
_D_5
  1

  0
SOLID
  5
1CF
330
1CC
100
AcDbEntity
  8
DIM
 62
     7
100
AcDbTrace
 10
58.7590223713
 20
63.3769743259
 30
0.0
 11
56.7590223713
 21
63.6269743259
 31
0.0
 12
56.7590223713
 22
63.1269743259
 32
0.0
 13
56.7590223713
 23
63.1269743259
 33
0.0
  0
SOLID
  5
1D0
330
1CC
100
AcDbEntity
  8
DIM
 62
     7
100
AcDbTrace
 10
39.7590223713
 20
63.3769743259
 30
0.0
 11
41.7590223713
 21
63.1269743259
 31
0.0
 12
41.7590223713
 22
63.6269743259
 32
0.0
 13
41.7590223713
 23
63.6269743259
 33
0.0
  0
LINE
  5
1D1
330
1CC
100
AcDbEntity
  8
DIM
 62
     7
100
AcDbLine
 10
58.7590223713
 20
78.7398246758
 30
0.0
 11
58.7590223713
 21
62.3769743259
 31
0.0
  0
LINE
  5
1D2
330
1CC
100
AcDbEntity
  8
DIM
 62
     7
100
AcDbLine
 10
39.7590223713
 20
78.7398246758
 30
0.0
 11
39.7590223713
 21
62.3769743259
 31
0.0
  0
LINE
  5
1D3
330
1CC
100
AcDbEntity
  8
DIM
 62
     7
100
AcDbLine
 10
58.7590223713
 20
63.3769743259
 30
0.0
 11
39.7590223713
 21
63.3769743259
 31
0.0
  0
MTEXT
  5
1D4
330
1CC
100
AcDbEntity
  8
DIM
 62
     7
100
AcDbMText
 10
47.3493001465
 20
66.5996435007
 30
0.0
 40
2.5
 41
0.0
 71
     1
 72
     1
  1
19
  7
SLDTEXTSTYLE1
 73
     1
 44
1.0
  0
ENDBLK
  5
1CE
330
1CC
100
AcDbEntity
  8
0
100
AcDbBlockEnd
  0
BLOCK
  5
1D8
330
1D7
100
AcDbEntity
  8
0
100
AcDbBlockBegin
  2
_D_6
 70
     0
 10
0.0
 20
0.0
 30
0.0
  3
_D_6
  1

  0
SOLID
  5
1DA
330
1D7
100
AcDbEntity
  8
DIM
 62
     7
100
AcDbTrace
 10
39.7590223713
 20
68.4104524729
 30
0.0
 11
37.7590223713
 21
68.6604524729
 31
0.0
 12
37.7590223713
 22
68.1604524729
 32
0.0
 13
37.7590223713
 23
68.1604524729
 33
0.0
  0
SOLID
  5
1DB
330
1D7
100
AcDbEntity
  8
DIM
 62
     7
100
AcDbTrace
 10
44.7590223713
 20
68.4104524729
 30
0.0
 11
46.7590223713
 21
68.1604524729
 31
0.0
 12
46.7590223713
 22
68.6604524729
 32
0.0
 13
46.7590223713
 23
68.6604524729
 33
0.0
  0
LINE
  5
1DC
330
1D7
100
AcDbEntity
  8
DIM
 62
     7
100
AcDbLine
 10
39.7590223713
 20
78.7398246758
 30
0.0
 11
39.7590223713
 21
67.4104524729
 31
0.0
  0
LINE
  5
1DD
330
1D7
100
AcDbEntity
  8
DIM
 62
     7
100
AcDbLine
 10
44.7590223713
 20
98.7398246758
 30
0.0
 11
44.7590223713
 21
67.4104524729
 31
0.0
  0
LINE
  5
1DE
330
1D7
100
AcDbEntity
  8
DIM
 62
     7
100
AcDbLine
 10
39.7590223713
 20
68.4104524729
 30
0.0
 11
36.7590223713
 21
68.4104524729
 31
0.0
  0
LINE
  5
1DF
330
1D7
100
AcDbEntity
  8
DIM
 62
     7
100
AcDbLine
 10
39.7590223713
 20
68.4104524729
 30
0.0
 11
44.7590223713
 21
68.4104524729
 31
0.0
  0
LINE
  5
1E0
330
1D7
100
AcDbEntity
  8
DIM
 62
     7
100
AcDbLine
 10
44.7590223713
 20
68.4104524729
 30
0.0
 11
47.7590223713
 21
68.4104524729
 31
0.0
  0
MTEXT
  5
1E1
330
1D7
100
AcDbEntity
  8
DIM
 62
     7
100
AcDbMText
 10
41.3041612589
 20
71.6331216477
 30
0.0
 40
2.5
 41
0.0
 71
     1
 72
     1
  1
5
  7
SLDTEXTSTYLE1
 73
     1
 44
1.0
  0
ENDBLK
  5
1D9
330
1D7
100
AcDbEntity
  8
0
100
AcDbBlockEnd
  0
BLOCK
  5
1E4
330
1E3
100
AcDbEntity
  8
0
100
AcDbBlockBegin
  2
_D_7
 70
     0
 10
0.0
 20
0.0
 30
0.0
  3
_D_7
  1

  0
SOLID
  5
1E6
330
1E3
100
AcDbEntity
  8
DIM
 62
     7
100
AcDbTrace
 10
66.7590223713
 20
58.4302163806
 30
0.0
 11
64.7590223713
 21
58.6802163806
 31
0.0
 12
64.7590223713
 22
58.1802163806
 32
0.0
 13
64.7590223713
 23
58.1802163806
 33
0.0
  0
SOLID
  5
1E7
330
1E3
100
AcDbEntity
  8
DIM
 62
     7
100
AcDbTrace
 10
39.7590223713
 20
58.4302163806
 30
0.0
 11
41.7590223713
 21
58.1802163806
 31
0.0
 12
41.7590223713
 22
58.6802163806
 32
0.0
 13
41.7590223713
 23
58.6802163806
 33
0.0
  0
LINE
  5
1E8
330
1E3
100
AcDbEntity
  8
DIM
 62
     7
100
AcDbLine
 10
66.7590223713
 20
71.7398246758
 30
0.0
 11
66.7590223713
 21
57.4302163806
 31
0.0
  0
LINE
  5
1E9
330
1E3
100
AcDbEntity
  8
DIM
 62
     7
100
AcDbLine
 10
39.7590223713
 20
73.7398246758
 30
0.0
 11
39.7590223713
 21
57.4302163806
 31
0.0
  0
LINE
  5
1EA
330
1E3
100
AcDbEntity
  8
DIM
 62
     7
100
AcDbLine
 10
66.7590223713
 20
58.4302163806
 30
0.0
 11
39.7590223713
 21
58.4302163806
 31
0.0
  0
MTEXT
  5
1EB
330
1E3
100
AcDbEntity
  8
DIM
 62
     7
100
AcDbMText
 10
51.3493001465
 20
61.6528855554
 30
0.0
 40
2.5
 41
0.0
 71
     1
 72
     1
  1
27
  7
SLDTEXTSTYLE1
 73
     1
 44
1.0
  0
ENDBLK
  5
1E5
330
1E3
100
AcDbEntity
  8
0
100
AcDbBlockEnd
  0
BLOCK
  5
1EE
330
1ED
100
AcDbEntity
  8
0
100
AcDbBlockBegin
  2
_D_8
 70
     0
 10
0.0
 20
0.0
 30
0.0
  3
_D_8
  1

  0
SOLID
  5
1F0
330
1ED
100
AcDbEntity
  8
DIM
 62
     7
100
AcDbTrace
 10
39.7590223713
 20
53.4617895504
 30
0.0
 11
41.7590223713
 21
53.2117895504
 31
0.0
 12
41.7590223713
 22
53.7117895504
 32
0.0
 13
41.7590223713
 23
53.7117895504
 33
0.0
  0
SOLID
  5
1F1
330
1ED
100
AcDbEntity
  8
DIM
 62
     7
100
AcDbTrace
 10
74.7590223713
 20
53.4617895504
 30
0.0
 11
72.7590223713
 21
53.7117895504
 31
0.0
 12
72.7590223713
 22
53.2117895504
 32
0.0
 13
72.7590223713
 23
53.2117895504
 33
0.0
  0
LINE
  5
1F2
330
1ED
100
AcDbEntity
  8
DIM
 62
     7
100
AcDbLine
 10
39.7590223713
 20
73.7398246758
 30
0.0
 11
39.7590223713
 21
52.4617895504
 31
0.0
  0
LINE
  5
1F3
330
1ED
100
AcDbEntity
  8
DIM
 62
     7
100
AcDbLine
 10
74.7590223713
 20
73.7398246758
 30
0.0
 11
74.7590223713
 21
52.4617895504
 31
0.0
  0
LINE
  5
1F4
330
1ED
100
AcDbEntity
  8
DIM
 62
     7
100
AcDbLine
 10
39.7590223713
 20
53.4617895504
 30
0.0
 11
74.7590223713
 21
53.4617895504
 31
0.0
  0
MTEXT
  5
1F5
330
1ED
100
AcDbEntity
  8
DIM
 62
     7
100
AcDbMText
 10
55.3493001465
 20
56.6844587252
 30
0.0
 40
2.5
 41
0.0
 71
     1
 72
     1
  1
35
  7
SLDTEXTSTYLE1
 73
     1
 44
1.0
  0
ENDBLK
  5
1EF
330
1ED
100
AcDbEntity
  8
0
100
AcDbBlockEnd
  0
BLOCK
  5
1F8
330
1F7
100
AcDbEntity
  8
0
100
AcDbBlockBegin
  2
_D_9
 70
     0
 10
0.0
 20
0.0
 30
0.0
  3
_D_9
  1

  0
SOLID
  5
1FA
330
1F7
100
AcDbEntity
  8
DIM
 62
     7
100
AcDbTrace
 10
82.7590223713
 20
80.7398246758
 30
0.0
 11
82.5090223713
 21
78.7398246758
 31
0.0
 12
83.0090223713
 22
78.7398246758
 32
0.0
 13
83.0090223713
 23
78.7398246758
 33
0.0
  0
SOLID
  5
1FB
330
1F7
100
AcDbEntity
  8
DIM
 62
     7
100
AcDbTrace
 10
82.7590223713
 20
74.7398246758
 30
0.0
 11
83.0090223713
 21
76.7398246758
 31
0.0
 12
82.5090223713
 22
76.7398246758
 32
0.0
 13
82.5090223713
 23
76.7398246758
 33
0.0
  0
LINE
  5
1FC
330
1F7
100
AcDbEntity
  8
DIM
 62
     7
100
AcDbLine
 10
75.7590223713
 20
80.7398246758
 30
0.0
 11
83.7590223713
 21
80.7398246758
 31
0.0
  0
LINE
  5
1FD
330
1F7
100
AcDbEntity
  8
DIM
 62
     7
100
AcDbLine
 10
75.7590223713
 20
74.7398246758
 30
0.0
 11
83.7590223713
 21
74.7398246758
 31
0.0
  0
LINE
  5
1FE
330
1F7
100
AcDbEntity
  8
DIM
 62
     7
100
AcDbLine
 10
82.7590223713
 20
80.7398246758
 30
0.0
 11
82.7590223713
 21
74.7398246758
 31
0.0
  0
MTEXT
  5
1FF
330
1F7
100
AcDbEntity
  8
DIM
 62
     7
100
AcDbMText
 10
79.5363531965
 20
76.7849635634
 30
0.0
 40
2.5
 41
0.0
 71
     1
 72
     1
  1
6
  7
SLDTEXTSTYLE1
 11
-7.044195017643634E-15
 21
1.0
 31
0.0
 73
     1
 44
1.0
  0
ENDBLK
  5
1F9
330
1F7
100
AcDbEntity
  8
0
100
AcDbBlockEnd
  0
BLOCK
  5
202
330
201
100
AcDbEntity
  8
0
100
AcDbBlockBegin
  2
_D_10
 70
     0
 10
0.0
 20
0.0
 30
0.0
  3
_D_10
  1

  0
SOLID
  5
204
330
201
100
AcDbEntity
  8
DIM
 62
     7
100
AcDbTrace
 10
33.1725473224
 20
99.7398246758
 30
0.0
 11
32.9225473224
 21
97.7398246758
 31
0.0
 12
33.4225473224
 22
97.7398246758
 32
0.0
 13
33.4225473224
 23
97.7398246758
 33
0.0
  0
SOLID
  5
205
330
201
100
AcDbEntity
  8
DIM
 62
     7
100
AcDbTrace
 10
33.1725473224
 20
74.7398246758
 30
0.0
 11
33.4225473224
 21
76.7398246758
 31
0.0
 12
32.9225473224
 22
76.7398246758
 32
0.0
 13
32.9225473224
 23
76.7398246758
 33
0.0
  0
LINE
  5
206
330
201
100
AcDbEntity
  8
DIM
 62
     7
100
AcDbLine
 10
43.7590223713
 20
99.7398246758
 30
0.0
 11
32.1725473224
 21
99.7398246758
 31
0.0
  0
LINE
  5
207
330
201
100
AcDbEntity
  8
DIM
 62
     7
100
AcDbLine
 10
38.7590223713
 20
74.7398246758
 30
0.0
 11
32.1725473224
 21
74.7398246758
 31
0.0
  0
LINE
  5
208
330
201
100
AcDbEntity
  8
DIM
 62
     7
100
AcDbLine
 10
33.1725473224
 20
99.7398246758
 30
0.0
 11
33.1725473224
 21
74.7398246758
 31
0.0
  0
MTEXT
  5
209
330
201
100
AcDbEntity
  8
DIM
 62
     7
100
AcDbMText
 10
29.9498781476
 20
85.330102451
 30
0.0
 40
2.5
 41
0.0
 71
     1
 72
     1
  1
25
  7
SLDTEXTSTYLE1
 11
-7.044195017643634E-15
 21
1.0
 31
0.0
 73
     1
 44
1.0
  0
ENDBLK
  5
203
330
201
100
AcDbEntity
  8
0
100
AcDbBlockEnd
  0
BLOCK
  5
20D
330
20C
100
AcDbEntity
  8
0
100
AcDbBlockBegin
  2
_D_11
 70
     0
 10
0.0
 20
0.0
 30
0.0
  3
_D_11
  1

  0
SOLID
  5
20F
330
20C
100
AcDbEntity
  8
DIM
100
AcDbTrace
 10
46.1063045422
 20
100.8205885687
 30
0.0
 11
47.8228141039
 21
101.8770425074
 31
0.0
 12
47.5099482248
 22
102.2670616629
 32
0.0
 13
47.5099482248
 23
102.2670616629
 33
0.0
  0
LINE
  5
210
330
20C
100
AcDbEntity
  8
DIM
100
AcDbLine
 10
46.1063045422
 20
100.8205885687
 30
0.0
 11
64.0711913083
 21
115.2316758491
 31
0.0
  0
LINE
  5
211
330
20C
100
AcDbEntity
  8
DIM
100
AcDbLine
 10
64.0711913083
 20
115.2316758491
 30
0.0
 11
78.4913302411
 21
115.2316758491
 31
0.0
  0
MTEXT
  5
212
330
20C
100
AcDbEntity
  8
DIM
100
AcDbMText
 10
65.3211913083
 20
122.2911504905
 30
0.0
 40
2.5
 41
0.0
 71
     1
 72
     1
  1
1 HOLE,
  7
SLDTEXTSTYLE1
 73
     1
 44
1.0
  0
MTEXT
  5
213
330
20C
100
AcDbEntity
  8
DIM
100
AcDbMText
 10
65.3211913083
 20
118.4543450239
 30
0.0
 40
2.5
 41
0.0
 71
     1
 72
     1
  1
 M4
  7
SLDTEXTSTYLE1
 73
     1
 44
1.0
  0
ENDBLK
  5
20E
330
20C
100
AcDbEntity
  8
0
100
AcDbBlockEnd
  0
BLOCK
  5
215
330
214
100
AcDbEntity
  8
0
100
AcDbBlockBegin
  2
SW_CENTERMARKSYMBOL_1
 70
     0
 10
0.0
 20
0.0
 30
0.0
  3
SW_CENTERMARKSYMBOL_1
  1

  0
LINE
  5
217
330
214
100
AcDbEntity
  8
DIM
 62
     0
100
AcDbLine
 10
0.0
 20
0.0
 30
0.0
 11
0.0
 21
1.0
 31
0.0
  0
LINE
  5
218
330
214
100
AcDbEntity
  8
DIM
 62
     0
100
AcDbLine
 10
0.0
 20
0.0
 30
0.0
 11
-1.0
 21
0.0
 31
0.0
  0
LINE
  5
219
330
214
100
AcDbEntity
  8
DIM
 62
     0
100
AcDbLine
 10
0.0
 20
0.0
 30
0.0
 11
0.0
 21
-1.0
 31
0.0
  0
LINE
  5
21A
330
214
100
AcDbEntity
  8
DIM
 62
     0
100
AcDbLine
 10
0.0
 20
0.0
 30
0.0
 11
1.0
 21
0.0
 31
0.0
  0
LINE
  5
21B
330
214
100
AcDbEntity
  8
DIM
 62
     0
100
AcDbLine
 10
0.0
 20
2.0
 30
0.0
 11
0.0
 21
2.7272
 31
0.0
  0
LINE
  5
21C
330
214
100
AcDbEntity
  8
DIM
 62
     0
100
AcDbLine
 10
-2.0
 20
0.0
 30
0.0
 11
-2.7272
 21
0.0
 31
0.0
  0
LINE
  5
21D
330
214
100
AcDbEntity
  8
DIM
 62
     0
100
AcDbLine
 10
0.0
 20
-2.0
 30
0.0
 11
0.0
 21
-2.7272
 31
0.0
  0
LINE
  5
21E
330
214
100
AcDbEntity
  8
DIM
 62
     0
100
AcDbLine
 10
2.0
 20
0.0
 30
0.0
 11
2.7272
 21
0.0
 31
0.0
  0
ENDBLK
  5
216
330
214
100
AcDbEntity
  8
0
100
AcDbBlockEnd
  0
ENDSEC
  0
SECTION
  2
ENTITIES
  0
HATCH
  5
7D
330
1F
100
AcDbEntity
  8
DIM
 62
     1
100
AcDbHatch
 10
0.0
 20
0.0
 30
0.0
210
0.0
220
0.0
230
1.0
  2
SOLID
 70
     1
 71
     0
 91
        1
 92
        0
 93
       10
 72
     2
 10
195.9181335739884
 20
36.39317862024703
 40
1.518552937418269
 50
316.5603538466151
 51
413.9622470531883
 73
     0
 72
     1
 10
196.8115258996505
 20
35.16523188842609
 11
195.5698445848568
 21
33.96079894601887
 72
     1
 10
195.5698445848568
 20
33.96079894601887
 11
194.584395691874
 21
34.81949588590836
 72
     2
 10
192.5548098488265
 20
36.40840603525001
 40
2.577567488346249
 50
321.9435288426934
 51
402.1815007004193
 73
     1
 72
     2
 10
192.237153558102
 20
35.86758422977183
 40
3.181636704527865
 50
45.55929254159835
 51
125.83255551215
 73
     1
 72
     1
 10
190.3745648009993
 20
38.44703673786606
 11
189.3521569236508
 21
39.33882726498687
 72
     1
 10
189.3521569236508
 20
39.33882726498687
 11
192.5877423720606
 21
42.46574751160097
 72
     1
 10
192.5877423720606
 20
42.46574751160097
 11
193.5182488822447
 21
41.63555529175644
 72
     1
 10
193.5182488822447
 20
41.63555529175644
 11
192.8939975803174
 21
41.02649686091912
 72
     1
 10
192.8939975803174
 20
41.02649686091912
 11
197.0207534386607
 21
37.43732059228515
 97
        0
 75
     0
 76
     1
 98
        1
 10
0.0
 20
0.0
  0
HATCH
  5
7E
330
1F
100
AcDbEntity
  8
DIM
 62
     7
100
AcDbHatch
 10
0.0
 20
0.0
 30
0.0
210
0.0
220
0.0
230
1.0
  2
SOLID
 70
     1
 71
     0
 91
        1
 92
        0
 93
       10
 72
     2
 10
192.1039881191382
 20
36.62178386847388
 40
3.045751395731241
 50
51.07786460466387
 51
110.7887790856593
 73
     0
 72
     2
 10
191.7725909108416
 20
36.23314211922645
 40
2.57054436971128
 50
106.9547474925999
 51
219.8569537219352
 73
     0
 72
     1
 10
189.799320607469
 20
37.88053480662123
 11
188.7841267600665
 21
38.77606670743901
 72
     1
 10
188.7841267600665
 20
38.77606670743901
 11
187.4774985051848
 21
37.51447963093149
 72
     2
 10
188.4681933527003
 20
36.34592298253147
 40
1.531992467805808
 50
130.291064792488
 51
228.5093619070323
 73
     1
 72
     1
 10
187.4532519231594
 20
35.19836260677113
 11
191.4624542333552
 21
31.71375876649628
 72
     1
 10
191.4624542333552
 20
31.71375876649628
 11
190.8314023129401
 21
31.09785837602526
 72
     1
 10
190.8314023129401
 20
31.09785837602526
 11
191.7722027684341
 21
30.28786130591526
 72
     1
 10
191.7722027684341
 20
30.28786130591526
 11
194.9823427415898
 21
33.40490101867766
 72
     1
 10
194.9823427415898
 20
33.40490101867766
 11
194.0175230803727
 21
34.25218780231999
 97
        0
 75
     0
 76
     1
 98
        1
 10
0.0
 20
0.0
  0
LINE
  5
7F
330
1F
100
AcDbEntity
  8
0
  6
Continuous
 62
     7
370
     0
100
AcDbLine
 10
167.8593775185
 20
17.7745192513
 30
0.0
 11
168.8593775185
 21
17.7745192513
 31
0.0
  0
LINE
  5
80
330
1F
100
AcDbEntity
  8
0
  6
Continuous
 62
     7
370
     0
100
AcDbLine
 10
164.8593775185
 20
17.7745192513
 30
0.0
 11
167.3593775185
 21
17.7745192513
 31
0.0
  0
LINE
  5
81
330
1F
100
AcDbEntity
  8
0
  6
Continuous
 62
     7
370
     0
100
AcDbLine
 10
181.3593775185
 20
15.2745192513
 30
0.0
 11
181.3593775185
 21
20.2745192513
 31
0.0
  0
LINE
  5
82
330
1F
100
AcDbEntity
  8
0
  6
Continuous
 62
     7
370
     0
100
AcDbLine
 10
174.3593775185
 20
16.2745192513
 30
0.0
 11
181.3593775185
 21
15.2745192513
 31
0.0
  0
LINE
  5
83
330
1F
100
AcDbEntity
  8
0
  6
Continuous
 62
     7
370
     0
100
AcDbLine
 10
168.3593775185
 20
16.7745192513
 30
0.0
 11
168.3593775185
 21
14.2745192513
 31
0.0
  0
LINE
  5
84
330
1F
100
AcDbEntity
  8
0
  6
Continuous
 62
     7
370
     0
100
AcDbLine
 10
181.3593775185
 20
20.2745192513
 30
0.0
 11
174.3593775185
 21
19.2745192513
 31
0.0
  0
LINE
  5
85
330
1F
100
AcDbEntity
  8
0
  6
Continuous
 62
     7
370
     0
100
AcDbLine
 10
173.3593775185
 20
17.7745192513
 30
0.0
 11
182.3593775185
 21
17.7745192513
 31
0.0
  0
LINE
  5
86
330
1F
100
AcDbEntity
  8
0
  6
Continuous
 62
     7
370
     0
100
AcDbLine
 10
168.3593775185
 20
18.2745192513
 30
0.0
 11
168.3593775185
 21
17.2745192513
 31
0.0
  0
LINE
  5
87
330
1F
100
AcDbEntity
  8
0
  6
Continuous
 62
     7
370
     0
100
AcDbLine
 10
169.3593775185
 20
17.7745192513
 30
0.0
 11
171.8593775185
 21
17.7745192513
 31
0.0
  0
LINE
  5
88
330
1F
100
AcDbEntity
  8
0
  6
Continuous
 62
     7
370
     0
100
AcDbLine
 10
168.3593775185
 20
21.2745192513
 30
0.0
 11
168.3593775185
 21
18.7745192513
 31
0.0
  0
LINE
  5
89
330
1F
100
AcDbEntity
  8
0
  6
Continuous
 62
     7
370
     0
100
AcDbLine
 10
174.3593775185
 20
19.2745192513
 30
0.0
 11
174.3593775185
 21
16.2745192513
 31
0.0
  0
LINE
  5
8A
330
1F
100
AcDbEntity
  8
0
  6
Continuous
 62
     7
370
     0
100
AcDbLine
 10
185.6907965209
 20
13.1152464079
 30
0.0
 11
285.6907965209
 21
13.1152464079
 31
0.0
  0
LINE
  5
8B
330
1F
100
AcDbEntity
  8
0
  6
Continuous
 62
     7
370
     0
100
AcDbLine
 10
185.6907965209
 20
18.1152464079
 30
0.0
 11
235.6907965209
 21
18.1152464079
 31
0.0
  0
LINE
  5
8C
330
1F
100
AcDbEntity
  8
0
  6
Continuous
 62
     7
370
     0
100
AcDbLine
 10
185.6907965209
 20
23.1152464079
 30
0.0
 11
235.6907965209
 21
23.1152464079
 31
0.0
  0
LINE
  5
8D
330
1F
100
AcDbEntity
  8
0
  6
Continuous
 62
     7
370
     0
100
AcDbLine
 10
185.6907965209
 20
28.1152464079
 30
0.0
 11
285.6907965209
 21
28.1152464079
 31
0.0
  0
LINE
  5
8E
330
1F
100
AcDbEntity
  8
0
  6
Continuous
 62
     7
370
     0
100
AcDbLine
 10
235.6907965209
 20
33.1152464079
 30
0.0
 11
285.6907965209
 21
33.1152464079
 31
0.0
  0
LINE
  5
8F
330
1F
100
AcDbEntity
  8
0
  6
Continuous
 62
     7
370
    15
100
AcDbLine
 10
235.6907965209
 20
18.1152464079
 30
0.0
 11
285.6907965209
 21
18.1152464079
 31
0.0
  0
LINE
  5
90
330
1F
100
AcDbEntity
  8
0
  6
Continuous
 62
     7
370
     0
100
AcDbLine
 10
185.6907965209
 20
43.1152464079
 30
0.0
 11
285.6907965209
 21
43.1152464079
 31
0.0
  0
LINE
  5
91
330
1F
100
AcDbEntity
  8
0
  6
Continuous
 62
     7
370
     0
100
AcDbLine
 10
251.237217675
 20
8.1152464079
 30
0.0
 11
251.237217675
 21
18.1152464079
 31
0.0
  0
LINE
  5
92
330
1F
100
AcDbEntity
  8
0
  6
Continuous
 62
     7
370
     0
100
AcDbLine
 10
235.6907965209
 20
8.1152464079
 30
0.0
 11
235.6907965209
 21
43.1152464079
 31
0.0
  0
LINE
  5
93
330
1F
100
AcDbEntity
  8
0
  6
Continuous
 62
     7
370
     0
100
AcDbLine
 10
251.237217675
 20
28.1152464079
 30
0.0
 11
251.237217675
 21
33.1152464079
 31
0.0
  0
LINE
  5
94
330
1F
100
AcDbEntity
  8
0
  6
Continuous
 62
     7
370
     0
100
AcDbLine
 10
214.4164086353
 20
8.1152464079
 30
0.0
 11
214.4164086353
 21
28.1152464079
 31
0.0
  0
LINE
  5
95
330
1F
100
AcDbEntity
  8
0
  6
Continuous
 62
     7
370
     0
100
AcDbLine
 10
199.7785887506
 20
8.1152464079
 30
0.0
 11
199.7785887506
 21
28.1152464079
 31
0.0
  0
LINE
  5
96
330
1F
100
AcDbEntity
  8
0
  6
Continuous
 62
     7
370
     0
100
AcDbLine
 10
185.6907965209
 20
8.1152464079
 30
0.0
 11
185.6907965209
 21
43.1152464079
 31
0.0
  0
LINE
  5
97
330
1F
100
AcDbEntity
  8
0
  6
Continuous
 62
     7
370
    15
100
AcDbLine
 10
8.6907965209
 20
104.7436369915
 30
0.0
 11
14.6907965209
 21
104.7436369915
 31
0.0
  0
LINE
  5
98
330
1F
100
AcDbEntity
  8
0
  6
Continuous
 62
     7
370
    15
100
AcDbLine
 10
285.6907965209
 20
104.7436369915
 30
0.0
 11
279.6907965209
 21
104.7436369915
 31
0.0
  0
LINE
  5
99
330
1F
100
AcDbEntity
  8
0
  6
Continuous
 62
     7
370
    15
100
AcDbLine
 10
147.1907965209
 20
8.1152464079
 30
0.0
 11
147.1907965209
 21
14.1152464079
 31
0.0
  0
LINE
  5
9A
330
1F
100
AcDbEntity
  8
0
  6
Continuous
 62
     7
370
    15
100
AcDbLine
 10
147.1907965209
 20
201.3720275751
 30
0.0
 11
147.1907965209
 21
195.3720275751
 31
0.0
  0
LINE
  5
9B
330
1F
100
AcDbEntity
  8
工作區域參考線
 62
     1
370
     0
100
AcDbLine
 10
190.374564801
 20
38.4470367379
 30
0.0
 11
189.3521569237
 21
39.338827265
 31
0.0
  0
LINE
  5
9C
330
1F
100
AcDbEntity
  8
0
  6
Continuous
 62
     7
370
    15
100
AcDbLine
 10
43.3207965209
 20
201.3720275751
 30
0.0
 11
43.3207965209
 21
202.8720275751
 31
0.0
  0
LINE
  5
9D
330
1F
100
AcDbEntity
  8
0
  6
Continuous
 62
     7
370
    15
100
AcDbLine
 10
77.9507965209
 20
201.3720275751
 30
0.0
 11
77.9507965209
 21
202.8720275751
 31
0.0
  0
LINE
  5
9E
330
1F
100
AcDbEntity
  8
0
  6
Continuous
 62
     7
370
    15
100
AcDbLine
 10
112.5807965209
 20
201.3720275751
 30
0.0
 11
112.5807965209
 21
202.8720275751
 31
0.0
  0
LINE
  5
9F
330
1F
100
AcDbEntity
  8
0
  6
Continuous
 62
     7
370
    15
100
AcDbLine
 10
147.2107965209
 20
201.3720275751
 30
0.0
 11
147.2107965209
 21
202.8720275751
 31
0.0
  0
LINE
  5
A0
330
1F
100
AcDbEntity
  8
0
  6
Continuous
 62
     7
370
    15
100
AcDbLine
 10
181.8407965209
 20
201.3720275751
 30
0.0
 11
181.8407965209
 21
202.8720275751
 31
0.0
  0
LINE
  5
A1
330
1F
100
AcDbEntity
  8
0
  6
Continuous
 62
     7
370
    15
100
AcDbLine
 10
216.4707965209
 20
201.3720275751
 30
0.0
 11
216.4707965209
 21
202.8720275751
 31
0.0
  0
LINE
  5
A2
330
1F
100
AcDbEntity
  8
0
  6
Continuous
 62
     7
370
    15
100
AcDbLine
 10
251.1007965209
 20
201.3720275751
 30
0.0
 11
251.1007965209
 21
202.8720275751
 31
0.0
  0
LINE
  5
A3
330
1F
100
AcDbEntity
  8
0
  6
Continuous
 62
     7
370
    15
100
AcDbLine
 10
43.3157965209
 20
8.1152464079
 30
0.0
 11
43.3157965209
 21
6.6152464079
 31
0.0
  0
LINE
  5
A4
330
1F
100
AcDbEntity
  8
0
  6
Continuous
 62
     7
370
    15
100
AcDbLine
 10
77.9407965209
 20
8.1152464079
 30
0.0
 11
77.9407965209
 21
6.6152464079
 31
0.0
  0
LINE
  5
A5
330
1F
100
AcDbEntity
  8
0
  6
Continuous
 62
     7
370
    15
100
AcDbLine
 10
112.5657965209
 20
8.1152464079
 30
0.0
 11
112.5657965209
 21
6.6152464079
 31
0.0
  0
LINE
  5
A6
330
1F
100
AcDbEntity
  8
0
  6
Continuous
 62
     7
370
    15
100
AcDbLine
 10
147.1907965209
 20
8.1152464079
 30
0.0
 11
147.1907965209
 21
6.6152464079
 31
0.0
  0
LINE
  5
A7
330
1F
100
AcDbEntity
  8
0
  6
Continuous
 62
     7
370
    15
100
AcDbLine
 10
181.8157965209
 20
8.1152464079
 30
0.0
 11
181.8157965209
 21
6.6152464079
 31
0.0
  0
LINE
  5
A8
330
1F
100
AcDbEntity
  8
0
  6
Continuous
 62
     7
370
    15
100
AcDbLine
 10
216.4407965209
 20
8.1152464079
 30
0.0
 11
216.4407965209
 21
6.6152464079
 31
0.0
  0
LINE
  5
A9
330
1F
100
AcDbEntity
  8
0
  6
Continuous
 62
     7
370
     0
100
AcDbLine
 10
285.6907965209
 20
201.3720275751
 30
0.0
 11
8.6907965209
 21
201.3720275751
 31
0.0
  0
LINE
  5
AA
330
1F
100
AcDbEntity
  8
0
  6
Continuous
 62
     7
370
     0
100
AcDbLine
 10
285.6907965209
 20
8.1152464079
 30
0.0
 11
285.6907965209
 21
201.3720275751
 31
0.0
  0
LINE
  5
AB
330
1F
100
AcDbEntity
  8
0
  6
Continuous
 62
     7
370
     0
100
AcDbLine
 10
8.6907965209
 20
201.3720275751
 30
0.0
 11
8.6907965209
 21
8.1152464079
 31
0.0
  0
LINE
  5
AC
330
1F
100
AcDbEntity
  8
0
  6
Continuous
 62
     7
370
     0
100
AcDbLine
 10
8.6907965209
 20
8.1152464079
 30
0.0
 11
285.6907965209
 21
8.1152464079
 31
0.0
  0
LINE
  5
AD
330
1F
100
AcDbEntity
  8
工作區域參考線
 62
     1
370
     0
100
AcDbLine
 10
189.3521569237
 20
39.338827265
 30
0.0
 11
192.5877423721
 21
42.4657475116
 31
0.0
  0
LINE
  5
AE
330
1F
100
AcDbEntity
  8
0
  6
Continuous
 62
     7
370
    15
100
AcDbLine
 10
251.0657965209
 20
8.1152464079
 30
0.0
 11
251.0657965209
 21
6.6152464079
 31
0.0
  0
LINE
  5
AF
330
1F
100
AcDbEntity
  8
0
  6
Continuous
 62
     7
370
    15
100
AcDbLine
 10
8.6907965209
 20
40.3252464079
 30
0.0
 11
7.1907965209
 21
40.3252464079
 31
0.0
  0
LINE
  5
B0
330
1F
100
AcDbEntity
  8
工作區域參考線
 62
     1
370
     0
100
AcDbLine
 10
192.5877423721
 20
42.4657475116
 30
0.0
 11
193.5182488822
 21
41.6355552918
 31
0.0
  0
LINE
  5
B1
330
1F
100
AcDbEntity
  8
0
  6
Continuous
 62
     7
370
    15
100
AcDbLine
 10
8.6907965209
 20
72.5352464079
 30
0.0
 11
7.1907965209
 21
72.5352464079
 31
0.0
  0
LINE
  5
B2
330
1F
100
AcDbEntity
  8
0
  6
Continuous
 62
     7
370
    15
100
AcDbLine
 10
8.6907965209
 20
104.7452464079
 30
0.0
 11
7.1907965209
 21
104.7452464079
 31
0.0
  0
LINE
  5
B3
330
1F
100
AcDbEntity
  8
0
  6
Continuous
 62
     7
370
    15
100
AcDbLine
 10
8.6907965209
 20
136.9552464079
 30
0.0
 11
7.1907965209
 21
136.9552464079
 31
0.0
  0
LINE
  5
B4
330
1F
100
AcDbEntity
  8
0
  6
Continuous
 62
     7
370
    15
100
AcDbLine
 10
8.6907965209
 20
169.1652464079
 30
0.0
 11
7.1907965209
 21
169.1652464079
 31
0.0
  0
LINE
  5
B5
330
1F
100
AcDbEntity
  8
0
  6
Continuous
 62
     7
370
    15
100
AcDbLine
 10
285.6907965209
 20
40.3252464079
 30
0.0
 11
287.1907965209
 21
40.3252464079
 31
0.0
  0
LINE
  5
B6
330
1F
100
AcDbEntity
  8
工作區域參考線
 62
     1
370
     0
100
AcDbLine
 10
193.5182488822
 20
41.6355552918
 30
0.0
 11
192.8939975803
 21
41.0264968609
 31
0.0
  0
LINE
  5
B7
330
1F
100
AcDbEntity
  8
0
  6
Continuous
 62
     7
370
    15
100
AcDbLine
 10
285.6907965209
 20
72.5352464079
 30
0.0
 11
287.1907965209
 21
72.5352464079
 31
0.0
  0
LINE
  5
B8
330
1F
100
AcDbEntity
  8
0
  6
Continuous
 62
     7
370
    15
100
AcDbLine
 10
285.6907965209
 20
104.7452464079
 30
0.0
 11
287.1907965209
 21
104.7452464079
 31
0.0
  0
LINE
  5
B9
330
1F
100
AcDbEntity
  8
0
  6
Continuous
 62
     7
370
    15
100
AcDbLine
 10
285.6907965209
 20
136.9552464079
 30
0.0
 11
287.1907965209
 21
136.9552464079
 31
0.0
  0
LINE
  5
BA
330
1F
100
AcDbEntity
  8
0
  6
Continuous
 62
     7
370
    15
100
AcDbLine
 10
285.6907965209
 20
169.1652464079
 30
0.0
 11
287.1907965209
 21
169.1652464079
 31
0.0
  0
LINE
  5
BB
330
1F
100
AcDbEntity
  8
工作區域參考線
 62
     1
370
     0
100
AcDbLine
 10
192.8939975803
 20
41.0264968609
 30
0.0
 11
197.0207534387
 21
37.4373205923
 31
0.0
  0
LINE
  5
BC
330
1F
100
AcDbEntity
  8
工作區域參考線
 62
     1
370
     0
100
AcDbLine
 10
194.5843956919
 20
34.8194958859
 30
0.0
 11
195.5698445849
 21
33.960798946
 31
0.0
  0
LINE
  5
BD
330
1F
100
AcDbEntity
  8
工作區域參考線
 62
     1
370
     0
100
AcDbLine
 10
195.5698445849
 20
33.960798946
 30
0.0
 11
196.8115258997
 21
35.1652318884
 31
0.0
  0
LINE
  5
BE
330
1F
100
AcDbEntity
  8
圖層_1
370
    30
100
AcDbLine
 10
194.9823427416
 20
33.4049010187
 30
0.0
 11
191.7722027684
 21
30.2878613059
 31
0.0
  0
LINE
  5
BF
330
1F
100
AcDbEntity
  8
圖層_1
370
    30
100
AcDbLine
 10
191.7722027684
 20
30.2878613059
 30
0.0
 11
190.8314023129
 21
31.097858376
 31
0.0
  0
LINE
  5
C0
330
1F
100
AcDbEntity
  8
圖層_1
370
    30
100
AcDbLine
 10
190.8314023129
 20
31.097858376
 30
0.0
 11
191.4624542334
 21
31.7137587665
 31
0.0
  0
LINE
  5
C1
330
1F
100
AcDbEntity
  8
圖層_1
370
    30
100
AcDbLine
 10
187.4532519232
 20
35.1983626068
 30
0.0
 11
191.4624542334
 21
31.7137587665
 31
0.0
  0
LINE
  5
C2
330
1F
100
AcDbEntity
  8
圖層_1
370
    30
100
AcDbLine
 10
188.7841267601
 20
38.7760667074
 30
0.0
 11
187.4774985052
 21
37.5144796309
 31
0.0
  0
LINE
  5
C3
330
1F
100
AcDbEntity
  8
圖層_1
370
    30
100
AcDbLine
 10
188.7841267601
 20
38.7760667074
 30
0.0
 11
189.7993206075
 21
37.8805348066
 31
0.0
  0
LINE
  5
C4
330
1F
100
AcDbEntity
  8
圖層_1
370
    30
100
AcDbLine
 10
194.0175230804
 20
34.2521878023
 30
0.0
 11
194.9823427416
 21
33.4049010187
 31
0.0
  0
CIRCLE
  5
C5
330
1F
100
AcDbEntity
  8
0
  6
Continuous
 62
     7
370
     0
100
AcDbCircle
 10
168.3593775185
 20
17.7745192513
 30
0.0
 40
1.5
  0
CIRCLE
  5
C6
330
1F
100
AcDbEntity
  8
0
  6
Continuous
 62
     7
370
     0
100
AcDbCircle
 10
168.3593775185
 20
17.7745192513
 30
0.0
 40
2.5
  0
ARC
  5
C7
330
1F
100
AcDbEntity
  8
工作區域參考線
 62
     1
370
     0
100
AcDbCircle
 10
195.918133574
 20
36.3931786202
 30
0.0
 40
1.518552937418286
100
AcDbArc
 50
306.0377529468
 51
43.4396461534
  0
ARC
  5
C8
330
1F
100
AcDbEntity
  8
工作區域參考線
 62
     1
370
     0
100
AcDbCircle
 10
192.2371535581
 20
35.8675842298
 30
0.0
 40
3.181636704527879
100
AcDbArc
 50
45.5592925416
 51
125.8325555121
  0
ARC
  5
C9
330
1F
100
AcDbEntity
  8
工作區域參考線
 62
     1
370
     0
100
AcDbCircle
 10
192.5548098488
 20
36.4084060353
 30
0.0
 40
2.577567488346265
100
AcDbArc
 50
321.9435288427
 51
42.1815007004
  0
ARC
  5
CA
330
1F
100
AcDbEntity
  8
圖層_1
370
    30
100
AcDbCircle
 10
188.4681933527
 20
36.3459229825
 30
0.0
 40
1.531992467805816
100
AcDbArc
 50
130.2910647925
 51
228.509361907
  0
ARC
  5
CB
330
1F
100
AcDbEntity
  8
圖層_1
370
    30
100
AcDbCircle
 10
191.7725909108
 20
36.2331421192
 30
0.0
 40
2.570544369711281
100
AcDbArc
 50
140.1430462781
 51
253.0452525074
  0
ARC
  5
CC
330
1F
100
AcDbEntity
  8
圖層_1
370
    30
100
AcDbCircle
 10
192.1039881191
 20
36.6217838685
 30
0.0
 40
3.045751395731255
100
AcDbArc
 50
249.2112209143
 51
308.9221353953
  0
MTEXT
  5
CE
330
1F
100
AcDbEntity
  8
0
  6
Continuous
 62
     7
370
     0
100
AcDbMText
 10
165.5426850804
 20
13.2208440369
 30
0.0
 40
2.6458333333
 41
0.0
 71
     1
 72
     1
  1
UNIT:m/m
  7
SLDTEXTSTYLE1
 73
     1
 44
1.0
  0
INSERT
  5
D5
330
1F
100
AcDbEntity
  8
0
  6
Continuous
 62
     7
370
     0
100
AcDbBlockReference
  2
SW_NOTE_0
 10
12.2315076053
 20
193.8904304251
 30
0.0
  0
MTEXT
  5
D7
330
1F
100
AcDbEntity
  8
0
  6
Continuous
 62
     7
370
     0
100
AcDbMText
 10
198.7251893935
 20
40.4406774139
 30
0.0
 40
2.38125
 41
0.0
 71
     1
 72
     1
  1
Unice E-O Services Inc.
  7
SLDTEXTSTYLE2
 73
     1
 44
1.0
  0
MTEXT
  5
D8
330
1F
100
AcDbEntity
  8
0
  6
Continuous
 62
     7
370
     0
100
AcDbMText
 10
252.6088982507
 20
16.87117774
 30
0.0
 40
2.5
 41
0.0
 71
     1
 72
     1
  1
1:1
  7
SLDTEXTSTYLE1
 73
     1
 44
1.0
  0
MTEXT
  5
D9
330
1F
100
AcDbEntity
  8
0
  6
Continuous
 62
     7
370
     0
100
AcDbMText
 10
252.3075599985
 20
32.1519195438
 30
0.0
 40
2.5
 41
0.0
 71
     1
 72
     1
  1
04VMT-0.5M-H
  7
SLDTEXTSTYLE1
 73
     1
 44
1.0
  0
MTEXT
  5
DA
330
1F
100
AcDbEntity
  8
0
  6
Continuous
 62
     7
370
     0
100
AcDbMText
 10
252.3075599985
 20
38.1082117879
 30
0.0
 40
2.5
 41
0.0
 71
     1
 72
     1
  1
04VMT-0.5M-H
  7
SLDTEXTSTYLE1
 73
     1
 44
1.0
  0
MTEXT
  5
DB
330
1F
100
AcDbEntity
  8
0
  6
Continuous
 62
     7
370
     0
100
AcDbMText
 10
236.3921866786
 20
16.5064795728
 30
0.0
 40
2.1166666667
 41
0.0
 71
     1
 72
     1
  1
SCALE:
  7
SLDTEXTSTYLE1
 73
     1
 44
1.0
  0
MTEXT
  5
DC
330
1F
100
AcDbEntity
  8
0
  6
Continuous
 62
     7
370
     0
100
AcDbMText
 10
186.3336086789
 20
21.5867148511
 30
0.0
 40
1.8520833333
 41
0.0
 71
     1
 72
     1
  1
DRAWN
  7
SLDTEXTSTYLE1
 73
     1
 44
1.0
  0
MTEXT
  5
DD
330
1F
100
AcDbEntity
  8
0
  6
Continuous
 62
     7
370
     0
100
AcDbMText
 10
203.2228367937
 20
26.683208308
 30
0.0
 40
1.8520833333
 41
0.0
 71
     1
 72
     1
  1
NAME
  7
SLDTEXTSTYLE1
 73
     1
 44
1.0
  0
MTEXT
  5
DE
330
1F
100
AcDbEntity
  8
0
  6
Continuous
 62
     7
370
     0
100
AcDbMText
 10
220.8710155758
 20
26.683208308
 30
0.0
 40
1.8520833333
 41
0.0
 71
     1
 72
     1
  1
DATE
  7
SLDTEXTSTYLE1
 73
     1
 44
1.0
  0
MTEXT
  5
DF
330
1F
100
AcDbEntity
  8
0
  6
Continuous
 62
     7
370
     0
100
AcDbMText
 10
236.2756316645
 20
31.7872213766
 30
0.0
 40
2.1166666667
 41
0.0
 71
     1
 72
     1
  1
DWG. NO.
  7
SLDTEXTSTYLE1
 73
     1
 44
1.0
  0
MTEXT
  5
E0
330
1F
100
AcDbEntity
  8
0
  6
Continuous
 62
     7
370
     0
100
AcDbMText
 10
236.3629907088
 20
41.8840658243
 30
0.0
 40
2.1166666667
 41
0.0
 71
     1
 72
     1
  1
TITLE:
  7
SLDTEXTSTYLE1
 73
     1
 44
1.0
  0
MTEXT
  5
E1
330
1F
100
AcDbEntity
  8
0
  6
Continuous
 62
     7
370
     0
100
AcDbMText
 10
203.0314209802
 20
16.2403789724
 30
0.0
 40
1.8520833333
 41
0.0
 71
     1
 72
     1
  1
Johnny
  7
SLDTEXTSTYLE1
 73
     1
 44
1.0
  0
MTEXT
  5
E2
330
1F
100
AcDbEntity
  8
0
  6
Continuous
 62
     7
370
     0
100
AcDbMText
 10
217.5590538149
 20
16.2403789724
 30
0.0
 40
1.8520833333
 41
0.0
 71
     1
 72
     1
  1
2016/4/18
  7
SLDTEXTSTYLE1
 73
     1
 44
1.0
  0
MTEXT
  5
E3
330
1F
100
AcDbEntity
  8
0
  6
Continuous
 62
     7
370
     0
100
AcDbMText
 10
186.3336086789
 20
16.2403789724
 30
0.0
 40
1.8520833333
 41
0.0
 71
     1
 72
     1
  1
ENG APPR.
  7
SLDTEXTSTYLE1
 73
     1
 44
1.0
  0
MTEXT
  5
E4
330
1F
100
AcDbEntity
  8
0
  6
Continuous
 62
     7
370
     0
100
AcDbMText
 10
236.3921866786
 20
11.6853389288
 30
0.0
 40
2.1166666667
 41
0.0
 71
     1
 72
     1
  1
REV
  7
SLDTEXTSTYLE1
 73
     1
 44
1.0
  0
MTEXT
  5
E5
330
1F
100
AcDbEntity
  8
0
  6
Continuous
 62
     7
370
     0
100
AcDbMText
 10
236.3629907088
 20
26.9493089085
 30
0.0
 40
2.1166666667
 41
0.0
 71
     1
 72
     1
  1
MATERIAL:
  7
SLDTEXTSTYLE1
 73
     1
 44
1.0
  0
MTEXT
  5
E6
330
1F
100
AcDbEntity
  8
0
  6
Continuous
 62
     7
370
     0
100
AcDbMText
 10
252.6088982507
 20
22.2175136187
 30
0.0
 40
2.5
 41
0.0
 71
     1
 72
     1
  1
N/A
  7
SLDTEXTSTYLE1
 73
     1
 44
1.0
  0
MTEXT
  5
E7
330
1F
100
AcDbEntity
  8
0
  6
Continuous
 62
     7
370
     0
100
AcDbMText
 10
26.6029931533
 20
204.453351657
 30
0.0
 40
2.1166666667
 41
0.0
 71
     1
 72
     1
  1
1
  7
SLDTEXTSTYLE1
 73
     1
 44
1.0
  0
MTEXT
  5
E8
330
1F
100
AcDbEntity
  8
0
  6
Continuous
 62
     7
370
     0
100
AcDbMText
 10
60.7170995724
 20
204.453351657
 30
0.0
 40
2.1166666667
 41
0.0
 71
     1
 72
     1
  1
2
  7
SLDTEXTSTYLE1
 73
     1
 44
1.0
  0
MTEXT
  5
E9
330
1F
100
AcDbEntity
  8
0
  6
Continuous
 62
     7
370
     0
100
AcDbMText
 10
94.9009943906
 20
204.453351657
 30
0.0
 40
2.1166666667
 41
0.0
 71
     1
 72
     1
  1
3
  7
SLDTEXTSTYLE1
 73
     1
 44
1.0
  0
MTEXT
  5
EA
330
1F
100
AcDbEntity
  8
0
  6
Continuous
 62
     7
370
     0
100
AcDbMText
 10
129.2533362851
 20
204.2992584364
 30
0.0
 40
2.1166666667
 41
0.0
 71
     1
 72
     1
  1
4
  7
SLDTEXTSTYLE1
 73
     1
 44
1.0
  0
MTEXT
  5
EB
330
1F
100
AcDbEntity
  8
0
  6
Continuous
 62
     7
370
     0
100
AcDbMText
 10
163.702323464
 20
204.453351657
 30
0.0
 40
2.1166666667
 41
0.0
 71
     1
 72
     1
  1
5
  7
SLDTEXTSTYLE1
 73
     1
 44
1.0
  0
MTEXT
  5
EC
330
1F
100
AcDbEntity
  8
0
  6
Continuous
 62
     7
370
     0
100
AcDbMText
 10
198.6382170415
 20
204.453351657
 30
0.0
 40
2.1166666667
 41
0.0
 71
     1
 72
     1
  1
6
  7
SLDTEXTSTYLE1
 73
     1
 44
1.0
  0
MTEXT
  5
ED
330
1F
100
AcDbEntity
  8
0
  6
Continuous
 62
     7
370
     0
100
AcDbMText
 10
234.3630657407
 20
204.453351657
 30
0.0
 40
2.1166666667
 41
0.0
 71
     1
 72
     1
  1
7
  7
SLDTEXTSTYLE1
 73
     1
 44
1.0
  0
MTEXT
  5
EE
330
1F
100
AcDbEntity
  8
0
  6
Continuous
 62
     7
370
     0
100
AcDbMText
 10
266.2787820494
 20
204.453351657
 30
0.0
 40
2.1166666667
 41
0.0
 71
     1
 72
     1
  1
8
  7
SLDTEXTSTYLE1
 73
     1
 44
1.0
  0
MTEXT
  5
EF
330
1F
100
AcDbEntity
  8
0
  6
Continuous
 62
     7
370
     0
100
AcDbMText
 10
5.3568236555
 20
185.8113022879
 30
0.0
 40
2.1166666667
 41
0.0
 71
     1
 72
     1
  1
A
  7
SLDTEXTSTYLE1
 73
     1
 44
1.0
  0
MTEXT
  5
F0
330
1F
100
AcDbEntity
  8
0
  6
Continuous
 62
     7
370
     0
100
AcDbMText
 10
5.5910431831
 20
154.2993048238
 30
0.0
 40
2.1166666667
 41
0.0
 71
     1
 72
     1
  1
B
  7
SLDTEXTSTYLE1
 73
     1
 44
1.0
  0
MTEXT
  5
F1
330
1F
100
AcDbEntity
  8
0
  6
Continuous
 62
     7
370
     0
100
AcDbMText
 10
5.5910431831
 20
121.274351423
 30
0.0
 40
2.1166666667
 41
0.0
 71
     1
 72
     1
  1
C
  7
SLDTEXTSTYLE1
 73
     1
 44
1.0
  0
MTEXT
  5
F2
330
1F
100
AcDbEntity
  8
0
  6
Continuous
 62
     7
370
     0
100
AcDbMText
 10
5.5910431831
 20
88.7453220221
 30
0.0
 40
2.1166666667
 41
0.0
 71
     1
 72
     1
  1
D
  7
SLDTEXTSTYLE1
 73
     1
 44
1.0
  0
MTEXT
  5
F3
330
1F
100
AcDbEntity
  8
0
  6
Continuous
 62
     7
370
     0
100
AcDbMText
 10
5.5910431831
 20
57.5558849197
 30
0.0
 40
2.1166666667
 41
0.0
 71
     1
 72
     1
  1
E
  7
SLDTEXTSTYLE1
 73
     1
 44
1.0
  0
MTEXT
  5
F4
330
1F
100
AcDbEntity
  8
0
  6
Continuous
 62
     7
370
     0
100
AcDbMText
 10
5.5910431831
 20
25.5694212252
 30
0.0
 40
2.1166666667
 41
0.0
 71
     1
 72
     1
  1
F
  7
SLDTEXTSTYLE1
 73
     1
 44
1.0
  0
MTEXT
  5
F5
330
1F
100
AcDbEntity
  8
0
  6
Continuous
 62
     7
370
     0
100
AcDbMText
 10
266.1858616964
 20
6.6236223963
 30
0.0
 40
2.1166666667
 41
0.0
 71
     1
 72
     1
  1
8
  7
SLDTEXTSTYLE1
 73
     1
 44
1.0
  0
MTEXT
  5
F6
330
1F
100
AcDbEntity
  8
0
  6
Continuous
 62
     7
370
     0
100
AcDbMText
 10
234.2701453876
 20
6.6236223963
 30
0.0
 40
2.1166666667
 41
0.0
 71
     1
 72
     1
  1
7
  7
SLDTEXTSTYLE1
 73
     1
 44
1.0
  0
MTEXT
  5
F7
330
1F
100
AcDbEntity
  8
0
  6
Continuous
 62
     7
370
     0
100
AcDbMText
 10
198.5452966885
 20
6.6236223963
 30
0.0
 40
2.1166666667
 41
0.0
 71
     1
 72
     1
  1
6
  7
SLDTEXTSTYLE1
 73
     1
 44
1.0
  0
MTEXT
  5
F8
330
1F
100
AcDbEntity
  8
0
  6
Continuous
 62
     7
370
     0
100
AcDbMText
 10
163.6094031109
 20
6.6236223963
 30
0.0
 40
2.1166666667
 41
0.0
 71
     1
 72
     1
  1
5
  7
SLDTEXTSTYLE1
 73
     1
 44
1.0
  0
MTEXT
  5
F9
330
1F
100
AcDbEntity
  8
0
  6
Continuous
 62
     7
370
     0
100
AcDbMText
 10
129.1604159321
 20
6.4695291758
 30
0.0
 40
2.1166666667
 41
0.0
 71
     1
 72
     1
  1
4
  7
SLDTEXTSTYLE1
 73
     1
 44
1.0
  0
MTEXT
  5
FA
330
1F
100
AcDbEntity
  8
0
  6
Continuous
 62
     7
370
     0
100
AcDbMText
 10
94.8080740376
 20
6.6236223963
 30
0.0
 40
2.1166666667
 41
0.0
 71
     1
 72
     1
  1
3
  7
SLDTEXTSTYLE1
 73
     1
 44
1.0
  0
MTEXT
  5
FB
330
1F
100
AcDbEntity
  8
0
  6
Continuous
 62
     7
370
     0
100
AcDbMText
 10
60.6241792194
 20
6.6236223963
 30
0.0
 40
2.1166666667
 41
0.0
 71
     1
 72
     1
  1
2
  7
SLDTEXTSTYLE1
 73
     1
 44
1.0
  0
MTEXT
  5
FC
330
1F
100
AcDbEntity
  8
0
  6
Continuous
 62
     7
370
     0
100
AcDbMText
 10
26.5100728003
 20
6.6236223963
 30
0.0
 40
2.1166666667
 41
0.0
 71
     1
 72
     1
  1
1
  7
SLDTEXTSTYLE1
 73
     1
 44
1.0
  0
MTEXT
  5
FD
330
1F
100
AcDbEntity
  8
0
  6
Continuous
 62
     7
370
     0
100
AcDbMText
 10
287.1023846145
 20
186.6424909092
 30
0.0
 40
2.1166666667
 41
0.0
 71
     1
 72
     1
  1
A
  7
SLDTEXTSTYLE1
 73
     1
 44
1.0
  0
MTEXT
  5
FE
330
1F
100
AcDbEntity
  8
0
  6
Continuous
 62
     7
370
     0
100
AcDbMText
 10
287.3366041421
 20
155.1304934451
 30
0.0
 40
2.1166666667
 41
0.0
 71
     1
 72
     1
  1
B
  7
SLDTEXTSTYLE1
 73
     1
 44
1.0
  0
MTEXT
  5
FF
330
1F
100
AcDbEntity
  8
0
  6
Continuous
 62
     7
370
     0
100
AcDbMText
 10
287.3366041421
 20
122.1055400442
 30
0.0
 40
2.1166666667
 41
0.0
 71
     1
 72
     1
  1
C
  7
SLDTEXTSTYLE1
 73
     1
 44
1.0
  0
MTEXT
  5
100
330
1F
100
AcDbEntity
  8
0
  6
Continuous
 62
     7
370
     0
100
AcDbMText
 10
287.3366041421
 20
89.5765106433
 30
0.0
 40
2.1166666667
 41
0.0
 71
     1
 72
     1
  1
D
  7
SLDTEXTSTYLE1
 73
     1
 44
1.0
  0
MTEXT
  5
101
330
1F
100
AcDbEntity
  8
0
  6
Continuous
 62
     7
370
     0
100
AcDbMText
 10
287.3366041421
 20
58.3870735409
 30
0.0
 40
2.1166666667
 41
0.0
 71
     1
 72
     1
  1
E
  7
SLDTEXTSTYLE1
 73
     1
 44
1.0
  0
MTEXT
  5
102
330
1F
100
AcDbEntity
  8
0
  6
Continuous
 62
     7
370
     0
100
AcDbMText
 10
287.3366041421
 20
26.4006098464
 30
0.0
 40
2.1166666667
 41
0.0
 71
     1
 72
     1
  1
F
  7
SLDTEXTSTYLE1
 73
     1
 44
1.0
  0
MTEXT
  5
103
330
1F
100
AcDbEntity
  8
0
  6
Continuous
 62
     7
370
     0
100
AcDbMText
 10
203.1553128802
 20
21.5867148511
 30
0.0
 40
1.8520833333
 41
0.0
 71
     1
 72
     1
  1
Yuhan
  7
SLDTEXTSTYLE1
 73
     1
 44
1.0
  0
MTEXT
  5
105
330
1F
100
AcDbEntity
  8
0
  6
Continuous
 62
     7
370
     0
100
AcDbMText
 10
252.8482239645
 20
12.210248456
 30
0.0
 40
2.6458333333
 41
0.0
 71
     1
 72
     1
  1
0
  7
SLDTEXTSTYLE3
 73
     1
 44
1.0
  0
MTEXT
  5
106
330
1F
100
AcDbEntity
  8
DIM
 62
     7
100
AcDbMText
 10
217.5590538149
 20
21.5867148511
 30
0.0
 40
1.8520833333
 41
0.0
 71
     1
 72
     1
  1
2016/4/18
  7
SLDTEXTSTYLE1
 73
     1
 44
1.0
  0
INSERT
  5
10C
330
1F
100
AcDbEntity
  8
DIM
 62
     7
100
AcDbBlockReference
  2
SW_NOTE_1
 10
198.7251893935
 20
33.0722881696
 30
0.0
  0
LINE
  5
10D
330
1F
100
AcDbEntity
  8
0
  6
Continuous
 62
     7
370
    15
100
AcDbLine
 10
131.5610147875
 20
137.7398246758
 30
0.0
 11
131.5610147875
 21
143.871407352
 31
0.0
  0
LINE
  5
10E
330
1F
100
AcDbEntity
  8
0
  6
Continuous
 62
     7
370
    15
100
AcDbLine
 10
125.5610147875
 20
143.871407352
 30
0.0
 11
125.5610147875
 21
137.7398246758
 31
0.0
  0
LINE
  5
10F
330
1F
100
AcDbEntity
  8
0
  6
Continuous
 62
     7
370
    15
100
AcDbLine
 10
157.5610147875
 20
137.7398246758
 30
0.0
 11
157.5610147875
 21
143.871407352
 31
0.0
  0
LINE
  5
110
330
1F
100
AcDbEntity
  8
0
  6
Continuous
 62
     7
370
    15
100
AcDbLine
 10
151.5610147875
 20
143.871407352
 30
0.0
 11
151.5610147875
 21
137.7398246758
 31
0.0
  0
LINE
  5
111
330
1F
100
AcDbEntity
  8
0
  6
Continuous
 62
     7
370
    15
100
AcDbLine
 10
131.4744754816
 20
143.871407352
 30
0.0
 11
125.5610147875
 21
143.871407352
 31
0.0
  0
LINE
  5
112
330
1F
100
AcDbEntity
  8
0
  6
Continuous
 62
     7
370
    15
100
AcDbLine
 10
131.5610147875
 20
143.871407352
 30
0.0
 11
131.4744754816
 21
143.871407352
 31
0.0
  0
LINE
  5
113
330
1F
100
AcDbEntity
  8
0
  6
Continuous
 62
     7
370
    15
100
AcDbLine
 10
154.6666662437
 20
143.871407352
 30
0.0
 11
151.5610147875
 21
143.871407352
 31
0.0
  0
LINE
  5
114
330
1F
100
AcDbEntity
  8
0
  6
Continuous
 62
     7
370
    15
100
AcDbLine
 10
157.5610147875
 20
143.871407352
 30
0.0
 11
154.6666662437
 21
143.871407352
 31
0.0
  0
LINE
  5
115
330
1F
100
AcDbEntity
  8
0
  6
Continuous
 62
     7
370
    15
100
AcDbLine
 10
126.5610147875
 20
83.7398246758
 30
0.0
 11
156.5610147875
 21
83.7398246758
 31
0.0
  0
ARC
  5
116
330
1F
100
AcDbEntity
  8
0
  6
Continuous
 62
     7
370
    15
100
AcDbCircle
 10
141.5610147875
 20
94.7398246758
 30
0.0
 40
3.999999999999995
100
AcDbArc
 50
191.5369590328
 51
348.4630409672
  0
LINE
  5
117
330
1F
100
AcDbEntity
  8
0
  6
Continuous
 62
     7
370
    15
100
AcDbLine
 10
157.5610147875
 20
84.7398246758
 30
0.0
 11
157.5610147875
 21
114.7398246758
 31
0.0
  0
LINE
  5
118
330
1F
100
AcDbEntity
  8
0
  6
Continuous
 62
     7
370
    15
100
AcDbLine
 10
125.5610147875
 20
114.7398246758
 30
0.0
 11
125.5610147875
 21
84.7398246758
 31
0.0
  0
ARC
  5
119
330
1F
100
AcDbEntity
  8
0
  6
Continuous
 62
     7
370
    15
100
AcDbCircle
 10
156.5610147875
 20
84.7398246758
 30
0.0
 40
1.0
100
AcDbArc
 50
270.0
 51
0.0
  0
ARC
  5
11A
330
1F
100
AcDbEntity
  8
0
  6
Continuous
 62
     7
370
    15
100
AcDbCircle
 10
141.5610147875
 20
99.7398246758
 30
0.0
 40
7.000000000000006
100
AcDbArc
 50
304.04773237
 51
235.95226763
  0
ARC
  5
11B
330
1F
100
AcDbEntity
  8
0
  6
Continuous
 62
     7
370
    15
100
AcDbCircle
 10
126.5610147875
 20
114.7398246758
 30
0.0
 40
1.0
100
AcDbArc
 50
90.0
 51
180.0
  0
ARC
  5
11C
330
1F
100
AcDbEntity
  8
0
  6
Continuous
 62
     7
370
    15
100
AcDbCircle
 10
156.5610147875
 20
114.7398246758
 30
0.0
 40
1.0
100
AcDbArc
 50
0.0
 51
90.0
  0
LINE
  5
11D
330
1F
100
AcDbEntity
  8
0
  6
Continuous
 62
     7
370
    15
100
AcDbLine
 10
156.5610147875
 20
115.7398246758
 30
0.0
 11
126.5610147875
 21
115.7398246758
 31
0.0
  0
ARC
  5
11E
330
1F
100
AcDbEntity
  8
0
  6
Continuous
 62
     7
370
    15
100
AcDbCircle
 10
126.5610147875
 20
84.7398246758
 30
0.0
 40
1.0
100
AcDbArc
 50
180.0
 51
270.0
  0
CIRCLE
  5
11F
330
1F
100
AcDbEntity
  8
0
  6
Continuous
 62
     7
370
    15
100
AcDbCircle
 10
141.5610147875
 20
99.7398246758
 30
0.0
 40
5.499999999999972
  0
LINE
  5
120
330
1F
100
AcDbEntity
  8
0
  6
Continuous
 62
     7
370
    15
100
AcDbLine
 10
161.5610147875
 20
137.7398246758
 30
0.0
 11
156.6606836581
 21
137.7398246758
 31
0.0
  0
LINE
  5
121
330
1F
100
AcDbEntity
  8
0
  6
Continuous
 62
     7
370
    15
100
AcDbLine
 10
161.5610147875
 20
80.7398246758
 30
0.0
 11
161.5610147875
 21
137.7398246758
 31
0.0
  0
LINE
  5
122
330
1F
100
AcDbEntity
  8
0
  6
Continuous
 62
     7
370
    15
100
AcDbLine
 10
126.461345917
 20
137.7398246758
 30
0.0
 11
121.5610147875
 21
137.7398246758
 31
0.0
  0
LINE
  5
123
330
1F
100
AcDbEntity
  8
0
  6
Continuous
 62
     7
370
    15
100
AcDbLine
 10
126.461345917
 20
137.7398246758
 30
0.0
 11
126.461345917
 21
117.7398246758
 31
0.0
  0
ARC
  5
124
330
1F
100
AcDbEntity
  8
0
  6
Continuous
 62
     7
370
    15
100
AcDbCircle
 10
126.5610147875
 20
114.7398246758
 30
0.0
 40
3.0
100
AcDbArc
 50
90.0
 51
180.0
  0
LINE
  5
125
330
1F
100
AcDbEntity
  8
0
  6
Continuous
 62
     7
370
    15
100
AcDbLine
 10
126.5610147875
 20
81.7398246758
 30
0.0
 11
156.5610147875
 21
81.7398246758
 31
0.0
  0
ARC
  5
126
330
1F
100
AcDbEntity
  8
0
  6
Continuous
 62
     7
370
    15
100
AcDbCircle
 10
156.5610147875
 20
114.7398246758
 30
0.0
 40
3.0
100
AcDbArc
 50
0.0
 51
90.0
  0
LINE
  5
127
330
1F
100
AcDbEntity
  8
0
  6
Continuous
 62
     7
370
    15
100
AcDbLine
 10
156.6606836581
 20
117.7398246758
 30
0.0
 11
156.5610147875
 21
117.7398246758
 31
0.0
  0
LINE
  5
128
330
1F
100
AcDbEntity
  8
0
  6
Continuous
 62
     7
370
    15
100
AcDbLine
 10
156.6606836581
 20
117.7398246758
 30
0.0
 11
156.6606836581
 21
137.7398246758
 31
0.0
  0
LINE
  5
129
330
1F
100
AcDbEntity
  8
0
  6
Continuous
 62
     7
370
    15
100
AcDbLine
 10
121.5610147875
 20
137.7398246758
 30
0.0
 11
121.5610147875
 21
80.7398246758
 31
0.0
  0
ARC
  5
12A
330
1F
100
AcDbEntity
  8
0
  6
Continuous
 62
     7
370
    15
100
AcDbCircle
 10
156.5610147875
 20
84.7398246758
 30
0.0
 40
3.0
100
AcDbArc
 50
270.0
 51
0.0
  0
LINE
  5
12B
330
1F
100
AcDbEntity
  8
0
  6
Continuous
 62
     7
370
    15
100
AcDbLine
 10
159.5610147875
 20
84.7398246758
 30
0.0
 11
159.5610147875
 21
114.7398246758
 31
0.0
  0
LINE
  5
12C
330
1F
100
AcDbEntity
  8
0
  6
Continuous
 62
     7
370
    15
100
AcDbLine
 10
123.5610147875
 20
114.7398246758
 30
0.0
 11
123.5610147875
 21
84.7398246758
 31
0.0
  0
ARC
  5
12D
330
1F
100
AcDbEntity
  8
0
  6
Continuous
 62
     7
370
    15
100
AcDbCircle
 10
126.5610147875
 20
84.7398246758
 30
0.0
 40
3.0
100
AcDbArc
 50
180.0
 51
270.0
  0
LINE
  5
12E
330
1F
100
AcDbEntity
  8
0
  6
Continuous
 62
     7
370
    15
100
AcDbLine
 10
126.5610147875
 20
117.7398246758
 30
0.0
 11
126.461345917
 21
117.7398246758
 31
0.0
  0
LINE
  5
12F
330
1F
100
AcDbEntity
  8
0
  6
Continuous
 62
     7
370
    15
100
AcDbLine
 10
156.5610147875
 20
117.7398246758
 30
0.0
 11
126.5610147875
 21
117.7398246758
 31
0.0
  0
LINE
  5
130
330
1F
100
AcDbEntity
  8
0
  6
Continuous
 62
     7
370
    15
100
AcDbLine
 10
156.6606836581
 20
137.7398246758
 30
0.0
 11
126.461345917
 21
137.7398246758
 31
0.0
  0
LINE
  5
131
330
1F
100
AcDbEntity
  8
0
  6
Continuous
 62
     7
370
    15
100
AcDbLine
 10
147.0610147875
 20
76.7398246758
 30
0.0
 11
147.0610147875
 21
80.7398246758
 31
0.0
  0
LINE
  5
132
330
1F
100
AcDbEntity
  8
0
  6
Continuous
 62
     7
370
    15
100
AcDbLine
 10
147.0610147875
 20
80.7398246758
 30
0.0
 11
156.5610147875
 21
80.7398246758
 31
0.0
  0
LINE
  5
133
330
1F
100
AcDbEntity
  8
0
  6
Continuous
 62
     7
370
    15
100
AcDbLine
 10
156.5610147875
 20
74.7398246758
 30
0.0
 11
156.5610147875
 21
80.7398246758
 31
0.0
  0
LINE
  5
134
330
1F
100
AcDbEntity
  8
0
  6
Continuous
 62
     7
370
    15
100
AcDbLine
 10
145.0610147875
 20
76.7398246758
 30
0.0
 11
147.0610147875
 21
76.7398246758
 31
0.0
  0
LINE
  5
135
330
1F
100
AcDbEntity
  8
0
  6
Continuous
 62
     7
370
    15
100
AcDbLine
 10
145.0610147875
 20
74.7398246758
 30
0.0
 11
145.0610147875
 21
76.7398246758
 31
0.0
  0
LINE
  5
136
330
1F
100
AcDbEntity
  8
0
  6
Continuous
 62
     7
370
    15
100
AcDbLine
 10
145.0610147875
 20
74.7398246758
 30
0.0
 11
156.5610147875
 21
74.7398246758
 31
0.0
  0
LINE
  5
137
330
1F
100
AcDbEntity
  8
0
  6
Continuous
 62
     7
370
    15
100
AcDbLine
 10
138.0610147875
 20
74.7398246758
 30
0.0
 11
138.0610147875
 21
76.7398246758
 31
0.0
  0
LINE
  5
138
330
1F
100
AcDbEntity
  8
0
  6
Continuous
 62
     7
370
    15
100
AcDbLine
 10
126.5610147875
 20
80.7398246758
 30
0.0
 11
126.5610147875
 21
74.7398246758
 31
0.0
  0
LINE
  5
139
330
1F
100
AcDbEntity
  8
0
  6
Continuous
 62
     7
370
    15
100
AcDbLine
 10
126.5610147875
 20
80.7398246758
 30
0.0
 11
136.0610147875
 21
80.7398246758
 31
0.0
  0
LINE
  5
13A
330
1F
100
AcDbEntity
  8
0
  6
Continuous
 62
     7
370
    15
100
AcDbLine
 10
136.0610147875
 20
76.7398246758
 30
0.0
 11
138.0610147875
 21
76.7398246758
 31
0.0
  0
LINE
  5
13B
330
1F
100
AcDbEntity
  8
0
  6
Continuous
 62
     7
370
    15
100
AcDbLine
 10
136.0610147875
 20
76.7398246758
 30
0.0
 11
136.0610147875
 21
80.7398246758
 31
0.0
  0
LINE
  5
13C
330
1F
100
AcDbEntity
  8
0
  6
Continuous
 62
     7
370
    15
100
AcDbLine
 10
126.5610147875
 20
74.7398246758
 30
0.0
 11
138.0610147875
 21
74.7398246758
 31
0.0
  0
LINE
  5
13D
330
1F
100
AcDbEntity
  8
0
  6
Continuous
 62
     7
370
    15
100
AcDbLine
 10
161.5610147875
 20
80.7398246758
 30
0.0
 11
161.5610147875
 21
74.7398246758
 31
0.0
  0
LINE
  5
13E
330
1F
100
AcDbEntity
  8
0
  6
Continuous
 62
     7
370
    15
100
AcDbLine
 10
156.5610147875
 20
80.7398246758
 30
0.0
 11
161.5610147875
 21
80.7398246758
 31
0.0
  0
LINE
  5
13F
330
1F
100
AcDbEntity
  8
0
  6
Continuous
 62
     7
370
    15
100
AcDbLine
 10
161.5610147875
 20
74.7398246758
 30
0.0
 11
156.5610147875
 21
74.7398246758
 31
0.0
  0
LINE
  5
140
330
1F
100
AcDbEntity
  8
0
  6
Continuous
 62
     7
370
    15
100
AcDbLine
 10
121.5610147875
 20
74.7398246758
 30
0.0
 11
121.5610147875
 21
80.7398246758
 31
0.0
  0
LINE
  5
141
330
1F
100
AcDbEntity
  8
0
  6
Continuous
 62
     7
370
    15
100
AcDbLine
 10
121.5610147875
 20
80.7398246758
 30
0.0
 11
126.5610147875
 21
80.7398246758
 31
0.0
  0
LINE
  5
142
330
1F
100
AcDbEntity
  8
0
  6
Continuous
 62
     7
370
    15
100
AcDbLine
 10
126.5610147875
 20
74.7398246758
 30
0.0
 11
121.5610147875
 21
74.7398246758
 31
0.0
  0
LINE
  5
143
330
1F
100
AcDbEntity
  8
0
  6
Continuous
 62
     7
370
    15
100
AcDbLine
 10
138.0610147875
 20
76.7398246758
 30
0.0
 11
145.0610147875
 21
76.7398246758
 31
0.0
  0
LINE
  5
144
330
1F
100
AcDbEntity
  8
0
  6
Continuous
 62
     7
370
    15
100
AcDbLine
 10
145.0610147875
 20
74.7398246758
 30
0.0
 11
138.0610147875
 21
74.7398246758
 31
0.0
  0
LINE
  5
145
330
1F
100
AcDbEntity
  8
0
  6
Continuous
 62
     7
370
    15
100
AcDbLine
 10
147.0610147875
 20
80.7398246758
 30
0.0
 11
136.0610147875
 21
80.7398246758
 31
0.0
  0
LINE
  5
146
330
1F
100
AcDbEntity
  8
DIM
  6
CENTERX2
 62
     7
100
AcDbLine
 10
125.0610147875
 20
80.7398246758
 30
0.0
 11
125.0610147875
 21
76.7398246758
 31
0.0
  0
LINE
  5
147
330
1F
100
AcDbEntity
  8
DIM
  6
CENTERX2
 62
     7
100
AcDbLine
 10
133.0610147875
 20
76.7398246758
 30
0.0
 11
125.0610147875
 21
76.7398246758
 31
0.0
  0
LINE
  5
148
330
1F
100
AcDbEntity
  8
DIM
  6
CENTERX2
 62
     7
100
AcDbLine
 10
133.0610147875
 20
76.7398246758
 30
0.0
 11
133.0610147875
 21
80.7398246758
 31
0.0
  0
LINE
  5
149
330
1F
100
AcDbEntity
  8
DIM
  6
CENTERX2
 62
     7
100
AcDbLine
 10
126.8110147875
 20
76.7398246758
 30
0.0
 11
126.8110147875
 21
74.7398246758
 31
0.0
  0
LINE
  5
14A
330
1F
100
AcDbEntity
  8
DIM
  6
CENTERX2
 62
     7
100
AcDbLine
 10
131.3110147875
 20
74.7398246758
 30
0.0
 11
131.3110147875
 21
76.7398246758
 31
0.0
  0
LINE
  5
14B
330
1F
100
AcDbEntity
  8
DIM
  6
CENTERX2
 62
     7
100
AcDbLine
 10
150.0610147875
 20
80.7398246758
 30
0.0
 11
150.0610147875
 21
76.7398246758
 31
0.0
  0
LINE
  5
14C
330
1F
100
AcDbEntity
  8
DIM
  6
CENTERX2
 62
     7
100
AcDbLine
 10
151.8110147875
 20
76.7398246758
 30
0.0
 11
151.8110147875
 21
74.7398246758
 31
0.0
  0
LINE
  5
14D
330
1F
100
AcDbEntity
  8
DIM
  6
CENTERX2
 62
     7
100
AcDbLine
 10
158.0610147875
 20
76.7398246758
 30
0.0
 11
150.0610147875
 21
76.7398246758
 31
0.0
  0
LINE
  5
14E
330
1F
100
AcDbEntity
  8
DIM
  6
CENTERX2
 62
     7
100
AcDbLine
 10
156.3110147875
 20
74.7398246758
 30
0.0
 11
156.3110147875
 21
76.7398246758
 31
0.0
  0
LINE
  5
14F
330
1F
100
AcDbEntity
  8
DIM
  6
CENTERX2
 62
     7
100
AcDbLine
 10
158.0610147875
 20
76.7398246758
 30
0.0
 11
158.0610147875
 21
80.7398246758
 31
0.0
  0
DIMENSION
  5
150
330
1F
100
AcDbEntity
  8
DIM
 62
     7
100
AcDbDimension
  2
_D
 10
154.0610147875
 20
66.7398246758
 30
0.0
 11
141.5610147875
 21
66.7398246758
 31
0.0
 70
   160
  1
<>
 71
     2
 42
-1.0
  3
SLDDIMSTYLE0
100
AcDbAlignedDimension
 13
129.0610147875
 23
74.7398246758
 33
0.0
 14
154.0610147875
 24
74.7398246758
 34
0.0
100
AcDbRotatedDimension
  0
DIMENSION
  5
15B
330
1F
100
AcDbEntity
  8
DIM
 62
     7
100
AcDbDimension
  2
_D_1
 10
161.5610147875
 20
60.7398246758
 30
0.0
 11
141.5610147875
 21
60.7398246758
 31
0.0
 70
   160
  1
<>
 71
     2
 42
-1.0
  3
SLDDIMSTYLE0
100
AcDbAlignedDimension
 13
121.5610147875
 23
74.7398246758
 33
0.0
 14
161.5610147875
 24
74.7398246758
 34
0.0
100
AcDbRotatedDimension
  0
DIMENSION
  5
165
330
1F
100
AcDbEntity
  8
DIM
 62
     7
100
AcDbDimension
  2
_D_2
 10
169.3286758183
 20
74.7398246758
 30
0.0
 11
169.3286758183
 21
87.2398246758
 31
0.0
 70
   160
  1
<>
 71
     2
 42
-1.0
  3
SLDDIMSTYLE0
100
AcDbAlignedDimension
 13
141.5610147875
 23
99.7398246758
 33
0.0
 14
161.5610147875
 24
74.7398246758
 34
0.0
 50
90.0
100
AcDbRotatedDimension
  0
DIMENSION
  5
16F
330
1F
100
AcDbEntity
  8
DIM
 62
     7
100
AcDbDimension
  2
_D_3
 10
176.3828652933
 20
74.7398246758
 30
0.0
 11
176.3828652933
 21
106.2398246758
 31
0.0
 70
   160
  1
<>
 71
     2
 42
-1.0
  3
SLDDIMSTYLE0
100
AcDbAlignedDimension
 13
161.5610147875
 23
137.7398246758
 33
0.0
 14
161.5610147875
 24
74.7398246758
 34
0.0
 50
90.0
100
AcDbRotatedDimension
  0
DIMENSION
  5
179
330
1F
100
AcDbEntity
  8
DIM
 62
     7
100
AcDbDimension
  2
_D_4
 10
185.3828652933
 20
143.871407352
 30
0.0
 11
185.3828652933
 21
109.3056160139
 31
0.0
 70
   160
  1
<>\PNOMINAL
 71
     2
 42
-1.0
  3
SLDDIMSTYLE1
100
AcDbAlignedDimension
 13
161.5610147875
 23
74.7398246758
 33
0.0
 14
157.5610147875
 24
143.871407352
 34
0.0
 50
90.0
100
AcDbRotatedDimension
  0
INSERT
  5
190
330
1F
100
AcDbEntity
  8
DIM
 62
     7
100
AcDbBlockReference
  2
SW_NOTE_2
 10
114.0024038462
 20
84.8557692308
 30
0.0
  0
LEADER
  5
192
330
1F
100
AcDbEntity
  8
DIM
 62
     7
100
AcDbLeader
  3
SLDDIMSTYLE2
 76
     2
 10
141.6681091088
 20
74.7398246758
 30
0.0
 10
114.0024038462
 20
84.8557692308
 30
0.0
  0
INSERT
  5
198
102
{ACAD_REACTORS
330
199
102
}
330
1F
100
AcDbEntity
  8
DIM
 62
     7
100
AcDbBlockReference
  2
SW_NOTE_3
 10
169.5120192308
 20
67.6682692308
 30
0.0
  0
LEADER
  5
199
330
1F
100
AcDbEntity
  8
DIM
 62
     7
100
AcDbLeader
  3
SLDDIMSTYLE2
 73
     2
 76
     3
 10
154.0831795667
 20
74.7398246758
 30
0.0
 10
168.5120192308
 20
67.6682692308
 30
0.0
 10
169.5120192308
 20
67.6682692308
 30
0.0
340
198
  0
INSERT
  5
1A0
102
{ACAD_REACTORS
330
1A1
102
}
330
1F
100
AcDbEntity
  8
DIM
 62
     7
100
AcDbBlockReference
  2
SW_NOTE_4
 10
116.3052884615
 20
110.9375
 30
0.0
  0
LEADER
  5
1A1
330
1F
100
AcDbEntity
  8
DIM
 62
     7
100
AcDbLeader
  3
SLDDIMSTYLE2
 73
     2
 76
     3
 10
136.8495246096
 20
102.5774046841
 30
0.0
 10
117.3052884615
 20
110.9375
 30
0.0
 10
116.3052884615
 20
110.9375
 30
0.0
340
1A0
  0
INSERT
  5
1AD
330
1F
100
AcDbEntity
  8
DIM
 62
     7
100
AcDbBlockReference
  2
SW_CENTERMARKSYMBOL_0
 10
141.5610147875
 20
99.7398246758
 30
0.0
  0
LINE
  5
1AE
330
1F
100
AcDbEntity
  8
DIM
  6
CENTERX2
 62
     7
370
     0
100
AcDbLine
 10
129.0610147875
 20
74.7398246758
 30
0.0
 11
129.0610147875
 21
82.7398246758
 31
0.0
  0
LINE
  5
1AF
330
1F
100
AcDbEntity
  8
DIM
  6
CENTERX2
 62
     7
370
     0
100
AcDbLine
 10
154.0610147875
 20
74.7398246758
 30
0.0
 11
154.0610147875
 21
82.7398246758
 31
0.0
  0
LINE
  5
1B0
330
1F
100
AcDbEntity
  8
DIM
  6
CENTERX2
 62
     7
370
     0
100
AcDbLine
 10
141.5610147875
 20
74.7398246758
 30
0.0
 11
141.5610147875
 21
82.7398246758
 31
0.0
  0
LINE
  5
1B1
330
1F
100
AcDbEntity
  8
0
  6
Continuous
 62
     7
370
    15
100
AcDbLine
 10
48.2590223713
 20
137.7398246758
 30
0.0
 11
48.2590223713
 21
143.871407352
 31
0.0
  0
LINE
  5
1B2
330
1F
100
AcDbEntity
  8
0
  6
Continuous
 62
     7
370
    15
100
AcDbLine
 10
42.2590223713
 20
143.871407352
 30
0.0
 11
42.2590223713
 21
137.7398246758
 31
0.0
  0
LINE
  5
1B3
330
1F
100
AcDbEntity
  8
0
  6
Continuous
 62
     7
370
    15
100
AcDbLine
 10
48.2590223713
 20
143.871407352
 30
0.0
 11
42.2590223713
 21
143.871407352
 31
0.0
  0
LINE
  5
1B4
330
1F
100
AcDbEntity
  8
0
  6
Continuous
 62
     7
370
    15
100
AcDbLine
 10
41.7590223713
 20
137.7398246758
 30
0.0
 11
41.7590223713
 21
79.7398246758
 31
0.0
  0
LINE
  5
1B5
330
1F
100
AcDbEntity
  8
0
  6
Continuous
 62
     7
370
    15
100
AcDbLine
 10
41.7590223713
 20
79.7398246758
 30
0.0
 11
39.7590223713
 21
79.7398246758
 31
0.0
  0
LINE
  5
1B6
330
1F
100
AcDbEntity
  8
0
  6
Continuous
 62
     7
370
    15
100
AcDbLine
 10
39.7590223713
 20
79.7398246758
 30
0.0
 11
39.7590223713
 21
137.7398246758
 31
0.0
  0
LINE
  5
1B7
330
1F
100
AcDbEntity
  8
0
  6
Continuous
 62
     7
370
    15
100
AcDbLine
 10
39.7590223713
 20
137.7398246758
 30
0.0
 11
41.7590223713
 21
137.7398246758
 31
0.0
  0
LINE
  5
1B8
330
1F
100
AcDbEntity
  8
0
  6
Continuous
 62
     7
370
    15
100
AcDbLine
 10
58.7590223713
 20
137.7398246758
 30
0.0
 11
58.7590223713
 21
79.7398246758
 31
0.0
  0
CIRCLE
  5
1B9
330
1F
100
AcDbEntity
  8
0
  6
Continuous
 62
     7
370
    15
100
AcDbCircle
 10
44.7590223713
 20
99.7398246758
 30
0.0
 40
1.727200000000003
  0
LINE
  5
1BA
330
1F
100
AcDbEntity
  8
0
  6
Continuous
 62
     7
370
    15
100
AcDbLine
 10
58.7590223713
 20
79.7398246758
 30
0.0
 11
41.7590223713
 21
79.7398246758
 31
0.0
  0
LINE
  5
1BB
330
1F
100
AcDbEntity
  8
0
  6
Continuous
 62
     7
370
    15
100
AcDbLine
 10
58.7590223713
 20
137.7398246758
 30
0.0
 11
41.7590223713
 21
137.7398246758
 31
0.0
  0
LINE
  5
1BC
330
1F
100
AcDbEntity
  8
0
  6
Continuous
 62
     7
370
    15
100
AcDbLine
 10
41.7590223713
 20
79.7398246758
 30
0.0
 11
41.7590223713
 21
74.7398246758
 31
0.0
  0
LINE
  5
1BD
330
1F
100
AcDbEntity
  8
0
  6
Continuous
 62
     7
370
    15
100
AcDbLine
 10
41.7590223713
 20
74.7398246758
 30
0.0
 11
39.7590223713
 21
74.7398246758
 31
0.0
  0
LINE
  5
1BE
330
1F
100
AcDbEntity
  8
0
  6
Continuous
 62
     7
370
    15
100
AcDbLine
 10
39.7590223713
 20
74.7398246758
 30
0.0
 11
39.7590223713
 21
79.7398246758
 31
0.0
  0
LINE
  5
1BF
330
1F
100
AcDbEntity
  8
0
  6
Continuous
 62
     7
370
    15
100
AcDbLine
 10
58.7590223713
 20
79.7398246758
 30
0.0
 11
58.7590223713
 21
80.7398246758
 31
0.0
  0
LINE
  5
1C0
330
1F
100
AcDbEntity
  8
0
  6
Continuous
 62
     7
370
    15
100
AcDbLine
 10
58.7590223713
 20
80.7398246758
 30
0.0
 11
69.7590223713
 21
80.7398246758
 31
0.0
  0
LINE
  5
1C1
330
1F
100
AcDbEntity
  8
0
  6
Continuous
 62
     7
370
    15
100
AcDbLine
 10
69.7590223713
 20
74.7398246758
 30
0.0
 11
69.7590223713
 21
80.7398246758
 31
0.0
  0
LINE
  5
1C2
330
1F
100
AcDbEntity
  8
0
  6
Continuous
 62
     7
370
    15
100
AcDbLine
 10
41.7590223713
 20
74.7398246758
 30
0.0
 11
69.7590223713
 21
74.7398246758
 31
0.0
  0
LINE
  5
1C3
330
1F
100
AcDbEntity
  8
0
  6
Continuous
 62
     7
370
    15
100
AcDbLine
 10
74.7590223713
 20
80.7398246758
 30
0.0
 11
74.7590223713
 21
74.7398246758
 31
0.0
  0
LINE
  5
1C4
330
1F
100
AcDbEntity
  8
0
  6
Continuous
 62
     7
370
    15
100
AcDbLine
 10
69.7590223713
 20
80.7398246758
 30
0.0
 11
74.7590223713
 21
80.7398246758
 31
0.0
  0
LINE
  5
1C5
330
1F
100
AcDbEntity
  8
0
  6
Continuous
 62
     7
370
    15
100
AcDbLine
 10
74.7590223713
 20
74.7398246758
 30
0.0
 11
69.7590223713
 21
74.7398246758
 31
0.0
  0
LINE
  5
1C6
330
1F
100
AcDbEntity
  8
DIM
  6
CENTERX2
 62
     7
100
AcDbLine
 10
64.5090223713
 20
76.7398246758
 30
0.0
 11
64.5090223713
 21
74.7398246758
 31
0.0
  0
LINE
  5
1C7
330
1F
100
AcDbEntity
  8
DIM
  6
CENTERX2
 62
     7
100
AcDbLine
 10
69.0090223713
 20
74.7398246758
 30
0.0
 11
69.0090223713
 21
76.7398246758
 31
0.0
  0
LINE
  5
1C8
330
1F
100
AcDbEntity
  8
DIM
  6
CENTERX2
 62
     7
100
AcDbLine
 10
70.7590223713
 20
76.7398246758
 30
0.0
 11
70.7590223713
 21
80.7398246758
 31
0.0
  0
LINE
  5
1C9
330
1F
100
AcDbEntity
  8
DIM
  6
CENTERX2
 62
     7
100
AcDbLine
 10
62.7590223713
 20
80.7398246758
 30
0.0
 11
62.7590223713
 21
76.7398246758
 31
0.0
  0
LINE
  5
1CA
330
1F
100
AcDbEntity
  8
DIM
  6
CENTERX2
 62
     7
100
AcDbLine
 10
70.7590223713
 20
76.7398246758
 30
0.0
 11
62.7590223713
 21
76.7398246758
 31
0.0
  0
DIMENSION
  5
1CB
330
1F
100
AcDbEntity
  8
DIM
 62
     7
100
AcDbDimension
  2
_D_5
 10
39.7590223713
 20
63.3769743259
 30
0.0
 11
49.2590223713
 21
63.3769743259
 31
0.0
 70
   160
  1
<>
 71
     2
 42
-1.0
  3
SLDDIMSTYLE0
100
AcDbAlignedDimension
 13
58.7590223713
 23
79.7398246758
 33
0.0
 14
39.7590223713
 24
79.7398246758
 34
0.0
100
AcDbRotatedDimension
  0
DIMENSION
  5
1D5
330
1F
100
AcDbEntity
  8
DIM
 62
     7
100
AcDbDimension
  2
_D_6
 10
44.7590223713
 20
68.4104524729
 30
0.0
 11
42.2590223713
 21
68.4104524729
 31
0.0
 70
   160
  1
<>
 71
     2
 42
-1.0
  3
SLDDIMSTYLE3
100
AcDbAlignedDimension
 13
39.7590223713
 23
79.7398246758
 33
0.0
 14
44.7590223713
 24
99.7398246758
 34
0.0
100
AcDbRotatedDimension
  0
DIMENSION
  5
1E2
330
1F
100
AcDbEntity
  8
DIM
 62
     7
100
AcDbDimension
  2
_D_7
 10
39.7590223713
 20
58.4302163806
 30
0.0
 11
53.2590223713
 21
58.4302163806
 31
0.0
 70
   160
  1
<>
 71
     2
 42
-1.0
  3
SLDDIMSTYLE0
100
AcDbAlignedDimension
 13
66.7590223713
 23
72.7398246758
 33
0.0
 14
39.7590223713
 24
74.7398246758
 34
0.0
100
AcDbRotatedDimension
  0
DIMENSION
  5
1EC
330
1F
100
AcDbEntity
  8
DIM
 62
     7
100
AcDbDimension
  2
_D_8
 10
74.7590223713
 20
53.4617895504
 30
0.0
 11
57.2590223713
 21
53.4617895504
 31
0.0
 70
   160
  1
<>
 71
     2
 42
-1.0
  3
SLDDIMSTYLE0
100
AcDbAlignedDimension
 13
39.7590223713
 23
74.7398246758
 33
0.0
 14
74.7590223713
 24
74.7398246758
 34
0.0
100
AcDbRotatedDimension
  0
DIMENSION
  5
1F6
330
1F
100
AcDbEntity
  8
DIM
 62
     7
100
AcDbDimension
  2
_D_9
 10
82.7590223713
 20
74.7398246758
 30
0.0
 11
82.7590223713
 21
77.7398246758
 31
0.0
 70
   160
  1
<>
 71
     2
 42
-1.0
  3
SLDDIMSTYLE0
100
AcDbAlignedDimension
 13
74.7590223713
 23
80.7398246758
 33
0.0
 14
74.7590223713
 24
74.7398246758
 34
0.0
 50
90.0
100
AcDbRotatedDimension
  0
DIMENSION
  5
200
330
1F
100
AcDbEntity
  8
DIM
 62
     7
100
AcDbDimension
  2
_D_10
 10
33.1725473224
 20
74.7398246758
 30
0.0
 11
33.1725473224
 21
87.2398246758
 31
0.0
 70
   160
  1
<>
 71
     2
 42
-1.0
  3
SLDDIMSTYLE0
100
AcDbAlignedDimension
 13
44.7590223713
 23
99.7398246758
 33
0.0
 14
39.7590223713
 24
74.7398246758
 34
0.0
 50
90.0
100
AcDbRotatedDimension
  0
DIMENSION
  5
20A
330
1F
100
AcDbEntity
  8
DIM
100
AcDbDimension
  2
_D_11
 10
43.4117402005
 20
98.659060783
 30
0.0
 11
71.9062607747
 21
119.0684813157
 31
0.0
 70
   163
  1
1 HOLE,\P M4
 71
     1
 42
-1.0
  3
SLDDIMSTYLE4
100
AcDbDiametricDimension
 15
46.1063045422
 25
100.8205885687
 35
0.0
 40
0.0
  0
INSERT
  5
21F
330
1F
100
AcDbEntity
  8
DIM
 62
     7
100
AcDbBlockReference
  2
SW_CENTERMARKSYMBOL_1
 10
44.7590223713
 20
99.7398246758
 30
0.0
  0
LINE
  5
220
330
1F
100
AcDbEntity
  8
DIM
  6
CENTERX2
 62
     7
370
     0
100
AcDbLine
 10
66.7590223713
 20
72.7398246758
 30
0.0
 11
66.7590223713
 21
82.0114656632
 31
0.0
  0
LINE
  5
221
330
1F
100
AcDbEntity
  8
0
  6
Continuous
 62
     7
370
    15
100
AcDbLine
 10
243.8694008743
 20
145.7111803386
 30
0.0
 11
243.5817558032
 21
145.5451263737
 31
0.0
  0
LINE
  5
222
330
1F
100
AcDbEntity
  8
0
  6
Continuous
 62
     7
370
    15
100
AcDbLine
 10
239.6267601871
 20
148.1604046741
 30
0.0
 11
239.3391151161
 21
147.9943507091
 31
0.0
  0
LINE
  5
223
330
1F
100
AcDbEntity
  8
0
  6
Continuous
 62
     7
370
    15
100
AcDbLine
 10
239.4497642913
 20
173.7492961363
 30
0.0
 11
239.4497642913
 21
178.7559836329
 31
0.0
  0
LINE
  5
224
330
1F
100
AcDbEntity
  8
0
  6
Continuous
 62
     7
370
    15
100
AcDbLine
 10
233.4497642913
 20
178.7559836329
 30
0.0
 11
233.4497642913
 21
173.7492961363
 31
0.0
  0
LINE
  5
225
330
1F
100
AcDbEntity
  8
0
  6
Continuous
 62
     7
370
    15
100
AcDbLine
 10
257.8345406021
 20
163.1359906826
 30
0.0
 11
257.8345406021
 21
168.1426781792
 31
0.0
  0
LINE
  5
226
330
1F
100
AcDbEntity
  8
0
  6
Continuous
 62
     7
370
    15
100
AcDbLine
 10
251.8345406021
 20
168.1426781792
 30
0.0
 11
251.8345406021
 21
163.1359906826
 31
0.0
  0
LINE
  5
227
330
1F
100
AcDbEntity
  8
0
  6
Continuous
 62
     7
370
    15
100
AcDbLine
 10
258.1938435722
 20
164.6663744308
 30
0.0
 11
257.8402327333
 21
164.8705759785
 31
0.0
  0
LINE
  5
228
330
1F
100
AcDbEntity
  8
0
  6
Continuous
 62
     7
370
    15
100
AcDbLine
 10
251.828848471
 20
164.8705759785
 30
0.0
 11
251.4752376321
 21
164.6663744308
 31
0.0
  0
LINE
  5
229
330
1F
100
AcDbEntity
  8
0
  6
Continuous
 62
     7
370
    15
100
AcDbLine
 10
239.8090672614
 20
175.2796798845
 30
0.0
 11
239.4554564224
 21
175.4838814322
 31
0.0
  0
LINE
  5
22A
330
1F
100
AcDbEntity
  8
0
  6
Continuous
 62
     7
370
    15
100
AcDbLine
 10
233.4440721602
 20
175.4838814322
 30
0.0
 11
233.0904613212
 21
175.2796798845
 31
0.0
  0
LINE
  5
22B
330
1F
100
AcDbEntity
  8
0
  6
Continuous
 62
     7
370
    15
100
AcDbLine
 10
247.2027719848
 20
112.6661159237
 30
0.0
 11
248.8241329621
 21
113.6021076927
 31
0.0
  0
LINE
  5
22C
330
1F
100
AcDbEntity
  8
0
  6
Continuous
 62
     7
370
    15
100
AcDbLine
 10
227.6277090655
 20
152.6634788705
 30
0.0
 11
224.9896498166
 21
151.1405596824
 31
0.0
  0
LINE
  5
22D
330
1F
100
AcDbEntity
  8
0
  6
Continuous
 62
     7
370
    15
100
AcDbLine
 10
262.8449482422
 20
115.1643175094
 30
0.0
 11
262.8449482422
 21
162.5236845988
 31
0.0
  0
LINE
  5
22E
330
1F
100
AcDbEntity
  8
0
  6
Continuous
 62
     7
370
    15
100
AcDbLine
 10
262.8449482422
 20
111.08161345
 30
0.0
 11
262.8449482422
 21
115.1643175094
 31
0.0
  0
LINE
  5
22F
330
1F
100
AcDbEntity
  8
0
  6
Continuous
 62
     7
370
    15
100
AcDbLine
 10
212.7114345899
 20
118.0218786008
 30
0.0
 11
212.7114345899
 21
113.1226337295
 31
0.0
  0
LWPOLYLINE
  5
230
330
1F
100
AcDbEntity
  8
0
  6
Continuous
 62
     7
370
    15
100
AcDbPolyline
 90
       29
 70
   128
 43
0.0
 10
238.0040528101
 20
177.2746823517
 10
237.3941021544
 20
177.112159939
 10
236.7367984551
 20
177.0320657104
 10
236.0651016643
 20
177.0384159249
 10
235.4126934637
 20
177.1308921562
 10
234.8122883249
 20
177.3048572599
 10
234.2939930686
 20
177.5515878993
 10
233.8837971831
 20
177.8587119699
 10
233.6022696029
 20
178.2108289884
 10
233.4635272965
 20
178.5902823371
 10
233.4745273825
 20
178.9780446408
 10
233.6347182706
 20
179.3546718782
 10
233.9360673208
 20
179.7012783871
 10
234.3634636333
 20
180.0004838698
 10
234.8954757725
 20
180.237284914
 10
235.5054264282
 20
180.3998073267
 10
236.1627301275
 20
180.4799015553
 10
236.8344269183
 20
180.4735513408
 10
237.4868351189
 20
180.3810751096
 10
238.0872402576
 20
180.2071100059
 10
238.605535514
 20
179.9603793664
 10
239.0157313995
 20
179.6532552958
 10
239.2972589797
 20
179.3011382773
 10
239.436001286
 20
178.9216849286
 10
239.4250012001
 20
178.533922625
 10
239.264810312
 20
178.1572953876
 10
238.9634612618
 20
177.8106888787
 10
238.5360649493
 20
177.5114833959
 10
238.0040528101
 20
177.2746823517
  0
LINE
  5
231
330
1F
100
AcDbEntity
  8
0
  6
Continuous
 62
     7
370
    15
100
AcDbLine
 10
235.8935648868
 20
178.1718165141
 30
0.0
 11
237.0480102211
 21
178.1858305039
 31
0.0
  0
LINE
  5
232
330
1F
100
AcDbEntity
  8
0
  6
Continuous
 62
     7
370
    15
100
AcDbLine
 10
237.0480102211
 20
178.1858305039
 30
0.0
 11
237.6042096256
 21
178.7699976227
 31
0.0
  0
LINE
  5
233
330
1F
100
AcDbEntity
  8
0
  6
Continuous
 62
     7
370
    15
100
AcDbLine
 10
237.6042096256
 20
178.7699976227
 30
0.0
 11
237.0059636958
 21
179.3401507517
 31
0.0
  0
LINE
  5
234
330
1F
100
AcDbEntity
  8
0
  6
Continuous
 62
     7
370
    15
100
AcDbLine
 10
237.0059636958
 20
179.3401507517
 30
0.0
 11
235.8515183615
 21
179.3261367618
 31
0.0
  0
LINE
  5
235
330
1F
100
AcDbEntity
  8
0
  6
Continuous
 62
     7
370
    15
100
AcDbLine
 10
235.8515183615
 20
179.3261367618
 30
0.0
 11
235.295318957
 21
178.741969643
 31
0.0
  0
LINE
  5
236
330
1F
100
AcDbEntity
  8
0
  6
Continuous
 62
     7
370
    15
100
AcDbLine
 10
235.295318957
 20
178.741969643
 30
0.0
 11
235.8935648868
 21
178.1718165141
 31
0.0
  0
LINE
  5
237
330
1F
100
AcDbEntity
  8
0
  6
Continuous
 62
     7
370
    15
100
AcDbLine
 10
235.8515183615
 20
178.2118885928
 30
0.0
 11
235.8515183615
 21
179.3261367618
 31
0.0
  0
LINE
  5
238
330
1F
100
AcDbEntity
  8
0
  6
Continuous
 62
     7
370
    15
100
AcDbLine
 10
237.0059636958
 20
178.1853200947
 30
0.0
 11
237.0059636958
 21
179.3401507517
 31
0.0
  0
LWPOLYLINE
  5
239
330
1F
100
AcDbEntity
  8
0
  6
Continuous
 62
     7
370
    15
100
AcDbPolyline
 90
       29
 70
   128
 43
0.0
 10
252.7892430093
 20
166.8756983054
 10
252.3521536785
 20
167.1702002032
 10
252.0395415937
 20
167.5134662074
 10
251.86708243
 20
167.8882835272
 10
251.8434240102
 20
168.2758572571
 10
251.969752666
 20
168.656752832
 10
252.2397337513
 20
169.0118705572
 10
252.6398292871
 20
169.3234033471
 10
253.1499768125
 20
169.5757296468
 10
253.7445954004
 20
169.756196762
 10
254.393868392
 20
169.8557553181
 10
255.0652385283
 20
169.8694130331
 10
255.7250405073
 20
169.7964850524
 10
256.3401891026
 20
169.6406282894
 10
256.879838195
 20
169.4096580529
 10
257.3169275258
 20
169.1151561552
 10
257.6295396106
 20
168.771890151
 10
257.8019987743
 20
168.3970728311
 10
257.8256571941
 20
168.0094991012
 10
257.6993285383
 20
167.6286035263
 10
257.429347453
 20
167.2734858012
 10
257.0292519172
 20
166.9619530112
 10
256.5191043918
 20
166.7096267115
 10
255.9244858039
 20
166.5291595963
 10
255.2752128123
 20
166.4296010403
 10
254.603842676
 20
166.4159433252
 10
253.944040697
 20
166.4888713059
 10
253.3288921017
 20
166.6447280689
 10
252.7892430093
 20
166.8756983054
  0
LINE
  5
23A
330
1F
100
AcDbEntity
  8
0
  6
Continuous
 62
     7
370
    15
100
AcDbLine
 10
253.7093524585
 20
168.2924228448
 30
0.0
 11
254.0473051916
 21
167.6550173984
 31
0.0
  0
LINE
  5
23B
330
1F
100
AcDbEntity
  8
0
  6
Continuous
 62
     7
370
    15
100
AcDbLine
 10
254.0473051916
 20
167.6550173984
 30
0.0
 11
255.1724933352
 21
167.5052727328
 31
0.0
  0
LINE
  5
23C
330
1F
100
AcDbEntity
  8
0
  6
Continuous
 62
     7
370
    15
100
AcDbLine
 10
255.1724933352
 20
167.5052727328
 30
0.0
 11
255.9597287458
 21
167.9929335136
 31
0.0
  0
LINE
  5
23D
330
1F
100
AcDbEntity
  8
0
  6
Continuous
 62
     7
370
    15
100
AcDbLine
 10
255.9597287458
 20
167.9929335136
 30
0.0
 11
255.6217760127
 21
168.63033896
 31
0.0
  0
LINE
  5
23E
330
1F
100
AcDbEntity
  8
0
  6
Continuous
 62
     7
370
    15
100
AcDbLine
 10
255.6217760127
 20
168.63033896
 30
0.0
 11
254.4965878691
 21
168.7800836255
 31
0.0
  0
LINE
  5
23F
330
1F
100
AcDbEntity
  8
0
  6
Continuous
 62
     7
370
    15
100
AcDbLine
 10
254.4965878691
 20
168.7800836255
 30
0.0
 11
253.7093524585
 21
168.2924228448
 31
0.0
  0
LINE
  5
240
330
1F
100
AcDbEntity
  8
0
  6
Continuous
 62
     7
370
    15
100
AcDbLine
 10
255.6217760127
 20
167.7835853422
 30
0.0
 11
255.6217760127
 21
168.63033896
 31
0.0
  0
LINE
  5
241
330
1F
100
AcDbEntity
  8
0
  6
Continuous
 62
     7
370
    15
100
AcDbLine
 10
254.4965878691
 20
167.595225012
 30
0.0
 11
254.4965878691
 21
168.7800836255
 31
0.0
  0
LWPOLYLINE
  5
242
330
1F
100
AcDbEntity
  8
0
  6
Continuous
 62
     7
370
    15
100
AcDbPolyline
 90
       17
 70
   128
 43
0.0
 10
252.40668287
 20
161.1222569931
 10
253.1107162971
 20
160.8933984567
 10
253.877053226
 20
160.7455930465
 10
254.6779962433
 20
160.6841828349
 10
255.4845971816
 20
160.711387347
 10
256.2677033815
 20
160.826223341
 10
256.9990113444
 20
161.0245403447
 10
257.6520896952
 20
161.299170665
 10
258.2033344808
 20
161.6401884465
 10
258.6328222783
 20
162.035268418
 10
258.9250302796
 20
162.4701313602
 10
259.0693973264
 20
162.9290601931
 10
259.0607056173
 20
163.3954680331
 10
258.8992692935
 20
163.8524976855
 10
258.5909230841
 20
164.283630908
 10
258.1468114247
 20
164.6732854227
 10
257.8402327333
 20
164.8705759785
  0
LWPOLYLINE
  5
243
330
1F
100
AcDbEntity
  8
0
  6
Continuous
 62
     7
370
    15
100
AcDbPolyline
 90
       11
 70
   128
 43
0.0
 10
251.828848471
 20
164.8705759785
 10
251.727299287
 20
164.809881316
 10
251.234702479
 20
164.440158305
 10
250.8722132001
 20
164.0232992782
 10
250.6529327572
 20
163.5743706069
 10
250.5847865169
 20
163.1095977429
 10
250.6702374618
 20
162.6457787886
 10
250.9061971723
 20
162.1996773693
 10
251.2841374495
 20
161.7874167527
 10
251.7903985471
 20
161.4238971117
 10
252.40668287
 20
161.1222569931
  0
ARC
  5
244
330
1F
100
AcDbEntity
  8
0
  6
Continuous
 62
     7
370
    15
100
AcDbCircle
 10
252.5525631673
 20
162.3965302638
 30
0.0
 40
2.512533154339864
100
AcDbArc
 50
115.3902003804
 51
167.6981489776
  0
ARC
  5
245
330
1F
100
AcDbEntity
  8
0
  6
Continuous
 62
     7
370
    15
100
AcDbCircle
 10
257.1380739755
 20
162.4136495132
 30
0.0
 40
2.487854295607353
100
AcDbArc
 50
12.0224148673
 51
64.8892357747
  0
LWPOLYLINE
  5
246
330
1F
100
AcDbEntity
  8
0
  6
Continuous
 62
     7
370
    15
100
AcDbPolyline
 90
       11
 70
   128
 43
0.0
 10
253.1207586736
 20
161.7145316076
 10
253.7116414254
 20
161.5300205257
 10
254.3588310307
 20
161.4260394934
 10
255.0298747004
 20
161.4078025538
 10
255.6911235027
 20
161.4762241833
 10
256.3094196616
 20
161.6278734356
 10
256.8537592259
 20
161.8551459841
 10
257.2968467369
 20
162.1466454341
 10
257.6164639366
 20
162.487754786
 10
257.796583884
 20
162.8613693926
 10
257.8345406021
 20
163.1359906826
  0
ARC
  5
247
330
1F
100
AcDbEntity
  8
0
  6
Continuous
 62
     7
370
    15
100
AcDbCircle
 10
253.5339582344
 20
163.3810700247
 30
0.0
 40
1.716998594247455
100
AcDbArc
 50
188.2062595833
 51
256.0749606155
  0
LWPOLYLINE
  5
248
330
1F
100
AcDbEntity
  8
0
  6
Continuous
 62
     7
370
    15
100
AcDbPolyline
 90
       17
 70
   128
 43
0.0
 10
234.0219065592
 20
171.7355624468
 10
234.7259399863
 20
171.5067039104
 10
235.4922769151
 20
171.3588985002
 10
236.2932199324
 20
171.2974882886
 10
237.0998208708
 20
171.3246928007
 10
237.8829270706
 20
171.4395287947
 10
238.6142350335
 20
171.6378457984
 10
239.2673133844
 20
171.9124761187
 10
239.8185581699
 20
172.2534939002
 10
240.2480459674
 20
172.6485738717
 10
240.5402539688
 20
173.0834368139
 10
240.6846210156
 20
173.5423656468
 10
240.6759293065
 20
174.0087734867
 10
240.5144929826
 20
174.4658031392
 10
240.2061467733
 20
174.8969363617
 10
239.7620351139
 20
175.2865908764
 10
239.4554564224
 20
175.4838814322
  0
LWPOLYLINE
  5
249
330
1F
100
AcDbEntity
  8
0
  6
Continuous
 62
     7
370
    15
100
AcDbPolyline
 90
       11
 70
   128
 43
0.0
 10
233.4440721602
 20
175.4838814322
 10
233.3425229762
 20
175.4231867697
 10
232.8499261682
 20
175.0534637587
 10
232.4874368892
 20
174.6366047319
 10
232.2681564463
 20
174.1876760606
 10
232.200010206
 20
173.7229031966
 10
232.285461151
 20
173.2590842423
 10
232.5214208614
 20
172.812982823
 10
232.8993611386
 20
172.4007222064
 10
233.4056222362
 20
172.0372025654
 10
234.0219065592
 20
171.7355624468
  0
ARC
  5
24A
330
1F
100
AcDbEntity
  8
0
  6
Continuous
 62
     7
370
    15
100
AcDbCircle
 10
234.1677868565
 20
173.0098357175
 30
0.0
 40
2.512533154338135
100
AcDbArc
 50
115.3902003804
 51
167.6981489776
  0
ARC
  5
24B
330
1F
100
AcDbEntity
  8
0
  6
Continuous
 62
     7
370
    15
100
AcDbCircle
 10
238.7532976646
 20
173.0269549669
 30
0.0
 40
2.487854295607461
100
AcDbArc
 50
12.0224148673
 51
64.8892357747
  0
LWPOLYLINE
  5
24C
330
1F
100
AcDbEntity
  8
0
  6
Continuous
 62
     7
370
    15
100
AcDbPolyline
 90
       11
 70
   128
 43
0.0
 10
234.7359823627
 20
172.3278370613
 10
235.3268651145
 20
172.1433259794
 10
235.9740547199
 20
172.039344947
 10
236.6450983895
 20
172.0211080075
 10
237.3063471919
 20
172.089529637
 10
237.9246433508
 20
172.2411788893
 10
238.4689829151
 20
172.4684514378
 10
238.9120704261
 20
172.7599508878
 10
239.2316876258
 20
173.1010602397
 10
239.4118075732
 20
173.4746748462
 10
239.4497642913
 20
173.7492961363
  0
ARC
  5
24D
330
1F
100
AcDbEntity
  8
0
  6
Continuous
 62
     7
370
    15
100
AcDbCircle
 10
235.1491819235
 20
173.9943754784
 30
0.0
 40
1.716998594247666
100
AcDbArc
 50
188.2062595833
 51
256.0749606155
  0
LINE
  5
24E
330
1F
100
AcDbEntity
  8
0
  6
Continuous
 62
     7
370
    15
100
AcDbLine
 10
237.2515513718
 20
150.5332618496
 30
0.0
 11
236.0965211723
 21
149.8662603482
 31
0.0
  0
ARC
  5
24F
330
1F
100
AcDbEntity
  8
0
  6
Continuous
 62
     7
370
    15
100
AcDbCircle
 10
249.4717198716
 20
139.6248547748
 30
0.0
 40
12.96996554506206
100
AcDbArc
 50
190.7447515927
 51
229.2498718746
  0
LWPOLYLINE
  5
250
330
1F
100
AcDbEntity
  8
0
  6
Continuous
 62
     7
370
    15
100
AcDbPolyline
 90
        7
 70
   128
 43
0.0
 10
240.8011587773
 20
147.150330869
 10
240.7800010359
 20
147.2297010799
 10
240.6267195535
 20
147.5830935009
 10
240.3973176035
 20
147.892528226
 10
240.1267195535
 20
148.1108966236
 10
239.8561215034
 20
148.2049540845
 10
239.6267601871
 20
148.1604046741
  0
LWPOLYLINE
  5
251
330
1F
100
AcDbEntity
  8
0
  6
Continuous
 62
     7
370
    15
100
AcDbPolyline
 90
        7
 70
   128
 43
0.0
 10
245.0437994644
 20
144.7011065335
 10
245.022641723
 20
144.7804767445
 10
244.8693602406
 20
145.1338691654
 10
244.6399582907
 20
145.4433038906
 10
244.3693602406
 20
145.6616722881
 10
244.0987621905
 20
145.755729749
 10
243.8694008743
 20
145.7111803386
  0
ARC
  5
252
330
1F
100
AcDbEntity
  8
0
  6
Continuous
 62
     7
370
    15
100
AcDbCircle
 10
249.7735433992
 20
139.7990937885
 30
0.0
 40
13.07225395235356
100
AcDbArc
 50
192.3764911437
 51
227.6181323236
  0
LWPOLYLINE
  5
253
330
1F
100
AcDbEntity
  8
0
  6
Continuous
 62
     7
370
    15
100
AcDbPolyline
 90
        3
 70
   128
 43
0.0
 10
234.0626047013
 20
151.5849205453
 10
234.2205790811
 20
151.166166806
 10
234.2834625694
 20
150.9129168009
  0
ARC
  5
254
330
1F
100
AcDbEntity
  8
0
  6
Continuous
 62
     7
370
    15
100
AcDbCircle
 10
226.3177185031
 20
126.2563513716
 30
0.0
 40
1.536804807571969
100
AcDbArc
 50
182.6054784857
 51
237.39452166
  0
LINE
  5
255
330
1F
100
AcDbEntity
  8
0
  6
Continuous
 62
     7
370
    15
100
AcDbLine
 10
224.7825024017
 20
150.6827148759
 30
0.0
 11
224.7825024017
 21
126.1864905193
 31
0.0
  0
ARC
  5
256
330
1F
100
AcDbEntity
  8
0
  6
Continuous
 62
     7
370
    15
100
AcDbCircle
 10
225.2135767691
 20
150.7526420728
 30
0.0
 40
0.4367091974284936
100
AcDbArc
 50
50.7967147643
 51
189.2140369905
  0
LINE
  5
257
330
1F
100
AcDbEntity
  8
0
  6
Continuous
 62
     7
370
    15
100
AcDbLine
 10
246.7028126185
 20
138.8449299545
 30
0.0
 11
225.4896091829
 21
151.0910516319
 31
0.0
  0
ARC
  5
258
330
1F
100
AcDbEntity
  8
0
  6
Continuous
 62
     7
370
    15
100
AcDbCircle
 10
245.8747032983
 20
137.5503242345
 30
0.0
 40
1.5368048075722
100
AcDbArc
 50
2.6054784857
 51
57.39452166
  0
LINE
  5
259
330
1F
100
AcDbEntity
  8
0
  6
Continuous
 62
     7
370
    15
100
AcDbLine
 10
247.4099193997
 20
113.1239607302
 30
0.0
 11
247.4099193997
 21
137.6201850867
 31
0.0
  0
ARC
  5
25A
330
1F
100
AcDbEntity
  8
0
  6
Continuous
 62
     7
370
    15
100
AcDbCircle
 10
246.9788450323
 20
113.0540335333
 30
0.0
 40
0.4367091974284958
100
AcDbArc
 50
230.7967147643
 51
9.2140369905
  0
LINE
  5
25B
330
1F
100
AcDbEntity
  8
0
  6
Continuous
 62
     7
370
    15
100
AcDbLine
 10
225.4896091829
 20
124.9617456515
 30
0.0
 11
246.7028126185
 21
112.7156239742
 31
0.0
  0
LWPOLYLINE
  5
25C
330
1F
100
AcDbEntity
  8
0
  6
Continuous
 62
     7
370
    15
100
AcDbPolyline
 90
       35
 70
   128
 43
0.0
 10
238.8674921928
 20
125.5675744574
 10
239.4486841258
 20
125.762862827
 10
239.9547429874
 20
126.0957668355
 10
240.3743273726
 20
126.5588256925
 10
240.6980338763
 20
127.1416616761
 10
240.9186078355
 20
127.8312127111
 10
241.0311059148
 20
128.612025106
 10
241.0330068931
 20
129.4665998892
 10
240.9242681673
 20
130.3757849829
 10
240.7073267067
 20
131.3192044247
 10
240.3870444376
 20
132.2757150179
 10
239.9705992819
 20
133.2238801772
 10
239.4673242906
 20
134.1424503486
 10
238.8884984788
 20
135.0108392384
 10
238.2470940487
 20
135.8095851776
 10
237.557485667
 20
136.5207872818
 10
236.8351283104
 20
137.1285066321
 10
236.0962109007
 20
137.6191234862
 10
235.357293491
 20
137.9816425138
 10
234.6349361344
 20
138.2079392148
 10
233.9453277527
 20
138.2929420005
 10
233.3039233226
 20
138.2347458533
 10
232.7250975108
 20
138.0346550207
 10
232.2218225195
 20
137.6971537859
 10
231.8053773638
 20
137.2298059688
 10
231.4850950947
 20
136.6430854123
 10
231.2681536341
 20
135.9501412495
 10
231.1594149083
 20
135.1665032162
 10
231.1613158866
 20
134.3097336101
 10
231.273813966
 20
133.3990336975
 10
231.4943879251
 20
132.4548133901
 10
231.8180944288
 20
131.4982338327
 10
232.237678814
 20
130.5507331563
 10
232.7437376756
 20
129.6335460229
 10
233.3249296086
 20
128.7672277308
  0
LWPOLYLINE
  5
25D
330
1F
100
AcDbEntity
  8
0
  6
Continuous
 62
     7
370
    15
100
AcDbPolyline
 90
       15
 70
   128
 43
0.0
 10
233.3249296086
 20
128.7672277308
 10
233.4877556336
 20
128.063613917
 10
233.7500962453
 20
127.3507302217
 10
234.1019429463
 20
126.6557737093
 10
234.5298725129
 20
126.0052575085
 10
235.0175591009
 20
125.4239993157
 10
235.5463970896
 20
124.9341745806
 10
236.0962109007
 20
124.5544704961
 10
236.6460247118
 20
124.2993730665
 10
237.1748627005
 20
124.1786144564
 10
237.6625492885
 20
124.1968017
 10
238.0904788551
 20
124.3532409399
 10
238.4423255561
 20
124.6419638982
 10
238.7046661678
 20
125.0519555705
 10
238.8674921928
 20
125.5675744574
  0
LINE
  5
25E
330
1F
100
AcDbEntity
  8
0
  6
Continuous
 62
     7
370
    15
100
AcDbLine
 10
245.4056504457
 20
144.4922144084
 30
0.0
 11
232.4431658689
 21
151.9752974727
 31
0.0
  0
LWPOLYLINE
  5
25F
330
1F
100
AcDbEntity
  8
0
  6
Continuous
 62
     7
370
    15
100
AcDbPolyline
 90
       21
 70
   128
 43
0.0
 10
236.6972516647
 20
145.3149642407
 10
237.1148935291
 20
145.1397951886
 10
237.6058609864
 20
145.047703368
 10
238.122094721
 20
145.047703368
 10
238.6130621782
 20
145.1397951886
 10
239.0307040426
 20
145.3149642407
 10
239.3341386186
 20
145.5560637571
 10
239.4936636157
 20
145.8394932372
 10
239.4936636157
 20
146.1375086288
 10
239.3341386186
 20
146.4209381089
 10
239.0307040426
 20
146.6620376252
 10
238.6130621782
 20
146.8372066774
 10
238.122094721
 20
146.9292984979
 10
237.6058609864
 20
146.9292984979
 10
237.1148935291
 20
146.8372066774
 10
236.6972516647
 20
146.6620376252
 10
236.3938170888
 20
146.4209381089
 10
236.2342920917
 20
146.1375086288
 10
236.2342920917
 20
145.8394932372
 10
236.3938170888
 20
145.5560637571
 10
236.6972516647
 20
145.3149642407
  0
LINE
  5
260
330
1F
100
AcDbEntity
  8
0
  6
Continuous
 62
     7
370
    15
100
AcDbLine
 10
233.3249296086
 20
128.7672277308
 30
0.0
 11
236.8604635145
 21
130.8082480103
 31
0.0
  0
LINE
  5
261
330
1F
100
AcDbEntity
  8
0
  6
Continuous
 62
     7
370
    15
100
AcDbLine
 10
240.196979813
 20
126.3350713239
 30
0.0
 11
238.8674921928
 21
125.5675744574
 31
0.0
  0
ARC
  5
262
330
1F
100
AcDbEntity
  8
0
  6
Continuous
 62
     7
370
    15
100
AcDbCircle
 10
244.0640307867
 20
136.7365389026
 30
0.0
 40
9.32930942508063
100
AcDbArc
 50
171.2468769423
 51
219.453218734
  0
LWPOLYLINE
  5
263
330
1F
100
AcDbEntity
  8
0
  6
Continuous
 62
     7
370
    15
100
AcDbPolyline
 90
       16
 70
   128
 43
0.0
 10
236.0088237694
 20
137.668680145
 10
235.9533789871
 20
137.5260504959
 10
235.7956995918
 20
136.8980499502
 10
235.7426575101
 20
136.1894803901
 10
235.7956995918
 20
135.419669746
 10
235.9533789871
 20
134.6096164456
 10
236.2113946132
 20
133.7814166313
 10
236.5627084764
 20
132.957661435
 10
236.9977376503
 20
132.1608207511
 10
237.504615673
 20
131.4126303163
 10
238.0695162335
 20
130.7334988152
 10
238.6770303171
 20
130.1419511849
 10
239.3105865232
 20
129.6541233026
 10
239.9529030901
 20
129.2833218412
 10
240.5864592962
 20
129.0396612982
 10
241.0451726366
 20
128.9445227417
  0
ARC
  5
264
330
1F
100
AcDbEntity
  8
0
  6
Continuous
 62
     7
370
    15
100
AcDbCircle
 10
242.6166131146
 20
131.6207939643
 30
0.0
 40
5.813216764011292
100
AcDbArc
 50
188.0348623234
 51
245.4032213747
  0
ARC
  5
265
330
1F
100
AcDbEntity
  8
0
  6
Continuous
 62
     7
370
    15
100
AcDbCircle
 10
244.3503371995
 20
136.6683434893
 30
0.0
 40
7.869197841014306
100
AcDbArc
 50
174.9632892333
 51
245.031334234
  0
LWPOLYLINE
  5
266
330
1F
100
AcDbEntity
  8
0
  6
Continuous
 62
     7
370
    15
100
AcDbPolyline
 90
       20
 70
   128
 43
0.0
 10
251.4757833915
 20
161.1970214171
 10
252.1294892596
 20
160.8819651197
 10
252.8701377036
 20
160.6393550585
 10
253.673923673
 20
160.4769889205
 10
254.5150128255
 20
160.400085287
 10
255.3663718636
 20
160.4111159041
 10
256.2006374074
 20
160.5097262385
 10
256.9909954759
 20
160.6927468731
 10
257.7120433104
 20
160.954295374
 10
258.3406058402
 20
161.2859653572
 10
258.8564805485
 20
161.6770966767
 10
259.2430867976
 20
162.1151180498
 10
259.4879987447
 20
162.5859511093
 10
259.5833447181
 20
163.0744628933
 10
259.52606022
 20
163.5649522311
 10
259.3179864211
 20
164.0416543918
 10
258.9658109846
 20
164.4892477756
 10
258.4808531188
 20
164.8933463631
 10
257.8786997686
 20
165.240962093
 10
257.8345406021
 20
165.2619854388
  0
LWPOLYLINE
  5
267
330
1F
100
AcDbEntity
  8
0
  6
Continuous
 62
     7
370
    15
100
AcDbPolyline
 90
       11
 70
   128
 43
0.0
 10
251.8345406021
 20
165.2619854388
 10
251.629855509
 20
165.1599990623
 10
251.055323995
 20
164.7971376376
 10
250.6022596123
 20
164.3808855829
 10
250.2852242229
 20
163.9246215819
 10
250.1144076052
 20
163.4430103348
 10
250.0952999457
 20
162.9515312235
 10
250.2285153804
 20
162.465980791
 10
250.5097722555
 20
162.0019650277
 10
250.9300307438
 20
161.574397782
 10
251.4757833915
 20
161.1970214171
  0
LWPOLYLINE
  5
268
330
1F
100
AcDbEntity
  8
0
  6
Continuous
 62
     7
370
    15
100
AcDbPolyline
 90
       20
 70
   128
 43
0.0
 10
233.0910070807
 20
171.8103268708
 10
233.7447129487
 20
171.4952705734
 10
234.4853613927
 20
171.2526605122
 10
235.2891473621
 20
171.0902943742
 10
236.1302365146
 20
171.0133907407
 10
236.9815955528
 20
171.0244213578
 10
237.8158610966
 20
171.1230316922
 10
238.6062191651
 20
171.3060523268
 10
239.3272669995
 20
171.5676008277
 10
239.9558295294
 20
171.8992708109
 10
240.4717042376
 20
172.2904021304
 10
240.8583104868
 20
172.7284235035
 10
241.1032224338
 20
173.199256563
 10
241.1985684073
 20
173.687768347
 10
241.1412839091
 20
174.1782576848
 10
240.9332101103
 20
174.6549598455
 10
240.5810346738
 20
175.1025532293
 10
240.096076808
 20
175.5066518168
 10
239.4939234577
 20
175.8542675467
 10
239.4497642913
 20
175.8752908924
  0
LWPOLYLINE
  5
269
330
1F
100
AcDbEntity
  8
0
  6
Continuous
 62
     7
370
    15
100
AcDbPolyline
 90
       11
 70
   128
 43
0.0
 10
233.4497642913
 20
175.8752908924
 10
233.2450791981
 20
175.773304516
 10
232.6705476841
 20
175.4104430913
 10
232.2174833014
 20
174.9941910366
 10
231.900447912
 20
174.5379270356
 10
231.7296312943
 20
174.0563157885
 10
231.7105236348
 20
173.5648366772
 10
231.8437390695
 20
173.0792862447
 10
232.1249959447
 20
172.6152704814
 10
232.5452544329
 20
172.1877032357
 10
233.0910070807
 20
171.8103268708
  0
ARC
  5
26A
330
1F
100
AcDbEntity
  8
0
  6
Continuous
 62
     7
370
    15
100
AcDbCircle
 10
261.949307751
 20
162.5236845988
 30
0.0
 40
0.8732306336685776
100
AcDbArc
 50
290.7834207995
 51
69.2165792005
  0
LINE
  5
26B
330
1F
100
AcDbEntity
  8
0
  6
Continuous
 62
     7
370
    15
100
AcDbLine
 10
250.2383465244
 20
154.7678075365
 30
0.0
 11
262.2591618046
 21
161.707276487
 31
0.0
  0
LINE
  5
26C
330
1F
100
AcDbEntity
  8
0
  6
Continuous
 62
     7
370
    15
100
AcDbLine
 10
250.2383465244
 20
154.7678075365
 30
0.0
 11
246.7732891527
 21
156.7681425788
 31
0.0
  0
LWPOLYLINE
  5
26D
330
1F
100
AcDbEntity
  8
0
  6
Continuous
 62
     7
370
    15
100
AcDbPolyline
 90
       19
 70
   128
 43
0.0
 10
246.7732891527
 20
156.7681425788
 10
246.6422114324
 20
157.8326139557
 10
246.3567962142
 20
158.8869749609
 10
245.9190586335
 20
159.9237814222
 10
245.3320892769
 20
160.9357131087
 10
244.6000323615
 20
161.9156254147
 10
243.7280564754
 20
162.8565998028
 10
242.7223180857
 20
163.7519926514
 10
241.5899180711
 20
164.5954821615
 10
240.3388515878
 20
165.3811129902
 10
238.9779516203
 20
166.103338298
 10
237.5168266172
 20
166.7570589115
 10
235.9657926528
 20
167.3376593255
 10
234.335800591
 20
167.8410402898
 10
232.6383587688
 20
168.2636477516
 10
230.8854517428
 20
168.6024979485
 10
229.0894556744
 20
168.855198475
 10
227.2630509491
 20
169.0199651733
 10
225.4191326487
 20
169.0956347306
  0
LINE
  5
26E
330
1F
100
AcDbEntity
  8
0
  6
Continuous
 62
     7
370
    15
100
AcDbLine
 10
225.4191326487
 20
169.0956347306
 30
0.0
 11
221.954075277
 21
171.0959697729
 31
0.0
  0
LINE
  5
26F
330
1F
100
AcDbEntity
  8
0
  6
Continuous
 62
     7
370
    15
100
AcDbLine
 10
221.954075277
 20
171.0959697729
 30
0.0
 11
233.4497642913
 21
177.7322897828
 31
0.0
  0
LINE
  5
270
330
1F
100
AcDbEntity
  8
0
  6
Continuous
 62
     7
370
    15
100
AcDbLine
 10
262.2591618046
 20
163.3400927106
 30
0.0
 11
257.8345406021
 21
165.8943721614
 31
0.0
  0
LINE
  5
271
330
1F
100
AcDbEntity
  8
0
  6
Continuous
 62
     7
370
    15
100
AcDbLine
 10
252.313614224
 20
169.0815351189
 30
0.0
 11
239.4497642913
 21
176.5076776151
 31
0.0
  0
LINE
  5
272
330
1F
100
AcDbEntity
  8
0
  6
Continuous
 62
     7
370
    15
100
AcDbLine
 10
250.2383465244
 20
107.4084404471
 30
0.0
 11
250.2383465244
 21
154.7678075365
 31
0.0
  0
LINE
  5
273
330
1F
100
AcDbEntity
  8
0
  6
Continuous
 62
     7
370
    15
100
AcDbLine
 10
221.954075277
 20
171.0959697729
 30
0.0
 11
221.954075277
 21
124.5531434954
 31
0.0
  0
LINE
  5
274
330
1F
100
AcDbEntity
  8
0
  6
Continuous
 62
     7
370
    15
100
AcDbLine
 10
225.4191326487
 20
169.0956347306
 30
0.0
 11
225.4191326487
 21
152.7648184928
 31
0.0
  0
LINE
  5
275
330
1F
100
AcDbEntity
  8
0
  6
Continuous
 62
     7
370
    15
100
AcDbLine
 10
225.4896091829
 20
152.7241332556
 30
0.0
 11
225.4191326487
 21
152.7648184928
 31
0.0
  0
ARC
  5
276
330
1F
100
AcDbEntity
  8
0
  6
Continuous
 62
     7
370
    15
100
AcDbCircle
 10
224.6615119416
 20
151.7089045784
 30
0.0
 40
1.310127592285481
100
AcDbArc
 50
50.7967147643
 51
189.2140369905
  0
LINE
  5
277
330
1F
100
AcDbEntity
  8
0
  6
Continuous
 62
     7
370
    15
100
AcDbLine
 10
223.3682888393
 20
151.4991229877
 30
0.0
 11
223.3682888393
 21
127.0028986311
 31
0.0
  0
ARC
  5
278
330
1F
100
AcDbEntity
  8
0
  6
Continuous
 62
     7
370
    15
100
AcDbCircle
 10
227.9739371434
 20
127.2124811879
 30
0.0
 40
4.61041442271627
100
AcDbArc
 50
182.6054784857
 51
237.39452166
  0
LINE
  5
279
330
1F
100
AcDbEntity
  8
0
  6
Continuous
 62
     7
370
    15
100
AcDbLine
 10
225.4896091829
 20
123.3286640278
 30
0.0
 11
246.7028126185
 21
111.0825423504
 31
0.0
  0
ARC
  5
27A
330
1F
100
AcDbEntity
  8
0
  6
Continuous
 62
     7
370
    15
100
AcDbCircle
 10
247.5309098598
 20
112.0977710276
 30
0.0
 40
1.310127592285475
100
AcDbArc
 50
230.7967147643
 51
9.2140369905
  0
LINE
  5
27B
330
1F
100
AcDbEntity
  8
0
  6
Continuous
 62
     7
370
    15
100
AcDbLine
 10
248.8241329621
 20
112.3075526183
 30
0.0
 11
248.8241329621
 21
136.8037769749
 31
0.0
  0
ARC
  5
27C
330
1F
100
AcDbEntity
  8
0
  6
Continuous
 62
     7
370
    15
100
AcDbCircle
 10
244.218484658
 20
136.5941944181
 30
0.0
 40
4.610414422716274
100
AcDbArc
 50
2.6054784857
 51
57.39452166
  0
LINE
  5
27D
330
1F
100
AcDbEntity
  8
0
  6
Continuous
 62
     7
370
    15
100
AcDbLine
 10
246.7732891527
 20
140.4373263411
 30
0.0
 11
246.7028126185
 21
140.4780115783
 31
0.0
  0
LINE
  5
27E
330
1F
100
AcDbEntity
  8
0
  6
Continuous
 62
     7
370
    15
100
AcDbLine
 10
246.7732891527
 20
140.4373263411
 30
0.0
 11
246.7732891527
 21
156.7681425788
 31
0.0
  0
LINE
  5
27F
330
1F
100
AcDbEntity
  8
0
  6
Continuous
 62
     7
370
    15
100
AcDbLine
 10
262.2591618046
 20
114.3479093976
 30
0.0
 11
262.2591618046
 21
161.707276487
 31
0.0
  0
LINE
  5
280
330
1F
100
AcDbEntity
  8
0
  6
Continuous
 62
     7
370
    15
100
AcDbLine
 10
250.2383465244
 20
107.4084404471
 30
0.0
 11
262.2591618046
 21
114.3479093976
 31
0.0
  0
ARC
  5
281
330
1F
100
AcDbEntity
  8
0
  6
Continuous
 62
     7
370
    15
100
AcDbCircle
 10
239.4281332861
 20
140.0689732875
 30
0.0
 40
7.354386356245616
100
AcDbArc
 50
2.8709274187
 51
3.4861177607
  0
LWPOLYLINE
  5
282
330
1F
100
AcDbEntity
  8
0
  6
Continuous
 62
     7
370
    15
100
AcDbPolyline
 90
       19
 70
   128
 43
0.0
 10
246.7689107963
 20
140.5161692441
 10
246.6281832003
 20
141.5714470993
 10
246.3357381455
 20
142.6162961222
 10
245.8936066521
 20
143.6434598744
 10
245.3048593073
 20
144.6458047409
 10
244.57358494
 20
145.6163694732
 10
243.7048622241
 20
146.5484135344
 10
242.7047244073
 20
147.4354639124
 10
241.5801174103
 20
148.2713600745
 10
240.3388515878
 20
149.0502967524
 10
238.9895474859
 20
149.7668642592
 10
237.5415759724
 20
150.4160860595
 10
236.0049931569
 20
150.9934533315
 10
234.3904705512
 20
151.4949562806
 10
232.709220956
 20
151.917111987
 10
230.9729205887
 20
152.2569885947
 10
229.1936279922
 20
152.5122256729
 10
227.3837002888
 20
152.6810506095
 10
225.5557073607
 20
152.7622909215
  0
ARC
  5
283
330
1F
100
AcDbEntity
  8
0
  6
Continuous
 62
     7
370
    15
100
AcDbCircle
 10
224.7829839952
 20
114.7000818551
 30
0.0
 40
38.07005201477865
100
AcDbArc
 50
88.8369643378
 51
89.0425458468
  0
ARC
  5
284
330
1F
100
AcDbEntity
  8
0
  6
Continuous
 62
     7
370
    15
100
AcDbCircle
 10
261.8440341173
 20
115.2641302632
 30
0.0
 40
1.005878556987666
100
AcDbArc
 50
294.3746582936
 51
354.3052007488
  0
LINE
  5
285
330
1F
100
AcDbEntity
  8
0
  6
Continuous
 62
     7
370
    15
100
AcDbLine
 10
246.7028126185
 20
140.4780115783
 30
0.0
 11
246.7689107963
 21
140.5161692441
 31
0.0
  0
LWPOLYLINE
  5
286
330
1F
100
AcDbEntity
  8
0
  6
Continuous
 62
     7
370
    15
100
AcDbPolyline
 90
        3
 70
   128
 43
0.0
 10
235.0355507289
 20
150.4783474478
 10
234.9800130794
 20
151.0180722564
 10
234.8977379738
 20
151.3480949474
  0
ARC
  5
287
330
1F
100
AcDbEntity
  8
0
  6
Continuous
 62
     7
370
    15
100
AcDbCircle
 10
249.7797411071
 20
139.8026716491
 30
0.0
 40
13.07907466603952
100
AcDbArc
 50
192.3859812277
 51
227.6086422396
  0
LINE
  5
288
330
1F
100
AcDbEntity
  8
0
  6
Continuous
 62
     7
370
    15
100
AcDbLine
 10
225.4896091829
 20
152.7241332556
 30
0.0
 11
225.5557073607
 21
152.7622909215
 31
0.0
  0
LINE
  5
289
330
1F
100
AcDbEntity
  8
0
  6
Continuous
 62
     7
370
    15
100
AcDbLine
 10
220.8934151052
 20
112.1029197901
 30
0.0
 11
226.5502693547
 21
115.3685522374
 31
0.0
  0
LINE
  5
28A
330
1F
100
AcDbEntity
  8
0
  6
Continuous
 62
     7
370
    15
100
AcDbLine
 10
214.1759006839
 20
115.9808583213
 30
0.0
 11
220.8934151052
 21
112.1029197901
 31
0.0
  0
ARC
  5
28B
330
1F
100
AcDbEntity
  8
0
  6
Continuous
 62
     7
370
    15
100
AcDbCircle
 10
214.9721763806
 20
118.0218786008
 30
0.0
 40
2.190848868964174
100
AcDbArc
 50
111.3125518932
 51
248.6874481068
  0
LINE
  5
28C
330
1F
100
AcDbEntity
  8
0
  6
Continuous
 62
     7
370
    15
100
AcDbLine
 10
221.954075277
 20
124.5531434954
 30
0.0
 11
214.1759006839
 21
120.0628988804
 31
0.0
  0
LINE
  5
28D
330
1F
100
AcDbEntity
  8
0
  6
Continuous
 62
     7
370
    15
100
AcDbLine
 10
221.954075277
 20
124.5531434954
 30
0.0
 11
250.2383465244
 21
108.224981259
 31
0.0
  0
LINE
  5
28E
330
1F
100
AcDbEntity
  8
0
  6
Continuous
 62
     7
370
    15
100
AcDbLine
 10
242.4601719314
 20
103.7347366439
 30
0.0
 11
250.2383465244
 21
108.224981259
 31
0.0
  0
ARC
  5
28F
330
1F
100
AcDbEntity
  8
0
  6
Continuous
 62
     7
370
    15
100
AcDbCircle
 10
238.9246380254
 20
110.5208054529
 30
0.0
 40
7.651844867748172
100
AcDbArc
 50
242.4805390039
 51
297.5194609961
  0
LINE
  5
290
330
1F
100
AcDbEntity
  8
0
  6
Continuous
 62
     7
370
    15
100
AcDbLine
 10
228.6715896982
 20
107.6126751751
 30
0.0
 11
235.3891041195
 21
103.7347366439
 31
0.0
  0
LINE
  5
291
330
1F
100
AcDbEntity
  8
0
  6
Continuous
 62
     7
370
    15
100
AcDbLine
 10
228.6715896982
 20
107.6126751751
 30
0.0
 11
234.3284439477
 21
110.8783076224
 31
0.0
  0
LWPOLYLINE
  5
292
330
1F
100
AcDbEntity
  8
0
  6
Continuous
 62
     7
370
    15
100
AcDbPolyline
 90
       20
 70
   128
 43
0.0
 10
234.3284439477
 20
110.8783076224
 10
234.9155245962
 20
111.2784631507
 10
235.3805070516
 20
111.7289445633
 10
235.7107078047
 20
112.2174639015
 10
235.8971198398
 20
112.7306956313
 10
235.9346583223
 20
113.254640129
 10
235.8222993005
 20
113.7750055545
 10
235.5631076355
 20
114.2775976955
 10
235.1641534002
 20
114.7487071485
 10
234.6363190263
 20
115.1754832758
 10
233.9940024594
 20
115.5462847371
 10
233.2547244212
 20
115.8509970352
 10
232.4386504893
 20
116.0813084129
 10
231.5680410333
 20
116.2309365762
 10
230.6666440096
 20
116.2958000589
 10
229.7590471792
 20
116.2741295541
 10
228.8700074178
 20
116.1665161769
 10
228.0237754125
 20
115.9758953396
 10
227.2434341665
 20
115.7074666818
 10
226.5502693547
 20
115.3685522374
  0
LWPOLYLINE
  5
293
330
1F
100
AcDbEntity
  8
0
  6
Continuous
 62
     7
370
    15
100
AcDbPolyline
 90
       33
 70
   128
 43
0.0
 10
236.4497642913
 20
106.3880630074
 10
237.055910484
 20
106.1008904704
 10
237.7474576866
 20
105.8875020248
 10
238.497830128
 20
105.7560980687
 10
239.278191416
 20
105.7117283827
 10
240.0585527041
 20
105.7560980687
 10
240.8089251455
 20
105.8875020248
 10
241.5004723481
 20
106.1008904704
 10
242.1066185408
 20
106.3880630074
 10
242.6040698653
 20
106.7379837561
 10
242.9737095461
 20
107.1372054585
 10
243.2013325377
 20
107.5703862484
 10
243.278191416
 20
108.020879231
 10
243.2013325377
 20
108.4713722136
 10
242.9737095461
 20
108.9045530035
 10
242.6040698653
 20
109.3037747059
 10
242.1066185408
 20
109.6536954547
 10
241.5004723481
 20
109.9408679916
 10
240.8089251455
 20
110.1542564373
 10
240.0585527041
 20
110.2856603933
 10
239.278191416
 20
110.3300300794
 10
238.497830128
 20
110.2856603933
 10
237.7474576866
 20
110.1542564373
 10
237.055910484
 20
109.9408679916
 10
236.4497642913
 20
109.6536954547
 10
235.9523129668
 20
109.3037747059
 10
235.582673286
 20
108.9045530035
 10
235.3550502944
 20
108.4713722136
 10
235.278191416
 20
108.020879231
 10
235.3550502944
 20
107.5703862484
 10
235.582673286
 20
107.1372054585
 10
235.9523129668
 20
106.7379837561
 10
236.4497642913
 20
106.3880630074
  0
LWPOLYLINE
  5
294
330
1F
100
AcDbEntity
  8
0
  6
Continuous
 62
     7
370
    15
100
AcDbPolyline
 90
       33
 70
   128
 43
0.0
 10
218.7720947616
 20
116.5931644052
 10
219.3782409543
 20
116.3059918682
 10
220.0697881569
 20
116.0926034225
 10
220.8201605983
 20
115.9611994665
 10
221.6005218864
 20
115.9168297805
 10
222.3808831744
 20
115.9611994665
 10
223.1312556158
 20
116.0926034225
 10
223.8228028185
 20
116.3059918682
 10
224.4289490111
 20
116.5931644052
 10
224.9264003356
 20
116.9430851539
 10
225.2960400164
 20
117.3423068563
 10
225.523663008
 20
117.7754876462
 10
225.6005218864
 20
118.2259806288
 10
225.523663008
 20
118.6764736114
 10
225.2960400164
 20
119.1096544013
 10
224.9264003356
 20
119.5088761037
 10
224.4289490111
 20
119.8587968524
 10
223.8228028185
 20
120.1459693894
 10
223.1312556158
 20
120.3593578351
 10
222.3808831744
 20
120.4907617911
 10
221.6005218864
 20
120.5351314771
 10
220.8201605983
 20
120.4907617911
 10
220.0697881569
 20
120.3593578351
 10
219.3782409543
 20
120.1459693894
 10
218.7720947616
 20
119.8587968524
 10
218.2746434372
 20
119.5088761037
 10
217.9050037563
 20
119.1096544013
 10
217.6773807648
 20
118.6764736114
 10
217.6005218864
 20
118.2259806288
 10
217.6773807648
 20
117.7754876462
 10
217.9050037563
 20
117.3423068563
 10
218.2746434372
 20
116.9430851539
 10
218.7720947616
 20
116.5931644052
  0
LINE
  5
295
330
1F
100
AcDbEntity
  8
0
  6
Continuous
 62
     7
370
    15
100
AcDbLine
 10
242.4601719314
 20
103.7347366439
 30
0.0
 11
242.4601719314
 21
98.8354917726
 31
0.0
  0
ARC
  5
296
330
1F
100
AcDbEntity
  8
0
  6
Continuous
 62
     7
370
    15
100
AcDbCircle
 10
238.9246380254
 20
105.6215605816
 30
0.0
 40
7.651844867748449
100
AcDbArc
 50
242.4805390039
 51
297.5194609961
  0
LINE
  5
297
330
1F
100
AcDbEntity
  8
0
  6
Continuous
 62
     7
370
    15
100
AcDbLine
 10
235.3891041195
 20
98.8354917726
 30
0.0
 11
235.3891041195
 21
103.7347366439
 31
0.0
  0
LINE
  5
298
330
1F
100
AcDbEntity
  8
0
  6
Continuous
 62
     7
370
    15
100
AcDbLine
 10
250.2383465244
 20
107.4084404471
 30
0.0
 11
250.2383465244
 21
108.224981259
 31
0.0
  0
LINE
  5
299
330
1F
100
AcDbEntity
  8
0
  6
Continuous
 62
     7
370
    15
100
AcDbLine
 10
262.2591618046
 20
110.2652053382
 30
0.0
 11
262.2591618046
 21
114.3479093976
 31
0.0
  0
LINE
  5
29A
330
1F
100
AcDbEntity
  8
0
  6
Continuous
 62
     7
370
    15
100
AcDbLine
 10
242.4601719314
 20
98.8354917726
 30
0.0
 11
262.2591618046
 21
110.2652053382
 31
0.0
  0
LINE
  5
29B
330
1F
100
AcDbEntity
  8
0
  6
Continuous
 62
     7
370
    15
100
AcDbLine
 10
228.6715896982
 20
104.3465119276
 30
0.0
 11
228.6715896982
 21
107.6126751751
 31
0.0
  0
LINE
  5
29C
330
1F
100
AcDbEntity
  8
0
  6
Continuous
 62
     7
370
    15
100
AcDbLine
 10
227.2573761359
 20
103.5298384156
 30
0.0
 11
235.3891041195
 21
98.8354917726
 31
0.0
  0
LINE
  5
29D
330
1F
100
AcDbEntity
  8
0
  6
Continuous
 62
     7
370
    15
100
AcDbLine
 10
227.2573761359
 20
103.5298384156
 30
0.0
 11
227.2573761359
 21
105.1629200394
 31
0.0
  0
LINE
  5
29E
330
1F
100
AcDbEntity
  8
0
  6
Continuous
 62
     7
370
    15
100
AcDbLine
 10
227.2573761359
 20
105.1629200394
 30
0.0
 11
228.6715896982
 21
104.3465119276
 31
0.0
  0
ARC
  5
29F
330
1F
100
AcDbEntity
  8
0
  6
Continuous
 62
     7
370
    15
100
AcDbCircle
 10
239.278191416
 20
100.9284223809
 30
0.0
 40
6.148347500710103
100
AcDbArc
 50
62.6157527882
 51
117.3842472118
  0
ARC
  5
2A0
330
1F
100
AcDbEntity
  8
0
  6
Continuous
 62
     7
370
    15
100
AcDbCircle
 10
239.278191416
 20
102.4960165391
 30
0.0
 40
3.564890324403588
100
AcDbArc
 50
69.2557086313
 51
110.7442913687
  0
LINE
  5
2A1
330
1F
100
AcDbEntity
  8
0
  6
Continuous
 62
     7
370
    15
100
AcDbLine
 10
227.2573761359
 20
105.1629200394
 30
0.0
 11
228.6715896982
 21
105.9793281512
 31
0.0
  0
ARC
  5
2A2
330
1F
100
AcDbEntity
  8
0
  6
Continuous
 62
     7
370
    15
100
AcDbCircle
 10
230.3783429867
 20
107.279277183
 30
0.0
 40
4.677648440794564
100
AcDbArc
 50
44.1288981855
 51
121.0670864648
  0
LINE
  5
2A3
330
1F
100
AcDbEntity
  8
0
  6
Continuous
 62
     7
370
    15
100
AcDbLine
 10
222.3076286676
 20
108.0203484308
 30
0.0
 11
227.9644829171
 21
111.2859808781
 31
0.0
  0
LINE
  5
2A4
330
1F
100
AcDbEntity
  8
0
  6
Continuous
 62
     7
370
    15
100
AcDbLine
 10
220.8934151052
 20
108.8367565426
 30
0.0
 11
222.3076286676
 21
108.0203484308
 31
0.0
  0
LINE
  5
2A5
330
1F
100
AcDbEntity
  8
0
  6
Continuous
 62
     7
370
    15
100
AcDbLine
 10
220.8934151052
 20
108.8367565426
 30
0.0
 11
226.5502693547
 21
112.1023889899
 31
0.0
  0
ARC
  5
2A6
330
1F
100
AcDbEntity
  8
0
  6
Continuous
 62
     7
370
    15
100
AcDbCircle
 10
230.373897938
 20
105.0573978434
 30
0.0
 40
8.015736759452514
100
AcDbArc
 50
53.3733566332
 51
118.4906433123
  0
LINE
  5
2A7
330
1F
100
AcDbEntity
  8
0
  6
Continuous
 62
     7
370
    15
100
AcDbLine
 10
226.5502693547
 20
112.1023889899
 30
0.0
 11
226.5502693547
 21
115.3685522374
 31
0.0
  0
LINE
  5
2A8
330
1F
100
AcDbEntity
  8
0
  6
Continuous
 62
     7
370
    15
100
AcDbLine
 10
222.3076286676
 20
106.387266807
 30
0.0
 11
222.3076286676
 21
108.0203484308
 31
0.0
  0
LINE
  5
2A9
330
1F
100
AcDbEntity
  8
0
  6
Continuous
 62
     7
370
    15
100
AcDbLine
 10
214.1759006839
 20
115.9808583213
 30
0.0
 11
214.1759006839
 21
111.08161345
 31
0.0
  0
LINE
  5
2AA
330
1F
100
AcDbEntity
  8
0
  6
Continuous
 62
     7
370
    15
100
AcDbLine
 10
220.8934151052
 20
108.8367565426
 30
0.0
 11
220.8934151052
 21
112.1029197901
 31
0.0
  0
LINE
  5
2AB
330
1F
100
AcDbEntity
  8
0
  6
Continuous
 62
     7
370
    15
100
AcDbLine
 10
214.1759006839
 20
111.08161345
 30
0.0
 11
222.3076286676
 21
106.387266807
 31
0.0
  0
LINE
  5
2AC
330
1F
100
AcDbEntity
  8
0
  6
Continuous
 62
     7
370
    15
100
AcDbLine
 10
227.9644829171
 20
109.6528992543
 30
0.0
 11
227.9644829171
 21
111.2859808781
 31
0.0
  0
LINE
  5
2AD
330
1F
100
AcDbEntity
  8
0
  6
Continuous
 62
     7
370
    15
100
AcDbLine
 10
227.9644829171
 20
109.6528992543
 30
0.0
 11
222.3076286676
 21
106.387266807
 31
0.0
  0
ARC
  5
2AE
330
1F
100
AcDbEntity
  8
0
  6
Continuous
 62
     7
370
    15
100
AcDbCircle
 10
230.452899626
 20
104.8498689852
 30
0.0
 40
5.409373113679527
100
AcDbArc
 50
67.3677876217
 51
117.3883609642
  0
ARC
  5
2AF
330
1F
100
AcDbEntity
  8
0
  6
Continuous
 62
     7
370
    15
100
AcDbCircle
 10
221.6005218864
 20
111.1335237787
 30
0.0
 40
6.148347500709991
100
AcDbArc
 50
62.6157527882
 51
117.3842472118
  0
ARC
  5
2B0
330
1F
100
AcDbEntity
  8
0
  6
Continuous
 62
     7
370
    15
100
AcDbCircle
 10
261.8440341173
 20
111.1814262038
 30
0.0
 40
1.00587855698766
100
AcDbArc
 50
294.3746582936
 51
354.3052007488
  0
ARC
  5
2B1
330
1F
100
AcDbEntity
  8
0
  6
Continuous
 62
     7
370
    15
100
AcDbCircle
 10
215.150315827
 20
113.3266721324
 30
0.0
 40
2.447401348072265
100
AcDbArc
 50
184.7822660226
 51
246.537874935
  0
ARC
  5
2B2
330
1F
100
AcDbEntity
  8
0
  6
Continuous
 62
     7
370
    15
100
AcDbCircle
 10
221.6005218864
 20
112.7011179369
 30
0.0
 40
3.564890324403662
100
AcDbArc
 50
69.2557086313
 51
110.7442913687
  0
LINE
  5
2B3
330
1F
100
AcDbEntity
  8
0
  6
Continuous
 62
     8
370
    15
100
AcDbLine
 10
246.7028126185
 20
138.8449299545
 30
0.0
 11
247.8071086943
 21
139.4824265096
 31
0.0
  0
LINE
  5
2B4
330
1F
100
AcDbEntity
  8
0
  6
Continuous
 62
     8
370
    15
100
AcDbLine
 10
248.5141719462
 20
138.2576565129
 30
0.0
 11
247.4099193997
 21
137.6201850867
 31
0.0
  0
LINE
  5
2B5
330
1F
100
AcDbEntity
  8
0
  6
Continuous
 62
     8
370
    15
100
AcDbLine
 10
247.4099193997
 20
113.1239607302
 30
0.0
 11
248.8241329621
 21
113.940368842
 31
0.0
  0
LINE
  5
2B6
330
1F
100
AcDbEntity
  8
0
  6
Continuous
 62
     8
370
    15
100
AcDbLine
 10
228.1404128801
 20
152.6213280334
 30
0.0
 11
225.4896091829
 21
151.0910516319
 31
0.0
  0
LINE
  5
2B7
330
1F
100
AcDbEntity
  8
0
  6
Continuous
 62
     8
370
    15
100
AcDbLine
 10
246.7028126185
 20
111.0825423504
 30
0.0
 11
248.824132934
 21
112.307154502
 31
0.0
  0
LINE
  5
2B8
330
1F
100
AcDbEntity
  8
0
  6
Continuous
 62
     8
370
    15
100
AcDbLine
 10
225.5563735277
 20
152.7622773913
 30
0.0
 11
223.3682888393
 21
151.4991229877
 31
0.0
  0
LINE
  5
2B9
330
1F
100
AcDbEntity
  8
0
  6
Continuous
 62
     8
370
    15
100
AcDbLine
 10
226.9040526134
 20
124.1452048396
 30
0.0
 11
225.4896091829
 21
123.3286640278
 31
0.0
  0
LINE
  5
2BA
330
1F
100
AcDbEntity
  8
0
  6
Continuous
 62
     8
370
    15
100
AcDbLine
 10
223.3682888393
 20
127.0028986311
 30
0.0
 11
224.7825024017
 21
127.819306743
 31
0.0
  0
ENDSEC
  0
SECTION
  2
OBJECTS
  0
DICTIONARY
  5
C
330
0
100
AcDbDictionary
281
     1
  3
ACAD_GROUP
350
D
  3
ACAD_LAYOUT
350
1A
  3
ACAD_MLINESTYLE
350
17
  3
ACAD_PLOTSETTINGS
350
19
  3
ACAD_PLOTSTYLENAME
350
E
  3
ACAD_SCALELIST
350
47
  0
DICTIONARY
  5
D
102
{ACAD_REACTORS
330
C
102
}
330
C
100
AcDbDictionary
281
     1
  0
DICTIONARY
  5
1A
102
{ACAD_REACTORS
330
C
102
}
330
C
100
AcDbDictionary
281
     1
  3
Layout1
350
1E
  3
Layout2
350
26
  3
Model
350
22
  0
DICTIONARY
  5
17
102
{ACAD_REACTORS
330
C
102
}
330
C
100
AcDbDictionary
281
     1
  3
Standard
350
18
  0
DICTIONARY
  5
19
102
{ACAD_REACTORS
330
C
102
}
330
C
100
AcDbDictionary
281
     1
  0
ACDBDICTIONARYWDFLT
  5
E
102
{ACAD_REACTORS
330
C
102
}
330
C
100
AcDbDictionary
281
     1
  3
Normal
350
F
100
AcDbDictionaryWithDefault
340
F
  0
DICTIONARY
  5
47
102
{ACAD_REACTORS
330
C
102
}
330
C
100
AcDbDictionary
281
     1
  3
A0
350
48
  3
A1
350
49
  3
A2
350
4A
  3
A3
350
4B
  3
A4
350
4C
  3
A5
350
4D
  3
A6
350
4E
  3
A7
350
4F
  3
A8
350
50
  3
A9
350
51
  3
B0
350
52
  3
B1
350
53
  3
B2
350
54
  3
B3
350
55
  3
B4
350
56
  3
B5
350
57
  3
B6
350
58
  3
B7
350
59
  3
B8
350
5A
  3
B9
350
5B
  3
C0
350
5C
  3
C1
350
5D
  3
C2
350
5E
  3
C3
350
5F
  3
C4
350
60
  3
C5
350
61
  3
C6
350
62
  3
C7
350
63
  3
C8
350
64
  3
C9
350
65
  3
D0
350
66
  3
D1
350
67
  3
D2
350
68
  0
LAYOUT
  5
1E
102
{ACAD_REACTORS
330
1A
102
}
330
1A
100
AcDbPlotSettings
  1

  2
none_device
  4

  6

 40
0.0
 41
0.0
 42
0.0
 43
0.0
 44
0.0
 45
0.0
 46
0.0
 47
0.0
 48
0.0
 49
0.0
140
0.0
141
0.0
142
1.0
143
1.0
 70
   688
 72
     1
 73
     0
 74
     5
  7

 75
    16
147
1.0
148
0.0
149
0.0
100
AcDbLayout
  1
Layout1
 70
     1
 71
     1
 10
0.0
 20
0.0
 11
420.0
 21
297.0
 12
0.0
 22
0.0
 32
0.0
 14
1.0000000000E+20
 24
1.0000000000E+20
 34
1.0000000000E+20
 15
-1.0000000000E+20
 25
-1.0000000000E+20
 35
-1.0000000000E+20
146
0.0
 13
0.0
 23
0.0
 33
0.0
 16
1.0
 26
0.0
 36
0.0
 17
0.0
 27
1.0
 37
0.0
 76
     0
330
1B
  0
LAYOUT
  5
26
102
{ACAD_REACTORS
330
1A
102
}
330
1A
100
AcDbPlotSettings
  1

  2
none_device
  4

  6

 40
0.0
 41
0.0
 42
0.0
 43
0.0
 44
0.0
 45
0.0
 46
0.0
 47
0.0
 48
0.0
 49
0.0
140
0.0
141
0.0
142
1.0
143
1.0
 70
   688
 72
     1
 73
     0
 74
     5
  7

 75
    16
147
1.0
148
0.0
149
0.0
100
AcDbLayout
  1
Layout2
 70
     1
 71
     2
 10
0.0
 20
0.0
 11
0.0
 21
0.0
 12
0.0
 22
0.0
 32
0.0
 14
0.0
 24
0.0
 34
0.0
 15
0.0
 25
0.0
 35
0.0
146
0.0
 13
0.0
 23
0.0
 33
0.0
 16
1.0
 26
0.0
 36
0.0
 17
0.0
 27
1.0
 37
0.0
 76
     0
330
23
  0
LAYOUT
  5
22
102
{ACAD_REACTORS
330
1A
102
}
330
1A
100
AcDbPlotSettings
  1

  2
none_device
  4
Letter_(8.50_x_11.00_Inches)
  6

 40
6.35
 41
6.35
 42
6.35000508
 43
6.35000508
 44
215.9
 45
279.4
 46
0.0
 47
0.0
 48
0.0
 49
0.0
140
0.0
141
0.0
142
1.0
143
1.0
 70
  1712
 72
     1
 73
     0
 74
     0
  7

 75
     0
147
1.0
148
0.0
149
0.0
100
AcDbLayout
  1
Model
 70
     1
 71
     0
 10
0.0
 20
0.0
 11
297.0
 21
210.0
 12
0.0
 22
0.0
 32
0.0
 14
0.0
 24
0.0
 34
0.0
 15
297.0
 25
210.0
 35
0.0
146
0.0
 13
0.0
 23
0.0
 33
0.0
 16
1.0
 26
0.0
 36
0.0
 17
0.0
 27
1.0
 37
0.0
 76
     0
330
1F
331
29
  0
MLINESTYLE
  5
18
102
{ACAD_REACTORS
330
17
102
}
330
17
100
AcDbMlineStyle
  2
Standard
 70
     0
  3

 62
   256
 51
90.0
 52
90.0
 71
     2
 49
0.5
 62
   256
  6
BYLAYER
 49
-0.5
 62
   256
  6
BYLAYER
  0
ACDBPLACEHOLDER
  5
F
102
{ACAD_REACTORS
330
E
102
}
330
E
  0
SCALE
  5
48
102
{ACAD_REACTORS
330
47
102
}
330
47
100
AcDbScale
 70
     0
300
1:1
140
1.0
141
1.0
290
     1
  0
SCALE
  5
49
102
{ACAD_REACTORS
330
47
102
}
330
47
100
AcDbScale
 70
     0
300
1:2
140
1.0
141
2.0
290
     0
  0
SCALE
  5
4A
102
{ACAD_REACTORS
330
47
102
}
330
47
100
AcDbScale
 70
     0
300
1:4
140
1.0
141
4.0
290
     0
  0
SCALE
  5
4B
102
{ACAD_REACTORS
330
47
102
}
330
47
100
AcDbScale
 70
     0
300
1:5
140
1.0
141
5.0
290
     0
  0
SCALE
  5
4C
102
{ACAD_REACTORS
330
47
102
}
330
47
100
AcDbScale
 70
     0
300
1:8
140
1.0
141
8.0
290
     0
  0
SCALE
  5
4D
102
{ACAD_REACTORS
330
47
102
}
330
47
100
AcDbScale
 70
     0
300
1:10
140
1.0
141
10.0
290
     0
  0
SCALE
  5
4E
102
{ACAD_REACTORS
330
47
102
}
330
47
100
AcDbScale
 70
     0
300
1:16
140
1.0
141
16.0
290
     0
  0
SCALE
  5
4F
102
{ACAD_REACTORS
330
47
102
}
330
47
100
AcDbScale
 70
     0
300
1:20
140
1.0
141
20.0
290
     0
  0
SCALE
  5
50
102
{ACAD_REACTORS
330
47
102
}
330
47
100
AcDbScale
 70
     0
300
1:30
140
1.0
141
30.0
290
     0
  0
SCALE
  5
51
102
{ACAD_REACTORS
330
47
102
}
330
47
100
AcDbScale
 70
     0
300
1:40
140
1.0
141
40.0
290
     0
  0
SCALE
  5
52
102
{ACAD_REACTORS
330
47
102
}
330
47
100
AcDbScale
 70
     0
300
1:50
140
1.0
141
50.0
290
     0
  0
SCALE
  5
53
102
{ACAD_REACTORS
330
47
102
}
330
47
100
AcDbScale
 70
     0
300
1:100
140
1.0
141
100.0
290
     0
  0
SCALE
  5
54
102
{ACAD_REACTORS
330
47
102
}
330
47
100
AcDbScale
 70
     0
300
2:1
140
2.0
141
1.0
290
     0
  0
SCALE
  5
55
102
{ACAD_REACTORS
330
47
102
}
330
47
100
AcDbScale
 70
     0
300
4:1
140
4.0
141
1.0
290
     0
  0
SCALE
  5
56
102
{ACAD_REACTORS
330
47
102
}
330
47
100
AcDbScale
 70
     0
300
8:1
140
8.0
141
1.0
290
     0
  0
SCALE
  5
57
102
{ACAD_REACTORS
330
47
102
}
330
47
100
AcDbScale
 70
     0
300
10:1
140
10.0
141
1.0
290
     0
  0
SCALE
  5
58
102
{ACAD_REACTORS
330
47
102
}
330
47
100
AcDbScale
 70
     0
300
100:1
140
100.0
141
1.0
290
     0
  0
SCALE
  5
59
102
{ACAD_REACTORS
330
47
102
}
330
47
100
AcDbScale
 70
     0
300
1/128" = 1'-0"
140
0.0078125
141
12.0
290
     0
  0
SCALE
  5
5A
102
{ACAD_REACTORS
330
47
102
}
330
47
100
AcDbScale
 70
     0
300
1/64" = 1'-0"
140
0.015625
141
12.0
290
     0
  0
SCALE
  5
5B
102
{ACAD_REACTORS
330
47
102
}
330
47
100
AcDbScale
 70
     0
300
1/32" = 1'-0"
140
0.03125
141
12.0
290
     0
  0
SCALE
  5
5C
102
{ACAD_REACTORS
330
47
102
}
330
47
100
AcDbScale
 70
     0
300
1/16" = 1'-0"
140
0.0625
141
12.0
290
     0
  0
SCALE
  5
5D
102
{ACAD_REACTORS
330
47
102
}
330
47
100
AcDbScale
 70
     0
300
3/32" = 1'-0"
140
0.09375
141
12.0
290
     0
  0
SCALE
  5
5E
102
{ACAD_REACTORS
330
47
102
}
330
47
100
AcDbScale
 70
     0
300
1/8" = 1'-0"
140
0.125
141
12.0
290
     0
  0
SCALE
  5
5F
102
{ACAD_REACTORS
330
47
102
}
330
47
100
AcDbScale
 70
     0
300
3/16" = 1'-0"
140
0.1875
141
12.0
290
     0
  0
SCALE
  5
60
102
{ACAD_REACTORS
330
47
102
}
330
47
100
AcDbScale
 70
     0
300
1/4" = 1'-0"
140
0.25
141
12.0
290
     0
  0
SCALE
  5
61
102
{ACAD_REACTORS
330
47
102
}
330
47
100
AcDbScale
 70
     0
300
3/8" = 1'-0"
140
0.375
141
12.0
290
     0
  0
SCALE
  5
62
102
{ACAD_REACTORS
330
47
102
}
330
47
100
AcDbScale
 70
     0
300
1/2" = 1'-0"
140
0.5
141
12.0
290
     0
  0
SCALE
  5
63
102
{ACAD_REACTORS
330
47
102
}
330
47
100
AcDbScale
 70
     0
300
3/4" = 1'-0"
140
0.75
141
12.0
290
     0
  0
SCALE
  5
64
102
{ACAD_REACTORS
330
47
102
}
330
47
100
AcDbScale
 70
     0
300
1" = 1'-0"
140
1.0
141
12.0
290
     0
  0
SCALE
  5
65
102
{ACAD_REACTORS
330
47
102
}
330
47
100
AcDbScale
 70
     0
300
1-1/2" = 1'-0"
140
1.5
141
12.0
290
     0
  0
SCALE
  5
66
102
{ACAD_REACTORS
330
47
102
}
330
47
100
AcDbScale
 70
     0
300
3" = 1'-0"
140
3.0
141
12.0
290
     0
  0
SCALE
  5
67
102
{ACAD_REACTORS
330
47
102
}
330
47
100
AcDbScale
 70
     0
300
6" = 1'-0"
140
6.0
141
12.0
290
     0
  0
SCALE
  5
68
102
{ACAD_REACTORS
330
47
102
}
330
47
100
AcDbScale
 70
     0
300
1'-0" = 1'-0"
140
12.0
141
12.0
290
     0
  0
ENDSEC
  0
EOF
