  0
SECTION
  2
HEADER
  9
$ACADVER
  1
AC1015
  9
$ACADMAINTVER
 70
     6
  9
$DWGCODEPAGE
  3
ANSI_950
  9
$INSBASE
 10
0.0
 20
0.0
 30
0.0
  9
$EXTMIN
 10
0.0
 20
0.0
 30
0.0
  9
$EXTMAX
 10
297.0
 20
210.0
 30
0.0
  9
$LIMMIN
 10
0.0
 20
0.0
  9
$LIMMAX
 10
297.0
 20
210.0
  9
$ORTHOMODE
 70
     0
  9
$REGENMODE
 70
     1
  9
$FILLMODE
 70
     1
  9
$QTEXTMODE
 70
     0
  9
$MIRRTEXT
 70
     1
  9
$LTSCALE
 40
1.0
  9
$ATTMODE
 70
     1
  9
$TEXTSIZE
 40
3.5277777778
  9
$TRACEWID
 40
1.0
  9
$TEXTSTYLE
  7
STANDARD
  9
$CLAYER
  8
0
  9
$CELTYPE
  6
ByLayer
  9
$CECOLOR
 62
   256
  9
$CELTSCALE
 40
1.0
  9
$DISPSILH
 70
     0
  9
$DIMSCALE
 40
1.0
  9
$DIMASZ
 40
2.0
  9
$DIMEXO
 40
1.0
  9
$DIMDLI
 40
3.75
  9
$DIMRND
 40
0.0
  9
$DIMDLE
 40
0.0
  9
$DIMEXE
 40
1.0
  9
$DIMTP
 40
0.0
  9
$DIMTM
 40
0.0
  9
$DIMTXT
 40
2.5
  9
$DIMCEN
 40
2.5
  9
$DIMTSZ
 40
0.0
  9
$DIMTOL
 70
     0
  9
$DIMLIM
 70
     0
  9
$DIMTIH
 70
     1
  9
$DIMTOH
 70
     1
  9
$DIMSE1
 70
     0
  9
$DIMSE2
 70
     0
  9
$DIMTAD
 70
     1
  9
$DIMZIN
 70
     0
  9
$DIMBLK
  1

  9
$DIMASO
 70
     1
  9
$DIMSHO
 70
     1
  9
$DIMPOST
  1

  9
$DIMAPOST
  1

  9
$DIMALT
 70
     0
  9
$DIMALTD
 70
     3
  9
$DIMALTF
 40
0.0393700787
  9
$DIMLFAC
 40
1.0
  9
$DIMTOFL
 70
     1
  9
$DIMTVP
 40
0.0
  9
$DIMTIX
 70
     0
  9
$DIMSOXD
 70
     0
  9
$DIMSAH
 70
     0
  9
$DIMBLK1
  1

  9
$DIMBLK2
  1

  9
$DIMSTYLE
  2
ISO-25
  9
$DIMCLRD
 70
     0
  9
$DIMCLRE
 70
     0
  9
$DIMCLRT
 70
     0
  9
$DIMTFAC
 40
1.0
  9
$DIMGAP
 40
1.0
  9
$DIMJUST
 70
     0
  9
$DIMSD1
 70
     0
  9
$DIMSD2
 70
     0
  9
$DIMTOLJ
 70
     0
  9
$DIMTZIN
 70
     0
  9
$DIMALTZ
 70
     0
  9
$DIMALTTZ
 70
     0
  9
$DIMUPT
 70
     0
  9
$DIMDEC
 70
     2
  9
$DIMTDEC
 70
     2
  9
$DIMALTU
 70
     2
  9
$DIMALTTD
 70
     3
  9
$DIMTXSTY
  7
STANDARD
  9
$DIMAUNIT
 70
     0
  9
$DIMADEC
 70
     1
  9
$DIMALTRND
 40
0.0
  9
$DIMAZIN
 70
     0
  9
$DIMDSEP
 70
    44
  9
$DIMATFIT
 70
     3
  9
$DIMFRAC
 70
     0
  9
$DIMLDRBLK
  1

  9
$DIMLUNIT
 70
     2
  9
$DIMLWD
 70
    -2
  9
$DIMLWE
 70
    -2
  9
$DIMTMOVE
 70
     0
  9
$LUNITS
 70
     2
  9
$LUPREC
 70
     2
  9
$SKETCHINC
 40
1.0
  9
$FILLETRAD
 40
10.0
  9
$AUNITS
 70
     0
  9
$AUPREC
 70
     1
  9
$MENU
  1
.
  9
$ELEVATION
 40
0.0
  9
$PELEVATION
 40
0.0
  9
$THICKNESS
 40
0.0
  9
$LIMCHECK
 70
     0
  9
$CHAMFERA
 40
0.0
  9
$CHAMFERB
 40
0.0
  9
$CHAMFERC
 40
0.0
  9
$CHAMFERD
 40
0.0
  9
$SKPOLY
 70
     0
  9
$TDCREATE
 40
2457497.71369037
  9
$TDUCREATE
 40
2457497.380357037
  9
$TDUPDATE
 40
2457497.713699954
  9
$TDUUPDATE
 40
2457497.38036662
  9
$TDINDWG
 40
0.0000000116
  9
$TDUSRTIMER
 40
0.0000000116
  9
$USRTIMER
 70
     1
  9
$ANGBASE
 50
0.0
  9
$ANGDIR
 70
     0
  9
$PDMODE
 70
     0
  9
$PDSIZE
 40
-1.0
  9
$PLINEWID
 40
0.0
  9
$SPLFRAME
 70
     0
  9
$SPLINETYPE
 70
     6
  9
$SPLINESEGS
 70
     8
  9
$HANDSEED
  5
450
  9
$SURFTAB1
 70
     6
  9
$SURFTAB2
 70
     6
  9
$SURFTYPE
 70
     6
  9
$SURFU
 70
     6
  9
$SURFV
 70
     6
  9
$UCSBASE
  2

  9
$UCSNAME
  2

  9
$UCSORG
 10
0.0
 20
0.0
 30
0.0
  9
$UCSXDIR
 10
1.0
 20
0.0
 30
0.0
  9
$UCSYDIR
 10
0.0
 20
1.0
 30
0.0
  9
$UCSORTHOREF
  2

  9
$UCSORTHOVIEW
 70
     0
  9
$UCSORGTOP
 10
0.0
 20
0.0
 30
0.0
  9
$UCSORGBOTTOM
 10
0.0
 20
0.0
 30
0.0
  9
$UCSORGLEFT
 10
0.0
 20
0.0
 30
0.0
  9
$UCSORGRIGHT
 10
0.0
 20
0.0
 30
0.0
  9
$UCSORGFRONT
 10
0.0
 20
0.0
 30
0.0
  9
$UCSORGBACK
 10
0.0
 20
0.0
 30
0.0
  9
$PUCSBASE
  2

  9
$PUCSNAME
  2

  9
$PUCSORG
 10
0.0
 20
0.0
 30
0.0
  9
$PUCSXDIR
 10
1.0
 20
0.0
 30
0.0
  9
$PUCSYDIR
 10
0.0
 20
1.0
 30
0.0
  9
$PUCSORTHOREF
  2

  9
$PUCSORTHOVIEW
 70
     0
  9
$PUCSORGTOP
 10
0.0
 20
0.0
 30
0.0
  9
$PUCSORGBOTTOM
 10
0.0
 20
0.0
 30
0.0
  9
$PUCSORGLEFT
 10
0.0
 20
0.0
 30
0.0
  9
$PUCSORGRIGHT
 10
0.0
 20
0.0
 30
0.0
  9
$PUCSORGFRONT
 10
0.0
 20
0.0
 30
0.0
  9
$PUCSORGBACK
 10
0.0
 20
0.0
 30
0.0
  9
$USERI1
 70
     0
  9
$USERI2
 70
     0
  9
$USERI3
 70
     0
  9
$USERI4
 70
     0
  9
$USERI5
 70
     0
  9
$USERR1
 40
0.0
  9
$USERR2
 40
0.0
  9
$USERR3
 40
0.0
  9
$USERR4
 40
0.0
  9
$USERR5
 40
0.0
  9
$WORLDVIEW
 70
     1
  9
$SHADEDGE
 70
     3
  9
$SHADEDIF
 70
    70
  9
$TILEMODE
 70
     1
  9
$MAXACTVP
 70
    64
  9
$PINSBASE
 10
0.0
 20
0.0
 30
0.0
  9
$PLIMCHECK
 70
     0
  9
$PEXTMIN
 10
1.0000000000E+20
 20
1.0000000000E+20
 30
1.0000000000E+20
  9
$PEXTMAX
 10
-1.0000000000E+20
 20
-1.0000000000E+20
 30
-1.0000000000E+20
  9
$PLIMMIN
 10
0.0
 20
0.0
  9
$PLIMMAX
 10
420.0
 20
297.0
  9
$UNITMODE
 70
     0
  9
$VISRETAIN
 70
     1
  9
$PLINEGEN
 70
     0
  9
$PSLTSCALE
 70
     1
  9
$TREEDEPTH
 70
  3020
  9
$CMLSTYLE
  2
Standard
  9
$CMLJUST
 70
     0
  9
$CMLSCALE
 40
20.0
  9
$PROXYGRAPHICS
 70
     1
  9
$MEASUREMENT
 70
     1
  9
$CELWEIGHT
370
    -1
  9
$ENDCAPS
280
     0
  9
$JOINSTYLE
280
     0
  9
$LWDISPLAY
290
     1
  9
$INSUNITS
 70
     4
  9
$HYPERLINKBASE
  1

  9
$STYLESHEET
  1

  9
$XEDIT
290
     1
  9
$CEPSNTYPE
380
     0
  9
$PSTYLEMODE
290
     1
  9
$FINGERPRINTGUID
  2
{67A490A4-A75B-42AF-9EB4-229CE2269364}
  9
$VERSIONGUID
  2
{FAEB1C32-E019-11D5-929B-00C0DF256EC4}
  9
$EXTNAMES
290
     1
  9
$PSVPSCALE
 40
0.0
  9
$OLESTARTUP
290
     0
  0
ENDSEC
  0
SECTION
  2
CLASSES
  0
CLASS
  1
ACDBDICTIONARYWDFLT
  2
AcDbDictionaryWithDefault
  3
ObjectDBX Classes
 90
        0
280
     0
281
     0
  0
CLASS
  1
VISUALSTYLE
  2
AcDbVisualStyle
  3
ObjectDBX Classes
 90
     4095
280
     0
281
     0
  0
CLASS
  1
MATERIAL
  2
AcDbMaterial
  3
ObjectDBX Classes
 90
     1153
280
     0
281
     0
  0
CLASS
  1
SCALE
  2
AcDbScale
  3
ObjectDBX Classes
 90
     1153
280
     0
281
     0
  0
CLASS
  1
TABLESTYLE
  2
AcDbTableStyle
  3
ObjectDBX Classes
 90
     4095
280
     0
281
     0
  0
CLASS
  1
MLEADERSTYLE
  2
AcDbMLeaderStyle
  3
ACDB_MLEADERSTYLE_CLASS
 90
     4095
280
     0
281
     0
  0
CLASS
  1
SUN
  2
AcDbSun
  3
SCENEOE
 90
     1153
280
     0
281
     0
  0
CLASS
  1
ACDBPLACEHOLDER
  2
AcDbPlaceHolder
  3
ObjectDBX Classes
 90
        0
280
     0
281
     0
  0
CLASS
  1
LAYOUT
  2
AcDbLayout
  3
ObjectDBX Classes
 90
        0
280
     0
281
     0
  0
ENDSEC
  0
SECTION
  2
TABLES
  0
TABLE
  2
VPORT
  5
8
330
0
100
AcDbSymbolTable
 70
     1
  0
VPORT
  5
29
330
8
100
AcDbSymbolTableRecord
100
AcDbViewportTableRecord
  2
*Active
 70
     0
 10
0.0
 20
0.0
 11
1.0
 21
1.0
 12
148.5
 22
105.0
 13
0.0
 23
0.0
 14
10.0
 24
10.0
 15
10.0
 25
10.0
 16
0.0
 26
0.0
 36
1.0
 17
0.0
 27
0.0
 37
0.0
 40
210.0
 41
1.4142857143
 42
50.0
 43
0.0
 44
0.0
 50
0.0
 51
0.0
 71
     0
 72
  2000
 73
     1
 74
     3
 75
     0
 76
     0
 77
     0
 78
     0
281
     0
 65
     1
110
0.0
120
0.0
130
0.0
111
1.0
121
0.0
131
0.0
112
0.0
122
1.0
132
0.0
 79
     0
146
0.0
  0
ENDTAB
  0
TABLE
  2
LTYPE
  5
5
330
0
100
AcDbSymbolTable
 70
     6
  0
LTYPE
  5
14
330
5
100
AcDbSymbolTableRecord
100
AcDbLinetypeTableRecord
  2
ByBlock
 70
     0
  3

 72
    65
 73
     0
 40
0.0
  0
LTYPE
  5
15
330
5
100
AcDbSymbolTableRecord
100
AcDbLinetypeTableRecord
  2
ByLayer
 70
     0
  3

 72
    65
 73
     0
 40
0.0
  0
LTYPE
  5
16
330
5
100
AcDbSymbolTableRecord
100
AcDbLinetypeTableRecord
  2
Continuous
 70
     0
  3
Solid line
 72
    65
 73
     0
 40
0.0
  0
LTYPE
  5
6E
330
5
100
AcDbSymbolTableRecord
100
AcDbLinetypeTableRecord
  2
HIDDEN
 70
     0
  3
Hidden __ __ __ __ __ __ __ __ __ __ __ __ __ __
 72
    65
 73
     2
 40
1.905
 49
1.27
 74
     0
 49
-0.635
 74
     0
  0
LTYPE
  5
6F
330
5
100
AcDbSymbolTableRecord
100
AcDbLinetypeTableRecord
  2
PHANTOM
 70
     0
  3
Phantom ______  __  __  ______  __  __  ______
 72
    65
 73
     6
 40
12.7
 49
6.35
 74
     0
 49
-1.27
 74
     0
 49
1.27
 74
     0
 49
-1.27
 74
     0
 49
1.27
 74
     0
 49
-1.27
 74
     0
  0
LTYPE
  5
70
330
5
100
AcDbSymbolTableRecord
100
AcDbLinetypeTableRecord
  2
CENTER
 70
     0
  3
Center ____ _ ____ _ ____ _ ____ _ ____ _ ____
 72
    65
 73
     4
 40
10.16
 49
6.35
 74
     0
 49
-1.27
 74
     0
 49
1.27
 74
     0
 49
-1.27
 74
     0
  0
LTYPE
  5
71
330
5
100
AcDbSymbolTableRecord
100
AcDbLinetypeTableRecord
  2
CENTERX2
 70
     0
  3
Center (2x) ________  __  ________  __  _____
 72
    65
 73
     4
 40
20.32
 49
12.7
 74
     0
 49
-2.54
 74
     0
 49
2.54
 74
     0
 49
-2.54
 74
     0
  0
LTYPE
  5
72
330
5
100
AcDbSymbolTableRecord
100
AcDbLinetypeTableRecord
  2
DOT2
 70
     0
  3
Dot (.5x) ........................................
 72
    65
 73
     2
 40
0.635
 49
0.0
 74
     0
 49
-0.635
 74
     0
  0
ENDTAB
  0
TABLE
  2
LAYER
  5
2
330
0
100
AcDbSymbolTable
 70
    10
  0
LAYER
  5
10
330
2
100
AcDbSymbolTableRecord
100
AcDbLayerTableRecord
  2
0
 70
     0
 62
     7
  6
Continuous
370
    -3
390
F
  0
LAYER
  5
73
330
2
100
AcDbSymbolTableRecord
100
AcDbLayerTableRecord
  2
SLD-0
 70
     0
 62
   179
  6
Continuous
370
    15
390
F
  0
LAYER
  5
74
330
2
100
AcDbSymbolTableRecord
100
AcDbLayerTableRecord
  2
輪廓線
 70
     0
 62
   219
  6
Continuous
370
    15
390
F
  0
LAYER
  5
75
330
2
100
AcDbSymbolTableRecord
100
AcDbLayerTableRecord
  2
DIM
 70
     0
 62
     7
  6
Continuous
370
    -3
390
F
  0
LAYER
  5
76
330
2
100
AcDbSymbolTableRecord
100
AcDbLayerTableRecord
  2
中心線
 70
     0
 62
     1
  6
CENTERX2
370
    -3
390
F
  0
LAYER
  5
77
330
2
100
AcDbSymbolTableRecord
100
AcDbLayerTableRecord
  2
虛線
 70
     0
 62
     6
  6
HIDDEN
370
    -3
390
F
  0
LAYER
  5
78
330
2
100
AcDbSymbolTableRecord
100
AcDbLayerTableRecord
  2
SECTION
 70
     0
 62
     5
  6
PHANTOM
370
    15
390
F
  0
LAYER
  5
79
330
2
100
AcDbSymbolTableRecord
100
AcDbLayerTableRecord
  2
假想線
 70
     0
 62
     5
  6
PHANTOM
370
    -3
390
F
  0
LAYER
  5
7A
330
2
100
AcDbSymbolTableRecord
100
AcDbLayerTableRecord
  2
工作區域參考線
 70
     0
 62
   179
  6
Continuous
370
    -3
390
F
  0
LAYER
  5
7B
330
2
100
AcDbSymbolTableRecord
100
AcDbLayerTableRecord
  2
圖層_1
 70
     0
 62
   179
  6
Continuous
370
    -3
390
F
  0
ENDTAB
  0
TABLE
  2
STYLE
  5
3
330
0
100
AcDbSymbolTable
 70
     5
  0
STYLE
  5
11
330
3
100
AcDbSymbolTableRecord
100
AcDbTextStyleTableRecord
  2
STANDARD
 70
     0
 40
0.0
 41
1.0
 50
0.0
 71
     0
 42
3.5277777778
  3
ARIALBD.TTF
  4

1001
ACAD
1000
ARIAL
1071
 33554466
  0
STYLE
  5
7C
330
3
100
AcDbSymbolTableRecord
100
AcDbTextStyleTableRecord
  2
SLDTEXTSTYLE0
 70
     0
 40
0.0
 41
1.0
 50
0.0
 71
     0
 42
2.5
  3
ARIAL.TTF
  4

1001
ACAD
1000
Arial
1071
      290
  0
STYLE
  5
CD
330
3
100
AcDbSymbolTableRecord
100
AcDbTextStyleTableRecord
  2
SLDTEXTSTYLE1
 70
     0
 40
0.0
 41
0.948
 50
0.0
 71
     0
 42
3.5277777778
  3
ARIAL.TTF
  4

1001
ACAD
1000
Arial
1071
      290
  0
STYLE
  5
D6
330
3
100
AcDbSymbolTableRecord
100
AcDbTextStyleTableRecord
  2
SLDTEXTSTYLE2
 70
     0
 40
0.0
 41
1.0
 50
0.0
 71
     0
 42
3.5277777778
  3
ARIALBD.TTF
  4

1001
ACAD
1000
Arial CE
1071
 33554722
  0
STYLE
  5
104
330
3
100
AcDbSymbolTableRecord
100
AcDbTextStyleTableRecord
  2
SLDTEXTSTYLE3
 70
     0
 40
0.0
 41
0.948
 50
0.0
 71
     0
 42
3.5277777778
  3
ARIALBD.TTF
  4

1001
ACAD
1000
Arial
1071
 33554722
  0
ENDTAB
  0
TABLE
  2
VIEW
  5
6
330
0
100
AcDbSymbolTable
 70
     0
  0
ENDTAB
  0
TABLE
  2
UCS
  5
7
330
0
100
AcDbSymbolTable
 70
     0
  0
ENDTAB
  0
TABLE
  2
APPID
  5
9
330
0
100
AcDbSymbolTable
 70
     1
  0
APPID
  5
12
330
9
100
AcDbSymbolTableRecord
100
AcDbRegAppTableRecord
  2
ACAD
 70
     0
  0
ENDTAB
  0
TABLE
  2
DIMSTYLE
  5
A
330
0
100
AcDbSymbolTable
 70
     6
100
AcDbDimStyleTable
  0
DIMSTYLE
105
27
330
A
100
AcDbSymbolTableRecord
100
AcDbDimStyleTableRecord
  2
ISO-25
 70
     0
 41
2.5
 42
0.625
 43
3.75
 44
1.25
 73
     0
 74
     0
 77
     1
 78
     8
140
2.5
141
2.5
143
0.0393700787
147
0.625
171
     3
172
     1
178
     0
271
     2
272
     2
274
     3
278
    44
283
     0
284
     8
340
7C
  0
DIMSTYLE
105
1F5
102
{ACAD_REACTORS
330
1F4
330
1FF
330
209
330
213
330
2C0
330
2D7
330
2E1
330
2EB
330
2F5
102
}
330
A
100
AcDbSymbolTableRecord
100
AcDbDimStyleTableRecord
  2
SLDDIMSTYLE0
 70
     0
 41
2.0
 44
0.0
 45
0.000000001
 73
     0
 74
     0
 77
     1
 78
    12
 79
     3
140
2.5
147
0.625
173
     1
178
     0
271
     2
272
     2
276
     2
284
    12
340
CD
  0
DIMSTYLE
105
21E
102
{ACAD_REACTORS
330
21D
102
}
330
A
100
AcDbSymbolTableRecord
100
AcDbDimStyleTableRecord
  2
SLDDIMSTYLE1
 70
     0
 41
2.0
 44
0.0
 45
0.000000001
 73
     0
 74
     0
 77
     1
 78
    12
 79
     3
140
2.5
147
0.625
173
     1
178
     0
271
     1
272
     1
276
     2
284
    12
340
CD
  0
DIMSTYLE
105
235
330
A
100
AcDbSymbolTableRecord
100
AcDbDimStyleTableRecord
  2
SLDDIMSTYLE2
 70
     0
 41
2.0
 44
0.0
 45
0.000000001
146
2.0
147
0.0
173
     1
178
     0
271
     0
272
     0
276
     2
340
11
  0
DIMSTYLE
105
2CB
102
{ACAD_REACTORS
330
2CA
102
}
330
A
100
AcDbSymbolTableRecord
100
AcDbDimStyleTableRecord
  2
SLDDIMSTYLE3
 70
     0
 41
2.0
 44
0.0
 45
0.000000001
 73
     0
 74
     0
 77
     1
 78
    12
 79
     3
140
2.5
147
0.625
172
     1
173
     1
178
     0
271
     2
272
     2
276
     2
284
    12
289
     0
340
CD
  0
DIMSTYLE
105
300
102
{ACAD_REACTORS
330
2FF
102
}
330
A
100
AcDbSymbolTableRecord
100
AcDbDimStyleTableRecord
  2
SLDDIMSTYLE4
 70
     0
  3
<>
 41
2.0
 44
0.0
 45
0.000000001
 78
    12
 79
     3
140
2.5
141
0.0
147
0.625
173
     1
178
     0
271
     2
272
     2
276
     2
284
    12
340
CD
  0
ENDTAB
  0
TABLE
  2
BLOCK_RECORD
  5
1
330
0
100
AcDbSymbolTable
 70
    20
  0
BLOCK_RECORD
  5
1F
330
1
100
AcDbSymbolTableRecord
100
AcDbBlockTableRecord
  2
*Model_Space
340
22
  0
BLOCK_RECORD
  5
1B
330
1
100
AcDbSymbolTableRecord
100
AcDbBlockTableRecord
  2
*Paper_Space
340
1E
  0
BLOCK_RECORD
  5
23
330
1
100
AcDbSymbolTableRecord
100
AcDbBlockTableRecord
  2
*Paper_Space0
340
26
  0
BLOCK_RECORD
  5
CF
330
1
100
AcDbSymbolTableRecord
100
AcDbBlockTableRecord
  2
SW_NOTE_0
340
0
102
{BLKREFS
331
D5
102
}
  0
BLOCK_RECORD
  5
107
330
1
100
AcDbSymbolTableRecord
100
AcDbBlockTableRecord
  2
SW_NOTE_1
340
0
102
{BLKREFS
331
10C
102
}
  0
BLOCK_RECORD
  5
1F6
330
1
100
AcDbSymbolTableRecord
100
AcDbBlockTableRecord
  2
_D
340
0
  0
BLOCK_RECORD
  5
200
330
1
100
AcDbSymbolTableRecord
100
AcDbBlockTableRecord
  2
_D_1
340
0
  0
BLOCK_RECORD
  5
20A
330
1
100
AcDbSymbolTableRecord
100
AcDbBlockTableRecord
  2
_D_2
340
0
  0
BLOCK_RECORD
  5
214
330
1
100
AcDbSymbolTableRecord
100
AcDbBlockTableRecord
  2
_D_3
340
0
  0
BLOCK_RECORD
  5
21F
330
1
100
AcDbSymbolTableRecord
100
AcDbBlockTableRecord
  2
_D_4
340
0
  0
BLOCK_RECORD
  5
229
330
1
100
AcDbSymbolTableRecord
100
AcDbBlockTableRecord
  2
SW_NOTE_2
340
0
102
{BLKREFS
331
234
102
}
  0
BLOCK_RECORD
  5
237
330
1
100
AcDbSymbolTableRecord
100
AcDbBlockTableRecord
  2
SW_NOTE_3
340
0
102
{BLKREFS
331
23C
102
}
  0
BLOCK_RECORD
  5
23E
330
1
100
AcDbSymbolTableRecord
100
AcDbBlockTableRecord
  2
SW_NOTE_4
340
0
102
{BLKREFS
331
244
102
}
  0
BLOCK_RECORD
  5
246
330
1
100
AcDbSymbolTableRecord
100
AcDbBlockTableRecord
  2
SW_CENTERMARKSYMBOL_0
340
0
102
{BLKREFS
331
251
102
}
  0
BLOCK_RECORD
  5
2C1
330
1
100
AcDbSymbolTableRecord
100
AcDbBlockTableRecord
  2
_D_5
340
0
  0
BLOCK_RECORD
  5
2CC
330
1
100
AcDbSymbolTableRecord
100
AcDbBlockTableRecord
  2
_D_6
340
0
  0
BLOCK_RECORD
  5
2D8
330
1
100
AcDbSymbolTableRecord
100
AcDbBlockTableRecord
  2
_D_7
340
0
  0
BLOCK_RECORD
  5
2E2
330
1
100
AcDbSymbolTableRecord
100
AcDbBlockTableRecord
  2
_D_8
340
0
  0
BLOCK_RECORD
  5
2EC
330
1
100
AcDbSymbolTableRecord
100
AcDbBlockTableRecord
  2
_D_9
340
0
  0
BLOCK_RECORD
  5
2F6
330
1
100
AcDbSymbolTableRecord
100
AcDbBlockTableRecord
  2
_D_10
340
0
  0
BLOCK_RECORD
  5
301
330
1
100
AcDbSymbolTableRecord
100
AcDbBlockTableRecord
  2
_D_11
340
0
  0
BLOCK_RECORD
  5
309
330
1
100
AcDbSymbolTableRecord
100
AcDbBlockTableRecord
  2
SW_CENTERMARKSYMBOL_1
340
0
102
{BLKREFS
331
314
102
}
  0
ENDTAB
  0
ENDSEC
  0
SECTION
  2
BLOCKS
  0
BLOCK
  5
20
330
1F
100
AcDbEntity
  8
0
100
AcDbBlockBegin
  2
*Model_Space
 70
     0
 10
0.0
 20
0.0
 30
0.0
  3
*Model_Space
  1

  0
ENDBLK
  5
21
330
1F
100
AcDbEntity
  8
0
100
AcDbBlockEnd
  0
BLOCK
  5
1C
330
1B
100
AcDbEntity
 67
     1
  8
0
100
AcDbBlockBegin
  2
*Paper_Space
 70
     0
 10
0.0
 20
0.0
 30
0.0
  3
*Paper_Space
  1

  0
ENDBLK
  5
1D
330
1B
100
AcDbEntity
 67
     1
  8
0
100
AcDbBlockEnd
  0
BLOCK
  5
24
330
23
100
AcDbEntity
  8
0
100
AcDbBlockBegin
  2
*Paper_Space0
 70
     0
 10
0.0
 20
0.0
 30
0.0
  3
*Paper_Space0
  1

  0
ENDBLK
  5
25
330
23
100
AcDbEntity
  8
0
100
AcDbBlockEnd
  0
BLOCK
  5
D0
330
CF
100
AcDbEntity
  8
0
100
AcDbBlockBegin
  2
SW_NOTE_0
 70
     0
 10
0.0
 20
0.0
 30
0.0
  3
SW_NOTE_0
  1

  0
MTEXT
  5
D2
330
CF
100
AcDbEntity
  8
0
  6
Continuous
 62
     0
370
     0
100
AcDbMText
 10
0.0
 20
3.4106583948
 30
0.0
 40
2.6458333333
 41
0.0
 71
     1
 72
     1
  1
PROPRIETARY AND CONFIDENTIAL
  7
SLDTEXTSTYLE1
 73
     1
 44
1.0
  0
MTEXT
  5
D3
330
CF
100
AcDbEntity
  8
0
  6
Continuous
 62
     0
370
     0
100
AcDbMText
 10
0.0
 20
-0.08198348
 30
0.0
 40
1.8520833333
 41
0.0
 71
     1
 72
     1
  1
THE INFORMATION CONTAINED IN THIS DRAWING IS THE SOLE PROPERTY OF UNICE E-O SERVICES INC. ANY REPRODUCTION IN PART OR AS A WHOLE WITHOUT THE WRITTEN PERMISSION OF UNICE E-O SERVICES INC IS 
  7
SLDTEXTSTYLE1
 73
     1
 44
1.0
  0
MTEXT
  5
D4
330
CF
100
AcDbEntity
  8
0
  6
Continuous
 62
     0
370
     0
100
AcDbMText
 10
0.0
 20
-2.5514278946
 30
0.0
 40
1.8520833333
 41
0.0
 71
     1
 72
     1
  1
PROHIBITED.
  7
SLDTEXTSTYLE1
 73
     1
 44
1.0
  0
ENDBLK
  5
D1
330
CF
100
AcDbEntity
  8
0
100
AcDbBlockEnd
  0
BLOCK
  5
108
330
107
100
AcDbEntity
  8
0
100
AcDbBlockBegin
  2
SW_NOTE_1
 70
     0
 10
0.0
 20
0.0
 30
0.0
  3
SW_NOTE_1
  1

  0
MTEXT
  5
10A
330
107
100
AcDbEntity
  8
DIM
 62
     0
100
AcDbMText
 10
0.0
 20
2.3874608764
 30
0.0
 40
1.8520833333
 41
0.0
 71
     1
 72
     1
  1
No.5, Andong Rd., Chung Li District,
  7
SLDTEXTSTYLE0
 73
     1
 44
1.0
  0
MTEXT
  5
10B
330
107
100
AcDbEntity
  8
DIM
 62
     0
100
AcDbMText
 10
0.0
 20
-0.0819835382
 30
0.0
 40
1.8520833333
 41
0.0
 71
     1
 72
     1
  1
Taoyuan City 32063, Taiwan, R.O.C.
  7
SLDTEXTSTYLE0
 73
     1
 44
1.0
  0
ENDBLK
  5
109
330
107
100
AcDbEntity
  8
0
100
AcDbBlockEnd
  0
BLOCK
  5
1F7
330
1F6
100
AcDbEntity
  8
0
100
AcDbBlockBegin
  2
_D
 70
     0
 10
0.0
 20
0.0
 30
0.0
  3
_D
  1

  0
SOLID
  5
1F9
330
1F6
100
AcDbEntity
  8
DIM
 62
     7
100
AcDbTrace
 10
121.468490913
 20
59.8323905147
 30
0.0
 11
123.468490913
 21
59.5823905147
 31
0.0
 12
123.468490913
 22
60.0823905147
 32
0.0
 13
123.468490913
 23
60.0823905147
 33
0.0
  0
SOLID
  5
1FA
330
1F6
100
AcDbEntity
  8
DIM
 62
     7
100
AcDbTrace
 10
146.868490913
 20
59.8323905147
 30
0.0
 11
144.868490913
 21
60.0823905147
 31
0.0
 12
144.868490913
 22
59.5823905147
 32
0.0
 13
144.868490913
 23
59.5823905147
 33
0.0
  0
LINE
  5
1FB
330
1F6
100
AcDbEntity
  8
DIM
 62
     7
100
AcDbLine
 10
121.468490913
 20
66.8323905147
 30
0.0
 11
121.468490913
 21
58.8323905147
 31
0.0
  0
LINE
  5
1FC
330
1F6
100
AcDbEntity
  8
DIM
 62
     7
100
AcDbLine
 10
146.868490913
 20
66.8323905147
 30
0.0
 11
146.868490913
 21
58.8323905147
 31
0.0
  0
LINE
  5
1FD
330
1F6
100
AcDbEntity
  8
DIM
 62
     7
100
AcDbLine
 10
121.468490913
 20
59.8323905147
 30
0.0
 11
146.868490913
 21
59.8323905147
 31
0.0
  0
MTEXT
  5
1FE
330
1F6
100
AcDbEntity
  8
DIM
 62
     7
100
AcDbMText
 10
130.8264771069
 20
63.0550596895
 30
0.0
 40
2.5
 41
0.0
 71
     1
 72
     1
  1
25.4
  7
SLDTEXTSTYLE1
 73
     1
 44
1.0
  0
ENDBLK
  5
1F8
330
1F6
100
AcDbEntity
  8
0
100
AcDbBlockEnd
  0
BLOCK
  5
201
330
200
100
AcDbEntity
  8
0
100
AcDbBlockBegin
  2
_D_1
 70
     0
 10
0.0
 20
0.0
 30
0.0
  3
_D_1
  1

  0
SOLID
  5
203
330
200
100
AcDbEntity
  8
DIM
 62
     7
100
AcDbTrace
 10
114.168490913
 20
53.8323905147
 30
0.0
 11
116.168490913
 21
53.5823905147
 31
0.0
 12
116.168490913
 22
54.0823905147
 32
0.0
 13
116.168490913
 23
54.0823905147
 33
0.0
  0
SOLID
  5
204
330
200
100
AcDbEntity
  8
DIM
 62
     7
100
AcDbTrace
 10
154.168490913
 20
53.8323905147
 30
0.0
 11
152.168490913
 21
54.0823905147
 31
0.0
 12
152.168490913
 22
53.5823905147
 32
0.0
 13
152.168490913
 23
53.5823905147
 33
0.0
  0
LINE
  5
205
330
200
100
AcDbEntity
  8
DIM
 62
     7
100
AcDbLine
 10
114.168490913
 20
66.8323905147
 30
0.0
 11
114.168490913
 21
52.8323905147
 31
0.0
  0
LINE
  5
206
330
200
100
AcDbEntity
  8
DIM
 62
     7
100
AcDbLine
 10
154.168490913
 20
66.8323905147
 30
0.0
 11
154.168490913
 21
52.8323905147
 31
0.0
  0
LINE
  5
207
330
200
100
AcDbEntity
  8
DIM
 62
     7
100
AcDbLine
 10
114.168490913
 20
53.8323905147
 30
0.0
 11
154.168490913
 21
53.8323905147
 31
0.0
  0
MTEXT
  5
208
330
200
100
AcDbEntity
  8
DIM
 62
     7
100
AcDbMText
 10
132.2587686882
 20
57.0550596895
 30
0.0
 40
2.5
 41
0.0
 71
     1
 72
     1
  1
40
  7
SLDTEXTSTYLE1
 73
     1
 44
1.0
  0
ENDBLK
  5
202
330
200
100
AcDbEntity
  8
0
100
AcDbBlockEnd
  0
BLOCK
  5
20B
330
20A
100
AcDbEntity
  8
0
100
AcDbBlockBegin
  2
_D_2
 70
     0
 10
0.0
 20
0.0
 30
0.0
  3
_D_2
  1

  0
SOLID
  5
20D
330
20A
100
AcDbEntity
  8
DIM
 62
     7
100
AcDbTrace
 10
161.9361519438
 20
92.8323905147
 30
0.0
 11
161.6861519438
 21
90.8323905147
 31
0.0
 12
162.1861519438
 22
90.8323905147
 32
0.0
 13
162.1861519438
 23
90.8323905147
 33
0.0
  0
SOLID
  5
20E
330
20A
100
AcDbEntity
  8
DIM
 62
     7
100
AcDbTrace
 10
161.9361519438
 20
67.8323905147
 30
0.0
 11
162.1861519438
 21
69.8323905147
 31
0.0
 12
161.6861519438
 22
69.8323905147
 32
0.0
 13
161.6861519438
 23
69.8323905147
 33
0.0
  0
LINE
  5
20F
330
20A
100
AcDbEntity
  8
DIM
 62
     7
100
AcDbLine
 10
135.168490913
 20
92.8323905147
 30
0.0
 11
162.9361519438
 21
92.8323905147
 31
0.0
  0
LINE
  5
210
330
20A
100
AcDbEntity
  8
DIM
 62
     7
100
AcDbLine
 10
155.168490913
 20
67.8323905147
 30
0.0
 11
162.9361519438
 21
67.8323905147
 31
0.0
  0
LINE
  5
211
330
20A
100
AcDbEntity
  8
DIM
 62
     7
100
AcDbLine
 10
161.9361519438
 20
92.8323905147
 30
0.0
 11
161.9361519438
 21
67.8323905147
 31
0.0
  0
MTEXT
  5
212
330
20A
100
AcDbEntity
  8
DIM
 62
     7
100
AcDbMText
 10
158.713482769
 20
78.4226682899
 30
0.0
 40
2.5
 41
0.0
 71
     1
 72
     1
  1
25
  7
SLDTEXTSTYLE1
 11
-7.044195017643634E-15
 21
1.0
 31
0.0
 73
     1
 44
1.0
  0
ENDBLK
  5
20C
330
20A
100
AcDbEntity
  8
0
100
AcDbBlockEnd
  0
BLOCK
  5
215
330
214
100
AcDbEntity
  8
0
100
AcDbBlockBegin
  2
_D_3
 70
     0
 10
0.0
 20
0.0
 30
0.0
  3
_D_3
  1

  0
SOLID
  5
217
330
214
100
AcDbEntity
  8
DIM
 62
     7
100
AcDbTrace
 10
168.9903414188
 20
130.8323905147
 30
0.0
 11
168.7403414188
 21
128.8323905147
 31
0.0
 12
169.2403414188
 22
128.8323905147
 32
0.0
 13
169.2403414188
 23
128.8323905147
 33
0.0
  0
SOLID
  5
218
330
214
100
AcDbEntity
  8
DIM
 62
     7
100
AcDbTrace
 10
168.9903414188
 20
67.8323905147
 30
0.0
 11
169.2403414188
 21
69.8323905147
 31
0.0
 12
168.7403414188
 22
69.8323905147
 32
0.0
 13
168.7403414188
 23
69.8323905147
 33
0.0
  0
LINE
  5
219
330
214
100
AcDbEntity
  8
DIM
 62
     7
100
AcDbLine
 10
155.168490913
 20
130.8323905147
 30
0.0
 11
169.9903414188
 21
130.8323905147
 31
0.0
  0
LINE
  5
21A
330
214
100
AcDbEntity
  8
DIM
 62
     7
100
AcDbLine
 10
155.168490913
 20
67.8323905147
 30
0.0
 11
169.9903414188
 21
67.8323905147
 31
0.0
  0
LINE
  5
21B
330
214
100
AcDbEntity
  8
DIM
 62
     7
100
AcDbLine
 10
168.9903414188
 20
130.8323905147
 30
0.0
 11
168.9903414188
 21
67.8323905147
 31
0.0
  0
MTEXT
  5
21C
330
214
100
AcDbEntity
  8
DIM
 62
     7
100
AcDbMText
 10
165.767672244
 20
97.4226682899
 30
0.0
 40
2.5
 41
0.0
 71
     1
 72
     1
  1
63
  7
SLDTEXTSTYLE1
 11
-7.044195017643634E-15
 21
1.0
 31
0.0
 73
     1
 44
1.0
  0
ENDBLK
  5
216
330
214
100
AcDbEntity
  8
0
100
AcDbBlockEnd
  0
BLOCK
  5
220
330
21F
100
AcDbEntity
  8
0
100
AcDbBlockBegin
  2
_D_4
 70
     0
 10
0.0
 20
0.0
 30
0.0
  3
_D_4
  1

  0
SOLID
  5
222
330
21F
100
AcDbEntity
  8
DIM
 62
     7
100
AcDbTrace
 10
177.9903414188
 20
139.4639731909
 30
0.0
 11
177.7403414188
 21
137.4639731909
 31
0.0
 12
178.2403414188
 22
137.4639731909
 32
0.0
 13
178.2403414188
 23
137.4639731909
 33
0.0
  0
SOLID
  5
223
330
21F
100
AcDbEntity
  8
DIM
 62
     7
100
AcDbTrace
 10
177.9903414188
 20
67.8323905147
 30
0.0
 11
178.2403414188
 21
69.8323905147
 31
0.0
 12
177.7403414188
 22
69.8323905147
 32
0.0
 13
177.7403414188
 23
69.8323905147
 33
0.0
  0
LINE
  5
224
330
21F
100
AcDbEntity
  8
DIM
 62
     7
100
AcDbLine
 10
154.668490913
 20
139.4639731909
 30
0.0
 11
178.9903414188
 21
139.4639731909
 31
0.0
  0
LINE
  5
225
330
21F
100
AcDbEntity
  8
DIM
 62
     7
100
AcDbLine
 10
155.168490913
 20
67.8323905147
 30
0.0
 11
178.9903414188
 21
67.8323905147
 31
0.0
  0
LINE
  5
226
330
21F
100
AcDbEntity
  8
DIM
 62
     7
100
AcDbLine
 10
177.9903414188
 20
139.4639731909
 30
0.0
 11
177.9903414188
 21
67.8323905147
 31
0.0
  0
MTEXT
  5
227
330
21F
100
AcDbEntity
  8
DIM
 62
     7
100
AcDbMText
 10
170.9308667775
 20
100.3061680467
 30
0.0
 40
2.5
 41
0.0
 71
     1
 72
     1
  1
71.6
  7
SLDTEXTSTYLE1
 11
-7.044195017643634E-15
 21
1.0
 31
0.0
 73
     1
 44
1.0
  0
MTEXT
  5
228
330
21F
100
AcDbEntity
  8
DIM
 62
     7
100
AcDbMText
 10
174.767672244
 20
95.8252650098
 30
0.0
 40
2.5
 41
0.0
 71
     1
 72
     1
  1
NOMINAL
  7
SLDTEXTSTYLE1
 11
-7.044195017643634E-15
 21
1.0
 31
0.0
 73
     1
 44
1.0
  0
ENDBLK
  5
221
330
21F
100
AcDbEntity
  8
0
100
AcDbBlockEnd
  0
BLOCK
  5
22A
330
229
100
AcDbEntity
  8
0
100
AcDbBlockBegin
  2
SW_NOTE_2
 70
     0
 10
0.0
 20
0.0
 30
0.0
  3
SW_NOTE_2
  1

  0
LINE
  5
22C
330
229
100
AcDbEntity
  8
DIM
 62
     0
100
AcDbLine
 10
-19.7115384615
 20
0.0
 30
0.0
 11
0.0
 21
0.0
 31
0.0
  0
LINE
  5
22D
330
229
100
AcDbEntity
  8
DIM
 62
     0
100
AcDbLine
 10
0.0
 20
0.0
 30
0.0
 11
-19.7115384615
 21
0.0
 31
0.0
  0
LINE
  5
22E
330
229
100
AcDbEntity
  8
DIM
 62
     0
100
AcDbLine
 10
-19.7115384615
 20
0.0
 30
0.0
 11
0.0
 21
0.0
 31
0.0
  0
LINE
  5
22F
330
229
100
AcDbEntity
  8
DIM
 62
     0
100
AcDbLine
 10
0.0
 20
0.0
 30
0.0
 11
-19.7115384615
 21
0.0
 31
0.0
  0
LINE
  5
230
330
229
100
AcDbEntity
  8
DIM
 62
     0
100
AcDbLine
 10
-19.7115384615
 20
0.0
 30
0.0
 11
0.0
 21
0.0
 31
0.0
  0
LINE
  5
231
330
229
100
AcDbEntity
  8
DIM
 62
     0
100
AcDbLine
 10
0.0
 20
0.0
 30
0.0
 11
-19.7115384615
 21
0.0
 31
0.0
  0
MTEXT
  5
232
330
229
100
AcDbEntity
  8
DIM
 62
     0
100
AcDbMText
 10
-19.6796708633
 20
6.6933554079
 30
0.0
 40
2.5
 41
0.0
 71
     1
 72
     1
  1
1 HOLE,
  7
SLDTEXTSTYLE1
 73
     1
 44
1.0
  0
MTEXT
  5
233
330
229
100
AcDbEntity
  8
DIM
 62
     0
100
AcDbMText
 10
-19.6796708633
 20
3.1933552999
 30
0.0
 40
2.5
 41
0.0
 71
     1
 72
     1
  1
 1/4"-20 CLR
  7
SLDTEXTSTYLE1
 73
     1
 44
1.0
  0
ENDBLK
  5
22B
330
229
100
AcDbEntity
  8
0
100
AcDbBlockEnd
  0
BLOCK
  5
238
330
237
100
AcDbEntity
  8
0
100
AcDbBlockBegin
  2
SW_NOTE_3
 70
     0
 10
0.0
 20
0.0
 30
0.0
  3
SW_NOTE_3
  1

  0
MTEXT
  5
23A
330
237
100
AcDbEntity
  8
DIM
 62
     0
100
AcDbMText
 10
0.6149716159
 20
1.1628400086
 30
0.0
 40
2.6458333333
 41
0.0
 71
     1
 72
     1
  1
2 HOLES,
  7
SLDTEXTSTYLE1
 73
     1
 44
1.0
  0
MTEXT
  5
23B
330
237
100
AcDbEntity
  8
DIM
 62
     0
100
AcDbMText
 10
0.6149716159
 20
-2.3649377265
 30
0.0
 40
2.6458333333
 41
0.0
 71
     1
 72
     1
  1
 8-32 CLR
  7
SLDTEXTSTYLE1
 73
     1
 44
1.0
  0
ENDBLK
  5
239
330
237
100
AcDbEntity
  8
0
100
AcDbBlockEnd
  0
BLOCK
  5
23F
330
23E
100
AcDbEntity
  8
0
100
AcDbBlockBegin
  2
SW_NOTE_4
 70
     0
 10
0.0
 20
0.0
 30
0.0
  3
SW_NOTE_4
  1

  0
MTEXT
  5
241
330
23E
100
AcDbEntity
  8
DIM
 62
     0
100
AcDbMText
 10
-23.8050373418
 20
4.7974921706
 30
0.0
 40
2.5
 41
0.0
 71
     1
 72
     1
  1
ACCEPTS
  7
SLDTEXTSTYLE1
 73
     1
 44
1.0
  0
MTEXT
  5
242
330
23E
100
AcDbEntity
  8
DIM
 62
     0
100
AcDbMText
 10
-23.8050373418
 20
1.2974920625
 30
0.0
 40
2.5
 41
0.0
 71
     1
 72
     1
  1
%%c
  7
SLDTEXTSTYLE1
 73
     1
 44
1.0
  0
MTEXT
  5
243
330
23E
100
AcDbEntity
  8
DIM
 62
     0
100
AcDbMText
 10
-20.1600719856
 20
1.2974920625
 30
0.0
 40
2.5
 41
0.0
 71
     1
 72
     1
  1
0.5" OPTICS
  7
SLDTEXTSTYLE1
 73
     1
 44
1.0
  0
ENDBLK
  5
240
330
23E
100
AcDbEntity
  8
0
100
AcDbBlockEnd
  0
BLOCK
  5
247
330
246
100
AcDbEntity
  8
0
100
AcDbBlockBegin
  2
SW_CENTERMARKSYMBOL_0
 70
     0
 10
0.0
 20
0.0
 30
0.0
  3
SW_CENTERMARKSYMBOL_0
  1

  0
LINE
  5
249
330
246
100
AcDbEntity
  8
DIM
 62
     0
100
AcDbLine
 10
0.0
 20
0.0
 30
0.0
 11
0.0
 21
1.0
 31
0.0
  0
LINE
  5
24A
330
246
100
AcDbEntity
  8
DIM
 62
     0
100
AcDbLine
 10
0.0
 20
0.0
 30
0.0
 11
-1.0
 21
0.0
 31
0.0
  0
LINE
  5
24B
330
246
100
AcDbEntity
  8
DIM
 62
     0
100
AcDbLine
 10
0.0
 20
0.0
 30
0.0
 11
0.0
 21
-1.0
 31
0.0
  0
LINE
  5
24C
330
246
100
AcDbEntity
  8
DIM
 62
     0
100
AcDbLine
 10
0.0
 20
0.0
 30
0.0
 11
1.0
 21
0.0
 31
0.0
  0
LINE
  5
24D
330
246
100
AcDbEntity
  8
DIM
 62
     0
100
AcDbLine
 10
0.0
 20
2.0
 30
0.0
 11
0.0
 21
8.0
 31
0.0
  0
LINE
  5
24E
330
246
100
AcDbEntity
  8
DIM
 62
     0
100
AcDbLine
 10
-2.0
 20
0.0
 30
0.0
 11
-8.0
 21
0.0
 31
0.0
  0
LINE
  5
24F
330
246
100
AcDbEntity
  8
DIM
 62
     0
100
AcDbLine
 10
0.0
 20
-2.0
 30
0.0
 11
0.0
 21
-8.0
 31
0.0
  0
LINE
  5
250
330
246
100
AcDbEntity
  8
DIM
 62
     0
100
AcDbLine
 10
2.0
 20
0.0
 30
0.0
 11
8.0
 21
0.0
 31
0.0
  0
ENDBLK
  5
248
330
246
100
AcDbEntity
  8
0
100
AcDbBlockEnd
  0
BLOCK
  5
2C2
330
2C1
100
AcDbEntity
  8
0
100
AcDbBlockBegin
  2
_D_5
 70
     0
 10
0.0
 20
0.0
 30
0.0
  3
_D_5
  1

  0
SOLID
  5
2C4
330
2C1
100
AcDbEntity
  8
DIM
 62
     7
100
AcDbTrace
 10
55.889482924
 20
56.4695401648
 30
0.0
 11
53.889482924
 21
56.7195401648
 31
0.0
 12
53.889482924
 22
56.2195401648
 32
0.0
 13
53.889482924
 23
56.2195401648
 33
0.0
  0
SOLID
  5
2C5
330
2C1
100
AcDbEntity
  8
DIM
 62
     7
100
AcDbTrace
 10
36.889482924
 20
56.4695401648
 30
0.0
 11
38.889482924
 21
56.2195401648
 31
0.0
 12
38.889482924
 22
56.7195401648
 32
0.0
 13
38.889482924
 23
56.7195401648
 33
0.0
  0
LINE
  5
2C6
330
2C1
100
AcDbEntity
  8
DIM
 62
     7
100
AcDbLine
 10
55.889482924
 20
71.8323905147
 30
0.0
 11
55.889482924
 21
55.4695401648
 31
0.0
  0
LINE
  5
2C7
330
2C1
100
AcDbEntity
  8
DIM
 62
     7
100
AcDbLine
 10
36.889482924
 20
71.8323905147
 30
0.0
 11
36.889482924
 21
55.4695401648
 31
0.0
  0
LINE
  5
2C8
330
2C1
100
AcDbEntity
  8
DIM
 62
     7
100
AcDbLine
 10
55.889482924
 20
56.4695401648
 30
0.0
 11
36.889482924
 21
56.4695401648
 31
0.0
  0
MTEXT
  5
2C9
330
2C1
100
AcDbEntity
  8
DIM
 62
     7
100
AcDbMText
 10
44.4797606992
 20
59.6922093396
 30
0.0
 40
2.5
 41
0.0
 71
     1
 72
     1
  1
19
  7
SLDTEXTSTYLE1
 73
     1
 44
1.0
  0
ENDBLK
  5
2C3
330
2C1
100
AcDbEntity
  8
0
100
AcDbBlockEnd
  0
BLOCK
  5
2CD
330
2CC
100
AcDbEntity
  8
0
100
AcDbBlockBegin
  2
_D_6
 70
     0
 10
0.0
 20
0.0
 30
0.0
  3
_D_6
  1

  0
SOLID
  5
2CF
330
2CC
100
AcDbEntity
  8
DIM
 62
     7
100
AcDbTrace
 10
36.889482924
 20
61.5030183118
 30
0.0
 11
34.889482924
 21
61.7530183118
 31
0.0
 12
34.889482924
 22
61.2530183118
 32
0.0
 13
34.889482924
 23
61.2530183118
 33
0.0
  0
SOLID
  5
2D0
330
2CC
100
AcDbEntity
  8
DIM
 62
     7
100
AcDbTrace
 10
41.889482924
 20
61.5030183118
 30
0.0
 11
43.889482924
 21
61.2530183118
 31
0.0
 12
43.889482924
 22
61.7530183118
 32
0.0
 13
43.889482924
 23
61.7530183118
 33
0.0
  0
LINE
  5
2D1
330
2CC
100
AcDbEntity
  8
DIM
 62
     7
100
AcDbLine
 10
36.889482924
 20
71.8323905147
 30
0.0
 11
36.889482924
 21
60.5030183118
 31
0.0
  0
LINE
  5
2D2
330
2CC
100
AcDbEntity
  8
DIM
 62
     7
100
AcDbLine
 10
41.889482924
 20
91.8323905147
 30
0.0
 11
41.889482924
 21
60.5030183118
 31
0.0
  0
LINE
  5
2D3
330
2CC
100
AcDbEntity
  8
DIM
 62
     7
100
AcDbLine
 10
36.889482924
 20
61.5030183118
 30
0.0
 11
33.889482924
 21
61.5030183118
 31
0.0
  0
LINE
  5
2D4
330
2CC
100
AcDbEntity
  8
DIM
 62
     7
100
AcDbLine
 10
36.889482924
 20
61.5030183118
 30
0.0
 11
41.889482924
 21
61.5030183118
 31
0.0
  0
LINE
  5
2D5
330
2CC
100
AcDbEntity
  8
DIM
 62
     7
100
AcDbLine
 10
41.889482924
 20
61.5030183118
 30
0.0
 11
44.889482924
 21
61.5030183118
 31
0.0
  0
MTEXT
  5
2D6
330
2CC
100
AcDbEntity
  8
DIM
 62
     7
100
AcDbMText
 10
38.4346218116
 20
64.7256874866
 30
0.0
 40
2.5
 41
0.0
 71
     1
 72
     1
  1
5
  7
SLDTEXTSTYLE1
 73
     1
 44
1.0
  0
ENDBLK
  5
2CE
330
2CC
100
AcDbEntity
  8
0
100
AcDbBlockEnd
  0
BLOCK
  5
2D9
330
2D8
100
AcDbEntity
  8
0
100
AcDbBlockBegin
  2
_D_7
 70
     0
 10
0.0
 20
0.0
 30
0.0
  3
_D_7
  1

  0
SOLID
  5
2DB
330
2D8
100
AcDbEntity
  8
DIM
 62
     7
100
AcDbTrace
 10
63.889482924
 20
51.5227822195
 30
0.0
 11
61.889482924
 21
51.7727822195
 31
0.0
 12
61.889482924
 22
51.2727822195
 32
0.0
 13
61.889482924
 23
51.2727822195
 33
0.0
  0
SOLID
  5
2DC
330
2D8
100
AcDbEntity
  8
DIM
 62
     7
100
AcDbTrace
 10
36.889482924
 20
51.5227822195
 30
0.0
 11
38.889482924
 21
51.2727822195
 31
0.0
 12
38.889482924
 22
51.7727822195
 32
0.0
 13
38.889482924
 23
51.7727822195
 33
0.0
  0
LINE
  5
2DD
330
2D8
100
AcDbEntity
  8
DIM
 62
     7
100
AcDbLine
 10
63.889482924
 20
64.8323905147
 30
0.0
 11
63.889482924
 21
50.5227822195
 31
0.0
  0
LINE
  5
2DE
330
2D8
100
AcDbEntity
  8
DIM
 62
     7
100
AcDbLine
 10
36.889482924
 20
66.8323905147
 30
0.0
 11
36.889482924
 21
50.5227822195
 31
0.0
  0
LINE
  5
2DF
330
2D8
100
AcDbEntity
  8
DIM
 62
     7
100
AcDbLine
 10
63.889482924
 20
51.5227822195
 30
0.0
 11
36.889482924
 21
51.5227822195
 31
0.0
  0
MTEXT
  5
2E0
330
2D8
100
AcDbEntity
  8
DIM
 62
     7
100
AcDbMText
 10
48.4797606992
 20
54.7454513943
 30
0.0
 40
2.5
 41
0.0
 71
     1
 72
     1
  1
27
  7
SLDTEXTSTYLE1
 73
     1
 44
1.0
  0
ENDBLK
  5
2DA
330
2D8
100
AcDbEntity
  8
0
100
AcDbBlockEnd
  0
BLOCK
  5
2E3
330
2E2
100
AcDbEntity
  8
0
100
AcDbBlockBegin
  2
_D_8
 70
     0
 10
0.0
 20
0.0
 30
0.0
  3
_D_8
  1

  0
SOLID
  5
2E5
330
2E2
100
AcDbEntity
  8
DIM
 62
     7
100
AcDbTrace
 10
36.889482924
 20
46.5543553893
 30
0.0
 11
38.889482924
 21
46.3043553893
 31
0.0
 12
38.889482924
 22
46.8043553893
 32
0.0
 13
38.889482924
 23
46.8043553893
 33
0.0
  0
SOLID
  5
2E6
330
2E2
100
AcDbEntity
  8
DIM
 62
     7
100
AcDbTrace
 10
71.889482924
 20
46.5543553893
 30
0.0
 11
69.889482924
 21
46.8043553893
 31
0.0
 12
69.889482924
 22
46.3043553893
 32
0.0
 13
69.889482924
 23
46.3043553893
 33
0.0
  0
LINE
  5
2E7
330
2E2
100
AcDbEntity
  8
DIM
 62
     7
100
AcDbLine
 10
36.889482924
 20
66.8323905147
 30
0.0
 11
36.889482924
 21
45.5543553893
 31
0.0
  0
LINE
  5
2E8
330
2E2
100
AcDbEntity
  8
DIM
 62
     7
100
AcDbLine
 10
71.889482924
 20
66.8323905147
 30
0.0
 11
71.889482924
 21
45.5543553893
 31
0.0
  0
LINE
  5
2E9
330
2E2
100
AcDbEntity
  8
DIM
 62
     7
100
AcDbLine
 10
36.889482924
 20
46.5543553893
 30
0.0
 11
71.889482924
 21
46.5543553893
 31
0.0
  0
MTEXT
  5
2EA
330
2E2
100
AcDbEntity
  8
DIM
 62
     7
100
AcDbMText
 10
52.4797606992
 20
49.7770245641
 30
0.0
 40
2.5
 41
0.0
 71
     1
 72
     1
  1
35
  7
SLDTEXTSTYLE1
 73
     1
 44
1.0
  0
ENDBLK
  5
2E4
330
2E2
100
AcDbEntity
  8
0
100
AcDbBlockEnd
  0
BLOCK
  5
2ED
330
2EC
100
AcDbEntity
  8
0
100
AcDbBlockBegin
  2
_D_9
 70
     0
 10
0.0
 20
0.0
 30
0.0
  3
_D_9
  1

  0
SOLID
  5
2EF
330
2EC
100
AcDbEntity
  8
DIM
 62
     7
100
AcDbTrace
 10
78.5477273382
 20
73.8323905147
 30
0.0
 11
78.2977273382
 21
71.8323905147
 31
0.0
 12
78.7977273382
 22
71.8323905147
 32
0.0
 13
78.7977273382
 23
71.8323905147
 33
0.0
  0
SOLID
  5
2F0
330
2EC
100
AcDbEntity
  8
DIM
 62
     7
100
AcDbTrace
 10
78.5477273382
 20
67.8323905147
 30
0.0
 11
78.7977273382
 21
69.8323905147
 31
0.0
 12
78.2977273382
 22
69.8323905147
 32
0.0
 13
78.2977273382
 23
69.8323905147
 33
0.0
  0
LINE
  5
2F1
330
2EC
100
AcDbEntity
  8
DIM
 62
     7
100
AcDbLine
 10
72.889482924
 20
73.8323905147
 30
0.0
 11
79.5477273382
 21
73.8323905147
 31
0.0
  0
LINE
  5
2F2
330
2EC
100
AcDbEntity
  8
DIM
 62
     7
100
AcDbLine
 10
72.889482924
 20
67.8323905147
 30
0.0
 11
79.5477273382
 21
67.8323905147
 31
0.0
  0
LINE
  5
2F3
330
2EC
100
AcDbEntity
  8
DIM
 62
     7
100
AcDbLine
 10
78.5477273382
 20
73.8323905147
 30
0.0
 11
78.5477273382
 21
67.8323905147
 31
0.0
  0
MTEXT
  5
2F4
330
2EC
100
AcDbEntity
  8
DIM
 62
     7
100
AcDbMText
 10
75.3250581634
 20
69.8775294023
 30
0.0
 40
2.5
 41
0.0
 71
     1
 72
     1
  1
6
  7
SLDTEXTSTYLE1
 11
-7.044195017643634E-15
 21
1.0
 31
0.0
 73
     1
 44
1.0
  0
ENDBLK
  5
2EE
330
2EC
100
AcDbEntity
  8
0
100
AcDbBlockEnd
  0
BLOCK
  5
2F7
330
2F6
100
AcDbEntity
  8
0
100
AcDbBlockBegin
  2
_D_10
 70
     0
 10
0.0
 20
0.0
 30
0.0
  3
_D_10
  1

  0
SOLID
  5
2F9
330
2F6
100
AcDbEntity
  8
DIM
 62
     7
100
AcDbTrace
 10
30.3030078751
 20
92.8323905147
 30
0.0
 11
30.0530078751
 21
90.8323905147
 31
0.0
 12
30.5530078751
 22
90.8323905147
 32
0.0
 13
30.5530078751
 23
90.8323905147
 33
0.0
  0
SOLID
  5
2FA
330
2F6
100
AcDbEntity
  8
DIM
 62
     7
100
AcDbTrace
 10
30.3030078751
 20
67.8323905147
 30
0.0
 11
30.5530078751
 21
69.8323905147
 31
0.0
 12
30.0530078751
 22
69.8323905147
 32
0.0
 13
30.0530078751
 23
69.8323905147
 33
0.0
  0
LINE
  5
2FB
330
2F6
100
AcDbEntity
  8
DIM
 62
     7
100
AcDbLine
 10
40.889482924
 20
92.8323905147
 30
0.0
 11
29.3030078751
 21
92.8323905147
 31
0.0
  0
LINE
  5
2FC
330
2F6
100
AcDbEntity
  8
DIM
 62
     7
100
AcDbLine
 10
35.889482924
 20
67.8323905147
 30
0.0
 11
29.3030078751
 21
67.8323905147
 31
0.0
  0
LINE
  5
2FD
330
2F6
100
AcDbEntity
  8
DIM
 62
     7
100
AcDbLine
 10
30.3030078751
 20
92.8323905147
 30
0.0
 11
30.3030078751
 21
67.8323905147
 31
0.0
  0
MTEXT
  5
2FE
330
2F6
100
AcDbEntity
  8
DIM
 62
     7
100
AcDbMText
 10
27.0803387003
 20
78.4226682899
 30
0.0
 40
2.5
 41
0.0
 71
     1
 72
     1
  1
25
  7
SLDTEXTSTYLE1
 11
-7.044195017643634E-15
 21
1.0
 31
0.0
 73
     1
 44
1.0
  0
ENDBLK
  5
2F8
330
2F6
100
AcDbEntity
  8
0
100
AcDbBlockEnd
  0
BLOCK
  5
302
330
301
100
AcDbEntity
  8
0
100
AcDbBlockBegin
  2
_D_11
 70
     0
 10
0.0
 20
0.0
 30
0.0
  3
_D_11
  1

  0
SOLID
  5
304
330
301
100
AcDbEntity
  8
DIM
100
AcDbTrace
 10
43.3852820014
 20
93.6959905147
 30
0.0
 11
45.242332809
 21
94.4794841638
 31
0.0
 12
44.992332809
 22
94.9124968657
 32
0.0
 13
44.992332809
 23
94.9124968657
 33
0.0
  0
LINE
  5
305
330
301
100
AcDbEntity
  8
DIM
100
AcDbLine
 10
43.3852820014
 20
93.6959905147
 30
0.0
 11
60.5033921998
 21
103.5791360458
 31
0.0
  0
LINE
  5
306
330
301
100
AcDbEntity
  8
DIM
100
AcDbLine
 10
60.5033921998
 20
103.5791360458
 30
0.0
 11
74.9235311326
 21
103.5791360458
 31
0.0
  0
MTEXT
  5
307
330
301
100
AcDbEntity
  8
DIM
100
AcDbMText
 10
61.7533921998
 20
110.6386106871
 30
0.0
 40
2.5
 41
0.0
 71
     1
 72
     1
  1
1 HOLE,
  7
SLDTEXTSTYLE1
 73
     1
 44
1.0
  0
MTEXT
  5
308
330
301
100
AcDbEntity
  8
DIM
100
AcDbMText
 10
61.7533921998
 20
106.8018052206
 30
0.0
 40
2.5
 41
0.0
 71
     1
 72
     1
  1
 8-32
  7
SLDTEXTSTYLE1
 73
     1
 44
1.0
  0
ENDBLK
  5
303
330
301
100
AcDbEntity
  8
0
100
AcDbBlockEnd
  0
BLOCK
  5
30A
330
309
100
AcDbEntity
  8
0
100
AcDbBlockBegin
  2
SW_CENTERMARKSYMBOL_1
 70
     0
 10
0.0
 20
0.0
 30
0.0
  3
SW_CENTERMARKSYMBOL_1
  1

  0
LINE
  5
30C
330
309
100
AcDbEntity
  8
DIM
 62
     0
100
AcDbLine
 10
0.0
 20
0.0
 30
0.0
 11
0.0
 21
1.0
 31
0.0
  0
LINE
  5
30D
330
309
100
AcDbEntity
  8
DIM
 62
     0
100
AcDbLine
 10
0.0
 20
0.0
 30
0.0
 11
-1.0
 21
0.0
 31
0.0
  0
LINE
  5
30E
330
309
100
AcDbEntity
  8
DIM
 62
     0
100
AcDbLine
 10
0.0
 20
0.0
 30
0.0
 11
0.0
 21
-1.0
 31
0.0
  0
LINE
  5
30F
330
309
100
AcDbEntity
  8
DIM
 62
     0
100
AcDbLine
 10
0.0
 20
0.0
 30
0.0
 11
1.0
 21
0.0
 31
0.0
  0
LINE
  5
310
330
309
100
AcDbEntity
  8
DIM
 62
     0
100
AcDbLine
 10
0.0
 20
2.0
 30
0.0
 11
0.0
 21
2.7272
 31
0.0
  0
LINE
  5
311
330
309
100
AcDbEntity
  8
DIM
 62
     0
100
AcDbLine
 10
-2.0
 20
0.0
 30
0.0
 11
-2.7272
 21
0.0
 31
0.0
  0
LINE
  5
312
330
309
100
AcDbEntity
  8
DIM
 62
     0
100
AcDbLine
 10
0.0
 20
-2.0
 30
0.0
 11
0.0
 21
-2.7272
 31
0.0
  0
LINE
  5
313
330
309
100
AcDbEntity
  8
DIM
 62
     0
100
AcDbLine
 10
2.0
 20
0.0
 30
0.0
 11
2.7272
 21
0.0
 31
0.0
  0
ENDBLK
  5
30B
330
309
100
AcDbEntity
  8
0
100
AcDbBlockEnd
  0
ENDSEC
  0
SECTION
  2
ENTITIES
  0
HATCH
  5
7D
330
1F
100
AcDbEntity
  8
DIM
 62
     1
100
AcDbHatch
 10
0.0
 20
0.0
 30
0.0
210
0.0
220
0.0
230
1.0
  2
SOLID
 70
     1
 71
     0
 91
        1
 92
        0
 93
       10
 72
     2
 10
195.9181335739884
 20
36.39317862024703
 40
1.518552937418269
 50
316.5603538466151
 51
413.9622470531883
 73
     0
 72
     1
 10
196.8115258996505
 20
35.16523188842609
 11
195.5698445848568
 21
33.96079894601887
 72
     1
 10
195.5698445848568
 20
33.96079894601887
 11
194.584395691874
 21
34.81949588590836
 72
     2
 10
192.5548098488265
 20
36.40840603525001
 40
2.577567488346249
 50
321.9435288426934
 51
402.1815007004193
 73
     1
 72
     2
 10
192.237153558102
 20
35.86758422977183
 40
3.181636704527865
 50
45.55929254159835
 51
125.83255551215
 73
     1
 72
     1
 10
190.3745648009993
 20
38.44703673786606
 11
189.3521569236508
 21
39.33882726498687
 72
     1
 10
189.3521569236508
 20
39.33882726498687
 11
192.5877423720606
 21
42.46574751160097
 72
     1
 10
192.5877423720606
 20
42.46574751160097
 11
193.5182488822447
 21
41.63555529175644
 72
     1
 10
193.5182488822447
 20
41.63555529175644
 11
192.8939975803174
 21
41.02649686091912
 72
     1
 10
192.8939975803174
 20
41.02649686091912
 11
197.0207534386607
 21
37.43732059228515
 97
        0
 75
     0
 76
     1
 98
        1
 10
0.0
 20
0.0
  0
HATCH
  5
7E
330
1F
100
AcDbEntity
  8
DIM
 62
     7
100
AcDbHatch
 10
0.0
 20
0.0
 30
0.0
210
0.0
220
0.0
230
1.0
  2
SOLID
 70
     1
 71
     0
 91
        1
 92
        0
 93
       10
 72
     2
 10
192.1039881191382
 20
36.62178386847388
 40
3.045751395731241
 50
51.07786460466387
 51
110.7887790856593
 73
     0
 72
     2
 10
191.7725909108416
 20
36.23314211922645
 40
2.57054436971128
 50
106.9547474925999
 51
219.8569537219352
 73
     0
 72
     1
 10
189.799320607469
 20
37.88053480662123
 11
188.7841267600665
 21
38.77606670743901
 72
     1
 10
188.7841267600665
 20
38.77606670743901
 11
187.4774985051848
 21
37.51447963093149
 72
     2
 10
188.4681933527003
 20
36.34592298253147
 40
1.531992467805808
 50
130.291064792488
 51
228.5093619070323
 73
     1
 72
     1
 10
187.4532519231594
 20
35.19836260677113
 11
191.4624542333552
 21
31.71375876649628
 72
     1
 10
191.4624542333552
 20
31.71375876649628
 11
190.8314023129401
 21
31.09785837602526
 72
     1
 10
190.8314023129401
 20
31.09785837602526
 11
191.7722027684341
 21
30.28786130591526
 72
     1
 10
191.7722027684341
 20
30.28786130591526
 11
194.9823427415898
 21
33.40490101867766
 72
     1
 10
194.9823427415898
 20
33.40490101867766
 11
194.0175230803727
 21
34.25218780231999
 97
        0
 75
     0
 76
     1
 98
        1
 10
0.0
 20
0.0
  0
LINE
  5
7F
330
1F
100
AcDbEntity
  8
0
  6
Continuous
 62
     7
370
     0
100
AcDbLine
 10
167.8593775185
 20
17.7745192513
 30
0.0
 11
168.8593775185
 21
17.7745192513
 31
0.0
  0
LINE
  5
80
330
1F
100
AcDbEntity
  8
0
  6
Continuous
 62
     7
370
     0
100
AcDbLine
 10
164.8593775185
 20
17.7745192513
 30
0.0
 11
167.3593775185
 21
17.7745192513
 31
0.0
  0
LINE
  5
81
330
1F
100
AcDbEntity
  8
0
  6
Continuous
 62
     7
370
     0
100
AcDbLine
 10
181.3593775185
 20
15.2745192513
 30
0.0
 11
181.3593775185
 21
20.2745192513
 31
0.0
  0
LINE
  5
82
330
1F
100
AcDbEntity
  8
0
  6
Continuous
 62
     7
370
     0
100
AcDbLine
 10
174.3593775185
 20
16.2745192513
 30
0.0
 11
181.3593775185
 21
15.2745192513
 31
0.0
  0
LINE
  5
83
330
1F
100
AcDbEntity
  8
0
  6
Continuous
 62
     7
370
     0
100
AcDbLine
 10
168.3593775185
 20
16.7745192513
 30
0.0
 11
168.3593775185
 21
14.2745192513
 31
0.0
  0
LINE
  5
84
330
1F
100
AcDbEntity
  8
0
  6
Continuous
 62
     7
370
     0
100
AcDbLine
 10
181.3593775185
 20
20.2745192513
 30
0.0
 11
174.3593775185
 21
19.2745192513
 31
0.0
  0
LINE
  5
85
330
1F
100
AcDbEntity
  8
0
  6
Continuous
 62
     7
370
     0
100
AcDbLine
 10
173.3593775185
 20
17.7745192513
 30
0.0
 11
182.3593775185
 21
17.7745192513
 31
0.0
  0
LINE
  5
86
330
1F
100
AcDbEntity
  8
0
  6
Continuous
 62
     7
370
     0
100
AcDbLine
 10
168.3593775185
 20
18.2745192513
 30
0.0
 11
168.3593775185
 21
17.2745192513
 31
0.0
  0
LINE
  5
87
330
1F
100
AcDbEntity
  8
0
  6
Continuous
 62
     7
370
     0
100
AcDbLine
 10
169.3593775185
 20
17.7745192513
 30
0.0
 11
171.8593775185
 21
17.7745192513
 31
0.0
  0
LINE
  5
88
330
1F
100
AcDbEntity
  8
0
  6
Continuous
 62
     7
370
     0
100
AcDbLine
 10
168.3593775185
 20
21.2745192513
 30
0.0
 11
168.3593775185
 21
18.7745192513
 31
0.0
  0
LINE
  5
89
330
1F
100
AcDbEntity
  8
0
  6
Continuous
 62
     7
370
     0
100
AcDbLine
 10
174.3593775185
 20
19.2745192513
 30
0.0
 11
174.3593775185
 21
16.2745192513
 31
0.0
  0
LINE
  5
8A
330
1F
100
AcDbEntity
  8
0
  6
Continuous
 62
     7
370
     0
100
AcDbLine
 10
185.6907965209
 20
13.1152464079
 30
0.0
 11
285.6907965209
 21
13.1152464079
 31
0.0
  0
LINE
  5
8B
330
1F
100
AcDbEntity
  8
0
  6
Continuous
 62
     7
370
     0
100
AcDbLine
 10
185.6907965209
 20
18.1152464079
 30
0.0
 11
235.6907965209
 21
18.1152464079
 31
0.0
  0
LINE
  5
8C
330
1F
100
AcDbEntity
  8
0
  6
Continuous
 62
     7
370
     0
100
AcDbLine
 10
185.6907965209
 20
23.1152464079
 30
0.0
 11
235.6907965209
 21
23.1152464079
 31
0.0
  0
LINE
  5
8D
330
1F
100
AcDbEntity
  8
0
  6
Continuous
 62
     7
370
     0
100
AcDbLine
 10
185.6907965209
 20
28.1152464079
 30
0.0
 11
285.6907965209
 21
28.1152464079
 31
0.0
  0
LINE
  5
8E
330
1F
100
AcDbEntity
  8
0
  6
Continuous
 62
     7
370
     0
100
AcDbLine
 10
235.6907965209
 20
33.1152464079
 30
0.0
 11
285.6907965209
 21
33.1152464079
 31
0.0
  0
LINE
  5
8F
330
1F
100
AcDbEntity
  8
0
  6
Continuous
 62
     7
370
    15
100
AcDbLine
 10
235.6907965209
 20
18.1152464079
 30
0.0
 11
285.6907965209
 21
18.1152464079
 31
0.0
  0
LINE
  5
90
330
1F
100
AcDbEntity
  8
0
  6
Continuous
 62
     7
370
     0
100
AcDbLine
 10
185.6907965209
 20
43.1152464079
 30
0.0
 11
285.6907965209
 21
43.1152464079
 31
0.0
  0
LINE
  5
91
330
1F
100
AcDbEntity
  8
0
  6
Continuous
 62
     7
370
     0
100
AcDbLine
 10
251.237217675
 20
8.1152464079
 30
0.0
 11
251.237217675
 21
18.1152464079
 31
0.0
  0
LINE
  5
92
330
1F
100
AcDbEntity
  8
0
  6
Continuous
 62
     7
370
     0
100
AcDbLine
 10
235.6907965209
 20
8.1152464079
 30
0.0
 11
235.6907965209
 21
43.1152464079
 31
0.0
  0
LINE
  5
93
330
1F
100
AcDbEntity
  8
0
  6
Continuous
 62
     7
370
     0
100
AcDbLine
 10
251.237217675
 20
28.1152464079
 30
0.0
 11
251.237217675
 21
33.1152464079
 31
0.0
  0
LINE
  5
94
330
1F
100
AcDbEntity
  8
0
  6
Continuous
 62
     7
370
     0
100
AcDbLine
 10
214.4164086353
 20
8.1152464079
 30
0.0
 11
214.4164086353
 21
28.1152464079
 31
0.0
  0
LINE
  5
95
330
1F
100
AcDbEntity
  8
0
  6
Continuous
 62
     7
370
     0
100
AcDbLine
 10
199.7785887506
 20
8.1152464079
 30
0.0
 11
199.7785887506
 21
28.1152464079
 31
0.0
  0
LINE
  5
96
330
1F
100
AcDbEntity
  8
0
  6
Continuous
 62
     7
370
     0
100
AcDbLine
 10
185.6907965209
 20
8.1152464079
 30
0.0
 11
185.6907965209
 21
43.1152464079
 31
0.0
  0
LINE
  5
97
330
1F
100
AcDbEntity
  8
0
  6
Continuous
 62
     7
370
    15
100
AcDbLine
 10
8.6907965209
 20
104.7436369915
 30
0.0
 11
14.6907965209
 21
104.7436369915
 31
0.0
  0
LINE
  5
98
330
1F
100
AcDbEntity
  8
0
  6
Continuous
 62
     7
370
    15
100
AcDbLine
 10
285.6907965209
 20
104.7436369915
 30
0.0
 11
279.6907965209
 21
104.7436369915
 31
0.0
  0
LINE
  5
99
330
1F
100
AcDbEntity
  8
0
  6
Continuous
 62
     7
370
    15
100
AcDbLine
 10
147.1907965209
 20
8.1152464079
 30
0.0
 11
147.1907965209
 21
14.1152464079
 31
0.0
  0
LINE
  5
9A
330
1F
100
AcDbEntity
  8
0
  6
Continuous
 62
     7
370
    15
100
AcDbLine
 10
147.1907965209
 20
201.3720275751
 30
0.0
 11
147.1907965209
 21
195.3720275751
 31
0.0
  0
LINE
  5
9B
330
1F
100
AcDbEntity
  8
工作區域參考線
 62
     1
370
     0
100
AcDbLine
 10
190.374564801
 20
38.4470367379
 30
0.0
 11
189.3521569237
 21
39.338827265
 31
0.0
  0
LINE
  5
9C
330
1F
100
AcDbEntity
  8
0
  6
Continuous
 62
     7
370
    15
100
AcDbLine
 10
43.3207965209
 20
201.3720275751
 30
0.0
 11
43.3207965209
 21
202.8720275751
 31
0.0
  0
LINE
  5
9D
330
1F
100
AcDbEntity
  8
0
  6
Continuous
 62
     7
370
    15
100
AcDbLine
 10
77.9507965209
 20
201.3720275751
 30
0.0
 11
77.9507965209
 21
202.8720275751
 31
0.0
  0
LINE
  5
9E
330
1F
100
AcDbEntity
  8
0
  6
Continuous
 62
     7
370
    15
100
AcDbLine
 10
112.5807965209
 20
201.3720275751
 30
0.0
 11
112.5807965209
 21
202.8720275751
 31
0.0
  0
LINE
  5
9F
330
1F
100
AcDbEntity
  8
0
  6
Continuous
 62
     7
370
    15
100
AcDbLine
 10
147.2107965209
 20
201.3720275751
 30
0.0
 11
147.2107965209
 21
202.8720275751
 31
0.0
  0
LINE
  5
A0
330
1F
100
AcDbEntity
  8
0
  6
Continuous
 62
     7
370
    15
100
AcDbLine
 10
181.8407965209
 20
201.3720275751
 30
0.0
 11
181.8407965209
 21
202.8720275751
 31
0.0
  0
LINE
  5
A1
330
1F
100
AcDbEntity
  8
0
  6
Continuous
 62
     7
370
    15
100
AcDbLine
 10
216.4707965209
 20
201.3720275751
 30
0.0
 11
216.4707965209
 21
202.8720275751
 31
0.0
  0
LINE
  5
A2
330
1F
100
AcDbEntity
  8
0
  6
Continuous
 62
     7
370
    15
100
AcDbLine
 10
251.1007965209
 20
201.3720275751
 30
0.0
 11
251.1007965209
 21
202.8720275751
 31
0.0
  0
LINE
  5
A3
330
1F
100
AcDbEntity
  8
0
  6
Continuous
 62
     7
370
    15
100
AcDbLine
 10
43.3157965209
 20
8.1152464079
 30
0.0
 11
43.3157965209
 21
6.6152464079
 31
0.0
  0
LINE
  5
A4
330
1F
100
AcDbEntity
  8
0
  6
Continuous
 62
     7
370
    15
100
AcDbLine
 10
77.9407965209
 20
8.1152464079
 30
0.0
 11
77.9407965209
 21
6.6152464079
 31
0.0
  0
LINE
  5
A5
330
1F
100
AcDbEntity
  8
0
  6
Continuous
 62
     7
370
    15
100
AcDbLine
 10
112.5657965209
 20
8.1152464079
 30
0.0
 11
112.5657965209
 21
6.6152464079
 31
0.0
  0
LINE
  5
A6
330
1F
100
AcDbEntity
  8
0
  6
Continuous
 62
     7
370
    15
100
AcDbLine
 10
147.1907965209
 20
8.1152464079
 30
0.0
 11
147.1907965209
 21
6.6152464079
 31
0.0
  0
LINE
  5
A7
330
1F
100
AcDbEntity
  8
0
  6
Continuous
 62
     7
370
    15
100
AcDbLine
 10
181.8157965209
 20
8.1152464079
 30
0.0
 11
181.8157965209
 21
6.6152464079
 31
0.0
  0
LINE
  5
A8
330
1F
100
AcDbEntity
  8
0
  6
Continuous
 62
     7
370
    15
100
AcDbLine
 10
216.4407965209
 20
8.1152464079
 30
0.0
 11
216.4407965209
 21
6.6152464079
 31
0.0
  0
LINE
  5
A9
330
1F
100
AcDbEntity
  8
0
  6
Continuous
 62
     7
370
     0
100
AcDbLine
 10
285.6907965209
 20
201.3720275751
 30
0.0
 11
8.6907965209
 21
201.3720275751
 31
0.0
  0
LINE
  5
AA
330
1F
100
AcDbEntity
  8
0
  6
Continuous
 62
     7
370
     0
100
AcDbLine
 10
285.6907965209
 20
8.1152464079
 30
0.0
 11
285.6907965209
 21
201.3720275751
 31
0.0
  0
LINE
  5
AB
330
1F
100
AcDbEntity
  8
0
  6
Continuous
 62
     7
370
     0
100
AcDbLine
 10
8.6907965209
 20
201.3720275751
 30
0.0
 11
8.6907965209
 21
8.1152464079
 31
0.0
  0
LINE
  5
AC
330
1F
100
AcDbEntity
  8
0
  6
Continuous
 62
     7
370
     0
100
AcDbLine
 10
8.6907965209
 20
8.1152464079
 30
0.0
 11
285.6907965209
 21
8.1152464079
 31
0.0
  0
LINE
  5
AD
330
1F
100
AcDbEntity
  8
工作區域參考線
 62
     1
370
     0
100
AcDbLine
 10
189.3521569237
 20
39.338827265
 30
0.0
 11
192.5877423721
 21
42.4657475116
 31
0.0
  0
LINE
  5
AE
330
1F
100
AcDbEntity
  8
0
  6
Continuous
 62
     7
370
    15
100
AcDbLine
 10
251.0657965209
 20
8.1152464079
 30
0.0
 11
251.0657965209
 21
6.6152464079
 31
0.0
  0
LINE
  5
AF
330
1F
100
AcDbEntity
  8
0
  6
Continuous
 62
     7
370
    15
100
AcDbLine
 10
8.6907965209
 20
40.3252464079
 30
0.0
 11
7.1907965209
 21
40.3252464079
 31
0.0
  0
LINE
  5
B0
330
1F
100
AcDbEntity
  8
工作區域參考線
 62
     1
370
     0
100
AcDbLine
 10
192.5877423721
 20
42.4657475116
 30
0.0
 11
193.5182488822
 21
41.6355552918
 31
0.0
  0
LINE
  5
B1
330
1F
100
AcDbEntity
  8
0
  6
Continuous
 62
     7
370
    15
100
AcDbLine
 10
8.6907965209
 20
72.5352464079
 30
0.0
 11
7.1907965209
 21
72.5352464079
 31
0.0
  0
LINE
  5
B2
330
1F
100
AcDbEntity
  8
0
  6
Continuous
 62
     7
370
    15
100
AcDbLine
 10
8.6907965209
 20
104.7452464079
 30
0.0
 11
7.1907965209
 21
104.7452464079
 31
0.0
  0
LINE
  5
B3
330
1F
100
AcDbEntity
  8
0
  6
Continuous
 62
     7
370
    15
100
AcDbLine
 10
8.6907965209
 20
136.9552464079
 30
0.0
 11
7.1907965209
 21
136.9552464079
 31
0.0
  0
LINE
  5
B4
330
1F
100
AcDbEntity
  8
0
  6
Continuous
 62
     7
370
    15
100
AcDbLine
 10
8.6907965209
 20
169.1652464079
 30
0.0
 11
7.1907965209
 21
169.1652464079
 31
0.0
  0
LINE
  5
B5
330
1F
100
AcDbEntity
  8
0
  6
Continuous
 62
     7
370
    15
100
AcDbLine
 10
285.6907965209
 20
40.3252464079
 30
0.0
 11
287.1907965209
 21
40.3252464079
 31
0.0
  0
LINE
  5
B6
330
1F
100
AcDbEntity
  8
工作區域參考線
 62
     1
370
     0
100
AcDbLine
 10
193.5182488822
 20
41.6355552918
 30
0.0
 11
192.8939975803
 21
41.0264968609
 31
0.0
  0
LINE
  5
B7
330
1F
100
AcDbEntity
  8
0
  6
Continuous
 62
     7
370
    15
100
AcDbLine
 10
285.6907965209
 20
72.5352464079
 30
0.0
 11
287.1907965209
 21
72.5352464079
 31
0.0
  0
LINE
  5
B8
330
1F
100
AcDbEntity
  8
0
  6
Continuous
 62
     7
370
    15
100
AcDbLine
 10
285.6907965209
 20
104.7452464079
 30
0.0
 11
287.1907965209
 21
104.7452464079
 31
0.0
  0
LINE
  5
B9
330
1F
100
AcDbEntity
  8
0
  6
Continuous
 62
     7
370
    15
100
AcDbLine
 10
285.6907965209
 20
136.9552464079
 30
0.0
 11
287.1907965209
 21
136.9552464079
 31
0.0
  0
LINE
  5
BA
330
1F
100
AcDbEntity
  8
0
  6
Continuous
 62
     7
370
    15
100
AcDbLine
 10
285.6907965209
 20
169.1652464079
 30
0.0
 11
287.1907965209
 21
169.1652464079
 31
0.0
  0
LINE
  5
BB
330
1F
100
AcDbEntity
  8
工作區域參考線
 62
     1
370
     0
100
AcDbLine
 10
192.8939975803
 20
41.0264968609
 30
0.0
 11
197.0207534387
 21
37.4373205923
 31
0.0
  0
LINE
  5
BC
330
1F
100
AcDbEntity
  8
工作區域參考線
 62
     1
370
     0
100
AcDbLine
 10
194.5843956919
 20
34.8194958859
 30
0.0
 11
195.5698445849
 21
33.960798946
 31
0.0
  0
LINE
  5
BD
330
1F
100
AcDbEntity
  8
工作區域參考線
 62
     1
370
     0
100
AcDbLine
 10
195.5698445849
 20
33.960798946
 30
0.0
 11
196.8115258997
 21
35.1652318884
 31
0.0
  0
LINE
  5
BE
330
1F
100
AcDbEntity
  8
圖層_1
370
    30
100
AcDbLine
 10
194.9823427416
 20
33.4049010187
 30
0.0
 11
191.7722027684
 21
30.2878613059
 31
0.0
  0
LINE
  5
BF
330
1F
100
AcDbEntity
  8
圖層_1
370
    30
100
AcDbLine
 10
191.7722027684
 20
30.2878613059
 30
0.0
 11
190.8314023129
 21
31.097858376
 31
0.0
  0
LINE
  5
C0
330
1F
100
AcDbEntity
  8
圖層_1
370
    30
100
AcDbLine
 10
190.8314023129
 20
31.097858376
 30
0.0
 11
191.4624542334
 21
31.7137587665
 31
0.0
  0
LINE
  5
C1
330
1F
100
AcDbEntity
  8
圖層_1
370
    30
100
AcDbLine
 10
187.4532519232
 20
35.1983626068
 30
0.0
 11
191.4624542334
 21
31.7137587665
 31
0.0
  0
LINE
  5
C2
330
1F
100
AcDbEntity
  8
圖層_1
370
    30
100
AcDbLine
 10
188.7841267601
 20
38.7760667074
 30
0.0
 11
187.4774985052
 21
37.5144796309
 31
0.0
  0
LINE
  5
C3
330
1F
100
AcDbEntity
  8
圖層_1
370
    30
100
AcDbLine
 10
188.7841267601
 20
38.7760667074
 30
0.0
 11
189.7993206075
 21
37.8805348066
 31
0.0
  0
LINE
  5
C4
330
1F
100
AcDbEntity
  8
圖層_1
370
    30
100
AcDbLine
 10
194.0175230804
 20
34.2521878023
 30
0.0
 11
194.9823427416
 21
33.4049010187
 31
0.0
  0
CIRCLE
  5
C5
330
1F
100
AcDbEntity
  8
0
  6
Continuous
 62
     7
370
     0
100
AcDbCircle
 10
168.3593775185
 20
17.7745192513
 30
0.0
 40
1.5
  0
CIRCLE
  5
C6
330
1F
100
AcDbEntity
  8
0
  6
Continuous
 62
     7
370
     0
100
AcDbCircle
 10
168.3593775185
 20
17.7745192513
 30
0.0
 40
2.5
  0
ARC
  5
C7
330
1F
100
AcDbEntity
  8
工作區域參考線
 62
     1
370
     0
100
AcDbCircle
 10
195.918133574
 20
36.3931786202
 30
0.0
 40
1.518552937418286
100
AcDbArc
 50
306.0377529468
 51
43.4396461534
  0
ARC
  5
C8
330
1F
100
AcDbEntity
  8
工作區域參考線
 62
     1
370
     0
100
AcDbCircle
 10
192.2371535581
 20
35.8675842298
 30
0.0
 40
3.181636704527879
100
AcDbArc
 50
45.5592925416
 51
125.8325555121
  0
ARC
  5
C9
330
1F
100
AcDbEntity
  8
工作區域參考線
 62
     1
370
     0
100
AcDbCircle
 10
192.5548098488
 20
36.4084060353
 30
0.0
 40
2.577567488346265
100
AcDbArc
 50
321.9435288427
 51
42.1815007004
  0
ARC
  5
CA
330
1F
100
AcDbEntity
  8
圖層_1
370
    30
100
AcDbCircle
 10
188.4681933527
 20
36.3459229825
 30
0.0
 40
1.531992467805816
100
AcDbArc
 50
130.2910647925
 51
228.509361907
  0
ARC
  5
CB
330
1F
100
AcDbEntity
  8
圖層_1
370
    30
100
AcDbCircle
 10
191.7725909108
 20
36.2331421192
 30
0.0
 40
2.570544369711281
100
AcDbArc
 50
140.1430462781
 51
253.0452525074
  0
ARC
  5
CC
330
1F
100
AcDbEntity
  8
圖層_1
370
    30
100
AcDbCircle
 10
192.1039881191
 20
36.6217838685
 30
0.0
 40
3.045751395731255
100
AcDbArc
 50
249.2112209143
 51
308.9221353953
  0
MTEXT
  5
CE
330
1F
100
AcDbEntity
  8
0
  6
Continuous
 62
     7
370
     0
100
AcDbMText
 10
165.5426850804
 20
13.2208440369
 30
0.0
 40
2.6458333333
 41
0.0
 71
     1
 72
     1
  1
UNIT:m/m
  7
SLDTEXTSTYLE1
 73
     1
 44
1.0
  0
INSERT
  5
D5
330
1F
100
AcDbEntity
  8
0
  6
Continuous
 62
     7
370
     0
100
AcDbBlockReference
  2
SW_NOTE_0
 10
12.2315076053
 20
193.8904304251
 30
0.0
  0
MTEXT
  5
D7
330
1F
100
AcDbEntity
  8
0
  6
Continuous
 62
     7
370
     0
100
AcDbMText
 10
198.7251893935
 20
40.4406774139
 30
0.0
 40
2.38125
 41
0.0
 71
     1
 72
     1
  1
Unice E-O Services Inc.
  7
SLDTEXTSTYLE2
 73
     1
 44
1.0
  0
MTEXT
  5
D8
330
1F
100
AcDbEntity
  8
0
  6
Continuous
 62
     7
370
     0
100
AcDbMText
 10
252.6088982507
 20
16.87117774
 30
0.0
 40
2.5
 41
0.0
 71
     1
 72
     1
  1
1:1
  7
SLDTEXTSTYLE1
 73
     1
 44
1.0
  0
MTEXT
  5
D9
330
1F
100
AcDbEntity
  8
0
  6
Continuous
 62
     7
370
     0
100
AcDbMText
 10
252.3075599985
 20
32.1519195438
 30
0.0
 40
2.5
 41
0.0
 71
     1
 72
     1
  1
04VMT-0.5
  7
SLDTEXTSTYLE1
 73
     1
 44
1.0
  0
MTEXT
  5
DA
330
1F
100
AcDbEntity
  8
0
  6
Continuous
 62
     7
370
     0
100
AcDbMText
 10
252.3075599985
 20
38.1082117879
 30
0.0
 40
2.5
 41
0.0
 71
     1
 72
     1
  1
04VMT-0.5
  7
SLDTEXTSTYLE1
 73
     1
 44
1.0
  0
MTEXT
  5
DB
330
1F
100
AcDbEntity
  8
0
  6
Continuous
 62
     7
370
     0
100
AcDbMText
 10
236.3921866786
 20
16.5064795728
 30
0.0
 40
2.1166666667
 41
0.0
 71
     1
 72
     1
  1
SCALE:
  7
SLDTEXTSTYLE1
 73
     1
 44
1.0
  0
MTEXT
  5
DC
330
1F
100
AcDbEntity
  8
0
  6
Continuous
 62
     7
370
     0
100
AcDbMText
 10
186.3336086789
 20
21.5867148511
 30
0.0
 40
1.8520833333
 41
0.0
 71
     1
 72
     1
  1
DRAWN
  7
SLDTEXTSTYLE1
 73
     1
 44
1.0
  0
MTEXT
  5
DD
330
1F
100
AcDbEntity
  8
0
  6
Continuous
 62
     7
370
     0
100
AcDbMText
 10
203.2228367937
 20
26.683208308
 30
0.0
 40
1.8520833333
 41
0.0
 71
     1
 72
     1
  1
NAME
  7
SLDTEXTSTYLE1
 73
     1
 44
1.0
  0
MTEXT
  5
DE
330
1F
100
AcDbEntity
  8
0
  6
Continuous
 62
     7
370
     0
100
AcDbMText
 10
220.8710155758
 20
26.683208308
 30
0.0
 40
1.8520833333
 41
0.0
 71
     1
 72
     1
  1
DATE
  7
SLDTEXTSTYLE1
 73
     1
 44
1.0
  0
MTEXT
  5
DF
330
1F
100
AcDbEntity
  8
0
  6
Continuous
 62
     7
370
     0
100
AcDbMText
 10
236.2756316645
 20
31.7872213766
 30
0.0
 40
2.1166666667
 41
0.0
 71
     1
 72
     1
  1
DWG. NO.
  7
SLDTEXTSTYLE1
 73
     1
 44
1.0
  0
MTEXT
  5
E0
330
1F
100
AcDbEntity
  8
0
  6
Continuous
 62
     7
370
     0
100
AcDbMText
 10
236.3629907088
 20
41.8840658243
 30
0.0
 40
2.1166666667
 41
0.0
 71
     1
 72
     1
  1
TITLE:
  7
SLDTEXTSTYLE1
 73
     1
 44
1.0
  0
MTEXT
  5
E1
330
1F
100
AcDbEntity
  8
0
  6
Continuous
 62
     7
370
     0
100
AcDbMText
 10
203.0314209802
 20
16.2403789724
 30
0.0
 40
1.8520833333
 41
0.0
 71
     1
 72
     1
  1
Johnny
  7
SLDTEXTSTYLE1
 73
     1
 44
1.0
  0
MTEXT
  5
E2
330
1F
100
AcDbEntity
  8
0
  6
Continuous
 62
     7
370
     0
100
AcDbMText
 10
217.5590538149
 20
16.2403789724
 30
0.0
 40
1.8520833333
 41
0.0
 71
     1
 72
     1
  1
2016/4/18
  7
SLDTEXTSTYLE1
 73
     1
 44
1.0
  0
MTEXT
  5
E3
330
1F
100
AcDbEntity
  8
0
  6
Continuous
 62
     7
370
     0
100
AcDbMText
 10
186.3336086789
 20
16.2403789724
 30
0.0
 40
1.8520833333
 41
0.0
 71
     1
 72
     1
  1
ENG APPR.
  7
SLDTEXTSTYLE1
 73
     1
 44
1.0
  0
MTEXT
  5
E4
330
1F
100
AcDbEntity
  8
0
  6
Continuous
 62
     7
370
     0
100
AcDbMText
 10
236.3921866786
 20
11.6853389288
 30
0.0
 40
2.1166666667
 41
0.0
 71
     1
 72
     1
  1
REV
  7
SLDTEXTSTYLE1
 73
     1
 44
1.0
  0
MTEXT
  5
E5
330
1F
100
AcDbEntity
  8
0
  6
Continuous
 62
     7
370
     0
100
AcDbMText
 10
236.3629907088
 20
26.9493089085
 30
0.0
 40
2.1166666667
 41
0.0
 71
     1
 72
     1
  1
MATERIAL:
  7
SLDTEXTSTYLE1
 73
     1
 44
1.0
  0
MTEXT
  5
E6
330
1F
100
AcDbEntity
  8
0
  6
Continuous
 62
     7
370
     0
100
AcDbMText
 10
252.6088982507
 20
22.2175136187
 30
0.0
 40
2.5
 41
0.0
 71
     1
 72
     1
  1
N/A
  7
SLDTEXTSTYLE1
 73
     1
 44
1.0
  0
MTEXT
  5
E7
330
1F
100
AcDbEntity
  8
0
  6
Continuous
 62
     7
370
     0
100
AcDbMText
 10
26.6029931533
 20
204.453351657
 30
0.0
 40
2.1166666667
 41
0.0
 71
     1
 72
     1
  1
1
  7
SLDTEXTSTYLE1
 73
     1
 44
1.0
  0
MTEXT
  5
E8
330
1F
100
AcDbEntity
  8
0
  6
Continuous
 62
     7
370
     0
100
AcDbMText
 10
60.7170995724
 20
204.453351657
 30
0.0
 40
2.1166666667
 41
0.0
 71
     1
 72
     1
  1
2
  7
SLDTEXTSTYLE1
 73
     1
 44
1.0
  0
MTEXT
  5
E9
330
1F
100
AcDbEntity
  8
0
  6
Continuous
 62
     7
370
     0
100
AcDbMText
 10
94.9009943906
 20
204.453351657
 30
0.0
 40
2.1166666667
 41
0.0
 71
     1
 72
     1
  1
3
  7
SLDTEXTSTYLE1
 73
     1
 44
1.0
  0
MTEXT
  5
EA
330
1F
100
AcDbEntity
  8
0
  6
Continuous
 62
     7
370
     0
100
AcDbMText
 10
129.2533362851
 20
204.2992584364
 30
0.0
 40
2.1166666667
 41
0.0
 71
     1
 72
     1
  1
4
  7
SLDTEXTSTYLE1
 73
     1
 44
1.0
  0
MTEXT
  5
EB
330
1F
100
AcDbEntity
  8
0
  6
Continuous
 62
     7
370
     0
100
AcDbMText
 10
163.702323464
 20
204.453351657
 30
0.0
 40
2.1166666667
 41
0.0
 71
     1
 72
     1
  1
5
  7
SLDTEXTSTYLE1
 73
     1
 44
1.0
  0
MTEXT
  5
EC
330
1F
100
AcDbEntity
  8
0
  6
Continuous
 62
     7
370
     0
100
AcDbMText
 10
198.6382170415
 20
204.453351657
 30
0.0
 40
2.1166666667
 41
0.0
 71
     1
 72
     1
  1
6
  7
SLDTEXTSTYLE1
 73
     1
 44
1.0
  0
MTEXT
  5
ED
330
1F
100
AcDbEntity
  8
0
  6
Continuous
 62
     7
370
     0
100
AcDbMText
 10
234.3630657407
 20
204.453351657
 30
0.0
 40
2.1166666667
 41
0.0
 71
     1
 72
     1
  1
7
  7
SLDTEXTSTYLE1
 73
     1
 44
1.0
  0
MTEXT
  5
EE
330
1F
100
AcDbEntity
  8
0
  6
Continuous
 62
     7
370
     0
100
AcDbMText
 10
266.2787820494
 20
204.453351657
 30
0.0
 40
2.1166666667
 41
0.0
 71
     1
 72
     1
  1
8
  7
SLDTEXTSTYLE1
 73
     1
 44
1.0
  0
MTEXT
  5
EF
330
1F
100
AcDbEntity
  8
0
  6
Continuous
 62
     7
370
     0
100
AcDbMText
 10
5.3568236555
 20
185.8113022879
 30
0.0
 40
2.1166666667
 41
0.0
 71
     1
 72
     1
  1
A
  7
SLDTEXTSTYLE1
 73
     1
 44
1.0
  0
MTEXT
  5
F0
330
1F
100
AcDbEntity
  8
0
  6
Continuous
 62
     7
370
     0
100
AcDbMText
 10
5.5910431831
 20
154.2993048238
 30
0.0
 40
2.1166666667
 41
0.0
 71
     1
 72
     1
  1
B
  7
SLDTEXTSTYLE1
 73
     1
 44
1.0
  0
MTEXT
  5
F1
330
1F
100
AcDbEntity
  8
0
  6
Continuous
 62
     7
370
     0
100
AcDbMText
 10
5.5910431831
 20
121.274351423
 30
0.0
 40
2.1166666667
 41
0.0
 71
     1
 72
     1
  1
C
  7
SLDTEXTSTYLE1
 73
     1
 44
1.0
  0
MTEXT
  5
F2
330
1F
100
AcDbEntity
  8
0
  6
Continuous
 62
     7
370
     0
100
AcDbMText
 10
5.5910431831
 20
88.7453220221
 30
0.0
 40
2.1166666667
 41
0.0
 71
     1
 72
     1
  1
D
  7
SLDTEXTSTYLE1
 73
     1
 44
1.0
  0
MTEXT
  5
F3
330
1F
100
AcDbEntity
  8
0
  6
Continuous
 62
     7
370
     0
100
AcDbMText
 10
5.5910431831
 20
57.5558849197
 30
0.0
 40
2.1166666667
 41
0.0
 71
     1
 72
     1
  1
E
  7
SLDTEXTSTYLE1
 73
     1
 44
1.0
  0
MTEXT
  5
F4
330
1F
100
AcDbEntity
  8
0
  6
Continuous
 62
     7
370
     0
100
AcDbMText
 10
5.5910431831
 20
25.5694212252
 30
0.0
 40
2.1166666667
 41
0.0
 71
     1
 72
     1
  1
F
  7
SLDTEXTSTYLE1
 73
     1
 44
1.0
  0
MTEXT
  5
F5
330
1F
100
AcDbEntity
  8
0
  6
Continuous
 62
     7
370
     0
100
AcDbMText
 10
266.1858616964
 20
6.6236223963
 30
0.0
 40
2.1166666667
 41
0.0
 71
     1
 72
     1
  1
8
  7
SLDTEXTSTYLE1
 73
     1
 44
1.0
  0
MTEXT
  5
F6
330
1F
100
AcDbEntity
  8
0
  6
Continuous
 62
     7
370
     0
100
AcDbMText
 10
234.2701453876
 20
6.6236223963
 30
0.0
 40
2.1166666667
 41
0.0
 71
     1
 72
     1
  1
7
  7
SLDTEXTSTYLE1
 73
     1
 44
1.0
  0
MTEXT
  5
F7
330
1F
100
AcDbEntity
  8
0
  6
Continuous
 62
     7
370
     0
100
AcDbMText
 10
198.5452966885
 20
6.6236223963
 30
0.0
 40
2.1166666667
 41
0.0
 71
     1
 72
     1
  1
6
  7
SLDTEXTSTYLE1
 73
     1
 44
1.0
  0
MTEXT
  5
F8
330
1F
100
AcDbEntity
  8
0
  6
Continuous
 62
     7
370
     0
100
AcDbMText
 10
163.6094031109
 20
6.6236223963
 30
0.0
 40
2.1166666667
 41
0.0
 71
     1
 72
     1
  1
5
  7
SLDTEXTSTYLE1
 73
     1
 44
1.0
  0
MTEXT
  5
F9
330
1F
100
AcDbEntity
  8
0
  6
Continuous
 62
     7
370
     0
100
AcDbMText
 10
129.1604159321
 20
6.4695291758
 30
0.0
 40
2.1166666667
 41
0.0
 71
     1
 72
     1
  1
4
  7
SLDTEXTSTYLE1
 73
     1
 44
1.0
  0
MTEXT
  5
FA
330
1F
100
AcDbEntity
  8
0
  6
Continuous
 62
     7
370
     0
100
AcDbMText
 10
94.8080740376
 20
6.6236223963
 30
0.0
 40
2.1166666667
 41
0.0
 71
     1
 72
     1
  1
3
  7
SLDTEXTSTYLE1
 73
     1
 44
1.0
  0
MTEXT
  5
FB
330
1F
100
AcDbEntity
  8
0
  6
Continuous
 62
     7
370
     0
100
AcDbMText
 10
60.6241792194
 20
6.6236223963
 30
0.0
 40
2.1166666667
 41
0.0
 71
     1
 72
     1
  1
2
  7
SLDTEXTSTYLE1
 73
     1
 44
1.0
  0
MTEXT
  5
FC
330
1F
100
AcDbEntity
  8
0
  6
Continuous
 62
     7
370
     0
100
AcDbMText
 10
26.5100728003
 20
6.6236223963
 30
0.0
 40
2.1166666667
 41
0.0
 71
     1
 72
     1
  1
1
  7
SLDTEXTSTYLE1
 73
     1
 44
1.0
  0
MTEXT
  5
FD
330
1F
100
AcDbEntity
  8
0
  6
Continuous
 62
     7
370
     0
100
AcDbMText
 10
287.1023846145
 20
186.6424909092
 30
0.0
 40
2.1166666667
 41
0.0
 71
     1
 72
     1
  1
A
  7
SLDTEXTSTYLE1
 73
     1
 44
1.0
  0
MTEXT
  5
FE
330
1F
100
AcDbEntity
  8
0
  6
Continuous
 62
     7
370
     0
100
AcDbMText
 10
287.3366041421
 20
155.1304934451
 30
0.0
 40
2.1166666667
 41
0.0
 71
     1
 72
     1
  1
B
  7
SLDTEXTSTYLE1
 73
     1
 44
1.0
  0
MTEXT
  5
FF
330
1F
100
AcDbEntity
  8
0
  6
Continuous
 62
     7
370
     0
100
AcDbMText
 10
287.3366041421
 20
122.1055400442
 30
0.0
 40
2.1166666667
 41
0.0
 71
     1
 72
     1
  1
C
  7
SLDTEXTSTYLE1
 73
     1
 44
1.0
  0
MTEXT
  5
100
330
1F
100
AcDbEntity
  8
0
  6
Continuous
 62
     7
370
     0
100
AcDbMText
 10
287.3366041421
 20
89.5765106433
 30
0.0
 40
2.1166666667
 41
0.0
 71
     1
 72
     1
  1
D
  7
SLDTEXTSTYLE1
 73
     1
 44
1.0
  0
MTEXT
  5
101
330
1F
100
AcDbEntity
  8
0
  6
Continuous
 62
     7
370
     0
100
AcDbMText
 10
287.3366041421
 20
58.3870735409
 30
0.0
 40
2.1166666667
 41
0.0
 71
     1
 72
     1
  1
E
  7
SLDTEXTSTYLE1
 73
     1
 44
1.0
  0
MTEXT
  5
102
330
1F
100
AcDbEntity
  8
0
  6
Continuous
 62
     7
370
     0
100
AcDbMText
 10
287.3366041421
 20
26.4006098464
 30
0.0
 40
2.1166666667
 41
0.0
 71
     1
 72
     1
  1
F
  7
SLDTEXTSTYLE1
 73
     1
 44
1.0
  0
MTEXT
  5
103
330
1F
100
AcDbEntity
  8
0
  6
Continuous
 62
     7
370
     0
100
AcDbMText
 10
203.1553128802
 20
21.5867148511
 30
0.0
 40
1.8520833333
 41
0.0
 71
     1
 72
     1
  1
Yuhan
  7
SLDTEXTSTYLE1
 73
     1
 44
1.0
  0
MTEXT
  5
105
330
1F
100
AcDbEntity
  8
0
  6
Continuous
 62
     7
370
     0
100
AcDbMText
 10
252.8482239645
 20
12.210248456
 30
0.0
 40
2.6458333333
 41
0.0
 71
     1
 72
     1
  1
0
  7
SLDTEXTSTYLE3
 73
     1
 44
1.0
  0
MTEXT
  5
106
330
1F
100
AcDbEntity
  8
DIM
 62
     7
100
AcDbMText
 10
217.5590538149
 20
21.5867148511
 30
0.0
 40
1.8520833333
 41
0.0
 71
     1
 72
     1
  1
2016/4/18
  7
SLDTEXTSTYLE1
 73
     1
 44
1.0
  0
INSERT
  5
10C
330
1F
100
AcDbEntity
  8
DIM
 62
     7
100
AcDbBlockReference
  2
SW_NOTE_1
 10
198.7251893935
 20
33.0722881696
 30
0.0
  0
ARC
  5
10D
330
1F
100
AcDbEntity
  8
0
  6
Continuous
 62
     7
370
    15
100
AcDbCircle
 10
114.668490913
 20
138.4639731909
 30
0.0
 40
1.000000000000014
100
AcDbArc
 50
90.0
 51
180.0
  0
ARC
  5
10E
330
1F
100
AcDbEntity
  8
0
  6
Continuous
 62
     7
370
    15
100
AcDbCircle
 10
127.668490913
 20
138.4639731909
 30
0.0
 40
1.000000000000014
100
AcDbArc
 50
0.0
 51
90.0
  0
ARC
  5
10F
330
1F
100
AcDbEntity
  8
0
  6
Continuous
 62
     7
370
    15
100
AcDbCircle
 10
114.668490913
 20
132.4639731909
 30
0.0
 40
1.000000000000014
100
AcDbArc
 50
180.0
 51
270.0
  0
ARC
  5
110
330
1F
100
AcDbEntity
  8
0
  6
Continuous
 62
     7
370
    15
100
AcDbCircle
 10
127.668490913
 20
132.4639731909
 30
0.0
 40
1.000000000000014
100
AcDbArc
 50
270.0
 51
0.0
  0
LINE
  5
111
330
1F
100
AcDbEntity
  8
0
  6
Continuous
 62
     7
370
    15
100
AcDbLine
 10
116.668490913
 20
131.4639731909
 30
0.0
 11
116.668490913
 21
130.8323905147
 31
0.0
  0
LINE
  5
112
330
1F
100
AcDbEntity
  8
0
  6
Continuous
 62
     7
370
    15
100
AcDbLine
 10
125.668490913
 20
130.8323905147
 30
0.0
 11
125.668490913
 21
131.4639731909
 31
0.0
  0
LINE
  5
113
330
1F
100
AcDbEntity
  8
0
  6
Continuous
 62
     7
370
    15
100
AcDbLine
 10
114.3229432572
 20
138.6882247752
 30
0.0
 11
114.3229432572
 21
132.2397216065
 31
0.0
  0
LINE
  5
114
330
1F
100
AcDbEntity
  8
0
  6
Continuous
 62
     7
370
    15
100
AcDbLine
 10
128.0644067622
 20
132.2481837787
 30
0.0
 11
128.0644067622
 21
138.679762603
 31
0.0
  0
LINE
  5
115
330
1F
100
AcDbEntity
  8
0
  6
Continuous
 62
     7
370
    15
100
AcDbLine
 10
113.668490913
 20
138.4639731909
 30
0.0
 11
113.668490913
 21
132.4639731909
 31
0.0
  0
LINE
  5
116
330
1F
100
AcDbEntity
  8
0
  6
Continuous
 62
     7
370
    15
100
AcDbLine
 10
128.668490913
 20
132.4639731909
 30
0.0
 11
128.668490913
 21
138.4639731909
 31
0.0
  0
ARC
  5
117
330
1F
100
AcDbEntity
  8
0
  6
Continuous
 62
     7
370
    15
100
AcDbCircle
 10
140.668490913
 20
138.4639731909
 30
0.0
 40
1.000000000000002
100
AcDbArc
 50
90.0
 51
166.7914971854
  0
ARC
  5
118
330
1F
100
AcDbEntity
  8
0
  6
Continuous
 62
     7
370
    15
100
AcDbCircle
 10
153.668490913
 20
138.4639731909
 30
0.0
 40
1.0
100
AcDbArc
 50
0.0
 51
90.0
  0
LINE
  5
119
330
1F
100
AcDbEntity
  8
0
  6
Continuous
 62
     7
370
    15
100
AcDbLine
 10
139.668490913
 20
132.4639731909
 30
0.0
 11
139.6742358371
 21
132.356936543
 31
0.0
  0
ARC
  5
11A
330
1F
100
AcDbEntity
  8
0
  6
Continuous
 62
     7
370
    15
100
AcDbCircle
 10
140.668490913
 20
132.4639731909
 30
0.0
 40
1.000000000000011
100
AcDbArc
 50
194.3059057856
 51
270.0
  0
ARC
  5
11B
330
1F
100
AcDbEntity
  8
0
  6
Continuous
 62
     7
370
    15
100
AcDbCircle
 10
153.668490913
 20
132.4639731909
 30
0.0
 40
1.0
100
AcDbArc
 50
270.0
 51
0.0
  0
LINE
  5
11C
330
1F
100
AcDbEntity
  8
0
  6
Continuous
 62
     7
370
    15
100
AcDbLine
 10
142.668490913
 20
131.4639731909
 30
0.0
 11
142.668490913
 21
130.8323905147
 31
0.0
  0
LINE
  5
11D
330
1F
100
AcDbEntity
  8
0
  6
Continuous
 62
     7
370
    15
100
AcDbLine
 10
151.668490913
 20
130.8323905147
 30
0.0
 11
151.668490913
 21
131.4639731909
 31
0.0
  0
LINE
  5
11E
330
1F
100
AcDbEntity
  8
0
  6
Continuous
 62
     7
370
    15
100
AcDbLine
 10
153.8448318114
 20
132.2132144826
 30
0.0
 11
153.8448318114
 21
138.7147318991
 31
0.0
  0
LINE
  5
11F
330
1F
100
AcDbEntity
  8
0
  6
Continuous
 62
     7
370
    15
100
AcDbLine
 10
140.1280517013
 20
138.6535611004
 30
0.0
 11
140.1280517013
 21
132.2743852813
 31
0.0
  0
LINE
  5
120
330
1F
100
AcDbEntity
  8
0
  6
Continuous
 62
     7
370
    15
100
AcDbLine
 10
154.668490913
 20
132.4639731909
 30
0.0
 11
154.668490913
 21
138.4639731909
 31
0.0
  0
LINE
  5
121
330
1F
100
AcDbEntity
  8
0
  6
Continuous
 62
     7
370
    15
100
AcDbLine
 10
139.668490913
 20
138.4639731909
 30
0.0
 11
139.668490913
 21
132.4639731909
 31
0.0
  0
SPLINE
  5
122
330
1F
100
AcDbEntity
  8
0
  6
Continuous
 62
     7
370
    15
100
AcDbSpline
210
0.0
220
0.0
230
1.0
 70
     8
 71
     3
 72
    10
 73
     6
 74
     0
 42
0.000000001
 43
0.00000001
 40
0.0
 40
0.0
 40
0.0
 40
0.0
 40
0.6068408479055141
 40
0.9873411522226753
 40
1.0
 40
1.0
 40
1.0
 40
1.0
 10
128.5135239946799
 20
138.8954180060295
 30
0.0
 10
128.5515345062316
 20
138.8091759245455
 30
0.0
 10
128.6133783033353
 20
138.6688584815184
 30
0.0
 10
128.6322150972339
 20
138.5229634257061
 30
0.0
 10
128.6353291892719
 20
138.4658132975111
 30
0.0
 10
128.6354294560898
 20
138.4639731908535
 30
0.0
  0
SPLINE
  5
123
330
1F
100
AcDbEntity
  8
0
  6
Continuous
 62
     7
370
    15
100
AcDbSpline
210
0.0
220
0.0
230
1.0
 70
     8
 71
     3
 72
    16
 73
    12
 74
     0
 42
0.000000001
 43
0.00000001
 40
0.0
 40
0.0
 40
0.0
 40
0.0
 40
0.0316438967043507
 40
0.144229690679794
 40
0.2602597186198048
 40
0.3918268288811916
 40
0.5492075381338439
 40
0.7249905054734768
 40
0.8558655534151723
 40
0.9874199933190971
 40
1.0
 40
1.0
 40
1.0
 40
1.0
 10
128.513523994681
 20
138.8954180060295
 30
0.0
 10
128.502247555039
 20
138.9155145464998
 30
0.0
 10
128.4508506800991
 20
139.0071125517278
 30
0.0
 10
128.3330546146886
 20
139.1432878362995
 30
0.0
 10
128.1657496195512
 20
139.2626328228727
 30
0.0
 10
128.0096052341904
 20
139.3268457726782
 30
0.0
 10
127.9015338671194
 20
139.3376124698544
 30
0.0
 10
127.8879152204458
 20
139.284494918706
 30
0.0
 10
127.9494838889903
 20
139.1457561340733
 30
0.0
 10
128.0082630547601
 20
138.9960669022947
 30
0.0
 10
128.0342974295759
 20
138.9034974381517
 30
0.0
 10
128.0365697011728
 20
138.8954180060315
 30
0.0
  0
SPLINE
  5
124
330
1F
100
AcDbEntity
  8
0
  6
Continuous
 62
     7
370
    15
100
AcDbSpline
210
0.0
220
0.0
230
1.0
 70
     8
 71
     3
 72
    10
 73
     6
 74
     0
 42
0.000000001
 43
0.00000001
 40
0.0
 40
0.0
 40
0.0
 40
0.0
 40
0.0126588477772885
 40
0.3931591520964988
 40
1.0
 40
1.0
 40
1.0
 40
1.0
 10
128.0392365892059
 20
138.4639731908535
 30
0.0
 10
128.0396454645426
 20
138.4658132975112
 30
0.0
 10
128.0523443359978
 20
138.5229634257068
 30
0.0
 10
128.0752849193005
 20
138.6688584815192
 30
0.0
 10
128.0513070246362
 20
138.8091759245472
 30
0.0
 10
128.0365697011728
 20
138.8954180060315
 30
0.0
  0
LINE
  5
125
330
1F
100
AcDbEntity
  8
0
  6
Continuous
 62
     7
370
    15
100
AcDbLine
 10
128.0392365892
 20
138.4639731909
 30
0.0
 11
127.2833290384
 21
138.4639731909
 31
0.0
  0
SPLINE
  5
126
330
1F
100
AcDbEntity
  8
0
  6
Continuous
 62
     7
370
    15
100
AcDbSpline
210
0.0
220
0.0
230
1.0
 70
     8
 71
     3
 72
    10
 73
     6
 74
     0
 42
0.000000001
 43
0.00000001
 40
0.0
 40
0.0
 40
0.0
 40
0.0
 40
0.606840847905515
 40
0.9873411522226733
 40
1.0
 40
1.0
 40
1.0
 40
1.0
 10
127.0706309462875
 20
138.8954180060295
 30
0.0
 10
127.1226181845018
 20
138.8091759245455
 30
0.0
 10
127.2072023713715
 20
138.6688584815184
 30
0.0
 10
127.2641380420996
 20
138.5229634257061
 30
0.0
 10
127.2827304057444
 20
138.4658132975111
 30
0.0
 10
127.2833290383845
 20
138.4639731908535
 30
0.0
  0
SPLINE
  5
127
330
1F
100
AcDbEntity
  8
0
  6
Continuous
 62
     7
370
    15
100
AcDbSpline
210
0.0
220
0.0
230
1.0
 70
     8
 71
     3
 72
    16
 73
    12
 74
     0
 42
0.000000001
 43
0.00000001
 40
0.0
 40
0.0
 40
0.0
 40
0.0
 40
0.0316438967043528
 40
0.1442296906797942
 40
0.2602597186198059
 40
0.3918268288811919
 40
0.5492075381338444
 40
0.7249905054734765
 40
0.855865553415173
 40
0.9874199933190969
 40
1.0
 40
1.0
 40
1.0
 40
1.0
 10
127.0706309462887
 20
138.8954180060295
 30
0.0
 10
127.0566849564908
 20
138.9155145464998
 30
0.0
 10
126.9931205410974
 20
139.0071125517278
 30
0.0
 10
126.8408784092631
 20
139.1432878362995
 30
0.0
 10
126.5989958627089
 20
139.2626328228727
 30
0.0
 10
126.3291099413651
 20
139.3268457726782
 30
0.0
 10
126.0613689412023
 20
139.3376124698544
 30
0.0
 10
125.867793967386
 20
139.284494918706
 30
0.0
 10
125.7662095413871
 20
139.1457561340733
 30
0.0
 10
125.7423736481897
 20
138.9960669022947
 30
0.0
 10
125.7366028291844
 20
138.9034974381517
 30
0.0
 10
125.7360991540161
 20
138.8954180060315
 30
0.0
  0
SPLINE
  5
128
330
1F
100
AcDbEntity
  8
0
  6
Continuous
 62
     7
370
    15
100
AcDbSpline
210
0.0
220
0.0
230
1.0
 70
     8
 71
     3
 72
    10
 73
     6
 74
     0
 42
0.000000001
 43
0.00000001
 40
0.0
 40
0.0
 40
0.0
 40
0.0
 40
0.0126588477772866
 40
0.3931591520965015
 40
1.0
 40
1.0
 40
1.0
 40
1.0
 10
125.6151642980454
 20
138.4639731908535
 30
0.0
 10
125.6159902597558
 20
138.4658132975112
 30
0.0
 10
125.6416430214807
 20
138.5229634257068
 30
0.0
 10
125.7016016503364
 20
138.6688584815191
 30
0.0
 10
125.722967344485
 20
138.8091759245472
 30
0.0
 10
125.7360991540161
 20
138.8954180060315
 30
0.0
  0
LINE
  5
129
330
1F
100
AcDbEntity
  8
0
  6
Continuous
 62
     7
370
    15
100
AcDbLine
 10
125.615164298
 20
138.4639731909
 30
0.0
 11
124.2927626831
 21
138.4639731909
 31
0.0
  0
SPLINE
  5
12A
330
1F
100
AcDbEntity
  8
0
  6
Continuous
 62
     7
370
    15
100
AcDbSpline
210
0.0
220
0.0
230
1.0
 70
     8
 71
     3
 72
    10
 73
     6
 74
     0
 42
0.000000001
 43
0.00000001
 40
0.0
 40
0.0
 40
0.0
 40
0.0
 40
0.6068408479055175
 40
0.987341152222665
 40
1.0
 40
1.0
 40
1.0
 40
1.0
 10
124.0462642423708
 20
138.8954180060295
 30
0.0
 10
124.0982982687516
 20
138.8091759245456
 30
0.0
 10
124.1829585808234
 20
138.6688584815186
 30
0.0
 10
124.2627372613884
 20
138.5229634257058
 30
0.0
 10
124.2918260878162
 20
138.4658132975111
 30
0.0
 10
124.2927626831461
 20
138.4639731908535
 30
0.0
  0
SPLINE
  5
12B
330
1F
100
AcDbEntity
  8
0
  6
Continuous
 62
     7
370
    15
100
AcDbSpline
210
0.0
220
0.0
230
1.0
 70
     8
 71
     3
 72
    16
 73
    12
 74
     0
 42
0.000000001
 43
0.00000001
 40
0.0
 40
0.0
 40
0.0
 40
0.0
 40
0.031643896704351
 40
0.1442296906797945
 40
0.2602597186198058
 40
0.3918268288811921
 40
0.5492075381338446
 40
0.7249905054734771
 40
0.8558655534151745
 40
0.9874199933190989
 40
1.0
 40
1.0
 40
1.0
 40
1.0
 10
124.046264242372
 20
138.8954180060295
 30
0.0
 10
124.0333855191221
 20
138.9155145464998
 30
0.0
 10
123.9746855970471
 20
139.0071125517278
 30
0.0
 10
123.8287905550682
 20
139.1432878362995
 30
0.0
 10
123.5771426901095
 20
139.2626328228727
 30
0.0
 10
123.2658309474553
 20
139.3268457726782
 30
0.0
 10
122.910161298975
 20
139.3376124698544
 30
0.0
 10
122.5884982559249
 20
139.284494918706
 30
0.0
 10
122.3509802002927
 20
139.1457561340733
 30
0.0
 10
122.2509160564613
 20
138.9960669022947
 30
0.0
 10
122.214886329927
 20
138.9034974381517
 30
0.0
 10
122.2117416673481
 20
138.8954180060315
 30
0.0
  0
SPLINE
  5
12C
330
1F
100
AcDbEntity
  8
0
  6
Continuous
 62
     7
370
    15
100
AcDbSpline
210
0.0
220
0.0
230
1.0
 70
     8
 71
     3
 72
    10
 73
     6
 74
     0
 42
0.000000001
 43
0.00000001
 40
0.0
 40
0.0
 40
0.0
 40
0.0
 40
0.012658847777288
 40
0.3931591520964982
 40
1.0
 40
1.0
 40
1.0
 40
1.0
 10
121.9996094643677
 20
138.4639731908535
 30
0.0
 10
122.0006311966786
 20
138.4658132975112
 30
0.0
 10
122.0323642118854
 20
138.5229634257068
 30
0.0
 10
122.1132750201127
 20
138.6688584815191
 30
0.0
 10
122.1742593825815
 20
138.8091759245472
 30
0.0
 10
122.2117416673481
 20
138.8954180060315
 30
0.0
  0
LINE
  5
12D
330
1F
100
AcDbEntity
  8
0
  6
Continuous
 62
     7
370
    15
100
AcDbLine
 10
121.9996094644
 20
138.4639731909
 30
0.0
 11
120.4650502302
 21
138.4639731909
 31
0.0
  0
SPLINE
  5
12E
330
1F
100
AcDbEntity
  8
0
  6
Continuous
 62
     7
370
    15
100
AcDbSpline
210
0.0
220
0.0
230
1.0
 70
     8
 71
     3
 72
    10
 73
     6
 74
     0
 42
0.000000001
 43
0.00000001
 40
0.0
 40
0.0
 40
0.0
 40
0.0
 40
0.6068408479055267
 40
0.9873411522226669
 40
0.9999999999999999
 40
0.9999999999999999
 40
0.9999999999999999
 40
0.9999999999999999
 10
120.2508004988601
 20
138.8954180060295
 30
0.0
 10
120.2889388380596
 20
138.8091759245456
 30
0.0
 10
120.3509906130827
 20
138.6688584815185
 30
0.0
 10
120.4322356704544
 20
138.522963425706
 30
0.0
 10
120.4640266321148
 20
138.4658132975111
 30
0.0
 10
120.4650502301723
 20
138.4639731908535
 30
0.0
  0
SPLINE
  5
12F
330
1F
100
AcDbEntity
  8
0
  6
Continuous
 62
     7
370
    15
100
AcDbSpline
210
0.0
220
0.0
230
1.0
 70
     8
 71
     3
 72
    16
 73
    12
 74
     0
 42
0.000000001
 43
0.00000001
 40
0.0
 40
0.0
 40
0.0
 40
0.0
 40
0.031643896704351
 40
0.1442296906797929
 40
0.2602597186198056
 40
0.3918268288811922
 40
0.5492075381338438
 40
0.7249905054734761
 40
0.855865553415173
 40
0.9874199933190971
 40
1.0
 40
1.0
 40
1.0
 40
1.0
 10
120.2508004988609
 20
138.8954180060295
 30
0.0
 10
120.2424398856533
 20
138.9155145464998
 30
0.0
 10
120.2043330536126
 20
139.0071125517278
 30
0.0
 10
120.1038775601669
 20
139.1432878362995
 30
0.0
 10
119.9098932189964
 20
139.2626328228727
 30
0.0
 10
119.6405713850704
 20
139.3268457726782
 30
0.0
 10
119.2922744833551
 20
139.3376124698544
 30
0.0
 10
118.9287127236914
 20
139.284494918706
 30
0.0
 10
118.6189038096203
 20
139.1457561340733
 30
0.0
 10
118.4694235216859
 20
138.9960669022946
 30
0.0
 10
118.412789023751
 20
138.9034974381517
 30
0.0
 10
118.4078459835599
 20
138.8954180060315
 30
0.0
  0
SPLINE
  5
130
330
1F
100
AcDbEntity
  8
0
  6
Continuous
 62
     7
370
    15
100
AcDbSpline
210
0.0
220
0.0
230
1.0
 70
     8
 71
     3
 72
    10
 73
     6
 74
     0
 42
0.000000001
 43
0.00000001
 40
0.0
 40
0.0
 40
0.0
 40
0.0
 40
0.012658847777295
 40
0.3931591520964958
 40
1.0
 40
1.0
 40
1.0
 40
1.0
 10
118.161357086047
 20
138.4639731908535
 30
0.0
 10
118.1623008166109
 20
138.4658132975111
 30
0.0
 10
118.1916112495032
 20
138.5229634257059
 30
0.0
 10
118.2717942513758
 20
138.6688584815198
 30
0.0
 10
118.356056571491
 20
138.8091759245474
 30
0.0
 10
118.4078459835599
 20
138.8954180060315
 30
0.0
  0
LINE
  5
131
330
1F
100
AcDbEntity
  8
0
  6
Continuous
 62
     7
370
    15
100
AcDbLine
 10
118.161357086
 20
138.4639731909
 30
0.0
 11
116.8258241401
 21
138.4639731909
 31
0.0
  0
SPLINE
  5
132
330
1F
100
AcDbEntity
  8
0
  6
Continuous
 62
     7
370
    15
100
AcDbSpline
210
0.0
220
0.0
230
1.0
 70
     8
 71
     3
 72
    10
 73
     6
 74
     0
 42
0.000000001
 43
0.00000001
 40
0.0
 40
0.0
 40
0.0
 40
0.0
 40
0.6068408479055295
 40
0.987341152222671
 40
1.0
 40
1.0
 40
1.0
 40
1.0
 10
116.7012311607306
 20
138.8954180060295
 30
0.0
 10
116.7152546755596
 20
138.8091759245456
 30
0.0
 10
116.7380711905278
 20
138.6688584815186
 30
0.0
 10
116.7990130771941
 20
138.5229634257058
 30
0.0
 10
116.8249878115839
 20
138.4658132975111
 30
0.0
 10
116.825824140096
 20
138.4639731908535
 30
0.0
  0
SPLINE
  5
133
330
1F
100
AcDbEntity
  8
0
  6
Continuous
 62
     7
370
    15
100
AcDbSpline
210
0.0
220
0.0
230
1.0
 70
     8
 71
     3
 72
    16
 73
    12
 74
     0
 42
0.000000001
 43
0.00000001
 40
0.0
 40
0.0
 40
0.0
 40
0.0
 40
0.0316438967043504
 40
0.1442296906797935
 40
0.2602597186198054
 40
0.3918268288811919
 40
0.5492075381338443
 40
0.7249905054734759
 40
0.8558655534151741
 40
0.9874199933190972
 40
1.0
 40
1.0
 40
1.0
 40
1.0
 10
116.7012311607307
 20
138.8954180060295
 30
0.0
 10
116.6996288771227
 20
138.9155145464998
 30
0.0
 10
116.6923258299877
 20
139.0071125517278
 30
0.0
 10
116.6642268534193
 20
139.1432878362995
 30
0.0
 10
116.5798839835979
 20
139.2626328228727
 30
0.0
 10
116.4247166263046
 20
139.3268457726782
 30
0.0
 10
116.1771183448952
 20
139.3376124698544
 30
0.0
 10
115.8690739485187
 20
139.284494918706
 30
0.0
 10
115.569987224342
 20
139.1457561340733
 30
0.0
 10
115.4111439147409
 20
138.9960669022947
 30
0.0
 10
115.3490798133908
 20
138.9034974381517
 30
0.0
 10
115.3436628792149
 20
138.8954180060315
 30
0.0
  0
SPLINE
  5
134
330
1F
100
AcDbEntity
  8
0
  6
Continuous
 62
     7
370
    15
100
AcDbSpline
210
0.0
220
0.0
230
1.0
 70
     8
 71
     3
 72
    10
 73
     6
 74
     0
 42
0.000000001
 43
0.00000001
 40
0.0
 40
0.0
 40
0.0
 40
0.0
 40
0.012658847777289
 40
0.3931591520964983
 40
1.0
 40
1.0
 40
1.0
 40
1.0
 10
115.1288637882014
 20
138.4639731908535
 30
0.0
 10
115.1294766451756
 20
138.4658132975111
 30
0.0
 10
115.1485107889276
 20
138.5229634257066
 30
0.0
 10
115.2064810138516
 20
138.6688584815193
 30
0.0
 10
115.2914432709848
 20
138.8091759245472
 30
0.0
 10
115.3436628792149
 20
138.8954180060315
 30
0.0
  0
LINE
  5
135
330
1F
100
AcDbEntity
  8
0
  6
Continuous
 62
     7
370
    15
100
AcDbLine
 10
115.1288637882
 20
138.4639731909
 30
0.0
 11
114.3502121048
 21
138.4639731909
 31
0.0
  0
SPLINE
  5
136
330
1F
100
AcDbEntity
  8
0
  6
Continuous
 62
     7
370
    15
100
AcDbSpline
210
0.0
220
0.0
230
1.0
 70
     8
 71
     3
 72
    10
 73
     6
 74
     0
 42
0.000000001
 43
0.00000001
 40
0.0
 40
0.0
 40
0.0
 40
0.0
 40
0.6068408479055181
 40
0.9873411522226683
 40
1.0
 40
1.0
 40
1.0
 40
1.0
 10
114.3486604656123
 20
138.8954180060295
 30
0.0
 10
114.3348115665973
 20
138.8091759245455
 30
0.0
 10
114.3122791547504
 20
138.6688584815182
 30
0.0
 10
114.3365885413951
 20
138.5229634257064
 30
0.0
 10
114.3497871394101
 20
138.4658132975112
 30
0.0
 10
114.3502121048274
 20
138.4639731908536
 30
0.0
  0
SPLINE
  5
137
330
1F
100
AcDbEntity
  8
0
  6
Continuous
 62
     7
370
    15
100
AcDbSpline
210
0.0
220
0.0
230
1.0
 70
     8
 71
     3
 72
    16
 73
    12
 74
     0
 42
0.000000001
 43
0.00000001
 40
0.0
 40
0.0
 40
0.0
 40
0.0
 40
0.0316438967043506
 40
0.1442296906797937
 40
0.2602597186198043
 40
0.3918268288811911
 40
0.5492075381338432
 40
0.7249905054734755
 40
0.855865553415172
 40
0.9874199933190967
 40
1.0
 40
1.0
 40
1.0
 40
1.0
 10
114.3486604656118
 20
138.8954180060295
 30
0.0
 10
114.3542458422021
 20
138.9155145464998
 30
0.0
 10
114.3797034255549
 20
139.0071125517278
 30
0.0
 10
114.4314900639434
 20
139.1432878362995
 30
0.0
 10
114.4793882693272
 20
139.2626328228727
 30
0.0
 10
114.479952356745
 20
139.3268457726782
 30
0.0
 10
114.3993964551925
 20
139.3376124698544
 30
0.0
 10
114.2294096693451
 20
139.284494918706
 30
0.0
 10
114.0211851812729
 20
139.1457561340733
 30
0.0
 10
113.8955407865358
 20
138.9960669022947
 30
0.0
 10
113.8446771076062
 20
138.9034974381517
 30
0.0
 10
113.8402377425834
 20
138.8954180060315
 30
0.0
  0
SPLINE
  5
138
330
1F
100
AcDbEntity
  8
0
  6
Continuous
 62
     7
370
    15
100
AcDbSpline
210
0.0
220
0.0
230
1.0
 70
     8
 71
     3
 72
    10
 73
     6
 74
     0
 42
0.000000001
 43
0.00000001
 40
0.0
 40
0.0
 40
0.0
 40
0.0
 40
0.0126588477772945
 40
0.3931591520965033
 40
1.0
 40
1.0
 40
1.0
 40
1.0
 10
113.7146837010413
 20
138.4639731908535
 30
0.0
 10
113.7148014698946
 20
138.4658132975111
 30
0.0
 10
113.7184591410606
 20
138.522963425706
 30
0.0
 10
113.7386835140802
 20
138.6688584815197
 30
0.0
 10
113.8015801400461
 20
138.8091759245474
 30
0.0
 10
113.8402377425834
 20
138.8954180060315
 30
0.0
  0
LINE
  5
139
330
1F
100
AcDbEntity
  8
0
  6
Continuous
 62
     7
370
    15
100
AcDbLine
 10
124.466539329
 20
139.4639731909
 30
0.0
 11
127.668490913
 21
139.4639731909
 31
0.0
  0
LINE
  5
13A
330
1F
100
AcDbEntity
  8
0
  6
Continuous
 62
     7
370
    15
100
AcDbLine
 10
114.668490913
 20
139.4639731909
 30
0.0
 11
124.466539329
 21
139.4639731909
 31
0.0
  0
SPLINE
  5
13B
330
1F
100
AcDbEntity
  8
0
  6
Continuous
 62
     7
370
    15
100
AcDbSpline
210
0.0
220
0.0
230
1.0
 70
     8
 71
     3
 72
    10
 73
     6
 74
     0
 42
0.000000001
 43
0.00000001
 40
0.0
 40
0.0
 40
0.0
 40
0.0
 40
0.6068408479055156
 40
0.9873411522226713
 40
1.0
 40
1.0
 40
1.0
 40
1.0
 10
113.8402377425834
 20
132.0325283756775
 30
0.0
 10
113.8015801400459
 20
132.1187704571615
 30
0.0
 10
113.7386835140799
 20
132.2590879001886
 30
0.0
 10
113.7184591410605
 20
132.404982956001
 30
0.0
 10
113.7148014698946
 20
132.4621330841959
 30
0.0
 10
113.7146837010413
 20
132.4639731908536
 30
0.0
  0
SPLINE
  5
13C
330
1F
100
AcDbEntity
  8
0
  6
Continuous
 62
     7
370
    15
100
AcDbSpline
210
0.0
220
0.0
230
1.0
 70
     8
 71
     3
 72
    16
 73
    12
 74
     0
 42
0.000000001
 43
0.00000001
 40
0.0
 40
0.0
 40
0.0
 40
0.0
 40
0.0316438967043528
 40
0.1442296906797942
 40
0.2602597186198049
 40
0.3918268288811911
 40
0.5492075381338433
 40
0.724990505473476
 40
0.8558655534151725
 40
0.9874199933190969
 40
1.0
 40
1.0
 40
1.0
 40
1.0
 10
113.8402377425824
 20
132.0325283756775
 30
0.0
 10
113.851655605177
 20
132.0124318352073
 30
0.0
 10
113.9036970716764
 20
131.9208338299793
 30
0.0
 10
114.0231949710175
 20
131.7846585454076
 30
0.0
 10
114.1937950988158
 20
131.6653135588344
 30
0.0
 10
114.3545254931762
 20
131.6011006090289
 30
0.0
 10
114.4685414003088
 20
131.5903339118526
 30
0.0
 10
114.4883796441328
 20
131.643451463001
 30
0.0
 10
114.4321217164941
 20
131.7821902476338
 30
0.0
 10
114.375909197439
 20
131.9318794794124
 30
0.0
 10
114.3508478147769
 20
132.0244489435553
 30
0.0
 10
114.3486604656123
 20
132.0325283756756
 30
0.0
  0
SPLINE
  5
13D
330
1F
100
AcDbEntity
  8
0
  6
Continuous
 62
     7
370
    15
100
AcDbSpline
210
0.0
220
0.0
230
1.0
 70
     8
 71
     3
 72
    10
 73
     6
 74
     0
 42
0.000000001
 43
0.00000001
 40
0.0
 40
0.0
 40
0.0
 40
0.0
 40
0.012658847777293
 40
0.3931591520965035
 40
1.0
 40
1.0
 40
1.0
 40
1.0
 10
114.3502121048274
 20
132.4639731908536
 30
0.0
 10
114.3497871394101
 20
132.4621330841959
 30
0.0
 10
114.3365885413948
 20
132.4049829560003
 30
0.0
 10
114.3122791547505
 20
132.2590879001879
 30
0.0
 10
114.3348115665973
 20
132.1187704571598
 30
0.0
 10
114.3486604656123
 20
132.0325283756756
 30
0.0
  0
LINE
  5
13E
330
1F
100
AcDbEntity
  8
0
  6
Continuous
 62
     7
370
    15
100
AcDbLine
 10
114.3502121048
 20
132.4639731909
 30
0.0
 11
115.1288637882
 21
132.4639731909
 31
0.0
  0
SPLINE
  5
13F
330
1F
100
AcDbEntity
  8
0
  6
Continuous
 62
     7
370
    15
100
AcDbSpline
210
0.0
220
0.0
230
1.0
 70
     8
 71
     3
 72
    10
 73
     6
 74
     0
 42
0.000000001
 43
0.00000001
 40
0.0
 40
0.0
 40
0.0
 40
0.0
 40
0.6068408479055148
 40
0.9873411522226667
 40
1.0
 40
1.0
 40
1.0
 40
1.0
 10
115.3436628792149
 20
132.0325283756775
 30
0.0
 10
115.2914432709844
 20
132.1187704571615
 30
0.0
 10
115.2064810138508
 20
132.2590879001885
 30
0.0
 10
115.1485107889277
 20
132.4049829560012
 30
0.0
 10
115.1294766451756
 20
132.4621330841959
 30
0.0
 10
115.1288637882014
 20
132.4639731908536
 30
0.0
  0
SPLINE
  5
140
330
1F
100
AcDbEntity
  8
0
  6
Continuous
 62
     7
370
    15
100
AcDbSpline
210
0.0
220
0.0
230
1.0
 70
     8
 71
     3
 72
    16
 73
    12
 74
     0
 42
0.000000001
 43
0.00000001
 40
0.0
 40
0.0
 40
0.0
 40
0.0
 40
0.0316438967043509
 40
0.144229690679794
 40
0.260259718619805
 40
0.3918268288811915
 40
0.5492075381338429
 40
0.7249905054734758
 40
0.8558655534151717
 40
0.9874199933190987
 40
0.9999999999999999
 40
0.9999999999999999
 40
0.9999999999999999
 40
0.9999999999999999
 10
115.3436628792136
 20
132.0325283756775
 30
0.0
 10
115.3576342465129
 20
132.0124318352073
 30
0.0
 10
115.4213143299988
 20
131.9208338299793
 30
0.0
 10
115.5740150226959
 20
131.7846585454076
 30
0.0
 10
115.8173054989189
 20
131.6653135588344
 30
0.0
 10
116.0898072606952
 20
131.6011006090289
 30
0.0
 10
116.3617461753703
 20
131.5903339118526
 30
0.0
 10
116.5605643318403
 20
131.643451463001
 30
0.0
 10
116.6672521196024
 20
131.7821902476338
 30
0.0
 10
116.6938027900153
 20
131.9318794794124
 30
0.0
 10
116.7006348599346
 20
132.0244489435553
 30
0.0
 10
116.7012311607306
 20
132.0325283756756
 30
0.0
  0
SPLINE
  5
141
330
1F
100
AcDbEntity
  8
0
  6
Continuous
 62
     7
370
    15
100
AcDbSpline
210
0.0
220
0.0
230
1.0
 70
     8
 71
     3
 72
    10
 73
     6
 74
     0
 42
0.000000001
 43
0.00000001
 40
0.0
 40
0.0
 40
0.0
 40
0.0
 40
0.0126588477772884
 40
0.3931591520965039
 40
1.0
 40
1.0
 40
1.0
 40
1.0
 10
116.825824140096
 20
132.4639731908536
 30
0.0
 10
116.8249878115839
 20
132.4621330841959
 30
0.0
 10
116.7990130771939
 20
132.4049829560008
 30
0.0
 10
116.7380711905274
 20
132.2590879001875
 30
0.0
 10
116.7152546755595
 20
132.1187704571597
 30
0.0
 10
116.7012311607306
 20
132.0325283756756
 30
0.0
  0
LINE
  5
142
330
1F
100
AcDbEntity
  8
0
  6
Continuous
 62
     7
370
    15
100
AcDbLine
 10
116.8258241401
 20
132.4639731909
 30
0.0
 11
118.161357086
 21
132.4639731909
 31
0.0
  0
SPLINE
  5
143
330
1F
100
AcDbEntity
  8
0
  6
Continuous
 62
     7
370
    15
100
AcDbSpline
210
0.0
220
0.0
230
1.0
 70
     8
 71
     3
 72
    10
 73
     6
 74
     0
 42
0.000000001
 43
0.00000001
 40
0.0
 40
0.0
 40
0.0
 40
0.0
 40
0.6068408479055253
 40
0.9873411522226653
 40
1.0
 40
1.0
 40
1.0
 40
1.0
 10
118.4078459835599
 20
132.0325283756775
 30
0.0
 10
118.3560565714909
 20
132.1187704571615
 30
0.0
 10
118.2717942513759
 20
132.2590879001886
 30
0.0
 10
118.1916112495019
 20
132.404982956001
 30
0.0
 10
118.1623008166108
 20
132.4621330841959
 30
0.0
 10
118.161357086047
 20
132.4639731908536
 30
0.0
  0
SPLINE
  5
144
330
1F
100
AcDbEntity
  8
0
  6
Continuous
 62
     7
370
    15
100
AcDbSpline
210
0.0
220
0.0
230
1.0
 70
     8
 71
     3
 72
    16
 73
    12
 74
     0
 42
0.000000001
 43
0.00000001
 40
0.0
 40
0.0
 40
0.0
 40
0.0
 40
0.0316438967043535
 40
0.1442296906797966
 40
0.2602597186198083
 40
0.391826828881194
 40
0.549207538133847
 40
0.7249905054734788
 40
0.8558655534151749
 40
0.9874199933191001
 40
1.0
 40
1.0
 40
1.0
 40
1.0
 10
118.4078459835587
 20
132.0325283756775
 30
0.0
 10
118.4206272389777
 20
132.0124318352073
 30
0.0
 10
118.478882912506
 20
131.9208338299793
 30
0.0
 10
118.6238703712673
 20
131.7846585454076
 30
0.0
 10
118.8746617092849
 20
131.6653135588344
 30
0.0
 10
119.1859182114731
 20
131.6011006090289
 30
0.0
 10
119.5429143211129
 20
131.5903339118526
 30
0.0
 10
119.8674392257621
 20
131.643451463001
 30
0.0
 10
120.1084858223519
 20
131.7821902476338
 30
0.0
 10
120.2106854515372
 20
131.9318794794124
 30
0.0
 10
120.2475803264203
 20
132.0244489435554
 30
0.0
 10
120.2508004988601
 20
132.0325283756756
 30
0.0
  0
SPLINE
  5
145
330
1F
100
AcDbEntity
  8
0
  6
Continuous
 62
     7
370
    15
100
AcDbSpline
210
0.0
220
0.0
230
1.0
 70
     8
 71
     3
 72
    10
 73
     6
 74
     0
 42
0.000000001
 43
0.00000001
 40
0.0
 40
0.0
 40
0.0
 40
0.0
 40
0.0126588477772896
 40
0.3931591520965008
 40
1.0
 40
1.0
 40
1.0
 40
1.0
 10
120.4650502301723
 20
132.4639731908536
 30
0.0
 10
120.4640266321148
 20
132.4621330841959
 30
0.0
 10
120.4322356704543
 20
132.4049829560005
 30
0.0
 10
120.350990613082
 20
132.2590879001877
 30
0.0
 10
120.2889388380592
 20
132.1187704571598
 30
0.0
 10
120.2508004988601
 20
132.0325283756756
 30
0.0
  0
LINE
  5
146
330
1F
100
AcDbEntity
  8
0
  6
Continuous
 62
     7
370
    15
100
AcDbLine
 10
120.4650502302
 20
132.4639731909
 30
0.0
 11
121.9996094644
 21
132.4639731909
 31
0.0
  0
SPLINE
  5
147
330
1F
100
AcDbEntity
  8
0
  6
Continuous
 62
     7
370
    15
100
AcDbSpline
210
0.0
220
0.0
230
1.0
 70
     8
 71
     3
 72
    10
 73
     6
 74
     0
 42
0.000000001
 43
0.00000001
 40
0.0
 40
0.0
 40
0.0
 40
0.0
 40
0.6068408479055198
 40
0.9873411522226637
 40
1.0
 40
1.0
 40
1.0
 40
1.0
 10
122.2117416673481
 20
132.0325283756775
 30
0.0
 10
122.1742593825811
 20
132.1187704571617
 30
0.0
 10
122.113275020112
 20
132.2590879001889
 30
0.0
 10
122.0323642118851
 20
132.4049829560006
 30
0.0
 10
122.0006311966786
 20
132.4621330841959
 30
0.0
 10
121.9996094643677
 20
132.4639731908536
 30
0.0
  0
SPLINE
  5
148
330
1F
100
AcDbEntity
  8
0
  6
Continuous
 62
     7
370
    15
100
AcDbSpline
210
0.0
220
0.0
230
1.0
 70
     8
 71
     3
 72
    16
 73
    12
 74
     0
 42
0.000000001
 43
0.00000001
 40
0.0
 40
0.0
 40
0.0
 40
0.0
 40
0.0316438967043512
 40
0.1442296906797934
 40
0.2602597186198058
 40
0.3918268288811927
 40
0.5492075381338446
 40
0.7249905054734765
 40
0.855865553415173
 40
0.9874199933190994
 40
0.9999999999999999
 40
0.9999999999999999
 40
0.9999999999999999
 40
0.9999999999999999
 10
122.2117416673473
 20
132.0325283756775
 30
0.0
 10
122.2199080838182
 20
132.0124318352073
 30
0.0
 10
122.2571297867126
 20
131.9208338299793
 30
0.0
 10
122.3555547390502
 20
131.7846585454076
 30
0.0
 10
122.5466476023719
 20
131.6653135588344
 30
0.0
 10
122.8132579165717
 20
131.6011006090289
 30
0.0
 10
123.1596544018972
 20
131.5903339118526
 30
0.0
 10
123.5229298686011
 20
131.643451463001
 30
0.0
 10
123.833747033124
 20
131.7821902476338
 30
0.0
 10
123.9842113129748
 20
131.9318794794124
 30
0.0
 10
124.0412830408919
 20
132.0244489435553
 30
0.0
 10
124.0462642423708
 20
132.0325283756756
 30
0.0
  0
SPLINE
  5
149
330
1F
100
AcDbEntity
  8
0
  6
Continuous
 62
     7
370
    15
100
AcDbSpline
210
0.0
220
0.0
230
1.0
 70
     8
 71
     3
 72
    10
 73
     6
 74
     0
 42
0.000000001
 43
0.00000001
 40
0.0
 40
0.0
 40
0.0
 40
0.0
 40
0.0126588477772944
 40
0.3931591520965007
 40
1.0
 40
1.0
 40
1.0
 40
1.0
 10
124.2927626831461
 20
132.4639731908536
 30
0.0
 10
124.2918260878162
 20
132.4621330841959
 30
0.0
 10
124.2627372613889
 20
132.4049829560003
 30
0.0
 10
124.1829585808222
 20
132.2590879001879
 30
0.0
 10
124.0982982687511
 20
132.1187704571599
 30
0.0
 10
124.0462642423708
 20
132.0325283756756
 30
0.0
  0
LINE
  5
14A
330
1F
100
AcDbEntity
  8
0
  6
Continuous
 62
     7
370
    15
100
AcDbLine
 10
124.2927626831
 20
132.4639731909
 30
0.0
 11
125.615164298
 21
132.4639731909
 31
0.0
  0
SPLINE
  5
14B
330
1F
100
AcDbEntity
  8
0
  6
Continuous
 62
     7
370
    15
100
AcDbSpline
210
0.0
220
0.0
230
1.0
 70
     8
 71
     3
 72
    10
 73
     6
 74
     0
 42
0.000000001
 43
0.00000001
 40
0.0
 40
0.0
 40
0.0
 40
0.0
 40
0.6068408479055177
 40
0.9873411522226739
 40
1.0
 40
1.0
 40
1.0
 40
1.0
 10
125.7360991540161
 20
132.0325283756775
 30
0.0
 10
125.7229673444849
 20
132.1187704571616
 30
0.0
 10
125.701601650336
 20
132.2590879001888
 30
0.0
 10
125.6416430214805
 20
132.4049829560008
 30
0.0
 10
125.6159902597559
 20
132.4621330841959
 30
0.0
 10
125.6151642980454
 20
132.4639731908536
 30
0.0
  0
SPLINE
  5
14C
330
1F
100
AcDbEntity
  8
0
  6
Continuous
 62
     7
370
    15
100
AcDbSpline
210
0.0
220
0.0
230
1.0
 70
     8
 71
     3
 72
    16
 73
    12
 74
     0
 42
0.000000001
 43
0.00000001
 40
0.0
 40
0.0
 40
0.0
 40
0.0
 40
0.0316438967043529
 40
0.1442296906797941
 40
0.2602597186198056
 40
0.3918268288811919
 40
0.5492075381338443
 40
0.7249905054734768
 40
0.8558655534151726
 40
0.9874199933190974
 40
1.0
 40
1.0
 40
1.0
 40
1.0
 10
125.736099154016
 20
132.0325283756775
 30
0.0
 10
125.7374625468403
 20
132.0124318352073
 30
0.0
 10
125.7436767538693
 20
131.9208338299793
 30
0.0
 10
125.7691663132894
 20
131.7846585454076
 30
0.0
 10
125.8493575235088
 20
131.6653135588344
 30
0.0
 10
125.9998836313366
 20
131.6011006090289
 30
0.0
 10
126.2428638338438
 20
131.5903339118526
 30
0.0
 10
126.547550494669
 20
131.643451463001
 30
0.0
 10
126.8448550188974
 20
131.7821902476338
 30
0.0
 10
127.0032671671379
 20
131.9318794794124
 30
0.0
 10
127.0652234246831
 20
132.0244489435553
 30
0.0
 10
127.0706309462875
 20
132.0325283756756
 30
0.0
  0
SPLINE
  5
14D
330
1F
100
AcDbEntity
  8
0
  6
Continuous
 62
     7
370
    15
100
AcDbSpline
210
0.0
220
0.0
230
1.0
 70
     8
 71
     3
 72
    10
 73
     6
 74
     0
 42
0.000000001
 43
0.00000001
 40
0.0
 40
0.0
 40
0.0
 40
0.0
 40
0.0126588477772918
 40
0.3931591520965015
 40
1.0
 40
1.0
 40
1.0
 40
1.0
 10
127.2833290383845
 20
132.4639731908536
 30
0.0
 10
127.2827304057444
 20
132.4621330841959
 30
0.0
 10
127.2641380420994
 20
132.4049829560007
 30
0.0
 10
127.207202371371
 20
132.2590879001876
 30
0.0
 10
127.1226181845015
 20
132.1187704571597
 30
0.0
 10
127.0706309462875
 20
132.0325283756756
 30
0.0
  0
LINE
  5
14E
330
1F
100
AcDbEntity
  8
0
  6
Continuous
 62
     7
370
    15
100
AcDbLine
 10
127.2833290384
 20
132.4639731909
 30
0.0
 11
128.0392365892
 21
132.4639731909
 31
0.0
  0
SPLINE
  5
14F
330
1F
100
AcDbEntity
  8
0
  6
Continuous
 62
     7
370
    15
100
AcDbSpline
210
0.0
220
0.0
230
1.0
 70
     8
 71
     3
 72
    10
 73
     6
 74
     0
 42
0.000000001
 43
0.00000001
 40
0.0
 40
0.0
 40
0.0
 40
0.0
 40
0.6068408479055182
 40
0.9873411522226633
 40
1.0
 40
1.0
 40
1.0
 40
1.0
 10
128.0365697011728
 20
132.0325283756775
 30
0.0
 10
128.0513070246361
 20
132.1187704571615
 30
0.0
 10
128.0752849193003
 20
132.2590879001886
 30
0.0
 10
128.0523443359979
 20
132.4049829560011
 30
0.0
 10
128.0396454645426
 20
132.4621330841959
 30
0.0
 10
128.0392365892059
 20
132.4639731908536
 30
0.0
  0
SPLINE
  5
150
330
1F
100
AcDbEntity
  8
0
  6
Continuous
 62
     7
370
    15
100
AcDbSpline
210
0.0
220
0.0
230
1.0
 70
     8
 71
     3
 72
    16
 73
    12
 74
     0
 42
0.000000001
 43
0.00000001
 40
0.0
 40
0.0
 40
0.0
 40
0.0
 40
0.0316438967043503
 40
0.1442296906797932
 40
0.2602597186198045
 40
0.3918268288811909
 40
0.5492075381338425
 40
0.724990505473474
 40
0.8558655534151719
 40
0.9874199933190966
 40
1.0
 40
1.0
 40
1.0
 40
1.0
 10
128.0365697011734
 20
132.0325283756775
 30
0.0
 10
128.0307647503449
 20
132.0124318352073
 30
0.0
 10
128.0043063697534
 20
131.9208338299793
 30
0.0
 10
127.950030629394
 20
131.7846585454076
 30
0.0
 10
127.8978330164926
 20
131.6653135588344
 30
0.0
 10
127.8919415689162
 20
131.6011006090289
 30
0.0
 10
127.9663991395665
 20
131.5903339118526
 30
0.0
 10
128.1308564498004
 20
131.643451463001
 30
0.0
 10
128.3349858265612
 20
131.7821902476338
 30
0.0
 10
128.4588994359991
 20
131.9318794794124
 30
0.0
 10
128.509139093997
 20
132.0244489435553
 30
0.0
 10
128.5135239946799
 20
132.0325283756756
 30
0.0
  0
SPLINE
  5
151
330
1F
100
AcDbEntity
  8
0
  6
Continuous
 62
     7
370
    15
100
AcDbSpline
210
0.0
220
0.0
230
1.0
 70
     8
 71
     3
 72
    10
 73
     6
 74
     0
 42
0.000000001
 43
0.00000001
 40
0.0
 40
0.0
 40
0.0
 40
0.0
 40
0.012658847777283
 40
0.3931591520965022
 40
1.0
 40
1.0
 40
1.0
 40
1.0
 10
128.6354294560898
 20
132.4639731908536
 30
0.0
 10
128.6353291892719
 20
132.4621330841959
 30
0.0
 10
128.6322150972338
 20
132.4049829560005
 30
0.0
 10
128.6133783033349
 20
132.2590879001878
 30
0.0
 10
128.5515345062314
 20
132.1187704571598
 30
0.0
 10
128.5135239946799
 20
132.0325283756756
 30
0.0
  0
LINE
  5
152
330
1F
100
AcDbEntity
  8
0
  6
Continuous
 62
     7
370
    15
100
AcDbLine
 10
124.466539329
 20
131.4639731909
 30
0.0
 11
114.668490913
 21
131.4639731909
 31
0.0
  0
LINE
  5
153
330
1F
100
AcDbEntity
  8
0
  6
Continuous
 62
     7
370
    15
100
AcDbLine
 10
127.668490913
 20
131.4639731909
 30
0.0
 11
124.466539329
 21
131.4639731909
 31
0.0
  0
LINE
  5
154
330
1F
100
AcDbEntity
  8
0
  6
Continuous
 62
     7
370
    15
100
AcDbLine
 10
118.4078459836
 20
138.895418006
 30
0.0
 11
118.4078459836
 21
132.0325283757
 31
0.0
  0
LINE
  5
155
330
1F
100
AcDbEntity
  8
0
  6
Continuous
 62
     7
370
    15
100
AcDbLine
 10
120.2508004989
 20
132.0325283757
 30
0.0
 11
120.2508004989
 21
138.895418006
 31
0.0
  0
LINE
  5
156
330
1F
100
AcDbEntity
  8
0
  6
Continuous
 62
     7
370
    15
100
AcDbLine
 10
121.9996094644
 20
132.4639731909
 30
0.0
 11
121.9996094644
 21
138.4639731909
 31
0.0
  0
LINE
  5
157
330
1F
100
AcDbEntity
  8
0
  6
Continuous
 62
     7
370
    15
100
AcDbLine
 10
120.4650502302
 20
138.4639731909
 30
0.0
 11
120.4650502302
 21
132.4639731909
 31
0.0
  0
LINE
  5
158
330
1F
100
AcDbEntity
  8
0
  6
Continuous
 62
     7
370
    15
100
AcDbLine
 10
122.2117416673
 20
138.895418006
 30
0.0
 11
122.2117416673
 21
132.0325283757
 31
0.0
  0
LINE
  5
159
330
1F
100
AcDbEntity
  8
0
  6
Continuous
 62
     7
370
    15
100
AcDbLine
 10
124.0462642424
 20
132.0325283757
 30
0.0
 11
124.0462642424
 21
138.895418006
 31
0.0
  0
LINE
  5
15A
330
1F
100
AcDbEntity
  8
0
  6
Continuous
 62
     7
370
    15
100
AcDbLine
 10
118.161357086
 20
132.4639731909
 30
0.0
 11
118.161357086
 21
138.4639731909
 31
0.0
  0
LINE
  5
15B
330
1F
100
AcDbEntity
  8
0
  6
Continuous
 62
     7
370
    15
100
AcDbLine
 10
116.8258241401
 20
138.4639731909
 30
0.0
 11
116.8258241401
 21
132.4639731909
 31
0.0
  0
LINE
  5
15C
330
1F
100
AcDbEntity
  8
0
  6
Continuous
 62
     7
370
    15
100
AcDbLine
 10
124.2927626831
 20
138.4639731909
 30
0.0
 11
124.2927626831
 21
132.4639731909
 31
0.0
  0
LINE
  5
15D
330
1F
100
AcDbEntity
  8
0
  6
Continuous
 62
     7
370
    15
100
AcDbLine
 10
125.615164298
 20
132.4639731909
 30
0.0
 11
125.615164298
 21
138.4639731909
 31
0.0
  0
LINE
  5
15E
330
1F
100
AcDbEntity
  8
0
  6
Continuous
 62
     7
370
    15
100
AcDbLine
 10
115.3436628792
 20
138.895418006
 30
0.0
 11
115.3436628792
 21
132.0325283757
 31
0.0
  0
LINE
  5
15F
330
1F
100
AcDbEntity
  8
0
  6
Continuous
 62
     7
370
    15
100
AcDbLine
 10
116.7012311607
 20
132.0325283757
 30
0.0
 11
116.7012311607
 21
138.895418006
 31
0.0
  0
LINE
  5
160
330
1F
100
AcDbEntity
  8
0
  6
Continuous
 62
     7
370
    15
100
AcDbLine
 10
125.736099154
 20
138.895418006
 30
0.0
 11
125.736099154
 21
132.0325283757
 31
0.0
  0
LINE
  5
161
330
1F
100
AcDbEntity
  8
0
  6
Continuous
 62
     7
370
    15
100
AcDbLine
 10
127.0706309463
 20
132.0325283757
 30
0.0
 11
127.0706309463
 21
138.895418006
 31
0.0
  0
LINE
  5
162
330
1F
100
AcDbEntity
  8
0
  6
Continuous
 62
     7
370
    15
100
AcDbLine
 10
115.1288637882
 20
132.4639731909
 30
0.0
 11
115.1288637882
 21
138.4639731909
 31
0.0
  0
LINE
  5
163
330
1F
100
AcDbEntity
  8
0
  6
Continuous
 62
     7
370
    15
100
AcDbLine
 10
127.2833290384
 20
138.4639731909
 30
0.0
 11
127.2833290384
 21
132.4639731909
 31
0.0
  0
LINE
  5
164
330
1F
100
AcDbEntity
  8
0
  6
Continuous
 62
     7
370
    15
100
AcDbLine
 10
114.3502121048
 20
138.4639731909
 30
0.0
 11
114.3502121048
 21
132.4639731909
 31
0.0
  0
LINE
  5
165
330
1F
100
AcDbEntity
  8
0
  6
Continuous
 62
     7
370
    15
100
AcDbLine
 10
128.0392365892
 20
132.4639731909
 30
0.0
 11
128.0392365892
 21
138.4639731909
 31
0.0
  0
LINE
  5
166
330
1F
100
AcDbEntity
  8
0
  6
Continuous
 62
     7
370
    15
100
AcDbLine
 10
113.8402377426
 20
138.895418006
 30
0.0
 11
113.8402377426
 21
132.0325283757
 31
0.0
  0
LINE
  5
167
330
1F
100
AcDbEntity
  8
0
  6
Continuous
 62
     7
370
    15
100
AcDbLine
 10
128.5135239947
 20
132.0325283757
 30
0.0
 11
128.5135239947
 21
138.895418006
 31
0.0
  0
LINE
  5
168
330
1F
100
AcDbEntity
  8
0
  6
Continuous
 62
     7
370
    15
100
AcDbLine
 10
113.714683701
 20
132.4639731909
 30
0.0
 11
113.714683701
 21
138.4639731909
 31
0.0
  0
LINE
  5
169
330
1F
100
AcDbEntity
  8
0
  6
Continuous
 62
     7
370
    15
100
AcDbLine
 10
128.6354294561
 20
138.4639731909
 30
0.0
 11
128.6354294561
 21
132.4639731909
 31
0.0
  0
SPLINE
  5
16A
330
1F
100
AcDbEntity
  8
0
  6
Continuous
 62
     7
370
    15
100
AcDbSpline
210
0.0
220
0.0
230
1.0
 70
     8
 71
     3
 72
    10
 73
     6
 74
     0
 42
0.000000001
 43
0.00000001
 40
0.0
 40
0.0
 40
0.0
 40
0.0
 40
0.6068408479055191
 40
0.9873411522226664
 40
1.0
 40
1.0
 40
1.0
 40
1.0
 10
154.4307049785657
 20
138.8954180060295
 30
0.0
 10
154.4713058579587
 20
138.8091759245456
 30
0.0
 10
154.5373642308905
 20
138.6688584815185
 30
0.0
 10
154.5618733511445
 20
138.5229634257059
 30
0.0
 10
154.5672175677908
 20
138.4658132975111
 30
0.0
 10
154.5673896396469
 20
138.4639731908535
 30
0.0
  0
SPLINE
  5
16B
330
1F
100
AcDbEntity
  8
0
  6
Continuous
 62
     7
370
    15
100
AcDbSpline
210
0.0
220
0.0
230
1.0
 70
     8
 71
     3
 72
    16
 73
    12
 74
     0
 42
0.000000001
 43
0.00000001
 40
0.0
 40
0.0
 40
0.0
 40
0.0
 40
0.0316438967043509
 40
0.1442296906797939
 40
0.2602597186198055
 40
0.391826828881192
 40
0.5492075381338442
 40
0.7249905054734769
 40
0.8558655534151748
 40
0.9874199933190997
 40
0.9999999999999999
 40
0.9999999999999999
 40
0.9999999999999999
 40
0.9999999999999999
 10
154.4307049785668
 20
138.8954180060295
 30
0.0
 10
154.418867986103
 20
138.9155145464998
 30
0.0
 10
154.3649161679192
 20
139.0071125517278
 30
0.0
 10
154.2403409851052
 20
139.1432878362995
 30
0.0
 10
154.0597959443187
 20
139.2626328228727
 30
0.0
 10
153.8850806232822
 20
139.3268457726782
 30
0.0
 10
153.7527598056857
 20
139.3376124698544
 30
0.0
 10
153.7135828718869
 20
139.284494918706
 30
0.0
 10
153.7531905451864
 20
139.1457561340733
 30
0.0
 10
153.8013015898359
 20
138.9960669022946
 30
0.0
 10
153.8232847312725
 20
138.9034974381517
 30
0.0
 10
153.8252034125642
 20
138.8954180060315
 30
0.0
  0
SPLINE
  5
16C
330
1F
100
AcDbEntity
  8
0
  6
Continuous
 62
     7
370
    15
100
AcDbSpline
210
0.0
220
0.0
230
1.0
 70
     8
 71
     3
 72
    10
 73
     6
 74
     0
 42
0.000000001
 43
0.00000001
 40
0.0
 40
0.0
 40
0.0
 40
0.0
 40
0.0126588477772878
 40
0.3931591520965007
 40
1.0
 40
1.0
 40
1.0
 40
1.0
 10
153.810512682145
 20
138.4639731908535
 30
0.0
 10
153.8109869748905
 20
138.4658132975112
 30
0.0
 10
153.8257175836281
 20
138.5229634257067
 30
0.0
 10
153.854245552385
 20
138.6688584815192
 30
0.0
 10
153.8362585849049
 20
138.8091759245472
 30
0.0
 10
153.8252034125642
 20
138.8954180060315
 30
0.0
  0
LINE
  5
16D
330
1F
100
AcDbEntity
  8
0
  6
Continuous
 62
     7
370
    15
100
AcDbLine
 10
153.8105126821
 20
138.4639731909
 30
0.0
 11
152.962468582
 21
138.4639731909
 31
0.0
  0
SPLINE
  5
16E
330
1F
100
AcDbEntity
  8
0
  6
Continuous
 62
     7
370
    15
100
AcDbSpline
210
0.0
220
0.0
230
1.0
 70
     8
 71
     3
 72
    10
 73
     6
 74
     0
 42
0.000000001
 43
0.00000001
 40
0.0
 40
0.0
 40
0.0
 40
0.0
 40
0.6068408479055277
 40
0.9873411522226658
 40
1.0
 40
1.0
 40
1.0
 40
1.0
 10
152.7415276888949
 20
138.8954180060295
 30
0.0
 10
152.7943731177297
 20
138.8091759245456
 30
0.0
 10
152.8803535964263
 20
138.6688584815186
 30
0.0
 10
152.941437890303
 20
138.5229634257058
 30
0.0
 10
152.9618125630028
 20
138.4658132975111
 30
0.0
 10
152.9624685820191
 20
138.4639731908535
 30
0.0
  0
SPLINE
  5
16F
330
1F
100
AcDbEntity
  8
0
  6
Continuous
 62
     7
370
    15
100
AcDbSpline
210
0.0
220
0.0
230
1.0
 70
     8
 71
     3
 72
    16
 73
    12
 74
     0
 42
0.000000001
 43
0.00000001
 40
0.0
 40
0.0
 40
0.0
 40
0.0
 40
0.0316438967043512
 40
0.1442296906797933
 40
0.2602597186198045
 40
0.3918268288811914
 40
0.5492075381338434
 40
0.7249905054734752
 40
0.8558655534151723
 40
0.9874199933190966
 40
1.0
 40
1.0
 40
1.0
 40
1.0
 10
152.7415276888962
 20
138.8954180060295
 30
0.0
 10
152.72750350509
 20
138.9155145464998
 30
0.0
 10
152.6635826892909
 20
139.0071125517278
 30
0.0
 10
152.5097402541294
 20
139.1432878362995
 30
0.0
 10
152.2625206138721
 20
139.2626328228727
 30
0.0
 10
151.9823815428092
 20
139.3268457726782
 30
0.0
 10
151.6978756158971
 20
139.3376124698544
 30
0.0
 10
151.4830967749706
 20
139.284494918706
 30
0.0
 10
151.3607108407325
 20
139.1457561340733
 30
0.0
 10
151.3257526767307
 20
138.9960669022946
 30
0.0
 10
151.3156273174388
 20
138.9034974381517
 30
0.0
 10
151.314743579439
 20
138.8954180060315
 30
0.0
  0
SPLINE
  5
170
330
1F
100
AcDbEntity
  8
0
  6
Continuous
 62
     7
370
    15
100
AcDbSpline
210
0.0
220
0.0
230
1.0
 70
     8
 71
     3
 72
    10
 73
     6
 74
     0
 42
0.000000001
 43
0.00000001
 40
0.0
 40
0.0
 40
0.0
 40
0.0
 40
0.0126588477772932
 40
0.3931591520964945
 40
1.0
 40
1.0
 40
1.0
 40
1.0
 10
151.1789884451992
 20
138.4639731908535
 30
0.0
 10
151.1798554986144
 20
138.4658132975111
 30
0.0
 10
151.2067844886421
 20
138.5229634257058
 30
0.0
 10
151.2706750586795
 20
138.6688584815198
 30
0.0
 10
151.2979684693816
 20
138.8091759245475
 30
0.0
 10
151.314743579439
 20
138.8954180060315
 30
0.0
  0
LINE
  5
171
330
1F
100
AcDbEntity
  8
0
  6
Continuous
 62
     7
370
    15
100
AcDbLine
 10
151.1789884452
 20
138.4639731909
 30
0.0
 11
149.805055887
 21
138.4639731909
 31
0.0
  0
SPLINE
  5
172
330
1F
100
AcDbEntity
  8
0
  6
Continuous
 62
     7
370
    15
100
AcDbSpline
210
0.0
220
0.0
230
1.0
 70
     8
 71
     3
 72
    10
 73
     6
 74
     0
 42
0.000000001
 43
0.00000001
 40
0.0
 40
0.0
 40
0.0
 40
0.0
 40
0.6068408479055257
 40
0.987341152222669
 40
0.9999999999999999
 40
0.9999999999999999
 40
0.9999999999999999
 40
0.9999999999999999
 10
149.5590596957447
 20
138.8954180060295
 30
0.0
 10
149.6099897840415
 20
138.8091759245456
 30
0.0
 10
149.6928539686714
 20
138.6688584815187
 30
0.0
 10
149.774145948956
 20
138.5229634257056
 30
0.0
 10
149.8040917006134
 20
138.4658132975111
 30
0.0
 10
149.8050558870244
 20
138.4639731908536
 30
0.0
  0
SPLINE
  5
173
330
1F
100
AcDbEntity
  8
0
  6
Continuous
 62
     7
370
    15
100
AcDbSpline
210
0.0
220
0.0
230
1.0
 70
     8
 71
     3
 72
    16
 73
    12
 74
     0
 42
0.000000001
 43
0.00000001
 40
0.0
 40
0.0
 40
0.0
 40
0.0
 40
0.0316438967043505
 40
0.1442296906797939
 40
0.260259718619805
 40
0.3918268288811924
 40
0.5492075381338446
 40
0.7249905054734772
 40
0.8558655534151746
 40
0.9874199933190971
 40
1.0
 40
1.0
 40
1.0
 40
1.0
 10
149.5590596957459
 20
138.8954180060295
 30
0.0
 10
149.5466060893226
 20
138.9155145464998
 30
0.0
 10
149.4898438068811
 20
139.0071125517278
 30
0.0
 10
149.3479560756353
 20
139.1432878362994
 30
0.0
 10
149.1003041388672
 20
139.2626328228727
 30
0.0
 10
148.7898043556377
 20
139.3268457726782
 30
0.0
 10
148.429346452768
 20
139.3376124698544
 30
0.0
 10
148.0965155216914
 20
139.284494918706
 30
0.0
 10
147.8449291921596
 20
139.1457561340733
 30
0.0
 10
147.7362688313196
 20
138.9960669022947
 30
0.0
 10
147.6967480531446
 20
138.9034974381517
 30
0.0
 10
147.6932986927366
 20
138.8954180060315
 30
0.0
  0
SPLINE
  5
174
330
1F
100
AcDbEntity
  8
0
  6
Continuous
 62
     7
370
    15
100
AcDbSpline
210
0.0
220
0.0
230
1.0
 70
     8
 71
     3
 72
    10
 73
     6
 74
     0
 42
0.000000001
 43
0.00000001
 40
0.0
 40
0.0
 40
0.0
 40
0.0
 40
0.01265884777729
 40
0.3931591520964988
 40
1.0
 40
1.0
 40
1.0
 40
1.0
 10
147.4728546332643
 20
138.4639731908535
 30
0.0
 10
147.4738821210867
 20
138.4658132975111
 30
0.0
 10
147.5057938912713
 20
138.5229634257065
 30
0.0
 10
147.5879276359475
 20
138.6688584815193
 30
0.0
 10
147.6531881774747
 20
138.8091759245473
 30
0.0
 10
147.6932986927366
 20
138.8954180060315
 30
0.0
  0
LINE
  5
175
330
1F
100
AcDbEntity
  8
0
  6
Continuous
 62
     7
370
    15
100
AcDbLine
 10
147.4728546333
 20
138.4639731909
 30
0.0
 11
145.9411777365
 21
138.4639731909
 31
0.0
  0
SPLINE
  5
176
330
1F
100
AcDbEntity
  8
0
  6
Continuous
 62
     7
370
    15
100
AcDbSpline
210
0.0
220
0.0
230
1.0
 70
     8
 71
     3
 72
    10
 73
     6
 74
     0
 42
0.000000001
 43
0.00000001
 40
0.0
 40
0.0
 40
0.0
 40
0.0
 40
0.6068408479055186
 40
0.9873411522226674
 40
1.0
 40
1.0
 40
1.0
 40
1.0
 10
145.7360407278177
 20
138.8954180060295
 30
0.0
 10
145.7714087995465
 20
138.8091759245455
 30
0.0
 10
145.828953298756
 20
138.6688584815182
 30
0.0
 10
145.9086708449823
 20
138.5229634257063
 30
0.0
 10
145.9401637356228
 20
138.4658132975112
 30
0.0
 10
145.9411777364583
 20
138.4639731908536
 30
0.0
  0
SPLINE
  5
177
330
1F
100
AcDbEntity
  8
0
  6
Continuous
 62
     7
370
    15
100
AcDbSpline
210
0.0
220
0.0
230
1.0
 70
     8
 71
     3
 72
    16
 73
    12
 74
     0
 42
0.000000001
 43
0.00000001
 40
0.0
 40
0.0
 40
0.0
 40
0.0
 40
0.0316438967043507
 40
0.1442296906797932
 40
0.2602597186198044
 40
0.3918268288811912
 40
0.5492075381338435
 40
0.7249905054734759
 40
0.855865553415172
 40
0.9874199933190967
 40
1.0
 40
1.0
 40
1.0
 40
1.0
 10
145.7360407278183
 20
138.8954180060295
 30
0.0
 10
145.7284946325619
 20
138.9155145464998
 30
0.0
 10
145.6941002912189
 20
139.0071125517278
 30
0.0
 10
145.6021859668919
 20
139.1432878362995
 30
0.0
 10
145.4204598700741
 20
139.2626328228727
 30
0.0
 10
145.1627975408444
 20
139.3268457726782
 30
0.0
 10
144.8229720659964
 20
139.3376124698544
 30
0.0
 10
144.4612708239677
 20
139.284494918706
 30
0.0
 10
144.147896452967
 20
139.1457561340733
 30
0.0
 10
143.9946493512252
 20
138.9960669022947
 30
0.0
 10
143.9363227147633
 20
138.9034974381517
 30
0.0
 10
143.9312319852829
 20
138.8954180060315
 30
0.0
  0
SPLINE
  5
178
330
1F
100
AcDbEntity
  8
0
  6
Continuous
 62
     7
370
    15
100
AcDbSpline
210
0.0
220
0.0
230
1.0
 70
     8
 71
     3
 72
    10
 73
     6
 74
     0
 42
0.000000001
 43
0.00000001
 40
0.0
 40
0.0
 40
0.0
 40
0.0
 40
0.0126588477772946
 40
0.3931591520965023
 40
1.0
 40
1.0
 40
1.0
 40
1.0
 10
143.6851668082898
 20
138.4639731908536
 30
0.0
 10
143.6860794159873
 20
138.4658132975111
 30
0.0
 10
143.7144232332806
 20
138.522963425706
 30
0.0
 10
143.7927924820351
 20
138.6688584815197
 30
0.0
 10
143.8785336449883
 20
138.8091759245474
 30
0.0
 10
143.9312319852829
 20
138.8954180060315
 30
0.0
  0
LINE
  5
179
330
1F
100
AcDbEntity
  8
0
  6
Continuous
 62
     7
370
    15
100
AcDbLine
 10
143.6851668083
 20
138.4639731909
 30
0.0
 11
142.4061571604
 21
138.4639731909
 31
0.0
  0
SPLINE
  5
17A
330
1F
100
AcDbEntity
  8
0
  6
Continuous
 62
     7
370
    15
100
AcDbSpline
210
0.0
220
0.0
230
1.0
 70
     8
 71
     3
 72
    10
 73
     6
 74
     0
 42
0.000000001
 43
0.00000001
 40
0.0
 40
0.0
 40
0.0
 40
0.0
 40
0.6068408479055266
 40
0.9873411522226692
 40
1.0
 40
1.0
 40
1.0
 40
1.0
 10
142.2968456302187
 20
138.8954180060295
 30
0.0
 10
142.3071748391224
 20
138.8091759245456
 30
0.0
 10
142.3239806508204
 20
138.6688584815186
 30
0.0
 10
142.3807635108513
 20
138.5229634257058
 30
0.0
 10
142.4053650458622
 20
138.4658132975111
 30
0.0
 10
142.4061571604172
 20
138.4639731908536
 30
0.0
  0
SPLINE
  5
17B
330
1F
100
AcDbEntity
  8
0
  6
Continuous
 62
     7
370
    15
100
AcDbSpline
210
0.0
220
0.0
230
1.0
 70
     8
 71
     3
 72
    16
 73
    12
 74
     0
 42
0.000000001
 43
0.00000001
 40
0.0
 40
0.0
 40
0.0
 40
0.0
 40
0.0316438967043508
 40
0.1442296906797947
 40
0.2602597186198058
 40
0.3918268288811915
 40
0.5492075381338437
 40
0.724990505473476
 40
0.8558655534151721
 40
0.9874199933190991
 40
1.0
 40
1.0
 40
1.0
 40
1.0
 10
142.2968456302187
 20
138.8954180060295
 30
0.0
 10
142.2962290162591
 20
138.9155145464998
 30
0.0
 10
142.2934185520016
 20
139.0071125517278
 30
0.0
 10
142.2761060035697
 20
139.1432878362995
 30
0.0
 10
142.2089991075881
 20
139.2626328228727
 30
0.0
 10
142.0732146453952
 20
139.3268457726782
 30
0.0
 10
141.8450775601219
 20
139.3376124698544
 30
0.0
 10
141.5514235628442
 20
139.284494918706
 30
0.0
 10
141.2602295600128
 20
139.1457561340733
 30
0.0
 10
141.1034581545234
 20
138.9960669022946
 30
0.0
 10
141.0419542349117
 20
138.9034974381517
 30
0.0
 10
141.0365861932121
 20
138.8954180060315
 30
0.0
  0
SPLINE
  5
17C
330
1F
100
AcDbEntity
  8
0
  6
Continuous
 62
     7
370
    15
100
AcDbSpline
210
0.0
220
0.0
230
1.0
 70
     8
 71
     3
 72
    10
 73
     6
 74
     0
 42
0.000000001
 43
0.00000001
 40
0.0
 40
0.0
 40
0.0
 40
0.0
 40
0.01265884777729
 40
0.3931591520965013
 40
1.0
 40
1.0
 40
1.0
 40
1.0
 10
140.830832864159
 20
138.4639731908536
 30
0.0
 10
140.8313860592359
 20
138.4658132975111
 30
0.0
 10
140.8485672206828
 20
138.5229634257063
 30
0.0
 10
140.9021729966022
 20
138.6688584815195
 30
0.0
 10
140.9854205056095
 20
138.8091759245473
 30
0.0
 10
141.0365861932121
 20
138.8954180060315
 30
0.0
  0
LINE
  5
17D
330
1F
100
AcDbEntity
  8
0
  6
Continuous
 62
     7
370
    15
100
AcDbLine
 10
140.8308328642
 20
138.4639731909
 30
0.0
 11
140.1472000675
 21
138.4639731909
 31
0.0
  0
SPLINE
  5
17E
330
1F
100
AcDbEntity
  8
0
  6
Continuous
 62
     7
370
    15
100
AcDbSpline
210
0.0
220
0.0
230
1.0
 70
     8
 71
     3
 72
    10
 73
     6
 74
     0
 42
0.000000001
 43
0.00000001
 40
0.0
 40
0.0
 40
0.0
 40
0.0
 40
0.6068408479055171
 40
0.9873411522226739
 40
1.0
 40
1.0
 40
1.0
 40
1.0
 10
140.1630039519624
 20
138.8954180060295
 30
0.0
 10
140.1455265948566
 20
138.8091759245455
 30
0.0
 10
140.1170906153699
 20
138.6688584815183
 30
0.0
 10
140.1357238677182
 20
138.5229634257062
 30
0.0
 10
140.1468420856596
 20
138.4658132975111
 30
0.0
 10
140.1472000674788
 20
138.4639731908535
 30
0.0
  0
SPLINE
  5
17F
330
1F
100
AcDbEntity
  8
0
  6
Continuous
 62
     7
370
    15
100
AcDbSpline
210
0.0
220
0.0
230
1.0
 70
     8
 71
     3
 72
    16
 73
    12
 74
     0
 42
0.000000001
 43
0.00000001
 40
0.0
 40
0.0
 40
0.0
 40
0.0
 40
0.0316438967043506
 40
0.1442296906797939
 40
0.2602597186198046
 40
0.3918268288811907
 40
0.5492075381338437
 40
0.7249905054734761
 40
0.8558655534151725
 40
0.9874199933190971
 40
1.0
 40
1.0
 40
1.0
 40
1.0
 10
140.1630039519618
 20
138.8954180060295
 30
0.0
 10
140.1694820405116
 20
138.9155145464998
 30
0.0
 10
140.1990085149677
 20
139.0071125517278
 30
0.0
 10
140.2609366258022
 20
139.1432878362995
 30
0.0
 10
140.3264301692417
 20
139.2626328228727
 30
0.0
 10
140.3489069110749
 20
139.3268457726782
 30
0.0
 10
140.2935873631389
 20
139.3376124698544
 30
0.0
 10
140.1466649620367
 20
139.284494918706
 30
0.0
 10
139.9556765252742
 20
139.1457561340733
 30
0.0
 10
139.8373875875342
 20
138.9960669022946
 30
0.0
 10
139.7891863103641
 20
138.9034974381517
 30
0.0
 10
139.7849793188836
 20
138.8954180060315
 30
0.0
  0
SPLINE
  5
180
330
1F
100
AcDbEntity
  8
0
  6
Continuous
 62
     7
370
    15
100
AcDbSpline
210
0.0
220
0.0
230
1.0
 70
     8
 71
     3
 72
    10
 73
     6
 74
     0
 42
0.000000001
 43
0.00000001
 40
0.0
 40
0.0
 40
0.0
 40
0.0
 40
0.0126588477772814
 40
0.3931591520965013
 40
1.0
 40
1.0
 40
1.0
 40
1.0
 10
139.6746692761303
 20
138.4639731908535
 30
0.0
 10
139.6747148304125
 20
138.4658132975112
 30
0.0
 10
139.6761296576786
 20
138.522963425707
 30
0.0
 10
139.6906083363951
 20
138.668858481519
 30
0.0
 10
139.7490560886462
 20
138.8091759245471
 30
0.0
 10
139.7849793188836
 20
138.8954180060315
 30
0.0
  0
LINE
  5
181
330
1F
100
AcDbEntity
  8
0
  6
Continuous
 62
     7
370
    15
100
AcDbLine
 10
153.6560445537
 20
139.4639731909
 30
0.0
 11
153.668490913
 21
139.4639731909
 31
0.0
  0
LINE
  5
182
330
1F
100
AcDbEntity
  8
0
  6
Continuous
 62
     7
370
    15
100
AcDbLine
 10
140.668490913
 20
139.4639731909
 30
0.0
 11
153.6560445537
 21
139.4639731909
 31
0.0
  0
SPLINE
  5
183
330
1F
100
AcDbEntity
  8
0
  6
Continuous
 62
     7
370
    15
100
AcDbSpline
210
0.0
220
0.0
230
1.0
 70
     8
 71
     3
 72
    10
 73
     6
 74
     0
 42
0.000000001
 43
0.00000001
 40
0.0
 40
0.0
 40
0.0
 40
0.0
 40
0.606840847905519
 40
0.9873411522226657
 40
1.0
 40
1.0
 40
1.0
 40
1.0
 10
139.7849793188836
 20
132.0325283756775
 30
0.0
 10
139.749056088646
 20
132.1187704571616
 30
0.0
 10
139.6906083363947
 20
132.2590879001887
 30
0.0
 10
139.6761296576786
 20
132.4049829560009
 30
0.0
 10
139.6747148304125
 20
132.4621330841959
 30
0.0
 10
139.6746692761303
 20
132.4639731908536
 30
0.0
  0
SPLINE
  5
184
330
1F
100
AcDbEntity
  8
0
  6
Continuous
 62
     7
370
    15
100
AcDbSpline
210
0.0
220
0.0
230
1.0
 70
     8
 71
     3
 72
    16
 73
    12
 74
     0
 42
0.000000001
 43
0.00000001
 40
0.0
 40
0.0
 40
0.0
 40
0.0
 40
0.0316438967043529
 40
0.1442296906797942
 40
0.2602597186198051
 40
0.3918268288811915
 40
0.5492075381338433
 40
0.7249905054734748
 40
0.8558655534151723
 40
0.9874199933190967
 40
1.0
 40
1.0
 40
1.0
 40
1.0
 10
139.7849793188826
 20
132.0325283756775
 30
0.0
 10
139.7957940023205
 20
132.0124318352073
 30
0.0
 10
139.8450862390393
 20
131.9208338299793
 30
0.0
 10
139.9573593156228
 20
131.7846585454076
 30
0.0
 10
140.1140847161329
 20
131.6653135588344
 30
0.0
 10
140.2556489941266
 20
131.6011006090289
 30
0.0
 10
140.3449983078566
 20
131.5903339118527
 30
0.0
 10
140.3392154230278
 20
131.643451463001
 30
0.0
 10
140.2612178119033
 20
131.7821902476338
 30
0.0
 10
140.1945531587197
 20
131.9318794794124
 30
0.0
 10
140.1655365149999
 20
132.0244489435553
 30
0.0
 10
140.1630039519624
 20
132.0325283756756
 30
0.0
  0
SPLINE
  5
185
330
1F
100
AcDbEntity
  8
0
  6
Continuous
 62
     7
370
    15
100
AcDbSpline
210
0.0
220
0.0
230
1.0
 70
     8
 71
     3
 72
    10
 73
     6
 74
     0
 42
0.000000001
 43
0.00000001
 40
0.0
 40
0.0
 40
0.0
 40
0.0
 40
0.0126588477772913
 40
0.3931591520965028
 40
1.0
 40
1.0
 40
1.0
 40
1.0
 10
140.1472000674788
 20
132.4639731908536
 30
0.0
 10
140.1468420856596
 20
132.4621330841959
 30
0.0
 10
140.1357238677178
 20
132.4049829560008
 30
0.0
 10
140.1170906153701
 20
132.2590879001875
 30
0.0
 10
140.1455265948567
 20
132.1187704571597
 30
0.0
 10
140.1630039519624
 20
132.0325283756756
 30
0.0
  0
LINE
  5
186
330
1F
100
AcDbEntity
  8
0
  6
Continuous
 62
     7
370
    15
100
AcDbLine
 10
140.1472000675
 20
132.4639731909
 30
0.0
 11
140.8308328642
 21
132.4639731909
 31
0.0
  0
SPLINE
  5
187
330
1F
100
AcDbEntity
  8
0
  6
Continuous
 62
     7
370
    15
100
AcDbSpline
210
0.0
220
0.0
230
1.0
 70
     8
 71
     3
 72
    10
 73
     6
 74
     0
 42
0.000000001
 43
0.00000001
 40
0.0
 40
0.0
 40
0.0
 40
0.0
 40
0.606840847905518
 40
0.987341152222669
 40
1.0
 40
1.0
 40
1.0
 40
1.0
 10
141.0365861932121
 20
132.0325283756775
 30
0.0
 10
140.9854205056091
 20
132.1187704571615
 30
0.0
 10
140.9021729966015
 20
132.2590879001885
 30
0.0
 10
140.8485672206826
 20
132.4049829560012
 30
0.0
 10
140.8313860592359
 20
132.4621330841959
 30
0.0
 10
140.830832864159
 20
132.4639731908536
 30
0.0
  0
SPLINE
  5
188
330
1F
100
AcDbEntity
  8
0
  6
Continuous
 62
     7
370
    15
100
AcDbSpline
210
0.0
220
0.0
230
1.0
 70
     8
 71
     3
 72
    16
 73
    12
 74
     0
 42
0.000000001
 43
0.00000001
 40
0.0
 40
0.0
 40
0.0
 40
0.0
 40
0.0316438967043512
 40
0.1442296906797936
 40
0.2602597186198055
 40
0.3918268288811916
 40
0.5492075381338442
 40
0.7249905054734763
 40
0.8558655534151725
 40
0.9874199933190969
 40
1.0
 40
1.0
 40
1.0
 40
1.0
 10
141.0365861932108
 20
132.0325283756775
 30
0.0
 10
141.0504269297888
 20
132.0124318352073
 30
0.0
 10
141.113511611618
 20
131.9208338299793
 30
0.0
 10
141.2640392318922
 20
131.7846585454076
 30
0.0
 10
141.5010813218972
 20
131.6653135588344
 30
0.0
 10
141.7623111760833
 20
131.6011006090289
 30
0.0
 10
142.0164714920946
 20
131.5903339118526
 30
0.0
 10
142.1933487558867
 20
131.643451463001
 30
0.0
 10
142.2788438411333
 20
131.7821902476338
 30
0.0
 10
142.2941776004875
 20
131.9318794794124
 30
0.0
 10
142.296631458321
 20
132.0244489435553
 30
0.0
 10
142.2968456302187
 20
132.0325283756756
 30
0.0
  0
SPLINE
  5
189
330
1F
100
AcDbEntity
  8
0
  6
Continuous
 62
     7
370
    15
100
AcDbSpline
210
0.0
220
0.0
230
1.0
 70
     8
 71
     3
 72
    10
 73
     6
 74
     0
 42
0.000000001
 43
0.00000001
 40
0.0
 40
0.0
 40
0.0
 40
0.0
 40
0.0126588477772924
 40
0.3931591520965043
 40
1.0
 40
1.0
 40
1.0
 40
1.0
 10
142.4061571604172
 20
132.4639731908536
 30
0.0
 10
142.4053650458622
 20
132.4621330841959
 30
0.0
 10
142.380763510851
 20
132.4049829560008
 30
0.0
 10
142.3239806508201
 20
132.2590879001876
 30
0.0
 10
142.3071748391222
 20
132.1187704571597
 30
0.0
 10
142.2968456302187
 20
132.0325283756756
 30
0.0
  0
LINE
  5
18A
330
1F
100
AcDbEntity
  8
0
  6
Continuous
 62
     7
370
    15
100
AcDbLine
 10
142.4061571604
 20
132.4639731909
 30
0.0
 11
143.6851668083
 21
132.4639731909
 31
0.0
  0
SPLINE
  5
18B
330
1F
100
AcDbEntity
  8
0
  6
Continuous
 62
     7
370
    15
100
AcDbSpline
210
0.0
220
0.0
230
1.0
 70
     8
 71
     3
 72
    10
 73
     6
 74
     0
 42
0.000000001
 43
0.00000001
 40
0.0
 40
0.0
 40
0.0
 40
0.0
 40
0.6068408479055166
 40
0.9873411522226719
 40
1.0
 40
1.0
 40
1.0
 40
1.0
 10
143.9312319852829
 20
132.0325283756775
 30
0.0
 10
143.878533644988
 20
132.1187704571615
 30
0.0
 10
143.7927924820347
 20
132.2590879001886
 30
0.0
 10
143.7144232332798
 20
132.404982956001
 30
0.0
 10
143.6860794159873
 20
132.4621330841959
 30
0.0
 10
143.6851668082898
 20
132.4639731908536
 30
0.0
  0
SPLINE
  5
18C
330
1F
100
AcDbEntity
  8
0
  6
Continuous
 62
     7
370
    15
100
AcDbSpline
210
0.0
220
0.0
230
1.0
 70
     8
 71
     3
 72
    16
 73
    12
 74
     0
 42
0.000000001
 43
0.00000001
 40
0.0
 40
0.0
 40
0.0
 40
0.0
 40
0.0316438967043527
 40
0.144229690679794
 40
0.2602597186198055
 40
0.3918268288811915
 40
0.5492075381338437
 40
0.7249905054734767
 40
0.8558655534151731
 40
0.9874199933190975
 40
1.0
 40
1.0
 40
1.0
 40
1.0
 10
143.9312319852817
 20
132.0325283756775
 30
0.0
 10
143.9443901608111
 20
132.0124318352073
 30
0.0
 10
144.0043637981999
 20
131.9208338299793
 30
0.0
 10
144.1528122078737
 20
131.7846585454076
 30
0.0
 10
144.4066557507845
 20
131.6653135588344
 30
0.0
 10
144.7175548526949
 20
131.6011006090289
 30
0.0
 10
145.0684241195643
 20
131.5903339118526
 30
0.0
 10
145.3805674119849
 20
131.643451463001
 30
0.0
 10
145.6066468545539
 20
131.7821902476338
 30
0.0
 10
145.6998703580099
 20
131.9318794794123
 30
0.0
 10
145.7331372081719
 20
132.0244489435554
 30
0.0
 10
145.7360407278177
 20
132.0325283756756
 30
0.0
  0
SPLINE
  5
18D
330
1F
100
AcDbEntity
  8
0
  6
Continuous
 62
     7
370
    15
100
AcDbSpline
210
0.0
220
0.0
230
1.0
 70
     8
 71
     3
 72
    10
 73
     6
 74
     0
 42
0.000000001
 43
0.00000001
 40
0.0
 40
0.0
 40
0.0
 40
0.0
 40
0.0126588477772934
 40
0.3931591520965032
 40
1.0
 40
1.0
 40
1.0
 40
1.0
 10
145.9411777364583
 20
132.4639731908536
 30
0.0
 10
145.9401637356228
 20
132.4621330841959
 30
0.0
 10
145.9086708449818
 20
132.4049829560003
 30
0.0
 10
145.8289532987556
 20
132.2590879001879
 30
0.0
 10
145.7714087995462
 20
132.1187704571599
 30
0.0
 10
145.7360407278177
 20
132.0325283756756
 30
0.0
  0
LINE
  5
18E
330
1F
100
AcDbEntity
  8
0
  6
Continuous
 62
     7
370
    15
100
AcDbLine
 10
145.9411777365
 20
132.4639731909
 30
0.0
 11
147.4728546333
 21
132.4639731909
 31
0.0
  0
SPLINE
  5
18F
330
1F
100
AcDbEntity
  8
0
  6
Continuous
 62
     7
370
    15
100
AcDbSpline
210
0.0
220
0.0
230
1.0
 70
     8
 71
     3
 72
    10
 73
     6
 74
     0
 42
0.000000001
 43
0.00000001
 40
0.0
 40
0.0
 40
0.0
 40
0.0
 40
0.6068408479055152
 40
0.9873411522226655
 40
1.0
 40
1.0
 40
1.0
 40
1.0
 10
147.6932986927366
 20
132.0325283756775
 30
0.0
 10
147.6531881774742
 20
132.1187704571615
 30
0.0
 10
147.5879276359466
 20
132.2590879001886
 30
0.0
 10
147.5057938912714
 20
132.4049829560011
 30
0.0
 10
147.4738821210867
 20
132.4621330841959
 30
0.0
 10
147.4728546332643
 20
132.4639731908536
 30
0.0
  0
SPLINE
  5
190
330
1F
100
AcDbEntity
  8
0
  6
Continuous
 62
     7
370
    15
100
AcDbSpline
210
0.0
220
0.0
230
1.0
 70
     8
 71
     3
 72
    16
 73
    12
 74
     0
 42
0.000000001
 43
0.00000001
 40
0.0
 40
0.0
 40
0.0
 40
0.0
 40
0.0316438967043507
 40
0.1442296906797938
 40
0.2602597186198047
 40
0.3918268288811911
 40
0.5492075381338433
 40
0.7249905054734757
 40
0.855865553415172
 40
0.9874199933190985
 40
1.0
 40
1.0
 40
1.0
 40
1.0
 10
147.6932986927358
 20
132.0325283756775
 30
0.0
 10
147.7022485847096
 20
132.0124318352073
 30
0.0
 10
147.7430412899524
 20
131.9208338299793
 30
0.0
 10
147.8496338575361
 20
131.7846585454076
 30
0.0
 10
148.0522616810259
 20
131.6653135588344
 30
0.0
 10
148.3295248673762
 20
131.6011006090289
 30
0.0
 10
148.6830879483971
 20
131.5903339118526
 30
0.0
 10
149.0468587263192
 20
131.643451463001
 30
0.0
 10
149.3529447221491
 20
131.7821902476338
 30
0.0
 10
149.4990788072403
 20
131.9318794794124
 30
0.0
 10
149.5542448240951
 20
132.0244489435553
 30
0.0
 10
149.5590596957447
 20
132.0325283756756
 30
0.0
  0
SPLINE
  5
191
330
1F
100
AcDbEntity
  8
0
  6
Continuous
 62
     7
370
    15
100
AcDbSpline
210
0.0
220
0.0
230
1.0
 70
     8
 71
     3
 72
    10
 73
     6
 74
     0
 42
0.000000001
 43
0.00000001
 40
0.0
 40
0.0
 40
0.0
 40
0.0
 40
0.0126588477772899
 40
0.3931591520965029
 40
1.0
 40
1.0
 40
1.0
 40
1.0
 10
149.8050558870244
 20
132.4639731908536
 30
0.0
 10
149.8040917006134
 20
132.4621330841959
 30
0.0
 10
149.7741459489556
 20
132.4049829560009
 30
0.0
 10
149.6928539686707
 20
132.2590879001874
 30
0.0
 10
149.6099897840412
 20
132.1187704571597
 30
0.0
 10
149.5590596957447
 20
132.0325283756756
 30
0.0
  0
LINE
  5
192
330
1F
100
AcDbEntity
  8
0
  6
Continuous
 62
     7
370
    15
100
AcDbLine
 10
149.805055887
 20
132.4639731909
 30
0.0
 11
151.1789884452
 21
132.4639731909
 31
0.0
  0
SPLINE
  5
193
330
1F
100
AcDbEntity
  8
0
  6
Continuous
 62
     7
370
    15
100
AcDbSpline
210
0.0
220
0.0
230
1.0
 70
     8
 71
     3
 72
    10
 73
     6
 74
     0
 42
0.000000001
 43
0.00000001
 40
0.0
 40
0.0
 40
0.0
 40
0.0
 40
0.6068408479055252
 40
0.9873411522226653
 40
1.0
 40
1.0
 40
1.0
 40
1.0
 10
151.314743579439
 20
132.0325283756775
 30
0.0
 10
151.2979684693817
 20
132.1187704571615
 30
0.0
 10
151.2706750586797
 20
132.2590879001886
 30
0.0
 10
151.2067844886409
 20
132.404982956001
 30
0.0
 10
151.1798554986144
 20
132.4621330841959
 30
0.0
 10
151.1789884451992
 20
132.4639731908536
 30
0.0
  0
SPLINE
  5
194
330
1F
100
AcDbEntity
  8
0
  6
Continuous
 62
     7
370
    15
100
AcDbSpline
210
0.0
220
0.0
230
1.0
 70
     8
 71
     3
 72
    16
 73
    12
 74
     0
 42
0.000000001
 43
0.00000001
 40
0.0
 40
0.0
 40
0.0
 40
0.0
 40
0.0316438967043536
 40
0.1442296906797965
 40
0.2602597186198077
 40
0.3918268288811941
 40
0.5492075381338459
 40
0.724990505473478
 40
0.8558655534151753
 40
0.9874199933190997
 40
1.0
 40
1.0
 40
1.0
 40
1.0
 10
151.3147435794387
 20
132.0325283756775
 30
0.0
 10
151.3170870715302
 20
132.0124318352073
 30
0.0
 10
151.3277684722002
 20
131.9208338299793
 30
0.0
 10
151.3639438052905
 20
131.7846585454076
 30
0.0
 10
151.4610619476912
 20
131.6653135588344
 30
0.0
 10
151.6303967716079
 20
131.6011006090289
 30
0.0
 10
151.8919167247474
 20
131.5903339118527
 30
0.0
 10
152.2098429019967
 20
131.643451463001
 30
0.0
 10
152.5139199556903
 20
131.7821902476338
 30
0.0
 10
152.6738081123298
 20
131.9318794794124
 30
0.0
 10
152.7360916062116
 20
132.0244489435553
 30
0.0
 10
152.7415276888949
 20
132.0325283756756
 30
0.0
  0
SPLINE
  5
195
330
1F
100
AcDbEntity
  8
0
  6
Continuous
 62
     7
370
    15
100
AcDbSpline
210
0.0
220
0.0
230
1.0
 70
     8
 71
     3
 72
    10
 73
     6
 74
     0
 42
0.000000001
 43
0.00000001
 40
0.0
 40
0.0
 40
0.0
 40
0.0
 40
0.0126588477772896
 40
0.3931591520965023
 40
1.0
 40
1.0
 40
1.0
 40
1.0
 10
152.9624685820191
 20
132.4639731908536
 30
0.0
 10
152.9618125630028
 20
132.4621330841959
 30
0.0
 10
152.9414378903029
 20
132.4049829560007
 30
0.0
 10
152.8803535964257
 20
132.2590879001876
 30
0.0
 10
152.7943731177294
 20
132.1187704571597
 30
0.0
 10
152.7415276888949
 20
132.0325283756756
 30
0.0
  0
LINE
  5
196
330
1F
100
AcDbEntity
  8
0
  6
Continuous
 62
     7
370
    15
100
AcDbLine
 10
152.962468582
 20
132.4639731909
 30
0.0
 11
153.8105126821
 21
132.4639731909
 31
0.0
  0
SPLINE
  5
197
330
1F
100
AcDbEntity
  8
0
  6
Continuous
 62
     7
370
    15
100
AcDbSpline
210
0.0
220
0.0
230
1.0
 70
     8
 71
     3
 72
    10
 73
     6
 74
     0
 42
0.000000001
 43
0.00000001
 40
0.0
 40
0.0
 40
0.0
 40
0.0
 40
0.6068408479055191
 40
0.9873411522226635
 40
1.0
 40
1.0
 40
1.0
 40
1.0
 10
153.8252034125642
 20
132.0325283756775
 30
0.0
 10
153.8362585849048
 20
132.1187704571617
 30
0.0
 10
153.854245552385
 20
132.259087900189
 30
0.0
 10
153.825717583628
 20
132.4049829560005
 30
0.0
 10
153.8109869748905
 20
132.4621330841959
 30
0.0
 10
153.810512682145
 20
132.4639731908536
 30
0.0
  0
SPLINE
  5
198
330
1F
100
AcDbEntity
  8
0
  6
Continuous
 62
     7
370
    15
100
AcDbSpline
210
0.0
220
0.0
230
1.0
 70
     8
 71
     3
 72
    16
 73
    12
 74
     0
 42
0.000000001
 43
0.00000001
 40
0.0
 40
0.0
 40
0.0
 40
0.0
 40
0.0316438967043514
 40
0.1442296906797944
 40
0.2602597186198057
 40
0.3918268288811924
 40
0.5492075381338448
 40
0.7249905054734771
 40
0.8558655534151733
 40
0.9874199933190997
 40
1.0
 40
1.0
 40
1.0
 40
1.0
 10
153.8252034125646
 20
132.0325283756775
 30
0.0
 10
153.8203125679604
 20
132.0124318352073
 30
0.0
 10
153.798020591374
 20
131.9208338299793
 30
0.0
 10
153.7540855386835
 20
131.7846585454076
 30
0.0
 10
153.7196712721684
 20
131.6653135588344
 30
0.0
 10
153.7357046043326
 20
131.6011006090289
 30
0.0
 10
153.8351073693422
 20
131.5903339118526
 30
0.0
 10
154.0220008834721
 20
131.643451463001
 30
0.0
 10
154.2425917940554
 20
131.7821902476338
 30
0.0
 10
154.3733921197924
 20
131.9318794794124
 30
0.0
 10
154.4261042788137
 20
132.0244489435553
 30
0.0
 10
154.4307049785657
 20
132.0325283756756
 30
0.0
  0
SPLINE
  5
199
330
1F
100
AcDbEntity
  8
0
  6
Continuous
 62
     7
370
    15
100
AcDbSpline
210
0.0
220
0.0
230
1.0
 70
     8
 71
     3
 72
    10
 73
     6
 74
     0
 42
0.000000001
 43
0.00000001
 40
0.0
 40
0.0
 40
0.0
 40
0.0
 40
0.0126588477772923
 40
0.3931591520964997
 40
1.0
 40
1.0
 40
1.0
 40
1.0
 10
154.5673896396469
 20
132.4639731908536
 30
0.0
 10
154.5672175677909
 20
132.4621330841959
 30
0.0
 10
154.5618733511446
 20
132.4049829560003
 30
0.0
 10
154.53736423089
 20
132.2590879001879
 30
0.0
 10
154.4713058579585
 20
132.1187704571598
 30
0.0
 10
154.4307049785657
 20
132.0325283756756
 30
0.0
  0
LINE
  5
19A
330
1F
100
AcDbEntity
  8
0
  6
Continuous
 62
     7
370
    15
100
AcDbLine
 10
153.668490913
 20
131.4639731909
 30
0.0
 11
140.668490913
 21
131.4639731909
 31
0.0
  0
LINE
  5
19B
330
1F
100
AcDbEntity
  8
0
  6
Continuous
 62
     7
370
    15
100
AcDbLine
 10
147.6932986927
 20
138.895418006
 30
0.0
 11
147.6932986927
 21
132.0325283757
 31
0.0
  0
LINE
  5
19C
330
1F
100
AcDbEntity
  8
0
  6
Continuous
 62
     7
370
    15
100
AcDbLine
 10
149.5590596957
 20
132.0325283757
 30
0.0
 11
149.5590596957
 21
138.895418006
 31
0.0
  0
LINE
  5
19D
330
1F
100
AcDbEntity
  8
0
  6
Continuous
 62
     7
370
    15
100
AcDbLine
 10
147.4728546333
 20
132.4639731909
 30
0.0
 11
147.4728546333
 21
138.4639731909
 31
0.0
  0
LINE
  5
19E
330
1F
100
AcDbEntity
  8
0
  6
Continuous
 62
     7
370
    15
100
AcDbLine
 10
145.9411777365
 20
138.4639731909
 30
0.0
 11
145.9411777365
 21
132.4639731909
 31
0.0
  0
LINE
  5
19F
330
1F
100
AcDbEntity
  8
0
  6
Continuous
 62
     7
370
    15
100
AcDbLine
 10
145.7360407278
 20
132.0325283757
 30
0.0
 11
145.7360407278
 21
138.895418006
 31
0.0
  0
LINE
  5
1A0
330
1F
100
AcDbEntity
  8
0
  6
Continuous
 62
     7
370
    15
100
AcDbLine
 10
143.9312319853
 20
138.895418006
 30
0.0
 11
143.9312319853
 21
132.0325283757
 31
0.0
  0
LINE
  5
1A1
330
1F
100
AcDbEntity
  8
0
  6
Continuous
 62
     7
370
    15
100
AcDbLine
 10
151.1789884452
 20
132.4639731909
 30
0.0
 11
151.1789884452
 21
138.4639731909
 31
0.0
  0
LINE
  5
1A2
330
1F
100
AcDbEntity
  8
0
  6
Continuous
 62
     7
370
    15
100
AcDbLine
 10
149.805055887
 20
138.4639731909
 30
0.0
 11
149.805055887
 21
132.4639731909
 31
0.0
  0
LINE
  5
1A3
330
1F
100
AcDbEntity
  8
0
  6
Continuous
 62
     7
370
    15
100
AcDbLine
 10
143.6851668083
 20
132.4639731909
 30
0.0
 11
143.6851668083
 21
138.4639731909
 31
0.0
  0
LINE
  5
1A4
330
1F
100
AcDbEntity
  8
0
  6
Continuous
 62
     7
370
    15
100
AcDbLine
 10
142.4061571604
 20
138.4639731909
 30
0.0
 11
142.4061571604
 21
132.4639731909
 31
0.0
  0
LINE
  5
1A5
330
1F
100
AcDbEntity
  8
0
  6
Continuous
 62
     7
370
    15
100
AcDbLine
 10
151.3147435794
 20
138.895418006
 30
0.0
 11
151.3147435794
 21
132.0325283757
 31
0.0
  0
LINE
  5
1A6
330
1F
100
AcDbEntity
  8
0
  6
Continuous
 62
     7
370
    15
100
AcDbLine
 10
152.7415276889
 20
132.0325283757
 30
0.0
 11
152.7415276889
 21
138.895418006
 31
0.0
  0
LINE
  5
1A7
330
1F
100
AcDbEntity
  8
0
  6
Continuous
 62
     7
370
    15
100
AcDbLine
 10
142.2968456302
 20
132.0325283757
 30
0.0
 11
142.2968456302
 21
138.895418006
 31
0.0
  0
LINE
  5
1A8
330
1F
100
AcDbEntity
  8
0
  6
Continuous
 62
     7
370
    15
100
AcDbLine
 10
141.0365861932
 20
138.895418006
 30
0.0
 11
141.0365861932
 21
132.0325283757
 31
0.0
  0
LINE
  5
1A9
330
1F
100
AcDbEntity
  8
0
  6
Continuous
 62
     7
370
    15
100
AcDbLine
 10
152.962468582
 20
138.4639731909
 30
0.0
 11
152.962468582
 21
132.4639731909
 31
0.0
  0
LINE
  5
1AA
330
1F
100
AcDbEntity
  8
0
  6
Continuous
 62
     7
370
    15
100
AcDbLine
 10
153.8105126821
 20
132.4639731909
 30
0.0
 11
153.8105126821
 21
138.4639731909
 31
0.0
  0
LINE
  5
1AB
330
1F
100
AcDbEntity
  8
0
  6
Continuous
 62
     7
370
    15
100
AcDbLine
 10
140.8308328642
 20
132.4639731909
 30
0.0
 11
140.8308328642
 21
138.4639731909
 31
0.0
  0
LINE
  5
1AC
330
1F
100
AcDbEntity
  8
0
  6
Continuous
 62
     7
370
    15
100
AcDbLine
 10
140.1472000675
 20
138.4639731909
 30
0.0
 11
140.1472000675
 21
132.4639731909
 31
0.0
  0
LINE
  5
1AD
330
1F
100
AcDbEntity
  8
0
  6
Continuous
 62
     7
370
    15
100
AcDbLine
 10
154.4307049786
 20
132.0325283757
 30
0.0
 11
154.4307049786
 21
138.895418006
 31
0.0
  0
LINE
  5
1AE
330
1F
100
AcDbEntity
  8
0
  6
Continuous
 62
     7
370
    15
100
AcDbLine
 10
139.7849793189
 20
138.895418006
 30
0.0
 11
139.7849793189
 21
132.0325283757
 31
0.0
  0
LINE
  5
1AF
330
1F
100
AcDbEntity
  8
0
  6
Continuous
 62
     7
370
    15
100
AcDbLine
 10
154.5673896396
 20
138.4639731909
 30
0.0
 11
154.5673896396
 21
132.4639731909
 31
0.0
  0
LINE
  5
1B0
330
1F
100
AcDbEntity
  8
0
  6
Continuous
 62
     7
370
    15
100
AcDbLine
 10
139.6746692761
 20
132.4639731909
 30
0.0
 11
139.6746692761
 21
138.4639731909
 31
0.0
  0
ARC
  5
1B1
330
1F
100
AcDbEntity
  8
0
  6
Continuous
 62
     7
370
    15
100
AcDbCircle
 10
119.168490913
 20
77.8323905147
 30
0.0
 40
1.0
100
AcDbArc
 50
180.0
 51
270.0
  0
LINE
  5
1B2
330
1F
100
AcDbEntity
  8
0
  6
Continuous
 62
     7
370
    15
100
AcDbLine
 10
118.168490913
 20
107.8323905147
 30
0.0
 11
118.168490913
 21
77.8323905147
 31
0.0
  0
ARC
  5
1B3
330
1F
100
AcDbEntity
  8
0
  6
Continuous
 62
     7
370
    15
100
AcDbCircle
 10
119.168490913
 20
107.8323905147
 30
0.0
 40
1.0
100
AcDbArc
 50
90.0
 51
180.0
  0
ARC
  5
1B4
330
1F
100
AcDbEntity
  8
0
  6
Continuous
 62
     7
370
    15
100
AcDbCircle
 10
149.168490913
 20
107.8323905147
 30
0.0
 40
1.0
100
AcDbArc
 50
0.0
 51
90.0
  0
LINE
  5
1B5
330
1F
100
AcDbEntity
  8
0
  6
Continuous
 62
     7
370
    15
100
AcDbLine
 10
150.168490913
 20
77.8323905147
 30
0.0
 11
150.168490913
 21
107.8323905147
 31
0.0
  0
ARC
  5
1B6
330
1F
100
AcDbEntity
  8
0
  6
Continuous
 62
     7
370
    15
100
AcDbCircle
 10
149.168490913
 20
77.8323905147
 30
0.0
 40
1.0
100
AcDbArc
 50
270.0
 51
0.0
  0
ARC
  5
1B7
330
1F
100
AcDbEntity
  8
0
  6
Continuous
 62
     7
370
    15
100
AcDbCircle
 10
134.168490913
 20
92.8323905147
 30
0.0
 40
6.999999999999995
100
AcDbArc
 50
304.04773237
 51
235.95226763
  0
LINE
  5
1B8
330
1F
100
AcDbEntity
  8
0
  6
Continuous
 62
     7
370
    15
100
AcDbLine
 10
119.168490913
 20
76.8323905147
 30
0.0
 11
149.168490913
 21
76.8323905147
 31
0.0
  0
ARC
  5
1B9
330
1F
100
AcDbEntity
  8
0
  6
Continuous
 62
     7
370
    15
100
AcDbCircle
 10
134.168490913
 20
87.8323905147
 30
0.0
 40
3.999999999999992
100
AcDbArc
 50
191.5369590328
 51
348.4630409672
  0
LINE
  5
1BA
330
1F
100
AcDbEntity
  8
0
  6
Continuous
 62
     7
370
    15
100
AcDbLine
 10
149.168490913
 20
108.8323905147
 30
0.0
 11
119.168490913
 21
108.8323905147
 31
0.0
  0
CIRCLE
  5
1BB
330
1F
100
AcDbEntity
  8
0
  6
Continuous
 62
     7
370
    15
100
AcDbCircle
 10
134.168490913
 20
92.8323905147
 30
0.0
 40
5.499999999999972
  0
LINE
  5
1BC
330
1F
100
AcDbEntity
  8
0
  6
Continuous
 62
     7
370
    15
100
AcDbLine
 10
154.168490913
 20
130.8323905147
 30
0.0
 11
149.2681597836
 21
130.8323905147
 31
0.0
  0
LINE
  5
1BD
330
1F
100
AcDbEntity
  8
0
  6
Continuous
 62
     7
370
    15
100
AcDbLine
 10
154.168490913
 20
73.8323905147
 30
0.0
 11
154.168490913
 21
130.8323905147
 31
0.0
  0
LINE
  5
1BE
330
1F
100
AcDbEntity
  8
0
  6
Continuous
 62
     7
370
    15
100
AcDbLine
 10
114.168490913
 20
130.8323905147
 30
0.0
 11
114.168490913
 21
73.8323905147
 31
0.0
  0
LINE
  5
1BF
330
1F
100
AcDbEntity
  8
0
  6
Continuous
 62
     7
370
    15
100
AcDbLine
 10
119.0688220425
 20
130.8323905147
 30
0.0
 11
114.168490913
 21
130.8323905147
 31
0.0
  0
LINE
  5
1C0
330
1F
100
AcDbEntity
  8
0
  6
Continuous
 62
     7
370
    15
100
AcDbLine
 10
119.0688220425
 20
130.8323905147
 30
0.0
 11
119.0688220425
 21
110.8323905147
 31
0.0
  0
LINE
  5
1C1
330
1F
100
AcDbEntity
  8
0
  6
Continuous
 62
     7
370
    15
100
AcDbLine
 10
119.168490913
 20
110.8323905147
 30
0.0
 11
119.0688220425
 21
110.8323905147
 31
0.0
  0
ARC
  5
1C2
330
1F
100
AcDbEntity
  8
0
  6
Continuous
 62
     7
370
    15
100
AcDbCircle
 10
119.168490913
 20
107.8323905147
 30
0.0
 40
2.999999999999986
100
AcDbArc
 50
90.0
 51
180.0
  0
LINE
  5
1C3
330
1F
100
AcDbEntity
  8
0
  6
Continuous
 62
     7
370
    15
100
AcDbLine
 10
116.168490913
 20
107.8323905147
 30
0.0
 11
116.168490913
 21
77.8323905147
 31
0.0
  0
ARC
  5
1C4
330
1F
100
AcDbEntity
  8
0
  6
Continuous
 62
     7
370
    15
100
AcDbCircle
 10
119.168490913
 20
77.8323905147
 30
0.0
 40
3.0
100
AcDbArc
 50
180.0
 51
270.0
  0
ARC
  5
1C5
330
1F
100
AcDbEntity
  8
0
  6
Continuous
 62
     7
370
    15
100
AcDbCircle
 10
149.168490913
 20
77.8323905147
 30
0.0
 40
3.0
100
AcDbArc
 50
270.0
 51
0.0
  0
ARC
  5
1C6
330
1F
100
AcDbEntity
  8
0
  6
Continuous
 62
     7
370
    15
100
AcDbCircle
 10
149.168490913
 20
107.8323905147
 30
0.0
 40
3.0
100
AcDbArc
 50
0.0
 51
90.0
  0
LINE
  5
1C7
330
1F
100
AcDbEntity
  8
0
  6
Continuous
 62
     7
370
    15
100
AcDbLine
 10
149.2681597836
 20
110.8323905147
 30
0.0
 11
149.168490913
 21
110.8323905147
 31
0.0
  0
LINE
  5
1C8
330
1F
100
AcDbEntity
  8
0
  6
Continuous
 62
     7
370
    15
100
AcDbLine
 10
149.2681597836
 20
110.8323905147
 30
0.0
 11
149.2681597836
 21
130.8323905147
 31
0.0
  0
LINE
  5
1C9
330
1F
100
AcDbEntity
  8
0
  6
Continuous
 62
     7
370
    15
100
AcDbLine
 10
119.168490913
 20
74.8323905147
 30
0.0
 11
149.168490913
 21
74.8323905147
 31
0.0
  0
LINE
  5
1CA
330
1F
100
AcDbEntity
  8
0
  6
Continuous
 62
     7
370
    15
100
AcDbLine
 10
152.168490913
 20
77.8323905147
 30
0.0
 11
152.168490913
 21
107.8323905147
 31
0.0
  0
LINE
  5
1CB
330
1F
100
AcDbEntity
  8
0
  6
Continuous
 62
     7
370
    15
100
AcDbLine
 10
149.168490913
 20
110.8323905147
 30
0.0
 11
119.168490913
 21
110.8323905147
 31
0.0
  0
LINE
  5
1CC
330
1F
100
AcDbEntity
  8
0
  6
Continuous
 62
     7
370
    15
100
AcDbLine
 10
149.2681597836
 20
130.8323905147
 30
0.0
 11
119.0688220425
 21
130.8323905147
 31
0.0
  0
LINE
  5
1CD
330
1F
100
AcDbEntity
  8
0
  6
Continuous
 62
     7
370
    15
100
AcDbLine
 10
119.168490913
 20
73.8323905147
 30
0.0
 11
119.168490913
 21
67.8323905147
 31
0.0
  0
LINE
  5
1CE
330
1F
100
AcDbEntity
  8
0
  6
Continuous
 62
     7
370
    15
100
AcDbLine
 10
119.168490913
 20
67.8323905147
 30
0.0
 11
114.168490913
 21
67.8323905147
 31
0.0
  0
LINE
  5
1CF
330
1F
100
AcDbEntity
  8
0
  6
Continuous
 62
     7
370
    15
100
AcDbLine
 10
114.168490913
 20
67.8323905147
 30
0.0
 11
114.168490913
 21
73.8323905147
 31
0.0
  0
LINE
  5
1D0
330
1F
100
AcDbEntity
  8
0
  6
Continuous
 62
     7
370
    15
100
AcDbLine
 10
114.168490913
 20
73.8323905147
 30
0.0
 11
119.168490913
 21
73.8323905147
 31
0.0
  0
LINE
  5
1D1
330
1F
100
AcDbEntity
  8
0
  6
Continuous
 62
     7
370
    15
100
AcDbLine
 10
154.168490913
 20
73.8323905147
 30
0.0
 11
154.168490913
 21
67.8323905147
 31
0.0
  0
LINE
  5
1D2
330
1F
100
AcDbEntity
  8
0
  6
Continuous
 62
     7
370
    15
100
AcDbLine
 10
154.168490913
 20
67.8323905147
 30
0.0
 11
149.168490913
 21
67.8323905147
 31
0.0
  0
LINE
  5
1D3
330
1F
100
AcDbEntity
  8
0
  6
Continuous
 62
     7
370
    15
100
AcDbLine
 10
149.168490913
 20
67.8323905147
 30
0.0
 11
149.168490913
 21
73.8323905147
 31
0.0
  0
LINE
  5
1D4
330
1F
100
AcDbEntity
  8
0
  6
Continuous
 62
     7
370
    15
100
AcDbLine
 10
149.168490913
 20
73.8323905147
 30
0.0
 11
154.168490913
 21
73.8323905147
 31
0.0
  0
LINE
  5
1D5
330
1F
100
AcDbEntity
  8
0
  6
Continuous
 62
     7
370
    15
100
AcDbLine
 10
139.668490913
 20
69.8323905147
 30
0.0
 11
139.668490913
 21
73.8323905147
 31
0.0
  0
LINE
  5
1D6
330
1F
100
AcDbEntity
  8
0
  6
Continuous
 62
     7
370
    15
100
AcDbLine
 10
137.668490913
 20
67.8323905147
 30
0.0
 11
149.168490913
 21
67.8323905147
 31
0.0
  0
LINE
  5
1D7
330
1F
100
AcDbEntity
  8
0
  6
Continuous
 62
     7
370
    15
100
AcDbLine
 10
137.668490913
 20
67.8323905147
 30
0.0
 11
137.668490913
 21
69.8323905147
 31
0.0
  0
LINE
  5
1D8
330
1F
100
AcDbEntity
  8
0
  6
Continuous
 62
     7
370
    15
100
AcDbLine
 10
137.668490913
 20
69.8323905147
 30
0.0
 11
139.668490913
 21
69.8323905147
 31
0.0
  0
LINE
  5
1D9
330
1F
100
AcDbEntity
  8
0
  6
Continuous
 62
     7
370
    15
100
AcDbLine
 10
139.668490913
 20
73.8323905147
 30
0.0
 11
149.168490913
 21
73.8323905147
 31
0.0
  0
LINE
  5
1DA
330
1F
100
AcDbEntity
  8
0
  6
Continuous
 62
     7
370
    15
100
AcDbLine
 10
130.668490913
 20
67.8323905147
 30
0.0
 11
130.668490913
 21
69.8323905147
 31
0.0
  0
LINE
  5
1DB
330
1F
100
AcDbEntity
  8
0
  6
Continuous
 62
     7
370
    15
100
AcDbLine
 10
119.168490913
 20
67.8323905147
 30
0.0
 11
130.668490913
 21
67.8323905147
 31
0.0
  0
LINE
  5
1DC
330
1F
100
AcDbEntity
  8
0
  6
Continuous
 62
     7
370
    15
100
AcDbLine
 10
128.668490913
 20
69.8323905147
 30
0.0
 11
130.668490913
 21
69.8323905147
 31
0.0
  0
LINE
  5
1DD
330
1F
100
AcDbEntity
  8
0
  6
Continuous
 62
     7
370
    15
100
AcDbLine
 10
119.168490913
 20
73.8323905147
 30
0.0
 11
128.668490913
 21
73.8323905147
 31
0.0
  0
LINE
  5
1DE
330
1F
100
AcDbEntity
  8
0
  6
Continuous
 62
     7
370
    15
100
AcDbLine
 10
128.668490913
 20
69.8323905147
 30
0.0
 11
128.668490913
 21
73.8323905147
 31
0.0
  0
LINE
  5
1DF
330
1F
100
AcDbEntity
  8
0
  6
Continuous
 62
     7
370
    15
100
AcDbLine
 10
130.668490913
 20
69.8323905147
 30
0.0
 11
137.668490913
 21
69.8323905147
 31
0.0
  0
LINE
  5
1E0
330
1F
100
AcDbEntity
  8
0
  6
Continuous
 62
     7
370
    15
100
AcDbLine
 10
137.668490913
 20
67.8323905147
 30
0.0
 11
130.668490913
 21
67.8323905147
 31
0.0
  0
LINE
  5
1E1
330
1F
100
AcDbEntity
  8
0
  6
Continuous
 62
     7
370
    15
100
AcDbLine
 10
139.668490913
 20
73.8323905147
 30
0.0
 11
128.668490913
 21
73.8323905147
 31
0.0
  0
LINE
  5
1E2
330
1F
100
AcDbEntity
  8
0
  6
Continuous
 62
     8
370
    15
100
AcDbLine
 10
128.668490913
 20
138.4639731909
 30
0.0
 11
128.6354294561
 21
138.4639731909
 31
0.0
  0
LINE
  5
1E3
330
1F
100
AcDbEntity
  8
0
  6
Continuous
 62
     8
370
    15
100
AcDbLine
 10
113.714683701
 20
138.4639731909
 30
0.0
 11
113.668490913
 21
138.4639731909
 31
0.0
  0
LINE
  5
1E4
330
1F
100
AcDbEntity
  8
0
  6
Continuous
 62
     8
370
    15
100
AcDbLine
 10
113.668490913
 20
132.4639731909
 30
0.0
 11
113.714683701
 21
132.4639731909
 31
0.0
  0
LINE
  5
1E5
330
1F
100
AcDbEntity
  8
0
  6
Continuous
 62
     8
370
    15
100
AcDbLine
 10
128.6354294561
 20
132.4639731909
 30
0.0
 11
128.668490913
 21
132.4639731909
 31
0.0
  0
LINE
  5
1E6
330
1F
100
AcDbEntity
  8
0
  6
Continuous
 62
     8
370
    15
100
AcDbLine
 10
154.668490913
 20
138.4639731909
 30
0.0
 11
154.5673896396
 21
138.4639731909
 31
0.0
  0
LINE
  5
1E7
330
1F
100
AcDbEntity
  8
0
  6
Continuous
 62
     8
370
    15
100
AcDbLine
 10
139.6746692761
 20
138.4639731909
 30
0.0
 11
139.668490913
 21
138.4639731909
 31
0.0
  0
LINE
  5
1E8
330
1F
100
AcDbEntity
  8
0
  6
Continuous
 62
     8
370
    15
100
AcDbLine
 10
139.668490913
 20
132.4639731909
 30
0.0
 11
139.6746692761
 21
132.4639731909
 31
0.0
  0
LINE
  5
1E9
330
1F
100
AcDbEntity
  8
0
  6
Continuous
 62
     8
370
    15
100
AcDbLine
 10
154.5673896396
 20
132.4639731909
 30
0.0
 11
154.668490913
 21
132.4639731909
 31
0.0
  0
LINE
  5
1EA
330
1F
100
AcDbEntity
  8
DIM
  6
CENTERX2
 62
     7
100
AcDbLine
 10
117.468490913
 20
73.8323905147
 30
0.0
 11
117.468490913
 21
69.8323905147
 31
0.0
  0
LINE
  5
1EB
330
1F
100
AcDbEntity
  8
DIM
  6
CENTERX2
 62
     7
100
AcDbLine
 10
125.468490913
 20
69.8323905147
 30
0.0
 11
117.468490913
 21
69.8323905147
 31
0.0
  0
LINE
  5
1EC
330
1F
100
AcDbEntity
  8
DIM
  6
CENTERX2
 62
     7
100
AcDbLine
 10
125.468490913
 20
69.8323905147
 30
0.0
 11
125.468490913
 21
73.8323905147
 31
0.0
  0
LINE
  5
1ED
330
1F
100
AcDbEntity
  8
DIM
  6
CENTERX2
 62
     7
100
AcDbLine
 10
119.218490913
 20
69.8323905147
 30
0.0
 11
119.218490913
 21
67.8323905147
 31
0.0
  0
LINE
  5
1EE
330
1F
100
AcDbEntity
  8
DIM
  6
CENTERX2
 62
     7
100
AcDbLine
 10
123.718490913
 20
67.8323905147
 30
0.0
 11
123.718490913
 21
69.8323905147
 31
0.0
  0
LINE
  5
1EF
330
1F
100
AcDbEntity
  8
DIM
  6
CENTERX2
 62
     7
100
AcDbLine
 10
142.868490913
 20
73.8323905147
 30
0.0
 11
142.868490913
 21
69.8323905147
 31
0.0
  0
LINE
  5
1F0
330
1F
100
AcDbEntity
  8
DIM
  6
CENTERX2
 62
     7
100
AcDbLine
 10
144.618490913
 20
69.8323905147
 30
0.0
 11
144.618490913
 21
67.8323905147
 31
0.0
  0
LINE
  5
1F1
330
1F
100
AcDbEntity
  8
DIM
  6
CENTERX2
 62
     7
100
AcDbLine
 10
150.868490913
 20
69.8323905147
 30
0.0
 11
142.868490913
 21
69.8323905147
 31
0.0
  0
LINE
  5
1F2
330
1F
100
AcDbEntity
  8
DIM
  6
CENTERX2
 62
     7
100
AcDbLine
 10
149.118490913
 20
67.8323905147
 30
0.0
 11
149.118490913
 21
69.8323905147
 31
0.0
  0
LINE
  5
1F3
330
1F
100
AcDbEntity
  8
DIM
  6
CENTERX2
 62
     7
100
AcDbLine
 10
150.868490913
 20
69.8323905147
 30
0.0
 11
150.868490913
 21
73.8323905147
 31
0.0
  0
DIMENSION
  5
1F4
330
1F
100
AcDbEntity
  8
DIM
 62
     7
100
AcDbDimension
  2
_D
 10
146.868490913
 20
59.8323905147
 30
0.0
 11
134.168490913
 21
59.8323905147
 31
0.0
 70
   160
  1
<>
 71
     2
 42
-1.0
  3
SLDDIMSTYLE0
100
AcDbAlignedDimension
 13
121.468490913
 23
67.8323905147
 33
0.0
 14
146.868490913
 24
67.8323905147
 34
0.0
 50
0.0
100
AcDbRotatedDimension
  0
DIMENSION
  5
1FF
330
1F
100
AcDbEntity
  8
DIM
 62
     7
100
AcDbDimension
  2
_D_1
 10
154.168490913
 20
53.8323905147
 30
0.0
 11
134.168490913
 21
53.8323905147
 31
0.0
 70
   160
  1
<>
 71
     2
 42
-1.0
  3
SLDDIMSTYLE0
100
AcDbAlignedDimension
 13
114.168490913
 23
67.8323905147
 33
0.0
 14
154.168490913
 24
67.8323905147
 34
0.0
100
AcDbRotatedDimension
  0
DIMENSION
  5
209
330
1F
100
AcDbEntity
  8
DIM
 62
     7
100
AcDbDimension
  2
_D_2
 10
161.9361519438
 20
67.8323905147
 30
0.0
 11
161.9361519438
 21
80.3323905147
 31
0.0
 70
   160
  1
<>
 71
     2
 42
-1.0
  3
SLDDIMSTYLE0
100
AcDbAlignedDimension
 13
134.168490913
 23
92.8323905147
 33
0.0
 14
154.168490913
 24
67.8323905147
 34
0.0
 50
90.0
100
AcDbRotatedDimension
  0
DIMENSION
  5
213
330
1F
100
AcDbEntity
  8
DIM
 62
     7
100
AcDbDimension
  2
_D_3
 10
168.9903414188
 20
67.8323905147
 30
0.0
 11
168.9903414188
 21
99.3323905147
 31
0.0
 70
   160
  1
<>
 71
     2
 42
-1.0
  3
SLDDIMSTYLE0
100
AcDbAlignedDimension
 13
154.168490913
 23
130.8323905147
 33
0.0
 14
154.168490913
 24
67.8323905147
 34
0.0
 50
90.0
100
AcDbRotatedDimension
  0
DIMENSION
  5
21D
330
1F
100
AcDbEntity
  8
DIM
 62
     7
100
AcDbDimension
  2
_D_4
 10
177.9903414188
 20
67.8323905147
 30
0.0
 11
177.9903414188
 21
103.6481818528
 31
0.0
 70
   160
  1
<>\PNOMINAL
 71
     2
 42
-1.0
  3
SLDDIMSTYLE1
100
AcDbAlignedDimension
 13
153.668490913
 23
139.4639731909
 33
0.0
 14
154.168490913
 24
67.8323905147
 34
0.0
 50
90.0
100
AcDbRotatedDimension
  0
INSERT
  5
234
330
1F
100
AcDbEntity
  8
DIM
 62
     7
100
AcDbBlockReference
  2
SW_NOTE_2
 10
107.6322115385
 20
75.0
 30
0.0
  0
LEADER
  5
236
330
1F
100
AcDbEntity
  8
DIM
 62
     7
100
AcDbLeader
  3
SLDDIMSTYLE2
 76
     2
 10
134.2755852343
 20
67.8323905147
 30
0.0
 10
107.6322115385
 20
75.0
 30
0.0
  0
INSERT
  5
23C
102
{ACAD_REACTORS
330
23D
102
}
330
1F
100
AcDbEntity
  8
DIM
 62
     7
100
AcDbBlockReference
  2
SW_NOTE_3
 10
163.0216346154
 20
57.9326923077
 30
0.0
  0
LEADER
  5
23D
330
1F
100
AcDbEntity
  8
DIM
 62
     7
100
AcDbLeader
  3
SLDDIMSTYLE2
 73
     2
 76
     3
 10
146.6906556922
 20
67.8323905147
 30
0.0
 10
162.0216346154
 20
57.9326923077
 30
0.0
 10
163.0216346154
 20
57.9326923077
 30
0.0
340
23C
  0
INSERT
  5
244
102
{ACAD_REACTORS
330
245
102
}
330
1F
100
AcDbEntity
  8
DIM
 62
     7
100
AcDbBlockReference
  2
SW_NOTE_4
 10
109.9350961538
 20
107.3317307692
 30
0.0
  0
LEADER
  5
245
330
1F
100
AcDbEntity
  8
DIM
 62
     7
100
AcDbLeader
  3
SLDDIMSTYLE2
 73
     2
 76
     3
 10
129.4570007351
 20
95.669970523
 30
0.0
 10
110.9350961538
 20
107.3317307692
 30
0.0
 10
109.9350961538
 20
107.3317307692
 30
0.0
340
244
  0
INSERT
  5
251
330
1F
100
AcDbEntity
  8
DIM
 62
     7
100
AcDbBlockReference
  2
SW_CENTERMARKSYMBOL_0
 10
134.168490913
 20
92.8323905147
 30
0.0
  0
LINE
  5
252
330
1F
100
AcDbEntity
  8
DIM
  6
CENTERX2
 62
     7
370
     0
100
AcDbLine
 10
121.468490913
 20
67.8323905147
 30
0.0
 11
121.468490913
 21
75.8323905147
 31
0.0
  0
LINE
  5
253
330
1F
100
AcDbEntity
  8
DIM
  6
CENTERX2
 62
     7
370
     0
100
AcDbLine
 10
146.868490913
 20
67.8323905147
 30
0.0
 11
146.868490913
 21
75.8323905147
 31
0.0
  0
LINE
  5
254
330
1F
100
AcDbEntity
  8
DIM
  6
CENTERX2
 62
     7
370
     0
100
AcDbLine
 10
134.168490913
 20
67.8323905147
 30
0.0
 11
134.168490913
 21
75.8323905147
 31
0.0
  0
ARC
  5
255
330
1F
100
AcDbEntity
  8
0
  6
Continuous
 62
     7
370
    15
100
AcDbCircle
 10
35.889482924
 20
132.4639731909
 30
0.0
 40
1.000000000000007
100
AcDbArc
 50
180.0
 51
270.0
  0
ARC
  5
256
330
1F
100
AcDbEntity
  8
0
  6
Continuous
 62
     7
370
    15
100
AcDbCircle
 10
48.889482924
 20
132.4639731909
 30
0.0
 40
1.0
100
AcDbArc
 50
270.0
 51
0.0
  0
ARC
  5
257
330
1F
100
AcDbEntity
  8
0
  6
Continuous
 62
     7
370
    15
100
AcDbCircle
 10
35.889482924
 20
138.4639731909
 30
0.0
 40
1.000000000000007
100
AcDbArc
 50
90.0
 51
180.0
  0
ARC
  5
258
330
1F
100
AcDbEntity
  8
0
  6
Continuous
 62
     7
370
    15
100
AcDbCircle
 10
48.889482924
 20
138.4639731909
 30
0.0
 40
1.0
100
AcDbArc
 50
0.0
 51
90.0
  0
LINE
  5
259
330
1F
100
AcDbEntity
  8
0
  6
Continuous
 62
     7
370
    15
100
AcDbLine
 10
37.889482924
 20
131.4639731909
 30
0.0
 11
37.889482924
 21
130.8323905147
 31
0.0
  0
LINE
  5
25A
330
1F
100
AcDbEntity
  8
0
  6
Continuous
 62
     7
370
    15
100
AcDbLine
 10
46.889482924
 20
130.8323905147
 30
0.0
 11
46.889482924
 21
131.4639731909
 31
0.0
  0
LINE
  5
25B
330
1F
100
AcDbEntity
  8
0
  6
Continuous
 62
     7
370
    15
100
AcDbLine
 10
35.5439352681
 20
138.6882247752
 30
0.0
 11
35.5439352681
 21
132.2397216065
 31
0.0
  0
LINE
  5
25C
330
1F
100
AcDbEntity
  8
0
  6
Continuous
 62
     7
370
    15
100
AcDbLine
 10
49.2853987731
 20
132.2481837787
 30
0.0
 11
49.2853987731
 21
138.679762603
 31
0.0
  0
LINE
  5
25D
330
1F
100
AcDbEntity
  8
0
  6
Continuous
 62
     7
370
    15
100
AcDbLine
 10
34.889482924
 20
138.4639731909
 30
0.0
 11
34.889482924
 21
132.4639731909
 31
0.0
  0
LINE
  5
25E
330
1F
100
AcDbEntity
  8
0
  6
Continuous
 62
     7
370
    15
100
AcDbLine
 10
49.889482924
 20
132.4639731909
 30
0.0
 11
49.889482924
 21
138.4639731909
 31
0.0
  0
SPLINE
  5
25F
330
1F
100
AcDbEntity
  8
0
  6
Continuous
 62
     7
370
    15
100
AcDbSpline
210
0.0
220
0.0
230
1.0
 70
     8
 71
     3
 72
    10
 73
     6
 74
     0
 42
0.000000001
 43
0.00000001
 40
0.0
 40
0.0
 40
0.0
 40
0.0
 40
0.6068408479055148
 40
0.9873411522226678
 40
1.0
 40
1.0
 40
1.0
 40
1.0
 10
35.06122975356296
 20
132.0325283756775
 30
0.0
 10
35.02257215102542
 20
132.1187704571616
 30
0.0
 10
34.95967552505947
 20
132.2590879001887
 30
0.0
 10
34.93945115203994
 20
132.404982956001
 30
0.0
 10
34.93579348087414
 20
132.4621330841959
 30
0.0
 10
34.93567571202085
 20
132.4639731908536
 30
0.0
  0
SPLINE
  5
260
330
1F
100
AcDbEntity
  8
0
  6
Continuous
 62
     7
370
    15
100
AcDbSpline
210
0.0
220
0.0
230
1.0
 70
     8
 71
     3
 72
    16
 73
    12
 74
     0
 42
0.000000001
 43
0.00000001
 40
0.0
 40
0.0
 40
0.0
 40
0.0
 40
0.0316438967043532
 40
0.1442296906797937
 40
0.2602597186198055
 40
0.391826828881192
 40
0.549207538133842
 40
0.7249905054734767
 40
0.8558655534151718
 40
0.9874199933190958
 40
1.0
 40
1.0
 40
1.0
 40
1.0
 10
35.06122975356189
 20
132.0325283756775
 30
0.0
 10
35.07264761615654
 20
132.0124318352073
 30
0.0
 10
35.12468908265596
 20
131.9208338299793
 30
0.0
 10
35.24418698199706
 20
131.7846585454076
 30
0.0
 10
35.41478710979533
 20
131.6653135588344
 30
0.0
 10
35.57551750415569
 20
131.6011006090289
 30
0.0
 10
35.68953341128829
 20
131.5903339118526
 30
0.0
 10
35.70937165511233
 20
131.6434514630011
 30
0.0
 10
35.65311372747362
 20
131.7821902476338
 30
0.0
 10
35.59690120841851
 20
131.9318794794124
 30
0.0
 10
35.57183982575639
 20
132.0244489435554
 30
0.0
 10
35.56965247659183
 20
132.0325283756756
 30
0.0
  0
SPLINE
  5
261
330
1F
100
AcDbEntity
  8
0
  6
Continuous
 62
     7
370
    15
100
AcDbSpline
210
0.0
220
0.0
230
1.0
 70
     8
 71
     3
 72
    10
 73
     6
 74
     0
 42
0.000000001
 43
0.00000001
 40
0.0
 40
0.0
 40
0.0
 40
0.0
 40
0.012658847777294
 40
0.3931591520965047
 40
1.0
 40
1.0
 40
1.0
 40
1.0
 10
35.57120411580693
 20
132.4639731908536
 30
0.0
 10
35.57077915038958
 20
132.4621330841959
 30
0.0
 10
35.55758055237401
 20
132.4049829560008
 30
0.0
 10
35.5332711657302
 20
132.2590879001876
 30
0.0
 10
35.55580357757693
 20
132.1187704571597
 30
0.0
 10
35.56965247659183
 20
132.0325283756756
 30
0.0
  0
LINE
  5
262
330
1F
100
AcDbEntity
  8
0
  6
Continuous
 62
     7
370
    15
100
AcDbLine
 10
35.5712041158
 20
132.4639731909
 30
0.0
 11
36.3498557992
 21
132.4639731909
 31
0.0
  0
SPLINE
  5
263
330
1F
100
AcDbEntity
  8
0
  6
Continuous
 62
     7
370
    15
100
AcDbSpline
210
0.0
220
0.0
230
1.0
 70
     8
 71
     3
 72
    10
 73
     6
 74
     0
 42
0.000000001
 43
0.00000001
 40
0.0
 40
0.0
 40
0.0
 40
0.0
 40
0.6068408479055167
 40
0.9873411522226668
 40
1.0
 40
1.0
 40
1.0
 40
1.0
 10
36.56465489019444
 20
132.0325283756775
 30
0.0
 10
36.51243528196398
 20
132.1187704571616
 30
0.0
 10
36.42747302483046
 20
132.2590879001887
 30
0.0
 10
36.36950279990698
 20
132.4049829560009
 30
0.0
 10
36.35046865615513
 20
132.4621330841959
 30
0.0
 10
36.34985579918094
 20
132.4639731908536
 30
0.0
  0
SPLINE
  5
264
330
1F
100
AcDbEntity
  8
0
  6
Continuous
 62
     7
370
    15
100
AcDbSpline
210
0.0
220
0.0
230
1.0
 70
     8
 71
     3
 72
    16
 73
    12
 74
     0
 42
0.000000001
 43
0.00000001
 40
0.0
 40
0.0
 40
0.0
 40
0.0
 40
0.0316438967043525
 40
0.144229690679793
 40
0.2602597186198053
 40
0.3918268288811927
 40
0.5492075381338436
 40
0.7249905054734751
 40
0.8558655534151732
 40
0.9874199933190969
 40
1.0
 40
1.0
 40
1.0
 40
1.0
 10
36.56465489019315
 20
132.0325283756775
 30
0.0
 10
36.57862625749243
 20
132.0124318352073
 30
0.0
 10
36.64230634097832
 20
131.9208338299793
 30
0.0
 10
36.79500703367543
 20
131.7846585454076
 30
0.0
 10
37.03829750989846
 20
131.6653135588344
 30
0.0
 10
37.31079927167473
 20
131.6011006090289
 30
0.0
 10
37.5827381863498
 20
131.5903339118526
 30
0.0
 10
37.78155634281983
 20
131.643451463001
 30
0.0
 10
37.88824413058191
 20
131.7821902476338
 30
0.0
 10
37.91479480099485
 20
131.9318794794124
 30
0.0
 10
37.92162687091408
 20
132.0244489435553
 30
0.0
 10
37.92222317171007
 20
132.0325283756756
 30
0.0
  0
SPLINE
  5
265
330
1F
100
AcDbEntity
  8
0
  6
Continuous
 62
     7
370
    15
100
AcDbSpline
210
0.0
220
0.0
230
1.0
 70
     8
 71
     3
 72
    10
 73
     6
 74
     0
 42
0.000000001
 43
0.00000001
 40
0.0
 40
0.0
 40
0.0
 40
0.0
 40
0.012658847777291
 40
0.3931591520965029
 40
1.0
 40
1.0
 40
1.0
 40
1.0
 10
38.04681615107548
 20
132.4639731908536
 30
0.0
 10
38.04597982256337
 20
132.4621330841959
 30
0.0
 10
38.02000508817341
 20
132.4049829560009
 30
0.0
 10
37.95906320150694
 20
132.2590879001875
 30
0.0
 10
37.93624668653896
 20
132.1187704571597
 30
0.0
 10
37.92222317171007
 20
132.0325283756756
 30
0.0
  0
LINE
  5
266
330
1F
100
AcDbEntity
  8
0
  6
Continuous
 62
     7
370
    15
100
AcDbLine
 10
38.0468161511
 20
132.4639731909
 30
0.0
 11
39.382349097
 21
132.4639731909
 31
0.0
  0
SPLINE
  5
267
330
1F
100
AcDbEntity
  8
0
  6
Continuous
 62
     7
370
    15
100
AcDbSpline
210
0.0
220
0.0
230
1.0
 70
     8
 71
     3
 72
    10
 73
     6
 74
     0
 42
0.000000001
 43
0.00000001
 40
0.0
 40
0.0
 40
0.0
 40
0.0
 40
0.6068408479055153
 40
0.9873411522226709
 40
1.0
 40
1.0
 40
1.0
 40
1.0
 10
39.62883799453942
 20
132.0325283756775
 30
0.0
 10
39.57704858247041
 20
132.1187704571616
 30
0.0
 10
39.49278626235527
 20
132.2590879001886
 30
0.0
 10
39.41260326048153
 20
132.404982956001
 30
0.0
 10
39.38329282759033
 20
132.4621330841959
 30
0.0
 10
39.38234909702656
 20
132.4639731908536
 30
0.0
  0
SPLINE
  5
268
330
1F
100
AcDbEntity
  8
0
  6
Continuous
 62
     7
370
    15
100
AcDbSpline
210
0.0
220
0.0
230
1.0
 70
     8
 71
     3
 72
    16
 73
    12
 74
     0
 42
0.000000001
 43
0.00000001
 40
0.0
 40
0.0
 40
0.0
 40
0.0
 40
0.0316438967043513
 40
0.1442296906797936
 40
0.2602597186198056
 40
0.3918268288811916
 40
0.5492075381338426
 40
0.7249905054734742
 40
0.8558655534151733
 40
0.987419993319095
 40
1.0
 40
1.0
 40
1.0
 40
1.0
 10
39.62883799453824
 20
132.0325283756775
 30
0.0
 10
39.64161924995719
 20
132.0124318352073
 30
0.0
 10
39.69987492348555
 20
131.9208338299793
 30
0.0
 10
39.8448623822468
 20
131.7846585454076
 30
0.0
 10
40.09565372026444
 20
131.6653135588344
 30
0.0
 10
40.40691022245262
 20
131.6011006090289
 30
0.0
 10
40.76390633209237
 20
131.5903339118526
 30
0.0
 10
41.08843123674162
 20
131.643451463001
 30
0.0
 10
41.32947783333137
 20
131.7821902476338
 30
0.0
 10
41.43167746251668
 20
131.9318794794124
 30
0.0
 10
41.46857233739979
 20
132.0244489435554
 30
0.0
 10
41.47179250983961
 20
132.0325283756756
 30
0.0
  0
SPLINE
  5
269
330
1F
100
AcDbEntity
  8
0
  6
Continuous
 62
     7
370
    15
100
AcDbSpline
210
0.0
220
0.0
230
1.0
 70
     8
 71
     3
 72
    10
 73
     6
 74
     0
 42
0.000000001
 43
0.00000001
 40
0.0
 40
0.0
 40
0.0
 40
0.0
 40
0.0126588477772926
 40
0.3931591520965039
 40
1.0
 40
1.0
 40
1.0
 40
1.0
 10
41.68604224115179
 20
132.4639731908536
 30
0.0
 10
41.68501864309432
 20
132.4621330841959
 30
0.0
 10
41.65322768143355
 20
132.4049829560007
 30
0.0
 10
41.57198262406163
 20
132.2590879001876
 30
0.0
 10
41.50993084903878
 20
132.1187704571597
 30
0.0
 10
41.47179250983961
 20
132.0325283756756
 30
0.0
  0
LINE
  5
26A
330
1F
100
AcDbEntity
  8
0
  6
Continuous
 62
     7
370
    15
100
AcDbLine
 10
41.6860422412
 20
132.4639731909
 30
0.0
 11
43.2206014753
 21
132.4639731909
 31
0.0
  0
SPLINE
  5
26B
330
1F
100
AcDbEntity
  8
0
  6
Continuous
 62
     7
370
    15
100
AcDbSpline
210
0.0
220
0.0
230
1.0
 70
     8
 71
     3
 72
    10
 73
     6
 74
     0
 42
0.000000001
 43
0.00000001
 40
0.0
 40
0.0
 40
0.0
 40
0.0
 40
0.6068408479055184
 40
0.9873411522226718
 40
1.0
 40
1.0
 40
1.0
 40
1.0
 10
43.43273367832759
 20
132.0325283756775
 30
0.0
 10
43.39525139356047
 20
132.1187704571615
 30
0.0
 10
43.33426703109107
 20
132.2590879001885
 30
0.0
 10
43.25335622286531
 20
132.4049829560012
 30
0.0
 10
43.22162320765808
 20
132.4621330841959
 30
0.0
 10
43.22060147534717
 20
132.4639731908536
 30
0.0
  0
SPLINE
  5
26C
330
1F
100
AcDbEntity
  8
0
  6
Continuous
 62
     7
370
    15
100
AcDbSpline
210
0.0
220
0.0
230
1.0
 70
     8
 71
     3
 72
    16
 73
    12
 74
     0
 42
0.000000001
 43
0.00000001
 40
0.0
 40
0.0
 40
0.0
 40
0.0
 40
0.0316438967043523
 40
0.144229690679794
 40
0.2602597186198058
 40
0.3918268288811917
 40
0.5492075381338435
 40
0.7249905054734778
 40
0.8558655534151732
 40
0.9874199933190966
 40
1.0
 40
1.0
 40
1.0
 40
1.0
 10
43.43273367832684
 20
132.0325283756775
 30
0.0
 10
43.44090009479767
 20
132.0124318352073
 30
0.0
 10
43.47812179769206
 20
131.9208338299793
 30
0.0
 10
43.57654675002973
 20
131.7846585454076
 30
0.0
 10
43.76763961335143
 20
131.6653135588344
 30
0.0
 10
44.03424992755126
 20
131.6011006090289
 30
0.0
 10
44.38064641287667
 20
131.5903339118526
 30
0.0
 10
44.74392187958058
 20
131.643451463001
 30
0.0
 10
45.05473904410351
 20
131.7821902476338
 30
0.0
 10
45.20520332395425
 20
131.9318794794123
 30
0.0
 10
45.26227505187143
 20
132.0244489435554
 30
0.0
 10
45.26725625335034
 20
132.0325283756756
 30
0.0
  0
SPLINE
  5
26D
330
1F
100
AcDbEntity
  8
0
  6
Continuous
 62
     7
370
    15
100
AcDbSpline
210
0.0
220
0.0
230
1.0
 70
     8
 71
     3
 72
    10
 73
     6
 74
     0
 42
0.000000001
 43
0.00000001
 40
0.0
 40
0.0
 40
0.0
 40
0.0
 40
0.0126588477772914
 40
0.3931591520965019
 40
1.0
 40
1.0
 40
1.0
 40
1.0
 10
45.51375469412559
 20
132.4639731908536
 30
0.0
 10
45.51281809879569
 20
132.4621330841959
 30
0.0
 10
45.48372927236837
 20
132.4049829560002
 30
0.0
 10
45.40395059180168
 20
132.259087900188
 30
0.0
 10
45.31929027973055
 20
132.1187704571599
 30
0.0
 10
45.26725625335033
 20
132.0325283756756
 30
0.0
  0
LINE
  5
26E
330
1F
100
AcDbEntity
  8
0
  6
Continuous
 62
     7
370
    15
100
AcDbLine
 10
45.5137546941
 20
132.4639731909
 30
0.0
 11
46.836156309
 21
132.4639731909
 31
0.0
  0
SPLINE
  5
26F
330
1F
100
AcDbEntity
  8
0
  6
Continuous
 62
     7
370
    15
100
AcDbSpline
210
0.0
220
0.0
230
1.0
 70
     8
 71
     3
 72
    10
 73
     6
 74
     0
 42
0.000000001
 43
0.00000001
 40
0.0
 40
0.0
 40
0.0
 40
0.0
 40
0.6068408479055182
 40
0.9873411522226655
 40
1.0
 40
1.0
 40
1.0
 40
1.0
 10
46.95709116499566
 20
132.0325283756775
 30
0.0
 10
46.9439593554642
 20
132.1187704571615
 30
0.0
 10
46.92259366131503
 20
132.2590879001886
 30
0.0
 10
46.86263503246074
 20
132.4049829560011
 30
0.0
 10
46.83698227073539
 20
132.4621330841959
 30
0.0
 10
46.83615630902492
 20
132.4639731908536
 30
0.0
  0
SPLINE
  5
270
330
1F
100
AcDbEntity
  8
0
  6
Continuous
 62
     7
370
    15
100
AcDbSpline
210
0.0
220
0.0
230
1.0
 70
     8
 71
     3
 72
    16
 73
    12
 74
     0
 42
0.000000001
 43
0.00000001
 40
0.0
 40
0.0
 40
0.0
 40
0.0
 40
0.0316438967043517
 40
0.1442296906797936
 40
0.2602597186198057
 40
0.3918268288811912
 40
0.5492075381338442
 40
0.7249905054734753
 40
0.8558655534151721
 40
0.9874199933190988
 40
1.0
 40
1.0
 40
1.0
 40
1.0
 10
46.95709116499555
 20
132.0325283756775
 30
0.0
 10
46.95845455781984
 20
132.0124318352073
 30
0.0
 10
46.96466876484879
 20
131.9208338299793
 30
0.0
 10
46.99015832426894
 20
131.7846585454076
 30
0.0
 10
47.07034953448831
 20
131.6653135588344
 30
0.0
 10
47.22087564231612
 20
131.6011006090289
 30
0.0
 10
47.46385584482326
 20
131.5903339118526
 30
0.0
 10
47.76854250564848
 20
131.6434514630011
 30
0.0
 10
48.06584702987694
 20
131.7821902476338
 30
0.0
 10
48.22425917811734
 20
131.9318794794124
 30
0.0
 10
48.28621543566258
 20
132.0244489435554
 30
0.0
 10
48.29162295726696
 20
132.0325283756756
 30
0.0
  0
SPLINE
  5
271
330
1F
100
AcDbEntity
  8
0
  6
Continuous
 62
     7
370
    15
100
AcDbSpline
210
0.0
220
0.0
230
1.0
 70
     8
 71
     3
 72
    10
 73
     6
 74
     0
 42
0.000000001
 43
0.00000001
 40
0.0
 40
0.0
 40
0.0
 40
0.0
 40
0.012658847777285
 40
0.3931591520964997
 40
1.0
 40
1.0
 40
1.0
 40
1.0
 10
48.50432104936404
 20
132.4639731908536
 30
0.0
 10
48.50372241672392
 20
132.4621330841959
 30
0.0
 10
48.48513005307858
 20
132.4049829560008
 30
0.0
 10
48.42819438235072
 20
132.2590879001876
 30
0.0
 10
48.34361019548108
 20
132.1187704571597
 30
0.0
 10
48.29162295726696
 20
132.0325283756756
 30
0.0
  0
LINE
  5
272
330
1F
100
AcDbEntity
  8
0
  6
Continuous
 62
     7
370
    15
100
AcDbLine
 10
48.5043210494
 20
132.4639731909
 30
0.0
 11
49.2602286002
 21
132.4639731909
 31
0.0
  0
SPLINE
  5
273
330
1F
100
AcDbEntity
  8
0
  6
Continuous
 62
     7
370
    15
100
AcDbSpline
210
0.0
220
0.0
230
1.0
 70
     8
 71
     3
 72
    10
 73
     6
 74
     0
 42
0.000000001
 43
0.00000001
 40
0.0
 40
0.0
 40
0.0
 40
0.0
 40
0.6068408479055243
 40
0.9873411522226678
 40
1.0
 40
1.0
 40
1.0
 40
1.0
 10
49.25756171215235
 20
132.0325283756775
 30
0.0
 10
49.27229903561568
 20
132.1187704571616
 30
0.0
 10
49.29627693027982
 20
132.2590879001887
 30
0.0
 10
49.27333634697749
 20
132.404982956001
 30
0.0
 10
49.26063747552213
 20
132.4621330841959
 30
0.0
 10
49.26022860018542
 20
132.4639731908536
 30
0.0
  0
SPLINE
  5
274
330
1F
100
AcDbEntity
  8
0
  6
Continuous
 62
     7
370
    15
100
AcDbSpline
210
0.0
220
0.0
230
1.0
 70
     8
 71
     3
 72
    16
 73
    12
 74
     0
 42
0.000000001
 43
0.00000001
 40
0.0
 40
0.0
 40
0.0
 40
0.0
 40
0.031643896704353
 40
0.1442296906797952
 40
0.2602597186198072
 40
0.3918268288811944
 40
0.549207538133846
 40
0.7249905054734785
 40
0.8558655534151748
 40
0.9874199933191001
 40
1.0
 40
1.0
 40
1.0
 40
1.0
 10
49.25756171215289
 20
132.0325283756775
 30
0.0
 10
49.25175676132442
 20
132.0124318352073
 30
0.0
 10
49.22529838073293
 20
131.9208338299793
 30
0.0
 10
49.17102264037349
 20
131.7846585454076
 30
0.0
 10
49.11882502747217
 20
131.6653135588344
 30
0.0
 10
49.1129335798957
 20
131.6011006090289
 30
0.0
 10
49.18739115054605
 20
131.5903339118526
 30
0.0
 10
49.35184846077992
 20
131.643451463001
 30
0.0
 10
49.55597783754077
 20
131.7821902476338
 30
0.0
 10
49.67989144697858
 20
131.9318794794124
 30
0.0
 10
49.73013110497654
 20
132.0244489435554
 30
0.0
 10
49.73451600565944
 20
132.0325283756756
 30
0.0
  0
SPLINE
  5
275
330
1F
100
AcDbEntity
  8
0
  6
Continuous
 62
     7
370
    15
100
AcDbSpline
210
0.0
220
0.0
230
1.0
 70
     8
 71
     3
 72
    10
 73
     6
 74
     0
 42
0.000000001
 43
0.00000001
 40
0.0
 40
0.0
 40
0.0
 40
0.0
 40
0.0126588477772896
 40
0.3931591520965019
 40
1.0
 40
1.0
 40
1.0
 40
1.0
 10
49.85642146706928
 20
132.4639731908536
 30
0.0
 10
49.85632120025147
 20
132.4621330841959
 30
0.0
 10
49.85320710821333
 20
132.4049829560007
 30
0.0
 10
49.83437031431449
 20
132.2590879001876
 30
0.0
 10
49.77252651721098
 20
132.1187704571597
 30
0.0
 10
49.73451600565944
 20
132.0325283756756
 30
0.0
  0
LINE
  5
276
330
1F
100
AcDbEntity
  8
0
  6
Continuous
 62
     7
370
    15
100
AcDbLine
 10
48.889482924
 20
131.4639731909
 30
0.0
 11
35.889482924
 21
131.4639731909
 31
0.0
  0
SPLINE
  5
277
330
1F
100
AcDbEntity
  8
0
  6
Continuous
 62
     7
370
    15
100
AcDbSpline
210
0.0
220
0.0
230
1.0
 70
     8
 71
     3
 72
    10
 73
     6
 74
     0
 42
0.000000001
 43
0.00000001
 40
0.0
 40
0.0
 40
0.0
 40
0.0
 40
0.6068408479055263
 40
0.9873411522226669
 40
1.0
 40
1.0
 40
1.0
 40
1.0
 10
49.73451600565944
 20
138.8954180060295
 30
0.0
 10
49.77252651721118
 20
138.8091759245456
 30
0.0
 10
49.83437031431481
 20
138.6688584815186
 30
0.0
 10
49.85320710821335
 20
138.5229634257059
 30
0.0
 10
49.85632120025148
 20
138.4658132975112
 30
0.0
 10
49.85642146706929
 20
138.4639731908536
 30
0.0
  0
SPLINE
  5
278
330
1F
100
AcDbEntity
  8
0
  6
Continuous
 62
     7
370
    15
100
AcDbSpline
210
0.0
220
0.0
230
1.0
 70
     8
 71
     3
 72
    16
 73
    12
 74
     0
 42
0.000000001
 43
0.00000001
 40
0.0
 40
0.0
 40
0.0
 40
0.0
 40
0.0316438967043515
 40
0.1442296906797924
 40
0.2602597186198037
 40
0.3918268288811927
 40
0.549207538133844
 40
0.724990505473476
 40
0.8558655534151729
 40
0.9874199933190962
 40
1.0
 40
1.0
 40
1.0
 40
1.0
 10
49.7345160056605
 20
138.8954180060295
 30
0.0
 10
49.72323956601856
 20
138.9155145464998
 30
0.0
 10
49.67184269107862
 20
139.0071125517278
 30
0.0
 10
49.55404662566814
 20
139.1432878362995
 30
0.0
 10
49.38674163053075
 20
139.2626328228727
 30
0.0
 10
49.23059724516991
 20
139.3268457726782
 30
0.0
 10
49.12252587809898
 20
139.3376124698544
 30
0.0
 10
49.10890723142538
 20
139.284494918706
 30
0.0
 10
49.17047589996988
 20
139.1457561340733
 30
0.0
 10
49.22925506573952
 20
138.9960669022946
 30
0.0
 10
49.25528944055539
 20
138.9034974381517
 30
0.0
 10
49.25756171215235
 20
138.8954180060315
 30
0.0
  0
SPLINE
  5
279
330
1F
100
AcDbEntity
  8
0
  6
Continuous
 62
     7
370
    15
100
AcDbSpline
210
0.0
220
0.0
230
1.0
 70
     8
 71
     3
 72
    10
 73
     6
 74
     0
 42
0.000000001
 43
0.00000001
 40
0.0
 40
0.0
 40
0.0
 40
0.0
 40
0.0126588477772926
 40
0.3931591520964943
 40
1.0
 40
1.0
 40
1.0
 40
1.0
 10
49.26022860018541
 20
138.4639731908536
 30
0.0
 10
49.26063747552215
 20
138.4658132975111
 30
0.0
 10
49.27333634697808
 20
138.5229634257059
 30
0.0
 10
49.29627693027954
 20
138.6688584815198
 30
0.0
 10
49.27229903561555
 20
138.8091759245474
 30
0.0
 10
49.25756171215235
 20
138.8954180060315
 30
0.0
  0
LINE
  5
27A
330
1F
100
AcDbEntity
  8
0
  6
Continuous
 62
     7
370
    15
100
AcDbLine
 10
49.2602286002
 20
138.4639731909
 30
0.0
 11
48.5043210494
 21
138.4639731909
 31
0.0
  0
SPLINE
  5
27B
330
1F
100
AcDbEntity
  8
0
  6
Continuous
 62
     7
370
    15
100
AcDbSpline
210
0.0
220
0.0
230
1.0
 70
     8
 71
     3
 72
    10
 73
     6
 74
     0
 42
0.000000001
 43
0.00000001
 40
0.0
 40
0.0
 40
0.0
 40
0.0
 40
0.6068408479055291
 40
0.9873411522226736
 40
1.0
 40
1.0
 40
1.0
 40
1.0
 10
48.29162295726696
 20
138.8954180060295
 30
0.0
 10
48.34361019548138
 20
138.8091759245456
 30
0.0
 10
48.42819438235123
 20
138.6688584815187
 30
0.0
 10
48.48513005307889
 20
138.5229634257057
 30
0.0
 10
48.50372241672392
 20
138.4658132975111
 30
0.0
 10
48.50432104936404
 20
138.4639731908536
 30
0.0
  0
SPLINE
  5
27C
330
1F
100
AcDbEntity
  8
0
  6
Continuous
 62
     7
370
    15
100
AcDbSpline
210
0.0
220
0.0
230
1.0
 70
     8
 71
     3
 72
    16
 73
    12
 74
     0
 42
0.000000001
 43
0.00000001
 40
0.0
 40
0.0
 40
0.0
 40
0.0
 40
0.0316438967043491
 40
0.1442296906797934
 40
0.2602597186198053
 40
0.391826828881192
 40
0.5492075381338434
 40
0.7249905054734775
 40
0.8558655534151759
 40
0.987419993319099
 40
1.0
 40
1.0
 40
1.0
 40
1.0
 10
48.29162295726826
 20
138.8954180060295
 30
0.0
 10
48.2776769674703
 20
138.9155145464998
 30
0.0
 10
48.21411255207686
 20
139.0071125517278
 30
0.0
 10
48.06187042024267
 20
139.1432878362995
 30
0.0
 10
47.8199878736884
 20
139.2626328228727
 30
0.0
 10
47.55010195234463
 20
139.3268457726782
 30
0.0
 10
47.28236095218182
 20
139.3376124698544
 30
0.0
 10
47.08878597836549
 20
139.284494918706
 30
0.0
 10
46.98720155236661
 20
139.1457561340732
 30
0.0
 10
46.96336565916926
 20
138.9960669022948
 30
0.0
 10
46.95759484016396
 20
138.9034974381517
 30
0.0
 10
46.95709116499566
 20
138.8954180060315
 30
0.0
  0
SPLINE
  5
27D
330
1F
100
AcDbEntity
  8
0
  6
Continuous
 62
     7
370
    15
100
AcDbSpline
210
0.0
220
0.0
230
1.0
 70
     8
 71
     3
 72
    10
 73
     6
 74
     0
 42
0.000000001
 43
0.00000001
 40
0.0
 40
0.0
 40
0.0
 40
0.0
 40
0.0126588477772862
 40
0.3931591520964945
 40
1.0
 40
1.0
 40
1.0
 40
1.0
 10
46.83615630902492
 20
138.4639731908536
 30
0.0
 10
46.83698227073538
 20
138.4658132975112
 30
0.0
 10
46.86263503246067
 20
138.5229634257066
 30
0.0
 10
46.92259366131563
 20
138.6688584815193
 30
0.0
 10
46.94395935546446
 20
138.8091759245472
 30
0.0
 10
46.95709116499566
 20
138.8954180060315
 30
0.0
  0
LINE
  5
27E
330
1F
100
AcDbEntity
  8
0
  6
Continuous
 62
     7
370
    15
100
AcDbLine
 10
46.836156309
 20
138.4639731909
 30
0.0
 11
45.5137546941
 21
138.4639731909
 31
0.0
  0
SPLINE
  5
27F
330
1F
100
AcDbEntity
  8
0
  6
Continuous
 62
     7
370
    15
100
AcDbSpline
210
0.0
220
0.0
230
1.0
 70
     8
 71
     3
 72
    10
 73
     6
 74
     0
 42
0.000000001
 43
0.00000001
 40
0.0
 40
0.0
 40
0.0
 40
0.0
 40
0.6068408479055198
 40
0.98734115222267
 40
1.0
 40
1.0
 40
1.0
 40
1.0
 10
45.26725625335034
 20
138.8954180060296
 30
0.0
 10
45.31929027973086
 20
138.8091759245455
 30
0.0
 10
45.40395059180221
 20
138.6688584815183
 30
0.0
 10
45.4837292723689
 20
138.5229634257063
 30
0.0
 10
45.5128180987957
 20
138.4658132975112
 30
0.0
 10
45.51375469412559
 20
138.4639731908536
 30
0.0
  0
SPLINE
  5
280
330
1F
100
AcDbEntity
  8
0
  6
Continuous
 62
     7
370
    15
100
AcDbSpline
210
0.0
220
0.0
230
1.0
 70
     8
 71
     3
 72
    16
 73
    12
 74
     0
 42
0.000000001
 43
0.00000001
 40
0.0
 40
0.0
 40
0.0
 40
0.0
 40
0.0316438967043514
 40
0.144229690679794
 40
0.2602597186198045
 40
0.3918268288811918
 40
0.5492075381338439
 40
0.7249905054734764
 40
0.8558655534151723
 40
0.9874199933190968
 40
1.0
 40
1.0
 40
1.0
 40
1.0
 10
45.26725625335153
 20
138.8954180060295
 30
0.0
 10
45.25437753010157
 20
138.9155145464998
 30
0.0
 10
45.19567760802663
 20
139.0071125517278
 30
0.0
 10
45.04978256604772
 20
139.1432878362995
 30
0.0
 10
44.79813470108898
 20
139.2626328228727
 30
0.0
 10
44.48682295843486
 20
139.3268457726782
 30
0.0
 10
44.1311533099545
 20
139.3376124698544
 30
0.0
 10
43.8094902669044
 20
139.284494918706
 30
0.0
 10
43.57197221127216
 20
139.1457561340733
 30
0.0
 10
43.47190806744082
 20
138.9960669022948
 30
0.0
 10
43.43587834090654
 20
138.9034974381517
 30
0.0
 10
43.43273367832759
 20
138.8954180060315
 30
0.0
  0
SPLINE
  5
281
330
1F
100
AcDbEntity
  8
0
  6
Continuous
 62
     7
370
    15
100
AcDbSpline
210
0.0
220
0.0
230
1.0
 70
     8
 71
     3
 72
    10
 73
     6
 74
     0
 42
0.000000001
 43
0.00000001
 40
0.0
 40
0.0
 40
0.0
 40
0.0
 40
0.0126588477772973
 40
0.3931591520965012
 40
1.0
 40
1.0
 40
1.0
 40
1.0
 10
43.22060147534717
 20
138.4639731908536
 30
0.0
 10
43.2216232076581
 20
138.4658132975111
 30
0.0
 10
43.25335622286623
 20
138.5229634257062
 30
0.0
 10
43.33426703109128
 20
138.6688584815196
 30
0.0
 10
43.39525139356063
 20
138.8091759245474
 30
0.0
 10
43.43273367832759
 20
138.8954180060315
 30
0.0
  0
LINE
  5
282
330
1F
100
AcDbEntity
  8
0
  6
Continuous
 62
     7
370
    15
100
AcDbLine
 10
43.2206014753
 20
138.4639731909
 30
0.0
 11
41.6860422412
 21
138.4639731909
 31
0.0
  0
SPLINE
  5
283
330
1F
100
AcDbEntity
  8
0
  6
Continuous
 62
     7
370
    15
100
AcDbSpline
210
0.0
220
0.0
230
1.0
 70
     8
 71
     3
 72
    10
 73
     6
 74
     0
 42
0.000000001
 43
0.00000001
 40
0.0
 40
0.0
 40
0.0
 40
0.0
 40
0.6068408479055246
 40
0.9873411522226697
 40
1.0
 40
1.0
 40
1.0
 40
1.0
 10
41.47179250983961
 20
138.8954180060295
 30
0.0
 10
41.5099308490391
 20
138.8091759245456
 30
0.0
 10
41.57198262406224
 20
138.6688584815186
 30
0.0
 10
41.65322768143387
 20
138.5229634257057
 30
0.0
 10
41.68501864309433
 20
138.4658132975111
 30
0.0
 10
41.68604224115179
 20
138.4639731908536
 30
0.0
  0
SPLINE
  5
284
330
1F
100
AcDbEntity
  8
0
  6
Continuous
 62
     7
370
    15
100
AcDbSpline
210
0.0
220
0.0
230
1.0
 70
     8
 71
     3
 72
    16
 73
    12
 74
     0
 42
0.000000001
 43
0.00000001
 40
0.0
 40
0.0
 40
0.0
 40
0.0
 40
0.0316438967043513
 40
0.144229690679796
 40
0.2602597186198055
 40
0.3918268288811914
 40
0.5492075381338433
 40
0.7249905054734753
 40
0.8558655534151718
 40
0.9874199933190985
 40
1.0
 40
1.0
 40
1.0
 40
1.0
 10
41.47179250984038
 20
138.8954180060295
 30
0.0
 10
41.46343189663278
 20
138.9155145464998
 30
0.0
 10
41.42532506459211
 20
139.0071125517278
 30
0.0
 10
41.32486957114641
 20
139.1432878362995
 30
0.0
 10
41.1308852299759
 20
139.2626328228727
 30
0.0
 10
40.86156339604993
 20
139.3268457726782
 30
0.0
 10
40.51326649433461
 20
139.3376124698544
 30
0.0
 10
40.14970473467094
 20
139.284494918706
 30
0.0
 10
39.83989582059981
 20
139.1457561340733
 30
0.0
 10
39.69041553266543
 20
138.9960669022947
 30
0.0
 10
39.63378103473053
 20
138.9034974381517
 30
0.0
 10
39.62883799453942
 20
138.8954180060315
 30
0.0
  0
SPLINE
  5
285
330
1F
100
AcDbEntity
  8
0
  6
Continuous
 62
     7
370
    15
100
AcDbSpline
210
0.0
220
0.0
230
1.0
 70
     8
 71
     3
 72
    10
 73
     6
 74
     0
 42
0.000000001
 43
0.00000001
 40
0.0
 40
0.0
 40
0.0
 40
0.0
 40
0.0126588477772902
 40
0.3931591520965037
 40
1.0
 40
1.0
 40
1.0
 40
1.0
 10
39.38234909702656
 20
138.4639731908536
 30
0.0
 10
39.38329282759034
 20
138.4658132975111
 30
0.0
 10
39.4126032604818
 20
138.5229634257064
 30
0.0
 10
39.49278626235598
 20
138.6688584815195
 30
0.0
 10
39.57704858247078
 20
138.8091759245473
 30
0.0
 10
39.62883799453942
 20
138.8954180060315
 30
0.0
  0
LINE
  5
286
330
1F
100
AcDbEntity
  8
0
  6
Continuous
 62
     7
370
    15
100
AcDbLine
 10
39.382349097
 20
138.4639731909
 30
0.0
 11
38.0468161511
 21
138.4639731909
 31
0.0
  0
SPLINE
  5
287
330
1F
100
AcDbEntity
  8
0
  6
Continuous
 62
     7
370
    15
100
AcDbSpline
210
0.0
220
0.0
230
1.0
 70
     8
 71
     3
 72
    10
 73
     6
 74
     0
 42
0.000000001
 43
0.00000001
 40
0.0
 40
0.0
 40
0.0
 40
0.0
 40
0.6068408479055196
 40
0.9873411522226747
 40
1.0
 40
1.0
 40
1.0
 40
1.0
 10
37.92222317171007
 20
138.8954180060295
 30
0.0
 10
37.93624668653899
 20
138.8091759245455
 30
0.0
 10
37.95906320150692
 20
138.6688584815184
 30
0.0
 10
38.02000508817424
 20
138.5229634257061
 30
0.0
 10
38.04597982256339
 20
138.4658132975112
 30
0.0
 10
38.04681615107548
 20
138.4639731908536
 30
0.0
  0
SPLINE
  5
288
330
1F
100
AcDbEntity
  8
0
  6
Continuous
 62
     7
370
    15
100
AcDbSpline
210
0.0
220
0.0
230
1.0
 70
     8
 71
     3
 72
    16
 73
    12
 74
     0
 42
0.000000001
 43
0.00000001
 40
0.0
 40
0.0
 40
0.0
 40
0.0
 40
0.0316438967043495
 40
0.1442296906797927
 40
0.2602597186198054
 40
0.3918268288811912
 40
0.5492075381338435
 40
0.7249905054734753
 40
0.8558655534151725
 40
0.9874199933190977
 40
1.0
 40
1.0
 40
1.0
 40
1.0
 10
37.92222317171022
 20
138.8954180060295
 30
0.0
 10
37.92062088810219
 20
138.9155145464998
 30
0.0
 10
37.9133178409672
 20
139.0071125517278
 30
0.0
 10
37.88521886439876
 20
139.1432878362995
 30
0.0
 10
37.8008759945774
 20
139.2626328228727
 30
0.0
 10
37.64570863728412
 20
139.3268457726782
 30
0.0
 10
37.3981103558747
 20
139.3376124698544
 30
0.0
 10
37.0900659594982
 20
139.284494918706
 30
0.0
 10
36.79097923532149
 20
139.1457561340733
 30
0.0
 10
36.63213592572044
 20
138.9960669022947
 30
0.0
 10
36.57007182437033
 20
138.9034974381517
 30
0.0
 10
36.56465489019444
 20
138.8954180060315
 30
0.0
  0
SPLINE
  5
289
330
1F
100
AcDbEntity
  8
0
  6
Continuous
 62
     7
370
    15
100
AcDbSpline
210
0.0
220
0.0
230
1.0
 70
     8
 71
     3
 72
    10
 73
     6
 74
     0
 42
0.000000001
 43
0.00000001
 40
0.0
 40
0.0
 40
0.0
 40
0.0
 40
0.012658847777279
 40
0.3931591520965015
 40
1.0
 40
1.0
 40
1.0
 40
1.0
 10
36.34985579918094
 20
138.4639731908536
 30
0.0
 10
36.35046865615512
 20
138.4658132975112
 30
0.0
 10
36.36950279990656
 20
138.5229634257071
 30
0.0
 10
36.42747302483146
 20
138.6688584815189
 30
0.0
 10
36.51243528196448
 20
138.8091759245471
 30
0.0
 10
36.56465489019444
 20
138.8954180060315
 30
0.0
  0
LINE
  5
28A
330
1F
100
AcDbEntity
  8
0
  6
Continuous
 62
     7
370
    15
100
AcDbLine
 10
36.3498557992
 20
138.4639731909
 30
0.0
 11
35.5712041158
 21
138.4639731909
 31
0.0
  0
SPLINE
  5
28B
330
1F
100
AcDbEntity
  8
0
  6
Continuous
 62
     7
370
    15
100
AcDbSpline
210
0.0
220
0.0
230
1.0
 70
     8
 71
     3
 72
    10
 73
     6
 74
     0
 42
0.000000001
 43
0.00000001
 40
0.0
 40
0.0
 40
0.0
 40
0.0
 40
0.606840847905529
 40
0.9873411522226669
 40
1.0
 40
1.0
 40
1.0
 40
1.0
 10
35.56965247659183
 20
138.8954180060295
 30
0.0
 10
35.5558035775769
 20
138.8091759245456
 30
0.0
 10
35.53327116573017
 20
138.6688584815186
 30
0.0
 10
35.55758055237423
 20
138.5229634257058
 30
0.0
 10
35.57077915038958
 20
138.4658132975112
 30
0.0
 10
35.57120411580693
 20
138.4639731908536
 30
0.0
  0
SPLINE
  5
28C
330
1F
100
AcDbEntity
  8
0
  6
Continuous
 62
     7
370
    15
100
AcDbSpline
210
0.0
220
0.0
230
1.0
 70
     8
 71
     3
 72
    16
 73
    12
 74
     0
 42
0.000000001
 43
0.00000001
 40
0.0
 40
0.0
 40
0.0
 40
0.0
 40
0.0316438967043518
 40
0.1442296906797963
 40
0.2602597186198065
 40
0.3918268288811928
 40
0.5492075381338453
 40
0.7249905054734774
 40
0.8558655534151743
 40
0.9874199933191
 40
0.9999999999999999
 40
0.9999999999999999
 40
0.9999999999999999
 40
0.9999999999999999
 10
35.56965247659131
 20
138.8954180060295
 30
0.0
 10
35.57523785318168
 20
138.9155145464998
 30
0.0
 10
35.60069543653445
 20
139.0071125517278
 30
0.0
 10
35.65248207492293
 20
139.1432878362995
 30
0.0
 10
35.70038028030667
 20
139.2626328228727
 30
0.0
 10
35.7009443677245
 20
139.3268457726782
 30
0.0
 10
35.62038846617197
 20
139.3376124698544
 30
0.0
 10
35.45040168032465
 20
139.284494918706
 30
0.0
 10
35.24217719225236
 20
139.1457561340733
 30
0.0
 10
35.11653279751538
 20
138.9960669022946
 30
0.0
 10
35.06566911858576
 20
138.9034974381517
 30
0.0
 10
35.06122975356296
 20
138.8954180060315
 30
0.0
  0
SPLINE
  5
28D
330
1F
100
AcDbEntity
  8
0
  6
Continuous
 62
     7
370
    15
100
AcDbSpline
210
0.0
220
0.0
230
1.0
 70
     8
 71
     3
 72
    10
 73
     6
 74
     0
 42
0.000000001
 43
0.00000001
 40
0.0
 40
0.0
 40
0.0
 40
0.0
 40
0.0126588477772891
 40
0.3931591520964982
 40
1.0
 40
1.0
 40
1.0
 40
1.0
 10
34.93567571202085
 20
138.4639731908536
 30
0.0
 10
34.93579348087414
 20
138.4658132975112
 30
0.0
 10
34.93945115203993
 20
138.5229634257068
 30
0.0
 10
34.95967552505981
 20
138.6688584815191
 30
0.0
 10
35.02257215102563
 20
138.8091759245472
 30
0.0
 10
35.06122975356296
 20
138.8954180060315
 30
0.0
  0
LINE
  5
28E
330
1F
100
AcDbEntity
  8
0
  6
Continuous
 62
     7
370
    15
100
AcDbLine
 10
35.889482924
 20
139.4639731909
 30
0.0
 11
48.889482924
 21
139.4639731909
 31
0.0
  0
LINE
  5
28F
330
1F
100
AcDbEntity
  8
0
  6
Continuous
 62
     7
370
    15
100
AcDbLine
 10
39.6288379945
 20
138.895418006
 30
0.0
 11
39.6288379945
 21
132.0325283757
 31
0.0
  0
LINE
  5
290
330
1F
100
AcDbEntity
  8
0
  6
Continuous
 62
     7
370
    15
100
AcDbLine
 10
41.4717925098
 20
132.0325283757
 30
0.0
 11
41.4717925098
 21
138.895418006
 31
0.0
  0
LINE
  5
291
330
1F
100
AcDbEntity
  8
0
  6
Continuous
 62
     7
370
    15
100
AcDbLine
 10
43.2206014753
 20
132.4639731909
 30
0.0
 11
43.2206014753
 21
138.4639731909
 31
0.0
  0
LINE
  5
292
330
1F
100
AcDbEntity
  8
0
  6
Continuous
 62
     7
370
    15
100
AcDbLine
 10
41.6860422412
 20
138.4639731909
 30
0.0
 11
41.6860422412
 21
132.4639731909
 31
0.0
  0
LINE
  5
293
330
1F
100
AcDbEntity
  8
0
  6
Continuous
 62
     7
370
    15
100
AcDbLine
 10
43.4327336783
 20
138.895418006
 30
0.0
 11
43.4327336783
 21
132.0325283757
 31
0.0
  0
LINE
  5
294
330
1F
100
AcDbEntity
  8
0
  6
Continuous
 62
     7
370
    15
100
AcDbLine
 10
45.2672562534
 20
132.0325283757
 30
0.0
 11
45.2672562534
 21
138.895418006
 31
0.0
  0
LINE
  5
295
330
1F
100
AcDbEntity
  8
0
  6
Continuous
 62
     7
370
    15
100
AcDbLine
 10
39.382349097
 20
132.4639731909
 30
0.0
 11
39.382349097
 21
138.4639731909
 31
0.0
  0
LINE
  5
296
330
1F
100
AcDbEntity
  8
0
  6
Continuous
 62
     7
370
    15
100
AcDbLine
 10
38.0468161511
 20
138.4639731909
 30
0.0
 11
38.0468161511
 21
132.4639731909
 31
0.0
  0
LINE
  5
297
330
1F
100
AcDbEntity
  8
0
  6
Continuous
 62
     7
370
    15
100
AcDbLine
 10
45.5137546941
 20
138.4639731909
 30
0.0
 11
45.5137546941
 21
132.4639731909
 31
0.0
  0
LINE
  5
298
330
1F
100
AcDbEntity
  8
0
  6
Continuous
 62
     7
370
    15
100
AcDbLine
 10
46.836156309
 20
132.4639731909
 30
0.0
 11
46.836156309
 21
138.4639731909
 31
0.0
  0
LINE
  5
299
330
1F
100
AcDbEntity
  8
0
  6
Continuous
 62
     7
370
    15
100
AcDbLine
 10
36.5646548902
 20
138.895418006
 30
0.0
 11
36.5646548902
 21
132.0325283757
 31
0.0
  0
LINE
  5
29A
330
1F
100
AcDbEntity
  8
0
  6
Continuous
 62
     7
370
    15
100
AcDbLine
 10
37.9222231717
 20
132.0325283757
 30
0.0
 11
37.9222231717
 21
138.895418006
 31
0.0
  0
LINE
  5
29B
330
1F
100
AcDbEntity
  8
0
  6
Continuous
 62
     7
370
    15
100
AcDbLine
 10
46.957091165
 20
138.895418006
 30
0.0
 11
46.957091165
 21
132.0325283757
 31
0.0
  0
LINE
  5
29C
330
1F
100
AcDbEntity
  8
0
  6
Continuous
 62
     7
370
    15
100
AcDbLine
 10
48.2916229573
 20
132.0325283757
 30
0.0
 11
48.2916229573
 21
138.895418006
 31
0.0
  0
LINE
  5
29D
330
1F
100
AcDbEntity
  8
0
  6
Continuous
 62
     7
370
    15
100
AcDbLine
 10
36.3498557992
 20
132.4639731909
 30
0.0
 11
36.3498557992
 21
138.4639731909
 31
0.0
  0
LINE
  5
29E
330
1F
100
AcDbEntity
  8
0
  6
Continuous
 62
     7
370
    15
100
AcDbLine
 10
48.5043210494
 20
138.4639731909
 30
0.0
 11
48.5043210494
 21
132.4639731909
 31
0.0
  0
LINE
  5
29F
330
1F
100
AcDbEntity
  8
0
  6
Continuous
 62
     7
370
    15
100
AcDbLine
 10
35.5712041158
 20
138.4639731909
 30
0.0
 11
35.5712041158
 21
132.4639731909
 31
0.0
  0
LINE
  5
2A0
330
1F
100
AcDbEntity
  8
0
  6
Continuous
 62
     7
370
    15
100
AcDbLine
 10
49.2602286002
 20
132.4639731909
 30
0.0
 11
49.2602286002
 21
138.4639731909
 31
0.0
  0
LINE
  5
2A1
330
1F
100
AcDbEntity
  8
0
  6
Continuous
 62
     7
370
    15
100
AcDbLine
 10
35.0612297536
 20
138.895418006
 30
0.0
 11
35.0612297536
 21
132.0325283757
 31
0.0
  0
LINE
  5
2A2
330
1F
100
AcDbEntity
  8
0
  6
Continuous
 62
     7
370
    15
100
AcDbLine
 10
49.7345160057
 20
132.0325283757
 30
0.0
 11
49.7345160057
 21
138.895418006
 31
0.0
  0
LINE
  5
2A3
330
1F
100
AcDbEntity
  8
0
  6
Continuous
 62
     7
370
    15
100
AcDbLine
 10
34.935675712
 20
132.4639731909
 30
0.0
 11
34.935675712
 21
138.4639731909
 31
0.0
  0
LINE
  5
2A4
330
1F
100
AcDbEntity
  8
0
  6
Continuous
 62
     7
370
    15
100
AcDbLine
 10
49.8564214671
 20
138.4639731909
 30
0.0
 11
49.8564214671
 21
132.4639731909
 31
0.0
  0
LINE
  5
2A5
330
1F
100
AcDbEntity
  8
0
  6
Continuous
 62
     7
370
    15
100
AcDbLine
 10
38.889482924
 20
130.8323905147
 30
0.0
 11
38.889482924
 21
72.8323905147
 31
0.0
  0
LINE
  5
2A6
330
1F
100
AcDbEntity
  8
0
  6
Continuous
 62
     7
370
    15
100
AcDbLine
 10
38.889482924
 20
72.8323905147
 30
0.0
 11
36.889482924
 21
72.8323905147
 31
0.0
  0
LINE
  5
2A7
330
1F
100
AcDbEntity
  8
0
  6
Continuous
 62
     7
370
    15
100
AcDbLine
 10
36.889482924
 20
72.8323905147
 30
0.0
 11
36.889482924
 21
130.8323905147
 31
0.0
  0
LINE
  5
2A8
330
1F
100
AcDbEntity
  8
0
  6
Continuous
 62
     7
370
    15
100
AcDbLine
 10
36.889482924
 20
130.8323905147
 30
0.0
 11
38.889482924
 21
130.8323905147
 31
0.0
  0
LINE
  5
2A9
330
1F
100
AcDbEntity
  8
0
  6
Continuous
 62
     7
370
    15
100
AcDbLine
 10
55.889482924
 20
130.8323905147
 30
0.0
 11
55.889482924
 21
72.8323905147
 31
0.0
  0
CIRCLE
  5
2AA
330
1F
100
AcDbEntity
  8
0
  6
Continuous
 62
     7
370
    15
100
AcDbCircle
 10
41.889482924
 20
92.8323905147
 30
0.0
 40
1.727200000000003
  0
LINE
  5
2AB
330
1F
100
AcDbEntity
  8
0
  6
Continuous
 62
     7
370
    15
100
AcDbLine
 10
55.889482924
 20
72.8323905147
 30
0.0
 11
38.889482924
 21
72.8323905147
 31
0.0
  0
LINE
  5
2AC
330
1F
100
AcDbEntity
  8
0
  6
Continuous
 62
     7
370
    15
100
AcDbLine
 10
55.889482924
 20
130.8323905147
 30
0.0
 11
38.889482924
 21
130.8323905147
 31
0.0
  0
LINE
  5
2AD
330
1F
100
AcDbEntity
  8
0
  6
Continuous
 62
     7
370
    15
100
AcDbLine
 10
38.889482924
 20
72.8323905147
 30
0.0
 11
38.889482924
 21
67.8323905147
 31
0.0
  0
LINE
  5
2AE
330
1F
100
AcDbEntity
  8
0
  6
Continuous
 62
     7
370
    15
100
AcDbLine
 10
36.889482924
 20
67.8323905147
 30
0.0
 11
36.889482924
 21
72.8323905147
 31
0.0
  0
LINE
  5
2AF
330
1F
100
AcDbEntity
  8
0
  6
Continuous
 62
     7
370
    15
100
AcDbLine
 10
38.889482924
 20
67.8323905147
 30
0.0
 11
36.889482924
 21
67.8323905147
 31
0.0
  0
LINE
  5
2B0
330
1F
100
AcDbEntity
  8
0
  6
Continuous
 62
     7
370
    15
100
AcDbLine
 10
55.889482924
 20
72.8323905147
 30
0.0
 11
55.889482924
 21
73.8323905147
 31
0.0
  0
LINE
  5
2B1
330
1F
100
AcDbEntity
  8
0
  6
Continuous
 62
     7
370
    15
100
AcDbLine
 10
55.889482924
 20
73.8323905147
 30
0.0
 11
66.889482924
 21
73.8323905147
 31
0.0
  0
LINE
  5
2B2
330
1F
100
AcDbEntity
  8
0
  6
Continuous
 62
     7
370
    15
100
AcDbLine
 10
66.889482924
 20
67.8323905147
 30
0.0
 11
66.889482924
 21
73.8323905147
 31
0.0
  0
LINE
  5
2B3
330
1F
100
AcDbEntity
  8
0
  6
Continuous
 62
     7
370
    15
100
AcDbLine
 10
38.889482924
 20
67.8323905147
 30
0.0
 11
66.889482924
 21
67.8323905147
 31
0.0
  0
LINE
  5
2B4
330
1F
100
AcDbEntity
  8
0
  6
Continuous
 62
     7
370
    15
100
AcDbLine
 10
71.889482924
 20
73.8323905147
 30
0.0
 11
71.889482924
 21
67.8323905147
 31
0.0
  0
LINE
  5
2B5
330
1F
100
AcDbEntity
  8
0
  6
Continuous
 62
     7
370
    15
100
AcDbLine
 10
66.889482924
 20
73.8323905147
 30
0.0
 11
71.889482924
 21
73.8323905147
 31
0.0
  0
LINE
  5
2B6
330
1F
100
AcDbEntity
  8
0
  6
Continuous
 62
     7
370
    15
100
AcDbLine
 10
71.889482924
 20
67.8323905147
 30
0.0
 11
66.889482924
 21
67.8323905147
 31
0.0
  0
LINE
  5
2B7
330
1F
100
AcDbEntity
  8
0
  6
Continuous
 62
     8
370
    15
100
AcDbLine
 10
34.889482924
 20
132.4639731909
 30
0.0
 11
34.935675712
 21
132.4639731909
 31
0.0
  0
LINE
  5
2B8
330
1F
100
AcDbEntity
  8
0
  6
Continuous
 62
     8
370
    15
100
AcDbLine
 10
49.8564214671
 20
132.4639731909
 30
0.0
 11
49.889482924
 21
132.4639731909
 31
0.0
  0
LINE
  5
2B9
330
1F
100
AcDbEntity
  8
0
  6
Continuous
 62
     8
370
    15
100
AcDbLine
 10
49.889482924
 20
138.4639731909
 30
0.0
 11
49.8564214671
 21
138.4639731909
 31
0.0
  0
LINE
  5
2BA
330
1F
100
AcDbEntity
  8
0
  6
Continuous
 62
     8
370
    15
100
AcDbLine
 10
34.935675712
 20
138.4639731909
 30
0.0
 11
34.889482924
 21
138.4639731909
 31
0.0
  0
LINE
  5
2BB
330
1F
100
AcDbEntity
  8
DIM
  6
CENTERX2
 62
     7
100
AcDbLine
 10
61.639482924
 20
69.8323905147
 30
0.0
 11
61.639482924
 21
67.8323905147
 31
0.0
  0
LINE
  5
2BC
330
1F
100
AcDbEntity
  8
DIM
  6
CENTERX2
 62
     7
100
AcDbLine
 10
66.139482924
 20
67.8323905147
 30
0.0
 11
66.139482924
 21
69.8323905147
 31
0.0
  0
LINE
  5
2BD
330
1F
100
AcDbEntity
  8
DIM
  6
CENTERX2
 62
     7
100
AcDbLine
 10
67.889482924
 20
69.8323905147
 30
0.0
 11
67.889482924
 21
73.8323905147
 31
0.0
  0
LINE
  5
2BE
330
1F
100
AcDbEntity
  8
DIM
  6
CENTERX2
 62
     7
100
AcDbLine
 10
59.889482924
 20
73.8323905147
 30
0.0
 11
59.889482924
 21
69.8323905147
 31
0.0
  0
LINE
  5
2BF
330
1F
100
AcDbEntity
  8
DIM
  6
CENTERX2
 62
     7
100
AcDbLine
 10
67.889482924
 20
69.8323905147
 30
0.0
 11
59.889482924
 21
69.8323905147
 31
0.0
  0
DIMENSION
  5
2C0
330
1F
100
AcDbEntity
  8
DIM
 62
     7
100
AcDbDimension
  2
_D_5
 10
36.889482924
 20
56.4695401648
 30
0.0
 11
46.389482924
 21
56.4695401648
 31
0.0
 70
   160
  1
<>
 71
     2
 42
-1.0
  3
SLDDIMSTYLE0
100
AcDbAlignedDimension
 13
55.889482924
 23
72.8323905147
 33
0.0
 14
36.889482924
 24
72.8323905147
 34
0.0
100
AcDbRotatedDimension
  0
DIMENSION
  5
2CA
330
1F
100
AcDbEntity
  8
DIM
 62
     7
100
AcDbDimension
  2
_D_6
 10
41.889482924
 20
61.5030183118
 30
0.0
 11
39.389482924
 21
61.5030183118
 31
0.0
 70
   160
  1
<>
 71
     2
 42
-1.0
  3
SLDDIMSTYLE3
100
AcDbAlignedDimension
 13
36.889482924
 23
72.8323905147
 33
0.0
 14
41.889482924
 24
92.8323905147
 34
0.0
100
AcDbRotatedDimension
  0
DIMENSION
  5
2D7
330
1F
100
AcDbEntity
  8
DIM
 62
     7
100
AcDbDimension
  2
_D_7
 10
36.889482924
 20
51.5227822195
 30
0.0
 11
50.389482924
 21
51.5227822195
 31
0.0
 70
   160
  1
<>
 71
     2
 42
-1.0
  3
SLDDIMSTYLE0
100
AcDbAlignedDimension
 13
63.889482924
 23
65.8323905147
 33
0.0
 14
36.889482924
 24
67.8323905147
 34
0.0
100
AcDbRotatedDimension
  0
DIMENSION
  5
2E1
330
1F
100
AcDbEntity
  8
DIM
 62
     7
100
AcDbDimension
  2
_D_8
 10
71.889482924
 20
46.5543553893
 30
0.0
 11
54.389482924
 21
46.5543553893
 31
0.0
 70
   160
  1
<>
 71
     2
 42
-1.0
  3
SLDDIMSTYLE0
100
AcDbAlignedDimension
 13
36.889482924
 23
67.8323905147
 33
0.0
 14
71.889482924
 24
67.8323905147
 34
0.0
100
AcDbRotatedDimension
  0
DIMENSION
  5
2EB
330
1F
100
AcDbEntity
  8
DIM
 62
     7
100
AcDbDimension
  2
_D_9
 10
78.5477273382
 20
67.8323905147
 30
0.0
 11
78.5477273382
 21
70.8323905147
 31
0.0
 70
   160
  1
<>
 71
     2
 42
-1.0
  3
SLDDIMSTYLE0
100
AcDbAlignedDimension
 13
71.889482924
 23
73.8323905147
 33
0.0
 14
71.889482924
 24
67.8323905147
 34
0.0
 50
90.0
100
AcDbRotatedDimension
  0
DIMENSION
  5
2F5
330
1F
100
AcDbEntity
  8
DIM
 62
     7
100
AcDbDimension
  2
_D_10
 10
30.3030078751
 20
67.8323905147
 30
0.0
 11
30.3030078751
 21
80.3323905147
 31
0.0
 70
   160
  1
<>
 71
     2
 42
-1.0
  3
SLDDIMSTYLE0
100
AcDbAlignedDimension
 13
41.889482924
 23
92.8323905147
 33
0.0
 14
36.889482924
 24
67.8323905147
 34
0.0
 50
90.0
100
AcDbRotatedDimension
  0
DIMENSION
  5
2FF
330
1F
100
AcDbEntity
  8
DIM
100
AcDbDimension
  2
_D_11
 10
40.3936838466
 20
91.9687905147
 30
0.0
 11
68.3384616662
 21
107.4159415123
 31
0.0
 70
   163
  1
1 HOLE,\P 8-32
 71
     1
 42
-1.0
  3
SLDDIMSTYLE4
100
AcDbDiametricDimension
 15
43.3852820014
 25
93.6959905147
 35
0.0
 40
0.0
  0
INSERT
  5
314
330
1F
100
AcDbEntity
  8
DIM
 62
     7
100
AcDbBlockReference
  2
SW_CENTERMARKSYMBOL_1
 10
41.889482924
 20
92.8323905147
 30
0.0
  0
LINE
  5
315
330
1F
100
AcDbEntity
  8
DIM
  6
CENTERX2
 62
     7
370
     0
100
AcDbLine
 10
63.889482924
 20
65.8323905147
 30
0.0
 11
63.889482924
 21
75.1040315021
 31
0.0
  0
LINE
  5
316
330
1F
100
AcDbEntity
  8
0
  6
Continuous
 62
     7
370
    15
100
AcDbLine
 10
239.0813021432
 20
146.3503380406
 30
0.0
 11
238.7936570721
 21
146.1842840756
 31
0.0
  0
LINE
  5
317
330
1F
100
AcDbEntity
  8
0
  6
Continuous
 62
     7
370
    15
100
AcDbLine
 10
243.3239428303
 20
143.9011137051
 30
0.0
 11
243.0362977592
 21
143.7350597402
 31
0.0
  0
SPLINE
  5
318
330
1F
100
AcDbEntity
  8
0
  6
Continuous
 62
     7
370
    15
100
AcDbSpline
210
0.0
220
0.0
230
1.0
 70
     8
 71
     3
 72
    10
 73
     6
 74
     0
 42
0.000000001
 43
0.00000001
 40
0.0
 40
0.0
 40
0.0
 40
0.0
 40
0.1130556215558999
 40
0.6549374415875187
 40
1.0
 40
1.0
 40
1.0
 40
1.0
 10
229.0819455039241
 20
180.1624931433244
 30
0.0
 10
229.0476813922199
 20
180.120403619545
 30
0.0
 10
228.8491875062111
 20
179.8765766904426
 30
0.0
 10
228.6421924708195
 20
179.4553434287259
 30
0.0
 10
228.5464342273854
 20
179.0633069877224
 30
0.0
 10
228.5091798230828
 20
178.9107866035683
 30
0.0
  0
SPLINE
  5
319
330
1F
100
AcDbEntity
  8
0
  6
Continuous
 62
     7
370
    15
100
AcDbSpline
210
0.0
220
0.0
230
1.0
 70
     8
 71
     3
 72
    12
 73
     8
 74
     0
 42
0.000000001
 43
0.00000001
 40
0.0
 40
0.0
 40
0.0
 40
0.0
 40
0.0556183031493701
 40
0.3529550636952433
 40
0.6521614262278731
 40
0.9532528940574482
 40
1.0
 40
1.0
 40
1.0
 40
1.0
 10
232.7536055993302
 20
182.4897964129711
 30
0.0
 10
232.6930909747265
 20
182.4748831302943
 30
0.0
 10
232.3090637395892
 20
182.3802430866569
 30
0.0
 10
231.6557676660085
 20
182.1260344698256
 30
0.0
 10
230.8296339138679
 20
181.717977991721
 30
0.0
 10
230.2775777639173
 20
181.3818966485081
 30
0.0
 10
230.0391708004061
 20
181.1644486938446
 30
0.0
 10
230.0071305483437
 20
181.1352251880574
 30
0.0
  0
SPLINE
  5
31A
330
1F
100
AcDbEntity
  8
0
  6
Continuous
 62
     7
370
    15
100
AcDbSpline
210
0.0
220
0.0
230
1.0
 70
     8
 71
     3
 72
    11
 73
     7
 74
     0
 42
0.000000001
 43
0.00000001
 40
0.0
 40
0.0
 40
0.0
 40
0.0
 40
0.1782836209937957
 40
0.4699083265865623
 40
0.7620176066428848
 40
1.0
 40
1.0
 40
1.0
 40
1.0
 10
236.1983499682256
 20
182.9091858452128
 30
0.0
 10
235.9874385449906
 20
182.9152324607568
 30
0.0
 10
235.4315319877987
 20
182.9311697351733
 30
0.0
 10
234.5340509519428
 20
182.8567666324858
 30
0.0
 10
233.5855140803614
 20
182.717142625628
 30
0.0
 10
233.0113666407911
 20
182.5602380515441
 30
0.0
 10
232.7536055993302
 20
182.4897964129711
 30
0.0
  0
SPLINE
  5
31B
330
1F
100
AcDbEntity
  8
0
  6
Continuous
 62
     7
370
    15
100
AcDbSpline
210
0.0
220
0.0
230
1.0
 70
     8
 71
     3
 72
    11
 73
     7
 74
     0
 42
0.000000001
 43
0.00000001
 40
0.0
 40
0.0
 40
0.0
 40
0.0
 40
0.1344672001220625
 40
0.4974425801483904
 40
0.8595297834163667
 40
1.0
 40
1.0
 40
1.0
 40
1.0
 10
238.96159995029
 20
182.5119708007656
 30
0.0
 10
238.8463229404553
 20
182.5468054442283
 30
0.0
 10
238.4198717824632
 20
182.6756713305328
 30
0.0
 10
237.6254498416784
 20
182.8082772340294
 30
0.0
 10
236.8120014594701
 20
182.9068337013219
 30
0.0
 10
236.3324029280017
 20
182.9086720163459
 30
0.0
 10
236.1983499682256
 20
182.9091858452128
 30
0.0
  0
SPLINE
  5
31C
330
1F
100
AcDbEntity
  8
0
  6
Continuous
 62
     7
370
    15
100
AcDbSpline
210
0.0
220
0.0
230
1.0
 70
     8
 71
     3
 72
    11
 73
     7
 74
     0
 42
0.000000001
 43
0.00000001
 40
0.0
 40
0.0
 40
0.0
 40
0.0
 40
0.2171799320410465
 40
0.513977891732091
 40
0.8122382518466156
 40
1.0
 40
1.0
 40
1.0
 40
1.0
 10
241.7247096943038
 20
181.1924462743891
 30
0.0
 10
241.5606957556365
 20
181.3176757807587
 30
0.0
 10
241.1725404706676
 20
181.6140438524383
 30
0.0
 10
240.4407650836796
 20
181.9961741849798
 30
0.0
 10
239.6814290043663
 20
182.316688417266
 30
0.0
 10
239.1621930043932
 20
182.4575519224265
 30
0.0
 10
238.96159995029
 20
182.5119708007656
 30
0.0
  0
SPLINE
  5
31D
330
1F
100
AcDbEntity
  8
0
  6
Continuous
 62
     7
370
    15
100
AcDbSpline
210
0.0
220
0.0
230
1.0
 70
     8
 71
     3
 72
    10
 73
     6
 74
     0
 42
0.000000001
 43
0.00000001
 40
0.0
 40
0.0
 40
0.0
 40
0.0
 40
0.2415909331970318
 40
0.7325184930552544
 40
1.0
 40
1.0
 40
1.0
 40
1.0
 10
243.2783085311373
 20
178.9947675971635
 30
0.0
 10
243.2525515028907
 20
179.103095824218
 30
0.0
 10
243.1744546171048
 20
179.4315536375442
 30
0.0
 10
242.9632183224137
 20
179.856103696295
 30
0.0
 10
242.7388672611557
 20
180.1461346459207
 30
0.0
 10
242.659741413936
 20
180.2484249782258
 30
0.0
  0
LINE
  5
31E
330
1F
100
AcDbEntity
  8
0
  6
Continuous
 62
     7
370
    15
100
AcDbLine
 10
230.058068914
 20
175.8101762994
 30
0.0
 11
230.058068914
 21
170.331131727
 31
0.0
  0
LINE
  5
31F
330
1F
100
AcDbEntity
  8
0
  6
Continuous
 62
     7
370
    15
100
AcDbLine
 10
241.8283003486
 20
170.3932799777
 30
0.0
 11
241.8283003486
 21
175.8583875105
 31
0.0
  0
SPLINE
  5
320
330
1F
100
AcDbEntity
  8
0
  6
Continuous
 62
     7
370
    15
100
AcDbSpline
210
0.0
220
0.0
230
1.0
 70
     8
 71
     3
 72
     9
 73
     5
 74
     0
 42
0.000000001
 43
0.00000001
 40
0.0
 40
0.0
 40
0.0
 40
0.0
 40
0.6790710014791337
 40
1.0
 40
1.0
 40
1.0
 40
1.0
 10
232.8610977962157
 20
168.9201602609268
 30
0.0
 10
233.1417795093265
 20
168.8473872234522
 30
0.0
 10
233.5551114179185
 20
168.7402216438352
 30
0.0
 10
233.988817560139
 20
168.6717470631726
 30
0.0
 10
234.1280064380142
 20
168.6497715845765
 30
0.0
  0
SPLINE
  5
321
330
1F
100
AcDbEntity
  8
0
  6
Continuous
 62
     7
370
    15
100
AcDbSpline
210
0.0
220
0.0
230
1.0
 70
     8
 71
     3
 72
    12
 73
     8
 74
     0
 42
0.000000001
 43
0.00000001
 40
0.0
 40
0.0
 40
0.0
 40
0.0
 40
0.0777942782166905
 40
0.3710955884883256
 40
0.6673176823853225
 40
0.9636608276987543
 40
1.0
 40
1.0
 40
1.0
 40
1.0
 10
230.084062340402
 20
170.2500332314109
 30
0.0
 10
230.1395569454783
 20
170.2026688418607
 30
0.0
 10
230.4042782540475
 20
169.9767304256115
 30
0.0
 10
230.9835179469812
 20
169.6378304675251
 30
0.0
 10
231.8175151415982
 20
169.2508471896089
 30
0.0
 10
232.4559147971563
 20
169.0136366443897
 30
0.0
 10
232.821197640754
 20
168.9293652923344
 30
0.0
 10
232.8610977962157
 20
168.9201602609268
 30
0.0
  0
SPLINE
  5
322
330
1F
100
AcDbEntity
  8
0
  6
Continuous
 62
     7
370
    15
100
AcDbSpline
210
0.0
220
0.0
230
1.0
 70
     8
 71
     3
 72
    11
 73
     7
 74
     0
 42
0.000000001
 43
0.00000001
 40
0.0
 40
0.0
 40
0.0
 40
0.0
 40
0.0108111587590137
 40
0.4990380541365158
 40
0.9957878239653182
 40
0.9999999999999999
 40
0.9999999999999999
 40
0.9999999999999999
 40
0.9999999999999999
 10
228.5150504976686
 20
172.44386351347
 30
0.0
 10
228.5158366681191
 20
172.4389624916066
 30
0.0
 10
228.5521259300353
 20
172.2127336045367
 30
0.0
 10
228.7609976789402
 20
171.7890451080816
 30
0.0
 10
228.9706871989813
 20
171.3729971325073
 30
0.0
 10
229.1335371147032
 20
171.1889792842503
 30
0.0
 10
229.1349063853992
 20
171.1874320298595
 30
0.0
  0
SPLINE
  5
323
330
1F
100
AcDbEntity
  8
0
  6
Continuous
 62
     7
370
    15
100
AcDbSpline
210
0.0
220
0.0
230
1.0
 70
     8
 71
     3
 72
    10
 73
     6
 74
     0
 42
0.000000001
 43
0.00000001
 40
0.0
 40
0.0
 40
0.0
 40
0.0
 40
0.3723574733542613
 40
0.9049520127585209
 40
1.0
 40
1.0
 40
1.0
 40
1.0
 10
242.7219031176224
 20
171.2803094139693
 30
0.0
 10
242.8225276286897
 20
171.4247502980685
 30
0.0
 10
243.0670785249103
 20
171.7757894960005
 30
0.0
 10
243.2550889419557
 20
172.2051920122247
 30
0.0
 10
243.2984499989911
 20
172.4867348311493
 30
0.0
 10
243.305016445688
 20
172.5293706901375
 30
0.0
  0
SPLINE
  5
324
330
1F
100
AcDbEntity
  8
0
  6
Continuous
 62
     7
370
    15
100
AcDbSpline
210
0.0
220
0.0
230
1.0
 70
     8
 71
     3
 72
    11
 73
     7
 74
     0
 42
0.000000001
 43
0.00000001
 40
0.0
 40
0.0
 40
0.0
 40
0.0
 40
0.1931877891507107
 40
0.4924084466809628
 40
0.7935848628689042
 40
1.0
 40
1.0
 40
1.0
 40
1.0
 10
239.0637158629418
 20
168.9587161104034
 30
0.0
 10
239.2688892070409
 20
169.0170029964152
 30
0.0
 10
239.7918471440426
 20
169.1655680539125
 30
0.0
 10
240.5534782244956
 20
169.4999453424177
 30
0.0
 10
241.2715991687832
 20
169.8886783583084
 30
0.0
 10
241.6453326426396
 20
170.1885368233208
 30
0.0
 10
241.7973135921888
 20
170.3104760592493
 30
0.0
  0
SPLINE
  5
325
330
1F
100
AcDbEntity
  8
0
  6
Continuous
 62
     7
370
    15
100
AcDbSpline
210
0.0
220
0.0
230
1.0
 70
     8
 71
     3
 72
    11
 73
     7
 74
     0
 42
0.000000001
 43
0.00000001
 40
0.0
 40
0.0
 40
0.0
 40
0.0
 40
0.1443583190767684
 40
0.5076309702461091
 40
0.8717728250909157
 40
1.0
 40
1.0
 40
1.0
 40
1.0
 10
236.3199026596032
 20
168.5366451361855
 30
0.0
 10
236.4571689881029
 20
168.5386196047715
 30
0.0
 10
236.9398612220113
 20
168.5455627543623
 30
0.0
 10
237.7533835391726
 20
168.6531863607103
 30
0.0
 10
238.5379224245665
 20
168.7928546983158
 30
0.0
 10
238.9550767725284
 20
168.9244459357896
 30
0.0
 10
239.0637158629418
 20
168.9587161104034
 30
0.0
  0
SPLINE
  5
326
330
1F
100
AcDbEntity
  8
0
  6
Continuous
 62
     7
370
    15
100
AcDbSpline
210
0.0
220
0.0
230
1.0
 70
     8
 71
     3
 72
     9
 73
     5
 74
     0
 42
0.000000001
 43
0.00000001
 40
0.0
 40
0.0
 40
0.0
 40
0.0
 40
0.5862654395625816
 40
1.0
 40
1.0
 40
1.0
 40
1.0
 10
234.1280064380142
 20
168.6497715845765
 30
0.0
 10
234.3072270062472
 20
168.6236888262794
 30
0.0
 10
234.6129256815208
 20
168.5791991522566
 30
0.0
 10
234.9260503690555
 20
168.5648532785161
 30
0.0
 10
235.0556008740148
 20
168.55891789475
 30
0.0
  0
LINE
  5
327
330
1F
100
AcDbEntity
  8
0
  6
Continuous
 62
     7
370
    15
100
AcDbLine
 10
228.5055165245
 20
177.5492857772
 30
0.0
 11
228.5055165245
 21
172.503983321
 31
0.0
  0
LINE
  5
328
330
1F
100
AcDbEntity
  8
0
  6
Continuous
 62
     7
370
    15
100
AcDbLine
 10
243.3226430794
 20
172.5816854131
 30
0.0
 11
243.3226430794
 21
177.6120458092
 31
0.0
  0
LINE
  5
329
330
1F
100
AcDbEntity
  8
0
  6
Continuous
 62
     7
370
    15
100
AcDbLine
 10
228.4859694152
 20
178.8605261499
 30
0.0
 11
228.4859694152
 21
173.8301657539
 31
0.0
  0
LINE
  5
32A
330
1F
100
AcDbEntity
  8
0
  6
Continuous
 62
     7
370
    15
100
AcDbLine
 10
243.3030959701
 20
178.0164287892
 30
0.0
 11
243.3030959701
 21
178.9382282421
 31
0.0
  0
SPLINE
  5
32B
330
1F
100
AcDbEntity
  8
0
  6
Continuous
 62
     7
370
    15
100
AcDbSpline
210
0.0
220
0.0
230
1.0
 70
     8
 71
     3
 72
    10
 73
     6
 74
     0
 42
0.000000001
 43
0.00000001
 40
0.0
 40
0.0
 40
0.0
 40
0.0
 40
0.1943884193191149
 40
0.7422659116797968
 40
1.0
 40
1.0
 40
1.0
 40
1.0
 10
247.6984509573369
 20
169.8407994476531
 30
0.0
 10
247.6343065576955
 20
169.7713224165651
 30
0.0
 10
247.3893732358147
 20
169.5060266134407
 30
0.0
 10
247.146120002964
 20
169.1002441640703
 30
0.0
 10
247.0331093460185
 20
168.7502488713947
 30
0.0
 10
246.9969545794576
 20
168.6382771472571
 30
0.0
  0
SPLINE
  5
32C
330
1F
100
AcDbEntity
  8
0
  6
Continuous
 62
     7
370
    15
100
AcDbSpline
210
0.0
220
0.0
230
1.0
 70
     8
 71
     3
 72
    12
 73
     8
 74
     0
 42
0.000000001
 43
0.00000001
 40
0.0
 40
0.0
 40
0.0
 40
0.0
 40
0.0908888883843109
 40
0.3899678781059708
 40
0.6908280707731913
 40
0.9936506476058335
 40
1.0
 40
1.0
 40
1.0
 40
1.0
 10
251.5609573537769
 20
171.984652006464
 30
0.0
 10
251.4610050236489
 20
171.9634844420785
 30
0.0
 10
251.0321495410404
 20
171.8726628871577
 30
0.0
 10
250.324636261349
 20
171.6286662623554
 30
0.0
 10
249.475234146819
 20
171.2440059771197
 30
0.0
 10
248.931938688759
 20
170.9498684136661
 30
0.0
 10
248.7069389058863
 20
170.7672337121761
 30
0.0
 10
248.7023181665015
 20
170.7634830091868
 30
0.0
  0
SPLINE
  5
32D
330
1F
100
AcDbEntity
  8
0
  6
Continuous
 62
     7
370
    15
100
AcDbSpline
210
0.0
220
0.0
230
1.0
 70
     8
 71
     3
 72
    11
 73
     7
 74
     0
 42
0.000000001
 43
0.00000001
 40
0.0
 40
0.0
 40
0.0
 40
0.0
 40
0.226770625586146
 40
0.513275866297953
 40
0.8001489339943014
 40
1.0
 40
1.0
 40
1.0
 40
1.0
 10
255.1017861222293
 20
172.275512584171
 30
0.0
 10
254.8296611935417
 20
172.2913933337708
 30
0.0
 10
254.213729751132
 20
172.3273380487763
 30
0.0
 10
253.2502867357689
 20
172.2766539933987
 30
0.0
 10
252.3322989616838
 20
172.1689273784759
 30
0.0
 10
251.7854825662524
 20
172.0382916216887
 30
0.0
 10
251.5609573537769
 20
171.984652006464
 30
0.0
  0
SPLINE
  5
32E
330
1F
100
AcDbEntity
  8
0
  6
Continuous
 62
     7
370
    15
100
AcDbSpline
210
0.0
220
0.0
230
1.0
 70
     8
 71
     3
 72
    11
 73
     7
 74
     0
 42
0.000000001
 43
0.00000001
 40
0.0
 40
0.0
 40
0.0
 40
0.0
 40
0.1832526292426766
 40
0.5536708872171052
 40
0.923074945467673
 40
1.0
 40
1.0
 40
1.0
 40
1.0
 10
257.764380729432
 20
171.7727598327315
 30
0.0
 10
257.6140317963228
 20
171.8240315895798
 30
0.0
 10
257.1597745912243
 20
171.9789416676545
 30
0.0
 10
256.3356122278236
 20
172.142737127946
 30
0.0
 10
255.5905239824832
 20
172.2582919462588
 30
0.0
 10
255.173636838192
 20
172.2729809301619
 30
0.0
 10
255.1017861222293
 20
172.275512584171
 30
0.0
  0
SPLINE
  5
32F
330
1F
100
AcDbEntity
  8
0
  6
Continuous
 62
     7
370
    15
100
AcDbSpline
210
0.0
220
0.0
230
1.0
 70
     8
 71
     3
 72
    11
 73
     7
 74
     0
 42
0.000000001
 43
0.00000001
 40
0.0
 40
0.0
 40
0.0
 40
0.0
 40
0.2584705982537575
 40
0.5528389263843194
 40
0.8496775992083182
 40
1.0
 40
1.0
 40
1.0
 40
1.0
 10
260.4110768248953
 20
170.3354347439587
 30
0.0
 10
260.2256072675786
 20
170.491989971475
 30
0.0
 10
259.8289091841731
 20
170.826843624017
 30
0.0
 10
259.0904568889483
 20
171.2524716485143
 30
0.0
 10
258.3912920067043
 20
171.5798217452577
 30
0.0
 10
257.9221069466741
 20
171.7242180441206
 30
0.0
 10
257.764380729432
 20
171.7727598327315
 30
0.0
  0
SPLINE
  5
330
330
1F
100
AcDbEntity
  8
0
  6
Continuous
 62
     7
370
    15
100
AcDbSpline
210
0.0
220
0.0
230
1.0
 70
     8
 71
     3
 72
    10
 73
     6
 74
     0
 42
0.000000001
 43
0.00000001
 40
0.0
 40
0.0
 40
0.0
 40
0.0
 40
0.3321863901275401
 40
0.851991309561344
 40
1.0
 40
1.0
 40
1.0
 40
1.0
 10
261.7303254280603
 20
168.074420029153
 30
0.0
 10
261.7068984375755
 20
168.2159898660861
 30
0.0
 10
261.646812916629
 20
168.5790880373166
 30
0.0
 10
261.482555506156
 20
168.9906101972089
 30
0.0
 10
261.3144006196831
 20
169.2390789808798
 30
0.0
 10
261.2771321600863
 20
169.2941475490287
 30
0.0
  0
SPLINE
  5
331
330
1F
100
AcDbEntity
  8
0
  6
Continuous
 62
     7
370
    15
100
AcDbSpline
210
0.0
220
0.0
230
1.0
 70
     8
 71
     3
 72
     9
 73
     5
 74
     0
 42
0.000000001
 43
0.00000001
 40
0.0
 40
0.0
 40
0.0
 40
0.0
 40
0.6696427729515262
 40
1.0
 40
1.0
 40
1.0
 40
1.0
 10
257.9453992983543
 20
158.4972020475092
 30
0.0
 10
258.2019334941974
 20
158.5889699635441
 30
0.0
 10
258.5850246081539
 20
158.7260100687189
 30
0.0
 10
258.9318627011714
 20
158.898094799924
 30
0.0
 10
259.0464431718155
 20
158.9549442345424
 30
0.0
  0
SPLINE
  5
332
330
1F
100
AcDbEntity
  8
0
  6
Continuous
 62
     7
370
    15
100
AcDbSpline
210
0.0
220
0.0
230
1.0
 70
     8
 71
     3
 72
    13
 73
     9
 74
     0
 42
0.000000001
 43
0.00000001
 40
0.0
 40
0.0
 40
0.0
 40
0.0
 40
0.0724810334295375
 40
0.2952101963880662
 40
0.5181050686255304
 40
0.7414277898654668
 40
0.9655708436957837
 40
1.0
 40
1.0
 40
1.0
 40
1.0
 10
253.4697982838813
 20
157.9429412071445
 30
0.0
 10
253.5808224807298
 20
157.9327523866741
 30
0.0
 10
254.0330162948168
 20
157.8912540311774
 30
0.0
 10
254.8400133213042
 20
157.9077174232077
 30
0.0
 10
255.8686371747894
 20
157.9913551397811
 30
0.0
 10
256.8635859935156
 20
158.1752275155208
 30
0.0
 10
257.5618053957188
 20
158.3462314519329
 30
0.0
 10
257.9003250565797
 20
158.4794622318366
 30
0.0
 10
257.9453992983543
 20
158.4972020475092
 30
0.0
  0
SPLINE
  5
333
330
1F
100
AcDbEntity
  8
0
  6
Continuous
 62
     7
370
    15
100
AcDbSpline
210
0.0
220
0.0
230
1.0
 70
     8
 71
     3
 72
    11
 73
     7
 74
     0
 42
0.000000001
 43
0.00000001
 40
0.0
 40
0.0
 40
0.0
 40
0.0
 40
0.0034926973582718
 40
0.3769441164992605
 40
0.7492836365953127
 40
1.0
 40
1.0
 40
1.0
 40
1.0
 10
250.8157473312039
 20
158.4298857269075
 30
0.0
 10
250.8185173802854
 20
158.4288349176336
 30
0.0
 10
251.1174707669112
 20
158.3154279050208
 30
0.0
 10
251.775258555888
 20
158.1655543214145
 30
0.0
 10
252.6613763538987
 20
157.9965643831495
 30
0.0
 10
253.2378332528338
 20
157.9583276052932
 30
0.0
 10
253.4697982838813
 20
157.9429412071445
 30
0.0
  0
SPLINE
  5
334
330
1F
100
AcDbEntity
  8
0
  6
Continuous
 62
     7
370
    15
100
AcDbSpline
210
0.0
220
0.0
230
1.0
 70
     8
 71
     3
 72
    11
 73
     7
 74
     0
 42
0.000000001
 43
0.00000001
 40
0.0
 40
0.0
 40
0.0
 40
0.0
 40
0.1216555852877063
 40
0.4124265260570039
 40
0.7071548324367684
 40
1.0
 40
1.0
 40
1.0
 40
1.0
 10
248.1725704914724
 20
159.8872527714502
 30
0.0
 10
248.2541518117196
 20
159.8096136778119
 30
0.0
 10
248.5307219373013
 20
159.5464081570812
 30
0.0
 10
249.1187804288698
 20
159.1672354830071
 30
0.0
 10
249.9139096554259
 20
158.7479496591842
 30
0.0
 10
250.5157777566999
 20
158.5356802673139
 30
0.0
 10
250.8157473312039
 20
158.4298857269075
 30
0.0
  0
SPLINE
  5
335
330
1F
100
AcDbEntity
  8
0
  6
Continuous
 62
     7
370
    15
100
AcDbSpline
210
0.0
220
0.0
230
1.0
 70
     8
 71
     3
 72
    10
 73
     6
 74
     0
 42
0.000000001
 43
0.00000001
 40
0.0
 40
0.0
 40
0.0
 40
0.0
 40
0.0883538520123046
 40
0.6074567679531507
 40
1.0
 40
1.0
 40
1.0
 40
1.0
 10
246.8415311589299
 20
162.1415793071854
 30
0.0
 10
246.8445912124654
 20
162.1036580794242
 30
0.0
 10
246.8656299129649
 20
161.8429393226524
 30
0.0
 10
247.0116712629349
 20
161.4253504473396
 30
0.0
 10
247.2122034437842
 20
161.0748763796975
 30
0.0
 10
247.2985500493984
 20
160.9239667054072
 30
0.0
  0
SPLINE
  5
336
330
1F
100
AcDbEntity
  8
0
  6
Continuous
 62
     7
370
    15
100
AcDbSpline
210
0.0
220
0.0
230
1.0
 70
     8
 71
     3
 72
    10
 73
     6
 74
     0
 42
0.000000001
 43
0.00000001
 40
0.0
 40
0.0
 40
0.0
 40
0.0
 40
0.4552633918520518
 40
0.9951205328531642
 40
1.0
 40
1.0
 40
1.0
 40
1.0
 10
260.8847524011538
 20
160.3720614079931
 30
0.0
 10
261.0192786443071
 20
160.5425128988506
 30
0.0
 10
261.3133278236729
 20
160.9150879431951
 30
0.0
 10
261.5409195278613
 20
161.3296196209833
 30
0.0
 10
261.5986125230473
 20
161.5702552361735
 30
0.0
 10
261.5991293068845
 20
161.5724107248282
 30
0.0
  0
SPLINE
  5
337
330
1F
100
AcDbEntity
  8
0
  6
Continuous
 62
     7
370
    15
100
AcDbSpline
210
0.0
220
0.0
230
1.0
 70
     8
 71
     3
 72
     9
 73
     5
 74
     0
 42
0.000000001
 43
0.00000001
 40
0.0
 40
0.0
 40
0.0
 40
0.0
 40
0.4883311396435198
 40
1.0
 40
1.0
 40
1.0
 40
1.0
 10
259.0464431718155
 20
158.9549442345424
 30
0.0
 10
259.1909253138987
 20
159.0302835337221
 30
0.0
 10
259.486794510749
 20
159.1845626551289
 30
0.0
 10
259.740875029098
 20
159.3703605882711
 30
0.0
 10
259.8708801183605
 20
159.4654276049786
 30
0.0
  0
LINE
  5
338
330
1F
100
AcDbEntity
  8
0
  6
Continuous
 62
     7
370
    15
100
AcDbLine
 10
259.8826663153
 20
159.5292760137
 30
0.0
 11
259.8826663153
 21
165.0515741497
 31
0.0
  0
LINE
  5
339
330
1F
100
AcDbEntity
  8
0
  6
Continuous
 62
     7
370
    15
100
AcDbLine
 10
248.1334157428
 20
165.4000802112
 30
0.0
 11
248.1334157428
 21
159.9785292389
 31
0.0
  0
LINE
  5
33A
330
1F
100
AcDbEntity
  8
0
  6
Continuous
 62
     7
370
    15
100
AcDbLine
 10
261.6136435029
 20
161.6499180108
 30
0.0
 11
261.6136435029
 21
166.7417664305
 31
0.0
  0
LINE
  5
33B
330
1F
100
AcDbEntity
  8
0
  6
Continuous
 62
     7
370
    15
100
AcDbLine
 10
246.8232207432
 20
167.1954420606
 30
0.0
 11
246.8232207432
 21
162.2116058318
 31
0.0
  0
LINE
  5
33C
330
1F
100
AcDbEntity
  8
0
  6
Continuous
 62
     7
370
    15
100
AcDbLine
 10
261.7549443731
 20
163.0201585951
 30
0.0
 11
261.7549443731
 21
168.0039948239
 31
0.0
  0
LINE
  5
33D
330
1F
100
AcDbEntity
  8
0
  6
Continuous
 62
     7
370
    15
100
AcDbLine
 10
246.9645216134
 20
168.5656826449
 30
0.0
 11
246.9645216134
 21
167.7534309611
 31
0.0
  0
LINE
  5
33E
330
1F
100
AcDbEntity
  8
0
  6
Continuous
 62
     7
370
    15
100
AcDbLine
 10
246.6573139408
 20
110.8560492902
 30
0.0
 11
248.2786749181
 21
111.7920410592
 31
0.0
  0
LINE
  5
33F
330
1F
100
AcDbEntity
  8
0
  6
Continuous
 62
     7
370
    15
100
AcDbLine
 10
227.0822510215
 20
150.853412237
 30
0.0
 11
224.4441917726
 21
149.3304930489
 31
0.0
  0
LINE
  5
340
330
1F
100
AcDbEntity
  8
0
  6
Continuous
 62
     7
370
    15
100
AcDbLine
 10
262.2994901982
 20
113.3542508759
 30
0.0
 11
262.2994901982
 21
160.7136179653
 31
0.0
  0
LINE
  5
341
330
1F
100
AcDbEntity
  8
0
  6
Continuous
 62
     7
370
    15
100
AcDbLine
 10
262.2994901982
 20
109.2715468165
 30
0.0
 11
262.2994901982
 21
113.3542508759
 31
0.0
  0
LINE
  5
342
330
1F
100
AcDbEntity
  8
0
  6
Continuous
 62
     7
370
    15
100
AcDbLine
 10
212.1659765459
 20
116.2118119673
 30
0.0
 11
212.1659765459
 21
111.312567096
 31
0.0
  0
SPLINE
  5
343
330
1F
100
AcDbEntity
  8
0
  6
Continuous
 62
     7
370
    15
100
AcDbSpline
210
0.0
220
0.0
230
1.0
 70
     8
 71
     3
 72
    10
 73
     6
 74
     0
 42
0.000000001
 43
0.00000001
 40
0.0
 40
0.0
 40
0.0
 40
0.0
 40
0.0126588477772862
 40
0.3931591520965064
 40
1.0
 40
1.0
 40
1.0
 40
1.0
 10
243.3192404473769
 20
177.5204780397171
 30
0.0
 10
243.319391135181
 20
177.5225678935241
 30
0.0
 10
243.3240712048321
 20
177.5874746816621
 30
0.0
 10
243.3254772187352
 20
177.7547429854071
 30
0.0
 10
243.2805076577889
 20
177.912721405229
 30
0.0
 10
243.2528684102672
 20
178.0098182982526
 30
0.0
  0
ARC
  5
344
330
1F
100
AcDbEntity
  8
0
  6
Continuous
 62
     7
370
    15
100
AcDbCircle
 10
240.4269182743
 20
178.3020966103
 30
0.0
 40
2.996073287306974
100
AcDbArc
 50
326.8288487072
 51
344.8776565085
  0
SPLINE
  5
345
330
1F
100
AcDbEntity
  8
0
  6
Continuous
 62
     7
370
    15
100
AcDbSpline
210
0.0
220
0.0
230
1.0
 70
     8
 71
     3
 72
    10
 73
     6
 74
     0
 42
0.000000001
 43
0.00000001
 40
0.0
 40
0.0
 40
0.0
 40
0.0
 40
0.6068408479055164
 40
0.9873411522226629
 40
1.0
 40
1.0
 40
1.0
 40
1.0
 10
242.7615476391125
 20
176.9138568126226
 30
0.0
 10
242.8081339024242
 20
176.8590239572551
 30
0.0
 10
242.8839306044008
 20
176.7698098992611
 30
0.0
 10
242.9231533182801
 20
176.6931698031449
 30
0.0
 10
242.934389406545
 20
176.6637662892408
 30
0.0
 10
242.9347511835256
 20
176.6628195616761
 30
0.0
  0
SPLINE
  5
346
330
1F
100
AcDbEntity
  8
0
  6
Continuous
 62
     7
370
    15
100
AcDbSpline
210
0.0
220
0.0
230
1.0
 70
     8
 71
     3
 72
    16
 73
    12
 74
     0
 42
0.000000001
 43
0.00000001
 40
0.0
 40
0.0
 40
0.0
 40
0.0
 40
0.0316438967043507
 40
0.1442296906797934
 40
0.260259718619806
 40
0.3918268288811931
 40
0.549207538133845
 40
0.7249905054734778
 40
0.8558655534151753
 40
0.9874199933191001
 40
1.0
 40
1.0
 40
1.0
 40
1.0
 10
242.7615476391137
 20
176.9138568126229
 30
0.0
 10
242.7484915489081
 20
176.9272892844069
 30
0.0
 10
242.6889832061324
 20
176.9885131364686
 30
0.0
 10
242.5492011494283
 20
177.0612903818505
 30
0.0
 10
242.3373900918113
 20
177.0755689966524
 30
0.0
 10
242.1168605774793
 20
177.0011530375878
 30
0.0
 10
241.922325781429
 20
176.8318754464258
 30
0.0
 10
241.8150744714159
 20
176.5878093438417
 30
0.0
 10
241.7943607911491
 20
176.2925695497651
 30
0.0
 10
241.8124487600289
 20
176.0782070420208
 30
0.0
 10
241.8229379483595
 20
175.9671500560713
 30
0.0
 10
241.8238534412371
 20
175.9574570391811
 30
0.0
  0
SPLINE
  5
347
330
1F
100
AcDbEntity
  8
0
  6
Continuous
 62
     7
370
    15
100
AcDbSpline
210
0.0
220
0.0
230
1.0
 70
     8
 71
     3
 72
    10
 73
     6
 74
     0
 42
0.000000001
 43
0.00000001
 40
0.0
 40
0.0
 40
0.0
 40
0.0
 40
0.0126588477772833
 40
0.3931591520965036
 40
1.0
 40
1.0
 40
1.0
 40
1.0
 10
241.7626334361815
 20
175.4673198448722
 30
0.0
 10
241.7632726348723
 20
175.4692875160533
 30
0.0
 10
241.7831249010283
 20
175.5303995498484
 30
0.0
 10
241.8260366908887
 20
175.6908126083519
 30
0.0
 10
241.8246845164027
 20
175.8559562491331
 30
0.0
 10
241.8238534412371
 20
175.9574570391811
 30
0.0
  0
ARC
  5
348
330
1F
100
AcDbEntity
  8
0
  6
Continuous
 62
     7
370
    15
100
AcDbCircle
 10
237.7084580766
 20
181.1390921508
 30
0.0
 40
6.97175293137772
100
AcDbArc
 50
295.2902733086
 51
305.5571345408
  0
SPLINE
  5
349
330
1F
100
AcDbEntity
  8
0
  6
Continuous
 62
     7
370
    15
100
AcDbSpline
210
0.0
220
0.0
230
1.0
 70
     8
 71
     3
 72
    10
 73
     6
 74
     0
 42
0.000000001
 43
0.00000001
 40
0.0
 40
0.0
 40
0.0
 40
0.0
 40
0.6068408479055162
 40
0.9873411522226749
 40
1.0
 40
1.0
 40
1.0
 40
1.0
 10
240.4491238324773
 20
175.150143272996
 30
0.0
 10
240.5029692012231
 20
175.0797752735265
 30
0.0
 10
240.5905766004328
 20
174.9652852521056
 30
0.0
 10
240.66134515614
 20
174.871631291055
 30
0.0
 10
240.6860267563077
 20
174.8366718934698
 30
0.0
 10
240.6868214487822
 20
174.8355462788426
 30
0.0
  0
SPLINE
  5
34A
330
1F
100
AcDbEntity
  8
0
  6
Continuous
 62
     7
370
    15
100
AcDbSpline
210
0.0
220
0.0
230
1.0
 70
     8
 71
     3
 72
    16
 73
    12
 74
     0
 42
0.000000001
 43
0.00000001
 40
0.0
 40
0.0
 40
0.0
 40
0.0
 40
0.0316438967043507
 40
0.1442296906797952
 40
0.2602597186198052
 40
0.3918268288811891
 40
0.5492075381338444
 40
0.7249905054734743
 40
0.85586555341517
 40
0.9874199933190969
 40
1.0
 40
1.0
 40
1.0
 40
1.0
 10
240.4491238324786
 20
175.1501432729958
 30
0.0
 10
240.4352383392462
 20
175.1677431706444
 30
0.0
 10
240.3719496610989
 20
175.2479617296151
 30
0.0
 10
240.2176225038272
 20
175.3662328988459
 30
0.0
 10
239.9621523641535
 20
175.452792333817
 30
0.0
 10
239.6613023153299
 20
175.4590253344428
 30
0.0
 10
239.3386012177528
 20
175.3697557445211
 30
0.0
 10
239.071894394701
 20
175.1835348981203
 30
0.0
 10
238.8963620337258
 20
174.9186511827779
 30
0.0
 10
238.8322266551819
 20
174.711411462247
 30
0.0
 10
238.8105891006192
 20
174.6020789476854
 30
0.0
 10
238.8087005820353
 20
174.5925364420859
 30
0.0
  0
SPLINE
  5
34B
330
1F
100
AcDbEntity
  8
0
  6
Continuous
 62
     7
370
    15
100
AcDbSpline
210
0.0
220
0.0
230
1.0
 70
     8
 71
     3
 72
    10
 73
     6
 74
     0
 42
0.000000001
 43
0.00000001
 40
0.0
 40
0.0
 40
0.0
 40
0.0
 40
0.0126588477772873
 40
0.3931591520964917
 40
1.0
 40
1.0
 40
1.0
 40
1.0
 10
238.6362923857296
 20
174.1385377402029
 30
0.0
 10
238.6372488225341
 20
174.1402585924601
 30
0.0
 10
238.66695388651
 20
174.1937049112894
 30
0.0
 10
238.7398732728898
 20
174.336200766044
 30
0.0
 10
238.7825007989256
 20
174.4949597795813
 30
0.0
 10
238.8087005820353
 20
174.5925364420859
 30
0.0
  0
ARC
  5
34C
330
1F
100
AcDbEntity
  8
0
  6
Continuous
 62
     7
370
    15
100
AcDbCircle
 10
235.9965644826
 20
185.897765138
 30
0.0
 40
12.05187090850097
100
AcDbArc
 50
275.5273939181
 51
282.6520988717
  0
SPLINE
  5
34D
330
1F
100
AcDbEntity
  8
0
  6
Continuous
 62
     7
370
    15
100
AcDbSpline
210
0.0
220
0.0
230
1.0
 70
     8
 71
     3
 72
    10
 73
     6
 74
     0
 42
0.000000001
 43
0.00000001
 40
0.0
 40
0.0
 40
0.0
 40
0.0
 40
0.6068408479055101
 40
0.9873411522226716
 40
1.0
 40
1.0
 40
1.0
 40
1.0
 10
236.9189198241489
 20
174.290189467033
 30
0.0
 10
236.9655964752571
 20
174.2042723419359
 30
0.0
 10
237.0415402398308
 20
174.0644836088904
 30
0.0
 10
237.1248922600144
 20
173.9469896951624
 30
0.0
 10
237.1564059572522
 20
173.9033377967669
 30
0.0
 10
237.1574206280137
 20
173.9019323030017
 30
0.0
  0
SPLINE
  5
34E
330
1F
100
AcDbEntity
  8
0
  6
Continuous
 62
     7
370
    15
100
AcDbSpline
210
0.0
220
0.0
230
1.0
 70
     8
 71
     3
 72
    16
 73
    12
 74
     0
 42
0.000000001
 43
0.00000001
 40
0.0
 40
0.0
 40
0.0
 40
0.0
 40
0.0316438967043519
 40
0.1442296906797958
 40
0.260259718619806
 40
0.3918268288811904
 40
0.5492075381338442
 40
0.7249905054734749
 40
0.8558655534151718
 40
0.9874199933190964
 40
1.0
 40
1.0
 40
1.0
 40
1.0
 10
236.9189198241499
 20
174.2901894670326
 30
0.0
 10
236.9079255345888
 20
174.3116378634359
 30
0.0
 10
236.8578146712694
 20
174.4093974917061
 30
0.0
 10
236.7302942505912
 20
174.5712659086222
 30
0.0
 10
236.4996180464766
 20
174.7330242958625
 30
0.0
 10
236.1990599907868
 20
174.832285373164
 30
0.0
 10
235.8346600901752
 20
174.8492991603098
 30
0.0
 10
235.4799616319374
 20
174.7591996294028
 30
0.0
 10
235.1966443446224
 20
174.5652925103908
 30
0.0
 10
235.0674706415419
 20
174.3879545685896
 30
0.0
 10
235.0195041093573
 20
174.2893886770088
 30
0.0
 10
235.0153176063413
 20
174.2807858786911
 30
0.0
  0
SPLINE
  5
34F
330
1F
100
AcDbEntity
  8
0
  6
Continuous
 62
     7
370
    15
100
AcDbSpline
210
0.0
220
0.0
230
1.0
 70
     8
 71
     3
 72
    10
 73
     6
 74
     0
 42
0.000000001
 43
0.00000001
 40
0.0
 40
0.0
 40
0.0
 40
0.0
 40
0.012658847777281
 40
0.393159152096498
 40
1.0
 40
1.0
 40
1.0
 40
1.0
 10
234.7779178557543
 20
173.8901778175724
 30
0.0
 10
234.778935254203
 20
173.8915933495389
 30
0.0
 10
234.8105336680956
 20
173.935557014914
 30
0.0
 10
234.8939219603014
 20
174.0538746076874
 30
0.0
 10
234.9691071756823
 20
174.1944099014917
 30
0.0
 10
235.0153176063413
 20
174.2807858786911
 30
0.0
  0
ARC
  5
350
330
1F
100
AcDbEntity
  8
0
  6
Continuous
 62
     7
370
    15
100
AcDbCircle
 10
235.8284688882
 20
186.0049708873
 30
0.0
 40
12.16025775199623
100
AcDbArc
 50
257.961652526
 51
265.0439152501
  0
SPLINE
  5
351
330
1F
100
AcDbEntity
  8
0
  6
Continuous
 62
     7
370
    15
100
AcDbSpline
210
0.0
220
0.0
230
1.0
 70
     8
 71
     3
 72
    10
 73
     6
 74
     0
 42
0.000000001
 43
0.00000001
 40
0.0
 40
0.0
 40
0.0
 40
0.0
 40
0.6068408479055134
 40
0.9873411522226627
 40
1.0
 40
1.0
 40
1.0
 40
1.0
 10
233.1168509272757
 20
174.5644193225696
 30
0.0
 10
233.1438518897766
 20
174.4671054659741
 30
0.0
 10
233.1877829493267
 20
174.3087740424554
 30
0.0
 10
233.2613843274906
 20
174.1670019843749
 30
0.0
 10
233.2912860520734
 20
174.1138501166121
 30
0.0
 10
233.2922488209108
 20
174.1121387450225
 30
0.0
  0
SPLINE
  5
352
330
1F
100
AcDbEntity
  8
0
  6
Continuous
 62
     7
370
    15
100
AcDbSpline
210
0.0
220
0.0
230
1.0
 70
     8
 71
     3
 72
    16
 73
    12
 74
     0
 42
0.000000001
 43
0.00000001
 40
0.0
 40
0.0
 40
0.0
 40
0.0
 40
0.0316438967043512
 40
0.1442296906797935
 40
0.2602597186198061
 40
0.3918268288811881
 40
0.5492075381338443
 40
0.724990505473478
 40
0.855865553415175
 40
0.9874199933190984
 40
1.0
 40
1.0
 40
1.0
 40
1.0
 10
233.1168509272762
 20
174.5644193225689
 30
0.0
 10
233.1116937523957
 20
174.5883660884841
 30
0.0
 10
233.0881878692627
 20
174.6975130330911
 30
0.0
 10
233.0216431789173
 20
174.8894001742193
 30
0.0
 10
232.8775704129674
 20
175.1091261472965
 30
0.0
 10
232.657838638712
 20
175.2888676202403
 30
0.0
 10
232.3493805941569
 20
175.4099616152268
 30
0.0
 10
232.0017316661743
 20
175.4285038302623
 30
0.0
 10
231.6865440908575
 20
175.3271757035084
 30
0.0
 10
231.5269440526642
 20
175.1945063744903
 30
0.0
 10
231.4655011364202
 20
175.1128643495503
 30
0.0
 10
231.4601384190743
 20
175.1057386606985
 30
0.0
  0
SPLINE
  5
353
330
1F
100
AcDbEntity
  8
0
  6
Continuous
 62
     7
370
    15
100
AcDbSpline
210
0.0
220
0.0
230
1.0
 70
     8
 71
     3
 72
    10
 73
     6
 74
     0
 42
0.000000001
 43
0.00000001
 40
0.0
 40
0.0
 40
0.0
 40
0.0
 40
0.0126588477772939
 40
0.3931591520964933
 40
1.0
 40
1.0
 40
1.0
 40
1.0
 10
231.221358185659
 20
174.7887879176817
 30
0.0
 10
231.2221639346594
 20
174.7899214383161
 30
0.0
 10
231.2471889289843
 20
174.8251263810836
 30
0.0
 10
231.3187023014607
 20
174.9194831994164
 30
0.0
 10
231.4062993884429
 20
175.0348387119837
 30
0.0
 10
231.4601384190743
 20
175.1057386606985
 30
0.0
  0
ARC
  5
354
330
1F
100
AcDbEntity
  8
0
  6
Continuous
 62
     7
370
    15
100
AcDbCircle
 10
234.1907062235
 20
181.2959494743
 30
0.0
 40
7.152634430297533
100
AcDbArc
 50
235.3790567799
 51
245.471836977
  0
SPLINE
  5
355
330
1F
100
AcDbEntity
  8
0
  6
Continuous
 62
     7
370
    15
100
AcDbSpline
210
0.0
220
0.0
230
1.0
 70
     8
 71
     3
 72
    10
 73
     6
 74
     0
 42
0.000000001
 43
0.00000001
 40
0.0
 40
0.0
 40
0.0
 40
0.0
 40
0.6068408479055313
 40
0.9873411522226597
 40
1.0
 40
1.0
 40
1.0
 40
1.0
 10
230.0616784323426
 20
175.8993531712741
 30
0.0
 10
230.0617688201392
 20
175.7978487223108
 30
0.0
 10
230.0619158827363
 20
175.6326991284082
 30
0.0
 10
230.1060451890405
 20
175.4727160434732
 30
0.0
 10
230.1263227980135
 20
175.4118022469062
 30
0.0
 10
230.1269756917943
 20
175.4098409585216
 30
0.0
  0
SPLINE
  5
356
330
1F
100
AcDbEntity
  8
0
  6
Continuous
 62
     7
370
    15
100
AcDbSpline
210
0.0
220
0.0
230
1.0
 70
     8
 71
     3
 72
    16
 73
    12
 74
     0
 42
0.000000001
 43
0.00000001
 40
0.0
 40
0.0
 40
0.0
 40
0.0
 40
0.0316438967043499
 40
0.1442296906797911
 40
0.260259718619802
 40
0.3918268288811927
 40
0.5492075381338443
 40
0.7249905054734763
 40
0.8558655534151751
 40
0.9874199933190962
 40
1.0
 40
1.0
 40
1.0
 40
1.0
 10
230.0616784323424
 20
175.8993531712734
 30
0.0
 10
230.0637402329869
 20
175.9237787413644
 30
0.0
 10
230.0731377124432
 20
176.0351080271289
 30
0.0
 10
230.0853993484692
 20
176.2353918760859
 30
0.0
 10
230.0665342019716
 20
176.4803217007553
 30
0.0
 10
229.9865056606137
 20
176.7064312312892
 30
0.0
 10
229.8166405560526
 20
176.9015140572506
 30
0.0
 10
229.5691934078278
 20
177.0121079805877
 30
0.0
 10
229.3065898007796
 20
177.0001547758081
 30
0.0
 10
229.1593281288192
 20
176.9149519749044
 30
0.0
 10
229.1008724083041
 20
176.8518563238658
 30
0.0
 10
229.0957704124104
 20
176.8463493563753
 30
0.0
  0
SPLINE
  5
357
330
1F
100
AcDbEntity
  8
0
  6
Continuous
 62
     7
370
    15
100
AcDbSpline
210
0.0
220
0.0
230
1.0
 70
     8
 71
     3
 72
    10
 73
     6
 74
     0
 42
0.000000001
 43
0.00000001
 40
0.0
 40
0.0
 40
0.0
 40
0.0
 40
0.0126588477772927
 40
0.393159152096509
 40
1.0
 40
1.0
 40
1.0
 40
1.0
 10
228.919590666879
 20
176.5935861898961
 30
0.0
 10
228.919968866637
 20
176.5945365728656
 30
0.0
 10
228.9317150143748
 20
176.6240536165201
 30
0.0
 10
228.972191516718
 20
176.7010874181164
 30
0.0
 10
229.0487289065855
 20
176.7910539899904
 30
0.0
 10
229.0957704124104
 20
176.8463493563753
 30
0.0
  0
ARC
  5
358
330
1F
100
AcDbEntity
  8
0
  6
Continuous
 62
     7
370
    15
100
AcDbCircle
 10
231.4435827821
 20
178.3305414843
 30
0.0
 40
3.063910881943262
100
AcDbArc
 50
196.7541619991
 51
214.5348846952
  0
SPLINE
  5
359
330
1F
100
AcDbEntity
  8
0
  6
Continuous
 62
     7
370
    15
100
AcDbSpline
210
0.0
220
0.0
230
1.0
 70
     8
 71
     3
 72
    10
 73
     6
 74
     0
 42
0.000000001
 43
0.00000001
 40
0.0
 40
0.0
 40
0.0
 40
0.0
 40
0.6068408479055323
 40
0.9873411522226745
 40
1.0
 40
1.0
 40
1.0
 40
1.0
 10
228.5720333421046
 20
177.9372965664373
 30
0.0
 10
228.5451889358597
 20
177.8399305300776
 30
0.0
 10
228.5015125961999
 20
177.6815142091286
 30
0.0
 10
228.5043454186573
 20
177.5142668447758
 30
0.0
 10
228.5095655430719
 20
177.4494089625225
 30
0.0
 10
228.5097336194349
 20
177.4473206833759
 30
0.0
  0
SPLINE
  5
35A
330
1F
100
AcDbEntity
  8
0
  6
Continuous
 62
     7
370
    15
100
AcDbSpline
210
0.0
220
0.0
230
1.0
 70
     8
 71
     3
 72
    16
 73
    12
 74
     0
 42
0.000000001
 43
0.00000001
 40
0.0
 40
0.0
 40
0.0
 40
0.0
 40
0.0316438967043474
 40
0.1442296906797939
 40
0.2602597186198059
 40
0.3918268288811949
 40
0.5492075381338434
 40
0.7249905054734777
 40
0.8558655534151762
 40
0.9874199933191007
 40
1.0
 40
1.0
 40
1.0
 40
1.0
 10
228.5720333421039
 20
177.9372965664367
 30
0.0
 10
228.5807616604557
 20
177.9600530801751
 30
0.0
 10
228.6205444554701
 20
178.0637749753674
 30
0.0
 10
228.7083269223964
 20
178.2485836246878
 30
0.0
 10
228.8197242961202
 20
178.4792002150247
 30
0.0
 10
228.9008425706882
 20
178.7051411815105
 30
0.0
 10
228.9150856237103
 20
178.9242962140723
 30
0.0
 10
228.8341435187795
 20
179.0856866271687
 30
0.0
 10
228.694488304438
 20
179.1359563359129
 30
0.0
 10
228.5990236447885
 20
179.0882993605788
 30
0.0
 10
228.5592182831073
 20
179.0404031047933
 30
0.0
 10
228.5557440843453
 20
179.036222735478
 30
0.0
  0
SPLINE
  5
35B
330
1F
100
AcDbEntity
  8
0
  6
Continuous
 62
     7
370
    15
100
AcDbSpline
210
0.0
220
0.0
230
1.0
 70
     8
 71
     3
 72
     9
 73
     5
 74
     0
 42
0.000000001
 43
0.00000001
 40
0.0
 40
0.0
 40
0.0
 40
0.0
 40
0.25608986805344
 40
1.0
 40
1.0
 40
1.0
 40
1.0
 10
228.4895620137085
 20
178.8605576815486
 30
0.0
 10
228.4888929436223
 20
178.8754969763259
 30
0.0
 10
228.486280305757
 20
178.9338331178172
 30
0.0
 10
228.5261125065773
 20
178.9925457864261
 30
0.0
 10
228.5557440843453
 20
179.036222735478
 30
0.0
  0
SPLINE
  5
35C
330
1F
100
AcDbEntity
  8
0
  6
Continuous
 62
     7
370
    15
100
AcDbSpline
210
0.0
220
0.0
230
1.0
 70
     8
 71
     3
 72
    16
 73
    12
 74
     0
 42
0.000000001
 43
0.00000001
 40
0.0
 40
0.0
 40
0.0
 40
0.0
 40
0.0316438967043531
 40
0.1442296906797965
 40
0.2602597186198046
 40
0.3918268288811916
 40
0.549207538133844
 40
0.7249905054734738
 40
0.8558655534151706
 40
0.9874199933190948
 40
0.9999999999999999
 40
0.9999999999999999
 40
0.9999999999999999
 40
0.9999999999999999
 10
229.0470648554988
 20
180.1321842211045
 30
0.0
 10
229.0601209457044
 20
180.1515710402638
 30
0.0
 10
229.1196292884801
 20
180.2399342073141
 30
0.0
 10
229.2594113451842
 20
180.389542316778
 30
0.0
 10
229.4712224028012
 20
180.5701638064381
 30
0.0
 10
229.6917519171332
 20
180.7494447538382
 30
0.0
 10
229.8862867131836
 20
180.9363052403075
 30
0.0
 10
229.9935380231966
 20
181.0936260462114
 30
0.0
 10
230.0142517034634
 20
181.1622940805998
 30
0.0
 10
229.9961637345837
 20
181.1322018546501
 30
0.0
 10
229.9856745462531
 20
181.0920853497853
 30
0.0
 10
229.9847590533754
 20
181.0885839945495
 30
0.0
  0
SPLINE
  5
35D
330
1F
100
AcDbEntity
  8
0
  6
Continuous
 62
     7
370
    15
100
AcDbSpline
210
0.0
220
0.0
230
1.0
 70
     8
 71
     3
 72
    15
 73
    11
 74
     0
 42
0.000000001
 43
0.00000001
 40
0.0
 40
0.0
 40
0.0
 40
0.0
 40
0.0139165702888964
 40
0.1476151651740698
 40
0.2992167642372407
 40
0.4805627490885939
 40
0.6831132108553148
 40
0.8339173632457749
 40
0.9855043625624897
 40
1.0
 40
1.0
 40
1.0
 40
1.0
 10
241.730176984803
 20
181.1992927870128
 30
0.0
 10
241.7297056225321
 20
181.2005612471805
 30
0.0
 10
241.7247058116569
 20
181.2140159959648
 30
0.0
 10
241.7439229961754
 20
181.1592797893121
 30
0.0
 10
241.8214740900906
 20
181.0462696357216
 30
0.0
 10
241.9921797365606
 20
180.8659759631703
 30
0.0
 10
242.2393768928475
 20
180.6694676510988
 30
0.0
 10
242.5020331367345
 20
180.454674145078
 30
0.0
 10
242.6492841843769
 20
180.2954575247475
 30
0.0
 10
242.7077400717455
 20
180.2073791303941
 30
0.0
 10
242.7128420822021
 20
180.1996916773552
 30
0.0
  0
SPLINE
  5
35E
330
1F
100
AcDbEntity
  8
0
  6
Continuous
 62
     7
370
    15
100
AcDbSpline
210
0.0
220
0.0
230
1.0
 70
     8
 71
     3
 72
     9
 73
     5
 74
     0
 42
0.000000001
 43
0.00000001
 40
0.0
 40
0.0
 40
0.0
 40
0.0
 40
0.7635661240829736
 40
1.0
 40
1.0
 40
1.0
 40
1.0
 10
243.2365791525079
 20
179.10874446729
 30
0.0
 10
243.2656223198356
 20
179.0653565518472
 30
0.0
 10
243.3036585375404
 20
179.0085338169533
 30
0.0
 10
243.3002700079689
 20
178.9516690073038
 30
0.0
 10
243.2994688447886
 20
178.9382242399551
 30
0.0
  0
SPLINE
  5
35F
330
1F
100
AcDbEntity
  8
0
  6
Continuous
 62
     7
370
    15
100
AcDbSpline
210
0.0
220
0.0
230
1.0
 70
     8
 71
     3
 72
    16
 73
    12
 74
     0
 42
0.000000001
 43
0.00000001
 40
0.0
 40
0.0
 40
0.0
 40
0.0
 40
0.0316438967043499
 40
0.1442296906797927
 40
0.2602597186198035
 40
0.3918268288811915
 40
0.5492075381338439
 40
0.7249905054734775
 40
0.8558655534151729
 40
0.9874199933190985
 40
1.0
 40
1.0
 40
1.0
 40
1.0
 10
243.2365791525087
 20
179.1087444672906
 30
0.0
 10
243.2278508341568
 20
179.1188072444955
 30
0.0
 10
243.1880680391424
 20
179.1646723684153
 30
0.0
 10
243.1002855722161
 20
179.2022490739407
 30
0.0
 10
242.9888881984924
 20
179.1665325880658
 30
0.0
 10
242.9077699239242
 20
179.0454566099155
 30
0.0
 10
242.8935268709022
 20
178.8438844726609
 30
0.0
 10
242.974468975833
 20
178.5957487628844
 30
0.0
 10
243.1141241901745
 20
178.318907294452
 30
0.0
 10
243.209588849824
 20
178.122109536092
 30
0.0
 10
243.2493942115053
 20
178.0188323010633
 30
0.0
 10
243.2528684102672
 20
178.0098182982526
 30
0.0
  0
LWPOLYLINE
  5
360
330
1F
100
AcDbEntity
  8
0
  6
Continuous
 62
     7
370
    15
100
AcDbPolyline
 90
       41
 70
   128
 43
0.0
 10
234.2757677947
 20
175.3545803117
 10
235.2802103436
 20
175.252235185
 10
236.3000202049
 20
175.2418589874
 10
237.3100862753
 20
175.3237072153
 10
238.2855373759
 20
175.4957644938
 10
239.2023546633
 20
175.7537942015
 10
240.037963053
 20
176.0914427908
 10
240.7717870934
 20
176.5003962328
 10
241.3857576011
 20
176.9705847364
 10
241.8647565846
 20
177.4904307004
 10
242.1969894992
 20
178.0471337917
 10
242.3742756679
 20
178.6269861327
 10
242.3922497168
 20
179.2157098343
 10
242.2504690653
 20
179.7988085651
 10
241.9524248235
 20
180.3619244993
 10
241.5054558298
 20
180.8911918535
 10
240.9205679443
 20
181.373578309
 10
240.2121630477
 20
181.7972059103
 10
239.3976844198
 20
182.15164354
 10
238.4971872274
 20
182.4281637673
 10
237.5328447
 20
182.6199577464
 10
236.528402151
 20
182.7223028731
 10
235.5085922897
 20
182.7326790707
 10
234.4985262193
 20
182.6508308428
 10
233.5230751187
 20
182.4787735644
 10
232.6062578314
 20
182.2207438566
 10
231.7706494416
 20
181.8830952674
 10
231.0368254012
 20
181.4741418254
 10
230.4228548935
 20
181.0039533217
 10
229.94385591
 20
180.4841073578
 10
229.6116229954
 20
179.9274042665
 10
229.4343368267
 20
179.3475519255
 10
229.4163627778
 20
178.7588282239
 10
229.5581434293
 20
178.175729493
 10
229.8561876711
 20
177.6126135589
 10
230.3031566648
 20
177.0833462047
 10
230.8880445503
 20
176.6009597492
 10
231.5964494469
 20
176.1773321478
 10
232.4109280748
 20
175.8228945181
 10
233.3114252672
 20
175.5463742909
 10
234.2757677947
 20
175.3545803117
  0
LWPOLYLINE
  5
361
330
1F
100
AcDbEntity
  8
0
  6
Continuous
 62
     7
370
    15
100
AcDbPolyline
 90
       25
 70
   128
 43
0.0
 10
235.3155269606
 20
177.673912339
 10
235.924414626
 20
177.6306925714
 10
236.5319319387
 20
177.6799212475
 10
237.0966775977
 20
177.8182435145
 10
237.5801651196
 20
178.0362329384
 10
237.9494456289
 20
178.3190339002
 10
238.1793532691
 20
178.6473739817
 10
238.2542202145
 20
178.998877349
 10
238.1689444064
 20
179.3495896285
 10
237.9293372502
 20
179.6756103579
 10
237.5517275777
 20
179.9547217633
 10
237.0618488641
 20
180.1679028636
 10
236.493085534
 20
180.3006257192
 10
235.8841978686
 20
180.3438454868
 10
235.2766805559
 20
180.2946168106
 10
234.7119348969
 20
180.1562945437
 10
234.228447375
 20
179.9383051198
 10
233.8591668657
 20
179.655504158
 10
233.6292592255
 20
179.3271640764
 10
233.5543922801
 20
178.9756607091
 10
233.6396680882
 20
178.6249484297
 10
233.8792752444
 20
178.2989277003
 10
234.2568849169
 20
178.0198162949
 10
234.7467636305
 20
177.8066351946
 10
235.3155269606
 20
177.673912339
  0
LINE
  5
362
330
1F
100
AcDbEntity
  8
0
  6
Continuous
 62
     7
370
    15
100
AcDbLine
 10
235.0153176063
 20
174.2807858787
 30
0.0
 11
235.0153176063
 21
168.676956408
 31
0.0
  0
LINE
  5
363
330
1F
100
AcDbEntity
  8
0
  6
Continuous
 62
     7
370
    15
100
AcDbLine
 10
236.9189198241
 20
168.6863599964
 30
0.0
 11
236.9189198241
 21
174.290189467
 31
0.0
  0
SPLINE
  5
364
330
1F
100
AcDbEntity
  8
0
  6
Continuous
 62
     7
370
    15
100
AcDbSpline
210
0.0
220
0.0
230
1.0
 70
     8
 71
     3
 72
    16
 73
    12
 74
     0
 42
0.000000001
 43
0.00000001
 40
0.0
 40
0.0
 40
0.0
 40
0.0
 40
0.0316438967043525
 40
0.1442296906797944
 40
0.2602597186198074
 40
0.3918268288811914
 40
0.5492075381338446
 40
0.7249905054734801
 40
0.855865553415176
 40
0.9874199933191004
 40
1.0
 40
1.0
 40
1.0
 40
1.0
 10
235.0153176063403
 20
168.6769564080391
 30
0.0
 10
235.0261609192116
 20
168.665693388885
 30
0.0
 10
235.0755836460008
 20
168.6143576831752
 30
0.0
 10
235.2015831816143
 20
168.555093106313
 30
0.0
 10
235.4303192756874
 20
168.5242208359809
 30
0.0
 10
235.7294451509153
 20
168.5215792984773
 30
0.0
 10
236.0935479504375
 20
168.5246089145846
 30
0.0
 10
236.449579621107
 20
168.5247656100537
 30
0.0
 10
236.7352453244628
 20
168.5602409649476
 30
0.0
 10
236.8660337878
 20
168.6286419417269
 30
0.0
 10
236.9146744806165
 20
168.6817267701664
 30
0.0
 10
236.9189198241489
 20
168.6863599963815
 30
0.0
  0
LINE
  5
365
330
1F
100
AcDbEntity
  8
0
  6
Continuous
 62
     7
370
    15
100
AcDbLine
 10
238.808700582
 20
174.5925364421
 30
0.0
 11
238.808700582
 21
168.9887069714
 31
0.0
  0
LINE
  5
366
330
1F
100
AcDbEntity
  8
0
  6
Continuous
 62
     7
370
    15
100
AcDbLine
 10
240.4491238325
 20
169.5463138023
 30
0.0
 11
240.4491238325
 21
175.150143273
 31
0.0
  0
SPLINE
  5
367
330
1F
100
AcDbEntity
  8
0
  6
Continuous
 62
     7
370
    15
100
AcDbSpline
210
0.0
220
0.0
230
1.0
 70
     8
 71
     3
 72
    16
 73
    12
 74
     0
 42
0.000000001
 43
0.00000001
 40
0.0
 40
0.0
 40
0.0
 40
0.0
 40
0.031643896704349
 40
0.1442296906797929
 40
0.2602597186198021
 40
0.3918268288811904
 40
0.5492075381338417
 40
0.7249905054734719
 40
0.8558655534151713
 40
0.9874199933190974
 40
1.0
 40
1.0
 40
1.0
 40
1.0
 10
238.8087005820349
 20
168.9887069714336
 30
0.0
 10
238.8136335743184
 20
168.9798842907361
 30
0.0
 10
238.8361176557775
 20
168.9396714016646
 30
0.0
 10
238.9002605269924
 20
168.9098187703166
 30
0.0
 10
239.0406874967233
 20
168.936050036747
 30
0.0
 10
239.2566131975767
 20
169.0130786219972
 30
0.0
 10
239.5616970206777
 20
169.1196205519103
 30
0.0
 10
239.9074596607011
 20
169.2283334415107
 30
0.0
 10
240.2222466102787
 20
169.3566890802219
 30
0.0
 10
240.3821328146252
 20
169.4700527122599
 30
0.0
 10
240.4437462337009
 20
169.5401920630743
 30
0.0
 10
240.4491238324773
 20
169.5463138023445
 30
0.0
  0
LINE
  5
368
330
1F
100
AcDbEntity
  8
0
  6
Continuous
 62
     7
370
    15
100
AcDbLine
 10
234.7779178558
 20
168.9909329463
 30
0.0
 11
234.7779178558
 21
173.8901778176
 31
0.0
  0
SPLINE
  5
369
330
1F
100
AcDbEntity
  8
0
  6
Continuous
 62
     7
370
    15
100
AcDbSpline
210
0.0
220
0.0
230
1.0
 70
     8
 71
     3
 72
    10
 73
     6
 74
     0
 42
0.000000001
 43
0.00000001
 40
0.0
 40
0.0
 40
0.0
 40
0.0
 40
0.6068408479055171
 40
0.9873411522226816
 40
1.0
 40
1.0
 40
1.0
 40
1.0
 10
235.0153176063413
 20
168.6769564080396
 30
0.0
 10
234.9691071756819
 20
168.7314207893077
 30
0.0
 10
234.8939219603006
 20
168.8200353332066
 30
0.0
 10
234.8105336680954
 20
168.939976275079
 30
0.0
 10
234.778935254203
 20
168.989343433856
 30
0.0
 10
234.7779178557543
 20
168.9909329462578
 30
0.0
  0
LINE
  5
36A
330
1F
100
AcDbEntity
  8
0
  6
Continuous
 62
     7
370
    15
100
AcDbLine
 10
238.6362923857
 20
169.2392928689
 30
0.0
 11
238.6362923857
 21
174.1385377402
 31
0.0
  0
ARC
  5
36B
330
1F
100
AcDbEntity
  8
0
  6
Continuous
 62
     7
370
    15
100
AcDbCircle
 10
235.9965644826
 20
180.9985202667
 30
0.0
 40
12.0518709084986
100
AcDbArc
 50
275.5273939181
 51
282.6520988717
  0
LINE
  5
36C
330
1F
100
AcDbEntity
  8
0
  6
Continuous
 62
     7
370
    15
100
AcDbLine
 10
237.157420628
 20
173.901932303
 30
0.0
 11
237.157420628
 21
169.0026874317
 31
0.0
  0
SPLINE
  5
36D
330
1F
100
AcDbEntity
  8
0
  6
Continuous
 62
     7
370
    15
100
AcDbSpline
210
0.0
220
0.0
230
1.0
 70
     8
 71
     3
 72
    10
 73
     6
 74
     0
 42
0.000000001
 43
0.00000001
 40
0.0
 40
0.0
 40
0.0
 40
0.0
 40
0.012658847777292
 40
0.3931591520964957
 40
1.0
 40
1.0
 40
1.0
 40
1.0
 10
237.1574206280137
 20
169.0026874316872
 30
0.0
 10
237.1564059572522
 20
169.001087881084
 30
0.0
 10
237.1248922600141
 20
168.9514089553278
 30
0.0
 10
237.0415402398301
 20
168.8306443344092
 30
0.0
 10
236.9655964752567
 20
168.741283229752
 30
0.0
 10
236.9189198241489
 20
168.6863599963815
 30
0.0
  0
LINE
  5
36E
330
1F
100
AcDbEntity
  8
0
  6
Continuous
 62
     7
370
    15
100
AcDbLine
 10
231.4601384191
 20
175.1057386607
 30
0.0
 11
231.4601384191
 21
169.50190919
 31
0.0
  0
LINE
  5
36F
330
1F
100
AcDbEntity
  8
0
  6
Continuous
 62
     7
370
    15
100
AcDbLine
 10
233.1168509273
 20
168.9605898519
 30
0.0
 11
233.1168509273
 21
174.5644193226
 31
0.0
  0
SPLINE
  5
370
330
1F
100
AcDbEntity
  8
0
  6
Continuous
 62
     7
370
    15
100
AcDbSpline
210
0.0
220
0.0
230
1.0
 70
     8
 71
     3
 72
    16
 73
    12
 74
     0
 42
0.000000001
 43
0.00000001
 40
0.0
 40
0.0
 40
0.0
 40
0.0
 40
0.0316438967043524
 40
0.144229690679796
 40
0.2602597186198089
 40
0.3918268288811943
 40
0.549207538133848
 40
0.7249905054734787
 40
0.8558655534151745
 40
0.9874199933191018
 40
1.0
 40
1.0
 40
1.0
 40
1.0
 10
231.460138419073
 20
169.5019091900469
 30
0.0
 10
231.4739865956049
 20
169.4868267980705
 30
0.0
 10
231.5371051879935
 20
169.4180827761257
 30
0.0
 10
231.691199914191
 20
169.3154921611397
 30
0.0
 10
231.9469554809196
 20
169.2096768911512
 30
0.0
 10
232.2491309938196
 20
169.1140237842655
 30
0.0
 10
232.574691718669
 20
169.0103736420785
 30
0.0
 10
232.8455940213488
 20
168.9135538230881
 30
0.0
 10
233.0255945839633
 20
168.8769981614878
 30
0.0
 10
233.0922406431606
 20
168.9148592207586
 30
0.0
 10
233.1148753753586
 20
168.9569188973027
 30
0.0
 10
233.1168509272757
 20
168.960589851918
 30
0.0
  0
ARC
  5
371
330
1F
100
AcDbEntity
  8
0
  6
Continuous
 62
     7
370
    15
100
AcDbCircle
 10
235.8284688882
 20
181.105726016
 30
0.0
 40
12.16025775201011
100
AcDbArc
 50
257.961652526
 51
265.0439152501
  0
LINE
  5
372
330
1F
100
AcDbEntity
  8
0
  6
Continuous
 62
     7
370
    15
100
AcDbLine
 10
233.2922488209
 20
174.112138745
 30
0.0
 11
233.2922488209
 21
169.2128938737
 31
0.0
  0
SPLINE
  5
373
330
1F
100
AcDbEntity
  8
0
  6
Continuous
 62
     7
370
    15
100
AcDbSpline
210
0.0
220
0.0
230
1.0
 70
     8
 71
     3
 72
    10
 73
     6
 74
     0
 42
0.000000001
 43
0.00000001
 40
0.0
 40
0.0
 40
0.0
 40
0.0
 40
0.6068408479055216
 40
0.9873411522226647
 40
1.0
 40
1.0
 40
1.0
 40
1.0
 10
238.8087005820353
 20
168.9887069714343
 30
0.0
 10
238.7825007989252
 20
169.0319706673971
 30
0.0
 10
238.7398732728888
 20
169.1023614915626
 30
0.0
 10
238.6669538865105
 20
169.1981241714547
 30
0.0
 10
238.6372488225342
 20
169.2380086767772
 30
0.0
 10
238.6362923857296
 20
169.2392928688884
 30
0.0
  0
SPLINE
  5
374
330
1F
100
AcDbEntity
  8
0
  6
Continuous
 62
     7
370
    15
100
AcDbSpline
210
0.0
220
0.0
230
1.0
 70
     8
 71
     3
 72
    10
 73
     6
 74
     0
 42
0.000000001
 43
0.00000001
 40
0.0
 40
0.0
 40
0.0
 40
0.0
 40
0.0126588477772985
 40
0.393159152096491
 40
1.0
 40
1.0
 40
1.0
 40
1.0
 10
233.2922488209108
 20
169.212893873708
 30
0.0
 10
233.2912860520734
 20
169.2116002009293
 30
0.0
 10
233.2613843274912
 20
169.1714212445402
 30
0.0
 10
233.1877829493256
 20
169.0749347679746
 30
0.0
 10
233.1438518897762
 20
169.0041163537903
 30
0.0
 10
233.1168509272757
 20
168.960589851918
 30
0.0
  0
LINE
  5
375
330
1F
100
AcDbEntity
  8
0
  6
Continuous
 62
     7
370
    15
100
AcDbLine
 10
231.2213581857
 20
169.8895430464
 30
0.0
 11
231.2213581857
 21
174.7887879177
 31
0.0
  0
SPLINE
  5
376
330
1F
100
AcDbEntity
  8
0
  6
Continuous
 62
     7
370
    15
100
AcDbSpline
210
0.0
220
0.0
230
1.0
 70
     8
 71
     3
 72
    10
 73
     6
 74
     0
 42
0.000000001
 43
0.00000001
 40
0.0
 40
0.0
 40
0.0
 40
0.0
 40
0.6068408479055177
 40
0.987341152222677
 40
1.0
 40
1.0
 40
1.0
 40
1.0
 10
231.4601384190743
 20
169.501909190047
 30
0.0
 10
231.4062993884426
 20
169.5718495997998
 30
0.0
 10
231.3187023014601
 20
169.6856439249356
 30
0.0
 10
231.247188928984
 20
169.8295456412486
 30
0.0
 10
231.2221639346594
 20
169.8876715226332
 30
0.0
 10
231.221358185659
 20
169.8895430463672
 30
0.0
  0
LINE
  5
377
330
1F
100
AcDbEntity
  8
0
  6
Continuous
 62
     7
370
    15
100
AcDbLine
 10
240.6868214488
 20
174.8355462788
 30
0.0
 11
240.6868214488
 21
169.9363014075
 31
0.0
  0
SPLINE
  5
378
330
1F
100
AcDbEntity
  8
0
  6
Continuous
 62
     7
370
    15
100
AcDbSpline
210
0.0
220
0.0
230
1.0
 70
     8
 71
     3
 72
    10
 73
     6
 74
     0
 42
0.000000001
 43
0.00000001
 40
0.0
 40
0.0
 40
0.0
 40
0.0
 40
0.0126588477772813
 40
0.3931591520964973
 40
1.0
 40
1.0
 40
1.0
 40
1.0
 10
240.6868214487822
 20
169.9363014075281
 30
0.0
 10
240.6860267563077
 20
169.9344219777869
 30
0.0
 10
240.6613451561399
 20
169.8760505512203
 30
0.0
 10
240.590576600432
 20
169.7314459776244
 30
0.0
 10
240.5029692012227
 20
169.6167861613425
 30
0.0
 10
240.4491238324773
 20
169.5463138023445
 30
0.0
  0
LINE
  5
379
330
1F
100
AcDbEntity
  8
0
  6
Continuous
 62
     7
370
    15
100
AcDbLine
 10
241.7626334362
 20
170.5680749736
 30
0.0
 11
241.7626334362
 21
175.4673198449
 31
0.0
  0
ARC
  5
37A
330
1F
100
AcDbEntity
  8
0
  6
Continuous
 62
     7
370
    15
100
AcDbCircle
 10
237.7084580766
 20
176.2398472794
 30
0.0
 40
6.971752931381291
100
AcDbArc
 50
295.2902733086
 51
305.5571345408
  0
ARC
  5
37B
330
1F
100
AcDbEntity
  8
0
  6
Continuous
 62
     7
370
    15
100
AcDbCircle
 10
234.1907062235
 20
176.396704603
 30
0.0
 40
7.152634430301393
100
AcDbArc
 50
235.3790567799
 51
245.471836977
  0
LINE
  5
37C
330
1F
100
AcDbEntity
  8
0
  6
Continuous
 62
     7
370
    15
100
AcDbLine
 10
230.1269756918
 20
175.4098409585
 30
0.0
 11
230.1269756918
 21
170.5105960872
 31
0.0
  0
LINE
  5
37D
330
1F
100
AcDbEntity
  8
0
  6
Continuous
 62
     7
370
    15
100
AcDbLine
 10
242.7615476391
 20
171.310027342
 30
0.0
 11
242.7615476391
 21
176.9138568126
 31
0.0
  0
SPLINE
  5
37E
330
1F
100
AcDbEntity
  8
0
  6
Continuous
 62
     7
370
    15
100
AcDbSpline
210
0.0
220
0.0
230
1.0
 70
     8
 71
     3
 72
    10
 73
     6
 74
     0
 42
0.000000001
 43
0.00000001
 40
0.0
 40
0.0
 40
0.0
 40
0.0
 40
0.2046851959960048
 40
0.932934485947048
 40
1.0
 40
1.0
 40
1.0
 40
1.0
 10
241.8238534412374
 20
170.3536275685288
 30
0.0
 10
241.8216561671498
 20
170.3453952807886
 30
0.0
 10
241.8116412133987
 20
170.3078733432898
 30
0.0
 10
241.796483847379
 20
170.283335556336
 30
0.0
 10
241.8026940400837
 20
170.2999187619418
 30
0.0
 10
241.8032177192155
 20
170.3013171531235
 30
0.0
  0
SPLINE
  5
37F
330
1F
100
AcDbEntity
  8
0
  6
Continuous
 62
     7
370
    15
100
AcDbSpline
210
0.0
220
0.0
230
1.0
 70
     8
 71
     3
 72
    13
 73
     9
 74
     0
 42
0.000000001
 43
0.00000001
 40
0.0
 40
0.0
 40
0.0
 40
0.0
 40
0.0906290961743699
 40
0.3259525938461326
 40
0.5887920670059311
 40
0.7844829759225843
 40
0.9811897456369254
 40
1.0
 40
1.0
 40
1.0
 40
1.0
 10
241.8572544937478
 20
170.4022017520569
 30
0.0
 10
241.8672494823898
 20
170.4187475594266
 30
0.0
 10
241.9031970159174
 20
170.4782554774914
 30
0.0
 10
242.0529098438779
 20
170.6384154913708
 30
0.0
 10
242.2920769075328
 20
170.8352414722331
 30
0.0
 10
242.5524129758742
 20
171.0530574915693
 30
0.0
 10
242.6983991585532
 20
171.2136340658195
 30
0.0
 10
242.756478493984
 20
171.3022895230736
 30
0.0
 10
242.7615476391125
 20
171.3100273419711
 30
0.0
  0
LINE
  5
380
330
1F
100
AcDbEntity
  8
0
  6
Continuous
 62
     7
370
    15
100
AcDbLine
 10
229.0957704124
 20
176.8463493564
 30
0.0
 11
229.0957704124
 21
171.2425198857
 31
0.0
  0
SPLINE
  5
381
330
1F
100
AcDbEntity
  8
0
  6
Continuous
 62
     7
370
    15
100
AcDbSpline
210
0.0
220
0.0
230
1.0
 70
     8
 71
     3
 72
    13
 73
     9
 74
     0
 42
0.000000001
 43
0.00000001
 40
0.0
 40
0.0
 40
0.0
 40
0.0
 40
0.0445866575031779
 40
0.2032214894458524
 40
0.3667092913490251
 40
0.5520890421020442
 40
0.7738404858832979
 40
0.9999999999999999
 40
0.9999999999999999
 40
0.9999999999999999
 40
0.9999999999999999
 10
229.0957704124092
 20
171.2425198857241
 30
0.0
 10
229.1089134749322
 20
171.2232619243966
 30
0.0
 10
229.1688182287614
 20
171.1354860783515
 30
0.0
 10
229.309652913932
 20
170.9873228848516
 30
0.0
 10
229.5242058079642
 20
170.8085328747512
 30
0.0
 10
229.7470815123692
 20
170.6326773224896
 30
0.0
 10
229.9466333544651
 20
170.4482128536862
 30
0.0
 10
230.0103391236848
 20
170.3549976007565
 30
0.0
 10
230.0425054852331
 20
170.3079312900554
 30
0.0
  0
SPLINE
  5
382
330
1F
100
AcDbEntity
  8
0
  6
Continuous
 62
     7
370
    15
100
AcDbSpline
210
0.0
220
0.0
230
1.0
 70
     8
 71
     3
 72
     9
 73
     5
 74
     0
 42
0.000000001
 43
0.00000001
 40
0.0
 40
0.0
 40
0.0
 40
0.0
 40
0.9111360639717988
 40
1.0
 40
1.0
 40
1.0
 40
1.0
 10
230.0794154603932
 20
170.2403811122632
 30
0.0
 10
230.0758338076795
 20
170.246115557638
 30
0.0
 10
230.0719028330916
 20
170.2524092887298
 30
0.0
 10
230.0625128621222
 20
170.2920050641671
 30
0.0
 10
230.0616784323426
 20
170.2955237006226
 30
0.0
  0
SPLINE
  5
383
330
1F
100
AcDbEntity
  8
0
  6
Continuous
 62
     7
370
    15
100
AcDbSpline
210
0.0
220
0.0
230
1.0
 70
     8
 71
     3
 72
    10
 73
     6
 74
     0
 42
0.000000001
 43
0.00000001
 40
0.0
 40
0.0
 40
0.0
 40
0.0
 40
0.0154047406923848
 40
0.4784412369462692
 40
1.0
 40
1.0
 40
1.0
 40
1.0
 10
230.1269756917943
 20
170.5105960872071
 30
0.0
 10
230.1263230842385
 20
170.5095524187865
 30
0.0
 10
230.1060543648593
 20
170.4771381107429
 30
0.0
 10
230.0680784755206
 20
170.4122913157751
 30
0.0
 10
230.0670965471666
 20
170.3595818429716
 30
0.0
 10
230.0665764011138
 20
170.3316606365908
 30
0.0
  0
SPLINE
  5
384
330
1F
100
AcDbEntity
  8
0
  6
Continuous
 62
     7
370
    15
100
AcDbSpline
210
0.0
220
0.0
230
1.0
 70
     8
 71
     3
 72
    10
 73
     6
 74
     0
 42
0.000000001
 43
0.00000001
 40
0.0
 40
0.0
 40
0.0
 40
0.0
 40
0.509679823052898
 40
0.9842127839347964
 40
1.0
 40
1.0
 40
1.0
 40
1.0
 10
241.8192744590178
 20
170.3937510676406
 30
0.0
 10
241.8193332266534
 20
170.4203919321113
 30
0.0
 10
241.8194467093843
 20
170.4718365414546
 30
0.0
 10
241.7831143372709
 20
170.5348219157451
 30
0.0
 10
241.7632723053527
 20
170.5670376972488
 30
0.0
 10
241.7626334361815
 20
170.5680749735577
 30
0.0
  0
SPLINE
  5
385
330
1F
100
AcDbEntity
  8
0
  6
Continuous
 62
     7
370
    15
100
AcDbSpline
210
0.0
220
0.0
230
1.0
 70
     8
 71
     3
 72
     9
 73
     5
 74
     0
 42
0.000000001
 43
0.00000001
 40
0.0
 40
0.0
 40
0.0
 40
0.0
 40
0.4026673806305412
 40
1.0
 40
1.0
 40
1.0
 40
1.0
 10
228.5055165245497
 20
173.658167443064
 30
0.0
 10
228.49947366072
 20
173.6807920415077
 30
0.0
 10
228.4844665751688
 20
173.7369788585482
 30
0.0
 10
228.4876565422914
 20
173.7953376661293
 30
0.0
 10
228.4895620137085
 20
173.8301972855249
 30
0.0
  0
SPLINE
  5
386
330
1F
100
AcDbEntity
  8
0
  6
Continuous
 62
     7
370
    15
100
AcDbSpline
210
0.0
220
0.0
230
1.0
 70
     8
 71
     3
 72
     9
 73
     5
 74
     0
 42
0.000000001
 43
0.00000001
 40
0.0
 40
0.0
 40
0.0
 40
0.0
 40
0.0616739531009081
 40
0.9999999999999999
 40
0.9999999999999999
 40
0.9999999999999999
 40
0.9999999999999999
 10
228.5097336194349
 20
172.5480758120614
 30
0.0
 10
228.5095618836881
 20
172.5471589030525
 30
0.0
 10
228.5067773087075
 20
172.5322918649788
 30
0.0
 10
228.5079981255666
 20
172.5176892949408
 30
0.0
 10
228.509143649824
 20
172.5039873231224
 30
0.0
  0
LINE
  5
387
330
1F
100
AcDbEntity
  8
0
  6
Continuous
 62
     7
370
    15
100
AcDbLine
 10
228.5090558442
 20
172.4636553731
 30
0.0
 11
228.5182213946
 21
172.4447081736
 31
0.0
  0
ARC
  5
388
330
1F
100
AcDbEntity
  8
0
  6
Continuous
 62
     7
370
    15
100
AcDbCircle
 10
231.4435827821
 20
173.431296613
 30
0.0
 40
3.063910881940686
100
AcDbArc
 50
196.754161999
 51
214.5348846952
  0
SPLINE
  5
389
330
1F
100
AcDbEntity
  8
0
  6
Continuous
 62
     7
370
    15
100
AcDbSpline
210
0.0
220
0.0
230
1.0
 70
     8
 71
     3
 72
    10
 73
     6
 74
     0
 42
0.000000001
 43
0.00000001
 40
0.0
 40
0.0
 40
0.0
 40
0.0
 40
0.6068408479055237
 40
0.9873411522226699
 40
1.0
 40
1.0
 40
1.0
 40
1.0
 10
229.0957704124104
 20
171.2425198857238
 30
0.0
 10
229.0487289065854
 20
171.3280648778063
 30
0.0
 10
228.9721915167179
 20
171.4672481436347
 30
0.0
 10
228.9317150143742
 20
171.628472876687
 30
0.0
 10
228.919968866637
 20
171.6922866571828
 30
0.0
 10
228.919590666879
 20
171.6943413185816
 30
0.0
  0
SPLINE
  5
38A
330
1F
100
AcDbEntity
  8
0
  6
Continuous
 62
     7
370
    15
100
AcDbSpline
210
0.0
220
0.0
230
1.0
 70
     8
 71
     3
 72
    10
 73
     6
 74
     0
 42
0.000000001
 43
0.00000001
 40
0.0
 40
0.0
 40
0.0
 40
0.0
 40
0.0126588477772876
 40
0.3931591520964994
 40
1.0
 40
1.0
 40
1.0
 40
1.0
 10
242.9347511835256
 20
171.7635746903616
 30
0.0
 10
242.934389406545
 20
171.761516373558
 30
0.0
 10
242.9231533182804
 20
171.6975890633102
 30
0.0
 10
242.8839306044
 20
171.5359706247797
 30
0.0
 10
242.8081339024238
 20
171.396034845071
 30
0.0
 10
242.7615476391125
 20
171.3100273419711
 30
0.0
  0
ARC
  5
38B
330
1F
100
AcDbEntity
  8
0
  6
Continuous
 62
     7
370
    15
100
AcDbCircle
 10
240.4269182743
 20
173.402851739
 30
0.0
 40
2.996073287307321
100
AcDbArc
 50
326.8288487072
 51
344.8776565085
  0
SPLINE
  5
38C
330
1F
100
AcDbEntity
  8
0
  6
Continuous
 62
     7
370
    15
100
AcDbSpline
210
0.0
220
0.0
230
1.0
 70
     8
 71
     3
 72
    10
 73
     6
 74
     0
 42
0.000000001
 43
0.00000001
 40
0.0
 40
0.0
 40
0.0
 40
0.0
 40
0.1031823911958682
 40
0.9711244732994343
 40
1.0
 40
1.0
 40
1.0
 40
1.0
 10
243.3133986712946
 20
172.5270596694122
 30
0.0
 10
243.3151108302367
 20
172.5303122413355
 30
0.0
 10
243.3312252023851
 20
172.5609245595738
 30
0.0
 10
243.3240048823922
 20
172.5918923969367
 30
0.0
 10
243.3193890663579
 20
172.6203179296508
 30
0.0
 10
243.3192404473769
 20
172.6212331684026
 30
0.0
  0
ARC
  5
38D
330
1F
100
AcDbEntity
  8
0
  6
Continuous
 62
     7
370
    15
100
AcDbCircle
 10
235.8992377992
 20
174.6481297998
 30
0.0
 40
3.65964688512738
100
AcDbArc
 50
80.6613704513
 51
114.9370691606
  0
LWPOLYLINE
  5
38E
330
1F
100
AcDbEntity
  8
0
  6
Continuous
 62
     7
370
    15
100
AcDbPolyline
 90
        3
 70
   128
 43
0.0
 10
237.4523643968
 20
177.9665930142
 10
237.0618488641
 20
178.1265508339
 10
236.493085534
 20
178.2592736895
  0
LINE
  5
38F
330
1F
100
AcDbEntity
  8
0
  6
Continuous
 62
     7
370
    15
100
AcDbLine
 10
228.9195906669
 20
171.6943413186
 30
0.0
 11
228.9195906669
 21
176.5935861899
 31
0.0
  0
LINE
  5
390
330
1F
100
AcDbEntity
  8
0
  6
Continuous
 62
     7
370
    15
100
AcDbLine
 10
242.9347511835
 20
176.6628195617
 30
0.0
 11
242.9347511835
 21
171.7635746904
 31
0.0
  0
LINE
  5
391
330
1F
100
AcDbEntity
  8
0
  6
Continuous
 62
     7
370
    15
100
AcDbLine
 10
228.5097336194
 20
177.4473206834
 30
0.0
 11
228.5097336194
 21
172.5480758121
 31
0.0
  0
LINE
  5
392
330
1F
100
AcDbEntity
  8
0
  6
Continuous
 62
     7
370
    15
100
AcDbLine
 10
243.3192404474
 20
172.6212331684
 30
0.0
 11
243.3192404474
 21
177.5204780397
 31
0.0
  0
SPLINE
  5
393
330
1F
100
AcDbEntity
  8
0
  6
Continuous
 62
     7
370
    15
100
AcDbSpline
210
0.0
220
0.0
230
1.0
 70
     8
 71
     3
 72
     9
 73
     5
 74
     0
 42
0.000000001
 43
0.00000001
 40
0.0
 40
0.0
 40
0.0
 40
0.0
 40
0.2193993244747644
 40
1.0
 40
1.0
 40
1.0
 40
1.0
 10
260.4371386100009
 20
170.2894483241148
 30
0.0
 10
260.4340526004347
 20
170.2980754656271
 30
0.0
 10
260.4199868799792
 20
170.3373971068077
 30
0.0
 10
260.4101856216356
 20
170.3425487101511
 30
0.0
 10
260.4025347527515
 20
170.3465700552011
 30
0.0
  0
SPLINE
  5
394
330
1F
100
AcDbEntity
  8
0
  6
Continuous
 62
     7
370
    15
100
AcDbSpline
210
0.0
220
0.0
230
1.0
 70
     8
 71
     3
 72
    14
 73
    10
 74
     0
 42
0.000000001
 43
0.00000001
 40
0.0
 40
0.0
 40
0.0
 40
0.0
 40
0.0835620299925301
 40
0.2465558515845242
 40
0.4415292244509242
 40
0.6593005014862314
 40
0.8214369516421428
 40
0.9844150763781394
 40
1.0
 40
1.0
 40
1.0
 40
1.0
 10
260.4038719401236
 20
170.3279919489837
 30
0.0
 10
260.4031945482094
 20
170.321162125493
 30
0.0
 10
260.4011958540622
 20
170.3010102341726
 30
0.0
 10
260.4582445100793
 20
170.1822092704956
 30
0.0
 10
260.6028783093575
 20
170.0019764900572
 30
0.0
 10
260.8315602721183
 20
169.7938609784947
 30
0.0
 10
261.0810251283018
 20
169.569054614212
 30
0.0
 10
261.2234333088027
 20
169.4038634163825
 30
0.0
 10
261.2802204816464
 20
169.3134418449254
 30
0.0
 10
261.285176847253
 20
169.3055498801662
 30
0.0
  0
SPLINE
  5
395
330
1F
100
AcDbEntity
  8
0
  6
Continuous
 62
     7
370
    15
100
AcDbSpline
210
0.0
220
0.0
230
1.0
 70
     8
 71
     3
 72
    10
 73
     6
 74
     0
 42
0.000000001
 43
0.00000001
 40
0.0
 40
0.0
 40
0.0
 40
0.0
 40
0.6068408479055181
 40
0.9873411522226756
 40
1.0
 40
1.0
 40
1.0
 40
1.0
 10
261.6745880691839
 20
168.1960259154068
 30
0.0
 10
261.7046515766076
 20
168.1513938795287
 30
0.0
 10
261.7535654527286
 20
168.0787767413088
 30
0.0
 10
261.7566070257698
 20
168.0077613242695
 30
0.0
 10
261.7536181827664
 20
167.9794553826008
 30
0.0
 10
261.7535219486882
 20
167.9785439944139
 30
0.0
  0
SPLINE
  5
396
330
1F
100
AcDbEntity
  8
0
  6
Continuous
 62
     7
370
    15
100
AcDbSpline
210
0.0
220
0.0
230
1.0
 70
     8
 71
     3
 72
    16
 73
    12
 74
     0
 42
0.000000001
 43
0.00000001
 40
0.0
 40
0.0
 40
0.0
 40
0.0
 40
0.0316438967043511
 40
0.1442296906797954
 40
0.2602597186198053
 40
0.3918268288811895
 40
0.5492075381338446
 40
0.7249905054734739
 40
0.8558655534151692
 40
0.9874199933190965
 40
1.0
 40
1.0
 40
1.0
 40
1.0
 10
261.6745880691848
 20
168.1960259154073
 30
0.0
 10
261.665107485627
 20
168.2064591278492
 30
0.0
 10
261.6218959416512
 20
168.2540126582299
 30
0.0
 10
261.5253547329101
 20
168.2953391771606
 30
0.0
 10
261.3979957900546
 20
168.2644798624183
 30
0.0
 10
261.2959216672271
 20
168.1471306833621
 30
0.0
 10
261.2560628770567
 20
167.946659174207
 30
0.0
 10
261.3118360349799
 20
167.6957421791534
 30
0.0
 10
261.4312013650011
 20
167.413631291554
 30
0.0
 10
261.5173363340954
 20
167.2131391368025
 30
0.0
 10
261.5536664625051
 20
167.1083130292249
 30
0.0
 10
261.5568373440601
 20
167.0991638413319
 30
0.0
  0
SPLINE
  5
397
330
1F
100
AcDbEntity
  8
0
  6
Continuous
 62
     7
370
    15
100
AcDbSpline
210
0.0
220
0.0
230
1.0
 70
     8
 71
     3
 72
    10
 73
     6
 74
     0
 42
0.000000001
 43
0.00000001
 40
0.0
 40
0.0
 40
0.0
 40
0.0
 40
0.012658847777288
 40
0.3931591520964937
 40
1.0
 40
1.0
 40
1.0
 40
1.0
 10
261.6063335422834
 20
166.6074664018184
 30
0.0
 10
261.6065554736427
 20
166.6095486751975
 30
0.0
 10
261.6134482293333
 20
166.6742200300118
 30
0.0
 10
261.6207206769986
 20
166.8413117823104
 30
0.0
 10
261.5811551546515
 20
167.0010099529316
 30
0.0
 10
261.5568373440601
 20
167.0991638413319
 30
0.0
  0
ARC
  5
398
330
1F
100
AcDbEntity
  8
0
  6
Continuous
 62
     7
370
    15
100
AcDbCircle
 10
258.5362132706
 20
167.8298926795
 30
0.0
 40
3.304536954972933
100
AcDbArc
 50
321.3844768585
 51
338.2890931006
  0
SPLINE
  5
399
330
1F
100
AcDbEntity
  8
0
  6
Continuous
 62
     7
370
    15
100
AcDbSpline
210
0.0
220
0.0
230
1.0
 70
     8
 71
     3
 72
    10
 73
     6
 74
     0
 42
0.000000001
 43
0.00000001
 40
0.0
 40
0.0
 40
0.0
 40
0.0
 40
0.606840847905511
 40
0.9873411522226722
 40
1.0
 40
1.0
 40
1.0
 40
1.0
 10
260.9330972909917
 20
166.0258867450579
 30
0.0
 10
260.9814686595195
 20
165.9691221063777
 30
0.0
 10
261.0601697603133
 20
165.8767650016219
 30
0.0
 10
261.1044761717383
 20
165.7984256195476
 30
0.0
 10
261.1177892485014
 20
165.7685226864139
 30
0.0
 10
261.1182178998791
 20
165.7675598786639
 30
0.0
  0
SPLINE
  5
39A
330
1F
100
AcDbEntity
  8
0
  6
Continuous
 62
     7
370
    15
100
AcDbSpline
210
0.0
220
0.0
230
1.0
 70
     8
 71
     3
 72
    16
 73
    12
 74
     0
 42
0.000000001
 43
0.00000001
 40
0.0
 40
0.0
 40
0.0
 40
0.0
 40
0.031643896704352
 40
0.1442296906797965
 40
0.2602597186198057
 40
0.3918268288811906
 40
0.549207538133844
 40
0.7249905054734755
 40
0.8558655534151719
 40
0.9874199933190962
 40
1.0
 40
1.0
 40
1.0
 40
1.0
 10
260.933097290993
 20
166.0258867450581
 30
0.0
 10
260.9197105610982
 20
166.0398571598976
 30
0.0
 10
260.8586951959557
 20
166.103532902168
 30
0.0
 10
260.7145756319075
 20
166.1820857382299
 30
0.0
 10
260.4931483393548
 20
166.2051779954859
 30
0.0
 10
260.2576983805071
 20
166.1400383159597
 30
0.0
 10
260.0419329805334
 20
165.9791077218379
 30
0.0
 10
259.910475798308
 20
165.7398978174655
 30
0.0
 10
259.8676266174052
 20
165.4459511229761
 30
0.0
 10
259.8744350494244
 20
165.2310821319625
 30
0.0
 10
259.8805730891278
 20
165.1196868877706
 30
0.0
 10
259.8811088151969
 20
165.1099643478132
 30
0.0
  0
SPLINE
  5
39B
330
1F
100
AcDbEntity
  8
0
  6
Continuous
 62
     7
370
    15
100
AcDbSpline
210
0.0
220
0.0
230
1.0
 70
     8
 71
     3
 72
    10
 73
     6
 74
     0
 42
0.000000001
 43
0.00000001
 40
0.0
 40
0.0
 40
0.0
 40
0.0
 40
0.0126588477772809
 40
0.3931591520964968
 40
1.0
 40
1.0
 40
1.0
 40
1.0
 10
259.8032323051356
 20
164.622656882106
 30
0.0
 10
259.8039266370005
 20
164.6245974244295
 30
0.0
 10
259.8254912321432
 20
164.6848668887546
 30
0.0
 10
259.8733305880657
 20
164.8434337391584
 30
0.0
 10
259.8781479575614
 20
165.0085068852804
 30
0.0
 10
259.8811088151969
 20
165.1099643478132
 30
0.0
  0
ARC
  5
39C
330
1F
100
AcDbEntity
  8
0
  6
Continuous
 62
     7
370
    15
100
AcDbCircle
 10
255.7314198442
 20
171.1869338668
 30
0.0
 40
7.724596368003937
100
AcDbArc
 50
292.223756264
 51
301.8112732643
  0
SPLINE
  5
39D
330
1F
100
AcDbEntity
  8
0
  6
Continuous
 62
     7
370
    15
100
AcDbSpline
210
0.0
220
0.0
230
1.0
 70
     8
 71
     3
 72
    10
 73
     6
 74
     0
 42
0.000000001
 43
0.00000001
 40
0.0
 40
0.0
 40
0.0
 40
0.0
 40
0.6068408479055125
 40
0.9873411522226619
 40
1.0
 40
1.0
 40
1.0
 40
1.0
 10
258.4113481306358
 20
164.3605178512256
 30
0.0
 10
258.465066291134
 20
164.2879616186798
 30
0.0
 10
258.5524667201996
 20
164.169911302044
 30
0.0
 10
258.6261661028468
 20
164.0733183381223
 30
0.0
 10
258.6522138712095
 20
164.0373269208283
 30
0.0
 10
258.6530525512526
 20
164.0361680774683
 30
0.0
  0
SPLINE
  5
39E
330
1F
100
AcDbEntity
  8
0
  6
Continuous
 62
     7
370
    15
100
AcDbSpline
210
0.0
220
0.0
230
1.0
 70
     8
 71
     3
 72
    16
 73
    12
 74
     0
 42
0.000000001
 43
0.00000001
 40
0.0
 40
0.0
 40
0.0
 40
0.0
 40
0.0316438967043509
 40
0.1442296906797935
 40
0.2602597186198055
 40
0.391826828881189
 40
0.5492075381338445
 40
0.7249905054734785
 40
0.8558655534151748
 40
0.9874199933190994
 40
1.0
 40
1.0
 40
1.0
 40
1.0
 10
258.4113481306371
 20
164.3605178512255
 30
0.0
 10
258.3976422178699
 20
164.3786790583407
 30
0.0
 10
258.3351720493766
 20
164.4614560092665
 30
0.0
 10
258.1820908508216
 20
164.5859809815934
 30
0.0
 10
257.9259264727933
 20
164.6829489219621
 30
0.0
 10
257.6201893042565
 20
164.7015221109597
 30
0.0
 10
257.286331459157
 20
164.6256093159027
 30
0.0
 10
257.0028677825997
 20
164.4505809368132
 30
0.0
 10
256.8092854941921
 20
164.1932063548219
 30
0.0
 10
256.734943075275
 20
163.9887837759271
 30
0.0
 10
256.7092443434905
 20
163.8804142534525
 30
0.0
 10
256.707001366706
 20
163.8709557974828
 30
0.0
  0
SPLINE
  5
39F
330
1F
100
AcDbEntity
  8
0
  6
Continuous
 62
     7
370
    15
100
AcDbSpline
210
0.0
220
0.0
230
1.0
 70
     8
 71
     3
 72
    10
 73
     6
 74
     0
 42
0.000000001
 43
0.00000001
 40
0.0
 40
0.0
 40
0.0
 40
0.0
 40
0.0126588477772939
 40
0.3931591520964922
 40
1.0
 40
1.0
 40
1.0
 40
1.0
 10
256.5226190963403
 20
163.4242155102878
 30
0.0
 10
256.5235997830484
 20
163.4258969544131
 30
0.0
 10
256.5540580017899
 20
163.4781193334353
 30
0.0
 10
256.6296457491833
 20
163.6175940134059
 30
0.0
 10
256.6775552002559
 20
163.7745111758126
 30
0.0
 10
256.707001366706
 20
163.8709557974828
 30
0.0
  0
ARC
  5
3A0
330
1F
100
AcDbEntity
  8
0
  6
Continuous
 62
     7
370
    15
100
AcDbCircle
 10
254.3260338162
 20
175.6865869581
 30
0.0
 40
12.45755756222541
100
AcDbArc
 50
273.1867866318
 51
280.1558042462
  0
SPLINE
  5
3A1
330
1F
100
AcDbEntity
  8
0
  6
Continuous
 62
     7
370
    15
100
AcDbSpline
210
0.0
220
0.0
230
1.0
 70
     8
 71
     3
 72
    10
 73
     6
 74
     0
 42
0.000000001
 43
0.00000001
 40
0.0
 40
0.0
 40
0.0
 40
0.0
 40
0.6068408479055336
 40
0.9873411522226605
 40
1.0
 40
1.0
 40
1.0
 40
1.0
 10
254.7850412391475
 20
163.6461534841122
 30
0.0
 10
254.8297124538915
 20
163.5583780114607
 30
0.0
 10
254.9023933368425
 20
163.4155657129745
 30
0.0
 10
254.9857380006498
 20
163.2946805829093
 30
0.0
 10
255.017540982114
 20
163.2497405931727
 30
0.0
 10
255.0185649671823
 20
163.2482936257394
 30
0.0
  0
SPLINE
  5
3A2
330
1F
100
AcDbEntity
  8
0
  6
Continuous
 62
     7
370
    15
100
AcDbSpline
210
0.0
220
0.0
230
1.0
 70
     8
 71
     3
 72
    16
 73
    12
 74
     0
 42
0.000000001
 43
0.00000001
 40
0.0
 40
0.0
 40
0.0
 40
0.0
 40
0.0316438967043494
 40
0.1442296906797902
 40
0.2602597186198016
 40
0.3918268288811926
 40
0.5492075381338439
 40
0.7249905054734753
 40
0.8558655534151756
 40
0.9874199933190966
 40
0.9999999999999999
 40
0.9999999999999999
 40
0.9999999999999999
 40
0.9999999999999999
 10
254.7850412391485
 20
163.6461534841117
 30
0.0
 10
254.7746886317663
 20
163.6680361539747
 30
0.0
 10
254.727502491121
 20
163.7677751568881
 30
0.0
 10
254.6064776415883
 20
163.9346998878272
 30
0.0
 10
254.3842152163068
 20
164.1056726927929
 30
0.0
 10
254.0901128654866
 20
164.2170313237909
 30
0.0
 10
253.7276195152425
 20
164.2488327612284
 30
0.0
 10
253.3681032075703
 20
164.1732629541551
 30
0.0
 10
253.0756580295058
 20
163.9910689360408
 30
0.0
 10
252.9400847507645
 20
163.8191169099548
 30
0.0
 10
252.8894352019203
 20
163.7225572278382
 30
0.0
 10
252.8850145261003
 20
163.714129530817
 30
0.0
  0
SPLINE
  5
3A3
330
1F
100
AcDbEntity
  8
0
  6
Continuous
 62
     7
370
    15
100
AcDbSpline
210
0.0
220
0.0
230
1.0
 70
     8
 71
     3
 72
    10
 73
     6
 74
     0
 42
0.000000001
 43
0.00000001
 40
0.0
 40
0.0
 40
0.0
 40
0.0
 40
0.0126588477772947
 40
0.393159152096508
 40
1.0
 40
1.0
 40
1.0
 40
1.0
 10
252.6435315758733
 20
163.3332636841184
 30
0.0
 10
252.6445358432131
 20
163.3346380880559
 30
0.0
 10
252.6757264304403
 20
163.3773243969685
 30
0.0
 10
252.7588088934303
 20
163.4922553696195
 30
0.0
 10
252.8369731273556
 20
163.6296709783441
 30
0.0
 10
252.8850145261003
 20
163.714129530817
 30
0.0
  0
ARC
  5
3A4
330
1F
100
AcDbEntity
  8
0
  6
Continuous
 62
     7
370
    15
100
AcDbCircle
 10
254.1317890238
 20
174.9144660948
 30
0.0
 40
11.67643607909723
100
AcDbArc
 50
255.400486208
 51
262.6772643941
  0
SPLINE
  5
3A5
330
1F
100
AcDbEntity
  8
0
  6
Continuous
 62
     7
370
    15
100
AcDbSpline
210
0.0
220
0.0
230
1.0
 70
     8
 71
     3
 72
    10
 73
     6
 74
     0
 42
0.000000001
 43
0.00000001
 40
0.0
 40
0.0
 40
0.0
 40
0.0
 40
0.6068408479055324
 40
0.9873411522226736
 40
1.0
 40
1.0
 40
1.0
 40
1.0
 10
251.0258426196084
 20
164.0742069989873
 30
0.0
 10
251.0494972726828
 20
163.9758626230858
 30
0.0
 10
251.0879838256274
 20
163.8158545258189
 30
0.0
 10
251.1586416352336
 20
163.6711477116135
 30
0.0
 10
251.1876782465995
 20
163.6167968239124
 30
0.0
 10
251.1886131607208
 20
163.6150468465551
 30
0.0
  0
SPLINE
  5
3A6
330
1F
100
AcDbEntity
  8
0
  6
Continuous
 62
     7
370
    15
100
AcDbSpline
210
0.0
220
0.0
230
1.0
 70
     8
 71
     3
 72
    16
 73
    12
 74
     0
 42
0.000000001
 43
0.00000001
 40
0.0
 40
0.0
 40
0.0
 40
0.0
 40
0.031643896704348
 40
0.1442296906797948
 40
0.2602597186198055
 40
0.3918268288811949
 40
0.5492075381338436
 40
0.7249905054734774
 40
0.8558655534151761
 40
0.9874199933191004
 40
1.0
 40
1.0
 40
1.0
 40
1.0
 10
251.0258426196088
 20
164.0742069989866
 30
0.0
 10
251.0216172903993
 20
164.0983446391316
 30
0.0
 10
251.0023586658818
 20
164.2083615692327
 30
0.0
 10
250.9458186760679
 20
164.4027527000518
 30
0.0
 10
250.8170132408952
 20
164.6280300073938
 30
0.0
 10
250.6133501951858
 20
164.8163848696154
 30
0.0
 10
250.3193511402567
 20
164.9497350313671
 30
0.0
 10
249.9801143057763
 20
164.9822509989911
 30
0.0
 10
249.6671666873475
 20
164.8937014247552
 30
0.0
 10
249.506689299336
 20
164.7675436337649
 30
0.0
 10
249.4446604391419
 20
164.6884134734606
 30
0.0
 10
249.4392465808024
 20
164.6815070193209
 30
0.0
  0
SPLINE
  5
3A7
330
1F
100
AcDbEntity
  8
0
  6
Continuous
 62
     7
370
    15
100
AcDbSpline
210
0.0
220
0.0
230
1.0
 70
     8
 71
     3
 72
    10
 73
     6
 74
     0
 42
0.000000001
 43
0.00000001
 40
0.0
 40
0.0
 40
0.0
 40
0.0
 40
0.0126588477772796
 40
0.3931591520964927
 40
1.0
 40
1.0
 40
1.0
 40
1.0
 10
249.2053681122133
 20
164.3741718719701
 30
0.0
 10
249.2061268675621
 20
164.3752735649005
 30
0.0
 10
249.2296923306132
 20
164.4094900011844
 30
0.0
 10
249.2980076303411
 20
164.5010021961801
 30
0.0
 10
249.3854826037608
 20
164.6127961068173
 30
0.0
 10
249.4392465808024
 20
164.6815070193209
 30
0.0
  0
ARC
  5
3A8
330
1F
100
AcDbEntity
  8
0
  6
Continuous
 62
     7
370
    15
100
AcDbCircle
 10
252.1938103973
 20
170.0558949393
 30
0.0
 40
6.41971683993389
100
AcDbArc
 50
231.4085597128
 51
242.2567676528
  0
SPLINE
  5
3A9
330
1F
100
AcDbEntity
  8
0
  6
Continuous
 62
     7
370
    15
100
AcDbSpline
210
0.0
220
0.0
230
1.0
 70
     8
 71
     3
 72
    10
 73
     6
 74
     0
 42
0.000000001
 43
0.00000001
 40
0.0
 40
0.0
 40
0.0
 40
0.0
 40
0.6068408479055208
 40
0.9873411522226679
 40
1.0
 40
1.0
 40
1.0
 40
1.0
 10
248.1410265063122
 20
165.5299818022228
 30
0.0
 10
248.1373263525283
 20
165.4285507890178
 30
0.0
 10
248.1313061346853
 20
165.2635206764363
 30
0.0
 10
248.1703443870685
 20
165.1018456611221
 30
0.0
 10
248.188834291769
 20
165.0401431924437
 30
0.0
 10
248.1894296254597
 20
165.0381565105763
 30
0.0
  0
SPLINE
  5
3AA
330
1F
100
AcDbEntity
  8
0
  6
Continuous
 62
     7
370
    15
100
AcDbSpline
210
0.0
220
0.0
230
1.0
 70
     8
 71
     3
 72
    16
 73
    12
 74
     0
 42
0.000000001
 43
0.00000001
 40
0.0
 40
0.0
 40
0.0
 40
0.0
 40
0.0316438967043531
 40
0.1442296906797965
 40
0.2602597186198047
 40
0.3918268288811924
 40
0.5492075381338444
 40
0.7249905054734748
 40
0.8558655534151713
 40
0.9874199933190955
 40
1.0
 40
1.0
 40
1.0
 40
1.0
 10
248.141026506312
 20
165.5299818022221
 30
0.0
 10
248.1440606288246
 20
165.5543037027172
 30
0.0
 10
248.1578898533217
 20
165.6651604729163
 30
0.0
 10
248.1809845678372
 20
165.8647250452163
 30
0.0
 10
248.1801494351085
 20
166.1100556451571
 30
0.0
 10
248.121497043136
 20
166.3389864498489
 30
0.0
 10
247.9747690928656
 20
166.5405099290619
 30
0.0
 10
247.7467099674188
 20
166.6607773780209
 30
0.0
 10
247.4971139702571
 20
166.659244174552
 30
0.0
 10
247.3547322594966
 20
166.5799337726324
 30
0.0
 10
247.2979446709489
 20
166.5191825893007
 30
0.0
 10
247.2929882690599
 20
166.5138802461739
 30
0.0
  0
SPLINE
  5
3AB
330
1F
100
AcDbEntity
  8
0
  6
Continuous
 62
     7
370
    15
100
AcDbSpline
210
0.0
220
0.0
230
1.0
 70
     8
 71
     3
 72
    10
 73
     6
 74
     0
 42
0.000000001
 43
0.00000001
 40
0.0
 40
0.0
 40
0.0
 40
0.0
 40
0.0126588477772955
 40
0.3931591520965035
 40
1.0
 40
1.0
 40
1.0
 40
1.0
 10
247.1293818288943
 20
166.2680295655131
 30
0.0
 10
247.1296917643691
 20
166.2689659493113
 30
0.0
 10
247.139317756452
 20
166.2980482059749
 30
0.0
 10
247.1745608635221
 20
166.3735415955455
 30
0.0
 10
247.2479077279511
 20
166.4604589769999
 30
0.0
 10
247.2929882690599
 20
166.5138802461739
 30
0.0
  0
ARC
  5
3AC
330
1F
100
AcDbEntity
  8
0
  6
Continuous
 62
     7
370
    15
100
AcDbCircle
 10
249.5962159591
 20
167.6214311554
 30
0.0
 40
2.813710448731907
100
AcDbArc
 50
189.9283392715
 51
208.7508934014
  0
SPLINE
  5
3AD
330
1F
100
AcDbEntity
  8
0
  6
Continuous
 62
     7
370
    15
100
AcDbSpline
210
0.0
220
0.0
230
1.0
 70
     8
 71
     3
 72
    10
 73
     6
 74
     0
 42
0.000000001
 43
0.00000001
 40
0.0
 40
0.0
 40
0.0
 40
0.0
 40
0.6068408479055268
 40
0.9873411522226748
 40
1.0
 40
1.0
 40
1.0
 40
1.0
 10
246.903577047129
 20
167.6234042109301
 30
0.0
 10
246.8735135397053
 20
167.5271958883409
 30
0.0
 10
246.8245996635843
 20
167.3706631888587
 30
0.0
 10
246.8215580905432
 20
167.2034200712515
 30
0.0
 10
246.8245469335464
 20
167.138395188769
 30
0.0
 10
246.8246431676247
 20
167.1363015325875
 30
0.0
  0
SPLINE
  5
3AE
330
1F
100
AcDbEntity
  8
0
  6
Continuous
 62
     7
370
    15
100
AcDbSpline
210
0.0
220
0.0
230
1.0
 70
     8
 71
     3
 72
    16
 73
    12
 74
     0
 42
0.000000001
 43
0.00000001
 40
0.0
 40
0.0
 40
0.0
 40
0.0
 40
0.0316438967043523
 40
0.1442296906797964
 40
0.2602597186198051
 40
0.3918268288811889
 40
0.5492075381338408
 40
0.724990505473475
 40
0.8558655534151718
 40
0.9874199933190984
 40
1.0
 40
1.0
 40
1.0
 40
1.0
 10
246.9035770471281
 20
167.6234042109296
 30
0.0
 10
246.9130576306859
 20
167.6457902894311
 30
0.0
 10
246.9562691746617
 20
167.7478237781623
 30
0.0
 10
247.0528103834028
 20
167.9288826140775
 30
0.0
 10
247.1801693262583
 20
168.1546420332818
 30
0.0
 10
247.2822434490858
 20
168.3768562006735
 30
0.0
 10
247.3221022392562
 20
168.5949106051358
 30
0.0
 10
247.2663290813331
 20
168.7590823035092
 30
0.0
 10
247.1469637513118
 20
168.8146214314205
 30
0.0
 10
247.0608287822176
 20
168.7706588524779
 30
0.0
 10
247.0244986538078
 20
168.7243114692413
 30
0.0
 10
247.0213277722528
 20
168.7202662850082
 30
0.0
  0
LINE
  5
3AF
330
1F
100
AcDbEntity
  8
0
  6
Continuous
 62
     7
370
    15
100
AcDbLine
 10
246.9676867133
 20
168.5655815934
 30
0.0
 11
246.9660330412
 21
168.5918992935
 31
0.0
  0
LINE
  5
3B0
330
1F
100
AcDbEntity
  8
0
  6
Continuous
 62
     7
370
    15
100
AcDbLine
 10
246.9875379501
 20
168.6418230457
 30
0.0
 11
247.0213277723
 21
168.720266285
 31
0.0
  0
SPLINE
  5
3B1
330
1F
100
AcDbEntity
  8
0
  6
Continuous
 62
     7
370
    15
100
AcDbSpline
210
0.0
220
0.0
230
1.0
 70
     8
 71
     3
 72
    14
 73
    10
 74
     0
 42
0.000000001
 43
0.00000001
 40
0.0
 40
0.0
 40
0.0
 40
0.0
 40
0.0370707058733218
 40
0.1689645397134582
 40
0.3048932806780958
 40
0.4590236550966227
 40
0.6433945635643389
 40
0.8493236481100883
 40
1.0
 40
1.0
 40
1.0
 40
1.0
 10
247.64506782532
 20
169.7935433812788
 30
0.0
 10
247.6584544572236
 20
169.812392053391
 30
0.0
 10
247.7194693757322
 20
169.8983024004594
 30
0.0
 10
247.8635991540478
 20
170.0421561826408
 30
0.0
 10
248.08497864428
 20
170.2138645180846
 30
0.0
 10
248.3206435077354
 20
170.3843165603827
 30
0.0
 10
248.5353904632542
 20
170.5607099183784
 30
0.0
 10
248.6701739704088
 20
170.7206883437767
 30
0.0
 10
248.6923862234086
 20
170.7512938688184
 30
0.0
 10
248.701771557751
 20
170.7642256090269
 30
0.0
  0
LWPOLYLINE
  5
3B2
330
1F
100
AcDbEntity
  8
0
  6
Continuous
 62
     7
370
    15
100
AcDbPolyline
 90
       41
 70
   128
 43
0.0
 10
258.5921803212
 20
165.5615976198
 10
259.3013020444
 20
165.9848253494
 10
259.8870062892
 20
166.4668815912
 10
260.3348710733
 20
166.9958965207
 10
260.6338684793
 20
167.5588440346
 10
260.7766361988
 20
168.1418624969
 10
260.7596588167
 20
168.730596058
 10
260.5833543725
 20
169.3105481438
 10
260.2520640668
 20
169.8674384091
 10
259.7739453663
 20
170.3875543675
 10
259.1607711403
 20
170.8580890379
 10
258.4276397732
 20
171.2674562951
 10
257.5926033923
 20
171.6055761585
 10
256.6762233648
 20
171.864122995
 10
255.7010640081
 20
172.0367305235
 10
254.691136982
 20
172.1191485736
 10
253.6713100417
 20
172.1093477396
 10
252.666694711
 20
172.0075693504
 10
251.7020279535
 20
171.8163195277
 10
250.8010630663
 20
171.540307477
 10
249.9859847951
 20
171.186329531
 10
249.2768630719
 20
170.7631018014
 10
248.6911588271
 20
170.2810455596
 10
248.243294043
 20
169.7520306301
 10
247.944296637
 20
169.1890831161
 10
247.8015289175
 20
168.6060646539
 10
247.8185062996
 20
168.0173310928
 10
247.9948107438
 20
167.437379007
 10
248.3261010495
 20
166.8804887416
 10
248.80421975
 20
166.3603727832
 10
249.417393976
 20
165.8898381129
 10
250.1505253431
 20
165.4804708557
 10
250.985561724
 20
165.1423509923
 10
251.9019417515
 20
164.8838041557
 10
252.8771011082
 20
164.7111966273
 10
253.8870281343
 20
164.6287785771
 10
254.9068550746
 20
164.6385794112
 10
255.9114704053
 20
164.7403578004
 10
256.8761371628
 20
164.931607623
 10
257.77710205
 20
165.2076196738
 10
258.5921803212
 20
165.5615976198
  0
LWPOLYLINE
  5
3B3
330
1F
100
AcDbEntity
  8
0
  6
Continuous
 62
     7
370
    15
100
AcDbPolyline
 90
       25
 70
   128
 43
0.0
 10
255.8448179033
 20
167.3571851145
 10
256.2476662144
 20
167.6242781702
 10
256.5170402861
 20
167.9424610473
 10
256.6345827205
 20
168.2900501085
 10
256.592283195
 20
168.6433577339
 10
256.3930243523
 20
168.9783065926
 10
256.0503853532
 20
169.2720704734
 10
255.5877164794
 20
169.5046298532
 10
255.0365478499
 20
169.6601361948
 10
254.434440696
 20
169.7279919978
 10
253.8224276253
 20
169.7035730015
 10
253.242216317
 20
169.5885433201
 10
252.733347213
 20
169.3907420362
 10
252.3304989019
 20
169.1236489806
 10
252.0611248302
 20
168.8054661035
 10
251.9435823958
 20
168.4578770422
 10
251.9858819213
 20
168.1045694168
 10
252.185140764
 20
167.7696205582
 10
252.5277797631
 20
167.4758566774
 10
252.9904486369
 20
167.2432972975
 10
253.5416172664
 20
167.087790956
 10
254.1437244203
 20
167.0199351529
 10
254.755737491
 20
167.0443541493
 10
255.3359487993
 20
167.1593838307
 10
255.8448179033
 20
167.3571851145
  0
LINE
  5
3B4
330
1F
100
AcDbEntity
  8
0
  6
Continuous
 62
     7
370
    15
100
AcDbLine
 10
252.8850145261
 20
163.7141295308
 30
0.0
 11
252.8850145261
 21
158.1103000602
 31
0.0
  0
LINE
  5
3B5
330
1F
100
AcDbEntity
  8
0
  6
Continuous
 62
     7
370
    15
100
AcDbLine
 10
254.7850412391
 20
158.0423240135
 30
0.0
 11
254.7850412391
 21
163.6461534841
 31
0.0
  0
SPLINE
  5
3B6
330
1F
100
AcDbEntity
  8
0
  6
Continuous
 62
     7
370
    15
100
AcDbSpline
210
0.0
220
0.0
230
1.0
 70
     8
 71
     3
 72
    16
 73
    12
 74
     0
 42
0.000000001
 43
0.00000001
 40
0.0
 40
0.0
 40
0.0
 40
0.0
 40
0.0316438967043532
 40
0.1442296906797958
 40
0.2602597186198128
 40
0.3918268288811985
 40
0.5492075381338489
 40
0.7249905054734808
 40
0.8558655534151738
 40
0.9874199933191024
 40
1.0
 40
1.0
 40
1.0
 40
1.0
 10
252.8850145260992
 20
158.1103000601651
 30
0.0
 10
252.8964585039397
 20
158.0985836365246
 30
0.0
 10
252.9486190010965
 20
158.0451813588809
 30
0.0
 10
253.0806379254881
 20
157.9806677488891
 30
0.0
 10
253.316924891825
 20
157.9403352195893
 30
0.0
 10
253.6213800954509
 20
157.9254146494956
 30
0.0
 10
253.9860211106915
 20
157.9136189681163
 30
0.0
 10
254.3358999792063
 20
157.8994148779012
 30
0.0
 10
254.6113690804123
 20
157.9234747116762
 30
0.0
 10
254.735269685424
 20
157.9866943872515
 30
0.0
 10
254.7810459058179
 20
158.03785843256
 30
0.0
 10
254.7850412391475
 20
158.0423240134607
 30
0.0
  0
LINE
  5
3B7
330
1F
100
AcDbEntity
  8
0
  6
Continuous
 62
     7
370
    15
100
AcDbLine
 10
256.7070013667
 20
163.8709557975
 30
0.0
 11
256.7070013667
 21
158.2671263268
 31
0.0
  0
LINE
  5
3B8
330
1F
100
AcDbEntity
  8
0
  6
Continuous
 62
     7
370
    15
100
AcDbLine
 10
258.4113481306
 20
158.7566883806
 30
0.0
 11
258.4113481306
 21
164.3605178512
 31
0.0
  0
SPLINE
  5
3B9
330
1F
100
AcDbEntity
  8
0
  6
Continuous
 62
     7
370
    15
100
AcDbSpline
210
0.0
220
0.0
230
1.0
 70
     8
 71
     3
 72
    16
 73
    12
 74
     0
 42
0.000000001
 43
0.00000001
 40
0.0
 40
0.0
 40
0.0
 40
0.0
 40
0.0316438967043525
 40
0.1442296906797965
 40
0.2602597186198081
 40
0.3918268288811949
 40
0.5492075381338491
 40
0.7249905054734787
 40
0.8558655534151747
 40
0.9874199933191021
 40
1.0
 40
1.0
 40
1.0
 40
1.0
 10
256.7070013667055
 20
158.2671263268306
 30
0.0
 10
256.7128472524649
 20
158.2580843645827
 30
0.0
 10
256.7394922103447
 20
158.2168720123134
 30
0.0
 10
256.8133943137922
 20
158.1842110445179
 30
0.0
 10
256.9685542431224
 20
158.2044289992427
 30
0.0
 10
257.1997303842464
 20
158.2723619082347
 30
0.0
 10
257.5181207913667
 20
158.3662201065661
 30
0.0
 10
257.8709931013402
 20
158.4607202224064
 30
0.0
 10
258.1868367370092
 20
158.5762465432681
 30
0.0
 10
258.345245505779
 20
158.6831348988517
 30
0.0
 10
258.4060418462122
 20
158.7507839903141
 30
0.0
 10
258.4113481306358
 20
158.7566883805741
 30
0.0
  0
LINE
  5
3BA
330
1F
100
AcDbEntity
  8
0
  6
Continuous
 62
     7
370
    15
100
AcDbLine
 10
256.5226190963
 20
158.524970639
 30
0.0
 11
256.5226190963
 21
163.4242155103
 31
0.0
  0
ARC
  5
3BB
330
1F
100
AcDbEntity
  8
0
  6
Continuous
 62
     7
370
    15
100
AcDbCircle
 10
254.3260338162
 20
170.7873420868
 30
0.0
 40
12.45755756223474
100
AcDbArc
 50
273.1867866318
 51
280.1558042462
  0
LINE
  5
3BC
330
1F
100
AcDbEntity
  8
0
  6
Continuous
 62
     7
370
    15
100
AcDbLine
 10
255.0185649672
 20
163.2482936257
 30
0.0
 11
255.0185649672
 21
158.3490487544
 31
0.0
  0
SPLINE
  5
3BD
330
1F
100
AcDbEntity
  8
0
  6
Continuous
 62
     7
370
    15
100
AcDbSpline
210
0.0
220
0.0
230
1.0
 70
     8
 71
     3
 72
    10
 73
     6
 74
     0
 42
0.000000001
 43
0.00000001
 40
0.0
 40
0.0
 40
0.0
 40
0.0
 40
0.0126588477772959
 40
0.3931591520964979
 40
1.0
 40
1.0
 40
1.0
 40
1.0
 10
255.0185649671823
 20
158.349048754425
 30
0.0
 10
255.017540982114
 20
158.3474906774899
 30
0.0
 10
254.9857380006495
 20
158.2990998430748
 30
0.0
 10
254.9023933368418
 20
158.1817264384933
 30
0.0
 10
254.8297124538911
 20
158.0953888992767
 30
0.0
 10
254.7850412391475
 20
158.0423240134607
 30
0.0
  0
LINE
  5
3BE
330
1F
100
AcDbEntity
  8
0
  6
Continuous
 62
     7
370
    15
100
AcDbLine
 10
252.6435315759
 20
158.4340188128
 30
0.0
 11
252.6435315759
 21
163.3332636841
 31
0.0
  0
ARC
  5
3BF
330
1F
100
AcDbEntity
  8
0
  6
Continuous
 62
     7
370
    15
100
AcDbCircle
 10
254.1317890238
 20
170.0152212235
 30
0.0
 40
11.67643607908655
100
AcDbArc
 50
255.400486208
 51
262.6772643941
  0
LINE
  5
3C0
330
1F
100
AcDbEntity
  8
0
  6
Continuous
 62
     7
370
    15
100
AcDbLine
 10
251.1886131607
 20
163.6150468466
 30
0.0
 11
251.1886131607
 21
158.7158019752
 31
0.0
  0
SPLINE
  5
3C1
330
1F
100
AcDbEntity
  8
0
  6
Continuous
 62
     7
370
    15
100
AcDbSpline
210
0.0
220
0.0
230
1.0
 70
     8
 71
     3
 72
    10
 73
     6
 74
     0
 42
0.000000001
 43
0.00000001
 40
0.0
 40
0.0
 40
0.0
 40
0.0
 40
0.6068408479055243
 40
0.9873411522226695
 40
1.0
 40
1.0
 40
1.0
 40
1.0
 10
252.8850145261003
 20
158.1103000601655
 30
0.0
 10
252.8369731273555
 20
158.1666818661599
 30
0.0
 10
252.7588088934304
 20
158.2584160951377
 30
0.0
 10
252.6757264304388
 20
158.3817436571348
 30
0.0
 10
252.6445358432131
 20
158.432388172373
 30
0.0
 10
252.6435315758733
 20
158.4340188128039
 30
0.0
  0
LINE
  5
3C2
330
1F
100
AcDbEntity
  8
0
  6
Continuous
 62
     7
370
    15
100
AcDbLine
 10
249.4392465808
 20
164.6815070193
 30
0.0
 11
249.4392465808
 21
159.0776775487
 31
0.0
  0
LINE
  5
3C3
330
1F
100
AcDbEntity
  8
0
  6
Continuous
 62
     7
370
    15
100
AcDbLine
 10
251.0258426196
 20
158.4703775283
 30
0.0
 11
251.0258426196
 21
164.074206999
 31
0.0
  0
SPLINE
  5
3C4
330
1F
100
AcDbEntity
  8
0
  6
Continuous
 62
     7
370
    15
100
AcDbSpline
210
0.0
220
0.0
230
1.0
 70
     8
 71
     3
 72
    16
 73
    12
 74
     0
 42
0.000000001
 43
0.00000001
 40
0.0
 40
0.0
 40
0.0
 40
0.0
 40
0.031643896704352
 40
0.14422969067979
 40
0.2602597186198083
 40
0.3918268288811915
 40
0.549207538133844
 40
0.724990505473476
 40
0.8558655534151715
 40
0.9874199933190984
 40
1.0
 40
1.0
 40
1.0
 40
1.0
 10
249.4392465808011
 20
159.0776775486693
 30
0.0
 10
249.453222246102
 20
159.0620291186367
 30
0.0
 10
249.5169219194458
 20
158.9907051523026
 30
0.0
 10
249.6716833006052
 20
158.881831281693
 30
0.0
 10
249.9257844021368
 20
158.7656436742255
 30
0.0
 10
250.2219401423216
 20
158.6578183352839
 30
0.0
 10
250.5351265001215
 20
158.5411737561944
 30
0.0
 10
250.7882621669105
 20
158.4336931005228
 30
0.0
 10
250.9495450104455
 20
158.390194494199
 30
0.0
 10
251.0057383846445
 20
158.4255565529895
 30
0.0
 10
251.0242287837121
 20
158.4667795949126
 30
0.0
 10
251.0258426196084
 20
158.4703775283358
 30
0.0
  0
SPLINE
  5
3C5
330
1F
100
AcDbEntity
  8
0
  6
Continuous
 62
     7
370
    15
100
AcDbSpline
210
0.0
220
0.0
230
1.0
 70
     8
 71
     3
 72
    10
 73
     6
 74
     0
 42
0.000000001
 43
0.00000001
 40
0.0
 40
0.0
 40
0.0
 40
0.0
 40
0.6068408479055184
 40
0.9873411522226749
 40
1.0
 40
1.0
 40
1.0
 40
1.0
 10
256.707001366706
 20
158.2671263268313
 30
0.0
 10
256.6775552002557
 20
158.3115220636286
 30
0.0
 10
256.629645749183
 20
158.383754738925
 30
0.0
 10
256.5540580017894
 20
158.4825385936001
 30
0.0
 10
256.5235997830484
 20
158.5236470387302
 30
0.0
 10
256.5226190963403
 20
158.5249706389733
 30
0.0
  0
SPLINE
  5
3C6
330
1F
100
AcDbEntity
  8
0
  6
Continuous
 62
     7
370
    15
100
AcDbSpline
210
0.0
220
0.0
230
1.0
 70
     8
 71
     3
 72
    10
 73
     6
 74
     0
 42
0.000000001
 43
0.00000001
 40
0.0
 40
0.0
 40
0.0
 40
0.0
 40
0.0126588477772864
 40
0.3931591520965021
 40
1.0
 40
1.0
 40
1.0
 40
1.0
 10
251.1886131607208
 20
158.7158019752406
 30
0.0
 10
251.1876782465994
 20
158.7145469082296
 30
0.0
 10
251.1586416352332
 20
158.6755669717795
 30
0.0
 10
251.087983825627
 20
158.5820152513377
 30
0.0
 10
251.0494972726825
 20
158.5128735109018
 30
0.0
 10
251.0258426196084
 20
158.4703775283358
 30
0.0
  0
LINE
  5
3C7
330
1F
100
AcDbEntity
  8
0
  6
Continuous
 62
     7
370
    15
100
AcDbLine
 10
258.6530525513
 20
164.0361680775
 30
0.0
 11
258.6530525513
 21
159.1369232062
 31
0.0
  0
SPLINE
  5
3C8
330
1F
100
AcDbEntity
  8
0
  6
Continuous
 62
     7
370
    15
100
AcDbSpline
210
0.0
220
0.0
230
1.0
 70
     8
 71
     3
 72
    10
 73
     6
 74
     0
 42
0.000000001
 43
0.00000001
 40
0.0
 40
0.0
 40
0.0
 40
0.0
 40
0.012658847777299
 40
0.3931591520964925
 40
1.0
 40
1.0
 40
1.0
 40
1.0
 10
258.6530525512526
 20
159.1369232061538
 30
0.0
 10
258.6522138712095
 20
159.1350770051455
 30
0.0
 10
258.6261661028473
 20
159.077737598288
 30
0.0
 10
258.5524667201984
 20
158.9360720275625
 30
0.0
 10
258.4650662911334
 20
158.8249725064957
 30
0.0
 10
258.4113481306358
 20
158.7566883805741
 30
0.0
  0
SPLINE
  5
3C9
330
1F
100
AcDbEntity
  8
0
  6
Continuous
 62
     7
370
    15
100
AcDbSpline
210
0.0
220
0.0
230
1.0
 70
     8
 71
     3
 72
     9
 73
     5
 74
     0
 42
0.000000001
 43
0.00000001
 40
0.0
 40
0.0
 40
0.0
 40
0.0
 40
0.1064920700192242
 40
1.0
 40
1.0
 40
1.0
 40
1.0
 10
246.8246431676247
 20
162.237056661273
 30
0.0
 10
246.8245395706161
 20
162.2361451849371
 30
0.0
 10
246.8235667563152
 20
162.2275860843792
 30
0.0
 10
246.8249242516451
 20
162.2190855503318
 30
0.0
 10
246.8261371844873
 20
162.2114902557513
 30
0.0
  0
ARC
  5
3CA
330
1F
100
AcDbEntity
  8
0
  6
Continuous
 62
     7
370
    15
100
AcDbCircle
 10
249.5962159591
 20
162.722186284
 30
0.0
 40
2.813710448731969
100
AcDbArc
 50
189.9283392715
 51
208.7508934014
  0
SPLINE
  5
3CB
330
1F
100
AcDbEntity
  8
0
  6
Continuous
 62
     7
370
    15
100
AcDbSpline
210
0.0
220
0.0
230
1.0
 70
     8
 71
     3
 72
    10
 73
     6
 74
     0
 42
0.000000001
 43
0.00000001
 40
0.0
 40
0.0
 40
0.0
 40
0.0
 40
0.606840847905519
 40
0.9873411522226748
 40
1.0
 40
1.0
 40
1.0
 40
1.0
 10
247.2929882690599
 20
160.9100507755223
 30
0.0
 10
247.2479077279509
 20
160.9974698648159
 30
0.0
 10
247.1745608635218
 20
161.1397023210642
 30
0.0
 10
247.1393177564517
 20
161.3024674661412
 30
0.0
 10
247.1296917643691
 20
161.3667160336284
 30
0.0
 10
247.1293818288943
 20
161.3687846941986
 30
0.0
  0
SPLINE
  5
3CC
330
1F
100
AcDbEntity
  8
0
  6
Continuous
 62
     7
370
    15
100
AcDbSpline
210
0.0
220
0.0
230
1.0
 70
     8
 71
     3
 72
    13
 73
     9
 74
     0
 42
0.000000001
 43
0.00000001
 40
0.0
 40
0.0
 40
0.0
 40
0.0
 40
0.0477516423517341
 40
0.2176471712757042
 40
0.3927401583379154
 40
0.59127909471325
 40
0.8287715695341938
 40
1.0
 40
1.0
 40
1.0
 40
1.0
 10
247.2929882690587
 20
160.9100507755227
 30
0.0
 10
247.3057519289608
 20
160.8902655565235
 30
0.0
 10
247.3639274038972
 20
160.8000865231715
 30
0.0
 10
247.4998509615989
 20
160.6463160757821
 30
0.0
 10
247.7042046042521
 20
160.4588962774351
 30
0.0
 10
247.9103477894931
 20
160.2747971394253
 30
0.0
 10
248.0739970961896
 20
160.1006877042302
 30
0.0
 10
248.1158725524115
 20
160.0184249735695
 30
0.0
 10
248.1334157427675
 20
159.9839620477082
 30
0.0
  0
SPLINE
  5
3CD
330
1F
100
AcDbEntity
  8
0
  6
Continuous
 62
     7
370
    15
100
AcDbSpline
210
0.0
220
0.0
230
1.0
 70
     8
 71
     3
 72
     9
 73
     5
 74
     0
 42
0.000000001
 43
0.00000001
 40
0.0
 40
0.0
 40
0.0
 40
0.0
 40
0.8838883845838675
 40
1.0
 40
1.0
 40
1.0
 40
1.0
 10
248.1672155115738
 20
159.8817474434089
 30
0.0
 10
248.1603978279488
 20
159.8864030375311
 30
0.0
 10
248.1526845422627
 20
159.8916702117619
 30
0.0
 10
248.1422393181566
 20
159.9225650786669
 30
0.0
 10
248.1410265063122
 20
159.9261523315713
 30
0.0
  0
SPLINE
  5
3CE
330
1F
100
AcDbEntity
  8
0
  6
Continuous
 62
     7
370
    15
100
AcDbSpline
210
0.0
220
0.0
230
1.0
 70
     8
 71
     3
 72
    10
 73
     6
 74
     0
 42
0.000000001
 43
0.00000001
 40
0.0
 40
0.0
 40
0.0
 40
0.0
 40
0.0171152705622489
 40
0.5315669625340856
 40
1.0
 40
1.0
 40
1.0
 40
1.0
 10
248.1894296254597
 20
160.1389116392618
 30
0.0
 10
248.1888347763566
 20
160.1378934017491
 30
0.0
 10
248.1703599220008
 20
160.1062689281663
 30
0.0
 10
248.1388765902119
 20
160.0489528726649
 30
0.0
 10
248.1419988177531
 20
160.0014045231364
 30
0.0
 10
248.1434868401905
 20
159.9787434550283
 30
0.0
  0
ARC
  5
3CF
330
1F
100
AcDbEntity
  8
0
  6
Continuous
 62
     7
370
    15
100
AcDbCircle
 10
252.1938103973
 20
165.1566500679
 30
0.0
 40
6.419716839935332
100
AcDbArc
 50
231.4085597128
 51
242.2567676528
  0
SPLINE
  5
3D0
330
1F
100
AcDbEntity
  8
0
  6
Continuous
 62
     7
370
    15
100
AcDbSpline
210
0.0
220
0.0
230
1.0
 70
     8
 71
     3
 72
    10
 73
     6
 74
     0
 42
0.000000001
 43
0.00000001
 40
0.0
 40
0.0
 40
0.0
 40
0.0
 40
0.6068408479055232
 40
0.9873411522226653
 40
1.0
 40
1.0
 40
1.0
 40
1.0
 10
249.4392465808024
 20
159.0776775486694
 30
0.0
 10
249.3854826037603
 20
159.1498069946334
 30
0.0
 10
249.2980076303402
 20
159.2671629216991
 30
0.0
 10
249.2296923306135
 20
159.41390926135
 30
0.0
 10
249.2061268675621
 20
159.4730236492177
 30
0.0
 10
249.2053681122133
 20
159.4749270006556
 30
0.0
  0
ARC
  5
3D1
330
1F
100
AcDbEntity
  8
0
  6
Continuous
 62
     7
370
    15
100
AcDbCircle
 10
255.7314198442
 20
166.2876889955
 30
0.0
 40
7.724596368007014
100
AcDbArc
 50
292.2237562641
 51
301.8112732643
  0
SPLINE
  5
3D2
330
1F
100
AcDbEntity
  8
0
  6
Continuous
 62
     7
370
    15
100
AcDbSpline
210
0.0
220
0.0
230
1.0
 70
     8
 71
     3
 72
    10
 73
     6
 74
     0
 42
0.000000001
 43
0.00000001
 40
0.0
 40
0.0
 40
0.0
 40
0.0
 40
0.606840847905518
 40
0.9873411522226809
 40
1.0
 40
1.0
 40
1.0
 40
1.0
 10
259.8811088151969
 20
159.5061348771617
 30
0.0
 10
259.8781479575612
 20
159.5455177730963
 30
0.0
 10
259.8733305880654
 20
159.6095944646772
 30
0.0
 10
259.8254912321431
 20
159.6892861489194
 30
0.0
 10
259.8039266370005
 20
159.7223475087467
 30
0.0
 10
259.8032323051356
 20
159.7234120107915
 30
0.0
  0
SPLINE
  5
3D3
330
1F
100
AcDbEntity
  8
0
  6
Continuous
 62
     7
370
    15
100
AcDbSpline
210
0.0
220
0.0
230
1.0
 70
     8
 71
     3
 72
    16
 73
    12
 74
     0
 42
0.000000001
 43
0.00000001
 40
0.0
 40
0.0
 40
0.0
 40
0.0
 40
0.0316438967043522
 40
0.1442296906797936
 40
0.260259718619807
 40
0.3918268288811915
 40
0.5492075381338449
 40
0.72499050547348
 40
0.8558655534151761
 40
0.9874199933191002
 40
0.9999999999999999
 40
0.9999999999999999
 40
0.9999999999999999
 40
0.9999999999999999
 10
259.881108815197
 20
159.5061348771609
 30
0.0
 10
259.8797902085071
 20
159.4977932115357
 30
0.0
 10
259.8737801321637
 20
159.459772740665
 30
0.0
 10
259.8697634057293
 20
159.4379219068907
 30
0.0
 10
259.9022213202912
 20
159.4871612982013
 30
0.0
 10
259.9981749385897
 20
159.6056958737058
 30
0.0
 10
260.185002285124
 20
159.777703062003
 30
0.0
 10
260.4463161860675
 20
159.9672078202709
 30
0.0
 10
260.7179043090875
 20
160.1736003038579
 30
0.0
 10
260.8683757399496
 20
160.3282674151306
 30
0.0
 10
260.9279018701001
 20
160.414528440711
 30
0.0
 10
260.9330972909917
 20
160.4220572744063
 30
0.0
  0
SPLINE
  5
3D4
330
1F
100
AcDbEntity
  8
0
  6
Continuous
 62
     7
370
    15
100
AcDbSpline
210
0.0
220
0.0
230
1.0
 70
     8
 71
     3
 72
    10
 73
     6
 74
     0
 42
0.000000001
 43
0.00000001
 40
0.0
 40
0.0
 40
0.0
 40
0.0
 40
0.0126588477772918
 40
0.3931591520964963
 40
1.0
 40
1.0
 40
1.0
 40
1.0
 10
261.1182178998791
 20
160.8683150073494
 30
0.0
 10
261.1177892485014
 20
160.8662727707311
 30
0.0
 10
261.1044761717381
 20
160.802844879713
 30
0.0
 10
261.0601697603128
 20
160.6429257271405
 30
0.0
 10
260.9814686595192
 20
160.5061329941935
 30
0.0
 10
260.9330972909917
 20
160.4220572744063
 30
0.0
  0
ARC
  5
3D5
330
1F
100
AcDbEntity
  8
0
  6
Continuous
 62
     7
370
    15
100
AcDbCircle
 10
258.5362132706
 20
162.9306478081
 30
0.0
 40
3.304536954973428
100
AcDbArc
 50
321.3844768585
 51
338.2890931006
  0
SPLINE
  5
3D6
330
1F
100
AcDbEntity
  8
0
  6
Continuous
 62
     7
370
    15
100
AcDbSpline
210
0.0
220
0.0
230
1.0
 70
     8
 71
     3
 72
    10
 73
     6
 74
     0
 42
0.000000001
 43
0.00000001
 40
0.0
 40
0.0
 40
0.0
 40
0.0
 40
0.3701031650414537
 40
0.9797187268649683
 40
0.9999999999999999
 40
0.9999999999999999
 40
0.9999999999999999
 40
0.9999999999999999
 10
261.5910831120241
 20
161.5748360903708
 30
0.0
 10
261.5995695491839
 20
161.591098907666
 30
0.0
 10
261.6220344243731
 20
161.6341490303365
 30
0.0
 10
261.6134194798631
 20
161.6786397909389
 30
0.0
 10
261.6065545768487
 20
161.7072987751351
 30
0.0
 10
261.6063335422834
 20
161.7082215305039
 30
0.0
  0
SPLINE
  5
3D7
330
1F
100
AcDbEntity
  8
0
  6
Continuous
 62
     7
370
    15
100
AcDbSpline
210
0.0
220
0.0
230
1.0
 70
     8
 71
     3
 72
     9
 73
     5
 74
     0
 42
0.000000001
 43
0.00000001
 40
0.0
 40
0.0
 40
0.0
 40
0.0
 40
0.7928049206939928
 40
1.0
 40
1.0
 40
1.0
 40
1.0
 10
261.6136435029183
 20
162.4656131382228
 30
0.0
 10
261.6311710953384
 20
162.4985990358781
 30
0.0
 10
261.6532794248436
 20
162.5402056112086
 30
0.0
 10
261.6709307926345
 20
162.5832730776337
 30
0.0
 10
261.6745880691839
 20
162.5921964447552
 30
0.0
  0
SPLINE
  5
3D8
330
1F
100
AcDbEntity
  8
0
  6
Continuous
 62
     7
370
    15
100
AcDbSpline
210
0.0
220
0.0
230
1.0
 70
     8
 71
     3
 72
     9
 73
     5
 74
     0
 42
0.000000001
 43
0.00000001
 40
0.0
 40
0.0
 40
0.0
 40
0.0
 40
0.3112914965357175
 40
0.9999999999999999
 40
0.9999999999999999
 40
0.9999999999999999
 40
0.9999999999999999
 10
261.7520279318256
 20
163.0202741711177
 30
0.0
 10
261.7519670911338
 20
162.9746497864168
 30
0.0
 10
261.7517716450889
 20
162.8280849582454
 30
0.0
 10
261.706065961872
 20
162.6883992084512
 30
0.0
 10
261.6745880691839
 20
162.5921964447552
 30
0.0
  0
LINE
  5
3D9
330
1F
100
AcDbEntity
  8
0
  6
Continuous
 62
     7
370
    15
100
AcDbLine
 10
259.8032323051
 20
159.7234120108
 30
0.0
 11
259.8032323051
 21
164.6226568821
 31
0.0
  0
LINE
  5
3DA
330
1F
100
AcDbEntity
  8
0
  6
Continuous
 62
     7
370
    15
100
AcDbLine
 10
249.2053681122
 20
159.4749270007
 30
0.0
 11
249.2053681122
 21
164.374171872
 31
0.0
  0
LINE
  5
3DB
330
1F
100
AcDbEntity
  8
0
  6
Continuous
 62
     7
370
    15
100
AcDbLine
 10
260.933097291
 20
160.4220572744
 30
0.0
 11
260.933097291
 21
166.0258867451
 31
0.0
  0
LINE
  5
3DC
330
1F
100
AcDbEntity
  8
0
  6
Continuous
 62
     7
370
    15
100
AcDbLine
 10
248.1894296255
 20
165.0381565106
 30
0.0
 11
248.1894296255
 21
160.1389116393
 31
0.0
  0
LINE
  5
3DD
330
1F
100
AcDbEntity
  8
0
  6
Continuous
 62
     7
370
    15
100
AcDbLine
 10
247.2929882691
 20
166.5138802462
 30
0.0
 11
247.2929882691
 21
160.9100507755
 31
0.0
  0
ARC
  5
3DE
330
1F
100
AcDbEntity
  8
0
  6
Continuous
 62
     7
370
    15
100
AcDbCircle
 10
254.2893520327
 20
164.0799002938
 30
0.0
 40
3.620871991671343
100
AcDbArc
 50
64.6933390983
 51
115.4505578957
  0
LINE
  5
3DF
330
1F
100
AcDbEntity
  8
0
  6
Continuous
 62
     7
370
    15
100
AcDbLine
 10
261.1182178999
 20
165.7675598787
 30
0.0
 11
261.1182178999
 21
160.8683150073
 31
0.0
  0
LINE
  5
3E0
330
1F
100
AcDbEntity
  8
0
  6
Continuous
 62
     7
370
    15
100
AcDbLine
 10
261.6063335423
 20
161.7082215305
 30
0.0
 11
261.6063335423
 21
166.6074664018
 31
0.0
  0
LINE
  5
3E1
330
1F
100
AcDbEntity
  8
0
  6
Continuous
 62
     7
370
    15
100
AcDbLine
 10
247.1293818289
 20
161.3687846942
 30
0.0
 11
247.1293818289
 21
166.2680295655
 31
0.0
  0
LINE
  5
3E2
330
1F
100
AcDbEntity
  8
0
  6
Continuous
 62
     7
370
    15
100
AcDbLine
 10
246.8246431676
 20
167.1363015326
 30
0.0
 11
246.8246431676
 21
162.2370566613
 31
0.0
  0
LINE
  5
3E3
330
1F
100
AcDbEntity
  8
0
  6
Continuous
 62
     7
370
    15
100
AcDbLine
 10
261.6745880692
 20
162.5921964448
 30
0.0
 11
261.6745880692
 21
168.1960259154
 31
0.0
  0
LINE
  5
3E4
330
1F
100
AcDbEntity
  8
0
  6
Continuous
 62
     7
370
    15
100
AcDbLine
 10
236.7060933279
 20
148.7231952161
 30
0.0
 11
235.5510631283
 21
148.0561937147
 31
0.0
  0
ARC
  5
3E5
330
1F
100
AcDbEntity
  8
0
  6
Continuous
 62
     7
370
    15
100
AcDbCircle
 10
248.9109338476
 20
137.8059394868
 30
0.0
 40
12.95325792729327
100
AcDbArc
 50
190.7189380059
 51
229.2756854614
  0
LWPOLYLINE
  5
3E6
330
1F
100
AcDbEntity
  8
0
  6
Continuous
 62
     7
370
    15
100
AcDbPolyline
 90
        7
 70
   128
 43
0.0
 10
240.2557007333
 20
145.3402642355
 10
240.2345429919
 20
145.4196344464
 10
240.0812615095
 20
145.7730268674
 10
239.8518595595
 20
146.0824615925
 10
239.5812615095
 20
146.3008299901
 10
239.3106634594
 20
146.394887451
 10
239.0813021432
 20
146.3503380406
  0
LWPOLYLINE
  5
3E7
330
1F
100
AcDbEntity
  8
0
  6
Continuous
 62
     7
370
    15
100
AcDbPolyline
 90
        7
 70
   128
 43
0.0
 10
244.4983414204
 20
142.8910399
 10
244.477183679
 20
142.970410111
 10
244.3239021966
 20
143.3238025319
 10
244.0945002467
 20
143.6332372571
 10
243.8239021966
 20
143.8516056546
 10
243.5533041465
 20
143.9456631155
 10
243.3239428303
 20
143.9011137051
  0
ARC
  5
3E8
330
1F
100
AcDbEntity
  8
0
  6
Continuous
 62
     7
370
    15
100
AcDbCircle
 10
249.2189705412
 20
137.9837652849
 30
0.0
 40
13.06222355177251
100
AcDbArc
 50
192.3625163093
 51
227.632107158
  0
LWPOLYLINE
  5
3E9
330
1F
100
AcDbEntity
  8
0
  6
Continuous
 62
     7
370
    15
100
AcDbPolyline
 90
        3
 70
   128
 43
0.0
 10
233.5171466573
 20
149.7748539118
 10
233.6751210371
 20
149.3561001725
 10
233.7380045254
 20
149.1028501674
  0
ARC
  5
3EA
330
1F
100
AcDbEntity
  8
0
  6
Continuous
 62
     7
370
    15
100
AcDbCircle
 10
245.3292452543
 20
135.740257601
 30
0.0
 40
1.536804807572016
100
AcDbArc
 50
2.6054784857
 51
57.39452166
  0
ARC
  5
3EB
330
1F
100
AcDbEntity
  8
0
  6
Continuous
 62
     7
370
    15
100
AcDbCircle
 10
225.7722604591
 20
124.4462847381
 30
0.0
 40
1.536804807572084
100
AcDbArc
 50
182.6054784857
 51
237.39452166
  0
LINE
  5
3EC
330
1F
100
AcDbEntity
  8
0
  6
Continuous
 62
     7
370
    15
100
AcDbLine
 10
224.2370443577
 20
148.8726482424
 30
0.0
 11
224.2370443577
 21
124.3764238858
 31
0.0
  0
ARC
  5
3ED
330
1F
100
AcDbEntity
  8
0
  6
Continuous
 62
     7
370
    15
100
AcDbCircle
 10
224.6681187252
 20
148.9425754393
 30
0.0
 40
0.4367091974285142
100
AcDbArc
 50
50.7967147643
 51
189.2140369905
  0
LINE
  5
3EE
330
1F
100
AcDbEntity
  8
0
  6
Continuous
 62
     7
370
    15
100
AcDbLine
 10
246.1573545745
 20
137.034863321
 30
0.0
 11
224.9441511389
 21
149.2809849984
 31
0.0
  0
LINE
  5
3EF
330
1F
100
AcDbEntity
  8
0
  6
Continuous
 62
     7
370
    15
100
AcDbLine
 10
246.8644613557
 20
111.3138940967
 30
0.0
 11
246.8644613557
 21
135.8101184532
 31
0.0
  0
ARC
  5
3F0
330
1F
100
AcDbEntity
  8
0
  6
Continuous
 62
     7
370
    15
100
AcDbCircle
 10
246.4333869883
 20
111.2439668998
 30
0.0
 40
0.4367091974284771
100
AcDbArc
 50
230.7967147643
 51
9.2140369905
  0
LINE
  5
3F1
330
1F
100
AcDbEntity
  8
0
  6
Continuous
 62
     7
370
    15
100
AcDbLine
 10
224.9441511389
 20
123.151679018
 30
0.0
 11
246.1573545745
 21
110.9055573407
 31
0.0
  0
LWPOLYLINE
  5
3F2
330
1F
100
AcDbEntity
  8
0
  6
Continuous
 62
     7
370
    15
100
AcDbPolyline
 90
       34
 70
   128
 43
0.0
 10
238.3220341488
 20
123.7575078239
 10
238.91972677
 20
123.9608924105
 10
239.4372804846
 20
124.310149937
 10
239.8623840696
 20
124.796972498
 10
240.1849254441
 20
125.4097798828
 10
240.397232209
 20
126.1339950377
 10
240.4942541523
 20
126.9523908151
 10
240.4736833806
 20
127.8454997616
 10
240.3360092179
 20
128.7920771966
 10
240.0845065653
 20
129.7696065668
 10
239.7251580003
 20
130.754835055
 10
239.2665114673
 20
131.7243267022
 10
238.7194769443
 20
132.6550198873
 10
238.097066924
 20
133.5247759007
 10
237.4140868813
 20
134.3129055661
 10
236.6867830905
 20
135.00066138
 10
235.9324561693
 20
135.5716834654
 10
235.1690495441
 20
136.0123887295
 10
234.414722623
 20
136.312293969
 10
233.6874188321
 20
136.4642652379
 10
233.0044387894
 20
136.464687545
 10
232.3820287692
 20
136.3135508447
 10
231.8349942461
 20
136.0144502762
 10
231.3763477131
 20
135.5745006443
 10
231.0169991482
 20
135.004167178
 10
230.7654964956
 20
134.3170165895
 10
230.6278223328
 20
133.5293943594
 10
230.6072515612
 20
132.6600359203
 10
230.7042735044
 20
131.7296209916
 10
230.9165802693
 20
130.7602816636
 10
231.2391216439
 20
129.7750759344
 10
231.6642252288
 20
128.7974392215
 10
232.1817789434
 20
127.8506268955
 10
232.7794715646
 20
126.9571610973
  0
LWPOLYLINE
  5
3F3
330
1F
100
AcDbEntity
  8
0
  6
Continuous
 62
     7
370
    15
100
AcDbPolyline
 90
       14
 70
   128
 43
0.0
 10
232.7794715646
 20
126.9571610973
 10
232.9590496655
 20
126.1986920885
 10
233.2532414668
 20
125.43190357
 10
233.6490368326
 20
124.6907054701
 10
234.1289323805
 20
124.0078760241
 10
234.6717055398
 20
123.4136122121
 10
235.2533530834
 20
122.9341943483
 10
235.8481526301
 20
122.5908238788
 10
236.4298001737
 20
122.3986857833
 10
236.972573333
 20
122.3662770447
 10
237.4524688809
 20
122.4950308849
 10
237.8482642466
 20
122.7792533825
 10
238.1424560479
 20
123.2063752772
 10
238.3220341488
 20
123.7575078239
  0
LINE
  5
3F4
330
1F
100
AcDbEntity
  8
0
  6
Continuous
 62
     7
370
    15
100
AcDbLine
 10
244.8601924017
 20
142.6821477749
 30
0.0
 11
231.8977078249
 21
150.1652308392
 31
0.0
  0
LWPOLYLINE
  5
3F5
330
1F
100
AcDbEntity
  8
0
  6
Continuous
 62
     7
370
    15
100
AcDbPolyline
 90
       21
 70
   128
 43
0.0
 10
236.1517936207
 20
143.5048976072
 10
236.5694354851
 20
143.3297285551
 10
237.0604029424
 20
143.2376367345
 10
237.576636677
 20
143.2376367345
 10
238.0676041342
 20
143.3297285551
 10
238.4852459986
 20
143.5048976072
 10
238.7886805746
 20
143.7459971236
 10
238.9482055717
 20
144.0294266037
 10
238.9482055717
 20
144.3274419953
 10
238.7886805746
 20
144.6108714754
 10
238.4852459986
 20
144.8519709917
 10
238.0676041342
 20
145.0271400439
 10
237.576636677
 20
145.1192318644
 10
237.0604029424
 20
145.1192318644
 10
236.5694354851
 20
145.0271400439
 10
236.1517936207
 20
144.8519709917
 10
235.8483590448
 20
144.6108714754
 10
235.6888340477
 20
144.3274419953
 10
235.6888340477
 20
144.0294266037
 10
235.8483590448
 20
143.7459971236
 10
236.1517936207
 20
143.5048976072
  0
LINE
  5
3F6
330
1F
100
AcDbEntity
  8
0
  6
Continuous
 62
     7
370
    15
100
AcDbLine
 10
232.7794715646
 20
126.9571610973
 30
0.0
 11
236.3150054705
 21
128.9981813768
 31
0.0
  0
LINE
  5
3F7
330
1F
100
AcDbEntity
  8
0
  6
Continuous
 62
     7
370
    15
100
AcDbLine
 10
239.651521769
 20
124.5250046904
 30
0.0
 11
238.3220341488
 21
123.7575078239
 31
0.0
  0
ARC
  5
3F8
330
1F
100
AcDbEntity
  8
0
  6
Continuous
 62
     7
370
    15
100
AcDbCircle
 10
243.6371107108
 20
134.9590119063
 30
0.0
 40
9.441648465765985
100
AcDbArc
 50
171.5515090732
 51
219.148586603
  0
LWPOLYLINE
  5
3F9
330
1F
100
AcDbEntity
  8
0
  6
Continuous
 62
     7
370
    15
100
AcDbPolyline
 90
       16
 70
   128
 43
0.0
 10
235.4633657254
 20
135.8586135115
 10
235.4317401285
 20
135.7800200445
 10
235.2562834409
 20
135.1251548358
 10
235.1971994661
 20
134.3794137566
 10
235.2562834409
 20
133.5654557721
 10
235.4317401285
 20
132.7080125839
 10
235.7182383663
 20
131.8331371693
 10
236.1070730503
 20
130.9674121751
 10
236.5864296354
 20
130.1371422172
 10
237.1417431144
 20
129.3675546281
 10
237.7561405681
 20
128.6820329372
 10
238.4109538408
 20
128.1014063743
 10
239.0862867626
 20
127.6433169837
 10
239.7616196845
 20
127.3216835797
 10
240.4164329572
 20
127.1462788304
 10
240.4997145926
 20
127.1344561082
  0
ARC
  5
3FA
330
1F
100
AcDbEntity
  8
0
  6
Continuous
 62
     7
370
    15
100
AcDbCircle
 10
242.1069841183
 20
129.8374520052
 30
0.0
 40
5.85246886734791
100
AcDbArc
 50
188.244900757
 51
245.1931827258
  0
ARC
  5
3FB
330
1F
100
AcDbEntity
  8
0
  6
Continuous
 62
     7
370
    15
100
AcDbCircle
 10
243.7767094761
 20
134.8420148461
 30
0.0
 40
7.842586870069049
100
AcDbArc
 50
174.8268740905
 51
245.1677493768
  0
LINE
  5
3FC
330
1F
100
AcDbEntity
  8
0
  6
Continuous
 62
     7
370
    15
100
AcDbLine
 10
249.6928884804
 20
152.957740903
 30
0.0
 11
246.2278311087
 21
154.9580759453
 31
0.0
  0
LINE
  5
3FD
330
1F
100
AcDbEntity
  8
0
  6
Continuous
 62
     7
370
    15
100
AcDbLine
 10
249.6928884804
 20
105.5983738136
 30
0.0
 11
249.6928884804
 21
152.957740903
 31
0.0
  0
LINE
  5
3FE
330
1F
100
AcDbEntity
  8
0
  6
Continuous
 62
     7
370
    15
100
AcDbLine
 10
221.408617233
 20
169.2859031394
 30
0.0
 11
221.408617233
 21
122.7430768619
 31
0.0
  0
LINE
  5
3FF
330
1F
100
AcDbEntity
  8
0
  6
Continuous
 62
     7
370
    15
100
AcDbLine
 10
224.8736746047
 20
167.2855680971
 30
0.0
 11
221.408617233
 21
169.2859031394
 31
0.0
  0
LINE
  5
400
330
1F
100
AcDbEntity
  8
0
  6
Continuous
 62
     7
370
    15
100
AcDbLine
 10
224.8736746047
 20
167.2855680971
 30
0.0
 11
224.8736746047
 21
150.9547518593
 31
0.0
  0
LINE
  5
401
330
1F
100
AcDbEntity
  8
0
  6
Continuous
 62
     7
370
    15
100
AcDbLine
 10
224.9441511389
 20
150.9140666221
 30
0.0
 11
224.8736746047
 21
150.9547518593
 31
0.0
  0
ARC
  5
402
330
1F
100
AcDbEntity
  8
0
  6
Continuous
 62
     7
370
    15
100
AcDbCircle
 10
224.1160538976
 20
149.8988379449
 30
0.0
 40
1.310127592285455
100
AcDbArc
 50
50.7967147643
 51
189.2140369905
  0
LINE
  5
403
330
1F
100
AcDbEntity
  8
0
  6
Continuous
 62
     7
370
    15
100
AcDbLine
 10
222.8228307954
 20
149.6890563542
 30
0.0
 11
222.8228307954
 21
125.1928319976
 31
0.0
  0
ARC
  5
404
330
1F
100
AcDbEntity
  8
0
  6
Continuous
 62
     7
370
    15
100
AcDbCircle
 10
227.4284790995
 20
125.4024145544
 30
0.0
 40
4.610414422716286
100
AcDbArc
 50
182.6054784857
 51
237.39452166
  0
LINE
  5
405
330
1F
100
AcDbEntity
  8
0
  6
Continuous
 62
     7
370
    15
100
AcDbLine
 10
224.9441511389
 20
121.5185973943
 30
0.0
 11
246.1573545745
 21
109.2724757169
 31
0.0
  0
ARC
  5
406
330
1F
100
AcDbEntity
  8
0
  6
Continuous
 62
     7
370
    15
100
AcDbCircle
 10
246.9854518158
 20
110.2877043941
 30
0.0
 40
1.310127592285439
100
AcDbArc
 50
230.7967147643
 51
9.2140369905
  0
LINE
  5
407
330
1F
100
AcDbEntity
  8
0
  6
Continuous
 62
     7
370
    15
100
AcDbLine
 10
248.2786749181
 20
110.4974859848
 30
0.0
 11
248.2786749181
 21
134.9937103414
 31
0.0
  0
ARC
  5
408
330
1F
100
AcDbEntity
  8
0
  6
Continuous
 62
     7
370
    15
100
AcDbCircle
 10
243.673026614
 20
134.7841277846
 30
0.0
 40
4.610414422716189
100
AcDbArc
 50
2.6054784857
 51
57.39452166
  0
LINE
  5
409
330
1F
100
AcDbEntity
  8
0
  6
Continuous
 62
     7
370
    15
100
AcDbLine
 10
246.2278311087
 20
138.6272597076
 30
0.0
 11
246.1573545745
 21
138.6679449448
 31
0.0
  0
LINE
  5
40A
330
1F
100
AcDbEntity
  8
0
  6
Continuous
 62
     7
370
    15
100
AcDbLine
 10
246.2278311087
 20
138.6272597076
 30
0.0
 11
246.2278311087
 21
154.9580759453
 31
0.0
  0
LINE
  5
40B
330
1F
100
AcDbEntity
  8
0
  6
Continuous
 62
     7
370
    15
100
AcDbLine
 10
249.6928884804
 20
152.957740903
 30
0.0
 11
261.7137037606
 21
159.8972098535
 31
0.0
  0
LINE
  5
40C
330
1F
100
AcDbEntity
  8
0
  6
Continuous
 62
     7
370
    15
100
AcDbLine
 10
261.7137037606
 20
112.5378427641
 30
0.0
 11
261.7137037606
 21
159.8972098535
 31
0.0
  0
LINE
  5
40D
330
1F
100
AcDbEntity
  8
0
  6
Continuous
 62
     7
370
    15
100
AcDbLine
 10
249.6928884804
 20
105.5983738136
 30
0.0
 11
261.7137037606
 21
112.5378427641
 31
0.0
  0
ARC
  5
40E
330
1F
100
AcDbEntity
  8
0
  6
Continuous
 62
     7
370
    15
100
AcDbCircle
 10
261.403849707
 20
160.7136179653
 30
0.0
 40
0.8732306336685978
100
AcDbArc
 50
290.7834207995
 51
69.2165792005
  0
LWPOLYLINE
  5
40F
330
1F
100
AcDbEntity
  8
0
  6
Continuous
 62
     7
370
    15
100
AcDbPolyline
 90
       18
 70
   128
 43
0.0
 10
246.2278311087
 20
154.9580759453
 10
246.0842220344
 20
156.084921601
 10
245.7676955912
 20
157.1999395699
 10
245.280757042
 20
158.2943046402
 10
244.6272604376
 20
159.3593550647
 10
243.8123781125
 20
160.3866611177
 10
242.8425597469
 20
161.3680918148
 10
241.7254813181
 20
162.2958792687
 10
240.4699843462
 20
163.1626801709
 10
239.086005915
 20
163.961633913
 10
237.5845000211
 20
164.6864168874
 10
235.9773508743
 20
165.3312925378
 10
234.2772788366
 20
165.8911567632
 10
232.4977397411
 20
166.3615783163
 10
230.6528183921
 20
166.7388338759
 10
228.7571170852
 20
167.0199375169
 10
226.8256400321
 20
167.2026643431
 10
224.8736746047
 20
167.2855680971
  0
LINE
  5
410
330
1F
100
AcDbEntity
  8
0
  6
Continuous
 62
     7
370
    15
100
AcDbLine
 10
221.408617233
 20
169.2859031394
 30
0.0
 11
228.5055165245
 21
173.3828558943
 31
0.0
  0
LINE
  5
411
330
1F
100
AcDbEntity
  8
0
  6
Continuous
 62
     7
370
    15
100
AcDbLine
 10
261.7137037606
 20
161.5300260771
 30
0.0
 11
261.6000445603
 21
161.5956401368
 31
0.0
  0
LINE
  5
412
330
1F
100
AcDbEntity
  8
0
  6
Continuous
 62
     7
370
    15
100
AcDbLine
 10
247.5689946809
 20
169.6955928199
 30
0.0
 11
243.2081965286
 21
172.213028008
 31
0.0
  0
ARC
  5
413
330
1F
100
AcDbEntity
  8
0
  6
Continuous
 62
     7
370
    15
100
AcDbCircle
 10
238.8826752413
 20
138.2589066539
 30
0.0
 40
7.354386357120803
100
AcDbArc
 50
2.8709274187
 51
3.4861177607
  0
LWPOLYLINE
  5
414
330
1F
100
AcDbEntity
  8
0
  6
Continuous
 62
     7
370
    15
100
AcDbPolyline
 90
       18
 70
   128
 43
0.0
 10
246.2234527523
 20
138.7061026106
 10
246.0697074294
 20
139.8232021982
 10
245.7459838403
 20
140.928129453
 10
245.254802336
 20
142.0122819602
 10
244.5999870116
 20
143.0672190473
 10
243.7866359339
 20
144.0847274983
 10
242.8210814501
 20
145.0568854979
 10
241.7108408878
 20
145.976124307
 10
240.4645580282
 20
146.835287189
 10
239.0919358105
 20
147.6276851286
 10
237.6036607892
 20
148.3471489092
 10
236.0113199341
 20
148.9880771433
 10
234.3273104199
 20
149.5454798821
 10
232.5647431079
 20
150.0150174649
 10
230.7373404714
 20
150.3930343054
 10
228.8593297593
 20
150.6765873522
 10
226.9453322298
 20
150.8634690023
 10
225.0102493167
 20
150.952224288
  0
ARC
  5
415
330
1F
100
AcDbEntity
  8
0
  6
Continuous
 62
     7
370
    15
100
AcDbCircle
 10
224.2375259512
 20
112.8900152217
 30
0.0
 40
38.07005201466582
100
AcDbArc
 50
88.8369643378
 51
89.0425458468
  0
ARC
  5
416
330
1F
100
AcDbEntity
  8
0
  6
Continuous
 62
     7
370
    15
100
AcDbCircle
 10
261.2985760733
 20
113.4540636297
 30
0.0
 40
1.005878556987594
100
AcDbArc
 50
294.3746582936
 51
354.3052007488
  0
LINE
  5
417
330
1F
100
AcDbEntity
  8
0
  6
Continuous
 62
     7
370
    15
100
AcDbLine
 10
246.1573545745
 20
138.6679449448
 30
0.0
 11
246.2234527523
 21
138.7061026106
 31
0.0
  0
LWPOLYLINE
  5
418
330
1F
100
AcDbEntity
  8
0
  6
Continuous
 62
     7
370
    15
100
AcDbPolyline
 90
        3
 70
   128
 43
0.0
 10
234.4900926849
 20
148.6682808143
 10
234.4298574867
 20
149.2313946371
 10
234.3522799298
 20
149.5380283139
  0
ARC
  5
419
330
1F
100
AcDbEntity
  8
0
  6
Continuous
 62
     7
370
    15
100
AcDbCircle
 10
249.218955083
 20
137.9837563611
 30
0.0
 40
13.06220654140433
100
AcDbArc
 50
192.3624925905
 51
227.6321308768
  0
LINE
  5
41A
330
1F
100
AcDbEntity
  8
0
  6
Continuous
 62
     7
370
    15
100
AcDbLine
 10
224.9441511389
 20
150.9140666221
 30
0.0
 11
225.0102493167
 21
150.952224288
 31
0.0
  0
LINE
  5
41B
330
1F
100
AcDbEntity
  8
0
  6
Continuous
 62
     7
370
    15
100
AcDbLine
 10
220.3479570612
 20
110.2928531566
 30
0.0
 11
226.0048113107
 21
113.5584856039
 31
0.0
  0
LINE
  5
41C
330
1F
100
AcDbEntity
  8
0
  6
Continuous
 62
     7
370
    15
100
AcDbLine
 10
213.6304426399
 20
114.1707916878
 30
0.0
 11
220.3479570612
 21
110.2928531566
 31
0.0
  0
ARC
  5
41D
330
1F
100
AcDbEntity
  8
0
  6
Continuous
 62
     7
370
    15
100
AcDbCircle
 10
214.4050777739
 20
116.2118119673
 30
0.0
 40
2.183076584171371
100
AcDbArc
 50
110.7834207995
 51
249.2165792005
  0
LINE
  5
41E
330
1F
100
AcDbEntity
  8
0
  6
Continuous
 62
     7
370
    15
100
AcDbLine
 10
221.408617233
 20
122.7430768619
 30
0.0
 11
213.6304426399
 21
118.2528322469
 31
0.0
  0
LINE
  5
41F
330
1F
100
AcDbEntity
  8
0
  6
Continuous
 62
     7
370
    15
100
AcDbLine
 10
221.408617233
 20
122.7430768619
 30
0.0
 11
249.6928884804
 21
106.4149146255
 31
0.0
  0
LINE
  5
420
330
1F
100
AcDbEntity
  8
0
  6
Continuous
 62
     7
370
    15
100
AcDbLine
 10
241.9147138874
 20
101.9246700105
 30
0.0
 11
249.6928884804
 21
106.4149146255
 31
0.0
  0
ARC
  5
421
330
1F
100
AcDbEntity
  8
0
  6
Continuous
 62
     7
370
    15
100
AcDbCircle
 10
238.3791799815
 20
108.7482254352
 30
0.0
 40
7.685109539558516
100
AcDbArc
 50
242.6096722366
 51
297.3903277634
  0
LINE
  5
422
330
1F
100
AcDbEntity
  8
0
  6
Continuous
 62
     7
370
    15
100
AcDbLine
 10
228.1261316543
 20
105.8026085416
 30
0.0
 11
234.8436460755
 21
101.9246700105
 31
0.0
  0
LINE
  5
423
330
1F
100
AcDbEntity
  8
0
  6
Continuous
 62
     7
370
    15
100
AcDbLine
 10
228.1261316543
 20
105.8026085416
 30
0.0
 11
233.7829859037
 21
109.0682409889
 31
0.0
  0
LWPOLYLINE
  5
424
330
1F
100
AcDbEntity
  8
0
  6
Continuous
 62
     7
370
    15
100
AcDbPolyline
 90
       19
 70
   128
 43
0.0
 10
233.7829859037
 20
109.0682409889
 10
234.3992348508
 20
109.4922108389
 10
234.8785914359
 20
109.9715154847
 10
235.2064906518
 20
110.4915914973
 10
235.3729694467
 20
111.0366366301
 10
235.3729694467
 20
111.5900899627
 10
235.2064906518
 20
112.1351350956
 10
234.8785914359
 20
112.6552111081
 10
234.3992348508
 20
113.134515754
 10
233.7829859037
 20
113.5584856039
 10
233.0485690072
 20
113.9142385486
 10
232.2182990468
 20
114.1909652149
 10
231.3174033553
 20
114.3802574031
 10
230.3732551923
 20
114.4763635657
 10
229.4145420221
 20
114.4763635657
 10
228.4703938592
 20
114.3802574031
 10
227.5694981676
 20
114.1909652149
 10
226.7392282073
 20
113.9142385486
 10
226.0048113107
 20
113.5584856039
  0
LWPOLYLINE
  5
425
330
1F
100
AcDbEntity
  8
0
  6
Continuous
 62
     7
370
    15
100
AcDbPolyline
 90
       32
 70
   128
 43
0.0
 10
236.0457276035
 20
104.4963555627
 10
236.6729838673
 20
104.2010959173
 10
237.3903563248
 20
103.9847719246
 10
238.1684756633
 20
103.8562399141
 10
238.9754855855
 20
103.8207620015
 10
239.7783470106
 20
103.8797906568
 10
240.5441906974
 20
104.0309092398
 10
241.2416629154
 20
104.267930938
 10
241.8422090701
 20
104.5811520552
 10
242.3212427313
 20
104.9577492821
 10
242.6591522046
 20
105.3823046839
 10
242.8421034365
 20
105.8374369127
 10
242.8626063821
 20
106.3045128015
 10
242.7198216483
 20
106.7644102085
 10
242.419594859
 20
107.1983008799
 10
241.9742173342
 20
107.5884212805
 10
241.4019228821
 20
107.9187998354
 10
240.7261413047
 20
108.1759108078
 10
239.9745391793
 20
108.3492280441
 10
239.1778871852
 20
108.4316559163
 10
238.3688003486
 20
108.4198198178
 10
237.5804027797
 20
108.3142043197
 10
236.8449715676
 20
108.1191333329
 10
236.1926153525
 20
107.8425930867
 10
235.6500416745
 20
107.495905171
 10
235.2394635637
 20
107.0932630301
 10
234.9776901363
 20
106.6511508803
 10
234.8754384271
 20
106.1876688451
 10
234.9368946331
 20
105.7217919334
 10
235.15954273
 20
105.2725932008
 10
235.5342674786
 20
104.8584628961
 10
236.0457276035
 20
104.4963555627
  0
LWPOLYLINE
  5
426
330
1F
100
AcDbEntity
  8
0
  6
Continuous
 62
     7
370
    15
100
AcDbPolyline
 90
       32
 70
   128
 43
0.0
 10
218.0852153614
 20
114.8647385828
 10
218.7124716252
 20
114.5694789375
 10
219.4298440827
 20
114.3531549447
 10
220.2079634211
 20
114.2246229342
 10
221.0149733434
 20
114.1891450217
 10
221.8178347685
 20
114.248173677
 10
222.5836784553
 20
114.39929226
 10
223.2811506733
 20
114.6363139581
 10
223.881696828
 20
114.9495350753
 10
224.3607304891
 20
115.3261323022
 10
224.6986399624
 20
115.7506877041
 10
224.8815911944
 20
116.2058199328
 10
224.9020941399
 20
116.6728958216
 10
224.7593094062
 20
117.1327932286
 10
224.4590826169
 20
117.5666839
 10
224.0137050921
 20
117.9568043007
 10
223.4414106399
 20
118.2871828556
 10
222.7656290626
 20
118.5442938279
 10
222.0140269372
 20
118.7176110642
 10
221.2173749431
 20
118.8000389365
 10
220.4082881065
 20
118.7882028379
 10
219.6198905376
 20
118.6825873398
 10
218.8844593254
 20
118.4875163531
 10
218.2321031103
 20
118.2109761068
 10
217.6895294323
 20
117.8642881912
 10
217.2789513216
 20
117.4616460502
 10
217.0171778942
 20
117.0195339004
 10
216.914926185
 20
116.5560518652
 10
216.976382391
 20
116.0901749536
 10
217.1990304879
 20
115.6409762209
 10
217.5737552364
 20
115.2268459163
 10
218.0852153614
 20
114.8647385828
  0
LINE
  5
427
330
1F
100
AcDbEntity
  8
0
  6
Continuous
 62
     7
370
    15
100
AcDbLine
 10
241.9147138874
 20
101.9246700105
 30
0.0
 11
241.9147138874
 21
97.0254251391
 31
0.0
  0
ARC
  5
428
330
1F
100
AcDbEntity
  8
0
  6
Continuous
 62
     7
370
    15
100
AcDbCircle
 10
238.3791799815
 20
103.8489805639
 30
0.0
 40
7.685109539558756
100
AcDbArc
 50
242.6096722366
 51
297.3903277634
  0
LINE
  5
429
330
1F
100
AcDbEntity
  8
0
  6
Continuous
 62
     7
370
    15
100
AcDbLine
 10
234.8436460755
 20
97.0254251391
 30
0.0
 11
234.8436460755
 21
101.9246700105
 31
0.0
  0
LINE
  5
42A
330
1F
100
AcDbEntity
  8
0
  6
Continuous
 62
     7
370
    15
100
AcDbLine
 10
249.6928884804
 20
105.5983738136
 30
0.0
 11
249.6928884804
 21
106.4149146255
 31
0.0
  0
LINE
  5
42B
330
1F
100
AcDbEntity
  8
0
  6
Continuous
 62
     7
370
    15
100
AcDbLine
 10
261.7137037606
 20
108.4551387047
 30
0.0
 11
261.7137037606
 21
112.5378427641
 31
0.0
  0
LINE
  5
42C
330
1F
100
AcDbEntity
  8
0
  6
Continuous
 62
     7
370
    15
100
AcDbLine
 10
241.9147138874
 20
97.0254251391
 30
0.0
 11
261.7137037606
 21
108.4551387047
 31
0.0
  0
LINE
  5
42D
330
1F
100
AcDbEntity
  8
0
  6
Continuous
 62
     7
370
    15
100
AcDbLine
 10
228.1261316543
 20
102.5364452941
 30
0.0
 11
228.1261316543
 21
105.8026085416
 31
0.0
  0
LINE
  5
42E
330
1F
100
AcDbEntity
  8
0
  6
Continuous
 62
     7
370
    15
100
AcDbLine
 10
226.7119180919
 20
101.7197717821
 30
0.0
 11
234.8436460755
 21
97.0254251391
 31
0.0
  0
LINE
  5
42F
330
1F
100
AcDbEntity
  8
0
  6
Continuous
 62
     7
370
    15
100
AcDbLine
 10
226.7119180919
 20
101.7197717821
 30
0.0
 11
226.7119180919
 21
103.3528534059
 31
0.0
  0
LINE
  5
430
330
1F
100
AcDbEntity
  8
0
  6
Continuous
 62
     7
370
    15
100
AcDbLine
 10
226.7119180919
 20
103.3528534059
 30
0.0
 11
228.1261316543
 21
102.5364452941
 31
0.0
  0
ARC
  5
431
330
1F
100
AcDbEntity
  8
0
  6
Continuous
 62
     7
370
    15
100
AcDbCircle
 10
238.8741547283
 20
99.1195940927
 30
0.0
 40
6.074875234658841
100
AcDbArc
 50
62.2562109602
 51
117.7437890398
  0
ARC
  5
432
330
1F
100
AcDbEntity
  8
0
  6
Continuous
 62
     7
370
    15
100
AcDbCircle
 10
238.8741547283
 20
100.5667319538
 30
0.0
 40
3.60005596172111
100
AcDbArc
 50
69.4675369594
 51
110.5324630406
  0
LINE
  5
433
330
1F
100
AcDbEntity
  8
0
  6
Continuous
 62
     7
370
    15
100
AcDbLine
 10
226.7119180919
 20
103.3528534059
 30
0.0
 11
228.1261316543
 21
104.1692615177
 31
0.0
  0
ARC
  5
434
330
1F
100
AcDbEntity
  8
0
  6
Continuous
 62
     7
370
    15
100
AcDbCircle
 10
229.8279360587
 20
105.4311167047
 30
0.0
 40
4.707785067180645
100
AcDbArc
 50
44.4197366659
 51
120.7762479844
  0
LINE
  5
435
330
1F
100
AcDbEntity
  8
0
  6
Continuous
 62
     7
370
    15
100
AcDbLine
 10
221.7621706236
 20
106.2102817973
 30
0.0
 11
227.4190248731
 21
109.4759142446
 31
0.0
  0
LINE
  5
436
330
1F
100
AcDbEntity
  8
0
  6
Continuous
 62
     7
370
    15
100
AcDbLine
 10
220.3479570612
 20
107.0266899091
 30
0.0
 11
221.7621706236
 21
106.2102817973
 31
0.0
  0
LINE
  5
437
330
1F
100
AcDbEntity
  8
0
  6
Continuous
 62
     7
370
    15
100
AcDbLine
 10
220.3479570612
 20
107.0266899091
 30
0.0
 11
226.0048113107
 21
110.2923223564
 31
0.0
  0
ARC
  5
438
330
1F
100
AcDbEntity
  8
0
  6
Continuous
 62
     7
370
    15
100
AcDbCircle
 10
229.832165017
 20
103.2997095435
 30
0.0
 40
7.971528733169968
100
AcDbArc
 50
53.1702413329
 51
118.6937586126
  0
LINE
  5
439
330
1F
100
AcDbEntity
  8
0
  6
Continuous
 62
     7
370
    15
100
AcDbLine
 10
226.0048113107
 20
110.2923223564
 30
0.0
 11
226.0048113107
 21
113.5584856039
 31
0.0
  0
LINE
  5
43A
330
1F
100
AcDbEntity
  8
0
  6
Continuous
 62
     7
370
    15
100
AcDbLine
 10
221.7621706236
 20
104.5772001735
 30
0.0
 11
221.7621706236
 21
106.2102817973
 31
0.0
  0
LINE
  5
43B
330
1F
100
AcDbEntity
  8
0
  6
Continuous
 62
     7
370
    15
100
AcDbLine
 10
213.6304426399
 20
114.1707916878
 30
0.0
 11
213.6304426399
 21
109.2715468165
 31
0.0
  0
LINE
  5
43C
330
1F
100
AcDbEntity
  8
0
  6
Continuous
 62
     7
370
    15
100
AcDbLine
 10
220.3479570612
 20
107.0266899091
 30
0.0
 11
220.3479570612
 21
110.2928531566
 31
0.0
  0
LINE
  5
43D
330
1F
100
AcDbEntity
  8
0
  6
Continuous
 62
     7
370
    15
100
AcDbLine
 10
213.6304426399
 20
109.2715468165
 30
0.0
 11
221.7621706236
 21
104.5772001735
 31
0.0
  0
LINE
  5
43E
330
1F
100
AcDbEntity
  8
0
  6
Continuous
 62
     7
370
    15
100
AcDbLine
 10
227.4190248731
 20
107.8428326208
 30
0.0
 11
227.4190248731
 21
109.4759142446
 31
0.0
  0
LINE
  5
43F
330
1F
100
AcDbEntity
  8
0
  6
Continuous
 62
     7
370
    15
100
AcDbLine
 10
227.4190248731
 20
107.8428326208
 30
0.0
 11
221.7621706236
 21
104.5772001735
 31
0.0
  0
ARC
  5
440
330
1F
100
AcDbEntity
  8
0
  6
Continuous
 62
     7
370
    15
100
AcDbCircle
 10
229.9074772589
 20
103.0389432683
 30
0.0
 40
5.410152325767789
100
AcDbArc
 50
67.3716374211
 51
117.3845111648
  0
ARC
  5
441
330
1F
100
AcDbEntity
  8
0
  6
Continuous
 62
     7
370
    15
100
AcDbCircle
 10
220.9136424862
 20
109.4879771128
 30
0.0
 40
6.074875234658792
100
AcDbArc
 50
62.2562109602
 51
117.7437890398
  0
ARC
  5
442
330
1F
100
AcDbEntity
  8
0
  6
Continuous
 62
     7
370
    15
100
AcDbCircle
 10
261.2985760733
 20
109.3713595703
 30
0.0
 40
1.005878556987536
100
AcDbArc
 50
294.3746582936
 51
354.3052007488
  0
ARC
  5
443
330
1F
100
AcDbEntity
  8
0
  6
Continuous
 62
     7
370
    15
100
AcDbCircle
 10
214.6682618583
 20
111.5620989805
 30
0.0
 40
2.514696392468841
100
AcDbArc
 50
185.6947992512
 51
245.6253417064
  0
ARC
  5
444
330
1F
100
AcDbEntity
  8
0
  6
Continuous
 62
     7
370
    15
100
AcDbCircle
 10
220.9136424862
 20
110.935114974
 30
0.0
 40
3.600055961722039
100
AcDbArc
 50
69.4675369595
 51
110.5324630405
  0
LINE
  5
445
330
1F
100
AcDbEntity
  8
0
  6
Continuous
 62
     8
370
    15
100
AcDbLine
 10
228.5557440843
 20
179.0362227355
 30
0.0
 11
228.5557440843
 21
177.9769689189
 31
0.0
  0
LINE
  5
446
330
1F
100
AcDbEntity
  8
0
  6
Continuous
 62
     8
370
    15
100
AcDbLine
 10
243.2365791525
 20
178.0212706943
 30
0.0
 11
243.2365791525
 21
179.1087444673
 31
0.0
  0
LINE
  5
447
330
1F
100
AcDbEntity
  8
0
  6
Continuous
 62
     8
370
    15
100
AcDbLine
 10
247.0213277723
 20
168.720266285
 30
0.0
 11
247.0213277723
 21
167.8651532254
 31
0.0
  0
LINE
  5
448
330
1F
100
AcDbEntity
  8
0
  6
Continuous
 62
     8
370
    15
100
AcDbLine
 10
246.1573545745
 20
137.034863321
 30
0.0
 11
247.2616506503
 21
137.6723598761
 31
0.0
  0
LINE
  5
449
330
1F
100
AcDbEntity
  8
0
  6
Continuous
 62
     8
370
    15
100
AcDbLine
 10
247.9687139022
 20
136.4475898794
 30
0.0
 11
246.8644613557
 21
135.8101184532
 31
0.0
  0
LINE
  5
44A
330
1F
100
AcDbEntity
  8
0
  6
Continuous
 62
     8
370
    15
100
AcDbLine
 10
246.8644613557
 20
111.3138940967
 30
0.0
 11
248.2786749181
 21
112.1303022085
 31
0.0
  0
LINE
  5
44B
330
1F
100
AcDbEntity
  8
0
  6
Continuous
 62
     8
370
    15
100
AcDbLine
 10
227.5949548361
 20
150.8112613999
 30
0.0
 11
224.9441511389
 21
149.2809849984
 31
0.0
  0
LINE
  5
44C
330
1F
100
AcDbEntity
  8
0
  6
Continuous
 62
     8
370
    15
100
AcDbLine
 10
246.1573545745
 20
109.2724757169
 30
0.0
 11
248.2786748901
 21
110.4970878685
 31
0.0
  0
LINE
  5
44D
330
1F
100
AcDbEntity
  8
0
  6
Continuous
 62
     8
370
    15
100
AcDbLine
 10
225.0109154837
 20
150.9522107578
 30
0.0
 11
222.8228307954
 21
149.6890563542
 31
0.0
  0
LINE
  5
44E
330
1F
100
AcDbEntity
  8
0
  6
Continuous
 62
     8
370
    15
100
AcDbLine
 10
226.3585945694
 20
122.3351382061
 30
0.0
 11
224.9441511389
 21
121.5185973943
 31
0.0
  0
LINE
  5
44F
330
1F
100
AcDbEntity
  8
0
  6
Continuous
 62
     8
370
    15
100
AcDbLine
 10
222.8228307954
 20
125.1928319976
 30
0.0
 11
224.2370443577
 21
126.0092401095
 31
0.0
  0
ENDSEC
  0
SECTION
  2
OBJECTS
  0
DICTIONARY
  5
C
330
0
100
AcDbDictionary
281
     1
  3
ACAD_GROUP
350
D
  3
ACAD_LAYOUT
350
1A
  3
ACAD_MLINESTYLE
350
17
  3
ACAD_PLOTSETTINGS
350
19
  3
ACAD_PLOTSTYLENAME
350
E
  3
ACAD_SCALELIST
350
47
  0
DICTIONARY
  5
D
102
{ACAD_REACTORS
330
C
102
}
330
C
100
AcDbDictionary
281
     1
  0
DICTIONARY
  5
1A
102
{ACAD_REACTORS
330
C
102
}
330
C
100
AcDbDictionary
281
     1
  3
Layout1
350
1E
  3
Layout2
350
26
  3
Model
350
22
  0
DICTIONARY
  5
17
102
{ACAD_REACTORS
330
C
102
}
330
C
100
AcDbDictionary
281
     1
  3
Standard
350
18
  0
DICTIONARY
  5
19
102
{ACAD_REACTORS
330
C
102
}
330
C
100
AcDbDictionary
281
     1
  0
ACDBDICTIONARYWDFLT
  5
E
102
{ACAD_REACTORS
330
C
102
}
330
C
100
AcDbDictionary
281
     1
  3
Normal
350
F
100
AcDbDictionaryWithDefault
340
F
  0
DICTIONARY
  5
47
102
{ACAD_REACTORS
330
C
102
}
330
C
100
AcDbDictionary
281
     1
  3
A0
350
48
  3
A1
350
49
  3
A2
350
4A
  3
A3
350
4B
  3
A4
350
4C
  3
A5
350
4D
  3
A6
350
4E
  3
A7
350
4F
  3
A8
350
50
  3
A9
350
51
  3
B0
350
52
  3
B1
350
53
  3
B2
350
54
  3
B3
350
55
  3
B4
350
56
  3
B5
350
57
  3
B6
350
58
  3
B7
350
59
  3
B8
350
5A
  3
B9
350
5B
  3
C0
350
5C
  3
C1
350
5D
  3
C2
350
5E
  3
C3
350
5F
  3
C4
350
60
  3
C5
350
61
  3
C6
350
62
  3
C7
350
63
  3
C8
350
64
  3
C9
350
65
  3
D0
350
66
  3
D1
350
67
  3
D2
350
68
  0
LAYOUT
  5
1E
102
{ACAD_REACTORS
330
1A
102
}
330
1A
100
AcDbPlotSettings
  1

  2
none_device
  4

  6

 40
0.0
 41
0.0
 42
0.0
 43
0.0
 44
0.0
 45
0.0
 46
0.0
 47
0.0
 48
0.0
 49
0.0
140
0.0
141
0.0
142
1.0
143
1.0
 70
   688
 72
     1
 73
     0
 74
     5
  7

 75
    16
147
1.0
148
0.0
149
0.0
100
AcDbLayout
  1
Layout1
 70
     1
 71
     1
 10
0.0
 20
0.0
 11
420.0
 21
297.0
 12
0.0
 22
0.0
 32
0.0
 14
1.0000000000E+20
 24
1.0000000000E+20
 34
1.0000000000E+20
 15
-1.0000000000E+20
 25
-1.0000000000E+20
 35
-1.0000000000E+20
146
0.0
 13
0.0
 23
0.0
 33
0.0
 16
1.0
 26
0.0
 36
0.0
 17
0.0
 27
1.0
 37
0.0
 76
     0
330
1B
  0
LAYOUT
  5
26
102
{ACAD_REACTORS
330
1A
102
}
330
1A
100
AcDbPlotSettings
  1

  2
none_device
  4

  6

 40
0.0
 41
0.0
 42
0.0
 43
0.0
 44
0.0
 45
0.0
 46
0.0
 47
0.0
 48
0.0
 49
0.0
140
0.0
141
0.0
142
1.0
143
1.0
 70
   688
 72
     1
 73
     0
 74
     5
  7

 75
    16
147
1.0
148
0.0
149
0.0
100
AcDbLayout
  1
Layout2
 70
     1
 71
     2
 10
0.0
 20
0.0
 11
0.0
 21
0.0
 12
0.0
 22
0.0
 32
0.0
 14
0.0
 24
0.0
 34
0.0
 15
0.0
 25
0.0
 35
0.0
146
0.0
 13
0.0
 23
0.0
 33
0.0
 16
1.0
 26
0.0
 36
0.0
 17
0.0
 27
1.0
 37
0.0
 76
     0
330
23
  0
LAYOUT
  5
22
102
{ACAD_REACTORS
330
1A
102
}
330
1A
100
AcDbPlotSettings
  1

  2
none_device
  4
Letter_(8.50_x_11.00_Inches)
  6

 40
6.35
 41
6.35
 42
6.35000508
 43
6.35000508
 44
215.9
 45
279.4
 46
0.0
 47
0.0
 48
0.0
 49
0.0
140
0.0
141
0.0
142
1.0
143
1.0
 70
  1712
 72
     1
 73
     0
 74
     0
  7

 75
     0
147
1.0
148
0.0
149
0.0
100
AcDbLayout
  1
Model
 70
     1
 71
     0
 10
0.0
 20
0.0
 11
297.0
 21
210.0
 12
0.0
 22
0.0
 32
0.0
 14
0.0
 24
0.0
 34
0.0
 15
297.0
 25
210.0
 35
0.0
146
0.0
 13
0.0
 23
0.0
 33
0.0
 16
1.0
 26
0.0
 36
0.0
 17
0.0
 27
1.0
 37
0.0
 76
     0
330
1F
331
29
  0
MLINESTYLE
  5
18
102
{ACAD_REACTORS
330
17
102
}
330
17
100
AcDbMlineStyle
  2
Standard
 70
     0
  3

 62
   256
 51
90.0
 52
90.0
 71
     2
 49
0.5
 62
   256
  6
BYLAYER
 49
-0.5
 62
   256
  6
BYLAYER
  0
ACDBPLACEHOLDER
  5
F
102
{ACAD_REACTORS
330
E
102
}
330
E
  0
SCALE
  5
48
102
{ACAD_REACTORS
330
47
102
}
330
47
100
AcDbScale
 70
     0
300
1:1
140
1.0
141
1.0
290
     1
  0
SCALE
  5
49
102
{ACAD_REACTORS
330
47
102
}
330
47
100
AcDbScale
 70
     0
300
1:2
140
1.0
141
2.0
290
     0
  0
SCALE
  5
4A
102
{ACAD_REACTORS
330
47
102
}
330
47
100
AcDbScale
 70
     0
300
1:4
140
1.0
141
4.0
290
     0
  0
SCALE
  5
4B
102
{ACAD_REACTORS
330
47
102
}
330
47
100
AcDbScale
 70
     0
300
1:5
140
1.0
141
5.0
290
     0
  0
SCALE
  5
4C
102
{ACAD_REACTORS
330
47
102
}
330
47
100
AcDbScale
 70
     0
300
1:8
140
1.0
141
8.0
290
     0
  0
SCALE
  5
4D
102
{ACAD_REACTORS
330
47
102
}
330
47
100
AcDbScale
 70
     0
300
1:10
140
1.0
141
10.0
290
     0
  0
SCALE
  5
4E
102
{ACAD_REACTORS
330
47
102
}
330
47
100
AcDbScale
 70
     0
300
1:16
140
1.0
141
16.0
290
     0
  0
SCALE
  5
4F
102
{ACAD_REACTORS
330
47
102
}
330
47
100
AcDbScale
 70
     0
300
1:20
140
1.0
141
20.0
290
     0
  0
SCALE
  5
50
102
{ACAD_REACTORS
330
47
102
}
330
47
100
AcDbScale
 70
     0
300
1:30
140
1.0
141
30.0
290
     0
  0
SCALE
  5
51
102
{ACAD_REACTORS
330
47
102
}
330
47
100
AcDbScale
 70
     0
300
1:40
140
1.0
141
40.0
290
     0
  0
SCALE
  5
52
102
{ACAD_REACTORS
330
47
102
}
330
47
100
AcDbScale
 70
     0
300
1:50
140
1.0
141
50.0
290
     0
  0
SCALE
  5
53
102
{ACAD_REACTORS
330
47
102
}
330
47
100
AcDbScale
 70
     0
300
1:100
140
1.0
141
100.0
290
     0
  0
SCALE
  5
54
102
{ACAD_REACTORS
330
47
102
}
330
47
100
AcDbScale
 70
     0
300
2:1
140
2.0
141
1.0
290
     0
  0
SCALE
  5
55
102
{ACAD_REACTORS
330
47
102
}
330
47
100
AcDbScale
 70
     0
300
4:1
140
4.0
141
1.0
290
     0
  0
SCALE
  5
56
102
{ACAD_REACTORS
330
47
102
}
330
47
100
AcDbScale
 70
     0
300
8:1
140
8.0
141
1.0
290
     0
  0
SCALE
  5
57
102
{ACAD_REACTORS
330
47
102
}
330
47
100
AcDbScale
 70
     0
300
10:1
140
10.0
141
1.0
290
     0
  0
SCALE
  5
58
102
{ACAD_REACTORS
330
47
102
}
330
47
100
AcDbScale
 70
     0
300
100:1
140
100.0
141
1.0
290
     0
  0
SCALE
  5
59
102
{ACAD_REACTORS
330
47
102
}
330
47
100
AcDbScale
 70
     0
300
1/128" = 1'-0"
140
0.0078125
141
12.0
290
     0
  0
SCALE
  5
5A
102
{ACAD_REACTORS
330
47
102
}
330
47
100
AcDbScale
 70
     0
300
1/64" = 1'-0"
140
0.015625
141
12.0
290
     0
  0
SCALE
  5
5B
102
{ACAD_REACTORS
330
47
102
}
330
47
100
AcDbScale
 70
     0
300
1/32" = 1'-0"
140
0.03125
141
12.0
290
     0
  0
SCALE
  5
5C
102
{ACAD_REACTORS
330
47
102
}
330
47
100
AcDbScale
 70
     0
300
1/16" = 1'-0"
140
0.0625
141
12.0
290
     0
  0
SCALE
  5
5D
102
{ACAD_REACTORS
330
47
102
}
330
47
100
AcDbScale
 70
     0
300
3/32" = 1'-0"
140
0.09375
141
12.0
290
     0
  0
SCALE
  5
5E
102
{ACAD_REACTORS
330
47
102
}
330
47
100
AcDbScale
 70
     0
300
1/8" = 1'-0"
140
0.125
141
12.0
290
     0
  0
SCALE
  5
5F
102
{ACAD_REACTORS
330
47
102
}
330
47
100
AcDbScale
 70
     0
300
3/16" = 1'-0"
140
0.1875
141
12.0
290
     0
  0
SCALE
  5
60
102
{ACAD_REACTORS
330
47
102
}
330
47
100
AcDbScale
 70
     0
300
1/4" = 1'-0"
140
0.25
141
12.0
290
     0
  0
SCALE
  5
61
102
{ACAD_REACTORS
330
47
102
}
330
47
100
AcDbScale
 70
     0
300
3/8" = 1'-0"
140
0.375
141
12.0
290
     0
  0
SCALE
  5
62
102
{ACAD_REACTORS
330
47
102
}
330
47
100
AcDbScale
 70
     0
300
1/2" = 1'-0"
140
0.5
141
12.0
290
     0
  0
SCALE
  5
63
102
{ACAD_REACTORS
330
47
102
}
330
47
100
AcDbScale
 70
     0
300
3/4" = 1'-0"
140
0.75
141
12.0
290
     0
  0
SCALE
  5
64
102
{ACAD_REACTORS
330
47
102
}
330
47
100
AcDbScale
 70
     0
300
1" = 1'-0"
140
1.0
141
12.0
290
     0
  0
SCALE
  5
65
102
{ACAD_REACTORS
330
47
102
}
330
47
100
AcDbScale
 70
     0
300
1-1/2" = 1'-0"
140
1.5
141
12.0
290
     0
  0
SCALE
  5
66
102
{ACAD_REACTORS
330
47
102
}
330
47
100
AcDbScale
 70
     0
300
3" = 1'-0"
140
3.0
141
12.0
290
     0
  0
SCALE
  5
67
102
{ACAD_REACTORS
330
47
102
}
330
47
100
AcDbScale
 70
     0
300
6" = 1'-0"
140
6.0
141
12.0
290
     0
  0
SCALE
  5
68
102
{ACAD_REACTORS
330
47
102
}
330
47
100
AcDbScale
 70
     0
300
1'-0" = 1'-0"
140
12.0
141
12.0
290
     0
  0
ENDSEC
  0
EOF
