  0
SECTION
  2
HEADER
  9
$ACADVER
  1
AC1015
  9
$ACADMAINTVER
 70
     6
  9
$DWGCODEPAGE
  3
ANSI_950
  9
$INSBASE
 10
0.0
 20
0.0
 30
0.0
  9
$EXTMIN
 10
0.0
 20
0.0
 30
0.0
  9
$EXTMAX
 10
297.0
 20
210.0
 30
0.0
  9
$LIMMIN
 10
0.0
 20
0.0
  9
$LIMMAX
 10
297.0
 20
210.0
  9
$ORTHOMODE
 70
     0
  9
$REGENMODE
 70
     1
  9
$FILLMODE
 70
     1
  9
$QTEXTMODE
 70
     0
  9
$MIRRTEXT
 70
     1
  9
$LTSCALE
 40
1.0
  9
$ATTMODE
 70
     1
  9
$TEXTSIZE
 40
3.5277777778
  9
$TRACEWID
 40
1.0
  9
$TEXTSTYLE
  7
STANDARD
  9
$CLAYER
  8
0
  9
$CELTYPE
  6
ByLayer
  9
$CECOLOR
 62
   256
  9
$CELTSCALE
 40
1.0
  9
$DISPSILH
 70
     0
  9
$DIMSCALE
 40
1.0
  9
$DIMASZ
 40
2.0
  9
$DIMEXO
 40
1.0
  9
$DIMDLI
 40
3.75
  9
$DIMRND
 40
0.0
  9
$DIMDLE
 40
0.0
  9
$DIMEXE
 40
1.0
  9
$DIMTP
 40
0.0
  9
$DIMTM
 40
0.0
  9
$DIMTXT
 40
2.5
  9
$DIMCEN
 40
2.5
  9
$DIMTSZ
 40
0.0
  9
$DIMTOL
 70
     0
  9
$DIMLIM
 70
     0
  9
$DIMTIH
 70
     1
  9
$DIMTOH
 70
     1
  9
$DIMSE1
 70
     0
  9
$DIMSE2
 70
     0
  9
$DIMTAD
 70
     1
  9
$DIMZIN
 70
     0
  9
$DIMBLK
  1

  9
$DIMASO
 70
     1
  9
$DIMSHO
 70
     1
  9
$DIMPOST
  1

  9
$DIMAPOST
  1

  9
$DIMALT
 70
     0
  9
$DIMALTD
 70
     3
  9
$DIMALTF
 40
0.0393700787
  9
$DIMLFAC
 40
1.0
  9
$DIMTOFL
 70
     1
  9
$DIMTVP
 40
0.0
  9
$DIMTIX
 70
     0
  9
$DIMSOXD
 70
     0
  9
$DIMSAH
 70
     0
  9
$DIMBLK1
  1

  9
$DIMBLK2
  1

  9
$DIMSTYLE
  2
ISO-25
  9
$DIMCLRD
 70
     0
  9
$DIMCLRE
 70
     0
  9
$DIMCLRT
 70
     0
  9
$DIMTFAC
 40
1.0
  9
$DIMGAP
 40
1.0
  9
$DIMJUST
 70
     0
  9
$DIMSD1
 70
     0
  9
$DIMSD2
 70
     0
  9
$DIMTOLJ
 70
     0
  9
$DIMTZIN
 70
     0
  9
$DIMALTZ
 70
     0
  9
$DIMALTTZ
 70
     0
  9
$DIMUPT
 70
     0
  9
$DIMDEC
 70
     2
  9
$DIMTDEC
 70
     2
  9
$DIMALTU
 70
     2
  9
$DIMALTTD
 70
     3
  9
$DIMTXSTY
  7
STANDARD
  9
$DIMAUNIT
 70
     0
  9
$DIMADEC
 70
     1
  9
$DIMALTRND
 40
0.0
  9
$DIMAZIN
 70
     0
  9
$DIMDSEP
 70
    44
  9
$DIMATFIT
 70
     3
  9
$DIMFRAC
 70
     0
  9
$DIMLDRBLK
  1

  9
$DIMLUNIT
 70
     2
  9
$DIMLWD
 70
    -2
  9
$DIMLWE
 70
    -2
  9
$DIMTMOVE
 70
     0
  9
$LUNITS
 70
     2
  9
$LUPREC
 70
     2
  9
$SKETCHINC
 40
1.0
  9
$FILLETRAD
 40
10.0
  9
$AUNITS
 70
     0
  9
$AUPREC
 70
     1
  9
$MENU
  1
.
  9
$ELEVATION
 40
0.0
  9
$PELEVATION
 40
0.0
  9
$THICKNESS
 40
0.0
  9
$LIMCHECK
 70
     0
  9
$CHAMFERA
 40
0.0
  9
$CHAMFERB
 40
0.0
  9
$CHAMFERC
 40
0.0
  9
$CHAMFERD
 40
0.0
  9
$SKPOLY
 70
     0
  9
$TDCREATE
 40
2457497.689784259
  9
$TDUCREATE
 40
2457497.356450926
  9
$TDUPDATE
 40
2457497.689790949
  9
$TDUUPDATE
 40
2457497.356457616
  9
$TDINDWG
 40
0.0000000116
  9
$TDUSRTIMER
 40
0.0000000116
  9
$USRTIMER
 70
     1
  9
$ANGBASE
 50
0.0
  9
$ANGDIR
 70
     0
  9
$PDMODE
 70
     0
  9
$PDSIZE
 40
-1.0
  9
$PLINEWID
 40
0.0
  9
$SPLFRAME
 70
     0
  9
$SPLINETYPE
 70
     6
  9
$SPLINESEGS
 70
     8
  9
$HANDSEED
  5
2BC
  9
$SURFTAB1
 70
     6
  9
$SURFTAB2
 70
     6
  9
$SURFTYPE
 70
     6
  9
$SURFU
 70
     6
  9
$SURFV
 70
     6
  9
$UCSBASE
  2

  9
$UCSNAME
  2

  9
$UCSORG
 10
0.0
 20
0.0
 30
0.0
  9
$UCSXDIR
 10
1.0
 20
0.0
 30
0.0
  9
$UCSYDIR
 10
0.0
 20
1.0
 30
0.0
  9
$UCSORTHOREF
  2

  9
$UCSORTHOVIEW
 70
     0
  9
$UCSORGTOP
 10
0.0
 20
0.0
 30
0.0
  9
$UCSORGBOTTOM
 10
0.0
 20
0.0
 30
0.0
  9
$UCSORGLEFT
 10
0.0
 20
0.0
 30
0.0
  9
$UCSORGRIGHT
 10
0.0
 20
0.0
 30
0.0
  9
$UCSORGFRONT
 10
0.0
 20
0.0
 30
0.0
  9
$UCSORGBACK
 10
0.0
 20
0.0
 30
0.0
  9
$PUCSBASE
  2

  9
$PUCSNAME
  2

  9
$PUCSORG
 10
0.0
 20
0.0
 30
0.0
  9
$PUCSXDIR
 10
1.0
 20
0.0
 30
0.0
  9
$PUCSYDIR
 10
0.0
 20
1.0
 30
0.0
  9
$PUCSORTHOREF
  2

  9
$PUCSORTHOVIEW
 70
     0
  9
$PUCSORGTOP
 10
0.0
 20
0.0
 30
0.0
  9
$PUCSORGBOTTOM
 10
0.0
 20
0.0
 30
0.0
  9
$PUCSORGLEFT
 10
0.0
 20
0.0
 30
0.0
  9
$PUCSORGRIGHT
 10
0.0
 20
0.0
 30
0.0
  9
$PUCSORGFRONT
 10
0.0
 20
0.0
 30
0.0
  9
$PUCSORGBACK
 10
0.0
 20
0.0
 30
0.0
  9
$USERI1
 70
     0
  9
$USERI2
 70
     0
  9
$USERI3
 70
     0
  9
$USERI4
 70
     0
  9
$USERI5
 70
     0
  9
$USERR1
 40
0.0
  9
$USERR2
 40
0.0
  9
$USERR3
 40
0.0
  9
$USERR4
 40
0.0
  9
$USERR5
 40
0.0
  9
$WORLDVIEW
 70
     1
  9
$SHADEDGE
 70
     3
  9
$SHADEDIF
 70
    70
  9
$TILEMODE
 70
     1
  9
$MAXACTVP
 70
    64
  9
$PINSBASE
 10
0.0
 20
0.0
 30
0.0
  9
$PLIMCHECK
 70
     0
  9
$PEXTMIN
 10
1.0000000000E+20
 20
1.0000000000E+20
 30
1.0000000000E+20
  9
$PEXTMAX
 10
-1.0000000000E+20
 20
-1.0000000000E+20
 30
-1.0000000000E+20
  9
$PLIMMIN
 10
0.0
 20
0.0
  9
$PLIMMAX
 10
420.0
 20
297.0
  9
$UNITMODE
 70
     0
  9
$VISRETAIN
 70
     1
  9
$PLINEGEN
 70
     0
  9
$PSLTSCALE
 70
     1
  9
$TREEDEPTH
 70
  3020
  9
$CMLSTYLE
  2
Standard
  9
$CMLJUST
 70
     0
  9
$CMLSCALE
 40
20.0
  9
$PROXYGRAPHICS
 70
     1
  9
$MEASUREMENT
 70
     1
  9
$CELWEIGHT
370
    -1
  9
$ENDCAPS
280
     0
  9
$JOINSTYLE
280
     0
  9
$LWDISPLAY
290
     1
  9
$INSUNITS
 70
     4
  9
$HYPERLINKBASE
  1

  9
$STYLESHEET
  1

  9
$XEDIT
290
     1
  9
$CEPSNTYPE
380
     0
  9
$PSTYLEMODE
290
     1
  9
$FINGERPRINTGUID
  2
{5CD9367C-27E0-4921-A065-65FE086CB4DE}
  9
$VERSIONGUID
  2
{FAEB1C32-E019-11D5-929B-00C0DF256EC4}
  9
$EXTNAMES
290
     1
  9
$PSVPSCALE
 40
0.0
  9
$OLESTARTUP
290
     0
  0
ENDSEC
  0
SECTION
  2
CLASSES
  0
CLASS
  1
ACDBDICTIONARYWDFLT
  2
AcDbDictionaryWithDefault
  3
ObjectDBX Classes
 90
        0
280
     0
281
     0
  0
CLASS
  1
VISUALSTYLE
  2
AcDbVisualStyle
  3
ObjectDBX Classes
 90
     4095
280
     0
281
     0
  0
CLASS
  1
MATERIAL
  2
AcDbMaterial
  3
ObjectDBX Classes
 90
     1153
280
     0
281
     0
  0
CLASS
  1
SCALE
  2
AcDbScale
  3
ObjectDBX Classes
 90
     1153
280
     0
281
     0
  0
CLASS
  1
TABLESTYLE
  2
AcDbTableStyle
  3
ObjectDBX Classes
 90
     4095
280
     0
281
     0
  0
CLASS
  1
MLEADERSTYLE
  2
AcDbMLeaderStyle
  3
ACDB_MLEADERSTYLE_CLASS
 90
     4095
280
     0
281
     0
  0
CLASS
  1
SUN
  2
AcDbSun
  3
SCENEOE
 90
     1153
280
     0
281
     0
  0
CLASS
  1
ACDBPLACEHOLDER
  2
AcDbPlaceHolder
  3
ObjectDBX Classes
 90
        0
280
     0
281
     0
  0
CLASS
  1
LAYOUT
  2
AcDbLayout
  3
ObjectDBX Classes
 90
        0
280
     0
281
     0
  0
ENDSEC
  0
SECTION
  2
TABLES
  0
TABLE
  2
VPORT
  5
8
330
0
100
AcDbSymbolTable
 70
     1
  0
VPORT
  5
29
330
8
100
AcDbSymbolTableRecord
100
AcDbViewportTableRecord
  2
*Active
 70
     0
 10
0.0
 20
0.0
 11
1.0
 21
1.0
 12
148.5
 22
105.0
 13
0.0
 23
0.0
 14
10.0
 24
10.0
 15
10.0
 25
10.0
 16
0.0
 26
0.0
 36
1.0
 17
0.0
 27
0.0
 37
0.0
 40
210.0
 41
1.4142857143
 42
50.0
 43
0.0
 44
0.0
 50
0.0
 51
0.0
 71
     0
 72
  2000
 73
     1
 74
     3
 75
     0
 76
     0
 77
     0
 78
     0
281
     0
 65
     1
110
0.0
120
0.0
130
0.0
111
1.0
121
0.0
131
0.0
112
0.0
122
1.0
132
0.0
 79
     0
146
0.0
  0
ENDTAB
  0
TABLE
  2
LTYPE
  5
5
330
0
100
AcDbSymbolTable
 70
     6
  0
LTYPE
  5
14
330
5
100
AcDbSymbolTableRecord
100
AcDbLinetypeTableRecord
  2
ByBlock
 70
     0
  3

 72
    65
 73
     0
 40
0.0
  0
LTYPE
  5
15
330
5
100
AcDbSymbolTableRecord
100
AcDbLinetypeTableRecord
  2
ByLayer
 70
     0
  3

 72
    65
 73
     0
 40
0.0
  0
LTYPE
  5
16
330
5
100
AcDbSymbolTableRecord
100
AcDbLinetypeTableRecord
  2
Continuous
 70
     0
  3
Solid line
 72
    65
 73
     0
 40
0.0
  0
LTYPE
  5
6E
330
5
100
AcDbSymbolTableRecord
100
AcDbLinetypeTableRecord
  2
HIDDEN
 70
     0
  3
Hidden __ __ __ __ __ __ __ __ __ __ __ __ __ __
 72
    65
 73
     2
 40
1.905
 49
1.27
 74
     0
 49
-0.635
 74
     0
  0
LTYPE
  5
6F
330
5
100
AcDbSymbolTableRecord
100
AcDbLinetypeTableRecord
  2
PHANTOM
 70
     0
  3
Phantom ______  __  __  ______  __  __  ______
 72
    65
 73
     6
 40
12.7
 49
6.35
 74
     0
 49
-1.27
 74
     0
 49
1.27
 74
     0
 49
-1.27
 74
     0
 49
1.27
 74
     0
 49
-1.27
 74
     0
  0
LTYPE
  5
70
330
5
100
AcDbSymbolTableRecord
100
AcDbLinetypeTableRecord
  2
CENTER
 70
     0
  3
Center ____ _ ____ _ ____ _ ____ _ ____ _ ____
 72
    65
 73
     4
 40
10.16
 49
6.35
 74
     0
 49
-1.27
 74
     0
 49
1.27
 74
     0
 49
-1.27
 74
     0
  0
LTYPE
  5
71
330
5
100
AcDbSymbolTableRecord
100
AcDbLinetypeTableRecord
  2
CENTERX2
 70
     0
  3
Center (2x) ________  __  ________  __  _____
 72
    65
 73
     4
 40
20.32
 49
12.7
 74
     0
 49
-2.54
 74
     0
 49
2.54
 74
     0
 49
-2.54
 74
     0
  0
LTYPE
  5
72
330
5
100
AcDbSymbolTableRecord
100
AcDbLinetypeTableRecord
  2
DOT2
 70
     0
  3
Dot (.5x) ........................................
 72
    65
 73
     2
 40
0.635
 49
0.0
 74
     0
 49
-0.635
 74
     0
  0
ENDTAB
  0
TABLE
  2
LAYER
  5
2
330
0
100
AcDbSymbolTable
 70
    10
  0
LAYER
  5
10
330
2
100
AcDbSymbolTableRecord
100
AcDbLayerTableRecord
  2
0
 70
     0
 62
     7
  6
Continuous
370
    -3
390
F
  0
LAYER
  5
73
330
2
100
AcDbSymbolTableRecord
100
AcDbLayerTableRecord
  2
SLD-0
 70
     0
 62
   179
  6
Continuous
370
    15
390
F
  0
LAYER
  5
74
330
2
100
AcDbSymbolTableRecord
100
AcDbLayerTableRecord
  2
輪廓線
 70
     0
 62
   219
  6
Continuous
370
    15
390
F
  0
LAYER
  5
75
330
2
100
AcDbSymbolTableRecord
100
AcDbLayerTableRecord
  2
DIM
 70
     0
 62
     7
  6
Continuous
370
    -3
390
F
  0
LAYER
  5
76
330
2
100
AcDbSymbolTableRecord
100
AcDbLayerTableRecord
  2
中心線
 70
     0
 62
     1
  6
CENTERX2
370
    -3
390
F
  0
LAYER
  5
77
330
2
100
AcDbSymbolTableRecord
100
AcDbLayerTableRecord
  2
虛線
 70
     0
 62
     6
  6
HIDDEN
370
    -3
390
F
  0
LAYER
  5
78
330
2
100
AcDbSymbolTableRecord
100
AcDbLayerTableRecord
  2
SECTION
 70
     0
 62
     5
  6
PHANTOM
370
    15
390
F
  0
LAYER
  5
79
330
2
100
AcDbSymbolTableRecord
100
AcDbLayerTableRecord
  2
假想線
 70
     0
 62
     5
  6
PHANTOM
370
    -3
390
F
  0
LAYER
  5
7A
330
2
100
AcDbSymbolTableRecord
100
AcDbLayerTableRecord
  2
工作區域參考線
 70
     0
 62
   179
  6
Continuous
370
    -3
390
F
  0
LAYER
  5
7B
330
2
100
AcDbSymbolTableRecord
100
AcDbLayerTableRecord
  2
圖層_1
 70
     0
 62
   179
  6
Continuous
370
    -3
390
F
  0
ENDTAB
  0
TABLE
  2
STYLE
  5
3
330
0
100
AcDbSymbolTable
 70
     5
  0
STYLE
  5
11
330
3
100
AcDbSymbolTableRecord
100
AcDbTextStyleTableRecord
  2
STANDARD
 70
     0
 40
0.0
 41
1.0
 50
0.0
 71
     0
 42
3.5277777778
  3
ARIALBD.TTF
  4

1001
ACAD
1000
ARIAL
1071
 33554466
  0
STYLE
  5
7C
330
3
100
AcDbSymbolTableRecord
100
AcDbTextStyleTableRecord
  2
SLDTEXTSTYLE0
 70
     0
 40
0.0
 41
1.0
 50
0.0
 71
     0
 42
2.5
  3
ARIAL.TTF
  4

1001
ACAD
1000
Arial
1071
      290
  0
STYLE
  5
CD
330
3
100
AcDbSymbolTableRecord
100
AcDbTextStyleTableRecord
  2
SLDTEXTSTYLE1
 70
     0
 40
0.0
 41
0.948
 50
0.0
 71
     0
 42
3.5277777778
  3
ARIAL.TTF
  4

1001
ACAD
1000
Arial
1071
      290
  0
STYLE
  5
D6
330
3
100
AcDbSymbolTableRecord
100
AcDbTextStyleTableRecord
  2
SLDTEXTSTYLE2
 70
     0
 40
0.0
 41
1.0
 50
0.0
 71
     0
 42
3.5277777778
  3
ARIALBD.TTF
  4

1001
ACAD
1000
Arial CE
1071
 33554722
  0
STYLE
  5
104
330
3
100
AcDbSymbolTableRecord
100
AcDbTextStyleTableRecord
  2
SLDTEXTSTYLE3
 70
     0
 40
0.0
 41
0.948
 50
0.0
 71
     0
 42
3.5277777778
  3
ARIALBD.TTF
  4

1001
ACAD
1000
Arial
1071
 33554722
  0
ENDTAB
  0
TABLE
  2
VIEW
  5
6
330
0
100
AcDbSymbolTable
 70
     0
  0
ENDTAB
  0
TABLE
  2
UCS
  5
7
330
0
100
AcDbSymbolTable
 70
     0
  0
ENDTAB
  0
TABLE
  2
APPID
  5
9
330
0
100
AcDbSymbolTable
 70
     1
  0
APPID
  5
12
330
9
100
AcDbSymbolTableRecord
100
AcDbRegAppTableRecord
  2
ACAD
 70
     0
  0
ENDTAB
  0
TABLE
  2
DIMSTYLE
  5
A
330
0
100
AcDbSymbolTable
 70
     6
100
AcDbDimStyleTable
  0
DIMSTYLE
105
27
330
A
100
AcDbSymbolTableRecord
100
AcDbDimStyleTableRecord
  2
ISO-25
 70
     0
 41
2.5
 42
0.625
 43
3.75
 44
1.25
 73
     0
 74
     0
 77
     1
 78
     8
140
2.5
141
2.5
143
0.0393700787
147
0.625
171
     3
172
     1
178
     0
271
     2
272
     2
274
     3
278
    44
283
     0
284
     8
340
7C
  0
DIMSTYLE
105
151
102
{ACAD_REACTORS
330
150
330
15C
330
166
330
170
330
1CC
330
1E3
330
1ED
330
1F7
330
201
102
}
330
A
100
AcDbSymbolTableRecord
100
AcDbDimStyleTableRecord
  2
SLDDIMSTYLE0
 70
     0
 41
2.0
 44
0.0
 45
0.000000001
 73
     0
 74
     0
 77
     1
 78
    12
 79
     3
140
2.5
147
0.625
173
     1
178
     0
271
     2
272
     2
276
     2
284
    12
340
CD
  0
DIMSTYLE
105
17B
102
{ACAD_REACTORS
330
17A
102
}
330
A
100
AcDbSymbolTableRecord
100
AcDbDimStyleTableRecord
  2
SLDDIMSTYLE1
 70
     0
 41
2.0
 44
0.0
 45
0.000000001
 73
     0
 74
     0
 77
     1
 78
    12
 79
     3
140
2.5
147
0.625
173
     1
178
     0
271
     1
272
     1
276
     2
284
    12
340
CD
  0
DIMSTYLE
105
192
330
A
100
AcDbSymbolTableRecord
100
AcDbDimStyleTableRecord
  2
SLDDIMSTYLE2
 70
     0
 41
2.0
 44
0.0
 45
0.000000001
146
2.0
147
0.0
173
     1
178
     0
271
     0
272
     0
276
     2
340
11
  0
DIMSTYLE
105
1D7
102
{ACAD_REACTORS
330
1D6
102
}
330
A
100
AcDbSymbolTableRecord
100
AcDbDimStyleTableRecord
  2
SLDDIMSTYLE3
 70
     0
 41
2.0
 44
0.0
 45
0.000000001
 73
     0
 74
     0
 77
     1
 78
    12
 79
     3
140
2.5
147
0.625
172
     1
173
     1
178
     0
271
     2
272
     2
276
     2
284
    12
289
     0
340
CD
  0
DIMSTYLE
105
20C
102
{ACAD_REACTORS
330
20B
102
}
330
A
100
AcDbSymbolTableRecord
100
AcDbDimStyleTableRecord
  2
SLDDIMSTYLE4
 70
     0
  3
<>
 41
2.0
 44
0.0
 45
0.000000001
 78
    12
 79
     3
140
2.5
141
0.0
147
0.625
173
     1
178
     0
271
     2
272
     2
276
     2
284
    12
340
CD
  0
ENDTAB
  0
TABLE
  2
BLOCK_RECORD
  5
1
330
0
100
AcDbSymbolTable
 70
    20
  0
BLOCK_RECORD
  5
1F
330
1
100
AcDbSymbolTableRecord
100
AcDbBlockTableRecord
  2
*Model_Space
340
22
  0
BLOCK_RECORD
  5
1B
330
1
100
AcDbSymbolTableRecord
100
AcDbBlockTableRecord
  2
*Paper_Space
340
1E
  0
BLOCK_RECORD
  5
23
330
1
100
AcDbSymbolTableRecord
100
AcDbBlockTableRecord
  2
*Paper_Space0
340
26
  0
BLOCK_RECORD
  5
CF
330
1
100
AcDbSymbolTableRecord
100
AcDbBlockTableRecord
  2
SW_NOTE_0
340
0
102
{BLKREFS
331
D5
102
}
  0
BLOCK_RECORD
  5
107
330
1
100
AcDbSymbolTableRecord
100
AcDbBlockTableRecord
  2
SW_NOTE_1
340
0
102
{BLKREFS
331
10C
102
}
  0
BLOCK_RECORD
  5
152
330
1
100
AcDbSymbolTableRecord
100
AcDbBlockTableRecord
  2
_D
340
0
  0
BLOCK_RECORD
  5
15D
330
1
100
AcDbSymbolTableRecord
100
AcDbBlockTableRecord
  2
_D_1
340
0
  0
BLOCK_RECORD
  5
167
330
1
100
AcDbSymbolTableRecord
100
AcDbBlockTableRecord
  2
_D_2
340
0
  0
BLOCK_RECORD
  5
171
330
1
100
AcDbSymbolTableRecord
100
AcDbBlockTableRecord
  2
_D_3
340
0
  0
BLOCK_RECORD
  5
17C
330
1
100
AcDbSymbolTableRecord
100
AcDbBlockTableRecord
  2
_D_4
340
0
  0
BLOCK_RECORD
  5
186
330
1
100
AcDbSymbolTableRecord
100
AcDbBlockTableRecord
  2
SW_NOTE_2
340
0
102
{BLKREFS
331
191
102
}
  0
BLOCK_RECORD
  5
194
330
1
100
AcDbSymbolTableRecord
100
AcDbBlockTableRecord
  2
SW_NOTE_3
340
0
102
{BLKREFS
331
199
102
}
  0
BLOCK_RECORD
  5
19B
330
1
100
AcDbSymbolTableRecord
100
AcDbBlockTableRecord
  2
SW_NOTE_4
340
0
102
{BLKREFS
331
1A1
102
}
  0
BLOCK_RECORD
  5
1A3
330
1
100
AcDbSymbolTableRecord
100
AcDbBlockTableRecord
  2
SW_CENTERMARKSYMBOL_0
340
0
102
{BLKREFS
331
1AE
102
}
  0
BLOCK_RECORD
  5
1CD
330
1
100
AcDbSymbolTableRecord
100
AcDbBlockTableRecord
  2
_D_5
340
0
  0
BLOCK_RECORD
  5
1D8
330
1
100
AcDbSymbolTableRecord
100
AcDbBlockTableRecord
  2
_D_6
340
0
  0
BLOCK_RECORD
  5
1E4
330
1
100
AcDbSymbolTableRecord
100
AcDbBlockTableRecord
  2
_D_7
340
0
  0
BLOCK_RECORD
  5
1EE
330
1
100
AcDbSymbolTableRecord
100
AcDbBlockTableRecord
  2
_D_8
340
0
  0
BLOCK_RECORD
  5
1F8
330
1
100
AcDbSymbolTableRecord
100
AcDbBlockTableRecord
  2
_D_9
340
0
  0
BLOCK_RECORD
  5
202
330
1
100
AcDbSymbolTableRecord
100
AcDbBlockTableRecord
  2
_D_10
340
0
  0
BLOCK_RECORD
  5
20D
330
1
100
AcDbSymbolTableRecord
100
AcDbBlockTableRecord
  2
_D_11
340
0
  0
BLOCK_RECORD
  5
215
330
1
100
AcDbSymbolTableRecord
100
AcDbBlockTableRecord
  2
SW_CENTERMARKSYMBOL_1
340
0
102
{BLKREFS
331
220
102
}
  0
ENDTAB
  0
ENDSEC
  0
SECTION
  2
BLOCKS
  0
BLOCK
  5
20
330
1F
100
AcDbEntity
  8
0
100
AcDbBlockBegin
  2
*Model_Space
 70
     0
 10
0.0
 20
0.0
 30
0.0
  3
*Model_Space
  1

  0
ENDBLK
  5
21
330
1F
100
AcDbEntity
  8
0
100
AcDbBlockEnd
  0
BLOCK
  5
1C
330
1B
100
AcDbEntity
 67
     1
  8
0
100
AcDbBlockBegin
  2
*Paper_Space
 70
     0
 10
0.0
 20
0.0
 30
0.0
  3
*Paper_Space
  1

  0
ENDBLK
  5
1D
330
1B
100
AcDbEntity
 67
     1
  8
0
100
AcDbBlockEnd
  0
BLOCK
  5
24
330
23
100
AcDbEntity
  8
0
100
AcDbBlockBegin
  2
*Paper_Space0
 70
     0
 10
0.0
 20
0.0
 30
0.0
  3
*Paper_Space0
  1

  0
ENDBLK
  5
25
330
23
100
AcDbEntity
  8
0
100
AcDbBlockEnd
  0
BLOCK
  5
D0
330
CF
100
AcDbEntity
  8
0
100
AcDbBlockBegin
  2
SW_NOTE_0
 70
     0
 10
0.0
 20
0.0
 30
0.0
  3
SW_NOTE_0
  1

  0
MTEXT
  5
D2
330
CF
100
AcDbEntity
  8
0
  6
Continuous
 62
     0
370
     0
100
AcDbMText
 10
0.0
 20
3.4106583948
 30
0.0
 40
2.6458333333
 41
0.0
 71
     1
 72
     1
  1
PROPRIETARY AND CONFIDENTIAL
  7
SLDTEXTSTYLE1
 73
     1
 44
1.0
  0
MTEXT
  5
D3
330
CF
100
AcDbEntity
  8
0
  6
Continuous
 62
     0
370
     0
100
AcDbMText
 10
0.0
 20
-0.08198348
 30
0.0
 40
1.8520833333
 41
0.0
 71
     1
 72
     1
  1
THE INFORMATION CONTAINED IN THIS DRAWING IS THE SOLE PROPERTY OF UNICE E-O SERVICES INC. ANY REPRODUCTION IN PART OR AS A WHOLE WITHOUT THE WRITTEN PERMISSION OF UNICE E-O SERVICES INC IS 
  7
SLDTEXTSTYLE1
 73
     1
 44
1.0
  0
MTEXT
  5
D4
330
CF
100
AcDbEntity
  8
0
  6
Continuous
 62
     0
370
     0
100
AcDbMText
 10
0.0
 20
-2.5514278946
 30
0.0
 40
1.8520833333
 41
0.0
 71
     1
 72
     1
  1
PROHIBITED.
  7
SLDTEXTSTYLE1
 73
     1
 44
1.0
  0
ENDBLK
  5
D1
330
CF
100
AcDbEntity
  8
0
100
AcDbBlockEnd
  0
BLOCK
  5
108
330
107
100
AcDbEntity
  8
0
100
AcDbBlockBegin
  2
SW_NOTE_1
 70
     0
 10
0.0
 20
0.0
 30
0.0
  3
SW_NOTE_1
  1

  0
MTEXT
  5
10A
330
107
100
AcDbEntity
  8
DIM
 62
     0
100
AcDbMText
 10
0.0
 20
2.3874608764
 30
0.0
 40
1.8520833333
 41
0.0
 71
     1
 72
     1
  1
No.5, Andong Rd., Chung Li District,
  7
SLDTEXTSTYLE0
 73
     1
 44
1.0
  0
MTEXT
  5
10B
330
107
100
AcDbEntity
  8
DIM
 62
     0
100
AcDbMText
 10
0.0
 20
-0.0819835382
 30
0.0
 40
1.8520833333
 41
0.0
 71
     1
 72
     1
  1
Taoyuan City 32063, Taiwan, R.O.C.
  7
SLDTEXTSTYLE0
 73
     1
 44
1.0
  0
ENDBLK
  5
109
330
107
100
AcDbEntity
  8
0
100
AcDbBlockEnd
  0
BLOCK
  5
153
330
152
100
AcDbEntity
  8
0
100
AcDbBlockBegin
  2
_D
 70
     0
 10
0.0
 20
0.0
 30
0.0
  3
_D
  1

  0
SOLID
  5
155
330
152
100
AcDbEntity
  8
DIM
 62
     7
100
AcDbTrace
 10
131.7959644158
 20
69.1340771706
 30
0.0
 11
133.7959644158
 21
68.8840771706
 31
0.0
 12
133.7959644158
 22
69.3840771706
 32
0.0
 13
133.7959644158
 23
69.3840771706
 33
0.0
  0
SOLID
  5
156
330
152
100
AcDbEntity
  8
DIM
 62
     7
100
AcDbTrace
 10
157.1959644158
 20
69.1340771706
 30
0.0
 11
155.1959644158
 21
69.3840771706
 31
0.0
 12
155.1959644158
 22
68.8840771706
 32
0.0
 13
155.1959644158
 23
68.8840771706
 33
0.0
  0
LINE
  5
157
330
152
100
AcDbEntity
  8
DIM
 62
     7
100
AcDbLine
 10
131.7959644158
 20
77.5737524164
 30
0.0
 11
131.7959644158
 21
68.1340771706
 31
0.0
  0
LINE
  5
158
330
152
100
AcDbEntity
  8
DIM
 62
     7
100
AcDbLine
 10
157.1959644158
 20
77.5737524164
 30
0.0
 11
157.1959644158
 21
68.1340771706
 31
0.0
  0
LINE
  5
159
330
152
100
AcDbEntity
  8
DIM
 62
     7
100
AcDbLine
 10
131.7959644158
 20
69.1340771706
 30
0.0
 11
157.1959644158
 21
69.1340771706
 31
0.0
  0
MTEXT
  5
15A
330
152
100
AcDbEntity
  8
DIM
 62
     7
100
AcDbMText
 10
141.1539506097
 20
76.1935518119
 30
0.0
 40
2.5
 41
0.0
 71
     1
 72
     1
  1
25.4
  7
SLDTEXTSTYLE1
 73
     1
 44
1.0
  0
MTEXT
  5
15B
330
152
100
AcDbEntity
  8
DIM
 62
     7
100
AcDbMText
 10
141.7893670895
 20
72.3567463454
 30
0.0
 40
2.5
 41
0.0
 71
     1
 72
     1
  1
(1")
  7
SLDTEXTSTYLE1
 73
     1
 44
1.0
  0
ENDBLK
  5
154
330
152
100
AcDbEntity
  8
0
100
AcDbBlockEnd
  0
BLOCK
  5
15E
330
15D
100
AcDbEntity
  8
0
100
AcDbBlockBegin
  2
_D_1
 70
     0
 10
0.0
 20
0.0
 30
0.0
  3
_D_1
  1

  0
SOLID
  5
160
330
15D
100
AcDbEntity
  8
DIM
 62
     7
100
AcDbTrace
 10
124.4959644158
 20
63.6481108858
 30
0.0
 11
126.4959644158
 21
63.3981108858
 31
0.0
 12
126.4959644158
 22
63.8981108858
 32
0.0
 13
126.4959644158
 23
63.8981108858
 33
0.0
  0
SOLID
  5
161
330
15D
100
AcDbEntity
  8
DIM
 62
     7
100
AcDbTrace
 10
164.4959644158
 20
63.6481108858
 30
0.0
 11
162.4959644158
 21
63.8981108858
 31
0.0
 12
162.4959644158
 22
63.3981108858
 32
0.0
 13
162.4959644158
 23
63.3981108858
 33
0.0
  0
LINE
  5
162
330
15D
100
AcDbEntity
  8
DIM
 62
     7
100
AcDbLine
 10
124.4959644158
 20
77.5737524164
 30
0.0
 11
124.4959644158
 21
62.6481108858
 31
0.0
  0
LINE
  5
163
330
15D
100
AcDbEntity
  8
DIM
 62
     7
100
AcDbLine
 10
164.4959644158
 20
77.5737524164
 30
0.0
 11
164.4959644158
 21
62.6481108858
 31
0.0
  0
LINE
  5
164
330
15D
100
AcDbEntity
  8
DIM
 62
     7
100
AcDbLine
 10
124.4959644158
 20
63.6481108858
 30
0.0
 11
164.4959644158
 21
63.6481108858
 31
0.0
  0
MTEXT
  5
165
330
15D
100
AcDbEntity
  8
DIM
 62
     7
100
AcDbMText
 10
142.586242191
 20
66.8707800606
 30
0.0
 40
2.5
 41
0.0
 71
     1
 72
     1
  1
40
  7
SLDTEXTSTYLE1
 73
     1
 44
1.0
  0
ENDBLK
  5
15F
330
15D
100
AcDbEntity
  8
0
100
AcDbBlockEnd
  0
BLOCK
  5
168
330
167
100
AcDbEntity
  8
0
100
AcDbBlockBegin
  2
_D_2
 70
     0
 10
0.0
 20
0.0
 30
0.0
  3
_D_2
  1

  0
SOLID
  5
16A
330
167
100
AcDbEntity
  8
DIM
 62
     7
100
AcDbTrace
 10
172.2636254466
 20
103.5737524164
 30
0.0
 11
172.0136254466
 21
101.5737524164
 31
0.0
 12
172.5136254466
 22
101.5737524164
 32
0.0
 13
172.5136254466
 23
101.5737524164
 33
0.0
  0
SOLID
  5
16B
330
167
100
AcDbEntity
  8
DIM
 62
     7
100
AcDbTrace
 10
172.2636254466
 20
78.5737524164
 30
0.0
 11
172.5136254466
 21
80.5737524164
 31
0.0
 12
172.0136254466
 22
80.5737524164
 32
0.0
 13
172.0136254466
 23
80.5737524164
 33
0.0
  0
LINE
  5
16C
330
167
100
AcDbEntity
  8
DIM
 62
     7
100
AcDbLine
 10
145.4959644158
 20
103.5737524164
 30
0.0
 11
173.2636254466
 21
103.5737524164
 31
0.0
  0
LINE
  5
16D
330
167
100
AcDbEntity
  8
DIM
 62
     7
100
AcDbLine
 10
165.4959644158
 20
78.5737524164
 30
0.0
 11
173.2636254466
 21
78.5737524164
 31
0.0
  0
LINE
  5
16E
330
167
100
AcDbEntity
  8
DIM
 62
     7
100
AcDbLine
 10
172.2636254466
 20
103.5737524164
 30
0.0
 11
172.2636254466
 21
78.5737524164
 31
0.0
  0
MTEXT
  5
16F
330
167
100
AcDbEntity
  8
DIM
 62
     7
100
AcDbMText
 10
169.0409562718
 20
89.1640301915
 30
0.0
 40
2.5
 41
0.0
 71
     1
 72
     1
  1
25
  7
SLDTEXTSTYLE1
 11
-7.044195017643634E-15
 21
1.0
 31
0.0
 73
     1
 44
1.0
  0
ENDBLK
  5
169
330
167
100
AcDbEntity
  8
0
100
AcDbBlockEnd
  0
BLOCK
  5
172
330
171
100
AcDbEntity
  8
0
100
AcDbBlockBegin
  2
_D_3
 70
     0
 10
0.0
 20
0.0
 30
0.0
  3
_D_3
  1

  0
SOLID
  5
174
330
171
100
AcDbEntity
  8
DIM
 62
     7
100
AcDbTrace
 10
179.3178149216
 20
141.5737524164
 30
0.0
 11
179.0678149216
 21
139.5737524164
 31
0.0
 12
179.5678149216
 22
139.5737524164
 32
0.0
 13
179.5678149216
 23
139.5737524164
 33
0.0
  0
SOLID
  5
175
330
171
100
AcDbEntity
  8
DIM
 62
     7
100
AcDbTrace
 10
179.3178149216
 20
78.5737524164
 30
0.0
 11
179.5678149216
 21
80.5737524164
 31
0.0
 12
179.0678149216
 22
80.5737524164
 32
0.0
 13
179.0678149216
 23
80.5737524164
 33
0.0
  0
LINE
  5
176
330
171
100
AcDbEntity
  8
DIM
 62
     7
100
AcDbLine
 10
165.4959644158
 20
141.5737524164
 30
0.0
 11
180.3178149216
 21
141.5737524164
 31
0.0
  0
LINE
  5
177
330
171
100
AcDbEntity
  8
DIM
 62
     7
100
AcDbLine
 10
165.4959644158
 20
78.5737524164
 30
0.0
 11
180.3178149216
 21
78.5737524164
 31
0.0
  0
LINE
  5
178
330
171
100
AcDbEntity
  8
DIM
 62
     7
100
AcDbLine
 10
179.3178149216
 20
141.5737524164
 30
0.0
 11
179.3178149216
 21
78.5737524164
 31
0.0
  0
MTEXT
  5
179
330
171
100
AcDbEntity
  8
DIM
 62
     7
100
AcDbMText
 10
176.0951457468
 20
108.1640301915
 30
0.0
 40
2.5
 41
0.0
 71
     1
 72
     1
  1
63
  7
SLDTEXTSTYLE1
 11
-7.044195017643634E-15
 21
1.0
 31
0.0
 73
     1
 44
1.0
  0
ENDBLK
  5
173
330
171
100
AcDbEntity
  8
0
100
AcDbBlockEnd
  0
BLOCK
  5
17D
330
17C
100
AcDbEntity
  8
0
100
AcDbBlockBegin
  2
_D_4
 70
     0
 10
0.0
 20
0.0
 30
0.0
  3
_D_4
  1

  0
SOLID
  5
17F
330
17C
100
AcDbEntity
  8
DIM
 62
     7
100
AcDbTrace
 10
188.3178149216
 20
78.5737524164
 30
0.0
 11
188.5678149216
 21
80.5737524164
 31
0.0
 12
188.0678149216
 22
80.5737524164
 32
0.0
 13
188.0678149216
 23
80.5737524164
 33
0.0
  0
SOLID
  5
180
330
17C
100
AcDbEntity
  8
DIM
 62
     7
100
AcDbTrace
 10
188.3178149216
 20
147.7053350925
 30
0.0
 11
188.0678149216
 21
145.7053350925
 31
0.0
 12
188.5678149216
 22
145.7053350925
 32
0.0
 13
188.5678149216
 23
145.7053350925
 33
0.0
  0
LINE
  5
181
330
17C
100
AcDbEntity
  8
DIM
 62
     7
100
AcDbLine
 10
165.4959644158
 20
78.5737524164
 30
0.0
 11
189.3178149216
 21
78.5737524164
 31
0.0
  0
LINE
  5
182
330
17C
100
AcDbEntity
  8
DIM
 62
     7
100
AcDbLine
 10
161.4959644158
 20
147.7053350925
 30
0.0
 11
189.3178149216
 21
147.7053350925
 31
0.0
  0
LINE
  5
183
330
17C
100
AcDbEntity
  8
DIM
 62
     7
100
AcDbLine
 10
188.3178149216
 20
78.5737524164
 30
0.0
 11
188.3178149216
 21
147.7053350925
 31
0.0
  0
MTEXT
  5
184
330
17C
100
AcDbEntity
  8
DIM
 62
     7
100
AcDbMText
 10
181.2583402802
 20
109.7975299483
 30
0.0
 40
2.5
 41
0.0
 71
     1
 72
     1
  1
69.1
  7
SLDTEXTSTYLE1
 11
6.123233995736766E-17
 21
1.0
 31
0.0
 73
     1
 44
1.0
  0
MTEXT
  5
185
330
17C
100
AcDbEntity
  8
DIM
 62
     7
100
AcDbMText
 10
185.0951457468
 20
105.3166269114
 30
0.0
 40
2.5
 41
0.0
 71
     1
 72
     1
  1
NOMINAL
  7
SLDTEXTSTYLE1
 11
6.123233995736766E-17
 21
1.0
 31
0.0
 73
     1
 44
1.0
  0
ENDBLK
  5
17E
330
17C
100
AcDbEntity
  8
0
100
AcDbBlockEnd
  0
BLOCK
  5
187
330
186
100
AcDbEntity
  8
0
100
AcDbBlockBegin
  2
SW_NOTE_2
 70
     0
 10
0.0
 20
0.0
 30
0.0
  3
SW_NOTE_2
  1

  0
LINE
  5
189
330
186
100
AcDbEntity
  8
DIM
 62
     0
100
AcDbLine
 10
-19.8317307692
 20
0.0
 30
0.0
 11
0.0
 21
0.0
 31
0.0
  0
LINE
  5
18A
330
186
100
AcDbEntity
  8
DIM
 62
     0
100
AcDbLine
 10
0.0
 20
0.0
 30
0.0
 11
-19.8317307692
 21
0.0
 31
0.0
  0
LINE
  5
18B
330
186
100
AcDbEntity
  8
DIM
 62
     0
100
AcDbLine
 10
-19.8317307692
 20
0.0
 30
0.0
 11
0.0
 21
0.0
 31
0.0
  0
LINE
  5
18C
330
186
100
AcDbEntity
  8
DIM
 62
     0
100
AcDbLine
 10
0.0
 20
0.0
 30
0.0
 11
-19.8317307692
 21
0.0
 31
0.0
  0
LINE
  5
18D
330
186
100
AcDbEntity
  8
DIM
 62
     0
100
AcDbLine
 10
-19.8317307692
 20
0.0
 30
0.0
 11
0.0
 21
0.0
 31
0.0
  0
LINE
  5
18E
330
186
100
AcDbEntity
  8
DIM
 62
     0
100
AcDbLine
 10
0.0
 20
0.0
 30
0.0
 11
-19.8317307692
 21
0.0
 31
0.0
  0
MTEXT
  5
18F
330
186
100
AcDbEntity
  8
DIM
 62
     0
100
AcDbMText
 10
-19.7292014545
 20
6.624444919
 30
0.0
 40
2.5
 41
0.0
 71
     1
 72
     1
  1
1 HOLE,
  7
SLDTEXTSTYLE1
 73
     1
 44
1.0
  0
MTEXT
  5
190
330
186
100
AcDbEntity
  8
DIM
 62
     0
100
AcDbMText
 10
-19.7292014545
 20
3.1244448109
 30
0.0
 40
2.5
 41
0.0
 71
     1
 72
     1
  1
 1/4"-20 CLR
  7
SLDTEXTSTYLE1
 73
     1
 44
1.0
  0
ENDBLK
  5
188
330
186
100
AcDbEntity
  8
0
100
AcDbBlockEnd
  0
BLOCK
  5
195
330
194
100
AcDbEntity
  8
0
100
AcDbBlockBegin
  2
SW_NOTE_3
 70
     0
 10
0.0
 20
0.0
 30
0.0
  3
SW_NOTE_3
  1

  0
MTEXT
  5
197
330
194
100
AcDbEntity
  8
DIM
 62
     0
100
AcDbMText
 10
0.6059066571
 20
1.086894218
 30
0.0
 40
2.6458333333
 41
0.0
 71
     1
 72
     1
  1
2 HOLES,
  7
SLDTEXTSTYLE1
 73
     1
 44
1.0
  0
MTEXT
  5
198
330
194
100
AcDbEntity
  8
DIM
 62
     0
100
AcDbMText
 10
0.6059066571
 20
-2.4408835172
 30
0.0
 40
2.6458333333
 41
0.0
 71
     1
 72
     1
  1
 8-32 CLR
  7
SLDTEXTSTYLE1
 73
     1
 44
1.0
  0
ENDBLK
  5
196
330
194
100
AcDbEntity
  8
0
100
AcDbBlockEnd
  0
BLOCK
  5
19C
330
19B
100
AcDbEntity
  8
0
100
AcDbBlockBegin
  2
SW_NOTE_4
 70
     0
 10
0.0
 20
0.0
 30
0.0
  3
SW_NOTE_4
  1

  0
MTEXT
  5
19E
330
19B
100
AcDbEntity
  8
DIM
 62
     0
100
AcDbMText
 10
-23.8545679331
 20
4.7051671779
 30
0.0
 40
2.5
 41
0.0
 71
     1
 72
     1
  1
ACCEPTS
  7
SLDTEXTSTYLE1
 73
     1
 44
1.0
  0
MTEXT
  5
19F
330
19B
100
AcDbEntity
  8
DIM
 62
     0
100
AcDbMText
 10
-23.8545679331
 20
1.2051670699
 30
0.0
 40
2.5
 41
0.0
 71
     1
 72
     1
  1
%%c
  7
SLDTEXTSTYLE1
 73
     1
 44
1.0
  0
MTEXT
  5
1A0
330
19B
100
AcDbEntity
  8
DIM
 62
     0
100
AcDbMText
 10
-20.2096025769
 20
1.2051670699
 30
0.0
 40
2.5
 41
0.0
 71
     1
 72
     1
  1
0.5" OPTICS
  7
SLDTEXTSTYLE1
 73
     1
 44
1.0
  0
ENDBLK
  5
19D
330
19B
100
AcDbEntity
  8
0
100
AcDbBlockEnd
  0
BLOCK
  5
1A4
330
1A3
100
AcDbEntity
  8
0
100
AcDbBlockBegin
  2
SW_CENTERMARKSYMBOL_0
 70
     0
 10
0.0
 20
0.0
 30
0.0
  3
SW_CENTERMARKSYMBOL_0
  1

  0
LINE
  5
1A6
330
1A3
100
AcDbEntity
  8
DIM
 62
     0
100
AcDbLine
 10
0.0
 20
0.0
 30
0.0
 11
0.0
 21
1.0
 31
0.0
  0
LINE
  5
1A7
330
1A3
100
AcDbEntity
  8
DIM
 62
     0
100
AcDbLine
 10
0.0
 20
0.0
 30
0.0
 11
-1.0
 21
0.0
 31
0.0
  0
LINE
  5
1A8
330
1A3
100
AcDbEntity
  8
DIM
 62
     0
100
AcDbLine
 10
0.0
 20
0.0
 30
0.0
 11
0.0
 21
-1.0
 31
0.0
  0
LINE
  5
1A9
330
1A3
100
AcDbEntity
  8
DIM
 62
     0
100
AcDbLine
 10
0.0
 20
0.0
 30
0.0
 11
1.0
 21
0.0
 31
0.0
  0
LINE
  5
1AA
330
1A3
100
AcDbEntity
  8
DIM
 62
     0
100
AcDbLine
 10
0.0
 20
2.0
 30
0.0
 11
0.0
 21
8.0
 31
0.0
  0
LINE
  5
1AB
330
1A3
100
AcDbEntity
  8
DIM
 62
     0
100
AcDbLine
 10
-2.0
 20
0.0
 30
0.0
 11
-8.0
 21
0.0
 31
0.0
  0
LINE
  5
1AC
330
1A3
100
AcDbEntity
  8
DIM
 62
     0
100
AcDbLine
 10
0.0
 20
-2.0
 30
0.0
 11
0.0
 21
-8.0
 31
0.0
  0
LINE
  5
1AD
330
1A3
100
AcDbEntity
  8
DIM
 62
     0
100
AcDbLine
 10
2.0
 20
0.0
 30
0.0
 11
8.0
 21
0.0
 31
0.0
  0
ENDBLK
  5
1A5
330
1A3
100
AcDbEntity
  8
0
100
AcDbBlockEnd
  0
BLOCK
  5
1CE
330
1CD
100
AcDbEntity
  8
0
100
AcDbBlockBegin
  2
_D_5
 70
     0
 10
0.0
 20
0.0
 30
0.0
  3
_D_5
  1

  0
SOLID
  5
1D0
330
1CD
100
AcDbEntity
  8
DIM
 62
     7
100
AcDbTrace
 10
59.6125777552
 20
67.2109020665
 30
0.0
 11
57.6125777552
 21
67.4609020665
 31
0.0
 12
57.6125777552
 22
66.9609020665
 32
0.0
 13
57.6125777552
 23
66.9609020665
 33
0.0
  0
SOLID
  5
1D1
330
1CD
100
AcDbEntity
  8
DIM
 62
     7
100
AcDbTrace
 10
40.6125777552
 20
67.2109020665
 30
0.0
 11
42.6125777552
 21
66.9609020665
 31
0.0
 12
42.6125777552
 22
67.4609020665
 32
0.0
 13
42.6125777552
 23
67.4609020665
 33
0.0
  0
LINE
  5
1D2
330
1CD
100
AcDbEntity
  8
DIM
 62
     7
100
AcDbLine
 10
59.6125777552
 20
82.5737524164
 30
0.0
 11
59.6125777552
 21
66.2109020665
 31
0.0
  0
LINE
  5
1D3
330
1CD
100
AcDbEntity
  8
DIM
 62
     7
100
AcDbLine
 10
40.6125777552
 20
82.5737524164
 30
0.0
 11
40.6125777552
 21
66.2109020665
 31
0.0
  0
LINE
  5
1D4
330
1CD
100
AcDbEntity
  8
DIM
 62
     7
100
AcDbLine
 10
59.6125777552
 20
67.2109020665
 30
0.0
 11
40.6125777552
 21
67.2109020665
 31
0.0
  0
MTEXT
  5
1D5
330
1CD
100
AcDbEntity
  8
DIM
 62
     7
100
AcDbMText
 10
48.2028555304
 20
70.4335712413
 30
0.0
 40
2.5
 41
0.0
 71
     1
 72
     1
  1
19
  7
SLDTEXTSTYLE1
 73
     1
 44
1.0
  0
ENDBLK
  5
1CF
330
1CD
100
AcDbEntity
  8
0
100
AcDbBlockEnd
  0
BLOCK
  5
1D9
330
1D8
100
AcDbEntity
  8
0
100
AcDbBlockBegin
  2
_D_6
 70
     0
 10
0.0
 20
0.0
 30
0.0
  3
_D_6
  1

  0
SOLID
  5
1DB
330
1D8
100
AcDbEntity
  8
DIM
 62
     7
100
AcDbTrace
 10
40.6125777552
 20
72.2443802135
 30
0.0
 11
38.6125777552
 21
72.4943802135
 31
0.0
 12
38.6125777552
 22
71.9943802135
 32
0.0
 13
38.6125777552
 23
71.9943802135
 33
0.0
  0
SOLID
  5
1DC
330
1D8
100
AcDbEntity
  8
DIM
 62
     7
100
AcDbTrace
 10
45.6125777552
 20
72.2443802135
 30
0.0
 11
47.6125777552
 21
71.9943802135
 31
0.0
 12
47.6125777552
 22
72.4943802135
 32
0.0
 13
47.6125777552
 23
72.4943802135
 33
0.0
  0
LINE
  5
1DD
330
1D8
100
AcDbEntity
  8
DIM
 62
     7
100
AcDbLine
 10
40.6125777552
 20
82.5737524164
 30
0.0
 11
40.6125777552
 21
71.2443802135
 31
0.0
  0
LINE
  5
1DE
330
1D8
100
AcDbEntity
  8
DIM
 62
     7
100
AcDbLine
 10
45.6125777552
 20
102.5737524164
 30
0.0
 11
45.6125777552
 21
71.2443802135
 31
0.0
  0
LINE
  5
1DF
330
1D8
100
AcDbEntity
  8
DIM
 62
     7
100
AcDbLine
 10
40.6125777552
 20
72.2443802135
 30
0.0
 11
37.6125777552
 21
72.2443802135
 31
0.0
  0
LINE
  5
1E0
330
1D8
100
AcDbEntity
  8
DIM
 62
     7
100
AcDbLine
 10
40.6125777552
 20
72.2443802135
 30
0.0
 11
45.6125777552
 21
72.2443802135
 31
0.0
  0
LINE
  5
1E1
330
1D8
100
AcDbEntity
  8
DIM
 62
     7
100
AcDbLine
 10
45.6125777552
 20
72.2443802135
 30
0.0
 11
48.6125777552
 21
72.2443802135
 31
0.0
  0
MTEXT
  5
1E2
330
1D8
100
AcDbEntity
  8
DIM
 62
     7
100
AcDbMText
 10
42.1577166428
 20
75.4670493883
 30
0.0
 40
2.5
 41
0.0
 71
     1
 72
     1
  1
5
  7
SLDTEXTSTYLE1
 73
     1
 44
1.0
  0
ENDBLK
  5
1DA
330
1D8
100
AcDbEntity
  8
0
100
AcDbBlockEnd
  0
BLOCK
  5
1E5
330
1E4
100
AcDbEntity
  8
0
100
AcDbBlockBegin
  2
_D_7
 70
     0
 10
0.0
 20
0.0
 30
0.0
  3
_D_7
  1

  0
SOLID
  5
1E7
330
1E4
100
AcDbEntity
  8
DIM
 62
     7
100
AcDbTrace
 10
67.6125777552
 20
62.2641441211
 30
0.0
 11
65.6125777552
 21
62.5141441211
 31
0.0
 12
65.6125777552
 22
62.0141441211
 32
0.0
 13
65.6125777552
 23
62.0141441211
 33
0.0
  0
SOLID
  5
1E8
330
1E4
100
AcDbEntity
  8
DIM
 62
     7
100
AcDbTrace
 10
40.6125777552
 20
62.2641441211
 30
0.0
 11
42.6125777552
 21
62.0141441211
 31
0.0
 12
42.6125777552
 22
62.5141441211
 32
0.0
 13
42.6125777552
 23
62.5141441211
 33
0.0
  0
LINE
  5
1E9
330
1E4
100
AcDbEntity
  8
DIM
 62
     7
100
AcDbLine
 10
67.6125777552
 20
75.5737524164
 30
0.0
 11
67.6125777552
 21
61.2641441211
 31
0.0
  0
LINE
  5
1EA
330
1E4
100
AcDbEntity
  8
DIM
 62
     7
100
AcDbLine
 10
40.6125777552
 20
77.5737524164
 30
0.0
 11
40.6125777552
 21
61.2641441211
 31
0.0
  0
LINE
  5
1EB
330
1E4
100
AcDbEntity
  8
DIM
 62
     7
100
AcDbLine
 10
67.6125777552
 20
62.2641441211
 30
0.0
 11
40.6125777552
 21
62.2641441211
 31
0.0
  0
MTEXT
  5
1EC
330
1E4
100
AcDbEntity
  8
DIM
 62
     7
100
AcDbMText
 10
52.2028555304
 20
65.4868132959
 30
0.0
 40
2.5
 41
0.0
 71
     1
 72
     1
  1
27
  7
SLDTEXTSTYLE1
 73
     1
 44
1.0
  0
ENDBLK
  5
1E6
330
1E4
100
AcDbEntity
  8
0
100
AcDbBlockEnd
  0
BLOCK
  5
1EF
330
1EE
100
AcDbEntity
  8
0
100
AcDbBlockBegin
  2
_D_8
 70
     0
 10
0.0
 20
0.0
 30
0.0
  3
_D_8
  1

  0
SOLID
  5
1F1
330
1EE
100
AcDbEntity
  8
DIM
 62
     7
100
AcDbTrace
 10
40.6125777552
 20
57.2957172909
 30
0.0
 11
42.6125777552
 21
57.0457172909
 31
0.0
 12
42.6125777552
 22
57.5457172909
 32
0.0
 13
42.6125777552
 23
57.5457172909
 33
0.0
  0
SOLID
  5
1F2
330
1EE
100
AcDbEntity
  8
DIM
 62
     7
100
AcDbTrace
 10
75.6125777552
 20
57.2957172909
 30
0.0
 11
73.6125777552
 21
57.5457172909
 31
0.0
 12
73.6125777552
 22
57.0457172909
 32
0.0
 13
73.6125777552
 23
57.0457172909
 33
0.0
  0
LINE
  5
1F3
330
1EE
100
AcDbEntity
  8
DIM
 62
     7
100
AcDbLine
 10
40.6125777552
 20
77.5737524164
 30
0.0
 11
40.6125777552
 21
56.2957172909
 31
0.0
  0
LINE
  5
1F4
330
1EE
100
AcDbEntity
  8
DIM
 62
     7
100
AcDbLine
 10
75.6125777552
 20
77.5737524164
 30
0.0
 11
75.6125777552
 21
56.2957172909
 31
0.0
  0
LINE
  5
1F5
330
1EE
100
AcDbEntity
  8
DIM
 62
     7
100
AcDbLine
 10
40.6125777552
 20
57.2957172909
 30
0.0
 11
75.6125777552
 21
57.2957172909
 31
0.0
  0
MTEXT
  5
1F6
330
1EE
100
AcDbEntity
  8
DIM
 62
     7
100
AcDbMText
 10
56.2028555304
 20
60.5183864657
 30
0.0
 40
2.5
 41
0.0
 71
     1
 72
     1
  1
35
  7
SLDTEXTSTYLE1
 73
     1
 44
1.0
  0
ENDBLK
  5
1F0
330
1EE
100
AcDbEntity
  8
0
100
AcDbBlockEnd
  0
BLOCK
  5
1F9
330
1F8
100
AcDbEntity
  8
0
100
AcDbBlockBegin
  2
_D_9
 70
     0
 10
0.0
 20
0.0
 30
0.0
  3
_D_9
  1

  0
SOLID
  5
1FB
330
1F8
100
AcDbEntity
  8
DIM
 62
     7
100
AcDbTrace
 10
82.2708221694
 20
84.5737524164
 30
0.0
 11
82.0208221694
 21
82.5737524164
 31
0.0
 12
82.5208221694
 22
82.5737524164
 32
0.0
 13
82.5208221694
 23
82.5737524164
 33
0.0
  0
SOLID
  5
1FC
330
1F8
100
AcDbEntity
  8
DIM
 62
     7
100
AcDbTrace
 10
82.2708221694
 20
78.5737524164
 30
0.0
 11
82.5208221694
 21
80.5737524164
 31
0.0
 12
82.0208221694
 22
80.5737524164
 32
0.0
 13
82.0208221694
 23
80.5737524164
 33
0.0
  0
LINE
  5
1FD
330
1F8
100
AcDbEntity
  8
DIM
 62
     7
100
AcDbLine
 10
76.6125777552
 20
84.5737524164
 30
0.0
 11
83.2708221694
 21
84.5737524164
 31
0.0
  0
LINE
  5
1FE
330
1F8
100
AcDbEntity
  8
DIM
 62
     7
100
AcDbLine
 10
76.6125777552
 20
78.5737524164
 30
0.0
 11
83.2708221694
 21
78.5737524164
 31
0.0
  0
LINE
  5
1FF
330
1F8
100
AcDbEntity
  8
DIM
 62
     7
100
AcDbLine
 10
82.2708221694
 20
84.5737524164
 30
0.0
 11
82.2708221694
 21
78.5737524164
 31
0.0
  0
MTEXT
  5
200
330
1F8
100
AcDbEntity
  8
DIM
 62
     7
100
AcDbMText
 10
79.0481529946
 20
80.6188913039
 30
0.0
 40
2.5
 41
0.0
 71
     1
 72
     1
  1
6
  7
SLDTEXTSTYLE1
 11
-7.044195017643634E-15
 21
1.0
 31
0.0
 73
     1
 44
1.0
  0
ENDBLK
  5
1FA
330
1F8
100
AcDbEntity
  8
0
100
AcDbBlockEnd
  0
BLOCK
  5
203
330
202
100
AcDbEntity
  8
0
100
AcDbBlockBegin
  2
_D_10
 70
     0
 10
0.0
 20
0.0
 30
0.0
  3
_D_10
  1

  0
SOLID
  5
205
330
202
100
AcDbEntity
  8
DIM
 62
     7
100
AcDbTrace
 10
34.0261027063
 20
103.5737524164
 30
0.0
 11
33.7761027063
 21
101.5737524164
 31
0.0
 12
34.2761027063
 22
101.5737524164
 32
0.0
 13
34.2761027063
 23
101.5737524164
 33
0.0
  0
SOLID
  5
206
330
202
100
AcDbEntity
  8
DIM
 62
     7
100
AcDbTrace
 10
34.0261027063
 20
78.5737524164
 30
0.0
 11
34.2761027063
 21
80.5737524164
 31
0.0
 12
33.7761027063
 22
80.5737524164
 32
0.0
 13
33.7761027063
 23
80.5737524164
 33
0.0
  0
LINE
  5
207
330
202
100
AcDbEntity
  8
DIM
 62
     7
100
AcDbLine
 10
44.6125777552
 20
103.5737524164
 30
0.0
 11
33.0261027063
 21
103.5737524164
 31
0.0
  0
LINE
  5
208
330
202
100
AcDbEntity
  8
DIM
 62
     7
100
AcDbLine
 10
39.6125777552
 20
78.5737524164
 30
0.0
 11
33.0261027063
 21
78.5737524164
 31
0.0
  0
LINE
  5
209
330
202
100
AcDbEntity
  8
DIM
 62
     7
100
AcDbLine
 10
34.0261027063
 20
103.5737524164
 30
0.0
 11
34.0261027063
 21
78.5737524164
 31
0.0
  0
MTEXT
  5
20A
330
202
100
AcDbEntity
  8
DIM
 62
     7
100
AcDbMText
 10
30.8034335315
 20
89.1640301915
 30
0.0
 40
2.5
 41
0.0
 71
     1
 72
     1
  1
25
  7
SLDTEXTSTYLE1
 11
-7.044195017643634E-15
 21
1.0
 31
0.0
 73
     1
 44
1.0
  0
ENDBLK
  5
204
330
202
100
AcDbEntity
  8
0
100
AcDbBlockEnd
  0
BLOCK
  5
20E
330
20D
100
AcDbEntity
  8
0
100
AcDbBlockBegin
  2
_D_11
 70
     0
 10
0.0
 20
0.0
 30
0.0
  3
_D_11
  1

  0
SOLID
  5
210
330
20D
100
AcDbEntity
  8
DIM
100
AcDbTrace
 10
47.1083768326
 20
104.4373524164
 30
0.0
 11
48.9654276402
 21
105.2208460654
 31
0.0
 12
48.7154276402
 22
105.6538587673
 32
0.0
 13
48.7154276402
 23
105.6538587673
 33
0.0
  0
LINE
  5
211
330
20D
100
AcDbEntity
  8
DIM
100
AcDbLine
 10
47.1083768326
 20
104.4373524164
 30
0.0
 11
65.2071218365
 21
114.8866677164
 31
0.0
  0
LINE
  5
212
330
20D
100
AcDbEntity
  8
DIM
100
AcDbLine
 10
65.2071218365
 20
114.8866677164
 30
0.0
 11
79.6272607693
 21
114.8866677164
 31
0.0
  0
MTEXT
  5
213
330
20D
100
AcDbEntity
  8
DIM
100
AcDbMText
 10
66.4571218365
 20
121.9461423577
 30
0.0
 40
2.5
 41
0.0
 71
     1
 72
     1
  1
1 HOLE,
  7
SLDTEXTSTYLE1
 73
     1
 44
1.0
  0
MTEXT
  5
214
330
20D
100
AcDbEntity
  8
DIM
100
AcDbMText
 10
66.4571218365
 20
118.1093368912
 30
0.0
 40
2.5
 41
0.0
 71
     1
 72
     1
  1
 8-32
  7
SLDTEXTSTYLE1
 73
     1
 44
1.0
  0
ENDBLK
  5
20F
330
20D
100
AcDbEntity
  8
0
100
AcDbBlockEnd
  0
BLOCK
  5
216
330
215
100
AcDbEntity
  8
0
100
AcDbBlockBegin
  2
SW_CENTERMARKSYMBOL_1
 70
     0
 10
0.0
 20
0.0
 30
0.0
  3
SW_CENTERMARKSYMBOL_1
  1

  0
LINE
  5
218
330
215
100
AcDbEntity
  8
DIM
 62
     0
100
AcDbLine
 10
0.0
 20
0.0
 30
0.0
 11
0.0
 21
1.0
 31
0.0
  0
LINE
  5
219
330
215
100
AcDbEntity
  8
DIM
 62
     0
100
AcDbLine
 10
0.0
 20
0.0
 30
0.0
 11
-1.0
 21
0.0
 31
0.0
  0
LINE
  5
21A
330
215
100
AcDbEntity
  8
DIM
 62
     0
100
AcDbLine
 10
0.0
 20
0.0
 30
0.0
 11
0.0
 21
-1.0
 31
0.0
  0
LINE
  5
21B
330
215
100
AcDbEntity
  8
DIM
 62
     0
100
AcDbLine
 10
0.0
 20
0.0
 30
0.0
 11
1.0
 21
0.0
 31
0.0
  0
LINE
  5
21C
330
215
100
AcDbEntity
  8
DIM
 62
     0
100
AcDbLine
 10
0.0
 20
2.0
 30
0.0
 11
0.0
 21
2.7272
 31
0.0
  0
LINE
  5
21D
330
215
100
AcDbEntity
  8
DIM
 62
     0
100
AcDbLine
 10
-2.0
 20
0.0
 30
0.0
 11
-2.7272
 21
0.0
 31
0.0
  0
LINE
  5
21E
330
215
100
AcDbEntity
  8
DIM
 62
     0
100
AcDbLine
 10
0.0
 20
-2.0
 30
0.0
 11
0.0
 21
-2.7272
 31
0.0
  0
LINE
  5
21F
330
215
100
AcDbEntity
  8
DIM
 62
     0
100
AcDbLine
 10
2.0
 20
0.0
 30
0.0
 11
2.7272
 21
0.0
 31
0.0
  0
ENDBLK
  5
217
330
215
100
AcDbEntity
  8
0
100
AcDbBlockEnd
  0
ENDSEC
  0
SECTION
  2
ENTITIES
  0
HATCH
  5
7D
330
1F
100
AcDbEntity
  8
DIM
 62
     1
100
AcDbHatch
 10
0.0
 20
0.0
 30
0.0
210
0.0
220
0.0
230
1.0
  2
SOLID
 70
     1
 71
     0
 91
        1
 92
        0
 93
       10
 72
     2
 10
195.9181335739884
 20
36.39317862024703
 40
1.518552937418269
 50
316.5603538466151
 51
413.9622470531883
 73
     0
 72
     1
 10
196.8115258996505
 20
35.16523188842609
 11
195.5698445848568
 21
33.96079894601887
 72
     1
 10
195.5698445848568
 20
33.96079894601887
 11
194.584395691874
 21
34.81949588590836
 72
     2
 10
192.5548098488265
 20
36.40840603525001
 40
2.577567488346249
 50
321.9435288426934
 51
402.1815007004193
 73
     1
 72
     2
 10
192.237153558102
 20
35.86758422977183
 40
3.181636704527865
 50
45.55929254159835
 51
125.83255551215
 73
     1
 72
     1
 10
190.3745648009993
 20
38.44703673786606
 11
189.3521569236508
 21
39.33882726498687
 72
     1
 10
189.3521569236508
 20
39.33882726498687
 11
192.5877423720606
 21
42.46574751160097
 72
     1
 10
192.5877423720606
 20
42.46574751160097
 11
193.5182488822447
 21
41.63555529175644
 72
     1
 10
193.5182488822447
 20
41.63555529175644
 11
192.8939975803174
 21
41.02649686091912
 72
     1
 10
192.8939975803174
 20
41.02649686091912
 11
197.0207534386607
 21
37.43732059228515
 97
        0
 75
     0
 76
     1
 98
        1
 10
0.0
 20
0.0
  0
HATCH
  5
7E
330
1F
100
AcDbEntity
  8
DIM
 62
     7
100
AcDbHatch
 10
0.0
 20
0.0
 30
0.0
210
0.0
220
0.0
230
1.0
  2
SOLID
 70
     1
 71
     0
 91
        1
 92
        0
 93
       10
 72
     2
 10
192.1039881191382
 20
36.62178386847388
 40
3.045751395731241
 50
51.07786460466387
 51
110.7887790856593
 73
     0
 72
     2
 10
191.7725909108416
 20
36.23314211922645
 40
2.57054436971128
 50
106.9547474925999
 51
219.8569537219352
 73
     0
 72
     1
 10
189.799320607469
 20
37.88053480662123
 11
188.7841267600665
 21
38.77606670743901
 72
     1
 10
188.7841267600665
 20
38.77606670743901
 11
187.4774985051848
 21
37.51447963093149
 72
     2
 10
188.4681933527003
 20
36.34592298253147
 40
1.531992467805808
 50
130.291064792488
 51
228.5093619070323
 73
     1
 72
     1
 10
187.4532519231594
 20
35.19836260677113
 11
191.4624542333552
 21
31.71375876649628
 72
     1
 10
191.4624542333552
 20
31.71375876649628
 11
190.8314023129401
 21
31.09785837602526
 72
     1
 10
190.8314023129401
 20
31.09785837602526
 11
191.7722027684341
 21
30.28786130591526
 72
     1
 10
191.7722027684341
 20
30.28786130591526
 11
194.9823427415898
 21
33.40490101867766
 72
     1
 10
194.9823427415898
 20
33.40490101867766
 11
194.0175230803727
 21
34.25218780231999
 97
        0
 75
     0
 76
     1
 98
        1
 10
0.0
 20
0.0
  0
LINE
  5
7F
330
1F
100
AcDbEntity
  8
0
  6
Continuous
 62
     7
370
     0
100
AcDbLine
 10
167.8593775185
 20
17.7745192513
 30
0.0
 11
168.8593775185
 21
17.7745192513
 31
0.0
  0
LINE
  5
80
330
1F
100
AcDbEntity
  8
0
  6
Continuous
 62
     7
370
     0
100
AcDbLine
 10
164.8593775185
 20
17.7745192513
 30
0.0
 11
167.3593775185
 21
17.7745192513
 31
0.0
  0
LINE
  5
81
330
1F
100
AcDbEntity
  8
0
  6
Continuous
 62
     7
370
     0
100
AcDbLine
 10
181.3593775185
 20
15.2745192513
 30
0.0
 11
181.3593775185
 21
20.2745192513
 31
0.0
  0
LINE
  5
82
330
1F
100
AcDbEntity
  8
0
  6
Continuous
 62
     7
370
     0
100
AcDbLine
 10
174.3593775185
 20
16.2745192513
 30
0.0
 11
181.3593775185
 21
15.2745192513
 31
0.0
  0
LINE
  5
83
330
1F
100
AcDbEntity
  8
0
  6
Continuous
 62
     7
370
     0
100
AcDbLine
 10
168.3593775185
 20
16.7745192513
 30
0.0
 11
168.3593775185
 21
14.2745192513
 31
0.0
  0
LINE
  5
84
330
1F
100
AcDbEntity
  8
0
  6
Continuous
 62
     7
370
     0
100
AcDbLine
 10
181.3593775185
 20
20.2745192513
 30
0.0
 11
174.3593775185
 21
19.2745192513
 31
0.0
  0
LINE
  5
85
330
1F
100
AcDbEntity
  8
0
  6
Continuous
 62
     7
370
     0
100
AcDbLine
 10
173.3593775185
 20
17.7745192513
 30
0.0
 11
182.3593775185
 21
17.7745192513
 31
0.0
  0
LINE
  5
86
330
1F
100
AcDbEntity
  8
0
  6
Continuous
 62
     7
370
     0
100
AcDbLine
 10
168.3593775185
 20
18.2745192513
 30
0.0
 11
168.3593775185
 21
17.2745192513
 31
0.0
  0
LINE
  5
87
330
1F
100
AcDbEntity
  8
0
  6
Continuous
 62
     7
370
     0
100
AcDbLine
 10
169.3593775185
 20
17.7745192513
 30
0.0
 11
171.8593775185
 21
17.7745192513
 31
0.0
  0
LINE
  5
88
330
1F
100
AcDbEntity
  8
0
  6
Continuous
 62
     7
370
     0
100
AcDbLine
 10
168.3593775185
 20
21.2745192513
 30
0.0
 11
168.3593775185
 21
18.7745192513
 31
0.0
  0
LINE
  5
89
330
1F
100
AcDbEntity
  8
0
  6
Continuous
 62
     7
370
     0
100
AcDbLine
 10
174.3593775185
 20
19.2745192513
 30
0.0
 11
174.3593775185
 21
16.2745192513
 31
0.0
  0
LINE
  5
8A
330
1F
100
AcDbEntity
  8
0
  6
Continuous
 62
     7
370
     0
100
AcDbLine
 10
185.6907965209
 20
13.1152464079
 30
0.0
 11
285.6907965209
 21
13.1152464079
 31
0.0
  0
LINE
  5
8B
330
1F
100
AcDbEntity
  8
0
  6
Continuous
 62
     7
370
     0
100
AcDbLine
 10
185.6907965209
 20
18.1152464079
 30
0.0
 11
235.6907965209
 21
18.1152464079
 31
0.0
  0
LINE
  5
8C
330
1F
100
AcDbEntity
  8
0
  6
Continuous
 62
     7
370
     0
100
AcDbLine
 10
185.6907965209
 20
23.1152464079
 30
0.0
 11
235.6907965209
 21
23.1152464079
 31
0.0
  0
LINE
  5
8D
330
1F
100
AcDbEntity
  8
0
  6
Continuous
 62
     7
370
     0
100
AcDbLine
 10
185.6907965209
 20
28.1152464079
 30
0.0
 11
285.6907965209
 21
28.1152464079
 31
0.0
  0
LINE
  5
8E
330
1F
100
AcDbEntity
  8
0
  6
Continuous
 62
     7
370
     0
100
AcDbLine
 10
235.6907965209
 20
33.1152464079
 30
0.0
 11
285.6907965209
 21
33.1152464079
 31
0.0
  0
LINE
  5
8F
330
1F
100
AcDbEntity
  8
0
  6
Continuous
 62
     7
370
    15
100
AcDbLine
 10
235.6907965209
 20
18.1152464079
 30
0.0
 11
285.6907965209
 21
18.1152464079
 31
0.0
  0
LINE
  5
90
330
1F
100
AcDbEntity
  8
0
  6
Continuous
 62
     7
370
     0
100
AcDbLine
 10
185.6907965209
 20
43.1152464079
 30
0.0
 11
285.6907965209
 21
43.1152464079
 31
0.0
  0
LINE
  5
91
330
1F
100
AcDbEntity
  8
0
  6
Continuous
 62
     7
370
     0
100
AcDbLine
 10
251.237217675
 20
8.1152464079
 30
0.0
 11
251.237217675
 21
18.1152464079
 31
0.0
  0
LINE
  5
92
330
1F
100
AcDbEntity
  8
0
  6
Continuous
 62
     7
370
     0
100
AcDbLine
 10
235.6907965209
 20
8.1152464079
 30
0.0
 11
235.6907965209
 21
43.1152464079
 31
0.0
  0
LINE
  5
93
330
1F
100
AcDbEntity
  8
0
  6
Continuous
 62
     7
370
     0
100
AcDbLine
 10
251.237217675
 20
28.1152464079
 30
0.0
 11
251.237217675
 21
33.1152464079
 31
0.0
  0
LINE
  5
94
330
1F
100
AcDbEntity
  8
0
  6
Continuous
 62
     7
370
     0
100
AcDbLine
 10
214.4164086353
 20
8.1152464079
 30
0.0
 11
214.4164086353
 21
28.1152464079
 31
0.0
  0
LINE
  5
95
330
1F
100
AcDbEntity
  8
0
  6
Continuous
 62
     7
370
     0
100
AcDbLine
 10
199.7785887506
 20
8.1152464079
 30
0.0
 11
199.7785887506
 21
28.1152464079
 31
0.0
  0
LINE
  5
96
330
1F
100
AcDbEntity
  8
0
  6
Continuous
 62
     7
370
     0
100
AcDbLine
 10
185.6907965209
 20
8.1152464079
 30
0.0
 11
185.6907965209
 21
43.1152464079
 31
0.0
  0
LINE
  5
97
330
1F
100
AcDbEntity
  8
0
  6
Continuous
 62
     7
370
    15
100
AcDbLine
 10
8.6907965209
 20
104.7436369915
 30
0.0
 11
14.6907965209
 21
104.7436369915
 31
0.0
  0
LINE
  5
98
330
1F
100
AcDbEntity
  8
0
  6
Continuous
 62
     7
370
    15
100
AcDbLine
 10
285.6907965209
 20
104.7436369915
 30
0.0
 11
279.6907965209
 21
104.7436369915
 31
0.0
  0
LINE
  5
99
330
1F
100
AcDbEntity
  8
0
  6
Continuous
 62
     7
370
    15
100
AcDbLine
 10
147.1907965209
 20
8.1152464079
 30
0.0
 11
147.1907965209
 21
14.1152464079
 31
0.0
  0
LINE
  5
9A
330
1F
100
AcDbEntity
  8
0
  6
Continuous
 62
     7
370
    15
100
AcDbLine
 10
147.1907965209
 20
201.3720275751
 30
0.0
 11
147.1907965209
 21
195.3720275751
 31
0.0
  0
LINE
  5
9B
330
1F
100
AcDbEntity
  8
工作區域參考線
 62
     1
370
     0
100
AcDbLine
 10
190.374564801
 20
38.4470367379
 30
0.0
 11
189.3521569237
 21
39.338827265
 31
0.0
  0
LINE
  5
9C
330
1F
100
AcDbEntity
  8
0
  6
Continuous
 62
     7
370
    15
100
AcDbLine
 10
43.3207965209
 20
201.3720275751
 30
0.0
 11
43.3207965209
 21
202.8720275751
 31
0.0
  0
LINE
  5
9D
330
1F
100
AcDbEntity
  8
0
  6
Continuous
 62
     7
370
    15
100
AcDbLine
 10
77.9507965209
 20
201.3720275751
 30
0.0
 11
77.9507965209
 21
202.8720275751
 31
0.0
  0
LINE
  5
9E
330
1F
100
AcDbEntity
  8
0
  6
Continuous
 62
     7
370
    15
100
AcDbLine
 10
112.5807965209
 20
201.3720275751
 30
0.0
 11
112.5807965209
 21
202.8720275751
 31
0.0
  0
LINE
  5
9F
330
1F
100
AcDbEntity
  8
0
  6
Continuous
 62
     7
370
    15
100
AcDbLine
 10
147.2107965209
 20
201.3720275751
 30
0.0
 11
147.2107965209
 21
202.8720275751
 31
0.0
  0
LINE
  5
A0
330
1F
100
AcDbEntity
  8
0
  6
Continuous
 62
     7
370
    15
100
AcDbLine
 10
181.8407965209
 20
201.3720275751
 30
0.0
 11
181.8407965209
 21
202.8720275751
 31
0.0
  0
LINE
  5
A1
330
1F
100
AcDbEntity
  8
0
  6
Continuous
 62
     7
370
    15
100
AcDbLine
 10
216.4707965209
 20
201.3720275751
 30
0.0
 11
216.4707965209
 21
202.8720275751
 31
0.0
  0
LINE
  5
A2
330
1F
100
AcDbEntity
  8
0
  6
Continuous
 62
     7
370
    15
100
AcDbLine
 10
251.1007965209
 20
201.3720275751
 30
0.0
 11
251.1007965209
 21
202.8720275751
 31
0.0
  0
LINE
  5
A3
330
1F
100
AcDbEntity
  8
0
  6
Continuous
 62
     7
370
    15
100
AcDbLine
 10
43.3157965209
 20
8.1152464079
 30
0.0
 11
43.3157965209
 21
6.6152464079
 31
0.0
  0
LINE
  5
A4
330
1F
100
AcDbEntity
  8
0
  6
Continuous
 62
     7
370
    15
100
AcDbLine
 10
77.9407965209
 20
8.1152464079
 30
0.0
 11
77.9407965209
 21
6.6152464079
 31
0.0
  0
LINE
  5
A5
330
1F
100
AcDbEntity
  8
0
  6
Continuous
 62
     7
370
    15
100
AcDbLine
 10
112.5657965209
 20
8.1152464079
 30
0.0
 11
112.5657965209
 21
6.6152464079
 31
0.0
  0
LINE
  5
A6
330
1F
100
AcDbEntity
  8
0
  6
Continuous
 62
     7
370
    15
100
AcDbLine
 10
147.1907965209
 20
8.1152464079
 30
0.0
 11
147.1907965209
 21
6.6152464079
 31
0.0
  0
LINE
  5
A7
330
1F
100
AcDbEntity
  8
0
  6
Continuous
 62
     7
370
    15
100
AcDbLine
 10
181.8157965209
 20
8.1152464079
 30
0.0
 11
181.8157965209
 21
6.6152464079
 31
0.0
  0
LINE
  5
A8
330
1F
100
AcDbEntity
  8
0
  6
Continuous
 62
     7
370
    15
100
AcDbLine
 10
216.4407965209
 20
8.1152464079
 30
0.0
 11
216.4407965209
 21
6.6152464079
 31
0.0
  0
LINE
  5
A9
330
1F
100
AcDbEntity
  8
0
  6
Continuous
 62
     7
370
     0
100
AcDbLine
 10
285.6907965209
 20
201.3720275751
 30
0.0
 11
8.6907965209
 21
201.3720275751
 31
0.0
  0
LINE
  5
AA
330
1F
100
AcDbEntity
  8
0
  6
Continuous
 62
     7
370
     0
100
AcDbLine
 10
285.6907965209
 20
8.1152464079
 30
0.0
 11
285.6907965209
 21
201.3720275751
 31
0.0
  0
LINE
  5
AB
330
1F
100
AcDbEntity
  8
0
  6
Continuous
 62
     7
370
     0
100
AcDbLine
 10
8.6907965209
 20
201.3720275751
 30
0.0
 11
8.6907965209
 21
8.1152464079
 31
0.0
  0
LINE
  5
AC
330
1F
100
AcDbEntity
  8
0
  6
Continuous
 62
     7
370
     0
100
AcDbLine
 10
8.6907965209
 20
8.1152464079
 30
0.0
 11
285.6907965209
 21
8.1152464079
 31
0.0
  0
LINE
  5
AD
330
1F
100
AcDbEntity
  8
工作區域參考線
 62
     1
370
     0
100
AcDbLine
 10
189.3521569237
 20
39.338827265
 30
0.0
 11
192.5877423721
 21
42.4657475116
 31
0.0
  0
LINE
  5
AE
330
1F
100
AcDbEntity
  8
0
  6
Continuous
 62
     7
370
    15
100
AcDbLine
 10
251.0657965209
 20
8.1152464079
 30
0.0
 11
251.0657965209
 21
6.6152464079
 31
0.0
  0
LINE
  5
AF
330
1F
100
AcDbEntity
  8
0
  6
Continuous
 62
     7
370
    15
100
AcDbLine
 10
8.6907965209
 20
40.3252464079
 30
0.0
 11
7.1907965209
 21
40.3252464079
 31
0.0
  0
LINE
  5
B0
330
1F
100
AcDbEntity
  8
工作區域參考線
 62
     1
370
     0
100
AcDbLine
 10
192.5877423721
 20
42.4657475116
 30
0.0
 11
193.5182488822
 21
41.6355552918
 31
0.0
  0
LINE
  5
B1
330
1F
100
AcDbEntity
  8
0
  6
Continuous
 62
     7
370
    15
100
AcDbLine
 10
8.6907965209
 20
72.5352464079
 30
0.0
 11
7.1907965209
 21
72.5352464079
 31
0.0
  0
LINE
  5
B2
330
1F
100
AcDbEntity
  8
0
  6
Continuous
 62
     7
370
    15
100
AcDbLine
 10
8.6907965209
 20
104.7452464079
 30
0.0
 11
7.1907965209
 21
104.7452464079
 31
0.0
  0
LINE
  5
B3
330
1F
100
AcDbEntity
  8
0
  6
Continuous
 62
     7
370
    15
100
AcDbLine
 10
8.6907965209
 20
136.9552464079
 30
0.0
 11
7.1907965209
 21
136.9552464079
 31
0.0
  0
LINE
  5
B4
330
1F
100
AcDbEntity
  8
0
  6
Continuous
 62
     7
370
    15
100
AcDbLine
 10
8.6907965209
 20
169.1652464079
 30
0.0
 11
7.1907965209
 21
169.1652464079
 31
0.0
  0
LINE
  5
B5
330
1F
100
AcDbEntity
  8
0
  6
Continuous
 62
     7
370
    15
100
AcDbLine
 10
285.6907965209
 20
40.3252464079
 30
0.0
 11
287.1907965209
 21
40.3252464079
 31
0.0
  0
LINE
  5
B6
330
1F
100
AcDbEntity
  8
工作區域參考線
 62
     1
370
     0
100
AcDbLine
 10
193.5182488822
 20
41.6355552918
 30
0.0
 11
192.8939975803
 21
41.0264968609
 31
0.0
  0
LINE
  5
B7
330
1F
100
AcDbEntity
  8
0
  6
Continuous
 62
     7
370
    15
100
AcDbLine
 10
285.6907965209
 20
72.5352464079
 30
0.0
 11
287.1907965209
 21
72.5352464079
 31
0.0
  0
LINE
  5
B8
330
1F
100
AcDbEntity
  8
0
  6
Continuous
 62
     7
370
    15
100
AcDbLine
 10
285.6907965209
 20
104.7452464079
 30
0.0
 11
287.1907965209
 21
104.7452464079
 31
0.0
  0
LINE
  5
B9
330
1F
100
AcDbEntity
  8
0
  6
Continuous
 62
     7
370
    15
100
AcDbLine
 10
285.6907965209
 20
136.9552464079
 30
0.0
 11
287.1907965209
 21
136.9552464079
 31
0.0
  0
LINE
  5
BA
330
1F
100
AcDbEntity
  8
0
  6
Continuous
 62
     7
370
    15
100
AcDbLine
 10
285.6907965209
 20
169.1652464079
 30
0.0
 11
287.1907965209
 21
169.1652464079
 31
0.0
  0
LINE
  5
BB
330
1F
100
AcDbEntity
  8
工作區域參考線
 62
     1
370
     0
100
AcDbLine
 10
192.8939975803
 20
41.0264968609
 30
0.0
 11
197.0207534387
 21
37.4373205923
 31
0.0
  0
LINE
  5
BC
330
1F
100
AcDbEntity
  8
工作區域參考線
 62
     1
370
     0
100
AcDbLine
 10
194.5843956919
 20
34.8194958859
 30
0.0
 11
195.5698445849
 21
33.960798946
 31
0.0
  0
LINE
  5
BD
330
1F
100
AcDbEntity
  8
工作區域參考線
 62
     1
370
     0
100
AcDbLine
 10
195.5698445849
 20
33.960798946
 30
0.0
 11
196.8115258997
 21
35.1652318884
 31
0.0
  0
LINE
  5
BE
330
1F
100
AcDbEntity
  8
圖層_1
370
    30
100
AcDbLine
 10
194.9823427416
 20
33.4049010187
 30
0.0
 11
191.7722027684
 21
30.2878613059
 31
0.0
  0
LINE
  5
BF
330
1F
100
AcDbEntity
  8
圖層_1
370
    30
100
AcDbLine
 10
191.7722027684
 20
30.2878613059
 30
0.0
 11
190.8314023129
 21
31.097858376
 31
0.0
  0
LINE
  5
C0
330
1F
100
AcDbEntity
  8
圖層_1
370
    30
100
AcDbLine
 10
190.8314023129
 20
31.097858376
 30
0.0
 11
191.4624542334
 21
31.7137587665
 31
0.0
  0
LINE
  5
C1
330
1F
100
AcDbEntity
  8
圖層_1
370
    30
100
AcDbLine
 10
187.4532519232
 20
35.1983626068
 30
0.0
 11
191.4624542334
 21
31.7137587665
 31
0.0
  0
LINE
  5
C2
330
1F
100
AcDbEntity
  8
圖層_1
370
    30
100
AcDbLine
 10
188.7841267601
 20
38.7760667074
 30
0.0
 11
187.4774985052
 21
37.5144796309
 31
0.0
  0
LINE
  5
C3
330
1F
100
AcDbEntity
  8
圖層_1
370
    30
100
AcDbLine
 10
188.7841267601
 20
38.7760667074
 30
0.0
 11
189.7993206075
 21
37.8805348066
 31
0.0
  0
LINE
  5
C4
330
1F
100
AcDbEntity
  8
圖層_1
370
    30
100
AcDbLine
 10
194.0175230804
 20
34.2521878023
 30
0.0
 11
194.9823427416
 21
33.4049010187
 31
0.0
  0
CIRCLE
  5
C5
330
1F
100
AcDbEntity
  8
0
  6
Continuous
 62
     7
370
     0
100
AcDbCircle
 10
168.3593775185
 20
17.7745192513
 30
0.0
 40
1.5
  0
CIRCLE
  5
C6
330
1F
100
AcDbEntity
  8
0
  6
Continuous
 62
     7
370
     0
100
AcDbCircle
 10
168.3593775185
 20
17.7745192513
 30
0.0
 40
2.5
  0
ARC
  5
C7
330
1F
100
AcDbEntity
  8
工作區域參考線
 62
     1
370
     0
100
AcDbCircle
 10
195.918133574
 20
36.3931786202
 30
0.0
 40
1.518552937418286
100
AcDbArc
 50
306.0377529468
 51
43.4396461534
  0
ARC
  5
C8
330
1F
100
AcDbEntity
  8
工作區域參考線
 62
     1
370
     0
100
AcDbCircle
 10
192.2371535581
 20
35.8675842298
 30
0.0
 40
3.181636704527879
100
AcDbArc
 50
45.5592925416
 51
125.8325555121
  0
ARC
  5
C9
330
1F
100
AcDbEntity
  8
工作區域參考線
 62
     1
370
     0
100
AcDbCircle
 10
192.5548098488
 20
36.4084060353
 30
0.0
 40
2.577567488346265
100
AcDbArc
 50
321.9435288427
 51
42.1815007004
  0
ARC
  5
CA
330
1F
100
AcDbEntity
  8
圖層_1
370
    30
100
AcDbCircle
 10
188.4681933527
 20
36.3459229825
 30
0.0
 40
1.531992467805816
100
AcDbArc
 50
130.2910647925
 51
228.509361907
  0
ARC
  5
CB
330
1F
100
AcDbEntity
  8
圖層_1
370
    30
100
AcDbCircle
 10
191.7725909108
 20
36.2331421192
 30
0.0
 40
2.570544369711281
100
AcDbArc
 50
140.1430462781
 51
253.0452525074
  0
ARC
  5
CC
330
1F
100
AcDbEntity
  8
圖層_1
370
    30
100
AcDbCircle
 10
192.1039881191
 20
36.6217838685
 30
0.0
 40
3.045751395731255
100
AcDbArc
 50
249.2112209143
 51
308.9221353953
  0
MTEXT
  5
CE
330
1F
100
AcDbEntity
  8
0
  6
Continuous
 62
     7
370
     0
100
AcDbMText
 10
165.5426850804
 20
13.2208440369
 30
0.0
 40
2.6458333333
 41
0.0
 71
     1
 72
     1
  1
UNIT:m/m
  7
SLDTEXTSTYLE1
 73
     1
 44
1.0
  0
INSERT
  5
D5
330
1F
100
AcDbEntity
  8
0
  6
Continuous
 62
     7
370
     0
100
AcDbBlockReference
  2
SW_NOTE_0
 10
12.2315076053
 20
193.8904304251
 30
0.0
  0
MTEXT
  5
D7
330
1F
100
AcDbEntity
  8
0
  6
Continuous
 62
     7
370
     0
100
AcDbMText
 10
198.7251893935
 20
40.4406774139
 30
0.0
 40
2.38125
 41
0.0
 71
     1
 72
     1
  1
Unice E-O Services Inc.
  7
SLDTEXTSTYLE2
 73
     1
 44
1.0
  0
MTEXT
  5
D8
330
1F
100
AcDbEntity
  8
0
  6
Continuous
 62
     7
370
     0
100
AcDbMText
 10
252.6088982507
 20
16.87117774
 30
0.0
 40
2.5
 41
0.0
 71
     1
 72
     1
  1
1:1
  7
SLDTEXTSTYLE1
 73
     1
 44
1.0
  0
MTEXT
  5
D9
330
1F
100
AcDbEntity
  8
0
  6
Continuous
 62
     7
370
     0
100
AcDbMText
 10
252.3075599985
 20
32.1519195438
 30
0.0
 40
2.5
 41
0.0
 71
     1
 72
     1
  1
04VMT-0.5-H
  7
SLDTEXTSTYLE1
 73
     1
 44
1.0
  0
MTEXT
  5
DA
330
1F
100
AcDbEntity
  8
0
  6
Continuous
 62
     7
370
     0
100
AcDbMText
 10
252.3075599985
 20
38.1082117879
 30
0.0
 40
2.5
 41
0.0
 71
     1
 72
     1
  1
04VMT-0.5-H
  7
SLDTEXTSTYLE1
 73
     1
 44
1.0
  0
MTEXT
  5
DB
330
1F
100
AcDbEntity
  8
0
  6
Continuous
 62
     7
370
     0
100
AcDbMText
 10
236.3921866786
 20
16.5064795728
 30
0.0
 40
2.1166666667
 41
0.0
 71
     1
 72
     1
  1
SCALE:
  7
SLDTEXTSTYLE1
 73
     1
 44
1.0
  0
MTEXT
  5
DC
330
1F
100
AcDbEntity
  8
0
  6
Continuous
 62
     7
370
     0
100
AcDbMText
 10
186.3336086789
 20
21.5867148511
 30
0.0
 40
1.8520833333
 41
0.0
 71
     1
 72
     1
  1
DRAWN
  7
SLDTEXTSTYLE1
 73
     1
 44
1.0
  0
MTEXT
  5
DD
330
1F
100
AcDbEntity
  8
0
  6
Continuous
 62
     7
370
     0
100
AcDbMText
 10
203.2228367937
 20
26.683208308
 30
0.0
 40
1.8520833333
 41
0.0
 71
     1
 72
     1
  1
NAME
  7
SLDTEXTSTYLE1
 73
     1
 44
1.0
  0
MTEXT
  5
DE
330
1F
100
AcDbEntity
  8
0
  6
Continuous
 62
     7
370
     0
100
AcDbMText
 10
220.8710155758
 20
26.683208308
 30
0.0
 40
1.8520833333
 41
0.0
 71
     1
 72
     1
  1
DATE
  7
SLDTEXTSTYLE1
 73
     1
 44
1.0
  0
MTEXT
  5
DF
330
1F
100
AcDbEntity
  8
0
  6
Continuous
 62
     7
370
     0
100
AcDbMText
 10
236.2756316645
 20
31.7872213766
 30
0.0
 40
2.1166666667
 41
0.0
 71
     1
 72
     1
  1
DWG. NO.
  7
SLDTEXTSTYLE1
 73
     1
 44
1.0
  0
MTEXT
  5
E0
330
1F
100
AcDbEntity
  8
0
  6
Continuous
 62
     7
370
     0
100
AcDbMText
 10
236.3629907088
 20
41.8840658243
 30
0.0
 40
2.1166666667
 41
0.0
 71
     1
 72
     1
  1
TITLE:
  7
SLDTEXTSTYLE1
 73
     1
 44
1.0
  0
MTEXT
  5
E1
330
1F
100
AcDbEntity
  8
0
  6
Continuous
 62
     7
370
     0
100
AcDbMText
 10
203.0314209802
 20
16.2403789724
 30
0.0
 40
1.8520833333
 41
0.0
 71
     1
 72
     1
  1
Johnny
  7
SLDTEXTSTYLE1
 73
     1
 44
1.0
  0
MTEXT
  5
E2
330
1F
100
AcDbEntity
  8
0
  6
Continuous
 62
     7
370
     0
100
AcDbMText
 10
217.5590538149
 20
16.2403789724
 30
0.0
 40
1.8520833333
 41
0.0
 71
     1
 72
     1
  1
2016/4/18
  7
SLDTEXTSTYLE1
 73
     1
 44
1.0
  0
MTEXT
  5
E3
330
1F
100
AcDbEntity
  8
0
  6
Continuous
 62
     7
370
     0
100
AcDbMText
 10
186.3336086789
 20
16.2403789724
 30
0.0
 40
1.8520833333
 41
0.0
 71
     1
 72
     1
  1
ENG APPR.
  7
SLDTEXTSTYLE1
 73
     1
 44
1.0
  0
MTEXT
  5
E4
330
1F
100
AcDbEntity
  8
0
  6
Continuous
 62
     7
370
     0
100
AcDbMText
 10
236.3921866786
 20
11.6853389288
 30
0.0
 40
2.1166666667
 41
0.0
 71
     1
 72
     1
  1
REV
  7
SLDTEXTSTYLE1
 73
     1
 44
1.0
  0
MTEXT
  5
E5
330
1F
100
AcDbEntity
  8
0
  6
Continuous
 62
     7
370
     0
100
AcDbMText
 10
236.3629907088
 20
26.9493089085
 30
0.0
 40
2.1166666667
 41
0.0
 71
     1
 72
     1
  1
MATERIAL:
  7
SLDTEXTSTYLE1
 73
     1
 44
1.0
  0
MTEXT
  5
E6
330
1F
100
AcDbEntity
  8
0
  6
Continuous
 62
     7
370
     0
100
AcDbMText
 10
252.6088982507
 20
22.2175136187
 30
0.0
 40
2.5
 41
0.0
 71
     1
 72
     1
  1
N/A
  7
SLDTEXTSTYLE1
 73
     1
 44
1.0
  0
MTEXT
  5
E7
330
1F
100
AcDbEntity
  8
0
  6
Continuous
 62
     7
370
     0
100
AcDbMText
 10
26.6029931533
 20
204.453351657
 30
0.0
 40
2.1166666667
 41
0.0
 71
     1
 72
     1
  1
1
  7
SLDTEXTSTYLE1
 73
     1
 44
1.0
  0
MTEXT
  5
E8
330
1F
100
AcDbEntity
  8
0
  6
Continuous
 62
     7
370
     0
100
AcDbMText
 10
60.7170995724
 20
204.453351657
 30
0.0
 40
2.1166666667
 41
0.0
 71
     1
 72
     1
  1
2
  7
SLDTEXTSTYLE1
 73
     1
 44
1.0
  0
MTEXT
  5
E9
330
1F
100
AcDbEntity
  8
0
  6
Continuous
 62
     7
370
     0
100
AcDbMText
 10
94.9009943906
 20
204.453351657
 30
0.0
 40
2.1166666667
 41
0.0
 71
     1
 72
     1
  1
3
  7
SLDTEXTSTYLE1
 73
     1
 44
1.0
  0
MTEXT
  5
EA
330
1F
100
AcDbEntity
  8
0
  6
Continuous
 62
     7
370
     0
100
AcDbMText
 10
129.2533362851
 20
204.2992584364
 30
0.0
 40
2.1166666667
 41
0.0
 71
     1
 72
     1
  1
4
  7
SLDTEXTSTYLE1
 73
     1
 44
1.0
  0
MTEXT
  5
EB
330
1F
100
AcDbEntity
  8
0
  6
Continuous
 62
     7
370
     0
100
AcDbMText
 10
163.702323464
 20
204.453351657
 30
0.0
 40
2.1166666667
 41
0.0
 71
     1
 72
     1
  1
5
  7
SLDTEXTSTYLE1
 73
     1
 44
1.0
  0
MTEXT
  5
EC
330
1F
100
AcDbEntity
  8
0
  6
Continuous
 62
     7
370
     0
100
AcDbMText
 10
198.6382170415
 20
204.453351657
 30
0.0
 40
2.1166666667
 41
0.0
 71
     1
 72
     1
  1
6
  7
SLDTEXTSTYLE1
 73
     1
 44
1.0
  0
MTEXT
  5
ED
330
1F
100
AcDbEntity
  8
0
  6
Continuous
 62
     7
370
     0
100
AcDbMText
 10
234.3630657407
 20
204.453351657
 30
0.0
 40
2.1166666667
 41
0.0
 71
     1
 72
     1
  1
7
  7
SLDTEXTSTYLE1
 73
     1
 44
1.0
  0
MTEXT
  5
EE
330
1F
100
AcDbEntity
  8
0
  6
Continuous
 62
     7
370
     0
100
AcDbMText
 10
266.2787820494
 20
204.453351657
 30
0.0
 40
2.1166666667
 41
0.0
 71
     1
 72
     1
  1
8
  7
SLDTEXTSTYLE1
 73
     1
 44
1.0
  0
MTEXT
  5
EF
330
1F
100
AcDbEntity
  8
0
  6
Continuous
 62
     7
370
     0
100
AcDbMText
 10
5.3568236555
 20
185.8113022879
 30
0.0
 40
2.1166666667
 41
0.0
 71
     1
 72
     1
  1
A
  7
SLDTEXTSTYLE1
 73
     1
 44
1.0
  0
MTEXT
  5
F0
330
1F
100
AcDbEntity
  8
0
  6
Continuous
 62
     7
370
     0
100
AcDbMText
 10
5.5910431831
 20
154.2993048238
 30
0.0
 40
2.1166666667
 41
0.0
 71
     1
 72
     1
  1
B
  7
SLDTEXTSTYLE1
 73
     1
 44
1.0
  0
MTEXT
  5
F1
330
1F
100
AcDbEntity
  8
0
  6
Continuous
 62
     7
370
     0
100
AcDbMText
 10
5.5910431831
 20
121.274351423
 30
0.0
 40
2.1166666667
 41
0.0
 71
     1
 72
     1
  1
C
  7
SLDTEXTSTYLE1
 73
     1
 44
1.0
  0
MTEXT
  5
F2
330
1F
100
AcDbEntity
  8
0
  6
Continuous
 62
     7
370
     0
100
AcDbMText
 10
5.5910431831
 20
88.7453220221
 30
0.0
 40
2.1166666667
 41
0.0
 71
     1
 72
     1
  1
D
  7
SLDTEXTSTYLE1
 73
     1
 44
1.0
  0
MTEXT
  5
F3
330
1F
100
AcDbEntity
  8
0
  6
Continuous
 62
     7
370
     0
100
AcDbMText
 10
5.5910431831
 20
57.5558849197
 30
0.0
 40
2.1166666667
 41
0.0
 71
     1
 72
     1
  1
E
  7
SLDTEXTSTYLE1
 73
     1
 44
1.0
  0
MTEXT
  5
F4
330
1F
100
AcDbEntity
  8
0
  6
Continuous
 62
     7
370
     0
100
AcDbMText
 10
5.5910431831
 20
25.5694212252
 30
0.0
 40
2.1166666667
 41
0.0
 71
     1
 72
     1
  1
F
  7
SLDTEXTSTYLE1
 73
     1
 44
1.0
  0
MTEXT
  5
F5
330
1F
100
AcDbEntity
  8
0
  6
Continuous
 62
     7
370
     0
100
AcDbMText
 10
266.1858616964
 20
6.6236223963
 30
0.0
 40
2.1166666667
 41
0.0
 71
     1
 72
     1
  1
8
  7
SLDTEXTSTYLE1
 73
     1
 44
1.0
  0
MTEXT
  5
F6
330
1F
100
AcDbEntity
  8
0
  6
Continuous
 62
     7
370
     0
100
AcDbMText
 10
234.2701453876
 20
6.6236223963
 30
0.0
 40
2.1166666667
 41
0.0
 71
     1
 72
     1
  1
7
  7
SLDTEXTSTYLE1
 73
     1
 44
1.0
  0
MTEXT
  5
F7
330
1F
100
AcDbEntity
  8
0
  6
Continuous
 62
     7
370
     0
100
AcDbMText
 10
198.5452966885
 20
6.6236223963
 30
0.0
 40
2.1166666667
 41
0.0
 71
     1
 72
     1
  1
6
  7
SLDTEXTSTYLE1
 73
     1
 44
1.0
  0
MTEXT
  5
F8
330
1F
100
AcDbEntity
  8
0
  6
Continuous
 62
     7
370
     0
100
AcDbMText
 10
163.6094031109
 20
6.6236223963
 30
0.0
 40
2.1166666667
 41
0.0
 71
     1
 72
     1
  1
5
  7
SLDTEXTSTYLE1
 73
     1
 44
1.0
  0
MTEXT
  5
F9
330
1F
100
AcDbEntity
  8
0
  6
Continuous
 62
     7
370
     0
100
AcDbMText
 10
129.1604159321
 20
6.4695291758
 30
0.0
 40
2.1166666667
 41
0.0
 71
     1
 72
     1
  1
4
  7
SLDTEXTSTYLE1
 73
     1
 44
1.0
  0
MTEXT
  5
FA
330
1F
100
AcDbEntity
  8
0
  6
Continuous
 62
     7
370
     0
100
AcDbMText
 10
94.8080740376
 20
6.6236223963
 30
0.0
 40
2.1166666667
 41
0.0
 71
     1
 72
     1
  1
3
  7
SLDTEXTSTYLE1
 73
     1
 44
1.0
  0
MTEXT
  5
FB
330
1F
100
AcDbEntity
  8
0
  6
Continuous
 62
     7
370
     0
100
AcDbMText
 10
60.6241792194
 20
6.6236223963
 30
0.0
 40
2.1166666667
 41
0.0
 71
     1
 72
     1
  1
2
  7
SLDTEXTSTYLE1
 73
     1
 44
1.0
  0
MTEXT
  5
FC
330
1F
100
AcDbEntity
  8
0
  6
Continuous
 62
     7
370
     0
100
AcDbMText
 10
26.5100728003
 20
6.6236223963
 30
0.0
 40
2.1166666667
 41
0.0
 71
     1
 72
     1
  1
1
  7
SLDTEXTSTYLE1
 73
     1
 44
1.0
  0
MTEXT
  5
FD
330
1F
100
AcDbEntity
  8
0
  6
Continuous
 62
     7
370
     0
100
AcDbMText
 10
287.1023846145
 20
186.6424909092
 30
0.0
 40
2.1166666667
 41
0.0
 71
     1
 72
     1
  1
A
  7
SLDTEXTSTYLE1
 73
     1
 44
1.0
  0
MTEXT
  5
FE
330
1F
100
AcDbEntity
  8
0
  6
Continuous
 62
     7
370
     0
100
AcDbMText
 10
287.3366041421
 20
155.1304934451
 30
0.0
 40
2.1166666667
 41
0.0
 71
     1
 72
     1
  1
B
  7
SLDTEXTSTYLE1
 73
     1
 44
1.0
  0
MTEXT
  5
FF
330
1F
100
AcDbEntity
  8
0
  6
Continuous
 62
     7
370
     0
100
AcDbMText
 10
287.3366041421
 20
122.1055400442
 30
0.0
 40
2.1166666667
 41
0.0
 71
     1
 72
     1
  1
C
  7
SLDTEXTSTYLE1
 73
     1
 44
1.0
  0
MTEXT
  5
100
330
1F
100
AcDbEntity
  8
0
  6
Continuous
 62
     7
370
     0
100
AcDbMText
 10
287.3366041421
 20
89.5765106433
 30
0.0
 40
2.1166666667
 41
0.0
 71
     1
 72
     1
  1
D
  7
SLDTEXTSTYLE1
 73
     1
 44
1.0
  0
MTEXT
  5
101
330
1F
100
AcDbEntity
  8
0
  6
Continuous
 62
     7
370
     0
100
AcDbMText
 10
287.3366041421
 20
58.3870735409
 30
0.0
 40
2.1166666667
 41
0.0
 71
     1
 72
     1
  1
E
  7
SLDTEXTSTYLE1
 73
     1
 44
1.0
  0
MTEXT
  5
102
330
1F
100
AcDbEntity
  8
0
  6
Continuous
 62
     7
370
     0
100
AcDbMText
 10
287.3366041421
 20
26.4006098464
 30
0.0
 40
2.1166666667
 41
0.0
 71
     1
 72
     1
  1
F
  7
SLDTEXTSTYLE1
 73
     1
 44
1.0
  0
MTEXT
  5
103
330
1F
100
AcDbEntity
  8
0
  6
Continuous
 62
     7
370
     0
100
AcDbMText
 10
203.1553128802
 20
21.5867148511
 30
0.0
 40
1.8520833333
 41
0.0
 71
     1
 72
     1
  1
Yuhan
  7
SLDTEXTSTYLE1
 73
     1
 44
1.0
  0
MTEXT
  5
105
330
1F
100
AcDbEntity
  8
0
  6
Continuous
 62
     7
370
     0
100
AcDbMText
 10
252.8482239645
 20
12.210248456
 30
0.0
 40
2.6458333333
 41
0.0
 71
     1
 72
     1
  1
0
  7
SLDTEXTSTYLE3
 73
     1
 44
1.0
  0
MTEXT
  5
106
330
1F
100
AcDbEntity
  8
DIM
 62
     7
100
AcDbMText
 10
217.5590538149
 20
21.5867148511
 30
0.0
 40
1.8520833333
 41
0.0
 71
     1
 72
     1
  1
2016/4/18
  7
SLDTEXTSTYLE1
 73
     1
 44
1.0
  0
INSERT
  5
10C
330
1F
100
AcDbEntity
  8
DIM
 62
     7
100
AcDbBlockReference
  2
SW_NOTE_1
 10
198.7251893935
 20
33.0722881696
 30
0.0
  0
LINE
  5
10D
330
1F
100
AcDbEntity
  8
0
  6
Continuous
 62
     7
370
    15
100
AcDbLine
 10
134.4959644158
 20
141.5737524164
 30
0.0
 11
134.4959644158
 21
147.7053350925
 31
0.0
  0
LINE
  5
10E
330
1F
100
AcDbEntity
  8
0
  6
Continuous
 62
     7
370
    15
100
AcDbLine
 10
128.4959644158
 20
147.7053350925
 30
0.0
 11
128.4959644158
 21
141.5737524164
 31
0.0
  0
LINE
  5
10F
330
1F
100
AcDbEntity
  8
0
  6
Continuous
 62
     7
370
    15
100
AcDbLine
 10
160.4959644158
 20
141.5737524164
 30
0.0
 11
160.4959644158
 21
147.7053350925
 31
0.0
  0
LINE
  5
110
330
1F
100
AcDbEntity
  8
0
  6
Continuous
 62
     7
370
    15
100
AcDbLine
 10
154.4959644158
 20
147.7053350925
 30
0.0
 11
154.4959644158
 21
141.5737524164
 31
0.0
  0
LINE
  5
111
330
1F
100
AcDbEntity
  8
0
  6
Continuous
 62
     7
370
    15
100
AcDbLine
 10
134.4094251099
 20
147.7053350925
 30
0.0
 11
128.4959644158
 21
147.7053350925
 31
0.0
  0
LINE
  5
112
330
1F
100
AcDbEntity
  8
0
  6
Continuous
 62
     7
370
    15
100
AcDbLine
 10
134.4959644158
 20
147.7053350925
 30
0.0
 11
134.4094251099
 21
147.7053350925
 31
0.0
  0
LINE
  5
113
330
1F
100
AcDbEntity
  8
0
  6
Continuous
 62
     7
370
    15
100
AcDbLine
 10
157.601615872
 20
147.7053350925
 30
0.0
 11
154.4959644158
 21
147.7053350925
 31
0.0
  0
LINE
  5
114
330
1F
100
AcDbEntity
  8
0
  6
Continuous
 62
     7
370
    15
100
AcDbLine
 10
160.4959644158
 20
147.7053350925
 30
0.0
 11
157.601615872
 21
147.7053350925
 31
0.0
  0
LINE
  5
115
330
1F
100
AcDbEntity
  8
0
  6
Continuous
 62
     7
370
    15
100
AcDbLine
 10
129.4959644158
 20
87.5737524164
 30
0.0
 11
159.4959644158
 21
87.5737524164
 31
0.0
  0
ARC
  5
116
330
1F
100
AcDbEntity
  8
0
  6
Continuous
 62
     7
370
    15
100
AcDbCircle
 10
144.4959644158
 20
98.5737524164
 30
0.0
 40
3.999999999999995
100
AcDbArc
 50
191.5369590328
 51
348.4630409672
  0
LINE
  5
117
330
1F
100
AcDbEntity
  8
0
  6
Continuous
 62
     7
370
    15
100
AcDbLine
 10
160.4959644158
 20
88.5737524164
 30
0.0
 11
160.4959644158
 21
118.5737524164
 31
0.0
  0
LINE
  5
118
330
1F
100
AcDbEntity
  8
0
  6
Continuous
 62
     7
370
    15
100
AcDbLine
 10
128.4959644158
 20
118.5737524164
 30
0.0
 11
128.4959644158
 21
88.5737524164
 31
0.0
  0
ARC
  5
119
330
1F
100
AcDbEntity
  8
0
  6
Continuous
 62
     7
370
    15
100
AcDbCircle
 10
159.4959644158
 20
88.5737524164
 30
0.0
 40
1.0
100
AcDbArc
 50
270.0
 51
0.0
  0
ARC
  5
11A
330
1F
100
AcDbEntity
  8
0
  6
Continuous
 62
     7
370
    15
100
AcDbCircle
 10
144.4959644158
 20
103.5737524164
 30
0.0
 40
6.999999999999995
100
AcDbArc
 50
304.04773237
 51
235.95226763
  0
ARC
  5
11B
330
1F
100
AcDbEntity
  8
0
  6
Continuous
 62
     7
370
    15
100
AcDbCircle
 10
129.4959644158
 20
118.5737524164
 30
0.0
 40
1.0
100
AcDbArc
 50
90.0
 51
180.0
  0
ARC
  5
11C
330
1F
100
AcDbEntity
  8
0
  6
Continuous
 62
     7
370
    15
100
AcDbCircle
 10
159.4959644158
 20
118.5737524164
 30
0.0
 40
1.0
100
AcDbArc
 50
0.0
 51
90.0
  0
LINE
  5
11D
330
1F
100
AcDbEntity
  8
0
  6
Continuous
 62
     7
370
    15
100
AcDbLine
 10
159.4959644158
 20
119.5737524164
 30
0.0
 11
129.4959644158
 21
119.5737524164
 31
0.0
  0
ARC
  5
11E
330
1F
100
AcDbEntity
  8
0
  6
Continuous
 62
     7
370
    15
100
AcDbCircle
 10
129.4959644158
 20
88.5737524164
 30
0.0
 40
1.0
100
AcDbArc
 50
180.0
 51
270.0
  0
CIRCLE
  5
11F
330
1F
100
AcDbEntity
  8
0
  6
Continuous
 62
     7
370
    15
100
AcDbCircle
 10
144.4959644158
 20
103.5737524164
 30
0.0
 40
5.499999999999972
  0
LINE
  5
120
330
1F
100
AcDbEntity
  8
0
  6
Continuous
 62
     7
370
    15
100
AcDbLine
 10
164.4959644158
 20
141.5737524164
 30
0.0
 11
159.5956332863
 21
141.5737524164
 31
0.0
  0
LINE
  5
121
330
1F
100
AcDbEntity
  8
0
  6
Continuous
 62
     7
370
    15
100
AcDbLine
 10
164.4959644158
 20
84.5737524164
 30
0.0
 11
164.4959644158
 21
141.5737524164
 31
0.0
  0
LINE
  5
122
330
1F
100
AcDbEntity
  8
0
  6
Continuous
 62
     7
370
    15
100
AcDbLine
 10
129.3962955453
 20
141.5737524164
 30
0.0
 11
124.4959644158
 21
141.5737524164
 31
0.0
  0
LINE
  5
123
330
1F
100
AcDbEntity
  8
0
  6
Continuous
 62
     7
370
    15
100
AcDbLine
 10
129.3962955453
 20
141.5737524164
 30
0.0
 11
129.3962955453
 21
121.5737524164
 31
0.0
  0
ARC
  5
124
330
1F
100
AcDbEntity
  8
0
  6
Continuous
 62
     7
370
    15
100
AcDbCircle
 10
129.4959644158
 20
118.5737524164
 30
0.0
 40
3.000000000000014
100
AcDbArc
 50
90.0
 51
180.0
  0
LINE
  5
125
330
1F
100
AcDbEntity
  8
0
  6
Continuous
 62
     7
370
    15
100
AcDbLine
 10
129.4959644158
 20
85.5737524164
 30
0.0
 11
159.4959644158
 21
85.5737524164
 31
0.0
  0
ARC
  5
126
330
1F
100
AcDbEntity
  8
0
  6
Continuous
 62
     7
370
    15
100
AcDbCircle
 10
159.4959644158
 20
118.5737524164
 30
0.0
 40
3.0
100
AcDbArc
 50
0.0
 51
90.0
  0
LINE
  5
127
330
1F
100
AcDbEntity
  8
0
  6
Continuous
 62
     7
370
    15
100
AcDbLine
 10
159.5956332863
 20
121.5737524164
 30
0.0
 11
159.4959644158
 21
121.5737524164
 31
0.0
  0
LINE
  5
128
330
1F
100
AcDbEntity
  8
0
  6
Continuous
 62
     7
370
    15
100
AcDbLine
 10
159.5956332863
 20
121.5737524164
 30
0.0
 11
159.5956332863
 21
141.5737524164
 31
0.0
  0
LINE
  5
129
330
1F
100
AcDbEntity
  8
0
  6
Continuous
 62
     7
370
    15
100
AcDbLine
 10
124.4959644158
 20
141.5737524164
 30
0.0
 11
124.4959644158
 21
84.5737524164
 31
0.0
  0
ARC
  5
12A
330
1F
100
AcDbEntity
  8
0
  6
Continuous
 62
     7
370
    15
100
AcDbCircle
 10
159.4959644158
 20
88.5737524164
 30
0.0
 40
3.0
100
AcDbArc
 50
270.0
 51
0.0
  0
LINE
  5
12B
330
1F
100
AcDbEntity
  8
0
  6
Continuous
 62
     7
370
    15
100
AcDbLine
 10
162.4959644158
 20
88.5737524164
 30
0.0
 11
162.4959644158
 21
118.5737524164
 31
0.0
  0
LINE
  5
12C
330
1F
100
AcDbEntity
  8
0
  6
Continuous
 62
     7
370
    15
100
AcDbLine
 10
126.4959644158
 20
118.5737524164
 30
0.0
 11
126.4959644158
 21
88.5737524164
 31
0.0
  0
ARC
  5
12D
330
1F
100
AcDbEntity
  8
0
  6
Continuous
 62
     7
370
    15
100
AcDbCircle
 10
129.4959644158
 20
88.5737524164
 30
0.0
 40
3.000000000000014
100
AcDbArc
 50
180.0
 51
270.0
  0
LINE
  5
12E
330
1F
100
AcDbEntity
  8
0
  6
Continuous
 62
     7
370
    15
100
AcDbLine
 10
129.4959644158
 20
121.5737524164
 30
0.0
 11
129.3962955453
 21
121.5737524164
 31
0.0
  0
LINE
  5
12F
330
1F
100
AcDbEntity
  8
0
  6
Continuous
 62
     7
370
    15
100
AcDbLine
 10
159.4959644158
 20
121.5737524164
 30
0.0
 11
129.4959644158
 21
121.5737524164
 31
0.0
  0
LINE
  5
130
330
1F
100
AcDbEntity
  8
0
  6
Continuous
 62
     7
370
    15
100
AcDbLine
 10
159.5956332863
 20
141.5737524164
 30
0.0
 11
129.3962955453
 21
141.5737524164
 31
0.0
  0
LINE
  5
131
330
1F
100
AcDbEntity
  8
0
  6
Continuous
 62
     7
370
    15
100
AcDbLine
 10
149.9959644158
 20
80.5737524164
 30
0.0
 11
149.9959644158
 21
84.5737524164
 31
0.0
  0
LINE
  5
132
330
1F
100
AcDbEntity
  8
0
  6
Continuous
 62
     7
370
    15
100
AcDbLine
 10
149.9959644158
 20
84.5737524164
 30
0.0
 11
159.4959644158
 21
84.5737524164
 31
0.0
  0
LINE
  5
133
330
1F
100
AcDbEntity
  8
0
  6
Continuous
 62
     7
370
    15
100
AcDbLine
 10
159.4959644158
 20
78.5737524164
 30
0.0
 11
159.4959644158
 21
84.5737524164
 31
0.0
  0
LINE
  5
134
330
1F
100
AcDbEntity
  8
0
  6
Continuous
 62
     7
370
    15
100
AcDbLine
 10
147.9959644158
 20
80.5737524164
 30
0.0
 11
149.9959644158
 21
80.5737524164
 31
0.0
  0
LINE
  5
135
330
1F
100
AcDbEntity
  8
0
  6
Continuous
 62
     7
370
    15
100
AcDbLine
 10
147.9959644158
 20
78.5737524164
 30
0.0
 11
147.9959644158
 21
80.5737524164
 31
0.0
  0
LINE
  5
136
330
1F
100
AcDbEntity
  8
0
  6
Continuous
 62
     7
370
    15
100
AcDbLine
 10
147.9959644158
 20
78.5737524164
 30
0.0
 11
159.4959644158
 21
78.5737524164
 31
0.0
  0
LINE
  5
137
330
1F
100
AcDbEntity
  8
0
  6
Continuous
 62
     7
370
    15
100
AcDbLine
 10
140.9959644158
 20
78.5737524164
 30
0.0
 11
140.9959644158
 21
80.5737524164
 31
0.0
  0
LINE
  5
138
330
1F
100
AcDbEntity
  8
0
  6
Continuous
 62
     7
370
    15
100
AcDbLine
 10
129.4959644158
 20
84.5737524164
 30
0.0
 11
129.4959644158
 21
78.5737524164
 31
0.0
  0
LINE
  5
139
330
1F
100
AcDbEntity
  8
0
  6
Continuous
 62
     7
370
    15
100
AcDbLine
 10
129.4959644158
 20
84.5737524164
 30
0.0
 11
138.9959644158
 21
84.5737524164
 31
0.0
  0
LINE
  5
13A
330
1F
100
AcDbEntity
  8
0
  6
Continuous
 62
     7
370
    15
100
AcDbLine
 10
138.9959644158
 20
80.5737524164
 30
0.0
 11
140.9959644158
 21
80.5737524164
 31
0.0
  0
LINE
  5
13B
330
1F
100
AcDbEntity
  8
0
  6
Continuous
 62
     7
370
    15
100
AcDbLine
 10
138.9959644158
 20
80.5737524164
 30
0.0
 11
138.9959644158
 21
84.5737524164
 31
0.0
  0
LINE
  5
13C
330
1F
100
AcDbEntity
  8
0
  6
Continuous
 62
     7
370
    15
100
AcDbLine
 10
129.4959644158
 20
78.5737524164
 30
0.0
 11
140.9959644158
 21
78.5737524164
 31
0.0
  0
LINE
  5
13D
330
1F
100
AcDbEntity
  8
0
  6
Continuous
 62
     7
370
    15
100
AcDbLine
 10
164.4959644158
 20
84.5737524164
 30
0.0
 11
164.4959644158
 21
78.5737524164
 31
0.0
  0
LINE
  5
13E
330
1F
100
AcDbEntity
  8
0
  6
Continuous
 62
     7
370
    15
100
AcDbLine
 10
159.4959644158
 20
84.5737524164
 30
0.0
 11
164.4959644158
 21
84.5737524164
 31
0.0
  0
LINE
  5
13F
330
1F
100
AcDbEntity
  8
0
  6
Continuous
 62
     7
370
    15
100
AcDbLine
 10
164.4959644158
 20
78.5737524164
 30
0.0
 11
159.4959644158
 21
78.5737524164
 31
0.0
  0
LINE
  5
140
330
1F
100
AcDbEntity
  8
0
  6
Continuous
 62
     7
370
    15
100
AcDbLine
 10
124.4959644158
 20
78.5737524164
 30
0.0
 11
124.4959644158
 21
84.5737524164
 31
0.0
  0
LINE
  5
141
330
1F
100
AcDbEntity
  8
0
  6
Continuous
 62
     7
370
    15
100
AcDbLine
 10
124.4959644158
 20
84.5737524164
 30
0.0
 11
129.4959644158
 21
84.5737524164
 31
0.0
  0
LINE
  5
142
330
1F
100
AcDbEntity
  8
0
  6
Continuous
 62
     7
370
    15
100
AcDbLine
 10
129.4959644158
 20
78.5737524164
 30
0.0
 11
124.4959644158
 21
78.5737524164
 31
0.0
  0
LINE
  5
143
330
1F
100
AcDbEntity
  8
0
  6
Continuous
 62
     7
370
    15
100
AcDbLine
 10
140.9959644158
 20
80.5737524164
 30
0.0
 11
147.9959644158
 21
80.5737524164
 31
0.0
  0
LINE
  5
144
330
1F
100
AcDbEntity
  8
0
  6
Continuous
 62
     7
370
    15
100
AcDbLine
 10
147.9959644158
 20
78.5737524164
 30
0.0
 11
140.9959644158
 21
78.5737524164
 31
0.0
  0
LINE
  5
145
330
1F
100
AcDbEntity
  8
0
  6
Continuous
 62
     7
370
    15
100
AcDbLine
 10
149.9959644158
 20
84.5737524164
 30
0.0
 11
138.9959644158
 21
84.5737524164
 31
0.0
  0
LINE
  5
146
330
1F
100
AcDbEntity
  8
DIM
  6
CENTERX2
 62
     7
100
AcDbLine
 10
127.7959644158
 20
84.5737524164
 30
0.0
 11
127.7959644158
 21
80.5737524164
 31
0.0
  0
LINE
  5
147
330
1F
100
AcDbEntity
  8
DIM
  6
CENTERX2
 62
     7
100
AcDbLine
 10
135.7959644158
 20
80.5737524164
 30
0.0
 11
127.7959644158
 21
80.5737524164
 31
0.0
  0
LINE
  5
148
330
1F
100
AcDbEntity
  8
DIM
  6
CENTERX2
 62
     7
100
AcDbLine
 10
135.7959644158
 20
80.5737524164
 30
0.0
 11
135.7959644158
 21
84.5737524164
 31
0.0
  0
LINE
  5
149
330
1F
100
AcDbEntity
  8
DIM
  6
CENTERX2
 62
     7
100
AcDbLine
 10
129.5459644158
 20
80.5737524164
 30
0.0
 11
129.5459644158
 21
78.5737524164
 31
0.0
  0
LINE
  5
14A
330
1F
100
AcDbEntity
  8
DIM
  6
CENTERX2
 62
     7
100
AcDbLine
 10
134.0459644158
 20
78.5737524164
 30
0.0
 11
134.0459644158
 21
80.5737524164
 31
0.0
  0
LINE
  5
14B
330
1F
100
AcDbEntity
  8
DIM
  6
CENTERX2
 62
     7
100
AcDbLine
 10
153.1959644158
 20
84.5737524164
 30
0.0
 11
153.1959644158
 21
80.5737524164
 31
0.0
  0
LINE
  5
14C
330
1F
100
AcDbEntity
  8
DIM
  6
CENTERX2
 62
     7
100
AcDbLine
 10
154.9459644158
 20
80.5737524164
 30
0.0
 11
154.9459644158
 21
78.5737524164
 31
0.0
  0
LINE
  5
14D
330
1F
100
AcDbEntity
  8
DIM
  6
CENTERX2
 62
     7
100
AcDbLine
 10
161.1959644158
 20
80.5737524164
 30
0.0
 11
153.1959644158
 21
80.5737524164
 31
0.0
  0
LINE
  5
14E
330
1F
100
AcDbEntity
  8
DIM
  6
CENTERX2
 62
     7
100
AcDbLine
 10
159.4459644158
 20
78.5737524164
 30
0.0
 11
159.4459644158
 21
80.5737524164
 31
0.0
  0
LINE
  5
14F
330
1F
100
AcDbEntity
  8
DIM
  6
CENTERX2
 62
     7
100
AcDbLine
 10
161.1959644158
 20
80.5737524164
 30
0.0
 11
161.1959644158
 21
84.5737524164
 31
0.0
  0
DIMENSION
  5
150
330
1F
100
AcDbEntity
  8
DIM
 62
     7
100
AcDbDimension
  2
_D
 10
157.1959644158
 20
69.1340771706
 30
0.0
 11
144.4959644158
 21
69.1340771706
 31
0.0
 70
   160
  1
<>\P(1")
 71
     2
 42
-1.0
  3
SLDDIMSTYLE0
100
AcDbAlignedDimension
 13
131.7959644158
 23
78.5737524164
 33
0.0
 14
157.1959644158
 24
78.5737524164
 34
0.0
100
AcDbRotatedDimension
  0
DIMENSION
  5
15C
330
1F
100
AcDbEntity
  8
DIM
 62
     7
100
AcDbDimension
  2
_D_1
 10
164.4959644158
 20
63.6481108858
 30
0.0
 11
144.4959644158
 21
63.6481108858
 31
0.0
 70
   160
  1
<>
 71
     2
 42
-1.0
  3
SLDDIMSTYLE0
100
AcDbAlignedDimension
 13
124.4959644158
 23
78.5737524164
 33
0.0
 14
164.4959644158
 24
78.5737524164
 34
0.0
100
AcDbRotatedDimension
  0
DIMENSION
  5
166
330
1F
100
AcDbEntity
  8
DIM
 62
     7
100
AcDbDimension
  2
_D_2
 10
172.2636254466
 20
78.5737524164
 30
0.0
 11
172.2636254466
 21
91.0737524164
 31
0.0
 70
   160
  1
<>
 71
     2
 42
-1.0
  3
SLDDIMSTYLE0
100
AcDbAlignedDimension
 13
144.4959644158
 23
103.5737524164
 33
0.0
 14
164.4959644158
 24
78.5737524164
 34
0.0
 50
90.0
100
AcDbRotatedDimension
  0
DIMENSION
  5
170
330
1F
100
AcDbEntity
  8
DIM
 62
     7
100
AcDbDimension
  2
_D_3
 10
179.3178149216
 20
78.5737524164
 30
0.0
 11
179.3178149216
 21
110.0737524164
 31
0.0
 70
   160
  1
<>
 71
     2
 42
-1.0
  3
SLDDIMSTYLE0
100
AcDbAlignedDimension
 13
164.4959644158
 23
141.5737524164
 33
0.0
 14
164.4959644158
 24
78.5737524164
 34
0.0
 50
90.0
100
AcDbRotatedDimension
  0
DIMENSION
  5
17A
330
1F
100
AcDbEntity
  8
DIM
 62
     7
100
AcDbDimension
  2
_D_4
 10
188.3178149216
 20
147.7053350925
 30
0.0
 11
188.3178149216
 21
113.1395437544
 31
0.0
 70
   160
  1
<>\PNOMINAL
 71
     2
 42
-1.0
  3
SLDDIMSTYLE1
100
AcDbAlignedDimension
 13
164.4959644158
 23
78.5737524164
 33
0.0
 14
160.4959644158
 24
147.7053350925
 34
0.0
 50
90.0
100
AcDbRotatedDimension
  0
INSERT
  5
191
102
{ACAD_REACTORS
330
193
102
}
330
1F
100
AcDbEntity
  8
DIM
 62
     7
100
AcDbBlockReference
  2
SW_NOTE_2
 10
117.0072115385
 20
85.3365384615
 30
0.0
  0
LEADER
  5
193
330
1F
100
AcDbEntity
  8
DIM
 62
     7
100
AcDbLeader
  3
SLDDIMSTYLE2
 73
     2
 76
     2
 10
144.6030587371
 20
78.5737524164
 30
0.0
 10
117.0072115385
 20
85.3365384615
 30
0.0
340
191
  0
INSERT
  5
199
102
{ACAD_REACTORS
330
19A
102
}
330
1F
100
AcDbEntity
  8
DIM
 62
     7
100
AcDbBlockReference
  2
SW_NOTE_3
 10
173.3581730769
 20
68.75
 30
0.0
  0
LEADER
  5
19A
330
1F
100
AcDbEntity
  8
DIM
 62
     7
100
AcDbLeader
  3
SLDDIMSTYLE2
 73
     2
 76
     3
 10
157.0181291949
 20
78.5737524164
 30
0.0
 10
172.3581730769
 20
68.75
 30
0.0
 10
173.3581730769
 20
68.75
 30
0.0
340
199
  0
INSERT
  5
1A1
102
{ACAD_REACTORS
330
1A2
102
}
330
1F
100
AcDbEntity
  8
DIM
 62
     7
100
AcDbBlockReference
  2
SW_NOTE_4
 10
119.3100961538
 20
114.7836538462
 30
0.0
  0
LEADER
  5
1A2
330
1F
100
AcDbEntity
  8
DIM
 62
     7
100
AcDbLeader
  3
SLDDIMSTYLE2
 73
     2
 76
     3
 10
139.7844742379
 20
106.4113324246
 30
0.0
 10
120.3100961538
 20
114.7836538462
 30
0.0
 10
119.3100961538
 20
114.7836538462
 30
0.0
340
1A1
  0
INSERT
  5
1AE
330
1F
100
AcDbEntity
  8
DIM
 62
     7
100
AcDbBlockReference
  2
SW_CENTERMARKSYMBOL_0
 10
144.4959644158
 20
103.5737524164
 30
0.0
  0
LINE
  5
1AF
330
1F
100
AcDbEntity
  8
DIM
  6
CENTERX2
 62
     7
370
     0
100
AcDbLine
 10
131.7959644158
 20
78.5737524164
 30
0.0
 11
131.7959644158
 21
86.5737524164
 31
0.0
  0
LINE
  5
1B0
330
1F
100
AcDbEntity
  8
DIM
  6
CENTERX2
 62
     7
370
     0
100
AcDbLine
 10
157.1959644158
 20
78.5737524164
 30
0.0
 11
157.1959644158
 21
86.5737524164
 31
0.0
  0
LINE
  5
1B1
330
1F
100
AcDbEntity
  8
DIM
  6
CENTERX2
 62
     7
370
     0
100
AcDbLine
 10
144.4959644158
 20
78.5737524164
 30
0.0
 11
144.4959644158
 21
86.5737524164
 31
0.0
  0
LINE
  5
1B2
330
1F
100
AcDbEntity
  8
0
  6
Continuous
 62
     7
370
    15
100
AcDbLine
 10
49.1125777552
 20
141.5737524164
 30
0.0
 11
49.1125777552
 21
147.7053350925
 31
0.0
  0
LINE
  5
1B3
330
1F
100
AcDbEntity
  8
0
  6
Continuous
 62
     7
370
    15
100
AcDbLine
 10
43.1125777552
 20
147.7053350925
 30
0.0
 11
43.1125777552
 21
141.5737524164
 31
0.0
  0
LINE
  5
1B4
330
1F
100
AcDbEntity
  8
0
  6
Continuous
 62
     7
370
    15
100
AcDbLine
 10
49.1125777552
 20
147.7053350925
 30
0.0
 11
43.1125777552
 21
147.7053350925
 31
0.0
  0
LINE
  5
1B5
330
1F
100
AcDbEntity
  8
0
  6
Continuous
 62
     7
370
    15
100
AcDbLine
 10
42.6125777552
 20
141.5737524164
 30
0.0
 11
42.6125777552
 21
83.5737524164
 31
0.0
  0
LINE
  5
1B6
330
1F
100
AcDbEntity
  8
0
  6
Continuous
 62
     7
370
    15
100
AcDbLine
 10
42.6125777552
 20
83.5737524164
 30
0.0
 11
40.6125777552
 21
83.5737524164
 31
0.0
  0
LINE
  5
1B7
330
1F
100
AcDbEntity
  8
0
  6
Continuous
 62
     7
370
    15
100
AcDbLine
 10
40.6125777552
 20
83.5737524164
 30
0.0
 11
40.6125777552
 21
141.5737524164
 31
0.0
  0
LINE
  5
1B8
330
1F
100
AcDbEntity
  8
0
  6
Continuous
 62
     7
370
    15
100
AcDbLine
 10
40.6125777552
 20
141.5737524164
 30
0.0
 11
42.6125777552
 21
141.5737524164
 31
0.0
  0
LINE
  5
1B9
330
1F
100
AcDbEntity
  8
0
  6
Continuous
 62
     7
370
    15
100
AcDbLine
 10
59.6125777552
 20
141.5737524164
 30
0.0
 11
59.6125777552
 21
83.5737524164
 31
0.0
  0
CIRCLE
  5
1BA
330
1F
100
AcDbEntity
  8
0
  6
Continuous
 62
     7
370
    15
100
AcDbCircle
 10
45.6125777552
 20
103.5737524164
 30
0.0
 40
1.727199999999996
  0
LINE
  5
1BB
330
1F
100
AcDbEntity
  8
0
  6
Continuous
 62
     7
370
    15
100
AcDbLine
 10
59.6125777552
 20
83.5737524164
 30
0.0
 11
42.6125777552
 21
83.5737524164
 31
0.0
  0
LINE
  5
1BC
330
1F
100
AcDbEntity
  8
0
  6
Continuous
 62
     7
370
    15
100
AcDbLine
 10
59.6125777552
 20
141.5737524164
 30
0.0
 11
42.6125777552
 21
141.5737524164
 31
0.0
  0
LINE
  5
1BD
330
1F
100
AcDbEntity
  8
0
  6
Continuous
 62
     7
370
    15
100
AcDbLine
 10
42.6125777552
 20
83.5737524164
 30
0.0
 11
42.6125777552
 21
78.5737524164
 31
0.0
  0
LINE
  5
1BE
330
1F
100
AcDbEntity
  8
0
  6
Continuous
 62
     7
370
    15
100
AcDbLine
 10
42.6125777552
 20
78.5737524164
 30
0.0
 11
40.6125777552
 21
78.5737524164
 31
0.0
  0
LINE
  5
1BF
330
1F
100
AcDbEntity
  8
0
  6
Continuous
 62
     7
370
    15
100
AcDbLine
 10
40.6125777552
 20
78.5737524164
 30
0.0
 11
40.6125777552
 21
83.5737524164
 31
0.0
  0
LINE
  5
1C0
330
1F
100
AcDbEntity
  8
0
  6
Continuous
 62
     7
370
    15
100
AcDbLine
 10
59.6125777552
 20
83.5737524164
 30
0.0
 11
59.6125777552
 21
84.5737524164
 31
0.0
  0
LINE
  5
1C1
330
1F
100
AcDbEntity
  8
0
  6
Continuous
 62
     7
370
    15
100
AcDbLine
 10
59.6125777552
 20
84.5737524164
 30
0.0
 11
70.6125777552
 21
84.5737524164
 31
0.0
  0
LINE
  5
1C2
330
1F
100
AcDbEntity
  8
0
  6
Continuous
 62
     7
370
    15
100
AcDbLine
 10
70.6125777552
 20
78.5737524164
 30
0.0
 11
70.6125777552
 21
84.5737524164
 31
0.0
  0
LINE
  5
1C3
330
1F
100
AcDbEntity
  8
0
  6
Continuous
 62
     7
370
    15
100
AcDbLine
 10
42.6125777552
 20
78.5737524164
 30
0.0
 11
70.6125777552
 21
78.5737524164
 31
0.0
  0
LINE
  5
1C4
330
1F
100
AcDbEntity
  8
0
  6
Continuous
 62
     7
370
    15
100
AcDbLine
 10
75.6125777552
 20
84.5737524164
 30
0.0
 11
75.6125777552
 21
78.5737524164
 31
0.0
  0
LINE
  5
1C5
330
1F
100
AcDbEntity
  8
0
  6
Continuous
 62
     7
370
    15
100
AcDbLine
 10
70.6125777552
 20
84.5737524164
 30
0.0
 11
75.6125777552
 21
84.5737524164
 31
0.0
  0
LINE
  5
1C6
330
1F
100
AcDbEntity
  8
0
  6
Continuous
 62
     7
370
    15
100
AcDbLine
 10
75.6125777552
 20
78.5737524164
 30
0.0
 11
70.6125777552
 21
78.5737524164
 31
0.0
  0
LINE
  5
1C7
330
1F
100
AcDbEntity
  8
DIM
  6
CENTERX2
 62
     7
100
AcDbLine
 10
65.3625777552
 20
80.5737524164
 30
0.0
 11
65.3625777552
 21
78.5737524164
 31
0.0
  0
LINE
  5
1C8
330
1F
100
AcDbEntity
  8
DIM
  6
CENTERX2
 62
     7
100
AcDbLine
 10
69.8625777552
 20
78.5737524164
 30
0.0
 11
69.8625777552
 21
80.5737524164
 31
0.0
  0
LINE
  5
1C9
330
1F
100
AcDbEntity
  8
DIM
  6
CENTERX2
 62
     7
100
AcDbLine
 10
71.6125777552
 20
80.5737524164
 30
0.0
 11
71.6125777552
 21
84.5737524164
 31
0.0
  0
LINE
  5
1CA
330
1F
100
AcDbEntity
  8
DIM
  6
CENTERX2
 62
     7
100
AcDbLine
 10
63.6125777552
 20
84.5737524164
 30
0.0
 11
63.6125777552
 21
80.5737524164
 31
0.0
  0
LINE
  5
1CB
330
1F
100
AcDbEntity
  8
DIM
  6
CENTERX2
 62
     7
100
AcDbLine
 10
71.6125777552
 20
80.5737524164
 30
0.0
 11
63.6125777552
 21
80.5737524164
 31
0.0
  0
DIMENSION
  5
1CC
330
1F
100
AcDbEntity
  8
DIM
 62
     7
100
AcDbDimension
  2
_D_5
 10
40.6125777552
 20
67.2109020665
 30
0.0
 11
50.1125777552
 21
67.2109020665
 31
0.0
 70
   160
  1
<>
 71
     2
 42
-1.0
  3
SLDDIMSTYLE0
100
AcDbAlignedDimension
 13
59.6125777552
 23
83.5737524164
 33
0.0
 14
40.6125777552
 24
83.5737524164
 34
0.0
100
AcDbRotatedDimension
  0
DIMENSION
  5
1D6
330
1F
100
AcDbEntity
  8
DIM
 62
     7
100
AcDbDimension
  2
_D_6
 10
45.6125777552
 20
72.2443802135
 30
0.0
 11
43.1125777552
 21
72.2443802135
 31
0.0
 70
   160
  1
<>
 71
     2
 42
-1.0
  3
SLDDIMSTYLE3
100
AcDbAlignedDimension
 13
40.6125777552
 23
83.5737524164
 33
0.0
 14
45.6125777552
 24
103.5737524164
 34
0.0
100
AcDbRotatedDimension
  0
DIMENSION
  5
1E3
330
1F
100
AcDbEntity
  8
DIM
 62
     7
100
AcDbDimension
  2
_D_7
 10
40.6125777552
 20
62.2641441211
 30
0.0
 11
54.1125777552
 21
62.2641441211
 31
0.0
 70
   160
  1
<>
 71
     2
 42
-1.0
  3
SLDDIMSTYLE0
100
AcDbAlignedDimension
 13
67.6125777552
 23
76.5737524164
 33
0.0
 14
40.6125777552
 24
78.5737524164
 34
0.0
100
AcDbRotatedDimension
  0
DIMENSION
  5
1ED
330
1F
100
AcDbEntity
  8
DIM
 62
     7
100
AcDbDimension
  2
_D_8
 10
75.6125777552
 20
57.2957172909
 30
0.0
 11
58.1125777552
 21
57.2957172909
 31
0.0
 70
   160
  1
<>
 71
     2
 42
-1.0
  3
SLDDIMSTYLE0
100
AcDbAlignedDimension
 13
40.6125777552
 23
78.5737524164
 33
0.0
 14
75.6125777552
 24
78.5737524164
 34
0.0
100
AcDbRotatedDimension
  0
DIMENSION
  5
1F7
330
1F
100
AcDbEntity
  8
DIM
 62
     7
100
AcDbDimension
  2
_D_9
 10
82.2708221694
 20
78.5737524164
 30
0.0
 11
82.2708221694
 21
81.5737524164
 31
0.0
 70
   160
  1
<>
 71
     2
 42
-1.0
  3
SLDDIMSTYLE0
100
AcDbAlignedDimension
 13
75.6125777552
 23
84.5737524164
 33
0.0
 14
75.6125777552
 24
78.5737524164
 34
0.0
 50
90.0
100
AcDbRotatedDimension
  0
DIMENSION
  5
201
330
1F
100
AcDbEntity
  8
DIM
 62
     7
100
AcDbDimension
  2
_D_10
 10
34.0261027063
 20
78.5737524164
 30
0.0
 11
34.0261027063
 21
91.0737524164
 31
0.0
 70
   160
  1
<>
 71
     2
 42
-1.0
  3
SLDDIMSTYLE0
100
AcDbAlignedDimension
 13
45.6125777552
 23
103.5737524164
 33
0.0
 14
40.6125777552
 24
78.5737524164
 34
0.0
 50
90.0
100
AcDbRotatedDimension
  0
DIMENSION
  5
20B
330
1F
100
AcDbEntity
  8
DIM
100
AcDbDimension
  2
_D_11
 10
44.1167786778
 20
102.7101524164
 30
0.0
 11
73.0421913029
 21
118.7234731829
 31
0.0
 70
   163
  1
1 HOLE,\P 8-32
 71
     1
 42
-1.0
  3
SLDDIMSTYLE4
100
AcDbDiametricDimension
 15
47.1083768326
 25
104.4373524164
 35
0.0
 40
0.0
  0
INSERT
  5
220
330
1F
100
AcDbEntity
  8
DIM
 62
     7
100
AcDbBlockReference
  2
SW_CENTERMARKSYMBOL_1
 10
45.6125777552
 20
103.5737524164
 30
0.0
  0
LINE
  5
221
330
1F
100
AcDbEntity
  8
DIM
  6
CENTERX2
 62
     7
370
     0
100
AcDbLine
 10
67.6125777552
 20
76.5737524164
 30
0.0
 11
67.6125777552
 21
85.8453934037
 31
0.0
  0
LINE
  5
222
330
1F
100
AcDbEntity
  8
0
  6
Continuous
 62
     7
370
    15
100
AcDbLine
 10
247.9210244686
 20
146.022843692
 30
0.0
 11
247.6333793975
 21
145.8567897271
 31
0.0
  0
LINE
  5
223
330
1F
100
AcDbEntity
  8
0
  6
Continuous
 62
     7
370
    15
100
AcDbLine
 10
243.6783837815
 20
148.4720680275
 30
0.0
 11
243.3907387104
 21
148.3060140625
 31
0.0
  0
LINE
  5
224
330
1F
100
AcDbEntity
  8
0
  6
Continuous
 62
     7
370
    15
100
AcDbLine
 10
243.5013878856
 20
174.0609594897
 30
0.0
 11
243.5013878856
 21
179.0676469863
 31
0.0
  0
LINE
  5
225
330
1F
100
AcDbEntity
  8
0
  6
Continuous
 62
     7
370
    15
100
AcDbLine
 10
237.5013878856
 20
179.0676469863
 30
0.0
 11
237.5013878856
 21
174.0609594897
 31
0.0
  0
LINE
  5
226
330
1F
100
AcDbEntity
  8
0
  6
Continuous
 62
     7
370
    15
100
AcDbLine
 10
261.8861641965
 20
163.4476540361
 30
0.0
 11
261.8861641965
 21
168.4543415326
 31
0.0
  0
LINE
  5
227
330
1F
100
AcDbEntity
  8
0
  6
Continuous
 62
     7
370
    15
100
AcDbLine
 10
255.8861641965
 20
168.4543415326
 30
0.0
 11
255.8861641965
 21
163.4476540361
 31
0.0
  0
LINE
  5
228
330
1F
100
AcDbEntity
  8
0
  6
Continuous
 62
     7
370
    15
100
AcDbLine
 10
243.8606908557
 20
175.591343238
 30
0.0
 11
243.5070800167
 21
175.7955447856
 31
0.0
  0
LINE
  5
229
330
1F
100
AcDbEntity
  8
0
  6
Continuous
 62
     7
370
    15
100
AcDbLine
 10
237.4956957545
 20
175.7955447856
 30
0.0
 11
237.1420849155
 21
175.591343238
 31
0.0
  0
LINE
  5
22A
330
1F
100
AcDbEntity
  8
0
  6
Continuous
 62
     7
370
    15
100
AcDbLine
 10
262.2454671665
 20
164.9780377843
 30
0.0
 11
261.8918563276
 21
165.1822393319
 31
0.0
  0
LINE
  5
22B
330
1F
100
AcDbEntity
  8
0
  6
Continuous
 62
     7
370
    15
100
AcDbLine
 10
255.8804720653
 20
165.1822393319
 30
0.0
 11
255.5268612264
 21
164.9780377843
 31
0.0
  0
LINE
  5
22C
330
1F
100
AcDbEntity
  8
0
  6
Continuous
 62
     7
370
    15
100
AcDbLine
 10
251.2543955791
 20
112.9777792771
 30
0.0
 11
252.8757565564
 21
113.9137710461
 31
0.0
  0
LINE
  5
22D
330
1F
100
AcDbEntity
  8
0
  6
Continuous
 62
     7
370
    15
100
AcDbLine
 10
231.6793326598
 20
152.9751422239
 30
0.0
 11
229.0412734109
 21
151.4522230358
 31
0.0
  0
LINE
  5
22E
330
1F
100
AcDbEntity
  8
0
  6
Continuous
 62
     7
370
    15
100
AcDbLine
 10
266.8965718365
 20
115.4759808628
 30
0.0
 11
266.8965718365
 21
162.8353479522
 31
0.0
  0
LINE
  5
22F
330
1F
100
AcDbEntity
  8
0
  6
Continuous
 62
     7
370
    15
100
AcDbLine
 10
266.8965718365
 20
111.3932768034
 30
0.0
 11
266.8965718365
 21
115.4759808628
 31
0.0
  0
LINE
  5
230
330
1F
100
AcDbEntity
  8
0
  6
Continuous
 62
     7
370
    15
100
AcDbLine
 10
216.7630581842
 20
118.3335419543
 30
0.0
 11
216.7630581842
 21
113.4342970829
 31
0.0
  0
LWPOLYLINE
  5
231
330
1F
100
AcDbEntity
  8
0
  6
Continuous
 62
     7
370
    15
100
AcDbPolyline
 90
       29
 70
   128
 43
0.0
 10
242.0556764044
 20
177.5863457051
 10
241.4457257487
 20
177.4238232925
 10
240.7884220494
 20
177.3437290638
 10
240.1167252586
 20
177.3500792783
 10
239.464317058
 20
177.4425555096
 10
238.8639119193
 20
177.6165206133
 10
238.3456166629
 20
177.8632512527
 10
237.9354207774
 20
178.1703753233
 10
237.6538931972
 20
178.5224923418
 10
237.5151508909
 20
178.9019456906
 10
237.5261509768
 20
179.2897079942
 10
237.6863418649
 20
179.6663352316
 10
237.9876909151
 20
180.0129417405
 10
238.4150872276
 20
180.3121472232
 10
238.9470993668
 20
180.5489482675
 10
239.5570500225
 20
180.7114706801
 10
240.2143537218
 20
180.7915649087
 10
240.8860505126
 20
180.7852146943
 10
241.5384587132
 20
180.692738463
 10
242.1388638519
 20
180.5187733593
 10
242.6571591083
 20
180.2720427198
 10
243.0673549938
 20
179.9649186492
 10
243.348882574
 20
179.6128016307
 10
243.4876248803
 20
179.233348282
 10
243.4766247944
 20
178.8455859784
 10
243.3164339063
 20
178.468958741
 10
243.0150848561
 20
178.1223522321
 10
242.5876885436
 20
177.8231467493
 10
242.0556764044
 20
177.5863457051
  0
LINE
  5
232
330
1F
100
AcDbEntity
  8
0
  6
Continuous
 62
     7
370
    15
100
AcDbLine
 10
239.9451884811
 20
178.4834798675
 30
0.0
 11
241.0996338154
 21
178.4974938573
 31
0.0
  0
LINE
  5
233
330
1F
100
AcDbEntity
  8
0
  6
Continuous
 62
     7
370
    15
100
AcDbLine
 10
241.0996338154
 20
178.4974938573
 30
0.0
 11
241.6558332199
 21
179.0816609761
 31
0.0
  0
LINE
  5
234
330
1F
100
AcDbEntity
  8
0
  6
Continuous
 62
     7
370
    15
100
AcDbLine
 10
241.6558332199
 20
179.0816609761
 30
0.0
 11
241.0575872901
 21
179.6518141051
 31
0.0
  0
LINE
  5
235
330
1F
100
AcDbEntity
  8
0
  6
Continuous
 62
     7
370
    15
100
AcDbLine
 10
241.0575872901
 20
179.6518141051
 30
0.0
 11
239.9031419558
 21
179.6378001152
 31
0.0
  0
LINE
  5
236
330
1F
100
AcDbEntity
  8
0
  6
Continuous
 62
     7
370
    15
100
AcDbLine
 10
239.9031419558
 20
179.6378001152
 30
0.0
 11
239.3469425513
 21
179.0536329964
 31
0.0
  0
LINE
  5
237
330
1F
100
AcDbEntity
  8
0
  6
Continuous
 62
     7
370
    15
100
AcDbLine
 10
239.3469425513
 20
179.0536329964
 30
0.0
 11
239.9451884811
 21
178.4834798675
 31
0.0
  0
LINE
  5
238
330
1F
100
AcDbEntity
  8
0
  6
Continuous
 62
     7
370
    15
100
AcDbLine
 10
239.9031419558
 20
178.5235519462
 30
0.0
 11
239.9031419558
 21
179.6378001152
 31
0.0
  0
LINE
  5
239
330
1F
100
AcDbEntity
  8
0
  6
Continuous
 62
     7
370
    15
100
AcDbLine
 10
241.0575872901
 20
178.4969834481
 30
0.0
 11
241.0575872901
 21
179.6518141051
 31
0.0
  0
LWPOLYLINE
  5
23A
330
1F
100
AcDbEntity
  8
0
  6
Continuous
 62
     7
370
    15
100
AcDbPolyline
 90
       29
 70
   128
 43
0.0
 10
256.8408666036
 20
167.1873616588
 10
256.4037772728
 20
167.4818635566
 10
256.091165188
 20
167.8251295608
 10
255.9187060243
 20
168.1999468806
 10
255.8950476045
 20
168.5875206106
 10
256.0213762603
 20
168.9684161854
 10
256.2913573456
 20
169.3235339106
 10
256.6914528814
 20
169.6350667005
 10
257.2016004068
 20
169.8873930002
 10
257.7962189947
 20
170.0678601155
 10
258.4454919863
 20
170.1674186715
 10
259.1168621226
 20
170.1810763865
 10
259.7766641016
 20
170.1081484058
 10
260.3918126969
 20
169.9522916428
 10
260.9314617893
 20
169.7213214063
 10
261.3685511201
 20
169.4268195086
 10
261.6811632049
 20
169.0835535044
 10
261.8536223686
 20
168.7087361845
 10
261.8772807884
 20
168.3211624546
 10
261.7509521326
 20
167.9402668797
 10
261.4809710473
 20
167.5851491546
 10
261.0808755115
 20
167.2736163646
 10
260.5707279861
 20
167.0212900649
 10
259.9761093982
 20
166.8408229497
 10
259.3268364066
 20
166.7412643937
 10
258.6554662703
 20
166.7276066786
 10
257.9956642913
 20
166.8005346593
 10
257.380515696
 20
166.9563914224
 10
256.8408666036
 20
167.1873616588
  0
LINE
  5
23B
330
1F
100
AcDbEntity
  8
0
  6
Continuous
 62
     7
370
    15
100
AcDbLine
 10
257.7609760528
 20
168.6040861982
 30
0.0
 11
258.0989287859
 21
167.9666807518
 31
0.0
  0
LINE
  5
23C
330
1F
100
AcDbEntity
  8
0
  6
Continuous
 62
     7
370
    15
100
AcDbLine
 10
258.0989287859
 20
167.9666807518
 30
0.0
 11
259.2241169295
 21
167.8169360862
 31
0.0
  0
LINE
  5
23D
330
1F
100
AcDbEntity
  8
0
  6
Continuous
 62
     7
370
    15
100
AcDbLine
 10
259.2241169295
 20
167.8169360862
 30
0.0
 11
260.0113523401
 21
168.304596867
 31
0.0
  0
LINE
  5
23E
330
1F
100
AcDbEntity
  8
0
  6
Continuous
 62
     7
370
    15
100
AcDbLine
 10
260.0113523401
 20
168.304596867
 30
0.0
 11
259.673399607
 21
168.9420023134
 31
0.0
  0
LINE
  5
23F
330
1F
100
AcDbEntity
  8
0
  6
Continuous
 62
     7
370
    15
100
AcDbLine
 10
259.673399607
 20
168.9420023134
 30
0.0
 11
258.5482114634
 21
169.0917469789
 31
0.0
  0
LINE
  5
240
330
1F
100
AcDbEntity
  8
0
  6
Continuous
 62
     7
370
    15
100
AcDbLine
 10
258.5482114634
 20
169.0917469789
 30
0.0
 11
257.7609760528
 21
168.6040861982
 31
0.0
  0
LINE
  5
241
330
1F
100
AcDbEntity
  8
0
  6
Continuous
 62
     7
370
    15
100
AcDbLine
 10
259.673399607
 20
168.0952486956
 30
0.0
 11
259.673399607
 21
168.9420023134
 31
0.0
  0
LINE
  5
242
330
1F
100
AcDbEntity
  8
0
  6
Continuous
 62
     7
370
    15
100
AcDbLine
 10
258.5482114634
 20
167.9068883654
 30
0.0
 11
258.5482114634
 21
169.0917469789
 31
0.0
  0
LWPOLYLINE
  5
243
330
1F
100
AcDbEntity
  8
0
  6
Continuous
 62
     7
370
    15
100
AcDbPolyline
 90
       17
 70
   128
 43
0.0
 10
238.0735301535
 20
172.0472258002
 10
238.7775635806
 20
171.8183672638
 10
239.5439005094
 20
171.6705618536
 10
240.3448435267
 20
171.609151642
 10
241.1514444651
 20
171.6363561541
 10
241.9345506649
 20
171.7511921481
 10
242.6658586279
 20
171.9495091518
 10
243.3189369787
 20
172.2241394721
 10
243.8701817642
 20
172.5651572536
 10
244.2996695617
 20
172.9602372251
 10
244.5918775631
 20
173.3951001673
 10
244.7362446099
 20
173.8540290002
 10
244.7275529008
 20
174.3204368402
 10
244.5661165769
 20
174.7774664926
 10
244.2577703676
 20
175.2085997152
 10
243.8136587082
 20
175.5982542298
 10
243.5070800167
 20
175.7955447856
  0
LWPOLYLINE
  5
244
330
1F
100
AcDbEntity
  8
0
  6
Continuous
 62
     7
370
    15
100
AcDbPolyline
 90
       11
 70
   128
 43
0.0
 10
237.4956957545
 20
175.7955447856
 10
237.3941465705
 20
175.7348501231
 10
236.9015497625
 20
175.3651271121
 10
236.5390604835
 20
174.9482680853
 10
236.3197800406
 20
174.499339414
 10
236.2516338003
 20
174.03456655
 10
236.3370847453
 20
173.5707475957
 10
236.5730444557
 20
173.1246461764
 10
236.9509847329
 20
172.7123855599
 10
237.4572458306
 20
172.3488659188
 10
238.0735301535
 20
172.0472258002
  0
ARC
  5
245
330
1F
100
AcDbEntity
  8
0
  6
Continuous
 62
     7
370
    15
100
AcDbCircle
 10
238.2194104508
 20
173.3214990709
 30
0.0
 40
2.512533154338298
100
AcDbArc
 50
115.3902003804
 51
167.6981489776
  0
ARC
  5
246
330
1F
100
AcDbEntity
  8
0
  6
Continuous
 62
     7
370
    15
100
AcDbCircle
 10
242.8049212589
 20
173.3386183203
 30
0.0
 40
2.487854295607315
100
AcDbArc
 50
12.0224148673
 51
64.8892357747
  0
LWPOLYLINE
  5
247
330
1F
100
AcDbEntity
  8
0
  6
Continuous
 62
     7
370
    15
100
AcDbPolyline
 90
       11
 70
   128
 43
0.0
 10
238.787605957
 20
172.6395004147
 10
239.3784887089
 20
172.4549893328
 10
240.0256783142
 20
172.3510083005
 10
240.6967219839
 20
172.3327713609
 10
241.3579707862
 20
172.4011929904
 10
241.9762669451
 20
172.5528422427
 10
242.5206065094
 20
172.7801147912
 10
242.9636940204
 20
173.0716142412
 10
243.2833112201
 20
173.4127235931
 10
243.4634311675
 20
173.7863381997
 10
243.5013878856
 20
174.0609594897
  0
ARC
  5
248
330
1F
100
AcDbEntity
  8
0
  6
Continuous
 62
     7
370
    15
100
AcDbCircle
 10
239.2008055178
 20
174.3060388318
 30
0.0
 40
1.716998594247563
100
AcDbArc
 50
188.2062595833
 51
256.0749606155
  0
LWPOLYLINE
  5
249
330
1F
100
AcDbEntity
  8
0
  6
Continuous
 62
     7
370
    15
100
AcDbPolyline
 90
       17
 70
   128
 43
0.0
 10
256.4583064643
 20
161.4339203465
 10
257.1623398914
 20
161.2050618101
 10
257.9286768203
 20
161.0572563999
 10
258.7296198376
 20
160.9958461883
 10
259.5362207759
 20
161.0230507004
 10
260.3193269758
 20
161.1378866944
 10
261.0506349387
 20
161.3362036981
 10
261.7037132895
 20
161.6108340184
 10
262.2549580751
 20
161.9518517999
 10
262.6844458726
 20
162.3469317715
 10
262.9766538739
 20
162.7817947136
 10
263.1210209207
 20
163.2407235465
 10
263.1123292116
 20
163.7071313865
 10
262.9508928878
 20
164.1641610389
 10
262.6425466784
 20
164.5952942615
 10
262.1984350191
 20
164.9849487761
 10
261.8918563276
 20
165.1822393319
  0
LWPOLYLINE
  5
24A
330
1F
100
AcDbEntity
  8
0
  6
Continuous
 62
     7
370
    15
100
AcDbPolyline
 90
       11
 70
   128
 43
0.0
 10
255.8804720653
 20
165.1822393319
 10
255.7789228813
 20
165.1215446694
 10
255.2863260733
 20
164.7518216584
 10
254.9238367944
 20
164.3349626316
 10
254.7045563515
 20
163.8860339603
 10
254.6364101112
 20
163.4212610963
 10
254.7218610561
 20
162.957442142
 10
254.9578207666
 20
162.5113407227
 10
255.3357610438
 20
162.0990801062
 10
255.8420221414
 20
161.7355604651
 10
256.4583064643
 20
161.4339203465
  0
ARC
  5
24B
330
1F
100
AcDbEntity
  8
0
  6
Continuous
 62
     7
370
    15
100
AcDbCircle
 10
256.6041867616
 20
162.7081936172
 30
0.0
 40
2.512533154339625
100
AcDbArc
 50
115.3902003804
 51
167.6981489776
  0
ARC
  5
24C
330
1F
100
AcDbEntity
  8
0
  6
Continuous
 62
     7
370
    15
100
AcDbCircle
 10
261.1896975698
 20
162.7253128666
 30
0.0
 40
2.487854295607286
100
AcDbArc
 50
12.0224148673
 51
64.8892357747
  0
LWPOLYLINE
  5
24D
330
1F
100
AcDbEntity
  8
0
  6
Continuous
 62
     7
370
    15
100
AcDbPolyline
 90
       11
 70
   128
 43
0.0
 10
257.1723822679
 20
162.0261949611
 10
257.7632650197
 20
161.8416838791
 10
258.4104546251
 20
161.7377028468
 10
259.0814982947
 20
161.7194659072
 10
259.742747097
 20
161.7878875367
 10
260.3610432559
 20
161.939536789
 10
260.9053828202
 20
162.1668093375
 10
261.3484703312
 20
162.4583087875
 10
261.6680875309
 20
162.7994181394
 10
261.8482074783
 20
163.173032746
 10
261.8861641965
 20
163.4476540361
  0
ARC
  5
24E
330
1F
100
AcDbEntity
  8
0
  6
Continuous
 62
     7
370
    15
100
AcDbCircle
 10
257.5855818287
 20
163.6927333781
 30
0.0
 40
1.716998594247391
100
AcDbArc
 50
188.2062595833
 51
256.0749606155
  0
LINE
  5
24F
330
1F
100
AcDbEntity
  8
0
  6
Continuous
 62
     7
370
    15
100
AcDbLine
 10
241.3031749662
 20
150.844925203
 30
0.0
 11
240.1481447666
 21
150.1779237016
 31
0.0
  0
ARC
  5
250
330
1F
100
AcDbEntity
  8
0
  6
Continuous
 62
     7
370
    15
100
AcDbCircle
 10
253.5233434659
 20
139.9365181282
 30
0.0
 40
12.96996554506236
100
AcDbArc
 50
190.7447515927
 51
229.2498718746
  0
LWPOLYLINE
  5
251
330
1F
100
AcDbEntity
  8
0
  6
Continuous
 62
     7
370
    15
100
AcDbPolyline
 90
        7
 70
   128
 43
0.0
 10
244.8527823716
 20
147.4619942224
 10
244.8316246302
 20
147.5413644333
 10
244.6783431478
 20
147.8947568543
 10
244.4489411978
 20
148.2041915795
 10
244.1783431478
 20
148.422559977
 10
243.9077450977
 20
148.5166174379
 10
243.6783837815
 20
148.4720680275
  0
LWPOLYLINE
  5
252
330
1F
100
AcDbEntity
  8
0
  6
Continuous
 62
     7
370
    15
100
AcDbPolyline
 90
        7
 70
   128
 43
0.0
 10
249.0954230587
 20
145.0127698869
 10
249.0742653173
 20
145.0921400979
 10
248.9209838349
 20
145.4455325188
 10
248.691581885
 20
145.754967244
 10
248.4209838349
 20
145.9733356415
 10
248.1503857848
 20
146.0673931024
 10
247.9210244686
 20
146.022843692
  0
ARC
  5
253
330
1F
100
AcDbEntity
  8
0
  6
Continuous
 62
     7
370
    15
100
AcDbCircle
 10
253.8251669935
 20
140.1107571419
 30
0.0
 40
13.07225395235403
100
AcDbArc
 50
192.3764911437
 51
227.6181323236
  0
ARC
  5
254
330
1F
100
AcDbEntity
  8
0
  6
Continuous
 62
     7
370
    15
100
AcDbCircle
 10
235.3819935842
 20
150.6263243862
 30
0.0
 40
3.013082432905493
100
AcDbArc
 50
11.4523398653
 51
24.9344682502
  0
ARC
  5
255
330
1F
100
AcDbEntity
  8
0
  6
Continuous
 62
     7
370
    15
100
AcDbCircle
 10
230.3693420974
 20
126.568014725
 30
0.0
 40
1.536804807572062
100
AcDbArc
 50
182.6054784857
 51
237.39452166
  0
LINE
  5
256
330
1F
100
AcDbEntity
  8
0
  6
Continuous
 62
     7
370
    15
100
AcDbLine
 10
228.834125996
 20
150.9943782293
 30
0.0
 11
228.834125996
 21
126.4981538727
 31
0.0
  0
ARC
  5
257
330
1F
100
AcDbEntity
  8
0
  6
Continuous
 62
     7
370
    15
100
AcDbCircle
 10
229.2652003634
 20
151.0643054262
 30
0.0
 40
0.4367091974284482
100
AcDbArc
 50
50.7967147643
 51
189.2140369905
  0
LINE
  5
258
330
1F
100
AcDbEntity
  8
0
  6
Continuous
 62
     7
370
    15
100
AcDbLine
 10
250.7544362128
 20
139.1565933079
 30
0.0
 11
229.5412327772
 21
151.4027149853
 31
0.0
  0
ARC
  5
259
330
1F
100
AcDbEntity
  8
0
  6
Continuous
 62
     7
370
    15
100
AcDbCircle
 10
249.9263268926
 20
137.8619875879
 30
0.0
 40
1.536804807572038
100
AcDbArc
 50
2.6054784857
 51
57.39452166
  0
LINE
  5
25A
330
1F
100
AcDbEntity
  8
0
  6
Continuous
 62
     7
370
    15
100
AcDbLine
 10
251.461542994
 20
113.4356240836
 30
0.0
 11
251.461542994
 21
137.9318484401
 31
0.0
  0
ARC
  5
25B
330
1F
100
AcDbEntity
  8
0
  6
Continuous
 62
     7
370
    15
100
AcDbCircle
 10
251.0304686266
 20
113.3656968867
 30
0.0
 40
0.4367091974284592
100
AcDbArc
 50
230.7967147643
 51
9.2140369905
  0
LINE
  5
25C
330
1F
100
AcDbEntity
  8
0
  6
Continuous
 62
     7
370
    15
100
AcDbLine
 10
229.5412327772
 20
125.2734090049
 30
0.0
 11
250.7544362128
 21
113.0272873276
 31
0.0
  0
LWPOLYLINE
  5
25D
330
1F
100
AcDbEntity
  8
0
  6
Continuous
 62
     7
370
    15
100
AcDbPolyline
 90
       36
 70
   128
 43
0.0
 10
242.9191157871
 20
125.8792378108
 10
243.4846866125
 20
126.0670085616
 10
243.9796792801
 20
126.3848162383
 10
244.3936241408
 20
126.8259388528
 10
244.7177657973
 20
127.381046168
 10
244.9452482909
 20
128.0383970428
 10
245.071260112
 20
128.7840877702
 10
245.0931359697
 20
129.6023461566
 10
245.010413165
 20
130.475865121
 10
244.8248413778
 20
131.3861687595
 10
244.5403456592
 20
132.3140031311
 10
244.1629434122
 20
133.2397435001
 10
243.7006171167
 20
134.1438094214
 10
243.1631454915
 20
135.0070788885
 10
242.5618966631
 20
135.811292786
 10
241.9095877173
 20
136.5394410895
 10
241.2200157187
 20
137.1761226472
 10
240.5077658869
 20
137.7078709316
 10
239.7879031032
 20
138.123438871
 10
239.0756532713
 20
138.4140367384
 10
238.3860812727
 20
138.5735180634
 10
237.7337723269
 20
138.5985096377
 10
237.1325234985
 20
138.4884828613
 10
236.5950518733
 20
138.2457649238
 10
236.1327255778
 20
137.8754895813
 10
235.7553233308
 20
137.3854885717
 10
235.4708276122
 20
136.7861259651
 10
235.285255825
 20
136.0900789515
 10
235.2025330203
 20
135.3120697044
 10
235.224408878
 20
134.4685539904
 10
235.3504206991
 20
133.5773731111
 10
235.5779031927
 20
132.6573765398
 10
235.9020448493
 20
131.728023234
 10
236.3159897099
 20
130.8089700564
 10
236.8109823775
 20
129.9196560106
 10
237.3765532029
 20
129.0788910842
  0
LWPOLYLINE
  5
25E
330
1F
100
AcDbEntity
  8
0
  6
Continuous
 62
     7
370
    15
100
AcDbPolyline
 90
       15
 70
   128
 43
0.0
 10
237.3765532029
 20
129.0788910842
 10
237.5393792279
 20
128.3752772704
 10
237.8017198396
 20
127.6623935751
 10
238.1535665406
 20
126.9674370627
 10
238.5814961072
 20
126.3169208619
 10
239.0691826952
 20
125.7356626691
 10
239.5980206839
 20
125.245837934
 10
240.147834495
 20
124.8661338495
 10
240.6976483061
 20
124.6110364199
 10
241.2264862948
 20
124.4902778098
 10
241.7141728828
 20
124.5084650534
 10
242.1421024494
 20
124.6649042933
 10
242.4939491505
 20
124.9536272516
 10
242.7562897621
 20
125.363618924
 10
242.9191157871
 20
125.8792378108
  0
LINE
  5
25F
330
1F
100
AcDbEntity
  8
0
  6
Continuous
 62
     7
370
    15
100
AcDbLine
 10
249.45727404
 20
144.8038777618
 30
0.0
 11
236.4947894632
 21
152.2869608261
 31
0.0
  0
LWPOLYLINE
  5
260
330
1F
100
AcDbEntity
  8
0
  6
Continuous
 62
     7
370
    15
100
AcDbPolyline
 90
       22
 70
   128
 43
0.0
 10
240.748875259
 20
145.6266275941
 10
241.1446082113
 20
145.4580225144
 10
241.6088472962
 20
145.3642454267
 10
242.1003428335
 20
145.353628837
 10
242.5754232881
 20
145.4271160757
 10
242.9918756766
 20
145.5781774793
 10
243.3126963767
 20
145.793390579
 10
243.5093790614
 20
146.0536327466
 10
243.5644476109
 20
146.3357803234
 10
243.473008943
 20
146.614763259
 10
243.2431877846
 20
146.8657926953
 10
242.8954047542
 20
147.0665635652
 10
242.4605619002
 20
147.199236496
 10
241.9772969185
 20
147.2520229153
 10
241.4885500236
 20
147.2202325184
 10
241.0377485217
 20
147.1066900214
 10
240.6649481048
 20
146.9214841734
 10
240.4032737258
 20
146.6810713269
 10
240.2759763016
 20
146.4068132182
 10
240.2943667671
 20
146.1230788839
 10
240.4568110487
 20
145.8550793648
 10
240.748875259
 20
145.6266275941
  0
LINE
  5
261
330
1F
100
AcDbEntity
  8
0
  6
Continuous
 62
     7
370
    15
100
AcDbLine
 10
237.3765532029
 20
129.0788910842
 30
0.0
 11
240.9120871088
 21
131.1199113637
 31
0.0
  0
LINE
  5
262
330
1F
100
AcDbEntity
  8
0
  6
Continuous
 62
     7
370
    15
100
AcDbLine
 10
244.2486034073
 20
126.6467346773
 30
0.0
 11
242.9191157871
 21
125.8792378108
 31
0.0
  0
ARC
  5
263
330
1F
100
AcDbEntity
  8
0
  6
Continuous
 62
     7
370
    15
100
AcDbCircle
 10
248.1713059573
 20
137.0634790668
 30
0.0
 40
9.382017657758874
100
AcDbArc
 50
171.390805075
 51
219.3092906013
  0
LWPOLYLINE
  5
264
330
1F
100
AcDbEntity
  8
0
  6
Continuous
 62
     7
370
    15
100
AcDbPolyline
 90
       16
 70
   128
 43
0.0
 10
240.0604473637
 20
137.9803434984
 10
240.0050025814
 20
137.8377138493
 10
239.8473231861
 20
137.2097133036
 10
239.7942811044
 20
136.5011437435
 10
239.8473231861
 20
135.7313330994
 10
240.0050025814
 20
134.921279799
 10
240.2630182075
 20
134.0930799847
 10
240.6143320707
 20
133.2693247884
 10
241.0493612446
 20
132.4724841045
 10
241.5562392673
 20
131.7242936697
 10
242.1211398278
 20
131.0451621686
 10
242.7286539114
 20
130.4536145383
 10
243.3622101175
 20
129.965786656
 10
244.0045266844
 20
129.5949851947
 10
244.6380828905
 20
129.3513246516
 10
245.0967962309
 20
129.2561860951
  0
ARC
  5
265
330
1F
100
AcDbEntity
  8
0
  6
Continuous
 62
     7
370
    15
100
AcDbCircle
 10
246.6682367089
 20
131.9324573177
 30
0.0
 40
5.813216764011448
100
AcDbArc
 50
188.0348623234
 51
245.4032213747
  0
ARC
  5
266
330
1F
100
AcDbEntity
  8
0
  6
Continuous
 62
     7
370
    15
100
AcDbCircle
 10
248.4019607938
 20
136.9800068427
 30
0.0
 40
7.869197841014334
100
AcDbArc
 50
174.9632892333
 51
245.031334234
  0
LWPOLYLINE
  5
267
330
1F
100
AcDbEntity
  8
0
  6
Continuous
 62
     7
370
    15
100
AcDbPolyline
 90
       20
 70
   128
 43
0.0
 10
255.5274069858
 20
161.5086847705
 10
256.1811128539
 20
161.1936284731
 10
256.9217612979
 20
160.9510184119
 10
257.7255472673
 20
160.788652274
 10
258.5666364198
 20
160.7117486405
 10
259.4179954579
 20
160.7227792575
 10
260.2522610018
 20
160.8213895919
 10
261.0426190702
 20
161.0044102265
 10
261.7636669047
 20
161.2659587274
 10
262.3922294345
 20
161.5976287107
 10
262.9081041428
 20
161.9887600301
 10
263.2947103919
 20
162.4267814032
 10
263.539622339
 20
162.8976144627
 10
263.6349683124
 20
163.3861262467
 10
263.5776838143
 20
163.8766155845
 10
263.3696100154
 20
164.3533177452
 10
263.0174345789
 20
164.800911129
 10
262.5324767132
 20
165.2050097165
 10
261.9303233629
 20
165.5526254464
 10
261.8861641965
 20
165.5736487922
  0
LWPOLYLINE
  5
268
330
1F
100
AcDbEntity
  8
0
  6
Continuous
 62
     7
370
    15
100
AcDbPolyline
 90
       11
 70
   128
 43
0.0
 10
255.8861641965
 20
165.5736487922
 10
255.6814791033
 20
165.4716624158
 10
255.1069475893
 20
165.108800991
 10
254.6538832066
 20
164.6925489363
 10
254.3368478172
 20
164.2362849353
 10
254.1660311995
 20
163.7546736882
 10
254.14692354
 20
163.2631945769
 10
254.2801389747
 20
162.7776441444
 10
254.5613958498
 20
162.3136283811
 10
254.9816543381
 20
161.8860611354
 10
255.5274069858
 20
161.5086847705
  0
LWPOLYLINE
  5
269
330
1F
100
AcDbEntity
  8
0
  6
Continuous
 62
     7
370
    15
100
AcDbPolyline
 90
       20
 70
   128
 43
0.0
 10
237.142630675
 20
172.1219902242
 10
237.7963365431
 20
171.8069339268
 10
238.536984987
 20
171.5643238656
 10
239.3407709564
 20
171.4019577277
 10
240.1818601089
 20
171.3250540941
 10
241.0332191471
 20
171.3360847112
 10
241.8674846909
 20
171.4346950456
 10
242.6578427594
 20
171.6177156802
 10
243.3788905938
 20
171.8792641811
 10
244.0074531237
 20
172.2109341644
 10
244.5233278319
 20
172.6020654838
 10
244.9099340811
 20
173.0400868569
 10
245.1548460281
 20
173.5109199164
 10
245.2501920016
 20
173.9994317004
 10
245.1929075034
 20
174.4899210382
 10
244.9848337046
 20
174.9666231989
 10
244.6326582681
 20
175.4142165827
 10
244.1477004023
 20
175.8183151702
 10
243.545547052
 20
176.1659309001
 10
243.5013878856
 20
176.1869542459
  0
LWPOLYLINE
  5
26A
330
1F
100
AcDbEntity
  8
0
  6
Continuous
 62
     7
370
    15
100
AcDbPolyline
 90
       11
 70
   128
 43
0.0
 10
237.5013878856
 20
176.1869542459
 10
237.2967027924
 20
176.0849678695
 10
236.7221712784
 20
175.7221064447
 10
236.2691068957
 20
175.30585439
 10
235.9520715063
 20
174.849590389
 10
235.7812548886
 20
174.3679791419
 10
235.7621472291
 20
173.8765000306
 10
235.8953626638
 20
173.3909495981
 10
236.176619539
 20
172.9269338348
 10
236.5968780272
 20
172.4993665891
 10
237.142630675
 20
172.1219902242
  0
ARC
  5
26B
330
1F
100
AcDbEntity
  8
0
  6
Continuous
 62
     7
370
    15
100
AcDbCircle
 10
266.0009313453
 20
162.8353479522
 30
0.0
 40
0.873230633668551
100
AcDbArc
 50
290.7834207995
 51
69.2165792005
  0
LINE
  5
26C
330
1F
100
AcDbEntity
  8
0
  6
Continuous
 62
     7
370
    15
100
AcDbLine
 10
254.2899701187
 20
155.0794708899
 30
0.0
 11
266.3107853989
 21
162.0189398404
 31
0.0
  0
LINE
  5
26D
330
1F
100
AcDbEntity
  8
0
  6
Continuous
 62
     7
370
    15
100
AcDbLine
 10
254.2899701187
 20
155.0794708899
 30
0.0
 11
250.824912747
 21
157.0798059322
 31
0.0
  0
LWPOLYLINE
  5
26E
330
1F
100
AcDbEntity
  8
0
  6
Continuous
 62
     7
370
    15
100
AcDbPolyline
 90
       19
 70
   128
 43
0.0
 10
250.824912747
 20
157.0798059322
 10
250.6938350267
 20
158.1442773091
 10
250.4084198085
 20
159.1986383143
 10
249.9706822278
 20
160.2354447756
 10
249.3837128712
 20
161.2473764621
 10
248.6516559558
 20
162.2272887681
 10
247.7796800697
 20
163.1682631562
 10
246.77394168
 20
164.0636560048
 10
245.6415416654
 20
164.9071455149
 10
244.3904751821
 20
165.6927763436
 10
243.0295752146
 20
166.4150016514
 10
241.5684502115
 20
167.0687222649
 10
240.0174162471
 20
167.6493226789
 10
238.3874241854
 20
168.1527036432
 10
236.6899823631
 20
168.575311105
 10
234.9370753371
 20
168.9141613019
 10
233.1410792687
 20
169.1668618284
 10
231.3146745434
 20
169.3316285267
 10
229.470756243
 20
169.407298084
  0
LINE
  5
26F
330
1F
100
AcDbEntity
  8
0
  6
Continuous
 62
     7
370
    15
100
AcDbLine
 10
229.470756243
 20
169.407298084
 30
0.0
 11
226.0056988713
 21
171.4076331263
 31
0.0
  0
LINE
  5
270
330
1F
100
AcDbEntity
  8
0
  6
Continuous
 62
     7
370
    15
100
AcDbLine
 10
226.0056988713
 20
171.4076331263
 30
0.0
 11
237.5013878856
 21
178.0439531362
 31
0.0
  0
LINE
  5
271
330
1F
100
AcDbEntity
  8
0
  6
Continuous
 62
     7
370
    15
100
AcDbLine
 10
266.3107853989
 20
163.651756064
 30
0.0
 11
261.8861641965
 21
166.2060355148
 31
0.0
  0
LINE
  5
272
330
1F
100
AcDbEntity
  8
0
  6
Continuous
 62
     7
370
    15
100
AcDbLine
 10
256.3652378183
 20
169.3931984723
 30
0.0
 11
243.5013878856
 21
176.8193409685
 31
0.0
  0
LINE
  5
273
330
1F
100
AcDbEntity
  8
0
  6
Continuous
 62
     7
370
    15
100
AcDbLine
 10
254.2899701187
 20
107.7201038005
 30
0.0
 11
254.2899701187
 21
155.0794708899
 31
0.0
  0
LINE
  5
274
330
1F
100
AcDbEntity
  8
0
  6
Continuous
 62
     7
370
    15
100
AcDbLine
 10
226.0056988713
 20
171.4076331263
 30
0.0
 11
226.0056988713
 21
124.8648068488
 31
0.0
  0
LINE
  5
275
330
1F
100
AcDbEntity
  8
0
  6
Continuous
 62
     7
370
    15
100
AcDbLine
 10
229.470756243
 20
169.407298084
 30
0.0
 11
229.470756243
 21
153.0764818463
 31
0.0
  0
LINE
  5
276
330
1F
100
AcDbEntity
  8
0
  6
Continuous
 62
     7
370
    15
100
AcDbLine
 10
229.5412327772
 20
153.0357966091
 30
0.0
 11
229.470756243
 21
153.0764818463
 31
0.0
  0
ARC
  5
277
330
1F
100
AcDbEntity
  8
0
  6
Continuous
 62
     7
370
    15
100
AcDbCircle
 10
228.7131355359
 20
152.0205679318
 30
0.0
 40
1.310127592285494
100
AcDbArc
 50
50.7967147643
 51
189.2140369905
  0
LINE
  5
278
330
1F
100
AcDbEntity
  8
0
  6
Continuous
 62
     7
370
    15
100
AcDbLine
 10
227.4199124336
 20
151.8107863411
 30
0.0
 11
227.4199124336
 21
127.3145619846
 31
0.0
  0
ARC
  5
279
330
1F
100
AcDbEntity
  8
0
  6
Continuous
 62
     7
370
    15
100
AcDbCircle
 10
232.0255607378
 20
127.5241445413
 30
0.0
 40
4.610414422716286
100
AcDbArc
 50
182.6054784857
 51
237.39452166
  0
LINE
  5
27A
330
1F
100
AcDbEntity
  8
0
  6
Continuous
 62
     7
370
    15
100
AcDbLine
 10
229.5412327772
 20
123.6403273812
 30
0.0
 11
250.7544362128
 21
111.3942057038
 31
0.0
  0
ARC
  5
27B
330
1F
100
AcDbEntity
  8
0
  6
Continuous
 62
     7
370
    15
100
AcDbCircle
 10
251.5825334541
 20
112.409434381
 30
0.0
 40
1.310127592285464
100
AcDbArc
 50
230.7967147643
 51
9.2140369905
  0
LINE
  5
27C
330
1F
100
AcDbEntity
  8
0
  6
Continuous
 62
     7
370
    15
100
AcDbLine
 10
252.8757565564
 20
112.6192159717
 30
0.0
 11
252.8757565564
 21
137.1154403283
 31
0.0
  0
ARC
  5
27D
330
1F
100
AcDbEntity
  8
0
  6
Continuous
 62
     7
370
    15
100
AcDbCircle
 10
248.2701082523
 20
136.9058577715
 30
0.0
 40
4.610414422716139
100
AcDbArc
 50
2.6054784857
 51
57.39452166
  0
LINE
  5
27E
330
1F
100
AcDbEntity
  8
0
  6
Continuous
 62
     7
370
    15
100
AcDbLine
 10
250.824912747
 20
140.7489896945
 30
0.0
 11
250.7544362128
 21
140.7896749317
 31
0.0
  0
LINE
  5
27F
330
1F
100
AcDbEntity
  8
0
  6
Continuous
 62
     7
370
    15
100
AcDbLine
 10
250.824912747
 20
140.7489896945
 30
0.0
 11
250.824912747
 21
157.0798059322
 31
0.0
  0
LINE
  5
280
330
1F
100
AcDbEntity
  8
0
  6
Continuous
 62
     7
370
    15
100
AcDbLine
 10
266.3107853989
 20
114.659572751
 30
0.0
 11
266.3107853989
 21
162.0189398404
 31
0.0
  0
LINE
  5
281
330
1F
100
AcDbEntity
  8
0
  6
Continuous
 62
     7
370
    15
100
AcDbLine
 10
254.2899701187
 20
107.7201038005
 30
0.0
 11
266.3107853989
 21
114.659572751
 31
0.0
  0
ARC
  5
282
330
1F
100
AcDbEntity
  8
0
  6
Continuous
 62
     7
370
    15
100
AcDbCircle
 10
243.479756881
 20
140.3806366409
 30
0.0
 40
7.354386355676541
100
AcDbArc
 50
2.8709274187
 51
3.4861177607
  0
LWPOLYLINE
  5
283
330
1F
100
AcDbEntity
  8
0
  6
Continuous
 62
     7
370
    15
100
AcDbPolyline
 90
       19
 70
   128
 43
0.0
 10
250.8205343906
 20
140.8278325975
 10
250.6798067946
 20
141.8831104527
 10
250.3873617398
 20
142.9279594756
 10
249.9452302464
 20
143.9551232278
 10
249.3564829016
 20
144.9574680944
 10
248.6252085343
 20
145.9280328266
 10
247.7564858184
 20
146.8600768878
 10
246.7563480016
 20
147.7471272658
 10
245.6317410046
 20
148.5830234279
 10
244.3904751821
 20
149.3619601058
 10
243.0411710802
 20
150.0785276126
 10
241.5931995667
 20
150.7277494129
 10
240.0566167512
 20
151.3051166849
 10
238.4420941455
 20
151.806619634
 10
236.7608445503
 20
152.2287753404
 10
235.024544183
 20
152.5686519481
 10
233.2452515865
 20
152.8238890263
 10
231.4353238831
 20
152.9927139629
 10
229.607330955
 20
153.0739542749
  0
ARC
  5
284
330
1F
100
AcDbEntity
  8
0
  6
Continuous
 62
     7
370
    15
100
AcDbCircle
 10
228.8346075894
 20
115.0117452007
 30
0.0
 40
38.07005202262632
100
AcDbArc
 50
88.8369643378
 51
89.0425458468
  0
ARC
  5
285
330
1F
100
AcDbEntity
  8
0
  6
Continuous
 62
     7
370
    15
100
AcDbCircle
 10
265.8956577116
 20
115.5757936166
 30
0.0
 40
1.005878556987591
100
AcDbArc
 50
294.3746582936
 51
354.3052007488
  0
LINE
  5
286
330
1F
100
AcDbEntity
  8
0
  6
Continuous
 62
     7
370
    15
100
AcDbLine
 10
250.7544362128
 20
140.7896749317
 30
0.0
 11
250.8205343906
 21
140.8278325975
 31
0.0
  0
LWPOLYLINE
  5
287
330
1F
100
AcDbEntity
  8
0
  6
Continuous
 62
     7
370
    15
100
AcDbPolyline
 90
        3
 70
   128
 43
0.0
 10
239.0871743232
 20
150.7900108012
 10
239.0316366737
 20
151.3297356098
 10
238.9493615681
 20
151.6597583008
  0
ARC
  5
288
330
1F
100
AcDbEntity
  8
0
  6
Continuous
 62
     7
370
    15
100
AcDbCircle
 10
253.8313647014
 20
140.1143350025
 30
0.0
 40
13.07907466603975
100
AcDbArc
 50
192.3859812277
 51
227.6086422396
  0
LINE
  5
289
330
1F
100
AcDbEntity
  8
0
  6
Continuous
 62
     7
370
    15
100
AcDbLine
 10
229.5412327772
 20
153.0357966091
 30
0.0
 11
229.607330955
 21
153.0739542749
 31
0.0
  0
LINE
  5
28A
330
1F
100
AcDbEntity
  8
0
  6
Continuous
 62
     7
370
    15
100
AcDbLine
 10
224.9450386995
 20
112.4145831435
 30
0.0
 11
230.601892949
 21
115.6802155908
 31
0.0
  0
LINE
  5
28B
330
1F
100
AcDbEntity
  8
0
  6
Continuous
 62
     7
370
    15
100
AcDbLine
 10
218.2275242782
 20
116.2925216747
 30
0.0
 11
224.9450386995
 21
112.4145831435
 31
0.0
  0
ARC
  5
28C
330
1F
100
AcDbEntity
  8
0
  6
Continuous
 62
     7
370
    15
100
AcDbCircle
 10
219.0237999749
 20
118.3335419543
 30
0.0
 40
2.190848868964164
100
AcDbArc
 50
111.3125518932
 51
248.6874481068
  0
LINE
  5
28D
330
1F
100
AcDbEntity
  8
0
  6
Continuous
 62
     7
370
    15
100
AcDbLine
 10
226.0056988713
 20
124.8648068488
 30
0.0
 11
218.2275242782
 21
120.3745622338
 31
0.0
  0
LINE
  5
28E
330
1F
100
AcDbEntity
  8
0
  6
Continuous
 62
     7
370
    15
100
AcDbLine
 10
226.0056988713
 20
124.8648068488
 30
0.0
 11
254.2899701187
 21
108.5366446124
 31
0.0
  0
LINE
  5
28F
330
1F
100
AcDbEntity
  8
0
  6
Continuous
 62
     7
370
    15
100
AcDbLine
 10
246.5117955257
 20
104.0463999974
 30
0.0
 11
254.2899701187
 21
108.5366446124
 31
0.0
  0
ARC
  5
290
330
1F
100
AcDbEntity
  8
0
  6
Continuous
 62
     7
370
    15
100
AcDbCircle
 10
242.9762616198
 20
110.8324688063
 30
0.0
 40
7.651844867748182
100
AcDbArc
 50
242.4805390039
 51
297.5194609961
  0
LINE
  5
291
330
1F
100
AcDbEntity
  8
0
  6
Continuous
 62
     7
370
    15
100
AcDbLine
 10
232.7232132925
 20
107.9243385285
 30
0.0
 11
239.4407277138
 21
104.0463999974
 31
0.0
  0
LINE
  5
292
330
1F
100
AcDbEntity
  8
0
  6
Continuous
 62
     7
370
    15
100
AcDbLine
 10
232.7232132925
 20
107.9243385285
 30
0.0
 11
238.380067542
 21
111.1899709758
 31
0.0
  0
LWPOLYLINE
  5
293
330
1F
100
AcDbEntity
  8
0
  6
Continuous
 62
     7
370
    15
100
AcDbPolyline
 90
       20
 70
   128
 43
0.0
 10
238.380067542
 20
111.1899709758
 10
238.9671481905
 20
111.5901265041
 10
239.4321306459
 20
112.0406079167
 10
239.762331399
 20
112.5291272549
 10
239.9487434341
 20
113.0423589847
 10
239.9862819166
 20
113.5663034824
 10
239.8739228948
 20
114.0866689079
 10
239.6147312298
 20
114.5892610489
 10
239.2157769945
 20
115.0603705019
 10
238.6879426206
 20
115.4871466292
 10
238.0456260538
 20
115.8579480905
 10
237.3063480155
 20
116.1626603886
 10
236.4902740836
 20
116.3929717663
 10
235.6196646276
 20
116.5425999296
 10
234.7182676039
 20
116.6074634123
 10
233.8106707735
 20
116.5857929075
 10
232.9216310121
 20
116.4781795303
 10
232.0753990069
 20
116.287558693
 10
231.2950577608
 20
116.0191300352
 10
230.601892949
 20
115.6802155908
  0
LWPOLYLINE
  5
294
330
1F
100
AcDbEntity
  8
0
  6
Continuous
 62
     7
370
    15
100
AcDbPolyline
 90
       33
 70
   128
 43
0.0
 10
240.6428092418
 20
106.6180855496
 10
241.2489554345
 20
106.3309130126
 10
241.9405026371
 20
106.117524567
 10
242.6908750785
 20
105.986120611
 10
243.4712363666
 20
105.9417509249
 10
244.2515976546
 20
105.986120611
 10
245.001970096
 20
106.117524567
 10
245.6935172987
 20
106.3309130126
 10
246.2996634913
 20
106.6180855496
 10
246.7971148158
 20
106.9680062984
 10
247.1667544966
 20
107.3672280008
 10
247.3943774882
 20
107.8004087907
 10
247.4712363666
 20
108.2509017732
 10
247.3943774882
 20
108.7013947558
 10
247.1667544966
 20
109.1345755457
 10
246.7971148158
 20
109.5337972481
 10
246.2996634913
 20
109.8837179969
 10
245.6935172987
 20
110.1708905339
 10
245.001970096
 20
110.3842789795
 10
244.2515976546
 20
110.5156829355
 10
243.4712363666
 20
110.5600526216
 10
242.6908750785
 20
110.5156829355
 10
241.9405026371
 20
110.3842789795
 10
241.2489554345
 20
110.1708905339
 10
240.6428092418
 20
109.8837179969
 10
240.1453579174
 20
109.5337972481
 10
239.7757182365
 20
109.1345755457
 10
239.548095245
 20
108.7013947558
 10
239.4712363666
 20
108.2509017732
 10
239.548095245
 20
107.8004087907
 10
239.7757182365
 20
107.3672280008
 10
240.1453579174
 20
106.9680062984
 10
240.6428092418
 20
106.6180855496
  0
LWPOLYLINE
  5
295
330
1F
100
AcDbEntity
  8
0
  6
Continuous
 62
     7
370
    15
100
AcDbPolyline
 90
       33
 70
   128
 43
0.0
 10
222.6822969997
 20
116.9864685697
 10
223.2884431924
 20
116.6992960328
 10
223.979990395
 20
116.4859075871
 10
224.7303628364
 20
116.3545036311
 10
225.5107241244
 20
116.310133945
 10
226.2910854125
 20
116.3545036311
 10
227.0414578539
 20
116.4859075871
 10
227.7330050565
 20
116.6992960328
 10
228.3391512492
 20
116.9864685697
 10
228.8366025737
 20
117.3363893185
 10
229.2062422545
 20
117.7356110209
 10
229.4338652461
 20
118.1687918108
 10
229.5107241244
 20
118.6192847934
 10
229.4338652461
 20
119.069777776
 10
229.2062422545
 20
119.5029585659
 10
228.8366025737
 20
119.9021802683
 10
228.3391512492
 20
120.252101017
 10
227.7330050565
 20
120.539273554
 10
227.0414578539
 20
120.7526619997
 10
226.2910854125
 20
120.8840659557
 10
225.5107241244
 20
120.9284356417
 10
224.7303628364
 20
120.8840659557
 10
223.979990395
 20
120.7526619997
 10
223.2884431924
 20
120.539273554
 10
222.6822969997
 20
120.252101017
 10
222.1848456752
 20
119.9021802683
 10
221.8152059944
 20
119.5029585659
 10
221.5875830028
 20
119.069777776
 10
221.5107241244
 20
118.6192847934
 10
221.5875830028
 20
118.1687918108
 10
221.8152059944
 20
117.7356110209
 10
222.1848456752
 20
117.3363893185
 10
222.6822969997
 20
116.9864685697
  0
LINE
  5
296
330
1F
100
AcDbEntity
  8
0
  6
Continuous
 62
     7
370
    15
100
AcDbLine
 10
246.5117955257
 20
104.0463999974
 30
0.0
 11
246.5117955257
 21
99.147155126
 31
0.0
  0
ARC
  5
297
330
1F
100
AcDbEntity
  8
0
  6
Continuous
 62
     7
370
    15
100
AcDbCircle
 10
242.9762616198
 20
105.933223935
 30
0.0
 40
7.651844867748245
100
AcDbArc
 50
242.4805390039
 51
297.5194609961
  0
LINE
  5
298
330
1F
100
AcDbEntity
  8
0
  6
Continuous
 62
     7
370
    15
100
AcDbLine
 10
239.4407277138
 20
99.147155126
 30
0.0
 11
239.4407277138
 21
104.0463999974
 31
0.0
  0
LINE
  5
299
330
1F
100
AcDbEntity
  8
0
  6
Continuous
 62
     7
370
    15
100
AcDbLine
 10
254.2899701187
 20
107.7201038005
 30
0.0
 11
254.2899701187
 21
108.5366446124
 31
0.0
  0
LINE
  5
29A
330
1F
100
AcDbEntity
  8
0
  6
Continuous
 62
     7
370
    15
100
AcDbLine
 10
266.3107853989
 20
110.5768686916
 30
0.0
 11
266.3107853989
 21
114.659572751
 31
0.0
  0
LINE
  5
29B
330
1F
100
AcDbEntity
  8
0
  6
Continuous
 62
     7
370
    15
100
AcDbLine
 10
246.5117955257
 20
99.147155126
 30
0.0
 11
266.3107853989
 21
110.5768686916
 31
0.0
  0
LINE
  5
29C
330
1F
100
AcDbEntity
  8
0
  6
Continuous
 62
     7
370
    15
100
AcDbLine
 10
232.7232132925
 20
104.658175281
 30
0.0
 11
232.7232132925
 21
107.9243385285
 31
0.0
  0
LINE
  5
29D
330
1F
100
AcDbEntity
  8
0
  6
Continuous
 62
     7
370
    15
100
AcDbLine
 10
231.3089997302
 20
103.841501769
 30
0.0
 11
239.4407277138
 21
99.147155126
 31
0.0
  0
LINE
  5
29E
330
1F
100
AcDbEntity
  8
0
  6
Continuous
 62
     7
370
    15
100
AcDbLine
 10
231.3089997302
 20
103.841501769
 30
0.0
 11
231.3089997302
 21
105.4745833928
 31
0.0
  0
LINE
  5
29F
330
1F
100
AcDbEntity
  8
0
  6
Continuous
 62
     7
370
    15
100
AcDbLine
 10
231.3089997302
 20
105.4745833928
 30
0.0
 11
232.7232132925
 21
104.658175281
 31
0.0
  0
ARC
  5
2A0
330
1F
100
AcDbEntity
  8
0
  6
Continuous
 62
     7
370
    15
100
AcDbCircle
 10
243.4712363666
 20
101.1584449231
 30
0.0
 40
6.148347500709928
100
AcDbArc
 50
62.6157527882
 51
117.3842472118
  0
ARC
  5
2A1
330
1F
100
AcDbEntity
  8
0
  6
Continuous
 62
     7
370
    15
100
AcDbCircle
 10
243.4712363666
 20
102.7260390814
 30
0.0
 40
3.564890324403359
100
AcDbArc
 50
69.2557086313
 51
110.7442913687
  0
LINE
  5
2A2
330
1F
100
AcDbEntity
  8
0
  6
Continuous
 62
     7
370
    15
100
AcDbLine
 10
231.3089997302
 20
105.4745833928
 30
0.0
 11
232.7232132925
 21
106.2909915046
 31
0.0
  0
ARC
  5
2A3
330
1F
100
AcDbEntity
  8
0
  6
Continuous
 62
     7
370
    15
100
AcDbCircle
 10
234.429966581
 20
107.5909405364
 30
0.0
 40
4.677648440794524
100
AcDbArc
 50
44.1288981855
 51
121.0670864648
  0
LINE
  5
2A4
330
1F
100
AcDbEntity
  8
0
  6
Continuous
 62
     7
370
    15
100
AcDbLine
 10
226.3592522619
 20
108.3320117842
 30
0.0
 11
232.0161065114
 21
111.5976442315
 31
0.0
  0
LINE
  5
2A5
330
1F
100
AcDbEntity
  8
0
  6
Continuous
 62
     7
370
    15
100
AcDbLine
 10
224.9450386995
 20
109.148419896
 30
0.0
 11
226.3592522619
 21
108.3320117842
 31
0.0
  0
LINE
  5
2A6
330
1F
100
AcDbEntity
  8
0
  6
Continuous
 62
     7
370
    15
100
AcDbLine
 10
224.9450386995
 20
109.148419896
 30
0.0
 11
230.601892949
 21
112.4140523433
 31
0.0
  0
ARC
  5
2A7
330
1F
100
AcDbEntity
  8
0
  6
Continuous
 62
     7
370
    15
100
AcDbCircle
 10
234.4255215324
 20
105.3690611969
 30
0.0
 40
8.015736759452526
100
AcDbArc
 50
53.3733566332
 51
118.4906433123
  0
LINE
  5
2A8
330
1F
100
AcDbEntity
  8
0
  6
Continuous
 62
     7
370
    15
100
AcDbLine
 10
230.601892949
 20
112.4140523433
 30
0.0
 11
230.601892949
 21
115.6802155908
 31
0.0
  0
LINE
  5
2A9
330
1F
100
AcDbEntity
  8
0
  6
Continuous
 62
     7
370
    15
100
AcDbLine
 10
226.3592522619
 20
106.6989301604
 30
0.0
 11
226.3592522619
 21
108.3320117842
 31
0.0
  0
LINE
  5
2AA
330
1F
100
AcDbEntity
  8
0
  6
Continuous
 62
     7
370
    15
100
AcDbLine
 10
218.2275242782
 20
116.2925216747
 30
0.0
 11
218.2275242782
 21
111.3932768034
 31
0.0
  0
LINE
  5
2AB
330
1F
100
AcDbEntity
  8
0
  6
Continuous
 62
     7
370
    15
100
AcDbLine
 10
224.9450386995
 20
109.148419896
 30
0.0
 11
224.9450386995
 21
112.4145831435
 31
0.0
  0
LINE
  5
2AC
330
1F
100
AcDbEntity
  8
0
  6
Continuous
 62
     7
370
    15
100
AcDbLine
 10
218.2275242782
 20
111.3932768034
 30
0.0
 11
226.3592522619
 21
106.6989301604
 31
0.0
  0
LINE
  5
2AD
330
1F
100
AcDbEntity
  8
0
  6
Continuous
 62
     7
370
    15
100
AcDbLine
 10
232.0161065114
 20
109.9645626077
 30
0.0
 11
232.0161065114
 21
111.5976442315
 31
0.0
  0
LINE
  5
2AE
330
1F
100
AcDbEntity
  8
0
  6
Continuous
 62
     7
370
    15
100
AcDbLine
 10
232.0161065114
 20
109.9645626077
 30
0.0
 11
226.3592522619
 21
106.6989301604
 31
0.0
  0
ARC
  5
2AF
330
1F
100
AcDbEntity
  8
0
  6
Continuous
 62
     7
370
    15
100
AcDbCircle
 10
234.5045232203
 20
105.1615323386
 30
0.0
 40
5.409373113679537
100
AcDbArc
 50
67.3677876217
 51
117.3883609642
  0
ARC
  5
2B0
330
1F
100
AcDbEntity
  8
0
  6
Continuous
 62
     7
370
    15
100
AcDbCircle
 10
225.5107241244
 20
111.5268279433
 30
0.0
 40
6.14834750070993
100
AcDbArc
 50
62.6157527882
 51
117.3842472118
  0
ARC
  5
2B1
330
1F
100
AcDbEntity
  8
0
  6
Continuous
 62
     7
370
    15
100
AcDbCircle
 10
265.8956577116
 20
111.4930895572
 30
0.0
 40
1.005878556987477
100
AcDbArc
 50
294.3746582936
 51
354.3052007488
  0
ARC
  5
2B2
330
1F
100
AcDbEntity
  8
0
  6
Continuous
 62
     7
370
    15
100
AcDbCircle
 10
219.2019394213
 20
113.6383354858
 30
0.0
 40
2.447401348072303
100
AcDbArc
 50
184.7822660226
 51
246.537874935
  0
ARC
  5
2B3
330
1F
100
AcDbEntity
  8
0
  6
Continuous
 62
     7
370
    15
100
AcDbCircle
 10
225.5107241244
 20
113.0944221015
 30
0.0
 40
3.564890324405443
100
AcDbArc
 50
69.2557086314
 51
110.7442913686
  0
LINE
  5
2B4
330
1F
100
AcDbEntity
  8
0
  6
Continuous
 62
     8
370
    15
100
AcDbLine
 10
250.7544362128
 20
139.1565933079
 30
0.0
 11
251.8587322886
 21
139.794089863
 31
0.0
  0
LINE
  5
2B5
330
1F
100
AcDbEntity
  8
0
  6
Continuous
 62
     8
370
    15
100
AcDbLine
 10
252.5657955405
 20
138.5693198663
 30
0.0
 11
251.461542994
 21
137.9318484401
 31
0.0
  0
LINE
  5
2B6
330
1F
100
AcDbEntity
  8
0
  6
Continuous
 62
     8
370
    15
100
AcDbLine
 10
251.461542994
 20
113.4356240836
 30
0.0
 11
252.8757565564
 21
114.2520321954
 31
0.0
  0
LINE
  5
2B7
330
1F
100
AcDbEntity
  8
0
  6
Continuous
 62
     8
370
    15
100
AcDbLine
 10
232.1920364744
 20
152.9329913868
 30
0.0
 11
229.5412327772
 21
151.4027149853
 31
0.0
  0
LINE
  5
2B8
330
1F
100
AcDbEntity
  8
0
  6
Continuous
 62
     8
370
    15
100
AcDbLine
 10
250.7544362128
 20
111.3942057038
 30
0.0
 11
252.8757565283
 21
112.6188178554
 31
0.0
  0
LINE
  5
2B9
330
1F
100
AcDbEntity
  8
0
  6
Continuous
 62
     8
370
    15
100
AcDbLine
 10
229.607997122
 20
153.0739407447
 30
0.0
 11
227.4199124336
 21
151.8107863411
 31
0.0
  0
LINE
  5
2BA
330
1F
100
AcDbEntity
  8
0
  6
Continuous
 62
     8
370
    15
100
AcDbLine
 10
230.9556762077
 20
124.456868193
 30
0.0
 11
229.5412327772
 21
123.6403273812
 31
0.0
  0
LINE
  5
2BB
330
1F
100
AcDbEntity
  8
0
  6
Continuous
 62
     8
370
    15
100
AcDbLine
 10
227.4199124336
 20
127.3145619846
 30
0.0
 11
228.834125996
 21
128.1309700964
 31
0.0
  0
ENDSEC
  0
SECTION
  2
OBJECTS
  0
DICTIONARY
  5
C
330
0
100
AcDbDictionary
281
     1
  3
ACAD_GROUP
350
D
  3
ACAD_LAYOUT
350
1A
  3
ACAD_MLINESTYLE
350
17
  3
ACAD_PLOTSETTINGS
350
19
  3
ACAD_PLOTSTYLENAME
350
E
  3
ACAD_SCALELIST
350
47
  0
DICTIONARY
  5
D
102
{ACAD_REACTORS
330
C
102
}
330
C
100
AcDbDictionary
281
     1
  0
DICTIONARY
  5
1A
102
{ACAD_REACTORS
330
C
102
}
330
C
100
AcDbDictionary
281
     1
  3
Layout1
350
1E
  3
Layout2
350
26
  3
Model
350
22
  0
DICTIONARY
  5
17
102
{ACAD_REACTORS
330
C
102
}
330
C
100
AcDbDictionary
281
     1
  3
Standard
350
18
  0
DICTIONARY
  5
19
102
{ACAD_REACTORS
330
C
102
}
330
C
100
AcDbDictionary
281
     1
  0
ACDBDICTIONARYWDFLT
  5
E
102
{ACAD_REACTORS
330
C
102
}
330
C
100
AcDbDictionary
281
     1
  3
Normal
350
F
100
AcDbDictionaryWithDefault
340
F
  0
DICTIONARY
  5
47
102
{ACAD_REACTORS
330
C
102
}
330
C
100
AcDbDictionary
281
     1
  3
A0
350
48
  3
A1
350
49
  3
A2
350
4A
  3
A3
350
4B
  3
A4
350
4C
  3
A5
350
4D
  3
A6
350
4E
  3
A7
350
4F
  3
A8
350
50
  3
A9
350
51
  3
B0
350
52
  3
B1
350
53
  3
B2
350
54
  3
B3
350
55
  3
B4
350
56
  3
B5
350
57
  3
B6
350
58
  3
B7
350
59
  3
B8
350
5A
  3
B9
350
5B
  3
C0
350
5C
  3
C1
350
5D
  3
C2
350
5E
  3
C3
350
5F
  3
C4
350
60
  3
C5
350
61
  3
C6
350
62
  3
C7
350
63
  3
C8
350
64
  3
C9
350
65
  3
D0
350
66
  3
D1
350
67
  3
D2
350
68
  0
LAYOUT
  5
1E
102
{ACAD_REACTORS
330
1A
102
}
330
1A
100
AcDbPlotSettings
  1

  2
none_device
  4

  6

 40
0.0
 41
0.0
 42
0.0
 43
0.0
 44
0.0
 45
0.0
 46
0.0
 47
0.0
 48
0.0
 49
0.0
140
0.0
141
0.0
142
1.0
143
1.0
 70
   688
 72
     1
 73
     0
 74
     5
  7

 75
    16
147
1.0
148
0.0
149
0.0
100
AcDbLayout
  1
Layout1
 70
     1
 71
     1
 10
0.0
 20
0.0
 11
420.0
 21
297.0
 12
0.0
 22
0.0
 32
0.0
 14
1.0000000000E+20
 24
1.0000000000E+20
 34
1.0000000000E+20
 15
-1.0000000000E+20
 25
-1.0000000000E+20
 35
-1.0000000000E+20
146
0.0
 13
0.0
 23
0.0
 33
0.0
 16
1.0
 26
0.0
 36
0.0
 17
0.0
 27
1.0
 37
0.0
 76
     0
330
1B
  0
LAYOUT
  5
26
102
{ACAD_REACTORS
330
1A
102
}
330
1A
100
AcDbPlotSettings
  1

  2
none_device
  4

  6

 40
0.0
 41
0.0
 42
0.0
 43
0.0
 44
0.0
 45
0.0
 46
0.0
 47
0.0
 48
0.0
 49
0.0
140
0.0
141
0.0
142
1.0
143
1.0
 70
   688
 72
     1
 73
     0
 74
     5
  7

 75
    16
147
1.0
148
0.0
149
0.0
100
AcDbLayout
  1
Layout2
 70
     1
 71
     2
 10
0.0
 20
0.0
 11
0.0
 21
0.0
 12
0.0
 22
0.0
 32
0.0
 14
0.0
 24
0.0
 34
0.0
 15
0.0
 25
0.0
 35
0.0
146
0.0
 13
0.0
 23
0.0
 33
0.0
 16
1.0
 26
0.0
 36
0.0
 17
0.0
 27
1.0
 37
0.0
 76
     0
330
23
  0
LAYOUT
  5
22
102
{ACAD_REACTORS
330
1A
102
}
330
1A
100
AcDbPlotSettings
  1

  2
none_device
  4
Letter_(8.50_x_11.00_Inches)
  6

 40
6.35
 41
6.35
 42
6.35000508
 43
6.35000508
 44
215.9
 45
279.4
 46
0.0
 47
0.0
 48
0.0
 49
0.0
140
0.0
141
0.0
142
1.0
143
1.0
 70
  1712
 72
     1
 73
     0
 74
     0
  7

 75
     0
147
1.0
148
0.0
149
0.0
100
AcDbLayout
  1
Model
 70
     1
 71
     0
 10
0.0
 20
0.0
 11
297.0
 21
210.0
 12
0.0
 22
0.0
 32
0.0
 14
0.0
 24
0.0
 34
0.0
 15
297.0
 25
210.0
 35
0.0
146
0.0
 13
0.0
 23
0.0
 33
0.0
 16
1.0
 26
0.0
 36
0.0
 17
0.0
 27
1.0
 37
0.0
 76
     0
330
1F
331
29
  0
MLINESTYLE
  5
18
102
{ACAD_REACTORS
330
17
102
}
330
17
100
AcDbMlineStyle
  2
Standard
 70
     0
  3

 62
   256
 51
90.0
 52
90.0
 71
     2
 49
0.5
 62
   256
  6
BYLAYER
 49
-0.5
 62
   256
  6
BYLAYER
  0
ACDBPLACEHOLDER
  5
F
102
{ACAD_REACTORS
330
E
102
}
330
E
  0
SCALE
  5
48
102
{ACAD_REACTORS
330
47
102
}
330
47
100
AcDbScale
 70
     0
300
1:1
140
1.0
141
1.0
290
     1
  0
SCALE
  5
49
102
{ACAD_REACTORS
330
47
102
}
330
47
100
AcDbScale
 70
     0
300
1:2
140
1.0
141
2.0
290
     0
  0
SCALE
  5
4A
102
{ACAD_REACTORS
330
47
102
}
330
47
100
AcDbScale
 70
     0
300
1:4
140
1.0
141
4.0
290
     0
  0
SCALE
  5
4B
102
{ACAD_REACTORS
330
47
102
}
330
47
100
AcDbScale
 70
     0
300
1:5
140
1.0
141
5.0
290
     0
  0
SCALE
  5
4C
102
{ACAD_REACTORS
330
47
102
}
330
47
100
AcDbScale
 70
     0
300
1:8
140
1.0
141
8.0
290
     0
  0
SCALE
  5
4D
102
{ACAD_REACTORS
330
47
102
}
330
47
100
AcDbScale
 70
     0
300
1:10
140
1.0
141
10.0
290
     0
  0
SCALE
  5
4E
102
{ACAD_REACTORS
330
47
102
}
330
47
100
AcDbScale
 70
     0
300
1:16
140
1.0
141
16.0
290
     0
  0
SCALE
  5
4F
102
{ACAD_REACTORS
330
47
102
}
330
47
100
AcDbScale
 70
     0
300
1:20
140
1.0
141
20.0
290
     0
  0
SCALE
  5
50
102
{ACAD_REACTORS
330
47
102
}
330
47
100
AcDbScale
 70
     0
300
1:30
140
1.0
141
30.0
290
     0
  0
SCALE
  5
51
102
{ACAD_REACTORS
330
47
102
}
330
47
100
AcDbScale
 70
     0
300
1:40
140
1.0
141
40.0
290
     0
  0
SCALE
  5
52
102
{ACAD_REACTORS
330
47
102
}
330
47
100
AcDbScale
 70
     0
300
1:50
140
1.0
141
50.0
290
     0
  0
SCALE
  5
53
102
{ACAD_REACTORS
330
47
102
}
330
47
100
AcDbScale
 70
     0
300
1:100
140
1.0
141
100.0
290
     0
  0
SCALE
  5
54
102
{ACAD_REACTORS
330
47
102
}
330
47
100
AcDbScale
 70
     0
300
2:1
140
2.0
141
1.0
290
     0
  0
SCALE
  5
55
102
{ACAD_REACTORS
330
47
102
}
330
47
100
AcDbScale
 70
     0
300
4:1
140
4.0
141
1.0
290
     0
  0
SCALE
  5
56
102
{ACAD_REACTORS
330
47
102
}
330
47
100
AcDbScale
 70
     0
300
8:1
140
8.0
141
1.0
290
     0
  0
SCALE
  5
57
102
{ACAD_REACTORS
330
47
102
}
330
47
100
AcDbScale
 70
     0
300
10:1
140
10.0
141
1.0
290
     0
  0
SCALE
  5
58
102
{ACAD_REACTORS
330
47
102
}
330
47
100
AcDbScale
 70
     0
300
100:1
140
100.0
141
1.0
290
     0
  0
SCALE
  5
59
102
{ACAD_REACTORS
330
47
102
}
330
47
100
AcDbScale
 70
     0
300
1/128" = 1'-0"
140
0.0078125
141
12.0
290
     0
  0
SCALE
  5
5A
102
{ACAD_REACTORS
330
47
102
}
330
47
100
AcDbScale
 70
     0
300
1/64" = 1'-0"
140
0.015625
141
12.0
290
     0
  0
SCALE
  5
5B
102
{ACAD_REACTORS
330
47
102
}
330
47
100
AcDbScale
 70
     0
300
1/32" = 1'-0"
140
0.03125
141
12.0
290
     0
  0
SCALE
  5
5C
102
{ACAD_REACTORS
330
47
102
}
330
47
100
AcDbScale
 70
     0
300
1/16" = 1'-0"
140
0.0625
141
12.0
290
     0
  0
SCALE
  5
5D
102
{ACAD_REACTORS
330
47
102
}
330
47
100
AcDbScale
 70
     0
300
3/32" = 1'-0"
140
0.09375
141
12.0
290
     0
  0
SCALE
  5
5E
102
{ACAD_REACTORS
330
47
102
}
330
47
100
AcDbScale
 70
     0
300
1/8" = 1'-0"
140
0.125
141
12.0
290
     0
  0
SCALE
  5
5F
102
{ACAD_REACTORS
330
47
102
}
330
47
100
AcDbScale
 70
     0
300
3/16" = 1'-0"
140
0.1875
141
12.0
290
     0
  0
SCALE
  5
60
102
{ACAD_REACTORS
330
47
102
}
330
47
100
AcDbScale
 70
     0
300
1/4" = 1'-0"
140
0.25
141
12.0
290
     0
  0
SCALE
  5
61
102
{ACAD_REACTORS
330
47
102
}
330
47
100
AcDbScale
 70
     0
300
3/8" = 1'-0"
140
0.375
141
12.0
290
     0
  0
SCALE
  5
62
102
{ACAD_REACTORS
330
47
102
}
330
47
100
AcDbScale
 70
     0
300
1/2" = 1'-0"
140
0.5
141
12.0
290
     0
  0
SCALE
  5
63
102
{ACAD_REACTORS
330
47
102
}
330
47
100
AcDbScale
 70
     0
300
3/4" = 1'-0"
140
0.75
141
12.0
290
     0
  0
SCALE
  5
64
102
{ACAD_REACTORS
330
47
102
}
330
47
100
AcDbScale
 70
     0
300
1" = 1'-0"
140
1.0
141
12.0
290
     0
  0
SCALE
  5
65
102
{ACAD_REACTORS
330
47
102
}
330
47
100
AcDbScale
 70
     0
300
1-1/2" = 1'-0"
140
1.5
141
12.0
290
     0
  0
SCALE
  5
66
102
{ACAD_REACTORS
330
47
102
}
330
47
100
AcDbScale
 70
     0
300
3" = 1'-0"
140
3.0
141
12.0
290
     0
  0
SCALE
  5
67
102
{ACAD_REACTORS
330
47
102
}
330
47
100
AcDbScale
 70
     0
300
6" = 1'-0"
140
6.0
141
12.0
290
     0
  0
SCALE
  5
68
102
{ACAD_REACTORS
330
47
102
}
330
47
100
AcDbScale
 70
     0
300
1'-0" = 1'-0"
140
12.0
141
12.0
290
     0
  0
ENDSEC
  0
EOF
