  0
SECTION
  2
HEADER
  9
$ACADVER
  1
AC1015
  9
$ACADMAINTVER
 70
     6
  9
$DWGCODEPAGE
  3
ANSI_950
  9
$INSBASE
 10
0.0
 20
0.0
 30
0.0
  9
$EXTMIN
 10
0.0
 20
0.0
 30
0.0
  9
$EXTMAX
 10
445.5
 20
315.0
 30
0.0
  9
$LIMMIN
 10
0.0
 20
0.0
  9
$LIMMAX
 10
445.5
 20
315.0
  9
$ORTHOMODE
 70
     0
  9
$REGENMODE
 70
     1
  9
$FILLMODE
 70
     1
  9
$QTEXTMODE
 70
     0
  9
$MIRRTEXT
 70
     1
  9
$LTSCALE
 40
1.5
  9
$ATTMODE
 70
     1
  9
$TEXTSIZE
 40
3.75
  9
$TRACEWID
 40
1.0
  9
$TEXTSTYLE
  7
STANDARD
  9
$CLAYER
  8
0
  9
$CELTYPE
  6
ByLayer
  9
$CECOLOR
 62
   256
  9
$CELTSCALE
 40
1.0
  9
$DISPSILH
 70
     0
  9
$DIMSCALE
 40
1.0
  9
$DIMASZ
 40
3.0
  9
$DIMEXO
 40
1.5
  9
$DIMDLI
 40
3.75
  9
$DIMRND
 40
0.0
  9
$DIMDLE
 40
0.0
  9
$DIMEXE
 40
1.5
  9
$DIMTP
 40
0.0
  9
$DIMTM
 40
0.0
  9
$DIMTXT
 40
3.75
  9
$DIMCEN
 40
2.5
  9
$DIMTSZ
 40
0.0
  9
$DIMTOL
 70
     0
  9
$DIMLIM
 70
     0
  9
$DIMTIH
 70
     1
  9
$DIMTOH
 70
     1
  9
$DIMSE1
 70
     0
  9
$DIMSE2
 70
     0
  9
$DIMTAD
 70
     1
  9
$DIMZIN
 70
     0
  9
$DIMBLK
  1

  9
$DIMASO
 70
     1
  9
$DIMSHO
 70
     1
  9
$DIMPOST
  1

  9
$DIMAPOST
  1

  9
$DIMALT
 70
     0
  9
$DIMALTD
 70
     3
  9
$DIMALTF
 40
0.0393700787
  9
$DIMLFAC
 40
1.0
  9
$DIMTOFL
 70
     1
  9
$DIMTVP
 40
0.0
  9
$DIMTIX
 70
     0
  9
$DIMSOXD
 70
     0
  9
$DIMSAH
 70
     0
  9
$DIMBLK1
  1

  9
$DIMBLK2
  1

  9
$DIMSTYLE
  2
ISO-25
  9
$DIMCLRD
 70
     0
  9
$DIMCLRE
 70
     0
  9
$DIMCLRT
 70
     0
  9
$DIMTFAC
 40
1.0
  9
$DIMGAP
 40
1.5
  9
$DIMJUST
 70
     0
  9
$DIMSD1
 70
     0
  9
$DIMSD2
 70
     0
  9
$DIMTOLJ
 70
     0
  9
$DIMTZIN
 70
     0
  9
$DIMALTZ
 70
     0
  9
$DIMALTTZ
 70
     0
  9
$DIMUPT
 70
     0
  9
$DIMDEC
 70
     2
  9
$DIMTDEC
 70
     2
  9
$DIMALTU
 70
     2
  9
$DIMALTTD
 70
     3
  9
$DIMTXSTY
  7
STANDARD
  9
$DIMAUNIT
 70
     0
  9
$DIMADEC
 70
     1
  9
$DIMALTRND
 40
0.0
  9
$DIMAZIN
 70
     0
  9
$DIMDSEP
 70
    44
  9
$DIMATFIT
 70
     3
  9
$DIMFRAC
 70
     0
  9
$DIMLDRBLK
  1

  9
$DIMLUNIT
 70
     2
  9
$DIMLWD
 70
    -2
  9
$DIMLWE
 70
    -2
  9
$DIMTMOVE
 70
     0
  9
$LUNITS
 70
     2
  9
$LUPREC
 70
     2
  9
$SKETCHINC
 40
1.0
  9
$FILLETRAD
 40
10.0
  9
$AUNITS
 70
     0
  9
$AUPREC
 70
     1
  9
$MENU
  1
.
  9
$ELEVATION
 40
0.0
  9
$PELEVATION
 40
0.0
  9
$THICKNESS
 40
0.0
  9
$LIMCHECK
 70
     0
  9
$CHAMFERA
 40
0.0
  9
$CHAMFERB
 40
0.0
  9
$CHAMFERC
 40
0.0
  9
$CHAMFERD
 40
0.0
  9
$SKPOLY
 70
     0
  9
$TDCREATE
 40
2457497.461436817
  9
$TDUCREATE
 40
2457497.128103484
  9
$TDUPDATE
 40
2457497.461444225
  9
$TDUUPDATE
 40
2457497.128110891
  9
$TDINDWG
 40
0.0000000116
  9
$TDUSRTIMER
 40
0.0000000116
  9
$USRTIMER
 70
     1
  9
$ANGBASE
 50
0.0
  9
$ANGDIR
 70
     0
  9
$PDMODE
 70
     0
  9
$PDSIZE
 40
-1.0
  9
$PLINEWID
 40
0.0
  9
$SPLFRAME
 70
     0
  9
$SPLINETYPE
 70
     6
  9
$SPLINESEGS
 70
     8
  9
$HANDSEED
  5
622
  9
$SURFTAB1
 70
     6
  9
$SURFTAB2
 70
     6
  9
$SURFTYPE
 70
     6
  9
$SURFU
 70
     6
  9
$SURFV
 70
     6
  9
$UCSBASE
  2

  9
$UCSNAME
  2

  9
$UCSORG
 10
0.0
 20
0.0
 30
0.0
  9
$UCSXDIR
 10
1.0
 20
0.0
 30
0.0
  9
$UCSYDIR
 10
0.0
 20
1.0
 30
0.0
  9
$UCSORTHOREF
  2

  9
$UCSORTHOVIEW
 70
     0
  9
$UCSORGTOP
 10
0.0
 20
0.0
 30
0.0
  9
$UCSORGBOTTOM
 10
0.0
 20
0.0
 30
0.0
  9
$UCSORGLEFT
 10
0.0
 20
0.0
 30
0.0
  9
$UCSORGRIGHT
 10
0.0
 20
0.0
 30
0.0
  9
$UCSORGFRONT
 10
0.0
 20
0.0
 30
0.0
  9
$UCSORGBACK
 10
0.0
 20
0.0
 30
0.0
  9
$PUCSBASE
  2

  9
$PUCSNAME
  2

  9
$PUCSORG
 10
0.0
 20
0.0
 30
0.0
  9
$PUCSXDIR
 10
1.0
 20
0.0
 30
0.0
  9
$PUCSYDIR
 10
0.0
 20
1.0
 30
0.0
  9
$PUCSORTHOREF
  2

  9
$PUCSORTHOVIEW
 70
     0
  9
$PUCSORGTOP
 10
0.0
 20
0.0
 30
0.0
  9
$PUCSORGBOTTOM
 10
0.0
 20
0.0
 30
0.0
  9
$PUCSORGLEFT
 10
0.0
 20
0.0
 30
0.0
  9
$PUCSORGRIGHT
 10
0.0
 20
0.0
 30
0.0
  9
$PUCSORGFRONT
 10
0.0
 20
0.0
 30
0.0
  9
$PUCSORGBACK
 10
0.0
 20
0.0
 30
0.0
  9
$USERI1
 70
     0
  9
$USERI2
 70
     0
  9
$USERI3
 70
     0
  9
$USERI4
 70
     0
  9
$USERI5
 70
     0
  9
$USERR1
 40
0.0
  9
$USERR2
 40
0.0
  9
$USERR3
 40
0.0
  9
$USERR4
 40
0.0
  9
$USERR5
 40
0.0
  9
$WORLDVIEW
 70
     1
  9
$SHADEDGE
 70
     3
  9
$SHADEDIF
 70
    70
  9
$TILEMODE
 70
     1
  9
$MAXACTVP
 70
    64
  9
$PINSBASE
 10
0.0
 20
0.0
 30
0.0
  9
$PLIMCHECK
 70
     0
  9
$PEXTMIN
 10
1.0000000000E+20
 20
1.0000000000E+20
 30
1.0000000000E+20
  9
$PEXTMAX
 10
-1.0000000000E+20
 20
-1.0000000000E+20
 30
-1.0000000000E+20
  9
$PLIMMIN
 10
0.0
 20
0.0
  9
$PLIMMAX
 10
420.0
 20
297.0
  9
$UNITMODE
 70
     0
  9
$VISRETAIN
 70
     1
  9
$PLINEGEN
 70
     0
  9
$PSLTSCALE
 70
     1
  9
$TREEDEPTH
 70
  3020
  9
$CMLSTYLE
  2
Standard
  9
$CMLJUST
 70
     0
  9
$CMLSCALE
 40
20.0
  9
$PROXYGRAPHICS
 70
     1
  9
$MEASUREMENT
 70
     1
  9
$CELWEIGHT
370
    -1
  9
$ENDCAPS
280
     0
  9
$JOINSTYLE
280
     0
  9
$LWDISPLAY
290
     1
  9
$INSUNITS
 70
     4
  9
$HYPERLINKBASE
  1

  9
$STYLESHEET
  1

  9
$XEDIT
290
     1
  9
$CEPSNTYPE
380
     0
  9
$PSTYLEMODE
290
     1
  9
$FINGERPRINTGUID
  2
{FA2718CC-A869-46AC-AEAC-C73C7605C99F}
  9
$VERSIONGUID
  2
{FAEB1C32-E019-11D5-929B-00C0DF256EC4}
  9
$EXTNAMES
290
     1
  9
$PSVPSCALE
 40
0.0
  9
$OLESTARTUP
290
     0
  0
ENDSEC
  0
SECTION
  2
CLASSES
  0
CLASS
  1
ACDBDICTIONARYWDFLT
  2
AcDbDictionaryWithDefault
  3
ObjectDBX Classes
 90
        0
280
     0
281
     0
  0
CLASS
  1
VISUALSTYLE
  2
AcDbVisualStyle
  3
ObjectDBX Classes
 90
     4095
280
     0
281
     0
  0
CLASS
  1
MATERIAL
  2
AcDbMaterial
  3
ObjectDBX Classes
 90
     1153
280
     0
281
     0
  0
CLASS
  1
SCALE
  2
AcDbScale
  3
ObjectDBX Classes
 90
     1153
280
     0
281
     0
  0
CLASS
  1
TABLESTYLE
  2
AcDbTableStyle
  3
ObjectDBX Classes
 90
     4095
280
     0
281
     0
  0
CLASS
  1
MLEADERSTYLE
  2
AcDbMLeaderStyle
  3
ACDB_MLEADERSTYLE_CLASS
 90
     4095
280
     0
281
     0
  0
CLASS
  1
SUN
  2
AcDbSun
  3
SCENEOE
 90
     1153
280
     0
281
     0
  0
CLASS
  1
ACDBPLACEHOLDER
  2
AcDbPlaceHolder
  3
ObjectDBX Classes
 90
        0
280
     0
281
     0
  0
CLASS
  1
LAYOUT
  2
AcDbLayout
  3
ObjectDBX Classes
 90
        0
280
     0
281
     0
  0
ENDSEC
  0
SECTION
  2
TABLES
  0
TABLE
  2
VPORT
  5
8
330
0
100
AcDbSymbolTable
 70
     1
  0
VPORT
  5
29
330
8
100
AcDbSymbolTableRecord
100
AcDbViewportTableRecord
  2
*Active
 70
     0
 10
0.0
 20
0.0
 11
1.0
 21
1.0
 12
222.75
 22
157.5
 13
0.0
 23
0.0
 14
10.0
 24
10.0
 15
10.0
 25
10.0
 16
0.0
 26
0.0
 36
1.0
 17
0.0
 27
0.0
 37
0.0
 40
315.0
 41
1.4142857143
 42
50.0
 43
0.0
 44
0.0
 50
0.0
 51
0.0
 71
     0
 72
  2000
 73
     1
 74
     3
 75
     0
 76
     0
 77
     0
 78
     0
281
     0
 65
     1
110
0.0
120
0.0
130
0.0
111
1.0
121
0.0
131
0.0
112
0.0
122
1.0
132
0.0
 79
     0
146
0.0
  0
ENDTAB
  0
TABLE
  2
LTYPE
  5
5
330
0
100
AcDbSymbolTable
 70
     6
  0
LTYPE
  5
14
330
5
100
AcDbSymbolTableRecord
100
AcDbLinetypeTableRecord
  2
ByBlock
 70
     0
  3

 72
    65
 73
     0
 40
0.0
  0
LTYPE
  5
15
330
5
100
AcDbSymbolTableRecord
100
AcDbLinetypeTableRecord
  2
ByLayer
 70
     0
  3

 72
    65
 73
     0
 40
0.0
  0
LTYPE
  5
16
330
5
100
AcDbSymbolTableRecord
100
AcDbLinetypeTableRecord
  2
Continuous
 70
     0
  3
Solid line
 72
    65
 73
     0
 40
0.0
  0
LTYPE
  5
6E
330
5
100
AcDbSymbolTableRecord
100
AcDbLinetypeTableRecord
  2
HIDDEN
 70
     0
  3
Hidden __ __ __ __ __ __ __ __ __ __ __ __ __ __
 72
    65
 73
     2
 40
1.905
 49
1.27
 74
     0
 49
-0.635
 74
     0
  0
LTYPE
  5
6F
330
5
100
AcDbSymbolTableRecord
100
AcDbLinetypeTableRecord
  2
PHANTOM
 70
     0
  3
Phantom ______  __  __  ______  __  __  ______
 72
    65
 73
     6
 40
12.7
 49
6.35
 74
     0
 49
-1.27
 74
     0
 49
1.27
 74
     0
 49
-1.27
 74
     0
 49
1.27
 74
     0
 49
-1.27
 74
     0
  0
LTYPE
  5
70
330
5
100
AcDbSymbolTableRecord
100
AcDbLinetypeTableRecord
  2
CENTER
 70
     0
  3
Center ____ _ ____ _ ____ _ ____ _ ____ _ ____
 72
    65
 73
     4
 40
10.16
 49
6.35
 74
     0
 49
-1.27
 74
     0
 49
1.27
 74
     0
 49
-1.27
 74
     0
  0
LTYPE
  5
71
330
5
100
AcDbSymbolTableRecord
100
AcDbLinetypeTableRecord
  2
CENTERX2
 70
     0
  3
Center (2x) ________  __  ________  __  _____
 72
    65
 73
     4
 40
20.32
 49
12.7
 74
     0
 49
-2.54
 74
     0
 49
2.54
 74
     0
 49
-2.54
 74
     0
  0
LTYPE
  5
72
330
5
100
AcDbSymbolTableRecord
100
AcDbLinetypeTableRecord
  2
DOT2
 70
     0
  3
Dot (.5x) ........................................
 72
    65
 73
     2
 40
0.635
 49
0.0
 74
     0
 49
-0.635
 74
     0
  0
ENDTAB
  0
TABLE
  2
LAYER
  5
2
330
0
100
AcDbSymbolTable
 70
     3
  0
LAYER
  5
10
330
2
100
AcDbSymbolTableRecord
100
AcDbLayerTableRecord
  2
0
 70
     0
 62
     7
  6
Continuous
370
    -3
390
F
  0
LAYER
  5
73
330
2
100
AcDbSymbolTableRecord
100
AcDbLayerTableRecord
  2
SLD-0
 70
     0
 62
     7
  6
Continuous
370
    15
390
F
  0
LAYER
  5
74
330
2
100
AcDbSymbolTableRecord
100
AcDbLayerTableRecord
  2
工作區域參考線
 70
     0
 62
   179
  6
Continuous
370
    -3
390
F
  0
ENDTAB
  0
TABLE
  2
STYLE
  5
3
330
0
100
AcDbSymbolTable
 70
     4
  0
STYLE
  5
11
330
3
100
AcDbSymbolTableRecord
100
AcDbTextStyleTableRecord
  2
STANDARD
 70
     0
 40
0.0
 41
1.0
 50
0.0
 71
     0
 42
3.75
  3
ARIAL.TTF
  4

1001
ACAD
1000
ARIAL
1071
       34
  0
STYLE
  5
C9
330
3
100
AcDbSymbolTableRecord
100
AcDbTextStyleTableRecord
  2
SLDTEXTSTYLE0
 70
     0
 40
0.0
 41
0.948
 50
0.0
 71
     0
 42
3.75
  3
ARIAL.TTF
  4

1001
ACAD
1000
Arial
1071
      290
  0
STYLE
  5
D2
330
3
100
AcDbSymbolTableRecord
100
AcDbTextStyleTableRecord
  2
SLDTEXTSTYLE1
 70
     0
 40
0.0
 41
1.0
 50
0.0
 71
     0
 42
3.75
  3
ARIALBD.TTF
  4

1001
ACAD
1000
Arial CE
1071
 33554722
  0
STYLE
  5
E1
330
3
100
AcDbSymbolTableRecord
100
AcDbTextStyleTableRecord
  2
SLDTEXTSTYLE2
 70
     0
 40
0.0
 41
1.0
 50
0.0
 71
     0
 42
3.75
  3
ARIAL.TTF
  4

1001
ACAD
1000
Arial CE
1071
      290
  0
ENDTAB
  0
TABLE
  2
VIEW
  5
6
330
0
100
AcDbSymbolTable
 70
     0
  0
ENDTAB
  0
TABLE
  2
UCS
  5
7
330
0
100
AcDbSymbolTable
 70
     0
  0
ENDTAB
  0
TABLE
  2
APPID
  5
9
330
0
100
AcDbSymbolTable
 70
     1
  0
APPID
  5
12
330
9
100
AcDbSymbolTableRecord
100
AcDbRegAppTableRecord
  2
ACAD
 70
     0
  0
ENDTAB
  0
TABLE
  2
DIMSTYLE
  5
A
330
0
100
AcDbSymbolTable
 70
     4
100
AcDbDimStyleTable
  0
DIMSTYLE
105
27
330
A
100
AcDbSymbolTableRecord
100
AcDbDimStyleTableRecord
  2
ISO-25
 70
     0
 41
2.5
 42
0.625
 43
3.75
 44
1.25
 73
     0
 74
     0
 77
     1
 78
     8
140
2.5
141
2.5
143
0.0393700787
147
0.625
171
     3
172
     1
178
     0
271
     2
272
     2
274
     3
278
    44
283
     0
284
     8
340
11
  0
DIMSTYLE
105
2B5
102
{ACAD_REACTORS
330
2B4
330
2BF
330
2C9
330
2DD
330
458
330
462
330
46C
330
5F7
102
}
330
A
100
AcDbSymbolTableRecord
100
AcDbDimStyleTableRecord
  2
SLDDIMSTYLE0
 70
     0
 41
3.0
 44
0.0
 45
0.000000001
 73
     0
 74
     0
 77
     1
 78
    12
 79
     3
140
3.75
147
0.9375
173
     1
178
     0
271
     2
272
     2
276
     2
284
    12
340
C9
  0
DIMSTYLE
105
2D4
102
{ACAD_REACTORS
330
2D3
330
601
102
}
330
A
100
AcDbSymbolTableRecord
100
AcDbDimStyleTableRecord
  2
SLDDIMSTYLE1
 70
     0
  3
<>
 41
3.0
 44
0.0
 45
0.000000001
 78
    12
 79
     3
140
3.75
141
0.0
147
0.9375
173
     1
178
     0
271
     2
272
     2
276
     2
284
    12
340
C9
  0
DIMSTYLE
105
44E
102
{ACAD_REACTORS
330
44D
102
}
330
A
100
AcDbSymbolTableRecord
100
AcDbDimStyleTableRecord
  2
SLDDIMSTYLE2
 70
     0
 41
3.0
 44
0.0
 45
0.000000001
 78
    12
 79
     3
140
3.75
141
0.0
147
0.9375
173
     1
178
     0
271
     2
272
     2
276
     2
284
    12
340
C9
  0
ENDTAB
  0
TABLE
  2
BLOCK_RECORD
  5
1
330
0
100
AcDbSymbolTable
 70
    20
  0
BLOCK_RECORD
  5
1F
330
1
100
AcDbSymbolTableRecord
100
AcDbBlockTableRecord
  2
*Model_Space
340
22
  0
BLOCK_RECORD
  5
1B
330
1
100
AcDbSymbolTableRecord
100
AcDbBlockTableRecord
  2
*Paper_Space
340
1E
  0
BLOCK_RECORD
  5
23
330
1
100
AcDbSymbolTableRecord
100
AcDbBlockTableRecord
  2
*Paper_Space0
340
26
  0
BLOCK_RECORD
  5
75
330
1
100
AcDbSymbolTableRecord
100
AcDbBlockTableRecord
  2
圖塊6
340
0
102
{BLKREFS
331
C8
102
}
  0
BLOCK_RECORD
  5
CB
330
1
100
AcDbSymbolTableRecord
100
AcDbBlockTableRecord
  2
SW_NOTE_0
340
0
102
{BLKREFS
331
D1
102
}
  0
BLOCK_RECORD
  5
DE
330
1
100
AcDbSymbolTableRecord
100
AcDbBlockTableRecord
  2
SW_NOTE_1
340
0
102
{BLKREFS
331
E4
102
}
  0
BLOCK_RECORD
  5
2B6
330
1
100
AcDbSymbolTableRecord
100
AcDbBlockTableRecord
  2
_D
340
0
  0
BLOCK_RECORD
  5
2C0
330
1
100
AcDbSymbolTableRecord
100
AcDbBlockTableRecord
  2
_D_1
340
0
  0
BLOCK_RECORD
  5
2CA
330
1
100
AcDbSymbolTableRecord
100
AcDbBlockTableRecord
  2
_D_2
340
0
  0
BLOCK_RECORD
  5
2D5
330
1
100
AcDbSymbolTableRecord
100
AcDbBlockTableRecord
  2
_D_3
340
0
  0
BLOCK_RECORD
  5
2DE
330
1
100
AcDbSymbolTableRecord
100
AcDbBlockTableRecord
  2
_D_4
340
0
  0
BLOCK_RECORD
  5
2E7
330
1
100
AcDbSymbolTableRecord
100
AcDbBlockTableRecord
  2
SW_CENTERMARKSYMBOL_0
340
0
102
{BLKREFS
331
2F2
102
}
  0
BLOCK_RECORD
  5
2F3
330
1
100
AcDbSymbolTableRecord
100
AcDbBlockTableRecord
  2
SW_CENTERMARKSYMBOL_1
340
0
102
{BLKREFS
331
2FE
102
}
  0
BLOCK_RECORD
  5
2FF
330
1
100
AcDbSymbolTableRecord
100
AcDbBlockTableRecord
  2
SW_CENTERMARKSYMBOL_2
340
0
102
{BLKREFS
331
30A
102
}
  0
BLOCK_RECORD
  5
44F
330
1
100
AcDbSymbolTableRecord
100
AcDbBlockTableRecord
  2
_D_5
340
0
  0
BLOCK_RECORD
  5
459
330
1
100
AcDbSymbolTableRecord
100
AcDbBlockTableRecord
  2
_D_6
340
0
  0
BLOCK_RECORD
  5
463
330
1
100
AcDbSymbolTableRecord
100
AcDbBlockTableRecord
  2
_D_7
340
0
  0
BLOCK_RECORD
  5
46D
330
1
100
AcDbSymbolTableRecord
100
AcDbBlockTableRecord
  2
_D_8
340
0
  0
BLOCK_RECORD
  5
5F8
330
1
100
AcDbSymbolTableRecord
100
AcDbBlockTableRecord
  2
_D_9
340
0
  0
BLOCK_RECORD
  5
602
330
1
100
AcDbSymbolTableRecord
100
AcDbBlockTableRecord
  2
_D_10
340
0
  0
BLOCK_RECORD
  5
60A
330
1
100
AcDbSymbolTableRecord
100
AcDbBlockTableRecord
  2
SW_CENTERMARKSYMBOL_3
340
0
102
{BLKREFS
331
615
102
}
  0
BLOCK_RECORD
  5
616
330
1
100
AcDbSymbolTableRecord
100
AcDbBlockTableRecord
  2
SW_CENTERMARKSYMBOL_4
340
0
102
{BLKREFS
331
621
102
}
  0
ENDTAB
  0
ENDSEC
  0
SECTION
  2
BLOCKS
  0
BLOCK
  5
20
330
1F
100
AcDbEntity
  8
0
100
AcDbBlockBegin
  2
*Model_Space
 70
     0
 10
0.0
 20
0.0
 30
0.0
  3
*Model_Space
  1

  0
ENDBLK
  5
21
330
1F
100
AcDbEntity
  8
0
100
AcDbBlockEnd
  0
BLOCK
  5
1C
330
1B
100
AcDbEntity
 67
     1
  8
0
100
AcDbBlockBegin
  2
*Paper_Space
 70
     0
 10
0.0
 20
0.0
 30
0.0
  3
*Paper_Space
  1

  0
ENDBLK
  5
1D
330
1B
100
AcDbEntity
 67
     1
  8
0
100
AcDbBlockEnd
  0
BLOCK
  5
24
330
23
100
AcDbEntity
  8
0
100
AcDbBlockBegin
  2
*Paper_Space0
 70
     0
 10
0.0
 20
0.0
 30
0.0
  3
*Paper_Space0
  1

  0
ENDBLK
  5
25
330
23
100
AcDbEntity
  8
0
100
AcDbBlockEnd
  0
BLOCK
  5
76
330
75
100
AcDbEntity
  8
0
100
AcDbBlockBegin
  2
圖塊6
 70
     0
 10
0.0
 20
0.0
 30
0.0
  3
圖塊6
  1

  0
ARC
  5
78
330
75
100
AcDbEntity
  8
0
 62
     7
370
    30
100
AcDbCircle
 10
2.2952316509
 20
9.1531024337
 30
0.0
 40
2.295231650915506
100
AcDbArc
 50
130.2115225915
 51
228.588904108
  0
ARC
  5
79
330
75
100
AcDbEntity
  8
0
 62
     7
370
    30
100
AcDbCircle
 10
7.2763703972
 20
8.9924181622
 30
0.0
 40
3.866003140226431
100
AcDbArc
 50
140.4331765613
 51
251.0865666567
  0
ARC
  5
7A
330
75
100
AcDbEntity
  8
0
 62
     7
370
    30
100
AcDbCircle
 10
7.7647562974
 20
9.4676339569
 30
0.0
 40
4.484454986654794
100
AcDbArc
 50
247.1485306747
 51
309.6030773927
  0
LINE
  5
7B
330
75
100
AcDbEntity
  8
0
 62
     7
370
    30
100
AcDbLine
 10
2.7733465903
 20
12.7982738976
 30
0.0
 11
0.813404208
 21
10.9058932828
 31
0.0
  0
LINE
  5
7C
330
75
100
AcDbEntity
  8
0
 62
     7
370
    30
100
AcDbLine
 10
0.7770343349
 20
7.4317177465
 30
0.0
 11
6.7908378002
 21
2.2048119861
 31
0.0
  0
LINE
  5
7D
330
75
100
AcDbEntity
  8
0
 62
     7
370
    30
100
AcDbLine
 10
6.7908378002
 20
2.2048119861
 30
0.0
 11
5.8442599196
 21
1.2809614004
 31
0.0
  0
LINE
  5
7E
330
75
100
AcDbEntity
  8
0
 62
     7
370
    30
100
AcDbLine
 10
5.8442599196
 20
1.2809614004
 30
0.0
 11
7.3320789667
 21
0.0
 31
0.0
  0
LINE
  5
7F
330
75
100
AcDbEntity
  8
0
 62
     7
370
    30
100
AcDbLine
 10
12.1465756182
 20
4.6748669483
 30
0.0
 11
10.6234410708
 21
6.0124555399
 31
0.0
  0
LINE
  5
80
330
75
100
AcDbEntity
  8
0
 62
     7
370
    30
100
AcDbLine
 10
4.2961373614
 20
11.4549760463
 30
0.0
 11
2.7733465903
 21
12.7982738976
 31
0.0
  0
LINE
  5
81
330
75
100
AcDbEntity
  8
0
 62
     7
370
    30
100
AcDbLine
 10
7.3320789667
 20
0.0
 30
0.0
 11
12.1465756182
 21
4.6748669483
 31
0.0
  0
ENDBLK
  5
77
330
75
100
AcDbEntity
  8
0
100
AcDbBlockEnd
  0
BLOCK
  5
CC
330
CB
100
AcDbEntity
  8
0
100
AcDbBlockBegin
  2
SW_NOTE_0
 70
     0
 10
0.0
 20
0.0
 30
0.0
  3
SW_NOTE_0
  1

  0
MTEXT
  5
CE
330
CB
100
AcDbEntity
  8
0
  6
Continuous
 62
     0
370
     0
100
AcDbMText
 10
0.0
 20
5.1159875922
 30
0.0
 40
3.96875
 41
0.0
 71
     1
 72
     1
  1
PROPRIETARY AND CONFIDENTIAL
  7
SLDTEXTSTYLE0
 73
     1
 44
1.0
  0
MTEXT
  5
CF
330
CB
100
AcDbEntity
  8
0
  6
Continuous
 62
     0
370
     0
100
AcDbMText
 10
0.0
 20
-0.12297522
 30
0.0
 40
2.778125
 41
0.0
 71
     1
 72
     1
  1
THE INFORMATION CONTAINED IN THIS DRAWING IS THE SOLE PROPERTY OF UNICE E-O SERVICES INC. ANY REPRODUCTION IN PART OR AS A WHOLE WITHOUT THE WRITTEN PERMISSION OF UNICE E-O SERVICES INC IS 
  7
SLDTEXTSTYLE0
 73
     1
 44
1.0
  0
MTEXT
  5
D0
330
CB
100
AcDbEntity
  8
0
  6
Continuous
 62
     0
370
     0
100
AcDbMText
 10
0.0
 20
-3.8271418419
 30
0.0
 40
2.778125
 41
0.0
 71
     1
 72
     1
  1
PROHIBITED.
  7
SLDTEXTSTYLE0
 73
     1
 44
1.0
  0
ENDBLK
  5
CD
330
CB
100
AcDbEntity
  8
0
100
AcDbBlockEnd
  0
BLOCK
  5
DF
330
DE
100
AcDbEntity
  8
0
100
AcDbBlockBegin
  2
SW_NOTE_1
 70
     0
 10
0.0
 20
0.0
 30
0.0
  3
SW_NOTE_1
  1

  0
MTEXT
  5
E2
330
DE
100
AcDbEntity
  8
0
  6
Continuous
 62
     0
370
     0
100
AcDbMText
 10
0.0
 20
3.5811913146
 30
0.0
 40
2.778125
 41
0.0
 71
     1
 72
     1
  1
No.5, Andong Rd., Chung Li District,
  7
SLDTEXTSTYLE2
 73
     1
 44
1.0
  0
MTEXT
  5
E3
330
DE
100
AcDbEntity
  8
0
  6
Continuous
 62
     0
370
     0
100
AcDbMText
 10
0.0
 20
-0.1229753073
 30
0.0
 40
2.778125
 41
0.0
 71
     1
 72
     1
  1
Taoyuan City 32063, Taiwan, R.O.C.
  7
SLDTEXTSTYLE2
 73
     1
 44
1.0
  0
ENDBLK
  5
E0
330
DE
100
AcDbEntity
  8
0
100
AcDbBlockEnd
  0
BLOCK
  5
2B7
330
2B6
100
AcDbEntity
  8
0
100
AcDbBlockBegin
  2
_D
 70
     0
 10
0.0
 20
0.0
 30
0.0
  3
_D
  1

  0
SOLID
  5
2B9
330
2B6
100
AcDbEntity
  8
SLD-0
 62
     7
100
AcDbTrace
 10
251.6428870658
 20
256.6405565149
 30
0.0
 11
251.2678870658
 21
253.6405565149
 31
0.0
 12
252.0178870658
 22
253.6405565149
 32
0.0
 13
252.0178870658
 23
253.6405565149
 33
0.0
  0
SOLID
  5
2BA
330
2B6
100
AcDbEntity
  8
SLD-0
 62
     7
100
AcDbTrace
 10
251.6428870658
 20
206.6405565149
 30
0.0
 11
252.0178870658
 21
209.6405565149
 31
0.0
 12
251.2678870658
 22
209.6405565149
 32
0.0
 13
251.2678870658
 23
209.6405565149
 33
0.0
  0
LINE
  5
2BB
330
2B6
100
AcDbEntity
  8
SLD-0
 62
     7
100
AcDbLine
 10
179.5024885061
 20
256.6405565149
 30
0.0
 11
253.1428870658
 21
256.6405565149
 31
0.0
  0
LINE
  5
2BC
330
2B6
100
AcDbEntity
  8
SLD-0
 62
     7
100
AcDbLine
 10
179.5024885061
 20
206.6405565149
 30
0.0
 11
253.1428870658
 21
206.6405565149
 31
0.0
  0
LINE
  5
2BD
330
2B6
100
AcDbEntity
  8
SLD-0
 62
     7
100
AcDbLine
 10
251.6428870658
 20
256.6405565149
 30
0.0
 11
251.6428870658
 21
206.6405565149
 31
0.0
  0
MTEXT
  5
2BE
330
2B6
100
AcDbEntity
  8
SLD-0
 62
     7
100
AcDbMText
 10
246.8088833036
 20
228.7759731776
 30
0.0
 40
3.75
 41
0.0
 71
     1
 72
     1
  1
50
  7
SLDTEXTSTYLE0
 11
-7.044195017643634E-15
 21
1.0
 31
0.0
 73
     1
 44
1.0
  0
ENDBLK
  5
2B8
330
2B6
100
AcDbEntity
  8
0
100
AcDbBlockEnd
  0
BLOCK
  5
2C1
330
2C0
100
AcDbEntity
  8
0
100
AcDbBlockBegin
  2
_D_1
 70
     0
 10
0.0
 20
0.0
 30
0.0
  3
_D_1
  1

  0
SOLID
  5
2C3
330
2C0
100
AcDbEntity
  8
SLD-0
 62
     7
100
AcDbTrace
 10
165.5024885061
 20
193.2848499919
 30
0.0
 11
168.5024885061
 21
192.9098499919
 31
0.0
 12
168.5024885061
 22
193.6598499919
 32
0.0
 13
168.5024885061
 23
193.6598499919
 33
0.0
  0
SOLID
  5
2C4
330
2C0
100
AcDbEntity
  8
SLD-0
 62
     7
100
AcDbTrace
 10
192.5024885061
 20
193.2848499919
 30
0.0
 11
189.5024885061
 21
193.6598499919
 31
0.0
 12
189.5024885061
 22
192.9098499919
 32
0.0
 13
189.5024885061
 23
192.9098499919
 33
0.0
  0
LINE
  5
2C5
330
2C0
100
AcDbEntity
  8
SLD-0
 62
     7
100
AcDbLine
 10
165.5024885061
 20
225.1405565149
 30
0.0
 11
165.5024885061
 21
191.7848499919
 31
0.0
  0
LINE
  5
2C6
330
2C0
100
AcDbEntity
  8
SLD-0
 62
     7
100
AcDbLine
 10
192.5024885061
 20
212.1405565149
 30
0.0
 11
192.5024885061
 21
191.7848499919
 31
0.0
  0
LINE
  5
2C7
330
2C0
100
AcDbEntity
  8
SLD-0
 62
     7
100
AcDbLine
 10
165.5024885061
 20
193.2848499919
 30
0.0
 11
192.5024885061
 21
193.2848499919
 31
0.0
  0
MTEXT
  5
2C8
330
2C0
100
AcDbEntity
  8
SLD-0
 62
     7
100
AcDbMText
 10
176.1379051689
 20
198.1188537541
 30
0.0
 40
3.75
 41
0.0
 71
     1
 72
     1
  1
27
  7
SLDTEXTSTYLE0
 73
     1
 44
1.0
  0
ENDBLK
  5
2C2
330
2C0
100
AcDbEntity
  8
0
100
AcDbBlockEnd
  0
BLOCK
  5
2CB
330
2CA
100
AcDbEntity
  8
0
100
AcDbBlockBegin
  2
_D_2
 70
     0
 10
0.0
 20
0.0
 30
0.0
  3
_D_2
  1

  0
SOLID
  5
2CD
330
2CA
100
AcDbEntity
  8
SLD-0
 62
     7
100
AcDbTrace
 10
240.9438045899
 20
244.6405565149
 30
0.0
 11
240.5688045899
 21
241.6405565149
 31
0.0
 12
241.3188045899
 22
241.6405565149
 32
0.0
 13
241.3188045899
 23
241.6405565149
 33
0.0
  0
SOLID
  5
2CE
330
2CA
100
AcDbEntity
  8
SLD-0
 62
     7
100
AcDbTrace
 10
240.9438045899
 20
218.6405565149
 30
0.0
 11
241.3188045899
 21
221.6405565149
 31
0.0
 12
240.5688045899
 22
221.6405565149
 32
0.0
 13
240.5688045899
 23
221.6405565149
 33
0.0
  0
LINE
  5
2CF
330
2CA
100
AcDbEntity
  8
SLD-0
 62
     7
100
AcDbLine
 10
199.0024885061
 20
244.6405565149
 30
0.0
 11
242.4438045899
 21
244.6405565149
 31
0.0
  0
LINE
  5
2D0
330
2CA
100
AcDbEntity
  8
SLD-0
 62
     7
100
AcDbLine
 10
199.0024885061
 20
218.6405565149
 30
0.0
 11
242.4438045899
 21
218.6405565149
 31
0.0
  0
LINE
  5
2D1
330
2CA
100
AcDbEntity
  8
SLD-0
 62
     7
100
AcDbLine
 10
240.9438045899
 20
244.6405565149
 30
0.0
 11
240.9438045899
 21
218.6405565149
 31
0.0
  0
MTEXT
  5
2D2
330
2CA
100
AcDbEntity
  8
SLD-0
 62
     7
100
AcDbMText
 10
236.1098008276
 20
228.7759731776
 30
0.0
 40
3.75
 41
0.0
 71
     1
 72
     1
  1
26
  7
SLDTEXTSTYLE0
 11
-7.044195017643634E-15
 21
1.0
 31
0.0
 73
     1
 44
1.0
  0
ENDBLK
  5
2CC
330
2CA
100
AcDbEntity
  8
0
100
AcDbBlockEnd
  0
BLOCK
  5
2D6
330
2D5
100
AcDbEntity
  8
0
100
AcDbBlockBegin
  2
_D_3
 70
     0
 10
0.0
 20
0.0
 30
0.0
  3
_D_3
  1

  0
SOLID
  5
2D8
330
2D5
100
AcDbEntity
  8
SLD-0
 62
     7
100
AcDbTrace
 10
162.2513199694
 20
233.9707717723
 30
0.0
 11
160.0314012473
 21
236.0232302657
 31
0.0
 12
159.5944858865
 22
235.413636165
 32
0.0
 13
159.5944858865
 23
235.413636165
 33
0.0
  0
LINE
  5
2D9
330
2D5
100
AcDbEntity
  8
SLD-0
 62
     7
100
AcDbLine
 10
162.2513199694
 20
233.9707717723
 30
0.0
 11
141.5790904181
 21
248.7872121264
 31
0.0
  0
LINE
  5
2DA
330
2D5
100
AcDbEntity
  8
SLD-0
 62
     7
100
AcDbLine
 10
141.5790904181
 20
248.7872121264
 30
0.0
 11
93.3134722205
 21
248.7872121264
 31
0.0
  0
MTEXT
  5
2DB
330
2D5
100
AcDbEntity
  8
SLD-0
 62
     7
100
AcDbMText
 10
93.3134722205
 20
259.3764240884
 30
0.0
 40
3.75
 41
0.0
 71
     1
 72
     1
  1
3 HOLES for both of
  7
SLDTEXTSTYLE0
 73
     1
 44
1.0
  0
MTEXT
  5
2DC
330
2D5
100
AcDbEntity
  8
SLD-0
 62
     7
100
AcDbMText
 10
93.3134722205
 20
253.6212158886
 30
0.0
 40
3.75
 41
0.0
 71
     1
 72
     1
  1
 M4 and 8-32 CLR
  7
SLDTEXTSTYLE0
 73
     1
 44
1.0
  0
ENDBLK
  5
2D7
330
2D5
100
AcDbEntity
  8
0
100
AcDbBlockEnd
  0
BLOCK
  5
2DF
330
2DE
100
AcDbEntity
  8
0
100
AcDbBlockBegin
  2
_D_4
 70
     0
 10
0.0
 20
0.0
 30
0.0
  3
_D_4
  1

  0
SOLID
  5
2E1
330
2DE
100
AcDbEntity
  8
SLD-0
 62
     7
100
AcDbTrace
 10
192.5024885061
 20
193.2848499919
 30
0.0
 11
195.5024885061
 21
192.9098499919
 31
0.0
 12
195.5024885061
 22
193.6598499919
 32
0.0
 13
195.5024885061
 23
193.6598499919
 33
0.0
  0
SOLID
  5
2E2
330
2DE
100
AcDbEntity
  8
SLD-0
 62
     7
100
AcDbTrace
 10
228.0024885061
 20
193.2848499919
 30
0.0
 11
225.0024885061
 21
193.6598499919
 31
0.0
 12
225.0024885061
 22
192.9098499919
 32
0.0
 13
225.0024885061
 23
192.9098499919
 33
0.0
  0
LINE
  5
2E3
330
2DE
100
AcDbEntity
  8
SLD-0
 62
     7
100
AcDbLine
 10
192.5024885061
 20
212.1405565149
 30
0.0
 11
192.5024885061
 21
191.7848499919
 31
0.0
  0
LINE
  5
2E4
330
2DE
100
AcDbEntity
  8
SLD-0
 62
     7
100
AcDbLine
 10
228.0024885061
 20
205.1405565149
 30
0.0
 11
228.0024885061
 21
191.7848499919
 31
0.0
  0
LINE
  5
2E5
330
2DE
100
AcDbEntity
  8
SLD-0
 62
     7
100
AcDbLine
 10
192.5024885061
 20
193.2848499919
 30
0.0
 11
228.0024885061
 21
193.2848499919
 31
0.0
  0
MTEXT
  5
2E6
330
2DE
100
AcDbEntity
  8
SLD-0
 62
     7
100
AcDbMText
 10
205.239467797
 20
198.1188537541
 30
0.0
 40
3.75
 41
0.0
 71
     1
 72
     1
  1
35.5
  7
SLDTEXTSTYLE0
 73
     1
 44
1.0
  0
ENDBLK
  5
2E0
330
2DE
100
AcDbEntity
  8
0
100
AcDbBlockEnd
  0
BLOCK
  5
2E8
330
2E7
100
AcDbEntity
  8
0
100
AcDbBlockBegin
  2
SW_CENTERMARKSYMBOL_0
 70
     0
 10
0.0
 20
0.0
 30
0.0
  3
SW_CENTERMARKSYMBOL_0
  1

  0
LINE
  5
2EA
330
2E7
100
AcDbEntity
  8
SLD-0
 62
     0
100
AcDbLine
 10
0.0
 20
0.0
 30
0.0
 11
0.0
 21
1.0
 31
0.0
  0
LINE
  5
2EB
330
2E7
100
AcDbEntity
  8
SLD-0
 62
     0
100
AcDbLine
 10
0.0
 20
0.0
 30
0.0
 11
-1.0
 21
0.0
 31
0.0
  0
LINE
  5
2EC
330
2E7
100
AcDbEntity
  8
SLD-0
 62
     0
100
AcDbLine
 10
0.0
 20
0.0
 30
0.0
 11
0.0
 21
-1.0
 31
0.0
  0
LINE
  5
2ED
330
2E7
100
AcDbEntity
  8
SLD-0
 62
     0
100
AcDbLine
 10
0.0
 20
0.0
 30
0.0
 11
1.0
 21
0.0
 31
0.0
  0
LINE
  5
2EE
330
2E7
100
AcDbEntity
  8
SLD-0
 62
     0
100
AcDbLine
 10
0.0
 20
2.0
 30
0.0
 11
0.0
 21
5.0
 31
0.0
  0
LINE
  5
2EF
330
2E7
100
AcDbEntity
  8
SLD-0
 62
     0
100
AcDbLine
 10
-2.0
 20
0.0
 30
0.0
 11
-5.0
 21
0.0
 31
0.0
  0
LINE
  5
2F0
330
2E7
100
AcDbEntity
  8
SLD-0
 62
     0
100
AcDbLine
 10
0.0
 20
-2.0
 30
0.0
 11
0.0
 21
-5.0
 31
0.0
  0
LINE
  5
2F1
330
2E7
100
AcDbEntity
  8
SLD-0
 62
     0
100
AcDbLine
 10
2.0
 20
0.0
 30
0.0
 11
5.0
 21
0.0
 31
0.0
  0
ENDBLK
  5
2E9
330
2E7
100
AcDbEntity
  8
0
100
AcDbBlockEnd
  0
BLOCK
  5
2F4
330
2F3
100
AcDbEntity
  8
0
100
AcDbBlockBegin
  2
SW_CENTERMARKSYMBOL_1
 70
     0
 10
0.0
 20
0.0
 30
0.0
  3
SW_CENTERMARKSYMBOL_1
  1

  0
LINE
  5
2F6
330
2F3
100
AcDbEntity
  8
SLD-0
 62
     0
100
AcDbLine
 10
0.0
 20
0.0
 30
0.0
 11
0.0
 21
1.0
 31
0.0
  0
LINE
  5
2F7
330
2F3
100
AcDbEntity
  8
SLD-0
 62
     0
100
AcDbLine
 10
0.0
 20
0.0
 30
0.0
 11
-1.0
 21
0.0
 31
0.0
  0
LINE
  5
2F8
330
2F3
100
AcDbEntity
  8
SLD-0
 62
     0
100
AcDbLine
 10
0.0
 20
0.0
 30
0.0
 11
0.0
 21
-1.0
 31
0.0
  0
LINE
  5
2F9
330
2F3
100
AcDbEntity
  8
SLD-0
 62
     0
100
AcDbLine
 10
0.0
 20
0.0
 30
0.0
 11
1.0
 21
0.0
 31
0.0
  0
LINE
  5
2FA
330
2F3
100
AcDbEntity
  8
SLD-0
 62
     0
100
AcDbLine
 10
0.0
 20
2.0
 30
0.0
 11
0.0
 21
5.0
 31
0.0
  0
LINE
  5
2FB
330
2F3
100
AcDbEntity
  8
SLD-0
 62
     0
100
AcDbLine
 10
-2.0
 20
0.0
 30
0.0
 11
-5.0
 21
0.0
 31
0.0
  0
LINE
  5
2FC
330
2F3
100
AcDbEntity
  8
SLD-0
 62
     0
100
AcDbLine
 10
0.0
 20
-2.0
 30
0.0
 11
0.0
 21
-5.0
 31
0.0
  0
LINE
  5
2FD
330
2F3
100
AcDbEntity
  8
SLD-0
 62
     0
100
AcDbLine
 10
2.0
 20
0.0
 30
0.0
 11
5.0
 21
0.0
 31
0.0
  0
ENDBLK
  5
2F5
330
2F3
100
AcDbEntity
  8
0
100
AcDbBlockEnd
  0
BLOCK
  5
300
330
2FF
100
AcDbEntity
  8
0
100
AcDbBlockBegin
  2
SW_CENTERMARKSYMBOL_2
 70
     0
 10
0.0
 20
0.0
 30
0.0
  3
SW_CENTERMARKSYMBOL_2
  1

  0
LINE
  5
302
330
2FF
100
AcDbEntity
  8
SLD-0
 62
     0
100
AcDbLine
 10
0.0
 20
0.0
 30
0.0
 11
0.0
 21
1.0
 31
0.0
  0
LINE
  5
303
330
2FF
100
AcDbEntity
  8
SLD-0
 62
     0
100
AcDbLine
 10
0.0
 20
0.0
 30
0.0
 11
-1.0
 21
0.0
 31
0.0
  0
LINE
  5
304
330
2FF
100
AcDbEntity
  8
SLD-0
 62
     0
100
AcDbLine
 10
0.0
 20
0.0
 30
0.0
 11
0.0
 21
-1.0
 31
0.0
  0
LINE
  5
305
330
2FF
100
AcDbEntity
  8
SLD-0
 62
     0
100
AcDbLine
 10
0.0
 20
0.0
 30
0.0
 11
1.0
 21
0.0
 31
0.0
  0
LINE
  5
306
330
2FF
100
AcDbEntity
  8
SLD-0
 62
     0
100
AcDbLine
 10
0.0
 20
2.0
 30
0.0
 11
0.0
 21
5.0
 31
0.0
  0
LINE
  5
307
330
2FF
100
AcDbEntity
  8
SLD-0
 62
     0
100
AcDbLine
 10
-2.0
 20
0.0
 30
0.0
 11
-5.0
 21
0.0
 31
0.0
  0
LINE
  5
308
330
2FF
100
AcDbEntity
  8
SLD-0
 62
     0
100
AcDbLine
 10
0.0
 20
-2.0
 30
0.0
 11
0.0
 21
-5.0
 31
0.0
  0
LINE
  5
309
330
2FF
100
AcDbEntity
  8
SLD-0
 62
     0
100
AcDbLine
 10
2.0
 20
0.0
 30
0.0
 11
5.0
 21
0.0
 31
0.0
  0
ENDBLK
  5
301
330
2FF
100
AcDbEntity
  8
0
100
AcDbBlockEnd
  0
BLOCK
  5
450
330
44F
100
AcDbEntity
  8
0
100
AcDbBlockBegin
  2
_D_5
 70
     0
 10
0.0
 20
0.0
 30
0.0
  3
_D_5
  1

  0
SOLID
  5
452
330
44F
100
AcDbEntity
  8
SLD-0
 62
     7
100
AcDbTrace
 10
160.0689732078
 20
140.1017693545
 30
0.0
 11
158.1413437545
 21
142.4309043207
 31
0.0
 12
157.6273298999
 22
141.8847452256
 32
0.0
 13
157.6273298999
 23
141.8847452256
 33
0.0
  0
LINE
  5
453
330
44F
100
AcDbEntity
  8
SLD-0
 62
     7
100
AcDbLine
 10
160.0689732078
 20
140.1017693545
 30
0.0
 11
149.756089724
 21
149.807668312
 31
0.0
  0
LINE
  5
454
330
44F
100
AcDbEntity
  8
SLD-0
 62
     7
100
AcDbLine
 10
149.756089724
 20
149.807668312
 30
0.0
 11
125.5178074496
 21
149.807668312
 31
0.0
  0
MTEXT
  5
455
330
44F
100
AcDbEntity
  8
SLD-0
 62
     7
100
AcDbMText
 10
125.5178074496
 20
154.6520886844
 30
0.0
 40
3.75
 41
0.0
 71
     1
 72
     1
  1
Max:
  7
SLDTEXTSTYLE0
 73
     1
 44
1.0
  0
MTEXT
  5
456
330
44F
100
AcDbEntity
  8
SLD-0
 62
     7
100
AcDbMText
 10
136.6844743168
 20
154.6416719869
 30
0.0
 40
3.75
 41
0.0
 71
     1
 72
     1
  1
%%c
  7
SLDTEXTSTYLE0
 73
     1
 44
1.0
  0
MTEXT
  5
457
330
44F
100
AcDbEntity
  8
SLD-0
 62
     7
100
AcDbMText
 10
142.1519220019
 20
154.6520886844
 30
0.0
 40
3.75
 41
0.0
 71
     1
 72
     1
  1
52
  7
SLDTEXTSTYLE0
 73
     1
 44
1.0
  0
ENDBLK
  5
451
330
44F
100
AcDbEntity
  8
0
100
AcDbBlockEnd
  0
BLOCK
  5
45A
330
459
100
AcDbEntity
  8
0
100
AcDbBlockBegin
  2
_D_6
 70
     0
 10
0.0
 20
0.0
 30
0.0
  3
_D_6
  1

  0
SOLID
  5
45C
330
459
100
AcDbEntity
  8
SLD-0
 62
     7
100
AcDbTrace
 10
249.0024885061
 20
82.5530264662
 30
0.0
 11
249.3774885061
 21
85.5530264662
 31
0.0
 12
248.6274885061
 22
85.5530264662
 32
0.0
 13
248.6274885061
 23
85.5530264662
 33
0.0
  0
SOLID
  5
45D
330
459
100
AcDbEntity
  8
SLD-0
 62
     7
100
AcDbTrace
 10
249.0024885061
 20
174.5530264662
 30
0.0
 11
248.6274885061
 21
171.5530264662
 31
0.0
 12
249.3774885061
 22
171.5530264662
 32
0.0
 13
249.3774885061
 23
171.5530264662
 33
0.0
  0
LINE
  5
45E
330
459
100
AcDbEntity
  8
SLD-0
 62
     7
100
AcDbLine
 10
229.5024885061
 20
82.5530264662
 30
0.0
 11
250.5024885061
 21
82.5530264662
 31
0.0
  0
LINE
  5
45F
330
459
100
AcDbEntity
  8
SLD-0
 62
     7
100
AcDbLine
 10
216.0024885061
 20
174.5530264662
 30
0.0
 11
250.5024885061
 21
174.5530264662
 31
0.0
  0
LINE
  5
460
330
459
100
AcDbEntity
  8
SLD-0
 62
     7
100
AcDbLine
 10
249.0024885061
 20
82.5530264662
 30
0.0
 11
249.0024885061
 21
174.5530264662
 31
0.0
  0
MTEXT
  5
461
330
459
100
AcDbEntity
  8
SLD-0
 62
     7
100
AcDbMText
 10
244.1684847439
 20
125.688443129
 30
0.0
 40
3.75
 41
0.0
 71
     1
 72
     1
  1
92
  7
SLDTEXTSTYLE0
 11
6.123233995736766E-17
 21
1.0
 31
0.0
 73
     1
 44
1.0
  0
ENDBLK
  5
45B
330
459
100
AcDbEntity
  8
0
100
AcDbBlockEnd
  0
BLOCK
  5
464
330
463
100
AcDbEntity
  8
0
100
AcDbBlockBegin
  2
_D_7
 70
     0
 10
0.0
 20
0.0
 30
0.0
  3
_D_7
  1

  0
SOLID
  5
466
330
463
100
AcDbEntity
  8
SLD-0
 62
     7
100
AcDbTrace
 10
241.546756312
 20
104.5530264662
 30
0.0
 11
241.171756312
 21
101.5530264662
 31
0.0
 12
241.921756312
 22
101.5530264662
 32
0.0
 13
241.921756312
 23
101.5530264662
 33
0.0
  0
SOLID
  5
467
330
463
100
AcDbEntity
  8
SLD-0
 62
     7
100
AcDbTrace
 10
241.546756312
 20
82.5530264662
 30
0.0
 11
241.921756312
 21
85.5530264662
 31
0.0
 12
241.171756312
 22
85.5530264662
 32
0.0
 13
241.171756312
 23
85.5530264662
 33
0.0
  0
LINE
  5
468
330
463
100
AcDbEntity
  8
SLD-0
 62
     7
100
AcDbLine
 10
229.5024885061
 20
104.5530264662
 30
0.0
 11
243.046756312
 21
104.5530264662
 31
0.0
  0
LINE
  5
469
330
463
100
AcDbEntity
  8
SLD-0
 62
     7
100
AcDbLine
 10
229.5024885061
 20
82.5530264662
 30
0.0
 11
243.046756312
 21
82.5530264662
 31
0.0
  0
LINE
  5
46A
330
463
100
AcDbEntity
  8
SLD-0
 62
     7
100
AcDbLine
 10
241.546756312
 20
104.5530264662
 30
0.0
 11
241.546756312
 21
82.5530264662
 31
0.0
  0
MTEXT
  5
46B
330
463
100
AcDbEntity
  8
SLD-0
 62
     7
100
AcDbMText
 10
236.7127525498
 20
90.688443129
 30
0.0
 40
3.75
 41
0.0
 71
     1
 72
     1
  1
22
  7
SLDTEXTSTYLE0
 11
-7.044195017643634E-15
 21
1.0
 31
0.0
 73
     1
 44
1.0
  0
ENDBLK
  5
465
330
463
100
AcDbEntity
  8
0
100
AcDbBlockEnd
  0
BLOCK
  5
46E
330
46D
100
AcDbEntity
  8
0
100
AcDbBlockBegin
  2
_D_8
 70
     0
 10
0.0
 20
0.0
 30
0.0
  3
_D_8
  1

  0
SOLID
  5
470
330
46D
100
AcDbEntity
  8
SLD-0
 62
     7
100
AcDbTrace
 10
153.0024885061
 20
69.2323394421
 30
0.0
 11
156.0024885061
 21
68.8573394421
 31
0.0
 12
156.0024885061
 22
69.6073394421
 32
0.0
 13
156.0024885061
 23
69.6073394421
 33
0.0
  0
SOLID
  5
471
330
46D
100
AcDbEntity
  8
SLD-0
 62
     7
100
AcDbTrace
 10
228.0024885061
 20
69.2323394421
 30
0.0
 11
225.0024885061
 21
69.6073394421
 31
0.0
 12
225.0024885061
 22
68.8573394421
 32
0.0
 13
225.0024885061
 23
68.8573394421
 33
0.0
  0
LINE
  5
472
330
46D
100
AcDbEntity
  8
SLD-0
 62
     7
100
AcDbLine
 10
153.0024885061
 20
81.0530264662
 30
0.0
 11
153.0024885061
 21
67.7323394421
 31
0.0
  0
LINE
  5
473
330
46D
100
AcDbEntity
  8
SLD-0
 62
     7
100
AcDbLine
 10
228.0024885061
 20
81.0530264662
 30
0.0
 11
228.0024885061
 21
67.7323394421
 31
0.0
  0
LINE
  5
474
330
46D
100
AcDbEntity
  8
SLD-0
 62
     7
100
AcDbLine
 10
153.0024885061
 20
69.2323394421
 30
0.0
 11
228.0024885061
 21
69.2323394421
 31
0.0
  0
MTEXT
  5
475
330
46D
100
AcDbEntity
  8
SLD-0
 62
     7
100
AcDbMText
 10
187.6379051689
 20
74.0663432043
 30
0.0
 40
3.75
 41
0.0
 71
     1
 72
     1
  1
75
  7
SLDTEXTSTYLE0
 73
     1
 44
1.0
  0
ENDBLK
  5
46F
330
46D
100
AcDbEntity
  8
0
100
AcDbBlockEnd
  0
BLOCK
  5
5F9
330
5F8
100
AcDbEntity
  8
0
100
AcDbBlockBegin
  2
_D_9
 70
     0
 10
0.0
 20
0.0
 30
0.0
  3
_D_9
  1

  0
SOLID
  5
5FB
330
5F8
100
AcDbEntity
  8
SLD-0
 62
     7
100
AcDbTrace
 10
74.9326725173
 20
72.0530264662
 30
0.0
 11
77.9326725173
 21
71.6780264662
 31
0.0
 12
77.9326725173
 22
72.4280264662
 32
0.0
 13
77.9326725173
 23
72.4280264662
 33
0.0
  0
SOLID
  5
5FC
330
5F8
100
AcDbEntity
  8
SLD-0
 62
     7
100
AcDbTrace
 10
99.9326725173
 20
72.0530264662
 30
0.0
 11
96.9326725173
 21
72.4280264662
 31
0.0
 12
96.9326725173
 22
71.6780264662
 32
0.0
 13
96.9326725173
 23
71.6780264662
 33
0.0
  0
LINE
  5
5FD
330
5F8
100
AcDbEntity
  8
SLD-0
 62
     7
100
AcDbLine
 10
74.9326725173
 20
86.4530264662
 30
0.0
 11
74.9326725173
 21
70.5530264662
 31
0.0
  0
LINE
  5
5FE
330
5F8
100
AcDbEntity
  8
SLD-0
 62
     7
100
AcDbLine
 10
99.9326725173
 20
86.4530264662
 30
0.0
 11
99.9326725173
 21
70.5530264662
 31
0.0
  0
LINE
  5
5FF
330
5F8
100
AcDbEntity
  8
SLD-0
 62
     7
100
AcDbLine
 10
74.9326725173
 20
72.0530264662
 30
0.0
 11
99.9326725173
 21
72.0530264662
 31
0.0
  0
MTEXT
  5
600
330
5F8
100
AcDbEntity
  8
SLD-0
 62
     7
100
AcDbMText
 10
84.5680891801
 20
76.8870302285
 30
0.0
 40
3.75
 41
0.0
 71
     1
 72
     1
  1
25
  7
SLDTEXTSTYLE0
 73
     1
 44
1.0
  0
ENDBLK
  5
5FA
330
5F8
100
AcDbEntity
  8
0
100
AcDbBlockEnd
  0
BLOCK
  5
603
330
602
100
AcDbEntity
  8
0
100
AcDbBlockBegin
  2
_D_10
 70
     0
 10
0.0
 20
0.0
 30
0.0
  3
_D_10
  1

  0
SOLID
  5
605
330
602
100
AcDbEntity
  8
SLD-0
 62
     7
100
AcDbTrace
 10
72.7485162847
 20
99.5007449164
 30
0.0
 11
71.9013209613
 21
102.4029656323
 31
0.0
 12
71.2129957181
 22
102.105126146
 32
0.0
 13
71.2129957181
 23
102.105126146
 33
0.0
  0
LINE
  5
606
330
602
100
AcDbEntity
  8
SLD-0
 62
     7
100
AcDbLine
 10
72.7485162847
 20
99.5007449164
 30
0.0
 11
64.1257501843
 21
119.428484007
 31
0.0
  0
LINE
  5
607
330
602
100
AcDbEntity
  8
SLD-0
 62
     7
100
AcDbLine
 10
64.1257501843
 20
119.428484007
 30
0.0
 11
39.0580422694
 21
119.428484007
 31
0.0
  0
MTEXT
  5
608
330
602
100
AcDbEntity
  8
SLD-0
 62
     7
100
AcDbMText
 10
39.0580422694
 20
130.017695969
 30
0.0
 40
3.75
 41
0.0
 71
     1
 72
     1
  1
2 HOLES,
  7
SLDTEXTSTYLE0
 73
     1
 44
1.0
  0
MTEXT
  5
609
330
602
100
AcDbEntity
  8
SLD-0
 62
     7
100
AcDbMText
 10
39.0580422694
 20
124.2624877692
 30
0.0
 40
3.75
 41
0.0
 71
     1
 72
     1
  1
 M6 CLR
  7
SLDTEXTSTYLE0
 73
     1
 44
1.0
  0
ENDBLK
  5
604
330
602
100
AcDbEntity
  8
0
100
AcDbBlockEnd
  0
BLOCK
  5
60B
330
60A
100
AcDbEntity
  8
0
100
AcDbBlockBegin
  2
SW_CENTERMARKSYMBOL_3
 70
     0
 10
0.0
 20
0.0
 30
0.0
  3
SW_CENTERMARKSYMBOL_3
  1

  0
LINE
  5
60D
330
60A
100
AcDbEntity
  8
SLD-0
 62
     0
100
AcDbLine
 10
0.0
 20
0.0
 30
0.0
 11
0.0
 21
1.0
 31
0.0
  0
LINE
  5
60E
330
60A
100
AcDbEntity
  8
SLD-0
 62
     0
100
AcDbLine
 10
0.0
 20
0.0
 30
0.0
 11
-1.0
 21
0.0
 31
0.0
  0
LINE
  5
60F
330
60A
100
AcDbEntity
  8
SLD-0
 62
     0
100
AcDbLine
 10
0.0
 20
0.0
 30
0.0
 11
0.0
 21
-1.0
 31
0.0
  0
LINE
  5
610
330
60A
100
AcDbEntity
  8
SLD-0
 62
     0
100
AcDbLine
 10
0.0
 20
0.0
 30
0.0
 11
1.0
 21
0.0
 31
0.0
  0
LINE
  5
611
330
60A
100
AcDbEntity
  8
SLD-0
 62
     0
100
AcDbLine
 10
0.0
 20
2.0
 30
0.0
 11
0.0
 21
6.5
 31
0.0
  0
LINE
  5
612
330
60A
100
AcDbEntity
  8
SLD-0
 62
     0
100
AcDbLine
 10
-2.0
 20
0.0
 30
0.0
 11
-6.5
 21
0.0
 31
0.0
  0
LINE
  5
613
330
60A
100
AcDbEntity
  8
SLD-0
 62
     0
100
AcDbLine
 10
0.0
 20
-2.0
 30
0.0
 11
0.0
 21
-6.5
 31
0.0
  0
LINE
  5
614
330
60A
100
AcDbEntity
  8
SLD-0
 62
     0
100
AcDbLine
 10
2.0
 20
0.0
 30
0.0
 11
6.5
 21
0.0
 31
0.0
  0
ENDBLK
  5
60C
330
60A
100
AcDbEntity
  8
0
100
AcDbBlockEnd
  0
BLOCK
  5
617
330
616
100
AcDbEntity
  8
0
100
AcDbBlockBegin
  2
SW_CENTERMARKSYMBOL_4
 70
     0
 10
0.0
 20
0.0
 30
0.0
  3
SW_CENTERMARKSYMBOL_4
  1

  0
LINE
  5
619
330
616
100
AcDbEntity
  8
SLD-0
 62
     0
100
AcDbLine
 10
0.0
 20
0.0
 30
0.0
 11
0.0
 21
1.0
 31
0.0
  0
LINE
  5
61A
330
616
100
AcDbEntity
  8
SLD-0
 62
     0
100
AcDbLine
 10
0.0
 20
0.0
 30
0.0
 11
-1.0
 21
0.0
 31
0.0
  0
LINE
  5
61B
330
616
100
AcDbEntity
  8
SLD-0
 62
     0
100
AcDbLine
 10
0.0
 20
0.0
 30
0.0
 11
0.0
 21
-1.0
 31
0.0
  0
LINE
  5
61C
330
616
100
AcDbEntity
  8
SLD-0
 62
     0
100
AcDbLine
 10
0.0
 20
0.0
 30
0.0
 11
1.0
 21
0.0
 31
0.0
  0
LINE
  5
61D
330
616
100
AcDbEntity
  8
SLD-0
 62
     0
100
AcDbLine
 10
0.0
 20
2.0
 30
0.0
 11
0.0
 21
6.5
 31
0.0
  0
LINE
  5
61E
330
616
100
AcDbEntity
  8
SLD-0
 62
     0
100
AcDbLine
 10
-2.0
 20
0.0
 30
0.0
 11
-6.5
 21
0.0
 31
0.0
  0
LINE
  5
61F
330
616
100
AcDbEntity
  8
SLD-0
 62
     0
100
AcDbLine
 10
0.0
 20
-2.0
 30
0.0
 11
0.0
 21
-6.5
 31
0.0
  0
LINE
  5
620
330
616
100
AcDbEntity
  8
SLD-0
 62
     0
100
AcDbLine
 10
2.0
 20
0.0
 30
0.0
 11
6.5
 21
0.0
 31
0.0
  0
ENDBLK
  5
618
330
616
100
AcDbEntity
  8
0
100
AcDbBlockEnd
  0
ENDSEC
  0
SECTION
  2
ENTITIES
  0
HATCH
  5
82
330
1F
100
AcDbEntity
  8
0
  6
Continuous
 62
     7
100
AcDbHatch
 10
0.0
 20
0.0
 30
0.0
210
0.0
220
0.0
230
1.0
  2
SOLID
 70
     1
 71
     0
 91
        1
 92
        0
 93
       10
 72
     2
 10
288.210894844405
 20
53.63371321483284
 40
4.484454986654788
 50
50.3969226073138
 51
112.8514693252976
 73
     0
 72
     2
 10
287.722508944218
 20
53.15849742009306
 40
3.866003140226428
 50
108.9134333432859
 51
219.5668234386823
 73
     0
 72
     1
 10
284.7422759084405
 20
55.62105530422515
 11
283.2194851373368
 21
56.96435315545179
 72
     1
 10
283.2194851373368
 20
56.96435315545179
 11
281.2595427550144
 21
55.07197254069054
 72
     2
 10
282.7413701979584
 20
53.31918169158669
 40
2.295231650915492
 50
130.2115225915088
 51
228.5889041080187
 73
     1
 72
     1
 10
281.2231728819765
 20
51.59779700444966
 11
287.2369763472699
 21
46.37089124403766
 72
     1
 10
287.2369763472699
 20
46.37089124403766
 11
286.2903984666472
 21
45.4470406583311
 72
     1
 10
286.2903984666472
 20
45.4470406583311
 11
287.7782175137356
 21
44.16607925790036
 72
     1
 10
287.7782175137356
 20
44.16607925790036
 11
292.5927141652834
 21
48.84094620617359
 72
     1
 10
292.5927141652834
 20
48.84094620617359
 11
291.0695796177962
 21
50.17853479777325
 97
        0
 75
     0
 76
     1
 98
        1
 10
0.0
 20
0.0
  0
HATCH
  5
83
330
1F
100
AcDbEntity
  8
0
  6
Continuous
 62
     1
100
AcDbHatch
 10
0.0
 20
0.0
 30
0.0
210
0.0
220
0.0
230
1.0
  2
SOLID
 70
     1
 71
     0
 91
        1
 92
        0
 93
       10
 72
     2
 10
288.8838683441533
 20
53.49460373447415
 40
3.866351232519375
 50
317.8184992995785
 51
398.0564711573078
 73
     0
 72
     1
 10
291.9282471087245
 20
51.1112385104617
 11
293.4064204481987
 21
49.82319310062746
 72
     1
 10
293.4064204481987
 20
49.82319310062746
 11
295.2689424203894
 21
51.62984251423828
 72
     2
 10
293.9288539318962
 20
53.47176261196967
 40
2.277829406127398
 50
306.0377529468134
 51
403.4396461533871
 73
     1
 72
     1
 10
295.5827837289046
 20
55.03797557002689
 11
289.3926499413897
 21
60.42173997297782
 72
     1
 10
289.3926499413897
 20
60.42173997297782
 11
290.3290268942806
 21
61.33532761923384
 72
     1
 10
290.3290268942806
 20
61.33532761923384
 11
288.9332671290045
 21
62.58061594900059
 72
     1
 10
288.9332671290045
 20
62.58061594900059
 11
284.0798889563897
 21
57.89023557907947
 72
     1
 10
284.0798889563897
 20
57.89023557907947
 11
285.6135007724125
 21
56.55254978839827
 72
     2
 10
288.4073839080665
 20
52.68337102625687
 40
4.772455056791814
 50
234.1674444878512
 51
314.4407074583993
 73
     0
 97
        0
 75
     0
 76
     1
 98
        1
 10
0.0
 20
0.0
  0
LINE
  5
84
330
1F
100
AcDbEntity
  8
0
  6
Continuous
 62
     7
370
     0
100
AcDbLine
 10
251.7890662777
 20
26.6617788769
 30
0.0
 11
253.2890662777
 21
26.6617788769
 31
0.0
  0
LINE
  5
85
330
1F
100
AcDbEntity
  8
0
  6
Continuous
 62
     7
370
     0
100
AcDbLine
 10
247.2890662777
 20
26.6617788769
 30
0.0
 11
251.0390662777
 21
26.6617788769
 31
0.0
  0
LINE
  5
86
330
1F
100
AcDbEntity
  8
0
  6
Continuous
 62
     7
370
     0
100
AcDbLine
 10
272.0390662777
 20
22.9117788769
 30
0.0
 11
272.0390662777
 21
30.4117788769
 31
0.0
  0
LINE
  5
87
330
1F
100
AcDbEntity
  8
0
  6
Continuous
 62
     7
370
     0
100
AcDbLine
 10
261.5390662777
 20
24.4117788769
 30
0.0
 11
272.0390662777
 21
22.9117788769
 31
0.0
  0
LINE
  5
88
330
1F
100
AcDbEntity
  8
0
  6
Continuous
 62
     7
370
     0
100
AcDbLine
 10
252.5390662777
 20
25.1617788769
 30
0.0
 11
252.5390662777
 21
21.4117788769
 31
0.0
  0
LINE
  5
89
330
1F
100
AcDbEntity
  8
0
  6
Continuous
 62
     7
370
     0
100
AcDbLine
 10
272.0390662777
 20
30.4117788769
 30
0.0
 11
261.5390662777
 21
28.9117788769
 31
0.0
  0
LINE
  5
8A
330
1F
100
AcDbEntity
  8
0
  6
Continuous
 62
     7
370
     0
100
AcDbLine
 10
260.0390662777
 20
26.6617788769
 30
0.0
 11
273.5390662777
 21
26.6617788769
 31
0.0
  0
LINE
  5
8B
330
1F
100
AcDbEntity
  8
0
  6
Continuous
 62
     7
370
     0
100
AcDbLine
 10
252.5390662777
 20
27.4117788769
 30
0.0
 11
252.5390662777
 21
25.9117788769
 31
0.0
  0
LINE
  5
8C
330
1F
100
AcDbEntity
  8
0
  6
Continuous
 62
     7
370
     0
100
AcDbLine
 10
254.0390662777
 20
26.6617788769
 30
0.0
 11
257.7890662777
 21
26.6617788769
 31
0.0
  0
LINE
  5
8D
330
1F
100
AcDbEntity
  8
0
  6
Continuous
 62
     7
370
     0
100
AcDbLine
 10
252.5390662777
 20
31.9117788769
 30
0.0
 11
252.5390662777
 21
28.1617788769
 31
0.0
  0
LINE
  5
8E
330
1F
100
AcDbEntity
  8
0
  6
Continuous
 62
     7
370
     0
100
AcDbLine
 10
261.5390662777
 20
28.9117788769
 30
0.0
 11
261.5390662777
 21
24.4117788769
 31
0.0
  0
LINE
  5
8F
330
1F
100
AcDbEntity
  8
工作區域參考線
 62
     1
370
    30
100
AcDbLine
 10
285.6135007724
 20
56.5525497884
 30
0.0
 11
284.0798889564
 21
57.8902355791
 31
0.0
  0
LINE
  5
90
330
1F
100
AcDbEntity
  8
工作區域參考線
 62
     1
370
    30
100
AcDbLine
 10
284.0798889564
 20
57.8902355791
 30
0.0
 11
288.933267129
 21
62.580615949
 31
0.0
  0
LINE
  5
91
330
1F
100
AcDbEntity
  8
工作區域參考線
 62
     1
370
    30
100
AcDbLine
 10
288.933267129
 20
62.580615949
 30
0.0
 11
290.3290268943
 21
61.3353276192
 31
0.0
  0
LINE
  5
92
330
1F
100
AcDbEntity
  8
工作區域參考線
 62
     1
370
    30
100
AcDbLine
 10
290.3290268943
 20
61.3353276192
 30
0.0
 11
289.3926499414
 21
60.421739973
 31
0.0
  0
LINE
  5
93
330
1F
100
AcDbEntity
  8
工作區域參考線
 62
     1
370
    30
100
AcDbLine
 10
289.3926499414
 20
60.421739973
 30
0.0
 11
295.5827837289
 21
55.03797557
 31
0.0
  0
LINE
  5
94
330
1F
100
AcDbEntity
  8
工作區域參考線
 62
     1
370
    30
100
AcDbLine
 10
291.9282471087
 20
51.1112385105
 30
0.0
 11
293.4064204482
 21
49.8231931006
 31
0.0
  0
LINE
  5
95
330
1F
100
AcDbEntity
  8
工作區域參考線
 62
     1
370
    30
100
AcDbLine
 10
293.4064204482
 20
49.8231931006
 30
0.0
 11
295.2689424204
 21
51.6298425142
 31
0.0
  0
LINE
  5
96
330
1F
100
AcDbEntity
  8
0
  6
Continuous
 62
     7
370
     0
100
AcDbLine
 10
278.5361947814
 20
19.6728696119
 30
0.0
 11
428.5361947814
 21
19.6728696119
 31
0.0
  0
LINE
  5
97
330
1F
100
AcDbEntity
  8
0
  6
Continuous
 62
     7
370
     0
100
AcDbLine
 10
278.5361947814
 20
27.1728696119
 30
0.0
 11
353.5361947814
 21
27.1728696119
 31
0.0
  0
LINE
  5
98
330
1F
100
AcDbEntity
  8
0
  6
Continuous
 62
     7
370
     0
100
AcDbLine
 10
278.5361947814
 20
34.6728696119
 30
0.0
 11
353.5361947814
 21
34.6728696119
 31
0.0
  0
LINE
  5
99
330
1F
100
AcDbEntity
  8
0
  6
Continuous
 62
     7
370
     0
100
AcDbLine
 10
278.5361947814
 20
42.1728696119
 30
0.0
 11
428.5361947814
 21
42.1728696119
 31
0.0
  0
LINE
  5
9A
330
1F
100
AcDbEntity
  8
0
  6
Continuous
 62
     7
370
     0
100
AcDbLine
 10
353.5361947814
 20
49.6728696119
 30
0.0
 11
428.5361947814
 21
49.6728696119
 31
0.0
  0
LINE
  5
9B
330
1F
100
AcDbEntity
  8
0
  6
Continuous
 62
     7
370
    15
100
AcDbLine
 10
353.5361947814
 20
27.1728696119
 30
0.0
 11
428.5361947814
 21
27.1728696119
 31
0.0
  0
LINE
  5
9C
330
1F
100
AcDbEntity
  8
0
  6
Continuous
 62
     7
370
     0
100
AcDbLine
 10
278.5361947814
 20
64.6728696119
 30
0.0
 11
428.5361947814
 21
64.6728696119
 31
0.0
  0
LINE
  5
9D
330
1F
100
AcDbEntity
  8
0
  6
Continuous
 62
     7
370
     0
100
AcDbLine
 10
376.8558265126
 20
12.1728696119
 30
0.0
 11
376.8558265126
 21
27.1728696119
 31
0.0
  0
LINE
  5
9E
330
1F
100
AcDbEntity
  8
0
  6
Continuous
 62
     7
370
     0
100
AcDbLine
 10
353.5361947814
 20
12.1728696119
 30
0.0
 11
353.5361947814
 21
64.6728696119
 31
0.0
  0
LINE
  5
9F
330
1F
100
AcDbEntity
  8
0
  6
Continuous
 62
     7
370
     0
100
AcDbLine
 10
376.8558265126
 20
42.1728696119
 30
0.0
 11
376.8558265126
 21
49.6728696119
 31
0.0
  0
LINE
  5
A0
330
1F
100
AcDbEntity
  8
0
  6
Continuous
 62
     7
370
     0
100
AcDbLine
 10
321.624612953
 20
12.1728696119
 30
0.0
 11
321.624612953
 21
42.1728696119
 31
0.0
  0
LINE
  5
A1
330
1F
100
AcDbEntity
  8
0
  6
Continuous
 62
     7
370
     0
100
AcDbLine
 10
299.6678831259
 20
12.1728696119
 30
0.0
 11
299.6678831259
 21
42.1728696119
 31
0.0
  0
LINE
  5
A2
330
1F
100
AcDbEntity
  8
0
  6
Continuous
 62
     7
370
     0
100
AcDbLine
 10
278.5361947814
 20
12.1728696119
 30
0.0
 11
278.5361947814
 21
64.6728696119
 31
0.0
  0
LINE
  5
A3
330
1F
100
AcDbEntity
  8
0
  6
Continuous
 62
     7
370
    15
100
AcDbLine
 10
13.0361947814
 20
157.1154554872
 30
0.0
 11
22.0361947814
 21
157.1154554872
 31
0.0
  0
LINE
  5
A4
330
1F
100
AcDbEntity
  8
0
  6
Continuous
 62
     7
370
    15
100
AcDbLine
 10
428.5361947814
 20
157.1154554872
 30
0.0
 11
419.5361947814
 21
157.1154554872
 31
0.0
  0
LINE
  5
A5
330
1F
100
AcDbEntity
  8
0
  6
Continuous
 62
     7
370
    15
100
AcDbLine
 10
220.7861947814
 20
12.1728696119
 30
0.0
 11
220.7861947814
 21
21.1728696119
 31
0.0
  0
LINE
  5
A6
330
1F
100
AcDbEntity
  8
0
  6
Continuous
 62
     7
370
    15
100
AcDbLine
 10
220.7861947814
 20
302.0580413626
 30
0.0
 11
220.7861947814
 21
293.0580413626
 31
0.0
  0
LINE
  5
A7
330
1F
100
AcDbEntity
  8
0
  6
Continuous
 62
     7
370
    15
100
AcDbLine
 10
64.9811947814
 20
302.0580413626
 30
0.0
 11
64.9811947814
 21
304.3080413626
 31
0.0
  0
LINE
  5
A8
330
1F
100
AcDbEntity
  8
0
  6
Continuous
 62
     7
370
    15
100
AcDbLine
 10
116.9261947814
 20
302.0580413626
 30
0.0
 11
116.9261947814
 21
304.3080413626
 31
0.0
  0
LINE
  5
A9
330
1F
100
AcDbEntity
  8
0
  6
Continuous
 62
     7
370
    15
100
AcDbLine
 10
168.8711947814
 20
302.0580413626
 30
0.0
 11
168.8711947814
 21
304.3080413626
 31
0.0
  0
LINE
  5
AA
330
1F
100
AcDbEntity
  8
0
  6
Continuous
 62
     7
370
    15
100
AcDbLine
 10
220.8161947814
 20
302.0580413626
 30
0.0
 11
220.8161947814
 21
304.3080413626
 31
0.0
  0
LINE
  5
AB
330
1F
100
AcDbEntity
  8
0
  6
Continuous
 62
     7
370
    15
100
AcDbLine
 10
272.7611947814
 20
302.0580413626
 30
0.0
 11
272.7611947814
 21
304.3080413626
 31
0.0
  0
LINE
  5
AC
330
1F
100
AcDbEntity
  8
0
  6
Continuous
 62
     7
370
    15
100
AcDbLine
 10
324.7061947814
 20
302.0580413626
 30
0.0
 11
324.7061947814
 21
304.3080413626
 31
0.0
  0
LINE
  5
AD
330
1F
100
AcDbEntity
  8
0
  6
Continuous
 62
     7
370
    15
100
AcDbLine
 10
376.6511947814
 20
302.0580413626
 30
0.0
 11
376.6511947814
 21
304.3080413626
 31
0.0
  0
LINE
  5
AE
330
1F
100
AcDbEntity
  8
0
  6
Continuous
 62
     7
370
    15
100
AcDbLine
 10
64.9736947814
 20
12.1728696119
 30
0.0
 11
64.9736947814
 21
9.9228696119
 31
0.0
  0
LINE
  5
AF
330
1F
100
AcDbEntity
  8
0
  6
Continuous
 62
     7
370
    15
100
AcDbLine
 10
116.9111947814
 20
12.1728696119
 30
0.0
 11
116.9111947814
 21
9.9228696119
 31
0.0
  0
LINE
  5
B0
330
1F
100
AcDbEntity
  8
0
  6
Continuous
 62
     7
370
    15
100
AcDbLine
 10
168.8486947814
 20
12.1728696119
 30
0.0
 11
168.8486947814
 21
9.9228696119
 31
0.0
  0
LINE
  5
B1
330
1F
100
AcDbEntity
  8
0
  6
Continuous
 62
     7
370
    15
100
AcDbLine
 10
220.7861947814
 20
12.1728696119
 30
0.0
 11
220.7861947814
 21
9.9228696119
 31
0.0
  0
LINE
  5
B2
330
1F
100
AcDbEntity
  8
0
  6
Continuous
 62
     7
370
    15
100
AcDbLine
 10
272.7236947814
 20
12.1728696119
 30
0.0
 11
272.7236947814
 21
9.9228696119
 31
0.0
  0
LINE
  5
B3
330
1F
100
AcDbEntity
  8
0
  6
Continuous
 62
     7
370
    15
100
AcDbLine
 10
324.6611947814
 20
12.1728696119
 30
0.0
 11
324.6611947814
 21
9.9228696119
 31
0.0
  0
LINE
  5
B4
330
1F
100
AcDbEntity
  8
0
  6
Continuous
 62
     7
370
     0
100
AcDbLine
 10
428.5361947814
 20
302.0580413626
 30
0.0
 11
13.0361947814
 21
302.0580413626
 31
0.0
  0
LINE
  5
B5
330
1F
100
AcDbEntity
  8
0
  6
Continuous
 62
     7
370
     0
100
AcDbLine
 10
428.5361947814
 20
12.1728696119
 30
0.0
 11
428.5361947814
 21
302.0580413626
 31
0.0
  0
LINE
  5
B6
330
1F
100
AcDbEntity
  8
0
  6
Continuous
 62
     7
370
     0
100
AcDbLine
 10
13.0361947814
 20
302.0580413626
 30
0.0
 11
13.0361947814
 21
12.1728696119
 31
0.0
  0
LINE
  5
B7
330
1F
100
AcDbEntity
  8
0
  6
Continuous
 62
     7
370
     0
100
AcDbLine
 10
13.0361947814
 20
12.1728696119
 30
0.0
 11
428.5361947814
 21
12.1728696119
 31
0.0
  0
LINE
  5
B8
330
1F
100
AcDbEntity
  8
0
  6
Continuous
 62
     7
370
    15
100
AcDbLine
 10
376.5986947814
 20
12.1728696119
 30
0.0
 11
376.5986947814
 21
9.9228696119
 31
0.0
  0
LINE
  5
B9
330
1F
100
AcDbEntity
  8
0
  6
Continuous
 62
     7
370
    15
100
AcDbLine
 10
13.0361947814
 20
60.4878696119
 30
0.0
 11
10.7861947814
 21
60.4878696119
 31
0.0
  0
LINE
  5
BA
330
1F
100
AcDbEntity
  8
0
  6
Continuous
 62
     7
370
    15
100
AcDbLine
 10
13.0361947814
 20
108.8028696119
 30
0.0
 11
10.7861947814
 21
108.8028696119
 31
0.0
  0
LINE
  5
BB
330
1F
100
AcDbEntity
  8
0
  6
Continuous
 62
     7
370
    15
100
AcDbLine
 10
13.0361947814
 20
157.1178696119
 30
0.0
 11
10.7861947814
 21
157.1178696119
 31
0.0
  0
LINE
  5
BC
330
1F
100
AcDbEntity
  8
0
  6
Continuous
 62
     7
370
    15
100
AcDbLine
 10
13.0361947814
 20
205.4328696119
 30
0.0
 11
10.7861947814
 21
205.4328696119
 31
0.0
  0
LINE
  5
BD
330
1F
100
AcDbEntity
  8
0
  6
Continuous
 62
     7
370
    15
100
AcDbLine
 10
13.0361947814
 20
253.7478696119
 30
0.0
 11
10.7861947814
 21
253.7478696119
 31
0.0
  0
LINE
  5
BE
330
1F
100
AcDbEntity
  8
0
  6
Continuous
 62
     7
370
    15
100
AcDbLine
 10
428.5361947814
 20
60.4878696119
 30
0.0
 11
430.7861947814
 21
60.4878696119
 31
0.0
  0
LINE
  5
BF
330
1F
100
AcDbEntity
  8
0
  6
Continuous
 62
     7
370
    15
100
AcDbLine
 10
428.5361947814
 20
108.8028696119
 30
0.0
 11
430.7861947814
 21
108.8028696119
 31
0.0
  0
LINE
  5
C0
330
1F
100
AcDbEntity
  8
0
  6
Continuous
 62
     7
370
    15
100
AcDbLine
 10
428.5361947814
 20
157.1178696119
 30
0.0
 11
430.7861947814
 21
157.1178696119
 31
0.0
  0
LINE
  5
C1
330
1F
100
AcDbEntity
  8
0
  6
Continuous
 62
     7
370
    15
100
AcDbLine
 10
428.5361947814
 20
205.4328696119
 30
0.0
 11
430.7861947814
 21
205.4328696119
 31
0.0
  0
LINE
  5
C2
330
1F
100
AcDbEntity
  8
0
  6
Continuous
 62
     7
370
    15
100
AcDbLine
 10
428.5361947814
 20
253.7478696119
 30
0.0
 11
430.7861947814
 21
253.7478696119
 31
0.0
  0
CIRCLE
  5
C3
330
1F
100
AcDbEntity
  8
0
  6
Continuous
 62
     7
370
     0
100
AcDbCircle
 10
252.5390662777
 20
26.6617788769
 30
0.0
 40
2.249999999999943
  0
CIRCLE
  5
C4
330
1F
100
AcDbEntity
  8
0
  6
Continuous
 62
     7
370
     0
100
AcDbCircle
 10
252.5390662777
 20
26.6617788769
 30
0.0
 40
3.749999999999943
  0
ARC
  5
C5
330
1F
100
AcDbEntity
  8
工作區域參考線
 62
     1
370
    30
100
AcDbCircle
 10
293.9288539319
 20
53.471762612
 30
0.0
 40
2.277829406127415
100
AcDbArc
 50
306.0377529468
 51
43.4396461534
  0
ARC
  5
C6
330
1F
100
AcDbEntity
  8
工作區域參考線
 62
     1
370
    30
100
AcDbCircle
 10
288.4073839081
 20
52.6833710263
 30
0.0
 40
4.772455056791824
100
AcDbArc
 50
45.5592925416
 51
125.8325555121
  0
ARC
  5
C7
330
1F
100
AcDbEntity
  8
工作區域參考線
 62
     1
370
    30
100
AcDbCircle
 10
288.8838683442
 20
53.4946037345
 30
0.0
 40
3.866351232519385
100
AcDbArc
 50
321.9435288427
 51
42.1815007004
  0
INSERT
  5
C8
330
1F
100
AcDbEntity
  8
0
  6
Continuous
 62
     7
100
AcDbBlockReference
  2
圖塊6
 10
280.446138547
 20
44.1660792579
 30
0.0
  0
MTEXT
  5
CA
330
1F
100
AcDbEntity
  8
0
  6
Continuous
 62
     7
370
     0
100
AcDbMText
 10
248.3140276206
 20
19.8312660554
 30
0.0
 40
3.96875
 41
0.0
 71
     1
 72
     1
  1
UNIT:m/m
  7
SLDTEXTSTYLE0
 73
     1
 44
1.0
  0
INSERT
  5
D1
330
1F
100
AcDbEntity
  8
0
  6
Continuous
 62
     7
370
     0
100
AcDbBlockReference
  2
SW_NOTE_0
 10
18.347261408
 20
290.8356456377
 30
0.0
  0
MTEXT
  5
D3
330
1F
100
AcDbEntity
  8
0
  6
Continuous
 62
     7
370
     0
100
AcDbMText
 10
298.0877840902
 20
60.6610161208
 30
0.0
 40
3.571875
 41
0.0
 71
     1
 72
     1
  1
Unice E-O Services Inc.
  7
SLDTEXTSTYLE1
 73
     1
 44
1.0
  0
MTEXT
  5
D4
330
1F
100
AcDbEntity
  8
0
  6
Continuous
 62
     7
370
     0
100
AcDbMText
 10
326.3385807224
 20
32.3800722766
 30
0.0
 40
2.778125
 41
0.0
 71
     1
 72
     1
  1
2015/4/17
  7
SLDTEXTSTYLE0
 73
     1
 44
1.0
  0
MTEXT
  5
D5
330
1F
100
AcDbEntity
  8
0
  6
Continuous
 62
     7
370
     0
100
AcDbMText
 10
378.913347376
 20
25.30676661
 30
0.0
 40
3.75
 41
0.0
 71
     1
 72
     1
  1
1:1.5
  7
SLDTEXTSTYLE0
 73
     1
 44
1.0
  0
MTEXT
  5
D6
330
1F
100
AcDbEntity
  8
0
  6
Continuous
 62
     7
370
     0
100
AcDbMText
 10
378.4613399977
 20
48.2278793156
 30
0.0
 40
3.75
 41
0.0
 71
     1
 72
     1
  1
04VCH-1M
  7
SLDTEXTSTYLE0
 73
     1
 44
1.0
  0
MTEXT
  5
D7
330
1F
100
AcDbEntity
  8
0
  6
Continuous
 62
     7
370
     0
100
AcDbMText
 10
378.4613399977
 20
57.1623176818
 30
0.0
 40
3.75
 41
0.0
 71
     1
 72
     1
  1
04VCH-1M
  7
SLDTEXTSTYLE0
 73
     1
 44
1.0
  0
MTEXT
  5
D8
330
1F
100
AcDbEntity
  8
0
  6
Continuous
 62
     7
370
     0
100
AcDbMText
 10
354.588280018
 20
24.7597193593
 30
0.0
 40
3.175
 41
0.0
 71
     1
 72
     1
  1
SCALE:
  7
SLDTEXTSTYLE0
 73
     1
 44
1.0
  0
MTEXT
  5
D9
330
1F
100
AcDbEntity
  8
0
  6
Continuous
 62
     7
370
     0
100
AcDbMText
 10
279.5004130184
 20
32.3800722766
 30
0.0
 40
2.778125
 41
0.0
 71
     1
 72
     1
  1
DRAWN
  7
SLDTEXTSTYLE0
 73
     1
 44
1.0
  0
MTEXT
  5
DA
330
1F
100
AcDbEntity
  8
0
  6
Continuous
 62
     7
370
     0
100
AcDbMText
 10
304.8342551905
 20
40.024812462
 30
0.0
 40
2.778125
 41
0.0
 71
     1
 72
     1
  1
NAME
  7
SLDTEXTSTYLE0
 73
     1
 44
1.0
  0
MTEXT
  5
DB
330
1F
100
AcDbEntity
  8
0
  6
Continuous
 62
     7
370
     0
100
AcDbMText
 10
331.3065233636
 20
40.024812462
 30
0.0
 40
2.778125
 41
0.0
 71
     1
 72
     1
  1
DATE
  7
SLDTEXTSTYLE0
 73
     1
 44
1.0
  0
MTEXT
  5
DC
330
1F
100
AcDbEntity
  8
0
  6
Continuous
 62
     7
370
     0
100
AcDbMText
 10
354.4134474968
 20
47.6808320649
 30
0.0
 40
3.175
 41
0.0
 71
     1
 72
     1
  1
DWG. NO.
  7
SLDTEXTSTYLE0
 73
     1
 44
1.0
  0
MTEXT
  5
DD
330
1F
100
AcDbEntity
  8
0
  6
Continuous
 62
     7
370
     0
100
AcDbMText
 10
354.5444860632
 20
62.8260987365
 30
0.0
 40
3.175
 41
0.0
 71
     1
 72
     1
  1
TITLE:
  7
SLDTEXTSTYLE0
 73
     1
 44
1.0
  0
INSERT
  5
E4
330
1F
100
AcDbEntity
  8
0
  6
Continuous
 62
     7
370
     0
100
AcDbBlockReference
  2
SW_NOTE_1
 10
298.0877840902
 20
48.8036189306
 30
0.0
  0
MTEXT
  5
E5
330
1F
100
AcDbEntity
  8
0
  6
Continuous
 62
     7
370
     0
100
AcDbMText
 10
304.5471314703
 20
24.3605684586
 30
0.0
 40
2.778125
 41
0.0
 71
     1
 72
     1
  1
Johnny
  7
SLDTEXTSTYLE0
 73
     1
 44
1.0
  0
MTEXT
  5
E6
330
1F
100
AcDbEntity
  8
0
  6
Continuous
 62
     7
370
     0
100
AcDbMText
 10
326.3385807224
 20
24.3605684586
 30
0.0
 40
2.778125
 41
0.0
 71
     1
 72
     1
  1
2015/4/17
  7
SLDTEXTSTYLE0
 73
     1
 44
1.0
  0
MTEXT
  5
E7
330
1F
100
AcDbEntity
  8
0
  6
Continuous
 62
     7
370
     0
100
AcDbMText
 10
279.5004130184
 20
24.3605684586
 30
0.0
 40
2.778125
 41
0.0
 71
     1
 72
     1
  1
ENG APPR.
  7
SLDTEXTSTYLE0
 73
     1
 44
1.0
  0
MTEXT
  5
E8
330
1F
100
AcDbEntity
  8
0
  6
Continuous
 62
     7
370
     0
100
AcDbMText
 10
354.588280018
 20
17.5280083932
 30
0.0
 40
3.175
 41
0.0
 71
     1
 72
     1
  1
REV
  7
SLDTEXTSTYLE0
 73
     1
 44
1.0
  0
MTEXT
  5
E9
330
1F
100
AcDbEntity
  8
0
  6
Continuous
 62
     7
370
     0
100
AcDbMText
 10
354.5444860632
 20
40.4239633627
 30
0.0
 40
3.175
 41
0.0
 71
     1
 72
     1
  1
MATERIAL:
  7
SLDTEXTSTYLE0
 73
     1
 44
1.0
  0
MTEXT
  5
EA
330
1F
100
AcDbEntity
  8
0
  6
Continuous
 62
     7
370
     0
100
AcDbMText
 10
378.913347376
 20
33.326270428
 30
0.0
 40
3.75
 41
0.0
 71
     1
 72
     1
  1
N/A
  7
SLDTEXTSTYLE0
 73
     1
 44
1.0
  0
MTEXT
  5
EB
330
1F
100
AcDbEntity
  8
0
  6
Continuous
 62
     7
370
     0
100
AcDbMText
 10
39.90448973
 20
306.6800274854
 30
0.0
 40
3.175
 41
0.0
 71
     1
 72
     1
  1
1
  7
SLDTEXTSTYLE0
 73
     1
 44
1.0
  0
MTEXT
  5
EC
330
1F
100
AcDbEntity
  8
0
  6
Continuous
 62
     7
370
     0
100
AcDbMText
 10
91.0756493586
 20
306.6800274854
 30
0.0
 40
3.175
 41
0.0
 71
     1
 72
     1
  1
2
  7
SLDTEXTSTYLE0
 73
     1
 44
1.0
  0
MTEXT
  5
ED
330
1F
100
AcDbEntity
  8
0
  6
Continuous
 62
     7
370
     0
100
AcDbMText
 10
142.3514915859
 20
306.6800274854
 30
0.0
 40
3.175
 41
0.0
 71
     1
 72
     1
  1
3
  7
SLDTEXTSTYLE0
 73
     1
 44
1.0
  0
MTEXT
  5
EE
330
1F
100
AcDbEntity
  8
0
  6
Continuous
 62
     7
370
     0
100
AcDbMText
 10
193.8800044277
 20
306.4488876546
 30
0.0
 40
3.175
 41
0.0
 71
     1
 72
     1
  1
4
  7
SLDTEXTSTYLE0
 73
     1
 44
1.0
  0
MTEXT
  5
EF
330
1F
100
AcDbEntity
  8
0
  6
Continuous
 62
     7
370
     0
100
AcDbMText
 10
245.5534851959
 20
306.6800274854
 30
0.0
 40
3.175
 41
0.0
 71
     1
 72
     1
  1
5
  7
SLDTEXTSTYLE0
 73
     1
 44
1.0
  0
MTEXT
  5
F0
330
1F
100
AcDbEntity
  8
0
  6
Continuous
 62
     7
370
     0
100
AcDbMText
 10
297.9573255623
 20
306.6800274854
 30
0.0
 40
3.175
 41
0.0
 71
     1
 72
     1
  1
6
  7
SLDTEXTSTYLE0
 73
     1
 44
1.0
  0
MTEXT
  5
F1
330
1F
100
AcDbEntity
  8
0
  6
Continuous
 62
     7
370
     0
100
AcDbMText
 10
351.544598611
 20
306.6800274854
 30
0.0
 40
3.175
 41
0.0
 71
     1
 72
     1
  1
7
  7
SLDTEXTSTYLE0
 73
     1
 44
1.0
  0
MTEXT
  5
F2
330
1F
100
AcDbEntity
  8
0
  6
Continuous
 62
     7
370
     0
100
AcDbMText
 10
399.4181730741
 20
306.6800274854
 30
0.0
 40
3.175
 41
0.0
 71
     1
 72
     1
  1
8
  7
SLDTEXTSTYLE0
 73
     1
 44
1.0
  0
MTEXT
  5
F3
330
1F
100
AcDbEntity
  8
0
  6
Continuous
 62
     7
370
     0
100
AcDbMText
 10
8.0352354832
 20
278.7169534319
 30
0.0
 40
3.175
 41
0.0
 71
     1
 72
     1
  1
A
  7
SLDTEXTSTYLE0
 73
     1
 44
1.0
  0
MTEXT
  5
F4
330
1F
100
AcDbEntity
  8
0
  6
Continuous
 62
     7
370
     0
100
AcDbMText
 10
8.3865647747
 20
231.4489572357
 30
0.0
 40
3.175
 41
0.0
 71
     1
 72
     1
  1
B
  7
SLDTEXTSTYLE0
 73
     1
 44
1.0
  0
MTEXT
  5
F5
330
1F
100
AcDbEntity
  8
0
  6
Continuous
 62
     7
370
     0
100
AcDbMText
 10
8.3865647747
 20
181.9115271345
 30
0.0
 40
3.175
 41
0.0
 71
     1
 72
     1
  1
C
  7
SLDTEXTSTYLE0
 73
     1
 44
1.0
  0
MTEXT
  5
F6
330
1F
100
AcDbEntity
  8
0
  6
Continuous
 62
     7
370
     0
100
AcDbMText
 10
8.3865647747
 20
133.1179830331
 30
0.0
 40
3.175
 41
0.0
 71
     1
 72
     1
  1
D
  7
SLDTEXTSTYLE0
 73
     1
 44
1.0
  0
MTEXT
  5
F7
330
1F
100
AcDbEntity
  8
0
  6
Continuous
 62
     7
370
     0
100
AcDbMText
 10
8.3865647747
 20
86.3338273796
 30
0.0
 40
3.175
 41
0.0
 71
     1
 72
     1
  1
E
  7
SLDTEXTSTYLE0
 73
     1
 44
1.0
  0
MTEXT
  5
F8
330
1F
100
AcDbEntity
  8
0
  6
Continuous
 62
     7
370
     0
100
AcDbMText
 10
8.3865647747
 20
38.3541318378
 30
0.0
 40
3.175
 41
0.0
 71
     1
 72
     1
  1
F
  7
SLDTEXTSTYLE0
 73
     1
 44
1.0
  0
MTEXT
  5
F9
330
1F
100
AcDbEntity
  8
0
  6
Continuous
 62
     7
370
     0
100
AcDbMText
 10
399.2787925446
 20
9.9354335945
 30
0.0
 40
3.175
 41
0.0
 71
     1
 72
     1
  1
8
  7
SLDTEXTSTYLE0
 73
     1
 44
1.0
  0
MTEXT
  5
FA
330
1F
100
AcDbEntity
  8
0
  6
Continuous
 62
     7
370
     0
100
AcDbMText
 10
351.4052180815
 20
9.9354335945
 30
0.0
 40
3.175
 41
0.0
 71
     1
 72
     1
  1
7
  7
SLDTEXTSTYLE0
 73
     1
 44
1.0
  0
MTEXT
  5
FB
330
1F
100
AcDbEntity
  8
0
  6
Continuous
 62
     7
370
     0
100
AcDbMText
 10
297.8179450327
 20
9.9354335945
 30
0.0
 40
3.175
 41
0.0
 71
     1
 72
     1
  1
6
  7
SLDTEXTSTYLE0
 73
     1
 44
1.0
  0
MTEXT
  5
FC
330
1F
100
AcDbEntity
  8
0
  6
Continuous
 62
     7
370
     0
100
AcDbMText
 10
245.4141046664
 20
9.9354335945
 30
0.0
 40
3.175
 41
0.0
 71
     1
 72
     1
  1
5
  7
SLDTEXTSTYLE0
 73
     1
 44
1.0
  0
MTEXT
  5
FD
330
1F
100
AcDbEntity
  8
0
  6
Continuous
 62
     7
370
     0
100
AcDbMText
 10
193.7406238981
 20
9.7042937637
 30
0.0
 40
3.175
 41
0.0
 71
     1
 72
     1
  1
4
  7
SLDTEXTSTYLE0
 73
     1
 44
1.0
  0
MTEXT
  5
FE
330
1F
100
AcDbEntity
  8
0
  6
Continuous
 62
     7
370
     0
100
AcDbMText
 10
142.2121110564
 20
9.9354335945
 30
0.0
 40
3.175
 41
0.0
 71
     1
 72
     1
  1
3
  7
SLDTEXTSTYLE0
 73
     1
 44
1.0
  0
MTEXT
  5
FF
330
1F
100
AcDbEntity
  8
0
  6
Continuous
 62
     7
370
     0
100
AcDbMText
 10
90.9362688291
 20
9.9354335945
 30
0.0
 40
3.175
 41
0.0
 71
     1
 72
     1
  1
2
  7
SLDTEXTSTYLE0
 73
     1
 44
1.0
  0
MTEXT
  5
100
330
1F
100
AcDbEntity
  8
0
  6
Continuous
 62
     7
370
     0
100
AcDbMText
 10
39.7651092004
 20
9.9354335945
 30
0.0
 40
3.175
 41
0.0
 71
     1
 72
     1
  1
1
  7
SLDTEXTSTYLE0
 73
     1
 44
1.0
  0
MTEXT
  5
101
330
1F
100
AcDbEntity
  8
0
  6
Continuous
 62
     7
370
     0
100
AcDbMText
 10
430.6535769217
 20
279.9637363637
 30
0.0
 40
3.175
 41
0.0
 71
     1
 72
     1
  1
A
  7
SLDTEXTSTYLE0
 73
     1
 44
1.0
  0
MTEXT
  5
102
330
1F
100
AcDbEntity
  8
0
  6
Continuous
 62
     7
370
     0
100
AcDbMText
 10
431.0049062132
 20
232.6957401676
 30
0.0
 40
3.175
 41
0.0
 71
     1
 72
     1
  1
B
  7
SLDTEXTSTYLE0
 73
     1
 44
1.0
  0
MTEXT
  5
103
330
1F
100
AcDbEntity
  8
0
  6
Continuous
 62
     7
370
     0
100
AcDbMText
 10
431.0049062132
 20
183.1583100664
 30
0.0
 40
3.175
 41
0.0
 71
     1
 72
     1
  1
C
  7
SLDTEXTSTYLE0
 73
     1
 44
1.0
  0
MTEXT
  5
104
330
1F
100
AcDbEntity
  8
0
  6
Continuous
 62
     7
370
     0
100
AcDbMText
 10
431.0049062132
 20
134.364765965
 30
0.0
 40
3.175
 41
0.0
 71
     1
 72
     1
  1
D
  7
SLDTEXTSTYLE0
 73
     1
 44
1.0
  0
MTEXT
  5
105
330
1F
100
AcDbEntity
  8
0
  6
Continuous
 62
     7
370
     0
100
AcDbMText
 10
431.0049062132
 20
87.5806103114
 30
0.0
 40
3.175
 41
0.0
 71
     1
 72
     1
  1
E
  7
SLDTEXTSTYLE0
 73
     1
 44
1.0
  0
MTEXT
  5
106
330
1F
100
AcDbEntity
  8
0
  6
Continuous
 62
     7
370
     0
100
AcDbMText
 10
431.0049062132
 20
39.6009147696
 30
0.0
 40
3.175
 41
0.0
 71
     1
 72
     1
  1
F
  7
SLDTEXTSTYLE0
 73
     1
 44
1.0
  0
MTEXT
  5
107
330
1F
100
AcDbEntity
  8
0
  6
Continuous
 62
     7
370
     0
100
AcDbMText
 10
304.7329693203
 20
32.3800722766
 30
0.0
 40
2.778125
 41
0.0
 71
     1
 72
     1
  1
Miki
  7
SLDTEXTSTYLE0
 73
     1
 44
1.0
  0
MTEXT
  5
108
330
1F
100
AcDbEntity
  8
0
  6
Continuous
 62
     7
370
     0
100
AcDbMText
 10
379.2723359468
 20
18.0750556439
 30
0.0
 40
3.75
 41
0.0
 71
     1
 72
     1
  1
0
  7
SLDTEXTSTYLE0
 73
     1
 44
1.0
  0
LINE
  5
109
330
1F
100
AcDbEntity
  8
0
  6
Continuous
 62
     7
370
    30
100
AcDbLine
 10
221.0024885061
 20
231.1405565149
 30
0.0
 11
221.0024885061
 21
232.1405565149
 31
0.0
  0
LINE
  5
10A
330
1F
100
AcDbEntity
  8
0
  6
Continuous
 62
     7
370
    30
100
AcDbLine
 10
217.0024885061
 20
232.1405565149
 30
0.0
 11
217.0024885061
 21
231.1405565149
 31
0.0
  0
LINE
  5
10B
330
1F
100
AcDbEntity
  8
0
  6
Continuous
 62
     7
370
    30
100
AcDbLine
 10
213.0024885061
 20
246.1405565149
 30
0.0
 11
212.7631110435
 21
245.9011790522
 31
0.0
  0
LINE
  5
10C
330
1F
100
AcDbEntity
  8
0
  6
Continuous
 62
     7
370
    30
100
AcDbLine
 10
212.7631110435
 20
238.3799339775
 30
0.0
 11
213.0024885061
 21
238.1405565149
 31
0.0
  0
LINE
  5
10D
330
1F
100
AcDbEntity
  8
0
  6
Continuous
 62
     7
370
    30
100
AcDbLine
 10
225.0024885061
 20
238.1405565149
 30
0.0
 11
225.4927317764
 21
238.6307997852
 31
0.0
  0
LINE
  5
10E
330
1F
100
AcDbEntity
  8
0
  6
Continuous
 62
     7
370
    30
100
AcDbLine
 10
225.4927317764
 20
245.6503132446
 30
0.0
 11
225.0024885061
 21
246.1405565149
 31
0.0
  0
LINE
  5
10F
330
1F
100
AcDbEntity
  8
0
  6
Continuous
 62
     7
370
    30
100
AcDbLine
 10
222.5024885061
 20
237.6405565149
 30
0.0
 11
222.5024885061
 21
238.1405565149
 31
0.0
  0
LINE
  5
110
330
1F
100
AcDbEntity
  8
0
  6
Continuous
 62
     7
370
    30
100
AcDbLine
 10
215.5024885061
 20
238.1405565149
 30
0.0
 11
215.5024885061
 21
237.6405565149
 31
0.0
  0
LINE
  5
111
330
1F
100
AcDbEntity
  8
0
  6
Continuous
 62
     7
370
    30
100
AcDbLine
 10
180.1571890445
 20
231.6405565149
 30
0.0
 11
179.5798387753
 21
232.6405565149
 31
0.0
  0
LINE
  5
112
330
1F
100
AcDbEntity
  8
0
  6
Continuous
 62
     7
370
    30
100
AcDbLine
 10
178.4251382369
 20
232.6405565149
 30
0.0
 11
179.5798387753
 21
232.6405565149
 31
0.0
  0
LINE
  5
113
330
1F
100
AcDbEntity
  8
0
  6
Continuous
 62
     7
370
    30
100
AcDbLine
 10
177.8477879677
 20
231.6405565149
 30
0.0
 11
178.4251382369
 21
232.6405565149
 31
0.0
  0
LINE
  5
114
330
1F
100
AcDbEntity
  8
0
  6
Continuous
 62
     7
370
    30
100
AcDbLine
 10
178.4251382369
 20
230.6405565149
 30
0.0
 11
177.8477879677
 21
231.6405565149
 31
0.0
  0
LINE
  5
115
330
1F
100
AcDbEntity
  8
0
  6
Continuous
 62
     7
370
    30
100
AcDbLine
 10
179.5798387753
 20
230.6405565149
 30
0.0
 11
178.4251382369
 21
230.6405565149
 31
0.0
  0
LINE
  5
116
330
1F
100
AcDbEntity
  8
0
  6
Continuous
 62
     7
370
    30
100
AcDbLine
 10
180.1571890445
 20
231.6405565149
 30
0.0
 11
179.5798387753
 21
230.6405565149
 31
0.0
  0
LINE
  5
117
330
1F
100
AcDbEntity
  8
0
  6
Continuous
 62
     7
370
    30
100
AcDbLine
 10
219.4071995919
 20
246.1405565149
 30
0.0
 11
219.1906058997
 21
245.6405565149
 31
0.0
  0
LINE
  5
118
330
1F
100
AcDbEntity
  8
0
  6
Continuous
 62
     7
370
    30
100
AcDbLine
 10
219.1906058997
 20
245.6405565149
 30
0.0
 11
218.9351793484
 21
245.6405565149
 31
0.0
  0
LINE
  5
119
330
1F
100
AcDbEntity
  8
0
  6
Continuous
 62
     7
370
    30
100
AcDbLine
 10
218.9351793484
 20
245.6405565149
 30
0.0
 11
218.7091253474
 21
246.1405565149
 31
0.0
  0
LINE
  5
11A
330
1F
100
AcDbEntity
  8
0
  6
Continuous
 62
     7
370
    30
100
AcDbLine
 10
218.7091253474
 20
246.1405565149
 30
0.0
 11
219.4071995919
 21
246.1405565149
 31
0.0
  0
LINE
  5
11B
330
1F
100
AcDbEntity
  8
0
  6
Continuous
 62
     7
370
    30
100
AcDbLine
 10
218.9351793484
 20
238.6405565149
 30
0.0
 11
219.1906058997
 21
238.6405565149
 31
0.0
  0
LINE
  5
11C
330
1F
100
AcDbEntity
  8
0
  6
Continuous
 62
     7
370
    30
100
AcDbLine
 10
219.1906058997
 20
238.6405565149
 30
0.0
 11
219.4071995919
 21
238.1405565149
 31
0.0
  0
LINE
  5
11D
330
1F
100
AcDbEntity
  8
0
  6
Continuous
 62
     7
370
    30
100
AcDbLine
 10
218.7091253474
 20
238.1405565149
 30
0.0
 11
218.9351793484
 21
238.6405565149
 31
0.0
  0
LINE
  5
11E
330
1F
100
AcDbEntity
  8
0
  6
Continuous
 62
     7
370
    30
100
AcDbLine
 10
219.4071995919
 20
238.1405565149
 30
0.0
 11
218.7091253474
 21
238.1405565149
 31
0.0
  0
LINE
  5
11F
330
1F
100
AcDbEntity
  8
0
  6
Continuous
 62
     7
370
    30
100
AcDbLine
 10
219.1906058997
 20
238.6405565149
 30
0.0
 11
219.1906058997
 21
245.6405565149
 31
0.0
  0
LINE
  5
120
330
1F
100
AcDbEntity
  8
0
  6
Continuous
 62
     7
370
    30
100
AcDbLine
 10
218.9351793484
 20
245.6405565149
 30
0.0
 11
218.9351793484
 21
238.6405565149
 31
0.0
  0
LINE
  5
121
330
1F
100
AcDbEntity
  8
0
  6
Continuous
 62
     7
370
    30
100
AcDbLine
 10
218.1669173935
 20
238.6405565149
 30
0.0
 11
218.4208319374
 21
238.6405565149
 31
0.0
  0
LINE
  5
122
330
1F
100
AcDbEntity
  8
0
  6
Continuous
 62
     7
370
    30
100
AcDbLine
 10
218.4208319374
 20
238.6405565149
 30
0.0
 11
218.6963361192
 21
238.1405565149
 31
0.0
  0
LINE
  5
123
330
1F
100
AcDbEntity
  8
0
  6
Continuous
 62
     7
370
    30
100
AcDbLine
 10
218.0023941522
 20
238.1405565149
 30
0.0
 11
218.1669173935
 21
238.6405565149
 31
0.0
  0
LINE
  5
124
330
1F
100
AcDbEntity
  8
0
  6
Continuous
 62
     7
370
    30
100
AcDbLine
 10
218.6963361192
 20
238.1405565149
 30
0.0
 11
218.0023941522
 21
238.1405565149
 31
0.0
  0
LINE
  5
125
330
1F
100
AcDbEntity
  8
0
  6
Continuous
 62
     7
370
    30
100
AcDbLine
 10
218.6963361192
 20
246.1405565149
 30
0.0
 11
218.4208319374
 21
245.6405565149
 31
0.0
  0
LINE
  5
126
330
1F
100
AcDbEntity
  8
0
  6
Continuous
 62
     7
370
    30
100
AcDbLine
 10
218.4208319374
 20
245.6405565149
 30
0.0
 11
218.1669173935
 21
245.6405565149
 31
0.0
  0
LINE
  5
127
330
1F
100
AcDbEntity
  8
0
  6
Continuous
 62
     7
370
    30
100
AcDbLine
 10
218.1669173935
 20
245.6405565149
 30
0.0
 11
218.0023941522
 21
246.1405565149
 31
0.0
  0
LINE
  5
128
330
1F
100
AcDbEntity
  8
0
  6
Continuous
 62
     7
370
    30
100
AcDbLine
 10
218.0023941522
 20
246.1405565149
 30
0.0
 11
218.6963361192
 21
246.1405565149
 31
0.0
  0
LINE
  5
129
330
1F
100
AcDbEntity
  8
0
  6
Continuous
 62
     7
370
    30
100
AcDbLine
 10
218.4208319374
 20
238.6405565149
 30
0.0
 11
218.4208319374
 21
245.6405565149
 31
0.0
  0
LINE
  5
12A
330
1F
100
AcDbEntity
  8
0
  6
Continuous
 62
     7
370
    30
100
AcDbLine
 10
218.1669173935
 20
245.6405565149
 30
0.0
 11
218.1669173935
 21
238.6405565149
 31
0.0
  0
LINE
  5
12B
330
1F
100
AcDbEntity
  8
0
  6
Continuous
 62
     7
370
    30
100
AcDbLine
 10
219.7043861764
 20
238.6405565149
 30
0.0
 11
219.9577391061
 21
238.6405565149
 31
0.0
  0
LINE
  5
12C
330
1F
100
AcDbEntity
  8
0
  6
Continuous
 62
     7
370
    30
100
AcDbLine
 10
219.9577391061
 20
238.6405565149
 30
0.0
 11
220.112381808
 21
238.1405565149
 31
0.0
  0
LINE
  5
12D
330
1F
100
AcDbEntity
  8
0
  6
Continuous
 62
     7
370
    30
100
AcDbLine
 10
219.4199747183
 20
238.1405565149
 30
0.0
 11
219.7043861764
 21
238.6405565149
 31
0.0
  0
LINE
  5
12E
330
1F
100
AcDbEntity
  8
0
  6
Continuous
 62
     7
370
    30
100
AcDbLine
 10
220.112381808
 20
238.1405565149
 30
0.0
 11
219.4199747183
 21
238.1405565149
 31
0.0
  0
LINE
  5
12F
330
1F
100
AcDbEntity
  8
0
  6
Continuous
 62
     7
370
    30
100
AcDbLine
 10
220.112381808
 20
246.1405565149
 30
0.0
 11
219.9577391061
 21
245.6405565149
 31
0.0
  0
LINE
  5
130
330
1F
100
AcDbEntity
  8
0
  6
Continuous
 62
     7
370
    30
100
AcDbLine
 10
219.9577391061
 20
245.6405565149
 30
0.0
 11
219.7043861764
 21
245.6405565149
 31
0.0
  0
LINE
  5
131
330
1F
100
AcDbEntity
  8
0
  6
Continuous
 62
     7
370
    30
100
AcDbLine
 10
219.7043861764
 20
245.6405565149
 30
0.0
 11
219.4199747183
 21
246.1405565149
 31
0.0
  0
LINE
  5
132
330
1F
100
AcDbEntity
  8
0
  6
Continuous
 62
     7
370
    30
100
AcDbLine
 10
219.4199747183
 20
246.1405565149
 30
0.0
 11
220.112381808
 21
246.1405565149
 31
0.0
  0
LINE
  5
133
330
1F
100
AcDbEntity
  8
0
  6
Continuous
 62
     7
370
    30
100
AcDbLine
 10
218.7033611982
 20
238.1405565149
 30
0.0
 11
218.7033611982
 21
246.1405565149
 31
0.0
  0
LINE
  5
134
330
1F
100
AcDbEntity
  8
0
  6
Continuous
 62
     7
370
    30
100
AcDbLine
 10
218.7091253474
 20
238.1405565149
 30
0.0
 11
218.7033611982
 21
238.1405565149
 31
0.0
  0
LINE
  5
135
330
1F
100
AcDbEntity
  8
0
  6
Continuous
 62
     7
370
    30
100
AcDbLine
 10
218.7091253474
 20
246.1405565149
 30
0.0
 11
218.7033611982
 21
246.1405565149
 31
0.0
  0
LINE
  5
136
330
1F
100
AcDbEntity
  8
0
  6
Continuous
 62
     7
370
    30
100
AcDbLine
 10
219.9577391061
 20
238.6405565149
 30
0.0
 11
219.9577391061
 21
245.6405565149
 31
0.0
  0
LINE
  5
137
330
1F
100
AcDbEntity
  8
0
  6
Continuous
 62
     7
370
    30
100
AcDbLine
 10
219.7043861764
 20
245.6405565149
 30
0.0
 11
219.7043861764
 21
238.6405565149
 31
0.0
  0
LINE
  5
138
330
1F
100
AcDbEntity
  8
0
  6
Continuous
 62
     7
370
    30
100
AcDbLine
 10
219.4127225127
 20
238.1405565149
 30
0.0
 11
219.4127225127
 21
246.1405565149
 31
0.0
  0
LINE
  5
139
330
1F
100
AcDbEntity
  8
0
  6
Continuous
 62
     7
370
    30
100
AcDbLine
 10
219.4199747183
 20
238.1405565149
 30
0.0
 11
219.4127225127
 21
238.1405565149
 31
0.0
  0
LINE
  5
13A
330
1F
100
AcDbEntity
  8
0
  6
Continuous
 62
     7
370
    30
100
AcDbLine
 10
219.4199747183
 20
246.1405565149
 30
0.0
 11
219.4127225127
 21
246.1405565149
 31
0.0
  0
LINE
  5
13B
330
1F
100
AcDbEntity
  8
0
  6
Continuous
 62
     7
370
    30
100
AcDbLine
 10
219.4127225127
 20
238.1405565149
 30
0.0
 11
219.4071995919
 21
238.1405565149
 31
0.0
  0
LINE
  5
13C
330
1F
100
AcDbEntity
  8
0
  6
Continuous
 62
     7
370
    30
100
AcDbLine
 10
219.4127225127
 20
246.1405565149
 30
0.0
 11
219.4071995919
 21
246.1405565149
 31
0.0
  0
LINE
  5
13D
330
1F
100
AcDbEntity
  8
0
  6
Continuous
 62
     7
370
    30
100
AcDbLine
 10
218.7033611982
 20
238.1405565149
 30
0.0
 11
218.6963361192
 21
238.1405565149
 31
0.0
  0
LINE
  5
13E
330
1F
100
AcDbEntity
  8
0
  6
Continuous
 62
     7
370
    30
100
AcDbLine
 10
218.7033611982
 20
246.1405565149
 30
0.0
 11
218.6963361192
 21
246.1405565149
 31
0.0
  0
LINE
  5
13F
330
1F
100
AcDbEntity
  8
0
  6
Continuous
 62
     7
370
    30
100
AcDbLine
 10
217.9981989753
 20
238.1405565149
 30
0.0
 11
217.9981989753
 21
246.1405565149
 31
0.0
  0
LINE
  5
140
330
1F
100
AcDbEntity
  8
0
  6
Continuous
 62
     7
370
    30
100
AcDbLine
 10
218.0023941522
 20
238.1405565149
 30
0.0
 11
217.9981989753
 21
238.1405565149
 31
0.0
  0
LINE
  5
141
330
1F
100
AcDbEntity
  8
0
  6
Continuous
 62
     7
370
    30
100
AcDbLine
 10
218.0023941522
 20
246.1405565149
 30
0.0
 11
217.9981989753
 21
246.1405565149
 31
0.0
  0
LINE
  5
142
330
1F
100
AcDbEntity
  8
0
  6
Continuous
 62
     7
370
    30
100
AcDbLine
 10
217.9897703549
 20
246.1405565149
 30
0.0
 11
217.6592231583
 21
245.6405565149
 31
0.0
  0
LINE
  5
143
330
1F
100
AcDbEntity
  8
0
  6
Continuous
 62
     7
370
    30
100
AcDbLine
 10
217.6592231583
 20
245.6405565149
 30
0.0
 11
217.4103850253
 21
245.6405565149
 31
0.0
  0
LINE
  5
144
330
1F
100
AcDbEntity
  8
0
  6
Continuous
 62
     7
370
    30
100
AcDbLine
 10
217.4103850253
 20
245.6405565149
 30
0.0
 11
217.3097020894
 21
246.1405565149
 31
0.0
  0
LINE
  5
145
330
1F
100
AcDbEntity
  8
0
  6
Continuous
 62
     7
370
    30
100
AcDbLine
 10
217.3097020894
 20
246.1405565149
 30
0.0
 11
217.9897703549
 21
246.1405565149
 31
0.0
  0
LINE
  5
146
330
1F
100
AcDbEntity
  8
0
  6
Continuous
 62
     7
370
    30
100
AcDbLine
 10
217.6592231583
 20
238.6405565149
 30
0.0
 11
217.6592231583
 21
245.6405565149
 31
0.0
  0
LINE
  5
147
330
1F
100
AcDbEntity
  8
0
  6
Continuous
 62
     7
370
    30
100
AcDbLine
 10
217.4103850253
 20
238.6405565149
 30
0.0
 11
217.6592231583
 21
238.6405565149
 31
0.0
  0
LINE
  5
148
330
1F
100
AcDbEntity
  8
0
  6
Continuous
 62
     7
370
    30
100
AcDbLine
 10
217.4103850253
 20
245.6405565149
 30
0.0
 11
217.4103850253
 21
238.6405565149
 31
0.0
  0
LINE
  5
149
330
1F
100
AcDbEntity
  8
0
  6
Continuous
 62
     7
370
    30
100
AcDbLine
 10
217.6592231583
 20
238.6405565149
 30
0.0
 11
217.9897703549
 21
238.1405565149
 31
0.0
  0
LINE
  5
14A
330
1F
100
AcDbEntity
  8
0
  6
Continuous
 62
     7
370
    30
100
AcDbLine
 10
217.3097020894
 20
238.1405565149
 30
0.0
 11
217.4103850253
 21
238.6405565149
 31
0.0
  0
LINE
  5
14B
330
1F
100
AcDbEntity
  8
0
  6
Continuous
 62
     7
370
    30
100
AcDbLine
 10
217.9897703549
 20
238.1405565149
 30
0.0
 11
217.3097020894
 21
238.1405565149
 31
0.0
  0
LINE
  5
14C
330
1F
100
AcDbEntity
  8
0
  6
Continuous
 62
     7
370
    30
100
AcDbLine
 10
220.1163250411
 20
238.1405565149
 30
0.0
 11
220.1163250411
 21
246.1405565149
 31
0.0
  0
LINE
  5
14D
330
1F
100
AcDbEntity
  8
0
  6
Continuous
 62
     7
370
    30
100
AcDbLine
 10
220.1163250411
 20
238.1405565149
 30
0.0
 11
220.112381808
 21
238.1405565149
 31
0.0
  0
LINE
  5
14E
330
1F
100
AcDbEntity
  8
0
  6
Continuous
 62
     7
370
    30
100
AcDbLine
 10
220.1163250411
 20
246.1405565149
 30
0.0
 11
220.112381808
 21
246.1405565149
 31
0.0
  0
LINE
  5
14F
330
1F
100
AcDbEntity
  8
0
  6
Continuous
 62
     7
370
    30
100
AcDbLine
 10
220.8019835552
 20
246.1405565149
 30
0.0
 11
220.7114626881
 21
245.6405565149
 31
0.0
  0
LINE
  5
150
330
1F
100
AcDbEntity
  8
0
  6
Continuous
 62
     7
370
    30
100
AcDbLine
 10
220.7114626881
 20
245.6405565149
 30
0.0
 11
220.4637398997
 21
245.6405565149
 31
0.0
  0
LINE
  5
151
330
1F
100
AcDbEntity
  8
0
  6
Continuous
 62
     7
370
    30
100
AcDbLine
 10
220.4637398997
 20
245.6405565149
 30
0.0
 11
220.1249634979
 21
246.1405565149
 31
0.0
  0
LINE
  5
152
330
1F
100
AcDbEntity
  8
0
  6
Continuous
 62
     7
370
    30
100
AcDbLine
 10
220.1249634979
 20
246.1405565149
 30
0.0
 11
220.8019835552
 21
246.1405565149
 31
0.0
  0
LINE
  5
153
330
1F
100
AcDbEntity
  8
0
  6
Continuous
 62
     7
370
    30
100
AcDbLine
 10
220.4637398997
 20
238.6405565149
 30
0.0
 11
220.7114626881
 21
238.6405565149
 31
0.0
  0
LINE
  5
154
330
1F
100
AcDbEntity
  8
0
  6
Continuous
 62
     7
370
    30
100
AcDbLine
 10
220.7114626881
 20
238.6405565149
 30
0.0
 11
220.8019835552
 21
238.1405565149
 31
0.0
  0
LINE
  5
155
330
1F
100
AcDbEntity
  8
0
  6
Continuous
 62
     7
370
    30
100
AcDbLine
 10
220.1249634979
 20
238.1405565149
 30
0.0
 11
220.4637398997
 21
238.6405565149
 31
0.0
  0
LINE
  5
156
330
1F
100
AcDbEntity
  8
0
  6
Continuous
 62
     7
370
    30
100
AcDbLine
 10
220.8019835552
 20
238.1405565149
 30
0.0
 11
220.1249634979
 21
238.1405565149
 31
0.0
  0
LINE
  5
157
330
1F
100
AcDbEntity
  8
0
  6
Continuous
 62
     7
370
    30
100
AcDbLine
 10
220.4637398997
 20
245.6405565149
 30
0.0
 11
220.4637398997
 21
238.6405565149
 31
0.0
  0
LINE
  5
158
330
1F
100
AcDbEntity
  8
0
  6
Continuous
 62
     7
370
    30
100
AcDbLine
 10
220.1249634979
 20
238.1405565149
 30
0.0
 11
220.1163250411
 21
238.1405565149
 31
0.0
  0
LINE
  5
159
330
1F
100
AcDbEntity
  8
0
  6
Continuous
 62
     7
370
    30
100
AcDbLine
 10
220.1249634979
 20
246.1405565149
 30
0.0
 11
220.1163250411
 21
246.1405565149
 31
0.0
  0
LINE
  5
15A
330
1F
100
AcDbEntity
  8
0
  6
Continuous
 62
     7
370
    30
100
AcDbLine
 10
217.9981989753
 20
238.1405565149
 30
0.0
 11
217.9897703549
 21
238.1405565149
 31
0.0
  0
LINE
  5
15B
330
1F
100
AcDbEntity
  8
0
  6
Continuous
 62
     7
370
    30
100
AcDbLine
 10
217.9981989753
 20
246.1405565149
 30
0.0
 11
217.9897703549
 21
246.1405565149
 31
0.0
  0
LINE
  5
15C
330
1F
100
AcDbEntity
  8
0
  6
Continuous
 62
     7
370
    30
100
AcDbLine
 10
220.7114626881
 20
238.6405565149
 30
0.0
 11
220.7114626881
 21
245.6405565149
 31
0.0
  0
LINE
  5
15D
330
1F
100
AcDbEntity
  8
0
  6
Continuous
 62
     7
370
    30
100
AcDbLine
 10
217.307134776
 20
238.1405565149
 30
0.0
 11
217.307134776
 21
246.1405565149
 31
0.0
  0
LINE
  5
15E
330
1F
100
AcDbEntity
  8
0
  6
Continuous
 62
     7
370
    30
100
AcDbLine
 10
217.3097020894
 20
238.1405565149
 30
0.0
 11
217.307134776
 21
238.1405565149
 31
0.0
  0
LINE
  5
15F
330
1F
100
AcDbEntity
  8
0
  6
Continuous
 62
     7
370
    30
100
AcDbLine
 10
217.3097020894
 20
246.1405565149
 30
0.0
 11
217.307134776
 21
246.1405565149
 31
0.0
  0
LINE
  5
160
330
1F
100
AcDbEntity
  8
0
  6
Continuous
 62
     7
370
    30
100
AcDbLine
 10
220.804291746
 20
238.1405565149
 30
0.0
 11
220.804291746
 21
246.1405565149
 31
0.0
  0
LINE
  5
161
330
1F
100
AcDbEntity
  8
0
  6
Continuous
 62
     7
370
    30
100
AcDbLine
 10
220.804291746
 20
238.1405565149
 30
0.0
 11
220.8019835552
 21
238.1405565149
 31
0.0
  0
LINE
  5
162
330
1F
100
AcDbEntity
  8
0
  6
Continuous
 62
     7
370
    30
100
AcDbLine
 10
220.804291746
 20
246.1405565149
 30
0.0
 11
220.8019835552
 21
246.1405565149
 31
0.0
  0
LINE
  5
163
330
1F
100
AcDbEntity
  8
0
  6
Continuous
 62
     7
370
    30
100
AcDbLine
 10
216.9164708802
 20
238.6405565149
 30
0.0
 11
216.9164708802
 21
245.6405565149
 31
0.0
  0
LINE
  5
164
330
1F
100
AcDbEntity
  8
0
  6
Continuous
 62
     7
370
    30
100
AcDbLine
 10
216.6762023001
 20
238.6405565149
 30
0.0
 11
216.9164708802
 21
238.6405565149
 31
0.0
  0
LINE
  5
165
330
1F
100
AcDbEntity
  8
0
  6
Continuous
 62
     7
370
    30
100
AcDbLine
 10
216.6762023001
 20
245.6405565149
 30
0.0
 11
216.6762023001
 21
238.6405565149
 31
0.0
  0
LINE
  5
166
330
1F
100
AcDbEntity
  8
0
  6
Continuous
 62
     7
370
    30
100
AcDbLine
 10
216.9164708802
 20
245.6405565149
 30
0.0
 11
216.6762023001
 21
245.6405565149
 31
0.0
  0
LINE
  5
167
330
1F
100
AcDbEntity
  8
0
  6
Continuous
 62
     7
370
    30
100
AcDbLine
 10
216.9164708802
 20
238.6405565149
 30
0.0
 11
217.2974209336
 21
238.1405565149
 31
0.0
  0
LINE
  5
168
330
1F
100
AcDbEntity
  8
0
  6
Continuous
 62
     7
370
    30
100
AcDbLine
 10
216.6407730374
 20
238.1405565149
 30
0.0
 11
216.6762023001
 21
238.6405565149
 31
0.0
  0
LINE
  5
169
330
1F
100
AcDbEntity
  8
0
  6
Continuous
 62
     7
370
    30
100
AcDbLine
 10
217.2974209336
 20
238.1405565149
 30
0.0
 11
216.6407730374
 21
238.1405565149
 31
0.0
  0
LINE
  5
16A
330
1F
100
AcDbEntity
  8
0
  6
Continuous
 62
     7
370
    30
100
AcDbLine
 10
217.2974209336
 20
246.1405565149
 30
0.0
 11
216.9164708802
 21
245.6405565149
 31
0.0
  0
LINE
  5
16B
330
1F
100
AcDbEntity
  8
0
  6
Continuous
 62
     7
370
    30
100
AcDbLine
 10
216.6762023001
 20
245.6405565149
 30
0.0
 11
216.6407730374
 21
246.1405565149
 31
0.0
  0
LINE
  5
16C
330
1F
100
AcDbEntity
  8
0
  6
Continuous
 62
     7
370
    30
100
AcDbLine
 10
216.6407730374
 20
246.1405565149
 30
0.0
 11
217.2974209336
 21
246.1405565149
 31
0.0
  0
LINE
  5
16D
330
1F
100
AcDbEntity
  8
0
  6
Continuous
 62
     7
370
    30
100
AcDbLine
 10
221.2025808565
 20
245.6405565149
 30
0.0
 11
220.8141951892
 21
246.1405565149
 31
0.0
  0
LINE
  5
16E
330
1F
100
AcDbEntity
  8
0
  6
Continuous
 62
     7
370
    30
100
AcDbLine
 10
221.2025808565
 20
245.6405565149
 30
0.0
 11
221.2025808565
 21
238.6405565149
 31
0.0
  0
LINE
  5
16F
330
1F
100
AcDbEntity
  8
0
  6
Continuous
 62
     7
370
    30
100
AcDbLine
 10
220.8141951892
 20
238.1405565149
 30
0.0
 11
221.2025808565
 21
238.6405565149
 31
0.0
  0
LINE
  5
170
330
1F
100
AcDbEntity
  8
0
  6
Continuous
 62
     7
370
    30
100
AcDbLine
 10
220.8141951892
 20
238.1405565149
 30
0.0
 11
220.804291746
 21
238.1405565149
 31
0.0
  0
LINE
  5
171
330
1F
100
AcDbEntity
  8
0
  6
Continuous
 62
     7
370
    30
100
AcDbLine
 10
220.8141951892
 20
246.1405565149
 30
0.0
 11
220.804291746
 21
246.1405565149
 31
0.0
  0
LINE
  5
172
330
1F
100
AcDbEntity
  8
0
  6
Continuous
 62
     7
370
    30
100
AcDbLine
 10
221.2025808565
 20
238.6405565149
 30
0.0
 11
221.4411960187
 21
238.6405565149
 31
0.0
  0
LINE
  5
173
330
1F
100
AcDbEntity
  8
0
  6
Continuous
 62
     7
370
    30
100
AcDbLine
 10
221.4411960187
 20
238.6405565149
 30
0.0
 11
221.4663243364
 21
238.1405565149
 31
0.0
  0
LINE
  5
174
330
1F
100
AcDbEntity
  8
0
  6
Continuous
 62
     7
370
    30
100
AcDbLine
 10
221.4663243364
 20
238.1405565149
 30
0.0
 11
220.8141951892
 21
238.1405565149
 31
0.0
  0
LINE
  5
175
330
1F
100
AcDbEntity
  8
0
  6
Continuous
 62
     7
370
    30
100
AcDbLine
 10
221.4663243364
 20
246.1405565149
 30
0.0
 11
221.4411960187
 21
245.6405565149
 31
0.0
  0
LINE
  5
176
330
1F
100
AcDbEntity
  8
0
  6
Continuous
 62
     7
370
    30
100
AcDbLine
 10
221.4411960187
 20
245.6405565149
 30
0.0
 11
221.2025808565
 21
245.6405565149
 31
0.0
  0
LINE
  5
177
330
1F
100
AcDbEntity
  8
0
  6
Continuous
 62
     7
370
    30
100
AcDbLine
 10
220.8141951892
 20
246.1405565149
 30
0.0
 11
221.4663243364
 21
246.1405565149
 31
0.0
  0
LINE
  5
178
330
1F
100
AcDbEntity
  8
0
  6
Continuous
 62
     7
370
    30
100
AcDbLine
 10
217.307134776
 20
238.1405565149
 30
0.0
 11
217.2974209336
 21
238.1405565149
 31
0.0
  0
LINE
  5
179
330
1F
100
AcDbEntity
  8
0
  6
Continuous
 62
     7
370
    30
100
AcDbLine
 10
217.307134776
 20
246.1405565149
 30
0.0
 11
217.2974209336
 21
246.1405565149
 31
0.0
  0
LINE
  5
17A
330
1F
100
AcDbEntity
  8
0
  6
Continuous
 62
     7
370
    30
100
AcDbLine
 10
221.4411960187
 20
238.6405565149
 30
0.0
 11
221.4411960187
 21
245.6405565149
 31
0.0
  0
LINE
  5
17B
330
1F
100
AcDbEntity
  8
0
  6
Continuous
 62
     7
370
    30
100
AcDbLine
 10
216.6398696269
 20
238.1405565149
 30
0.0
 11
216.6398696269
 21
246.1405565149
 31
0.0
  0
LINE
  5
17C
330
1F
100
AcDbEntity
  8
0
  6
Continuous
 62
     7
370
    30
100
AcDbLine
 10
216.6407730374
 20
238.1405565149
 30
0.0
 11
216.6398696269
 21
238.1405565149
 31
0.0
  0
LINE
  5
17D
330
1F
100
AcDbEntity
  8
0
  6
Continuous
 62
     7
370
    30
100
AcDbLine
 10
216.6407730374
 20
246.1405565149
 30
0.0
 11
216.6398696269
 21
246.1405565149
 31
0.0
  0
LINE
  5
17E
330
1F
100
AcDbEntity
  8
0
  6
Continuous
 62
     7
370
    30
100
AcDbLine
 10
221.4669650831
 20
238.1405565149
 30
0.0
 11
221.4669650831
 21
246.1405565149
 31
0.0
  0
LINE
  5
17F
330
1F
100
AcDbEntity
  8
0
  6
Continuous
 62
     7
370
    30
100
AcDbLine
 10
221.4669650831
 20
238.1405565149
 30
0.0
 11
221.4663243364
 21
238.1405565149
 31
0.0
  0
LINE
  5
180
330
1F
100
AcDbEntity
  8
0
  6
Continuous
 62
     7
370
    30
100
AcDbLine
 10
221.4669650831
 20
246.1405565149
 30
0.0
 11
221.4663243364
 21
246.1405565149
 31
0.0
  0
LINE
  5
181
330
1F
100
AcDbEntity
  8
0
  6
Continuous
 62
     7
370
    30
100
AcDbLine
 10
215.974675534
 20
238.6405565149
 30
0.0
 11
216.203001717
 21
238.6405565149
 31
0.0
  0
LINE
  5
182
330
1F
100
AcDbEntity
  8
0
  6
Continuous
 62
     7
370
    30
100
AcDbLine
 10
216.203001717
 20
238.6405565149
 30
0.0
 11
216.6290069234
 21
238.1405565149
 31
0.0
  0
LINE
  5
183
330
1F
100
AcDbEntity
  8
0
  6
Continuous
 62
     7
370
    30
100
AcDbLine
 10
216.0049972935
 20
238.1405565149
 30
0.0
 11
215.974675534
 21
238.6405565149
 31
0.0
  0
LINE
  5
184
330
1F
100
AcDbEntity
  8
0
  6
Continuous
 62
     7
370
    30
100
AcDbLine
 10
216.6290069234
 20
238.1405565149
 30
0.0
 11
216.0049972935
 21
238.1405565149
 31
0.0
  0
LINE
  5
185
330
1F
100
AcDbEntity
  8
0
  6
Continuous
 62
     7
370
    30
100
AcDbLine
 10
216.6290069234
 20
246.1405565149
 30
0.0
 11
216.203001717
 21
245.6405565149
 31
0.0
  0
LINE
  5
186
330
1F
100
AcDbEntity
  8
0
  6
Continuous
 62
     7
370
    30
100
AcDbLine
 10
216.203001717
 20
245.6405565149
 30
0.0
 11
215.974675534
 21
245.6405565149
 31
0.0
  0
LINE
  5
187
330
1F
100
AcDbEntity
  8
0
  6
Continuous
 62
     7
370
    30
100
AcDbLine
 10
215.974675534
 20
245.6405565149
 30
0.0
 11
216.0049972935
 21
246.1405565149
 31
0.0
  0
LINE
  5
188
330
1F
100
AcDbEntity
  8
0
  6
Continuous
 62
     7
370
    30
100
AcDbLine
 10
216.0049972935
 20
246.1405565149
 30
0.0
 11
216.6290069234
 21
246.1405565149
 31
0.0
  0
LINE
  5
189
330
1F
100
AcDbEntity
  8
0
  6
Continuous
 62
     7
370
    30
100
AcDbLine
 10
216.203001717
 20
238.6405565149
 30
0.0
 11
216.203001717
 21
245.6405565149
 31
0.0
  0
LINE
  5
18A
330
1F
100
AcDbEntity
  8
0
  6
Continuous
 62
     7
370
    30
100
AcDbLine
 10
215.974675534
 20
245.6405565149
 30
0.0
 11
215.974675534
 21
238.6405565149
 31
0.0
  0
LINE
  5
18B
330
1F
100
AcDbEntity
  8
0
  6
Continuous
 62
     7
370
    30
100
AcDbLine
 10
221.9105373394
 20
245.6405565149
 30
0.0
 11
221.4779944899
 21
246.1405565149
 31
0.0
  0
LINE
  5
18C
330
1F
100
AcDbEntity
  8
0
  6
Continuous
 62
     7
370
    30
100
AcDbLine
 10
221.9105373394
 20
245.6405565149
 30
0.0
 11
221.9105373394
 21
238.6405565149
 31
0.0
  0
LINE
  5
18D
330
1F
100
AcDbEntity
  8
0
  6
Continuous
 62
     7
370
    30
100
AcDbLine
 10
221.4779944899
 20
238.1405565149
 30
0.0
 11
221.9105373394
 21
238.6405565149
 31
0.0
  0
LINE
  5
18E
330
1F
100
AcDbEntity
  8
0
  6
Continuous
 62
     7
370
    30
100
AcDbLine
 10
221.4779944899
 20
238.1405565149
 30
0.0
 11
221.4669650831
 21
238.1405565149
 31
0.0
  0
LINE
  5
18F
330
1F
100
AcDbEntity
  8
0
  6
Continuous
 62
     7
370
    30
100
AcDbLine
 10
221.4779944899
 20
246.1405565149
 30
0.0
 11
221.4669650831
 21
246.1405565149
 31
0.0
  0
LINE
  5
190
330
1F
100
AcDbEntity
  8
0
  6
Continuous
 62
     7
370
    30
100
AcDbLine
 10
221.9105373394
 20
238.6405565149
 30
0.0
 11
222.1366952415
 21
238.6405565149
 31
0.0
  0
LINE
  5
191
330
1F
100
AcDbEntity
  8
0
  6
Continuous
 62
     7
370
    30
100
AcDbLine
 10
222.1366952415
 20
238.6405565149
 30
0.0
 11
222.0960782633
 21
238.1405565149
 31
0.0
  0
LINE
  5
192
330
1F
100
AcDbEntity
  8
0
  6
Continuous
 62
     7
370
    30
100
AcDbLine
 10
222.0960782633
 20
238.1405565149
 30
0.0
 11
221.4779944899
 21
238.1405565149
 31
0.0
  0
LINE
  5
193
330
1F
100
AcDbEntity
  8
0
  6
Continuous
 62
     7
370
    30
100
AcDbLine
 10
222.0960782633
 20
246.1405565149
 30
0.0
 11
222.1366952415
 21
245.6405565149
 31
0.0
  0
LINE
  5
194
330
1F
100
AcDbEntity
  8
0
  6
Continuous
 62
     7
370
    30
100
AcDbLine
 10
222.1366952415
 20
245.6405565149
 30
0.0
 11
221.9105373394
 21
245.6405565149
 31
0.0
  0
LINE
  5
195
330
1F
100
AcDbEntity
  8
0
  6
Continuous
 62
     7
370
    30
100
AcDbLine
 10
221.4779944899
 20
246.1405565149
 30
0.0
 11
222.0960782633
 21
246.1405565149
 31
0.0
  0
LINE
  5
196
330
1F
100
AcDbEntity
  8
0
  6
Continuous
 62
     7
370
    30
100
AcDbLine
 10
216.6398696269
 20
238.1405565149
 30
0.0
 11
216.6290069234
 21
238.1405565149
 31
0.0
  0
LINE
  5
197
330
1F
100
AcDbEntity
  8
0
  6
Continuous
 62
     7
370
    30
100
AcDbLine
 10
216.6398696269
 20
246.1405565149
 30
0.0
 11
216.6290069234
 21
246.1405565149
 31
0.0
  0
LINE
  5
198
330
1F
100
AcDbEntity
  8
0
  6
Continuous
 62
     7
370
    30
100
AcDbLine
 10
222.1366952415
 20
238.6405565149
 30
0.0
 11
222.1366952415
 21
245.6405565149
 31
0.0
  0
LINE
  5
199
330
1F
100
AcDbEntity
  8
0
  6
Continuous
 62
     7
370
    30
100
AcDbLine
 10
222.5776711912
 20
245.6405565149
 30
0.0
 11
222.107043113
 21
246.1405565149
 31
0.0
  0
LINE
  5
19A
330
1F
100
AcDbEntity
  8
0
  6
Continuous
 62
     7
370
    30
100
AcDbLine
 10
222.5776711912
 20
245.6405565149
 30
0.0
 11
222.5776711912
 21
238.6405565149
 31
0.0
  0
LINE
  5
19B
330
1F
100
AcDbEntity
  8
0
  6
Continuous
 62
     7
370
    30
100
AcDbLine
 10
222.107043113
 20
238.1405565149
 30
0.0
 11
222.5776711912
 21
238.6405565149
 31
0.0
  0
LINE
  5
19C
330
1F
100
AcDbEntity
  8
0
  6
Continuous
 62
     7
370
    30
100
AcDbLine
 10
222.107043113
 20
238.1405565149
 30
0.0
 11
222.0960782633
 21
238.1405565149
 31
0.0
  0
LINE
  5
19D
330
1F
100
AcDbEntity
  8
0
  6
Continuous
 62
     7
370
    30
100
AcDbLine
 10
222.107043113
 20
246.1405565149
 30
0.0
 11
222.0960782633
 21
246.1405565149
 31
0.0
  0
LINE
  5
19E
330
1F
100
AcDbEntity
  8
0
  6
Continuous
 62
     7
370
    30
100
AcDbLine
 10
215.9939113919
 20
246.1405565149
 30
0.0
 11
215.5288312118
 21
245.6405565149
 31
0.0
  0
LINE
  5
19F
330
1F
100
AcDbEntity
  8
0
  6
Continuous
 62
     7
370
    30
100
AcDbLine
 10
215.5288312118
 20
245.6405565149
 30
0.0
 11
215.3156526249
 21
245.6405565149
 31
0.0
  0
LINE
  5
1A0
330
1F
100
AcDbEntity
  8
0
  6
Continuous
 62
     7
370
    30
100
AcDbLine
 10
215.3156526249
 20
245.6405565149
 30
0.0
 11
215.4112997557
 21
246.1405565149
 31
0.0
  0
LINE
  5
1A1
330
1F
100
AcDbEntity
  8
0
  6
Continuous
 62
     7
370
    30
100
AcDbLine
 10
215.4112997557
 20
246.1405565149
 30
0.0
 11
215.9939113919
 21
246.1405565149
 31
0.0
  0
LINE
  5
1A2
330
1F
100
AcDbEntity
  8
0
  6
Continuous
 62
     7
370
    30
100
AcDbLine
 10
215.3156526249
 20
238.6405565149
 30
0.0
 11
215.5288312118
 21
238.6405565149
 31
0.0
  0
LINE
  5
1A3
330
1F
100
AcDbEntity
  8
0
  6
Continuous
 62
     7
370
    30
100
AcDbLine
 10
215.5288312118
 20
238.6405565149
 30
0.0
 11
215.9939113919
 21
238.1405565149
 31
0.0
  0
LINE
  5
1A4
330
1F
100
AcDbEntity
  8
0
  6
Continuous
 62
     7
370
    30
100
AcDbLine
 10
215.4112997557
 20
238.1405565149
 30
0.0
 11
215.3156526249
 21
238.6405565149
 31
0.0
  0
LINE
  5
1A5
330
1F
100
AcDbEntity
  8
0
  6
Continuous
 62
     7
370
    30
100
AcDbLine
 10
215.9939113919
 20
238.1405565149
 30
0.0
 11
215.4112997557
 21
238.1405565149
 31
0.0
  0
LINE
  5
1A6
330
1F
100
AcDbEntity
  8
0
  6
Continuous
 62
     7
370
    30
100
AcDbLine
 10
215.5288312118
 20
238.6405565149
 30
0.0
 11
215.5288312118
 21
245.6405565149
 31
0.0
  0
LINE
  5
1A7
330
1F
100
AcDbEntity
  8
0
  6
Continuous
 62
     7
370
    30
100
AcDbLine
 10
215.3156526249
 20
245.6405565149
 30
0.0
 11
215.3156526249
 21
238.6405565149
 31
0.0
  0
LINE
  5
1A8
330
1F
100
AcDbEntity
  8
0
  6
Continuous
 62
     7
370
    30
100
AcDbLine
 10
222.5776711912
 20
238.6405565149
 30
0.0
 11
222.788197072
 21
238.6405565149
 31
0.0
  0
LINE
  5
1A9
330
1F
100
AcDbEntity
  8
0
  6
Continuous
 62
     7
370
    30
100
AcDbLine
 10
222.788197072
 20
238.6405565149
 30
0.0
 11
222.6824049712
 21
238.1405565149
 31
0.0
  0
LINE
  5
1AA
330
1F
100
AcDbEntity
  8
0
  6
Continuous
 62
     7
370
    30
100
AcDbLine
 10
222.6824049712
 20
238.1405565149
 30
0.0
 11
222.107043113
 21
238.1405565149
 31
0.0
  0
LINE
  5
1AB
330
1F
100
AcDbEntity
  8
0
  6
Continuous
 62
     7
370
    30
100
AcDbLine
 10
222.6824049712
 20
246.1405565149
 30
0.0
 11
222.788197072
 21
245.6405565149
 31
0.0
  0
LINE
  5
1AC
330
1F
100
AcDbEntity
  8
0
  6
Continuous
 62
     7
370
    30
100
AcDbLine
 10
222.788197072
 20
245.6405565149
 30
0.0
 11
222.5776711912
 21
245.6405565149
 31
0.0
  0
LINE
  5
1AD
330
1F
100
AcDbEntity
  8
0
  6
Continuous
 62
     7
370
    30
100
AcDbLine
 10
222.107043113
 20
246.1405565149
 30
0.0
 11
222.6824049712
 21
246.1405565149
 31
0.0
  0
LINE
  5
1AE
330
1F
100
AcDbEntity
  8
0
  6
Continuous
 62
     7
370
    30
100
AcDbLine
 10
216.0049972935
 20
238.1405565149
 30
0.0
 11
215.9939113919
 21
238.1405565149
 31
0.0
  0
LINE
  5
1AF
330
1F
100
AcDbEntity
  8
0
  6
Continuous
 62
     7
370
    30
100
AcDbLine
 10
216.0049972935
 20
246.1405565149
 30
0.0
 11
215.9939113919
 21
246.1405565149
 31
0.0
  0
LINE
  5
1B0
330
1F
100
AcDbEntity
  8
0
  6
Continuous
 62
     7
370
    30
100
AcDbLine
 10
222.788197072
 20
238.6405565149
 30
0.0
 11
222.788197072
 21
245.6405565149
 31
0.0
  0
LINE
  5
1B1
330
1F
100
AcDbEntity
  8
0
  6
Continuous
 62
     7
370
    30
100
AcDbLine
 10
223.194617315
 20
245.6405565149
 30
0.0
 11
222.6925105946
 21
246.1405565149
 31
0.0
  0
LINE
  5
1B2
330
1F
100
AcDbEntity
  8
0
  6
Continuous
 62
     7
370
    30
100
AcDbLine
 10
223.194617315
 20
245.6405565149
 30
0.0
 11
223.194617315
 21
238.6405565149
 31
0.0
  0
LINE
  5
1B3
330
1F
100
AcDbEntity
  8
0
  6
Continuous
 62
     7
370
    30
100
AcDbLine
 10
222.6925105946
 20
238.1405565149
 30
0.0
 11
223.194617315
 21
238.6405565149
 31
0.0
  0
LINE
  5
1B4
330
1F
100
AcDbEntity
  8
0
  6
Continuous
 62
     7
370
    30
100
AcDbLine
 10
222.6925105946
 20
238.1405565149
 30
0.0
 11
222.6824049712
 21
238.1405565149
 31
0.0
  0
LINE
  5
1B5
330
1F
100
AcDbEntity
  8
0
  6
Continuous
 62
     7
370
    30
100
AcDbLine
 10
222.6925105946
 20
246.1405565149
 30
0.0
 11
222.6824049712
 21
246.1405565149
 31
0.0
  0
LINE
  5
1B6
330
1F
100
AcDbEntity
  8
0
  6
Continuous
 62
     7
370
    30
100
AcDbLine
 10
223.194617315
 20
238.6405565149
 30
0.0
 11
223.3865558526
 21
238.6405565149
 31
0.0
  0
LINE
  5
1B7
330
1F
100
AcDbEntity
  8
0
  6
Continuous
 62
     7
370
    30
100
AcDbLine
 10
223.3865558526
 20
238.6405565149
 30
0.0
 11
223.2170737185
 21
238.1405565149
 31
0.0
  0
LINE
  5
1B8
330
1F
100
AcDbEntity
  8
0
  6
Continuous
 62
     7
370
    30
100
AcDbLine
 10
223.2170737185
 20
238.1405565149
 30
0.0
 11
222.6925105946
 21
238.1405565149
 31
0.0
  0
LINE
  5
1B9
330
1F
100
AcDbEntity
  8
0
  6
Continuous
 62
     7
370
    30
100
AcDbLine
 10
223.2170737185
 20
246.1405565149
 30
0.0
 11
223.3865558526
 21
245.6405565149
 31
0.0
  0
LINE
  5
1BA
330
1F
100
AcDbEntity
  8
0
  6
Continuous
 62
     7
370
    30
100
AcDbLine
 10
223.3865558526
 20
245.6405565149
 30
0.0
 11
223.194617315
 21
245.6405565149
 31
0.0
  0
LINE
  5
1BB
330
1F
100
AcDbEntity
  8
0
  6
Continuous
 62
     7
370
    30
100
AcDbLine
 10
222.6925105946
 20
246.1405565149
 30
0.0
 11
223.2170737185
 21
246.1405565149
 31
0.0
  0
LINE
  5
1BC
330
1F
100
AcDbEntity
  8
0
  6
Continuous
 62
     7
370
    30
100
AcDbLine
 10
214.70838481
 20
238.6405565149
 30
0.0
 11
214.9034232406
 21
238.6405565149
 31
0.0
  0
LINE
  5
1BD
330
1F
100
AcDbEntity
  8
0
  6
Continuous
 62
     7
370
    30
100
AcDbLine
 10
214.9034232406
 20
238.6405565149
 30
0.0
 11
215.4010496883
 21
238.1405565149
 31
0.0
  0
LINE
  5
1BE
330
1F
100
AcDbEntity
  8
0
  6
Continuous
 62
     7
370
    30
100
AcDbLine
 10
214.868014636
 20
238.1405565149
 30
0.0
 11
214.70838481
 21
238.6405565149
 31
0.0
  0
LINE
  5
1BF
330
1F
100
AcDbEntity
  8
0
  6
Continuous
 62
     7
370
    30
100
AcDbLine
 10
215.4010496883
 20
238.1405565149
 30
0.0
 11
214.868014636
 21
238.1405565149
 31
0.0
  0
LINE
  5
1C0
330
1F
100
AcDbEntity
  8
0
  6
Continuous
 62
     7
370
    30
100
AcDbLine
 10
215.4010496883
 20
246.1405565149
 30
0.0
 11
214.9034232406
 21
245.6405565149
 31
0.0
  0
LINE
  5
1C1
330
1F
100
AcDbEntity
  8
0
  6
Continuous
 62
     7
370
    30
100
AcDbLine
 10
214.9034232406
 20
245.6405565149
 30
0.0
 11
214.70838481
 21
245.6405565149
 31
0.0
  0
LINE
  5
1C2
330
1F
100
AcDbEntity
  8
0
  6
Continuous
 62
     7
370
    30
100
AcDbLine
 10
214.70838481
 20
245.6405565149
 30
0.0
 11
214.868014636
 21
246.1405565149
 31
0.0
  0
LINE
  5
1C3
330
1F
100
AcDbEntity
  8
0
  6
Continuous
 62
     7
370
    30
100
AcDbLine
 10
214.868014636
 20
246.1405565149
 30
0.0
 11
215.4010496883
 21
246.1405565149
 31
0.0
  0
LINE
  5
1C4
330
1F
100
AcDbEntity
  8
0
  6
Continuous
 62
     7
370
    30
100
AcDbLine
 10
214.9034232406
 20
238.6405565149
 30
0.0
 11
214.9034232406
 21
245.6405565149
 31
0.0
  0
LINE
  5
1C5
330
1F
100
AcDbEntity
  8
0
  6
Continuous
 62
     7
370
    30
100
AcDbLine
 10
214.70838481
 20
245.6405565149
 30
0.0
 11
214.70838481
 21
238.6405565149
 31
0.0
  0
LINE
  5
1C6
330
1F
100
AcDbEntity
  8
0
  6
Continuous
 62
     7
370
    30
100
AcDbLine
 10
215.4112997557
 20
238.1405565149
 30
0.0
 11
215.4010496883
 21
238.1405565149
 31
0.0
  0
LINE
  5
1C7
330
1F
100
AcDbEntity
  8
0
  6
Continuous
 62
     7
370
    30
100
AcDbLine
 10
215.4112997557
 20
246.1405565149
 30
0.0
 11
215.4010496883
 21
246.1405565149
 31
0.0
  0
LINE
  5
1C8
330
1F
100
AcDbEntity
  8
0
  6
Continuous
 62
     7
370
    30
100
AcDbLine
 10
223.3865558526
 20
238.6405565149
 30
0.0
 11
223.3865558526
 21
245.6405565149
 31
0.0
  0
LINE
  5
1C9
330
1F
100
AcDbEntity
  8
0
  6
Continuous
 62
     7
370
    30
100
AcDbLine
 10
223.7527151395
 20
245.6405565149
 30
0.0
 11
223.2261782548
 21
246.1405565149
 31
0.0
  0
LINE
  5
1CA
330
1F
100
AcDbEntity
  8
0
  6
Continuous
 62
     7
370
    30
100
AcDbLine
 10
223.7527151395
 20
245.6405565149
 30
0.0
 11
223.7527151395
 21
238.6405565149
 31
0.0
  0
LINE
  5
1CB
330
1F
100
AcDbEntity
  8
0
  6
Continuous
 62
     7
370
    30
100
AcDbLine
 10
223.2261782548
 20
238.1405565149
 30
0.0
 11
223.7527151395
 21
238.6405565149
 31
0.0
  0
LINE
  5
1CC
330
1F
100
AcDbEntity
  8
0
  6
Continuous
 62
     7
370
    30
100
AcDbLine
 10
223.2261782548
 20
238.1405565149
 30
0.0
 11
223.2170737185
 21
238.1405565149
 31
0.0
  0
LINE
  5
1CD
330
1F
100
AcDbEntity
  8
0
  6
Continuous
 62
     7
370
    30
100
AcDbLine
 10
223.2261782548
 20
246.1405565149
 30
0.0
 11
223.2170737185
 21
246.1405565149
 31
0.0
  0
LINE
  5
1CE
330
1F
100
AcDbEntity
  8
0
  6
Continuous
 62
     7
370
    30
100
AcDbLine
 10
223.7527151395
 20
238.6405565149
 30
0.0
 11
223.9233719377
 21
238.6405565149
 31
0.0
  0
LINE
  5
1CF
330
1F
100
AcDbEntity
  8
0
  6
Continuous
 62
     7
370
    30
100
AcDbLine
 10
223.9233719377
 20
238.6405565149
 30
0.0
 11
223.6925789279
 21
238.1405565149
 31
0.0
  0
LINE
  5
1D0
330
1F
100
AcDbEntity
  8
0
  6
Continuous
 62
     7
370
    30
100
AcDbLine
 10
223.6925789279
 20
238.1405565149
 30
0.0
 11
223.2261782548
 21
238.1405565149
 31
0.0
  0
LINE
  5
1D1
330
1F
100
AcDbEntity
  8
0
  6
Continuous
 62
     7
370
    30
100
AcDbLine
 10
223.6925789279
 20
246.1405565149
 30
0.0
 11
223.9233719377
 21
245.6405565149
 31
0.0
  0
LINE
  5
1D2
330
1F
100
AcDbEntity
  8
0
  6
Continuous
 62
     7
370
    30
100
AcDbLine
 10
223.9233719377
 20
245.6405565149
 30
0.0
 11
223.7527151395
 21
245.6405565149
 31
0.0
  0
LINE
  5
1D3
330
1F
100
AcDbEntity
  8
0
  6
Continuous
 62
     7
370
    30
100
AcDbLine
 10
223.2261782548
 20
246.1405565149
 30
0.0
 11
223.6925789279
 21
246.1405565149
 31
0.0
  0
LINE
  5
1D4
330
1F
100
AcDbEntity
  8
0
  6
Continuous
 62
     7
370
    30
100
AcDbLine
 10
214.8587442911
 20
246.1405565149
 30
0.0
 11
214.3355571605
 21
245.6405565149
 31
0.0
  0
LINE
  5
1D5
330
1F
100
AcDbEntity
  8
0
  6
Continuous
 62
     7
370
    30
100
AcDbLine
 10
214.3355571605
 20
245.6405565149
 30
0.0
 11
214.1613967981
 21
245.6405565149
 31
0.0
  0
LINE
  5
1D6
330
1F
100
AcDbEntity
  8
0
  6
Continuous
 62
     7
370
    30
100
AcDbLine
 10
214.1613967981
 20
245.6405565149
 30
0.0
 11
214.3827684666
 21
246.1405565149
 31
0.0
  0
LINE
  5
1D7
330
1F
100
AcDbEntity
  8
0
  6
Continuous
 62
     7
370
    30
100
AcDbLine
 10
214.3827684666
 20
246.1405565149
 30
0.0
 11
214.8587442911
 21
246.1405565149
 31
0.0
  0
LINE
  5
1D8
330
1F
100
AcDbEntity
  8
0
  6
Continuous
 62
     7
370
    30
100
AcDbLine
 10
214.1613967981
 20
238.6405565149
 30
0.0
 11
214.3355571605
 21
238.6405565149
 31
0.0
  0
LINE
  5
1D9
330
1F
100
AcDbEntity
  8
0
  6
Continuous
 62
     7
370
    30
100
AcDbLine
 10
214.3355571605
 20
238.6405565149
 30
0.0
 11
214.8587442911
 21
238.1405565149
 31
0.0
  0
LINE
  5
1DA
330
1F
100
AcDbEntity
  8
0
  6
Continuous
 62
     7
370
    30
100
AcDbLine
 10
214.3827684666
 20
238.1405565149
 30
0.0
 11
214.1613967981
 21
238.6405565149
 31
0.0
  0
LINE
  5
1DB
330
1F
100
AcDbEntity
  8
0
  6
Continuous
 62
     7
370
    30
100
AcDbLine
 10
214.8587442911
 20
238.1405565149
 30
0.0
 11
214.3827684666
 21
238.1405565149
 31
0.0
  0
LINE
  5
1DC
330
1F
100
AcDbEntity
  8
0
  6
Continuous
 62
     7
370
    30
100
AcDbLine
 10
214.3355571605
 20
238.6405565149
 30
0.0
 11
214.3355571605
 21
245.6405565149
 31
0.0
  0
LINE
  5
1DD
330
1F
100
AcDbEntity
  8
0
  6
Continuous
 62
     7
370
    30
100
AcDbLine
 10
214.1613967981
 20
245.6405565149
 30
0.0
 11
214.1613967981
 21
238.6405565149
 31
0.0
  0
LINE
  5
1DE
330
1F
100
AcDbEntity
  8
0
  6
Continuous
 62
     7
370
    30
100
AcDbLine
 10
214.868014636
 20
238.1405565149
 30
0.0
 11
214.8587442911
 21
238.1405565149
 31
0.0
  0
LINE
  5
1DF
330
1F
100
AcDbEntity
  8
0
  6
Continuous
 62
     7
370
    30
100
AcDbLine
 10
214.868014636
 20
246.1405565149
 30
0.0
 11
214.8587442911
 21
246.1405565149
 31
0.0
  0
LINE
  5
1E0
330
1F
100
AcDbEntity
  8
0
  6
Continuous
 62
     7
370
    30
100
AcDbLine
 10
223.9233719377
 20
238.6405565149
 30
0.0
 11
223.9233719377
 21
245.6405565149
 31
0.0
  0
LINE
  5
1E1
330
1F
100
AcDbEntity
  8
0
  6
Continuous
 62
     7
370
    30
100
AcDbLine
 10
214.3746079796
 20
246.1405565149
 30
0.0
 11
213.8332045664
 21
245.6405565149
 31
0.0
  0
LINE
  5
1E2
330
1F
100
AcDbEntity
  8
0
  6
Continuous
 62
     7
370
    30
100
AcDbLine
 10
213.8332045664
 20
245.6405565149
 30
0.0
 11
213.6823671021
 21
245.6405565149
 31
0.0
  0
LINE
  5
1E3
330
1F
100
AcDbEntity
  8
0
  6
Continuous
 62
     7
370
    30
100
AcDbLine
 10
213.6823671021
 20
245.6405565149
 30
0.0
 11
213.9623730399
 21
246.1405565149
 31
0.0
  0
LINE
  5
1E4
330
1F
100
AcDbEntity
  8
0
  6
Continuous
 62
     7
370
    30
100
AcDbLine
 10
213.9623730399
 20
246.1405565149
 30
0.0
 11
214.3746079796
 21
246.1405565149
 31
0.0
  0
LINE
  5
1E5
330
1F
100
AcDbEntity
  8
0
  6
Continuous
 62
     7
370
    30
100
AcDbLine
 10
213.6823671021
 20
238.6405565149
 30
0.0
 11
213.8332045664
 21
238.6405565149
 31
0.0
  0
LINE
  5
1E6
330
1F
100
AcDbEntity
  8
0
  6
Continuous
 62
     7
370
    30
100
AcDbLine
 10
213.8332045664
 20
238.6405565149
 30
0.0
 11
214.3746079796
 21
238.1405565149
 31
0.0
  0
LINE
  5
1E7
330
1F
100
AcDbEntity
  8
0
  6
Continuous
 62
     7
370
    30
100
AcDbLine
 10
213.9623730399
 20
238.1405565149
 30
0.0
 11
213.6823671021
 21
238.6405565149
 31
0.0
  0
LINE
  5
1E8
330
1F
100
AcDbEntity
  8
0
  6
Continuous
 62
     7
370
    30
100
AcDbLine
 10
214.3746079796
 20
238.1405565149
 30
0.0
 11
213.9623730399
 21
238.1405565149
 31
0.0
  0
LINE
  5
1E9
330
1F
100
AcDbEntity
  8
0
  6
Continuous
 62
     7
370
    30
100
AcDbLine
 10
224.2441301948
 20
245.6405565149
 30
0.0
 11
223.7005545694
 21
246.1405565149
 31
0.0
  0
LINE
  5
1EA
330
1F
100
AcDbEntity
  8
0
  6
Continuous
 62
     7
370
    30
100
AcDbLine
 10
224.2441301948
 20
245.6405565149
 30
0.0
 11
224.2441301948
 21
238.6405565149
 31
0.0
  0
LINE
  5
1EB
330
1F
100
AcDbEntity
  8
0
  6
Continuous
 62
     7
370
    30
100
AcDbLine
 10
223.7005545694
 20
238.1405565149
 30
0.0
 11
224.2441301948
 21
238.6405565149
 31
0.0
  0
LINE
  5
1EC
330
1F
100
AcDbEntity
  8
0
  6
Continuous
 62
     7
370
    30
100
AcDbLine
 10
223.7005545694
 20
238.1405565149
 30
0.0
 11
223.6925789279
 21
238.1405565149
 31
0.0
  0
LINE
  5
1ED
330
1F
100
AcDbEntity
  8
0
  6
Continuous
 62
     7
370
    30
100
AcDbLine
 10
223.7005545694
 20
246.1405565149
 30
0.0
 11
223.6925789279
 21
246.1405565149
 31
0.0
  0
LINE
  5
1EE
330
1F
100
AcDbEntity
  8
0
  6
Continuous
 62
     7
370
    30
100
AcDbLine
 10
213.8332045664
 20
238.6405565149
 30
0.0
 11
213.8332045664
 21
245.6405565149
 31
0.0
  0
LINE
  5
1EF
330
1F
100
AcDbEntity
  8
0
  6
Continuous
 62
     7
370
    30
100
AcDbLine
 10
214.3827684666
 20
238.1405565149
 30
0.0
 11
214.3746079796
 21
238.1405565149
 31
0.0
  0
LINE
  5
1F0
330
1F
100
AcDbEntity
  8
0
  6
Continuous
 62
     7
370
    30
100
AcDbLine
 10
214.3827684666
 20
246.1405565149
 30
0.0
 11
214.3746079796
 21
246.1405565149
 31
0.0
  0
LINE
  5
1F1
330
1F
100
AcDbEntity
  8
0
  6
Continuous
 62
     7
370
    30
100
AcDbLine
 10
224.1022455485
 20
246.1405565149
 30
0.0
 11
224.3911096061
 21
245.6405565149
 31
0.0
  0
LINE
  5
1F2
330
1F
100
AcDbEntity
  8
0
  6
Continuous
 62
     7
370
    30
100
AcDbLine
 10
224.3911096061
 20
245.6405565149
 30
0.0
 11
224.2441301948
 21
245.6405565149
 31
0.0
  0
LINE
  5
1F3
330
1F
100
AcDbEntity
  8
0
  6
Continuous
 62
     7
370
    30
100
AcDbLine
 10
223.7005545694
 20
246.1405565149
 30
0.0
 11
224.1022455485
 21
246.1405565149
 31
0.0
  0
LINE
  5
1F4
330
1F
100
AcDbEntity
  8
0
  6
Continuous
 62
     7
370
    30
100
AcDbLine
 10
224.2441301948
 20
238.6405565149
 30
0.0
 11
224.3911096061
 21
238.6405565149
 31
0.0
  0
LINE
  5
1F5
330
1F
100
AcDbEntity
  8
0
  6
Continuous
 62
     7
370
    30
100
AcDbLine
 10
224.3911096061
 20
238.6405565149
 30
0.0
 11
224.1022455485
 21
238.1405565149
 31
0.0
  0
LINE
  5
1F6
330
1F
100
AcDbEntity
  8
0
  6
Continuous
 62
     7
370
    30
100
AcDbLine
 10
224.1022455485
 20
238.1405565149
 30
0.0
 11
223.7005545694
 21
238.1405565149
 31
0.0
  0
LINE
  5
1F7
330
1F
100
AcDbEntity
  8
0
  6
Continuous
 62
     7
370
    30
100
AcDbLine
 10
213.6823671021
 20
245.6405565149
 30
0.0
 11
213.6823671021
 21
238.6405565149
 31
0.0
  0
LINE
  5
1F8
330
1F
100
AcDbEntity
  8
0
  6
Continuous
 62
     7
370
    30
100
AcDbLine
 10
224.3911096061
 20
238.6405565149
 30
0.0
 11
224.3911096061
 21
245.6405565149
 31
0.0
  0
LINE
  5
1F9
330
1F
100
AcDbEntity
  8
0
  6
Continuous
 62
     7
370
    30
100
AcDbLine
 10
213.2780202487
 20
238.6405565149
 30
0.0
 11
213.4034173876
 21
238.6405565149
 31
0.0
  0
LINE
  5
1FA
330
1F
100
AcDbEntity
  8
0
  6
Continuous
 62
     7
370
    30
100
AcDbLine
 10
213.4034173876
 20
238.6405565149
 30
0.0
 11
213.9554369662
 21
238.1405565149
 31
0.0
  0
LINE
  5
1FB
330
1F
100
AcDbEntity
  8
0
  6
Continuous
 62
     7
370
    30
100
AcDbLine
 10
213.6127297863
 20
238.1405565149
 30
0.0
 11
213.2780202487
 21
238.6405565149
 31
0.0
  0
LINE
  5
1FC
330
1F
100
AcDbEntity
  8
0
  6
Continuous
 62
     7
370
    30
100
AcDbLine
 10
213.9554369662
 20
238.1405565149
 30
0.0
 11
213.6127297863
 21
238.1405565149
 31
0.0
  0
LINE
  5
1FD
330
1F
100
AcDbEntity
  8
0
  6
Continuous
 62
     7
370
    30
100
AcDbLine
 10
213.9554369662
 20
246.1405565149
 30
0.0
 11
213.4034173876
 21
245.6405565149
 31
0.0
  0
LINE
  5
1FE
330
1F
100
AcDbEntity
  8
0
  6
Continuous
 62
     7
370
    30
100
AcDbLine
 10
213.4034173876
 20
245.6405565149
 30
0.0
 11
213.2780202487
 21
245.6405565149
 31
0.0
  0
LINE
  5
1FF
330
1F
100
AcDbEntity
  8
0
  6
Continuous
 62
     7
370
    30
100
AcDbLine
 10
213.2780202487
 20
245.6405565149
 30
0.0
 11
213.6127297863
 21
246.1405565149
 31
0.0
  0
LINE
  5
200
330
1F
100
AcDbEntity
  8
0
  6
Continuous
 62
     7
370
    30
100
AcDbLine
 10
213.6127297863
 20
246.1405565149
 30
0.0
 11
213.9554369662
 21
246.1405565149
 31
0.0
  0
LINE
  5
201
330
1F
100
AcDbEntity
  8
0
  6
Continuous
 62
     7
370
    30
100
AcDbLine
 10
213.4034173876
 20
238.6405565149
 30
0.0
 11
213.4034173876
 21
245.6405565149
 31
0.0
  0
LINE
  5
202
330
1F
100
AcDbEntity
  8
0
  6
Continuous
 62
     7
370
    30
100
AcDbLine
 10
213.9623730399
 20
238.1405565149
 30
0.0
 11
213.9554369662
 21
238.1405565149
 31
0.0
  0
LINE
  5
203
330
1F
100
AcDbEntity
  8
0
  6
Continuous
 62
     7
370
    30
100
AcDbLine
 10
213.9623730399
 20
246.1405565149
 30
0.0
 11
213.9554369662
 21
246.1405565149
 31
0.0
  0
LINE
  5
204
330
1F
100
AcDbEntity
  8
0
  6
Continuous
 62
     7
370
    30
100
AcDbLine
 10
224.6619640906
 20
245.6405565149
 30
0.0
 11
224.1089803347
 21
246.1405565149
 31
0.0
  0
LINE
  5
205
330
1F
100
AcDbEntity
  8
0
  6
Continuous
 62
     7
370
    30
100
AcDbLine
 10
224.6619640906
 20
245.6405565149
 30
0.0
 11
224.6619640906
 21
238.6405565149
 31
0.0
  0
LINE
  5
206
330
1F
100
AcDbEntity
  8
0
  6
Continuous
 62
     7
370
    30
100
AcDbLine
 10
224.1089803347
 20
238.1405565149
 30
0.0
 11
224.6619640906
 21
238.6405565149
 31
0.0
  0
LINE
  5
207
330
1F
100
AcDbEntity
  8
0
  6
Continuous
 62
     7
370
    30
100
AcDbLine
 10
224.1089803347
 20
238.1405565149
 30
0.0
 11
224.1022455485
 21
238.1405565149
 31
0.0
  0
LINE
  5
208
330
1F
100
AcDbEntity
  8
0
  6
Continuous
 62
     7
370
    30
100
AcDbLine
 10
224.1089803347
 20
246.1405565149
 30
0.0
 11
224.1022455485
 21
246.1405565149
 31
0.0
  0
LINE
  5
209
330
1F
100
AcDbEntity
  8
0
  6
Continuous
 62
     7
370
    30
100
AcDbLine
 10
224.4403227591
 20
246.1405565149
 30
0.0
 11
224.7832028462
 21
245.6405565149
 31
0.0
  0
LINE
  5
20A
330
1F
100
AcDbEntity
  8
0
  6
Continuous
 62
     7
370
    30
100
AcDbLine
 10
224.7832028462
 20
245.6405565149
 30
0.0
 11
224.6619640906
 21
245.6405565149
 31
0.0
  0
LINE
  5
20B
330
1F
100
AcDbEntity
  8
0
  6
Continuous
 62
     7
370
    30
100
AcDbLine
 10
224.1089803347
 20
246.1405565149
 30
0.0
 11
224.4403227591
 21
246.1405565149
 31
0.0
  0
LINE
  5
20C
330
1F
100
AcDbEntity
  8
0
  6
Continuous
 62
     7
370
    30
100
AcDbLine
 10
224.6619640906
 20
238.6405565149
 30
0.0
 11
224.7832028462
 21
238.6405565149
 31
0.0
  0
LINE
  5
20D
330
1F
100
AcDbEntity
  8
0
  6
Continuous
 62
     7
370
    30
100
AcDbLine
 10
224.7832028462
 20
238.6405565149
 30
0.0
 11
224.4403227591
 21
238.1405565149
 31
0.0
  0
LINE
  5
20E
330
1F
100
AcDbEntity
  8
0
  6
Continuous
 62
     7
370
    30
100
AcDbLine
 10
224.4403227591
 20
238.1405565149
 30
0.0
 11
224.1089803347
 21
238.1405565149
 31
0.0
  0
LINE
  5
20F
330
1F
100
AcDbEntity
  8
0
  6
Continuous
 62
     7
370
    30
100
AcDbLine
 10
213.2780202487
 20
245.6405565149
 30
0.0
 11
213.2780202487
 21
238.6405565149
 31
0.0
  0
LINE
  5
210
330
1F
100
AcDbEntity
  8
0
  6
Continuous
 62
     7
370
    30
100
AcDbLine
 10
224.7832028462
 20
238.6405565149
 30
0.0
 11
224.7832028462
 21
245.6405565149
 31
0.0
  0
LINE
  5
211
330
1F
100
AcDbEntity
  8
0
  6
Continuous
 62
     7
370
    30
100
AcDbLine
 10
213.0522288941
 20
245.6405565149
 30
0.0
 11
212.9540323814
 21
245.6405565149
 31
0.0
  0
LINE
  5
212
330
1F
100
AcDbEntity
  8
0
  6
Continuous
 62
     7
370
    30
100
AcDbLine
 10
212.9540323814
 20
245.6405565149
 30
0.0
 11
213.3387469307
 21
246.1405565149
 31
0.0
  0
LINE
  5
213
330
1F
100
AcDbEntity
  8
0
  6
Continuous
 62
     7
370
    30
100
AcDbLine
 10
213.6071154932
 20
246.1405565149
 30
0.0
 11
213.0522288941
 21
245.6405565149
 31
0.0
  0
LINE
  5
214
330
1F
100
AcDbEntity
  8
0
  6
Continuous
 62
     7
370
    30
100
AcDbLine
 10
213.3387469307
 20
246.1405565149
 30
0.0
 11
213.6071154932
 21
246.1405565149
 31
0.0
  0
LINE
  5
215
330
1F
100
AcDbEntity
  8
0
  6
Continuous
 62
     7
370
    30
100
AcDbLine
 10
213.3387469307
 20
238.1405565149
 30
0.0
 11
212.9540323814
 21
238.6405565149
 31
0.0
  0
LINE
  5
216
330
1F
100
AcDbEntity
  8
0
  6
Continuous
 62
     7
370
    30
100
AcDbLine
 10
212.9540323814
 20
238.6405565149
 30
0.0
 11
213.0522288941
 21
238.6405565149
 31
0.0
  0
LINE
  5
217
330
1F
100
AcDbEntity
  8
0
  6
Continuous
 62
     7
370
    30
100
AcDbLine
 10
213.0522288941
 20
238.6405565149
 30
0.0
 11
213.6071154932
 21
238.1405565149
 31
0.0
  0
LINE
  5
218
330
1F
100
AcDbEntity
  8
0
  6
Continuous
 62
     7
370
    30
100
AcDbLine
 10
213.6071154932
 20
238.1405565149
 30
0.0
 11
213.3387469307
 21
238.1405565149
 31
0.0
  0
LINE
  5
219
330
1F
100
AcDbEntity
  8
0
  6
Continuous
 62
     7
370
    30
100
AcDbLine
 10
213.0522288941
 20
238.6405565149
 30
0.0
 11
213.0522288941
 21
245.6405565149
 31
0.0
  0
LINE
  5
21A
330
1F
100
AcDbEntity
  8
0
  6
Continuous
 62
     7
370
    30
100
AcDbLine
 10
213.6127297863
 20
238.1405565149
 30
0.0
 11
213.6071154932
 21
238.1405565149
 31
0.0
  0
LINE
  5
21B
330
1F
100
AcDbEntity
  8
0
  6
Continuous
 62
     7
370
    30
100
AcDbLine
 10
213.6127297863
 20
246.1405565149
 30
0.0
 11
213.6071154932
 21
246.1405565149
 31
0.0
  0
LINE
  5
21C
330
1F
100
AcDbEntity
  8
0
  6
Continuous
 62
     7
370
    30
100
AcDbLine
 10
225.0003513548
 20
245.6405565149
 30
0.0
 11
224.4457221483
 21
246.1405565149
 31
0.0
  0
LINE
  5
21D
330
1F
100
AcDbEntity
  8
0
  6
Continuous
 62
     7
370
    30
100
AcDbLine
 10
225.0003513548
 20
245.6405565149
 30
0.0
 11
225.0003513548
 21
238.6405565149
 31
0.0
  0
LINE
  5
21E
330
1F
100
AcDbEntity
  8
0
  6
Continuous
 62
     7
370
    30
100
AcDbLine
 10
224.4457221483
 20
238.1405565149
 30
0.0
 11
225.0003513548
 21
238.6405565149
 31
0.0
  0
LINE
  5
21F
330
1F
100
AcDbEntity
  8
0
  6
Continuous
 62
     7
370
    30
100
AcDbLine
 10
224.4457221483
 20
238.1405565149
 30
0.0
 11
224.4403227591
 21
238.1405565149
 31
0.0
  0
LINE
  5
220
330
1F
100
AcDbEntity
  8
0
  6
Continuous
 62
     7
370
    30
100
AcDbLine
 10
224.4457221483
 20
246.1405565149
 30
0.0
 11
224.4403227591
 21
246.1405565149
 31
0.0
  0
LINE
  5
221
330
1F
100
AcDbEntity
  8
0
  6
Continuous
 62
     7
370
    30
100
AcDbLine
 10
224.7020646967
 20
246.1405565149
 30
0.0
 11
225.0941475285
 21
245.6405565149
 31
0.0
  0
LINE
  5
222
330
1F
100
AcDbEntity
  8
0
  6
Continuous
 62
     7
370
    30
100
AcDbLine
 10
225.0941475285
 20
245.6405565149
 30
0.0
 11
225.0003513548
 21
245.6405565149
 31
0.0
  0
LINE
  5
223
330
1F
100
AcDbEntity
  8
0
  6
Continuous
 62
     7
370
    30
100
AcDbLine
 10
224.4457221483
 20
246.1405565149
 30
0.0
 11
224.7020646967
 21
246.1405565149
 31
0.0
  0
LINE
  5
224
330
1F
100
AcDbEntity
  8
0
  6
Continuous
 62
     7
370
    30
100
AcDbLine
 10
225.0003513548
 20
238.6405565149
 30
0.0
 11
225.0941475285
 21
238.6405565149
 31
0.0
  0
LINE
  5
225
330
1F
100
AcDbEntity
  8
0
  6
Continuous
 62
     7
370
    30
100
AcDbLine
 10
225.0941475285
 20
238.6405565149
 30
0.0
 11
224.7020646967
 21
238.1405565149
 31
0.0
  0
LINE
  5
226
330
1F
100
AcDbEntity
  8
0
  6
Continuous
 62
     7
370
    30
100
AcDbLine
 10
224.7020646967
 20
238.1405565149
 30
0.0
 11
224.4457221483
 21
238.1405565149
 31
0.0
  0
LINE
  5
227
330
1F
100
AcDbEntity
  8
0
  6
Continuous
 62
     7
370
    30
100
AcDbLine
 10
212.9540323814
 20
245.6405565149
 30
0.0
 11
212.9540323814
 21
238.6405565149
 31
0.0
  0
LINE
  5
228
330
1F
100
AcDbEntity
  8
0
  6
Continuous
 62
     7
370
    30
100
AcDbLine
 10
225.0941475285
 20
238.6405565149
 30
0.0
 11
225.0941475285
 21
245.6405565149
 31
0.0
  0
LINE
  5
229
330
1F
100
AcDbEntity
  8
0
  6
Continuous
 62
     7
370
    30
100
AcDbLine
 10
212.7845690023
 20
238.6405565149
 30
0.0
 11
212.7845690023
 21
245.6405565149
 31
0.0
  0
LINE
  5
22A
330
1F
100
AcDbEntity
  8
0
  6
Continuous
 62
     7
370
    30
100
AcDbLine
 10
213.3345332304
 20
246.1405565149
 30
0.0
 11
212.7845690023
 21
245.6405565149
 31
0.0
  0
LINE
  5
22B
330
1F
100
AcDbEntity
  8
0
  6
Continuous
 62
     7
370
    30
100
AcDbLine
 10
212.7845690023
 20
238.6405565149
 30
0.0
 11
213.3345332304
 21
238.1405565149
 31
0.0
  0
LINE
  5
22C
330
1F
100
AcDbEntity
  8
0
  6
Continuous
 62
     7
370
    30
100
AcDbLine
 10
213.3387469307
 20
238.1405565149
 30
0.0
 11
213.3345332304
 21
238.1405565149
 31
0.0
  0
LINE
  5
22D
330
1F
100
AcDbEntity
  8
0
  6
Continuous
 62
     7
370
    30
100
AcDbLine
 10
213.3387469307
 20
246.1405565149
 30
0.0
 11
213.3345332304
 21
246.1405565149
 31
0.0
  0
LINE
  5
22E
330
1F
100
AcDbEntity
  8
0
  6
Continuous
 62
     7
370
    30
100
AcDbLine
 10
212.7149515798
 20
238.6405565149
 30
0.0
 11
212.7845690023
 21
238.6405565149
 31
0.0
  0
LINE
  5
22F
330
1F
100
AcDbEntity
  8
0
  6
Continuous
 62
     7
370
    30
100
AcDbLine
 10
213.1442705917
 20
238.1405565149
 30
0.0
 11
212.7149515798
 21
238.6405565149
 31
0.0
  0
LINE
  5
230
330
1F
100
AcDbEntity
  8
0
  6
Continuous
 62
     7
370
    30
100
AcDbLine
 10
213.3345332304
 20
238.1405565149
 30
0.0
 11
213.1442705917
 21
238.1405565149
 31
0.0
  0
LINE
  5
231
330
1F
100
AcDbEntity
  8
0
  6
Continuous
 62
     7
370
    30
100
AcDbLine
 10
212.7845690023
 20
245.6405565149
 30
0.0
 11
212.7149515798
 21
245.6405565149
 31
0.0
  0
LINE
  5
232
330
1F
100
AcDbEntity
  8
0
  6
Continuous
 62
     7
370
    30
100
AcDbLine
 10
212.7149515798
 20
245.6405565149
 30
0.0
 11
213.1442705917
 21
246.1405565149
 31
0.0
  0
LINE
  5
233
330
1F
100
AcDbEntity
  8
0
  6
Continuous
 62
     7
370
    30
100
AcDbLine
 10
213.1442705917
 20
246.1405565149
 30
0.0
 11
213.3345332304
 21
246.1405565149
 31
0.0
  0
LINE
  5
234
330
1F
100
AcDbEntity
  8
0
  6
Continuous
 62
     7
370
    30
100
AcDbLine
 10
225.2545417722
 20
245.6405565149
 30
0.0
 11
224.7060528933
 21
246.1405565149
 31
0.0
  0
LINE
  5
235
330
1F
100
AcDbEntity
  8
0
  6
Continuous
 62
     7
370
    30
100
AcDbLine
 10
225.2545417722
 20
245.6405565149
 30
0.0
 11
225.2545417722
 21
238.6405565149
 31
0.0
  0
LINE
  5
236
330
1F
100
AcDbEntity
  8
0
  6
Continuous
 62
     7
370
    30
100
AcDbLine
 10
224.7060528933
 20
238.1405565149
 30
0.0
 11
225.2545417722
 21
238.6405565149
 31
0.0
  0
LINE
  5
237
330
1F
100
AcDbEntity
  8
0
  6
Continuous
 62
     7
370
    30
100
AcDbLine
 10
224.7060528933
 20
238.1405565149
 30
0.0
 11
224.7020646967
 21
238.1405565149
 31
0.0
  0
LINE
  5
238
330
1F
100
AcDbEntity
  8
0
  6
Continuous
 62
     7
370
    30
100
AcDbLine
 10
224.7060528933
 20
246.1405565149
 30
0.0
 11
224.7020646967
 21
246.1405565149
 31
0.0
  0
LINE
  5
239
330
1F
100
AcDbEntity
  8
0
  6
Continuous
 62
     7
370
    30
100
AcDbLine
 10
225.2545417722
 20
238.6405565149
 30
0.0
 11
225.3195786712
 21
238.6405565149
 31
0.0
  0
LINE
  5
23A
330
1F
100
AcDbEntity
  8
0
  6
Continuous
 62
     7
370
    30
100
AcDbLine
 10
225.3195786712
 20
238.6405565149
 30
0.0
 11
224.8837970782
 21
238.1405565149
 31
0.0
  0
LINE
  5
23B
330
1F
100
AcDbEntity
  8
0
  6
Continuous
 62
     7
370
    30
100
AcDbLine
 10
224.8837970782
 20
238.1405565149
 30
0.0
 11
224.7060528933
 21
238.1405565149
 31
0.0
  0
LINE
  5
23C
330
1F
100
AcDbEntity
  8
0
  6
Continuous
 62
     7
370
    30
100
AcDbLine
 10
224.8837970782
 20
246.1405565149
 30
0.0
 11
225.3195786712
 21
245.6405565149
 31
0.0
  0
LINE
  5
23D
330
1F
100
AcDbEntity
  8
0
  6
Continuous
 62
     7
370
    30
100
AcDbLine
 10
225.3195786712
 20
245.6405565149
 30
0.0
 11
225.2545417722
 21
245.6405565149
 31
0.0
  0
LINE
  5
23E
330
1F
100
AcDbEntity
  8
0
  6
Continuous
 62
     7
370
    30
100
AcDbLine
 10
224.7060528933
 20
246.1405565149
 30
0.0
 11
224.8837970782
 21
246.1405565149
 31
0.0
  0
LINE
  5
23F
330
1F
100
AcDbEntity
  8
0
  6
Continuous
 62
     7
370
    30
100
AcDbLine
 10
212.7149515798
 20
245.6405565149
 30
0.0
 11
212.7149515798
 21
238.6405565149
 31
0.0
  0
LINE
  5
240
330
1F
100
AcDbEntity
  8
0
  6
Continuous
 62
     7
370
    30
100
AcDbLine
 10
225.3195786712
 20
238.6405565149
 30
0.0
 11
225.3195786712
 21
245.6405565149
 31
0.0
  0
LINE
  5
241
330
1F
100
AcDbEntity
  8
0
  6
Continuous
 62
     7
370
    30
100
AcDbLine
 10
212.6041950706
 20
238.6405565149
 30
0.0
 11
212.6041950706
 21
245.6405565149
 31
0.0
  0
LINE
  5
242
330
1F
100
AcDbEntity
  8
0
  6
Continuous
 62
     7
370
    30
100
AcDbLine
 10
213.1415166354
 20
246.1405565149
 30
0.0
 11
212.6041950706
 21
245.6405565149
 31
0.0
  0
LINE
  5
243
330
1F
100
AcDbEntity
  8
0
  6
Continuous
 62
     7
370
    30
100
AcDbLine
 10
212.6041950706
 20
238.6405565149
 30
0.0
 11
213.1415166354
 21
238.1405565149
 31
0.0
  0
LINE
  5
244
330
1F
100
AcDbEntity
  8
0
  6
Continuous
 62
     7
370
    30
100
AcDbLine
 10
213.1442705917
 20
238.1405565149
 30
0.0
 11
213.1415166354
 21
238.1405565149
 31
0.0
  0
LINE
  5
245
330
1F
100
AcDbEntity
  8
0
  6
Continuous
 62
     7
370
    30
100
AcDbLine
 10
213.1442705917
 20
246.1405565149
 30
0.0
 11
213.1415166354
 21
246.1405565149
 31
0.0
  0
LINE
  5
246
330
1F
100
AcDbEntity
  8
0
  6
Continuous
 62
     7
370
    30
100
AcDbLine
 10
212.5641340141
 20
238.6405565149
 30
0.0
 11
212.6041950706
 21
238.6405565149
 31
0.0
  0
LINE
  5
247
330
1F
100
AcDbEntity
  8
0
  6
Continuous
 62
     7
370
    30
100
AcDbLine
 10
213.0320307908
 20
238.1405565149
 30
0.0
 11
212.5641340141
 21
238.6405565149
 31
0.0
  0
LINE
  5
248
330
1F
100
AcDbEntity
  8
0
  6
Continuous
 62
     7
370
    30
100
AcDbLine
 10
213.1415166354
 20
238.1405565149
 30
0.0
 11
213.0320307908
 21
238.1405565149
 31
0.0
  0
LINE
  5
249
330
1F
100
AcDbEntity
  8
0
  6
Continuous
 62
     7
370
    30
100
AcDbLine
 10
212.6041950706
 20
245.6405565149
 30
0.0
 11
212.5641340141
 21
245.6405565149
 31
0.0
  0
LINE
  5
24A
330
1F
100
AcDbEntity
  8
0
  6
Continuous
 62
     7
370
    30
100
AcDbLine
 10
212.5641340141
 20
245.6405565149
 30
0.0
 11
213.0320307908
 21
246.1405565149
 31
0.0
  0
LINE
  5
24B
330
1F
100
AcDbEntity
  8
0
  6
Continuous
 62
     7
370
    30
100
AcDbLine
 10
213.0320307908
 20
246.1405565149
 30
0.0
 11
213.1415166354
 21
246.1405565149
 31
0.0
  0
LINE
  5
24C
330
1F
100
AcDbEntity
  8
0
  6
Continuous
 62
     7
370
    30
100
AcDbLine
 10
225.4209670664
 20
245.6405565149
 30
0.0
 11
224.8863180966
 21
246.1405565149
 31
0.0
  0
LINE
  5
24D
330
1F
100
AcDbEntity
  8
0
  6
Continuous
 62
     7
370
    30
100
AcDbLine
 10
225.4209670664
 20
245.6405565149
 30
0.0
 11
225.4209670664
 21
238.6405565149
 31
0.0
  0
LINE
  5
24E
330
1F
100
AcDbEntity
  8
0
  6
Continuous
 62
     7
370
    30
100
AcDbLine
 10
224.8863180966
 20
238.1405565149
 30
0.0
 11
225.4209670664
 21
238.6405565149
 31
0.0
  0
LINE
  5
24F
330
1F
100
AcDbEntity
  8
0
  6
Continuous
 62
     7
370
    30
100
AcDbLine
 10
224.8863180966
 20
238.1405565149
 30
0.0
 11
224.8837970782
 21
238.1405565149
 31
0.0
  0
LINE
  5
250
330
1F
100
AcDbEntity
  8
0
  6
Continuous
 62
     7
370
    30
100
AcDbLine
 10
224.8863180966
 20
246.1405565149
 30
0.0
 11
224.8837970782
 21
246.1405565149
 31
0.0
  0
LINE
  5
251
330
1F
100
AcDbEntity
  8
0
  6
Continuous
 62
     7
370
    30
100
AcDbLine
 10
225.4209670664
 20
238.6405565149
 30
0.0
 11
225.4563317152
 21
238.6405565149
 31
0.0
  0
LINE
  5
252
330
1F
100
AcDbEntity
  8
0
  6
Continuous
 62
     7
370
    30
100
AcDbLine
 10
225.4563317152
 20
238.6405565149
 30
0.0
 11
224.9829687793
 21
238.1405565149
 31
0.0
  0
LINE
  5
253
330
1F
100
AcDbEntity
  8
0
  6
Continuous
 62
     7
370
    30
100
AcDbLine
 10
224.9829687793
 20
238.1405565149
 30
0.0
 11
224.8863180966
 21
238.1405565149
 31
0.0
  0
LINE
  5
254
330
1F
100
AcDbEntity
  8
0
  6
Continuous
 62
     7
370
    30
100
AcDbLine
 10
224.9829687793
 20
246.1405565149
 30
0.0
 11
225.4563317152
 21
245.6405565149
 31
0.0
  0
LINE
  5
255
330
1F
100
AcDbEntity
  8
0
  6
Continuous
 62
     7
370
    30
100
AcDbLine
 10
225.4563317152
 20
245.6405565149
 30
0.0
 11
225.4209670664
 21
245.6405565149
 31
0.0
  0
LINE
  5
256
330
1F
100
AcDbEntity
  8
0
  6
Continuous
 62
     7
370
    30
100
AcDbLine
 10
224.8863180966
 20
246.1405565149
 30
0.0
 11
224.9829687793
 21
246.1405565149
 31
0.0
  0
LINE
  5
257
330
1F
100
AcDbEntity
  8
0
  6
Continuous
 62
     7
370
    30
100
AcDbLine
 10
212.5641340141
 20
245.6405565149
 30
0.0
 11
212.5641340141
 21
238.6405565149
 31
0.0
  0
LINE
  5
258
330
1F
100
AcDbEntity
  8
0
  6
Continuous
 62
     7
370
    30
100
AcDbLine
 10
225.4563317152
 20
238.6405565149
 30
0.0
 11
225.4563317152
 21
245.6405565149
 31
0.0
  0
LINE
  5
259
330
1F
100
AcDbEntity
  8
0
  6
Continuous
 62
     7
370
    30
100
AcDbLine
 10
212.5136391534
 20
238.6405565149
 30
0.0
 11
212.5136391534
 21
245.6405565149
 31
0.0
  0
LINE
  5
25A
330
1F
100
AcDbEntity
  8
0
  6
Continuous
 62
     7
370
    30
100
AcDbLine
 10
213.0307752381
 20
246.1405565149
 30
0.0
 11
212.5136391534
 21
245.6405565149
 31
0.0
  0
LINE
  5
25B
330
1F
100
AcDbEntity
  8
0
  6
Continuous
 62
     7
370
    30
100
AcDbLine
 10
212.5136391534
 20
238.6405565149
 30
0.0
 11
213.0307752381
 21
238.1405565149
 31
0.0
  0
LINE
  5
25C
330
1F
100
AcDbEntity
  8
0
  6
Continuous
 62
     7
370
    30
100
AcDbLine
 10
213.0320307908
 20
238.1405565149
 30
0.0
 11
213.0307752381
 21
238.1405565149
 31
0.0
  0
LINE
  5
25D
330
1F
100
AcDbEntity
  8
0
  6
Continuous
 62
     7
370
    30
100
AcDbLine
 10
213.0320307908
 20
246.1405565149
 30
0.0
 11
213.0307752381
 21
246.1405565149
 31
0.0
  0
LINE
  5
25E
330
1F
100
AcDbEntity
  8
0
  6
Continuous
 62
     7
370
    30
100
AcDbLine
 10
212.5136391534
 20
245.6405565149
 30
0.0
 11
212.5036968325
 21
245.6405565149
 31
0.0
  0
LINE
  5
25F
330
1F
100
AcDbEntity
  8
0
  6
Continuous
 62
     7
370
    30
100
AcDbLine
 10
212.5036968325
 20
245.6405565149
 30
0.0
 11
212.7636908397
 21
245.900599256
 31
0.0
  0
LINE
  5
260
330
1F
100
AcDbEntity
  8
0
  6
Continuous
 62
     7
370
    30
100
AcDbLine
 10
213.0024885061
 20
246.1405565149
 30
0.0
 11
213.0307752381
 21
246.1405565149
 31
0.0
  0
LINE
  5
261
330
1F
100
AcDbEntity
  8
0
  6
Continuous
 62
     7
370
    30
100
AcDbLine
 10
212.5036968325
 20
238.6405565149
 30
0.0
 11
212.5136391534
 21
238.6405565149
 31
0.0
  0
LINE
  5
262
330
1F
100
AcDbEntity
  8
0
  6
Continuous
 62
     7
370
    30
100
AcDbLine
 10
212.7636908397
 20
238.3805137738
 30
0.0
 11
212.5036968325
 21
238.6405565149
 31
0.0
  0
LINE
  5
263
330
1F
100
AcDbEntity
  8
0
  6
Continuous
 62
     7
370
    30
100
AcDbLine
 10
213.0307752381
 20
238.1405565149
 30
0.0
 11
213.0024885061
 21
238.1405565149
 31
0.0
  0
LINE
  5
264
330
1F
100
AcDbEntity
  8
0
  6
Continuous
 62
     7
370
    30
100
AcDbLine
 10
225.4972909911
 20
245.6405565149
 30
0.0
 11
224.98398723
 21
246.1405565149
 31
0.0
  0
LINE
  5
265
330
1F
100
AcDbEntity
  8
0
  6
Continuous
 62
     7
370
    30
100
AcDbLine
 10
225.4972909911
 20
245.6405565149
 30
0.0
 11
225.4972909911
 21
238.6405565149
 31
0.0
  0
LINE
  5
266
330
1F
100
AcDbEntity
  8
0
  6
Continuous
 62
     7
370
    30
100
AcDbLine
 10
224.98398723
 20
238.1405565149
 30
0.0
 11
225.4972909911
 21
238.6405565149
 31
0.0
  0
LINE
  5
267
330
1F
100
AcDbEntity
  8
0
  6
Continuous
 62
     7
370
    30
100
AcDbLine
 10
224.98398723
 20
238.1405565149
 30
0.0
 11
224.9829687793
 21
238.1405565149
 31
0.0
  0
LINE
  5
268
330
1F
100
AcDbEntity
  8
0
  6
Continuous
 62
     7
370
    30
100
AcDbLine
 10
224.98398723
 20
246.1405565149
 30
0.0
 11
224.9829687793
 21
246.1405565149
 31
0.0
  0
LINE
  5
269
330
1F
100
AcDbEntity
  8
0
  6
Continuous
 62
     7
370
    30
100
AcDbLine
 10
225.4972909911
 20
238.6405565149
 30
0.0
 11
225.5024869476
 21
238.6405565149
 31
0.0
  0
LINE
  5
26A
330
1F
100
AcDbEntity
  8
0
  6
Continuous
 62
     7
370
    30
100
AcDbLine
 10
225.5024869476
 20
238.6405565149
 30
0.0
 11
225.492689233
 21
238.6308423286
 31
0.0
  0
LINE
  5
26B
330
1F
100
AcDbEntity
  8
0
  6
Continuous
 62
     7
370
    30
100
AcDbLine
 10
225.0024885061
 20
238.1405565149
 30
0.0
 11
224.98398723
 21
238.1405565149
 31
0.0
  0
LINE
  5
26C
330
1F
100
AcDbEntity
  8
0
  6
Continuous
 62
     7
370
    30
100
AcDbLine
 10
225.492689233
 20
245.6502707011
 30
0.0
 11
225.5024869476
 21
245.6405565149
 31
0.0
  0
LINE
  5
26D
330
1F
100
AcDbEntity
  8
0
  6
Continuous
 62
     7
370
    30
100
AcDbLine
 10
225.5024869476
 20
245.6405565149
 30
0.0
 11
225.4972909911
 21
245.6405565149
 31
0.0
  0
LINE
  5
26E
330
1F
100
AcDbEntity
  8
0
  6
Continuous
 62
     7
370
    30
100
AcDbLine
 10
224.98398723
 20
246.1405565149
 30
0.0
 11
225.0024885061
 21
246.1405565149
 31
0.0
  0
LINE
  5
26F
330
1F
100
AcDbEntity
  8
0
  6
Continuous
 62
     7
370
    30
100
AcDbLine
 10
212.5036968325
 20
245.6405565149
 30
0.0
 11
212.5036968325
 21
238.6405565149
 31
0.0
  0
LINE
  5
270
330
1F
100
AcDbEntity
  8
0
  6
Continuous
 62
     7
370
    30
100
AcDbLine
 10
225.5024869476
 20
238.6405565149
 30
0.0
 11
225.5024869476
 21
245.6405565149
 31
0.0
  0
CIRCLE
  5
271
330
1F
100
AcDbEntity
  8
0
  6
Continuous
 62
     7
370
    30
100
AcDbCircle
 10
210.5024885061
 20
231.6405565149
 30
0.0
 40
4.000000000000001
  0
CIRCLE
  5
272
330
1F
100
AcDbEntity
  8
0
  6
Continuous
 62
     7
370
    30
100
AcDbCircle
 10
210.5024885061
 20
231.6405565149
 30
0.0
 40
1.649999999999998
  0
LINE
  5
273
330
1F
100
AcDbEntity
  8
0
  6
Continuous
 62
     7
370
    30
100
AcDbLine
 10
195.9923981839
 20
225.6405565149
 30
0.0
 11
195.9923981839
 21
237.6405565149
 31
0.0
  0
LINE
  5
274
330
1F
100
AcDbEntity
  8
0
  6
Continuous
 62
     7
370
    30
100
AcDbLine
 10
195.9923981839
 20
225.6405565149
 30
0.0
 11
185.0024885061
 21
225.6405565149
 31
0.0
  0
LINE
  5
275
330
1F
100
AcDbEntity
  8
0
  6
Continuous
 62
     7
370
    30
100
AcDbLine
 10
185.0024885061
 20
225.6405565149
 30
0.0
 11
185.0024885061
 21
237.6405565149
 31
0.0
  0
LINE
  5
276
330
1F
100
AcDbEntity
  8
0
  6
Continuous
 62
     7
370
    30
100
AcDbLine
 10
195.9923981839
 20
237.6405565149
 30
0.0
 11
185.0024885061
 21
237.6405565149
 31
0.0
  0
LINE
  5
277
330
1F
100
AcDbEntity
  8
0
  6
Continuous
 62
     7
370
    30
100
AcDbLine
 10
225.0024885061
 20
225.6405565149
 30
0.0
 11
195.9923981839
 21
225.6405565149
 31
0.0
  0
LINE
  5
278
330
1F
100
AcDbEntity
  8
0
  6
Continuous
 62
     7
370
    30
100
AcDbLine
 10
225.0024885061
 20
237.6405565149
 30
0.0
 11
195.9923981839
 21
237.6405565149
 31
0.0
  0
LINE
  5
279
330
1F
100
AcDbEntity
  8
0
  6
Continuous
 62
     7
370
    30
100
AcDbLine
 10
225.0024885061
 20
232.1405565149
 30
0.0
 11
225.0024885061
 21
237.6405565149
 31
0.0
  0
LINE
  5
27A
330
1F
100
AcDbEntity
  8
0
  6
Continuous
 62
     7
370
    30
100
AcDbLine
 10
225.0024885061
 20
232.1405565149
 30
0.0
 11
214.4711154727
 21
232.1405565149
 31
0.0
  0
LINE
  5
27B
330
1F
100
AcDbEntity
  8
0
  6
Continuous
 62
     7
370
    30
100
AcDbLine
 10
214.4711154727
 20
231.1405565149
 30
0.0
 11
225.0024885061
 21
231.1405565149
 31
0.0
  0
LINE
  5
27C
330
1F
100
AcDbEntity
  8
0
  6
Continuous
 62
     7
370
    30
100
AcDbLine
 10
225.0024885061
 20
225.6405565149
 30
0.0
 11
225.0024885061
 21
231.1405565149
 31
0.0
  0
ARC
  5
27D
330
1F
100
AcDbEntity
  8
0
  6
Continuous
 62
     7
370
    30
100
AcDbCircle
 10
178.0024885061
 20
230.6405565149
 30
0.0
 40
5.0
100
AcDbArc
 50
180.0
 51
270.0
  0
LINE
  5
27E
330
1F
100
AcDbEntity
  8
0
  6
Continuous
 62
     7
370
    30
100
AcDbLine
 10
173.0024885061
 20
230.6405565149
 30
0.0
 11
173.0024885061
 21
232.6405565149
 31
0.0
  0
ARC
  5
27F
330
1F
100
AcDbEntity
  8
0
  6
Continuous
 62
     7
370
    30
100
AcDbCircle
 10
178.0024885061
 20
232.6405565149
 30
0.0
 40
5.0
100
AcDbArc
 50
90.0
 51
180.0
  0
CIRCLE
  5
280
330
1F
100
AcDbEntity
  8
0
  6
Continuous
 62
     7
370
    30
100
AcDbCircle
 10
179.0024885061
 20
231.6405565149
 30
0.0
 40
1.649999999999977
  0
LINE
  5
281
330
1F
100
AcDbEntity
  8
0
  6
Continuous
 62
     7
370
    30
100
AcDbLine
 10
185.0024885061
 20
237.6405565149
 30
0.0
 11
178.0024885061
 21
237.6405565149
 31
0.0
  0
LINE
  5
282
330
1F
100
AcDbEntity
  8
0
  6
Continuous
 62
     7
370
    30
100
AcDbLine
 10
185.0024885061
 20
225.6405565149
 30
0.0
 11
178.0024885061
 21
225.6405565149
 31
0.0
  0
LINE
  5
283
330
1F
100
AcDbEntity
  8
0
  6
Continuous
 62
     7
370
    30
100
AcDbLine
 10
228.0024885061
 20
256.6405565149
 30
0.0
 11
228.0024885061
 21
206.6405565149
 31
0.0
  0
LINE
  5
284
330
1F
100
AcDbEntity
  8
0
  6
Continuous
 62
     7
370
    30
100
AcDbLine
 10
228.0024885061
 20
206.6405565149
 30
0.0
 11
202.5024885061
 21
206.6405565149
 31
0.0
  0
LINE
  5
285
330
1F
100
AcDbEntity
  8
0
  6
Continuous
 62
     7
370
    30
100
AcDbLine
 10
202.5024885061
 20
256.6405565149
 30
0.0
 11
202.5024885061
 21
237.6405565149
 31
0.0
  0
LINE
  5
286
330
1F
100
AcDbEntity
  8
0
  6
Continuous
 62
     7
370
    30
100
AcDbLine
 10
202.5024885061
 20
225.6405565149
 30
0.0
 11
202.5024885061
 21
206.6405565149
 31
0.0
  0
LINE
  5
287
330
1F
100
AcDbEntity
  8
0
  6
Continuous
 62
     7
370
    30
100
AcDbLine
 10
228.0024885061
 20
256.6405565149
 30
0.0
 11
202.5024885061
 21
256.6405565149
 31
0.0
  0
LINE
  5
288
330
1F
100
AcDbEntity
  8
0
  6
Continuous
 62
     7
370
    30
100
AcDbLine
 10
155.5024885061
 20
256.6405565149
 30
0.0
 11
155.5024885061
 21
206.6405565149
 31
0.0
  0
LINE
  5
289
330
1F
100
AcDbEntity
  8
0
  6
Continuous
 62
     7
370
    30
100
AcDbLine
 10
155.5024885061
 20
206.6405565149
 30
0.0
 11
153.0024885061
 21
206.6405565149
 31
0.0
  0
LINE
  5
28A
330
1F
100
AcDbEntity
  8
0
  6
Continuous
 62
     7
370
    30
100
AcDbLine
 10
153.0024885061
 20
256.6405565149
 30
0.0
 11
153.0024885061
 21
206.6405565149
 31
0.0
  0
LINE
  5
28B
330
1F
100
AcDbEntity
  8
0
  6
Continuous
 62
     7
370
    30
100
AcDbLine
 10
155.5024885061
 20
256.6405565149
 30
0.0
 11
153.0024885061
 21
256.6405565149
 31
0.0
  0
LINE
  5
28C
330
1F
100
AcDbEntity
  8
0
  6
Continuous
 62
     7
370
    30
100
AcDbLine
 10
178.0024885061
 20
213.6545382043
 30
0.0
 11
178.0024885061
 21
206.6405565149
 31
0.0
  0
LINE
  5
28D
330
1F
100
AcDbEntity
  8
0
  6
Continuous
 62
     7
370
    30
100
AcDbLine
 10
178.0024885061
 20
206.6405565149
 30
0.0
 11
155.5024885061
 21
206.6405565149
 31
0.0
  0
LINE
  5
28E
330
1F
100
AcDbEntity
  8
0
  6
Continuous
 62
     7
370
    30
100
AcDbLine
 10
178.0024885061
 20
256.6405565149
 30
0.0
 11
178.0024885061
 21
249.6265748255
 31
0.0
  0
ELLIPSE
  5
28F
330
1F
100
AcDbEntity
  8
0
  6
Continuous
 62
     7
370
    30
100
AcDbEllipse
 10
177.1620084033
 20
244.1405565149
 30
0.0
 11
11.79478806280249
 21
0.0
 31
0.0
210
0.0
220
0.0
230
1.0
 40
0.4663076582
 41
1.499477281018797
 42
4.783708026160795
  0
LINE
  5
290
330
1F
100
AcDbEntity
  8
0
  6
Continuous
 62
     7
370
    30
100
AcDbLine
 10
178.0024885061
 20
238.6545382043
 30
0.0
 11
178.0024885061
 21
237.6405565149
 31
0.0
  0
LINE
  5
291
330
1F
100
AcDbEntity
  8
0
  6
Continuous
 62
     7
370
    30
100
AcDbLine
 10
178.0024885061
 20
225.6405565149
 30
0.0
 11
178.0024885061
 21
224.6265748255
 31
0.0
  0
ELLIPSE
  5
292
330
1F
100
AcDbEntity
  8
0
  6
Continuous
 62
     7
370
    30
100
AcDbEllipse
 10
177.1620084033
 20
219.1405565149
 30
0.0
 11
11.79478806280249
 21
0.0
 31
0.0
210
0.0
220
0.0
230
1.0
 40
0.4663076582
 41
1.499477281018797
 42
4.783708026160796
  0
CIRCLE
  5
293
330
1F
100
AcDbEntity
  8
0
  6
Continuous
 62
     7
370
    30
100
AcDbCircle
 10
165.5024885061
 20
231.6405565149
 30
0.0
 40
4.0
  0
LINE
  5
294
330
1F
100
AcDbEntity
  8
0
  6
Continuous
 62
     7
370
    30
100
AcDbLine
 10
178.0024885061
 20
256.6405565149
 30
0.0
 11
155.5024885061
 21
256.6405565149
 31
0.0
  0
ELLIPSE
  5
295
330
1F
100
AcDbEntity
  8
0
  6
Continuous
 62
     7
370
    30
100
AcDbEllipse
 10
180.842968609
 20
244.1405565149
 30
0.0
 11
11.79478806280252
 21
0.0
 31
0.0
210
0.0
220
0.0
230
1.0
 40
0.4663076582
 41
0.6966048394870867
 42
1.642115372570998
  0
LINE
  5
296
330
1F
100
AcDbEntity
  8
0
  6
Continuous
 62
     7
370
    30
100
AcDbLine
 10
180.0024885061
 20
256.6405565149
 30
0.0
 11
180.0024885061
 21
249.6265748255
 31
0.0
  0
LINE
  5
297
330
1F
100
AcDbEntity
  8
0
  6
Continuous
 62
     7
370
    30
100
AcDbLine
 10
180.0024885061
 20
213.6545382043
 30
0.0
 11
180.0024885061
 21
206.6405565149
 31
0.0
  0
ELLIPSE
  5
298
330
1F
100
AcDbEntity
  8
0
  6
Continuous
 62
     7
370
    30
100
AcDbEllipse
 10
180.842968609
 20
219.1405565149
 30
0.0
 11
11.79478806280252
 21
0.0
 31
0.0
210
0.0
220
0.0
230
1.0
 40
0.4663076582
 41
4.641069934608594
 42
5.586580467692519
  0
ARC
  5
299
330
1F
100
AcDbEntity
  8
0
  6
Continuous
 62
     7
370
    30
100
AcDbCircle
 10
192.5024885061
 20
218.6405565149
 30
0.0
 40
4.000000000000012
100
AcDbArc
 50
229.2200506481
 51
117.4505028141
  0
ELLIPSE
  5
29A
330
1F
100
AcDbEntity
  8
0
  6
Continuous
 62
     7
370
    30
100
AcDbEllipse
 10
180.842968609
 20
219.1405565149
 30
0.0
 11
11.79478806280252
 21
0.0
 31
0.0
210
0.0
220
0.0
230
1.0
 40
0.4663076582
 41
0.5877374610267934
 42
1.642115372570998
  0
LINE
  5
29B
330
1F
100
AcDbEntity
  8
0
  6
Continuous
 62
     7
370
    30
100
AcDbLine
 10
180.0024885061
 20
238.6545382043
 30
0.0
 11
180.0024885061
 21
237.6405565149
 31
0.0
  0
LINE
  5
29C
330
1F
100
AcDbEntity
  8
0
  6
Continuous
 62
     7
370
    30
100
AcDbLine
 10
180.0024885061
 20
225.6405565149
 30
0.0
 11
180.0024885061
 21
224.6265748255
 31
0.0
  0
ELLIPSE
  5
29D
330
1F
100
AcDbEntity
  8
0
  6
Continuous
 62
     7
370
    30
100
AcDbEllipse
 10
180.842968609
 20
244.1405565149
 30
0.0
 11
11.79478806280252
 21
0.0
 31
0.0
210
0.0
220
0.0
230
1.0
 40
0.4663076582
 41
4.641069934608595
 42
5.695447846152816
  0
ARC
  5
29E
330
1F
100
AcDbEntity
  8
0
  6
Continuous
 62
     7
370
    30
100
AcDbCircle
 10
192.5024885061
 20
244.6405565149
 30
0.0
 40
4.000000000000034
100
AcDbArc
 50
242.5494971859
 51
130.7799493519
  0
LINE
  5
29F
330
1F
100
AcDbEntity
  8
0
  6
Continuous
 62
     7
370
    30
100
AcDbLine
 10
202.5024885061
 20
206.6405565149
 30
0.0
 11
180.0024885061
 21
206.6405565149
 31
0.0
  0
LINE
  5
2A0
330
1F
100
AcDbEntity
  8
0
  6
Continuous
 62
     7
370
    30
100
AcDbLine
 10
202.5024885061
 20
256.6405565149
 30
0.0
 11
180.0024885061
 21
256.6405565149
 31
0.0
  0
LINE
  5
2A1
330
1F
100
AcDbEntity
  8
0
  6
Continuous
 62
     7
370
    30
100
AcDbLine
 10
180.0024885061
 20
238.9791613546
 30
0.0
 11
180.0024885061
 21
238.6545382043
 31
0.0
  0
LINE
  5
2A2
330
1F
100
AcDbEntity
  8
0
  6
Continuous
 62
     7
370
    30
100
AcDbLine
 10
178.0024885061
 20
238.9791613546
 30
0.0
 11
180.0024885061
 21
238.9791613546
 31
0.0
  0
LINE
  5
2A3
330
1F
100
AcDbEntity
  8
0
  6
Continuous
 62
     7
370
    30
100
AcDbLine
 10
178.0024885061
 20
238.6545382043
 30
0.0
 11
178.0024885061
 21
238.9791613546
 31
0.0
  0
LINE
  5
2A4
330
1F
100
AcDbEntity
  8
0
  6
Continuous
 62
     7
370
    30
100
AcDbLine
 10
178.0024885061
 20
249.3019516751
 30
0.0
 11
178.0024885061
 21
249.6265748255
 31
0.0
  0
LINE
  5
2A5
330
1F
100
AcDbEntity
  8
0
  6
Continuous
 62
     7
370
    30
100
AcDbLine
 10
180.0024885061
 20
249.3019516751
 30
0.0
 11
178.0024885061
 21
249.3019516751
 31
0.0
  0
LINE
  5
2A6
330
1F
100
AcDbEntity
  8
0
  6
Continuous
 62
     7
370
    30
100
AcDbLine
 10
180.0024885061
 20
249.6265748255
 30
0.0
 11
180.0024885061
 21
249.3019516751
 31
0.0
  0
SPLINE
  5
2A7
330
1F
100
AcDbEntity
  8
0
  6
Continuous
 62
     7
370
    30
100
AcDbSpline
210
0.0
220
0.0
230
1.0
 70
     8
 71
     3
 72
    18
 73
    14
 74
     0
 42
0.000000001
 43
0.00000001
 40
0.0
 40
0.0
 40
0.0
 40
0.0
 40
0.0444568294934707
 40
0.1281121258009583
 40
0.2117488801035814
 40
0.3035173728226724
 40
0.3951644887063477
 40
0.474021651306302
 40
0.552854144551967
 40
0.6887556192807265
 40
0.8293702082920803
 40
0.994328049027723
 40
1.0
 40
1.0
 40
1.0
 40
1.0
 10
190.6190374876971
 20
241.1507407774436
 30
0.0
 10
190.5120497222664
 20
241.1964702333308
 30
0.0
 10
190.2037409602565
 20
241.3282497118087
 30
0.0
 10
189.7902081276582
 20
241.6870051476621
 30
0.0
 10
189.3295678331056
 20
242.1693119351851
 30
0.0
 10
188.9489539586162
 20
242.7600624258025
 30
0.0
 10
188.6755000725854
 20
243.4079313458749
 30
0.0
 10
188.5272467747159
 20
244.0693838896863
 30
0.0
 10
188.4758557916921
 20
244.8659264754163
 30
0.0
 10
188.6254209778466
 20
245.8172405850865
 30
0.0
 10
189.1049117416499
 20
246.8287131022877
 30
0.0
 10
189.5689140626391
 20
247.4371642592392
 30
0.0
 10
189.8986434934193
 20
247.6739880132041
 30
0.0
 10
189.9096041184472
 20
247.6818603355466
 30
0.0
  0
LINE
  5
2A8
330
1F
100
AcDbEntity
  8
0
  6
Continuous
 62
     7
370
    30
100
AcDbLine
 10
180.0024885061
 20
213.9791613546
 30
0.0
 11
180.0024885061
 21
213.6545382043
 31
0.0
  0
LINE
  5
2A9
330
1F
100
AcDbEntity
  8
0
  6
Continuous
 62
     7
370
    30
100
AcDbLine
 10
178.0024885061
 20
213.9791613546
 30
0.0
 11
180.0024885061
 21
213.9791613546
 31
0.0
  0
LINE
  5
2AA
330
1F
100
AcDbEntity
  8
0
  6
Continuous
 62
     7
370
    30
100
AcDbLine
 10
178.0024885061
 20
213.6545382043
 30
0.0
 11
178.0024885061
 21
213.9791613546
 31
0.0
  0
LINE
  5
2AB
330
1F
100
AcDbEntity
  8
0
  6
Continuous
 62
     7
370
    30
100
AcDbLine
 10
178.0024885061
 20
224.3019516751
 30
0.0
 11
178.0024885061
 21
224.6265748255
 31
0.0
  0
LINE
  5
2AC
330
1F
100
AcDbEntity
  8
0
  6
Continuous
 62
     7
370
    30
100
AcDbLine
 10
180.0024885061
 20
224.3019516751
 30
0.0
 11
178.0024885061
 21
224.3019516751
 31
0.0
  0
LINE
  5
2AD
330
1F
100
AcDbEntity
  8
0
  6
Continuous
 62
     7
370
    30
100
AcDbLine
 10
180.0024885061
 20
224.6265748255
 30
0.0
 11
180.0024885061
 21
224.3019516751
 31
0.0
  0
SPLINE
  5
2AE
330
1F
100
AcDbEntity
  8
0
  6
Continuous
 62
     7
370
    30
100
AcDbSpline
210
0.0
220
0.0
230
1.0
 70
     8
 71
     3
 72
    19
 73
    15
 74
     0
 42
0.000000001
 43
0.00000001
 40
0.0
 40
0.0
 40
0.0
 40
0.0
 40
0.0905587525769097
 40
0.1775856730961636
 40
0.26451988938892
 40
0.3359459739138165
 40
0.4073208986363616
 40
0.4790155590304327
 40
0.5507081862272036
 40
0.6831521144855724
 40
0.8245124731886084
 40
0.9069680603047257
 40
0.9894143455686102
 40
1.0
 40
1.0
 40
1.0
 40
1.0
 10
189.9338441569179
 20
215.5842920931607
 30
0.0
 10
189.7705613571011
 20
215.7306858983113
 30
0.0
 10
189.4503638600578
 20
216.0177640844061
 30
0.0
 10
189.0703197871555
 20
216.5555526578574
 30
0.0
 10
188.7868361318745
 20
217.1152092018709
 30
0.0
 10
188.6029339513532
 20
217.6933782805824
 30
0.0
 10
188.5053305683098
 20
218.2655909554306
 30
0.0
 10
188.4945447153972
 20
218.857255735514
 30
0.0
 10
188.5906243337068
 20
219.6149096900536
 30
0.0
 10
188.9123163381751
 20
220.5170006402054
 30
0.0
 10
189.464920748045
 20
221.2976777971148
 30
0.0
 10
190.0647152397823
 20
221.8261185451221
 30
0.0
 10
190.4413247249038
 20
222.092933842966
 30
0.0
 10
190.6679141342961
 20
222.1910143790685
 30
0.0
 10
190.6936966471997
 20
222.2021744888656
 30
0.0
  0
LINE
  5
2AF
330
1F
100
AcDbEntity
  8
0
  6
Continuous
 62
     7
370
    30
100
AcDbLine
 10
180.0024885061
 20
256.6405565149
 30
0.0
 11
178.0024885061
 21
256.6405565149
 31
0.0
  0
LINE
  5
2B0
330
1F
100
AcDbEntity
  8
0
  6
Continuous
 62
     7
370
    30
100
AcDbLine
 10
180.0024885061
 20
206.6405565149
 30
0.0
 11
178.0024885061
 21
206.6405565149
 31
0.0
  0
CIRCLE
  5
2B1
330
1F
100
AcDbEntity
  8
0
  6
Continuous
 62
     7
370
    30
100
AcDbCircle
 10
165.5024885061
 20
231.6405565149
 30
0.0
 40
2.25
  0
CIRCLE
  5
2B2
330
1F
100
AcDbEntity
  8
0
  6
Continuous
 62
     7
370
    30
100
AcDbCircle
 10
192.5024885061
 20
244.6405565149
 30
0.0
 40
2.25
  0
CIRCLE
  5
2B3
330
1F
100
AcDbEntity
  8
0
  6
Continuous
 62
     7
370
    30
100
AcDbCircle
 10
192.5024885061
 20
218.6405565149
 30
0.0
 40
2.25
  0
DIMENSION
  5
2B4
330
1F
100
AcDbEntity
  8
SLD-0
 62
     7
100
AcDbDimension
  2
_D
 10
251.6428870658
 20
206.6405565149
 30
0.0
 11
251.6428870658
 21
231.6405565149
 31
0.0
 70
   160
  1
<>
 71
     2
 42
-1.0
  3
SLDDIMSTYLE0
100
AcDbAlignedDimension
 13
178.0024885061
 23
256.6405565149
 33
0.0
 14
178.0024885061
 24
206.6405565149
 34
0.0
 50
90.0
100
AcDbRotatedDimension
  0
DIMENSION
  5
2BF
330
1F
100
AcDbEntity
  8
SLD-0
 62
     7
100
AcDbDimension
  2
_D_1
 10
192.5024885061
 20
193.2848499919
 30
0.0
 11
179.0024885061
 21
193.2848499919
 31
0.0
 70
   160
  1
<>
 71
     2
 42
-1.0
  3
SLDDIMSTYLE0
100
AcDbAlignedDimension
 13
165.5024885061
 23
226.6405565149
 33
0.0
 14
192.5024885061
 24
213.6405565149
 34
0.0
100
AcDbRotatedDimension
  0
DIMENSION
  5
2C9
330
1F
100
AcDbEntity
  8
SLD-0
 62
     7
100
AcDbDimension
  2
_D_2
 10
240.9438045899
 20
218.6405565149
 30
0.0
 11
240.9438045899
 21
231.6405565149
 31
0.0
 70
   160
  1
<>
 71
     2
 42
-1.0
  3
SLDDIMSTYLE0
100
AcDbAlignedDimension
 13
197.5024885061
 23
244.6405565149
 33
0.0
 14
197.5024885061
 24
218.6405565149
 34
0.0
 50
90.0
100
AcDbRotatedDimension
  0
DIMENSION
  5
2D3
330
1F
100
AcDbEntity
  8
SLD-0
 62
     7
100
AcDbDimension
  2
_D_3
 10
168.7536570428
 20
229.3103412574
 30
0.0
 11
116.5087813193
 21
254.5424203262
 31
0.0
 70
   163
  1
3 HOLES for both of\P M4 and 8-32 CLR
 71
     1
 42
-1.0
  3
SLDDIMSTYLE1
100
AcDbDiametricDimension
 15
162.2513199694
 25
233.9707717723
 35
0.0
 40
0.0
  0
DIMENSION
  5
2DD
330
1F
100
AcDbEntity
  8
SLD-0
 62
     7
100
AcDbDimension
  2
_D_4
 10
228.0024885061
 20
193.2848499919
 30
0.0
 11
210.2524885061
 21
193.2848499919
 31
0.0
 70
   160
  1
<>
 71
     2
 42
-1.0
  3
SLDDIMSTYLE0
100
AcDbAlignedDimension
 13
192.5024885061
 23
213.6405565149
 33
0.0
 14
228.0024885061
 24
206.6405565149
 34
0.0
100
AcDbRotatedDimension
  0
INSERT
  5
2F2
330
1F
100
AcDbEntity
  8
SLD-0
 62
     7
100
AcDbBlockReference
  2
SW_CENTERMARKSYMBOL_0
 10
165.5024885061
 20
231.6405565149
 30
0.0
  0
INSERT
  5
2FE
330
1F
100
AcDbEntity
  8
SLD-0
 62
     7
100
AcDbBlockReference
  2
SW_CENTERMARKSYMBOL_1
 10
192.5024885061
 20
244.6405565149
 30
0.0
  0
INSERT
  5
30A
330
1F
100
AcDbEntity
  8
SLD-0
 62
     7
100
AcDbBlockReference
  2
SW_CENTERMARKSYMBOL_2
 10
192.5024885061
 20
218.6405565149
 30
0.0
  0
LINE
  5
30B
330
1F
100
AcDbEntity
  8
0
  6
Continuous
 62
     7
370
    30
100
AcDbLine
 10
378.6659582398
 20
252.9190981833
 30
0.0
 11
378.7720070183
 21
252.9803387433
 31
0.0
  0
LINE
  5
30C
330
1F
100
AcDbEntity
  8
0
  6
Continuous
 62
     7
370
    30
100
AcDbLine
 10
379.8324948029
 20
254.8173565119
 30
0.0
 11
379.8324948029
 21
254.9398177287
 31
0.0
  0
LINE
  5
30D
330
1F
100
AcDbEntity
  8
0
  6
Continuous
 62
     7
370
    30
100
AcDbLine
 10
360.0335049297
 20
260.1240092387
 30
0.0
 11
360.0335049297
 21
259.9285795365
 31
0.0
  0
LINE
  5
30E
330
1F
100
AcDbEntity
  8
0
  6
Continuous
 62
     7
370
    30
100
AcDbLine
 10
364.6289519966
 20
267.6762155133
 30
0.0
 11
364.2754560684
 21
267.472080313
 31
0.0
  0
LINE
  5
30F
330
1F
100
AcDbEntity
  8
0
  6
Continuous
 62
     7
370
    30
100
AcDbLine
 10
364.518786304
 20
266.467510546
 30
0.0
 11
364.518786304
 21
258.0837851596
 31
0.0
  0
LINE
  5
310
330
1F
100
AcDbEntity
  8
0
  6
Continuous
 62
     7
370
    30
100
AcDbLine
 10
364.518786304
 20
241.0776958977
 30
0.0
 11
364.518786304
 21
209.309653714
 31
0.0
  0
LINE
  5
311
330
1F
100
AcDbEntity
  8
0
  6
Continuous
 62
     7
370
    30
100
AcDbLine
 10
372.518786304
 20
209.309653714
 30
0.0
 11
372.518786304
 21
245.6959975943
 31
0.0
  0
LINE
  5
312
330
1F
100
AcDbEntity
  8
0
  6
Continuous
 62
     7
370
    30
100
AcDbLine
 10
372.518786304
 20
258.0837851596
 30
0.0
 11
372.518786304
 21
266.467510546
 31
0.0
  0
LINE
  5
313
330
1F
100
AcDbEntity
  8
0
  6
Continuous
 62
     7
370
    30
100
AcDbLine
 10
339.8307091342
 20
241.9591941508
 30
0.0
 11
339.8307091342
 21
235.4268676557
 31
0.0
  0
LWPOLYLINE
  5
314
330
1F
100
AcDbEntity
  8
0
  6
Continuous
 62
     7
370
    30
100
AcDbPolyline
 90
       20
 70
   128
 43
0.0
 10
378.7718346312
 20
252.9802392102
 10
379.1162304259
 20
253.2454183208
 10
379.4233055925
 20
253.6145884604
 10
379.6597837718
 20
254.0477443162
 10
379.8000388838
 20
254.4979467301
 10
379.8288721107
 20
254.9164092849
 10
379.7431589251
 20
255.2577850696
 10
379.5521876806
 20
255.4850807211
 10
379.2766530748
 20
255.5736652286
 10
378.9464135576
 20
255.5139390863
 10
378.5972557048
 20
255.3123745483
 10
378.2670161875
 20
254.9908142599
 10
377.9914815817
 20
254.584104268
 10
377.8005103372
 20
254.1363179109
 10
377.7147971516
 20
253.6959797886
 10
377.7436303786
 20
253.310807369
 10
377.8838854905
 20
253.0225400605
 10
378.1203636698
 20
252.8624160989
 10
378.4274388364
 20
252.8477874
 10
378.7718346312
 20
252.9802392102
  0
LINE
  5
315
330
1F
100
AcDbEntity
  8
0
  6
Continuous
 62
     7
370
    30
100
AcDbLine
 10
364.518786304
 20
262.3173567039
 30
0.0
 11
361.3296802056
 21
264.158388467
 31
0.0
  0
LINE
  5
316
330
1F
100
AcDbEntity
  8
0
  6
Continuous
 62
     7
370
    30
100
AcDbLine
 10
361.3460759829
 20
264.4249426945
 30
0.0
 11
361.3296802056
 21
264.158388467
 31
0.0
  0
LINE
  5
317
330
1F
100
AcDbEntity
  8
0
  6
Continuous
 62
     7
370
    30
100
AcDbLine
 10
361.3555093139
 20
264.4265351627
 30
0.0
 11
361.3460759829
 21
264.4249426945
 31
0.0
  0
LINE
  5
318
330
1F
100
AcDbEntity
  8
0
  6
Continuous
 62
     7
370
    30
100
AcDbLine
 10
364.518786304
 20
262.6004142264
 30
0.0
 11
361.3555093139
 21
264.4265351627
 31
0.0
  0
LINE
  5
319
330
1F
100
AcDbEntity
  8
0
  6
Continuous
 62
     7
370
    30
100
AcDbLine
 10
364.518786304
 20
261.7818051
 30
0.0
 11
361.0135016938
 21
263.8053628328
 31
0.0
  0
LINE
  5
31A
330
1F
100
AcDbEntity
  8
0
  6
Continuous
 62
     7
370
    30
100
AcDbLine
 10
361.0095102497
 20
263.8136542073
 30
0.0
 11
361.0135016938
 21
263.8053628328
 31
0.0
  0
LINE
  5
31B
330
1F
100
AcDbEntity
  8
0
  6
Continuous
 62
     7
370
    30
100
AcDbLine
 10
361.2065302324
 20
263.9347169717
 30
0.0
 11
361.0095102497
 21
263.8136542073
 31
0.0
  0
LINE
  5
31C
330
1F
100
AcDbEntity
  8
0
  6
Continuous
 62
     7
370
    30
100
AcDbLine
 10
361.2065302324
 20
263.9347169717
 30
0.0
 11
364.518786304
 21
262.0225922423
 31
0.0
  0
LINE
  5
31D
330
1F
100
AcDbEntity
  8
0
  6
Continuous
 62
     7
370
    30
100
AcDbLine
 10
361.3526311067
 20
264.4359399672
 30
0.0
 11
361.3555093139
 21
264.4265351627
 31
0.0
  0
LINE
  5
31E
330
1F
100
AcDbEntity
  8
0
  6
Continuous
 62
     7
370
    30
100
AcDbLine
 10
361.5933091648
 20
264.60066838
 30
0.0
 11
361.3526311067
 21
264.4359399672
 31
0.0
  0
LINE
  5
31F
330
1F
100
AcDbEntity
  8
0
  6
Continuous
 62
     7
370
    30
100
AcDbLine
 10
361.5933091648
 20
264.60066838
 30
0.0
 11
364.518786304
 21
262.9118263756
 31
0.0
  0
LINE
  5
320
330
1F
100
AcDbEntity
  8
0
  6
Continuous
 62
     7
370
    30
100
AcDbLine
 10
364.518786304
 20
261.4305936205
 30
0.0
 11
360.9744632798
 21
263.47668775
 31
0.0
  0
LINE
  5
321
330
1F
100
AcDbEntity
  8
0
  6
Continuous
 62
     7
370
    30
100
AcDbLine
 10
361.003739914
 20
263.8022653287
 30
0.0
 11
360.9744632798
 21
263.47668775
 31
0.0
  0
LINE
  5
322
330
1F
100
AcDbEntity
  8
0
  6
Continuous
 62
     7
370
    30
100
AcDbLine
 10
361.0135016938
 20
263.8053628328
 30
0.0
 11
361.003739914
 21
263.8022653287
 31
0.0
  0
LINE
  5
323
330
1F
100
AcDbEntity
  8
0
  6
Continuous
 62
     7
370
    30
100
AcDbLine
 10
364.518786304
 20
263.2057454129
 30
0.0
 11
361.7312221617
 21
264.8149719389
 31
0.0
  0
LINE
  5
324
330
1F
100
AcDbEntity
  8
0
  6
Continuous
 62
     7
370
    30
100
AcDbLine
 10
361.7295438067
 20
265.0216261234
 30
0.0
 11
361.7312221617
 21
264.8149719389
 31
0.0
  0
LINE
  5
325
330
1F
100
AcDbEntity
  8
0
  6
Continuous
 62
     7
370
    30
100
AcDbLine
 10
361.7385162655
 20
265.0216912008
 30
0.0
 11
361.7295438067
 21
265.0216261234
 31
0.0
  0
LINE
  5
326
330
1F
100
AcDbEntity
  8
0
  6
Continuous
 62
     7
370
    30
100
AcDbLine
 10
364.518786304
 20
263.4166754713
 30
0.0
 11
361.7385162655
 21
265.0216912008
 31
0.0
  0
LINE
  5
327
330
1F
100
AcDbEntity
  8
0
  6
Continuous
 62
     7
370
    30
100
AcDbLine
 10
364.518786304
 20
260.9723395698
 30
0.0
 11
360.7172944427
 21
263.1668941089
 31
0.0
  0
LINE
  5
328
330
1F
100
AcDbEntity
  8
0
  6
Continuous
 62
     7
370
    30
100
AcDbLine
 10
360.7122457927
 20
263.1739556607
 30
0.0
 11
360.7172944427
 21
263.1668941089
 31
0.0
  0
LINE
  5
329
330
1F
100
AcDbEntity
  8
0
  6
Continuous
 62
     7
370
    30
100
AcDbLine
 10
360.8678050859
 20
263.2467881757
 30
0.0
 11
360.7122457927
 21
263.1739556607
 31
0.0
  0
LINE
  5
32A
330
1F
100
AcDbEntity
  8
0
  6
Continuous
 62
     7
370
    30
100
AcDbLine
 10
360.8678050859
 20
263.2467881757
 30
0.0
 11
364.518786304
 21
261.1391215815
 31
0.0
  0
LINE
  5
32B
330
1F
100
AcDbEntity
  8
0
  6
Continuous
 62
     7
370
    30
100
AcDbLine
 10
361.7367916989
 20
265.0320774125
 30
0.0
 11
361.7385162655
 21
265.0216912008
 31
0.0
  0
LINE
  5
32C
330
1F
100
AcDbEntity
  8
0
  6
Continuous
 62
     7
370
    30
100
AcDbLine
 10
362.0227123547
 20
265.2352939028
 30
0.0
 11
361.7367916989
 21
265.0320774125
 31
0.0
  0
LINE
  5
32D
330
1F
100
AcDbEntity
  8
0
  6
Continuous
 62
     7
370
    30
100
AcDbLine
 10
362.0227123547
 20
265.2352939028
 30
0.0
 11
364.518786304
 21
263.7943410835
 31
0.0
  0
LINE
  5
32E
330
1F
100
AcDbEntity
  8
0
  6
Continuous
 62
     7
370
    30
100
AcDbLine
 10
364.4190278931
 20
260.6154936774
 30
0.0
 11
360.6705578512
 21
262.7794393717
 31
0.0
  0
LINE
  5
32F
330
1F
100
AcDbEntity
  8
0
  6
Continuous
 62
     7
370
    30
100
AcDbLine
 10
360.707341248
 20
263.162335051
 30
0.0
 11
360.6705578512
 21
262.7794393717
 31
0.0
  0
LINE
  5
330
330
1F
100
AcDbEntity
  8
0
  6
Continuous
 62
     7
370
    30
100
AcDbLine
 10
360.7172944427
 20
263.1668941089
 30
0.0
 11
360.707341248
 21
263.162335051
 31
0.0
  0
LINE
  5
331
330
1F
100
AcDbEntity
  8
0
  6
Continuous
 62
     7
370
    30
100
AcDbLine
 10
364.518786304
 20
264.0832887175
 30
0.0
 11
362.1734523791
 21
265.4372211731
 31
0.0
  0
LINE
  5
332
330
1F
100
AcDbEntity
  8
0
  6
Continuous
 62
     7
370
    30
100
AcDbLine
 10
362.1487603377
 20
265.5839394878
 30
0.0
 11
362.1734523791
 21
265.4372211731
 31
0.0
  0
LINE
  5
333
330
1F
100
AcDbEntity
  8
0
  6
Continuous
 62
     7
370
    30
100
AcDbLine
 10
362.1571459707
 20
265.5824762609
 30
0.0
 11
362.1487603377
 21
265.5839394878
 31
0.0
  0
LINE
  5
334
330
1F
100
AcDbEntity
  8
0
  6
Continuous
 62
     7
370
    30
100
AcDbLine
 10
364.518786304
 20
264.2191303162
 30
0.0
 11
362.1571459707
 21
265.5824762609
 31
0.0
  0
ARC
  5
335
330
1F
100
AcDbEntity
  8
0
  6
Continuous
 62
     7
370
    30
100
AcDbCircle
 10
371.1163631662
 20
258.6242582934
 30
0.0
 40
11.24303162632686
100
AcDbArc
 50
150.5129010512
 51
151.814134418
  0
ARC
  5
336
330
1F
100
AcDbEntity
  8
0
  6
Continuous
 62
     7
370
    30
100
AcDbCircle
 10
371.0620337559
 20
258.6586896919
 30
0.0
 40
11.17872336687144
100
AcDbArc
 50
146.5839727367
 51
147.8901919459
  0
LINE
  5
337
330
1F
100
AcDbEntity
  8
0
  6
Continuous
 62
     7
370
    30
100
AcDbLine
 10
364.0946457806
 20
260.4282318698
 30
0.0
 11
360.4710456609
 21
262.5200916925
 31
0.0
  0
LINE
  5
338
330
1F
100
AcDbEntity
  8
0
  6
Continuous
 62
     7
370
    30
100
AcDbLine
 10
360.4650106771
 20
262.5258242928
 30
0.0
 11
360.4710456609
 21
262.5200916925
 31
0.0
  0
LINE
  5
339
330
1F
100
AcDbEntity
  8
0
  6
Continuous
 62
     7
370
    30
100
AcDbLine
 10
360.5818886839
 20
262.5465390046
 30
0.0
 11
360.4650106771
 21
262.5258242928
 31
0.0
  0
LINE
  5
33A
330
1F
100
AcDbEntity
  8
0
  6
Continuous
 62
     7
370
    30
100
AcDbLine
 10
360.5818886839
 20
262.5465390046
 30
0.0
 11
364.1729738183
 21
260.4734496835
 31
0.0
  0
LINE
  5
33B
330
1F
100
AcDbEntity
  8
0
  6
Continuous
 62
     7
370
    30
100
AcDbLine
 10
362.1565992539
 20
265.5936980802
 30
0.0
 11
362.1571459707
 21
265.5824762609
 31
0.0
  0
LINE
  5
33C
330
1F
100
AcDbEntity
  8
0
  6
Continuous
 62
     7
370
    30
100
AcDbLine
 10
362.4887119227
 20
265.8296847888
 30
0.0
 11
362.1565992539
 21
265.5936980802
 31
0.0
  0
LINE
  5
33D
330
1F
100
AcDbEntity
  8
0
  6
Continuous
 62
     7
370
    30
100
AcDbLine
 10
362.4887119227
 20
265.8296847888
 30
0.0
 11
364.518786304
 21
264.6577477939
 31
0.0
  0
ARC
  5
33E
330
1F
100
AcDbEntity
  8
0
  6
Continuous
 62
     7
370
    30
100
AcDbCircle
 10
370.8937569299
 20
258.7351007284
 30
0.0
 40
10.99431825988251
100
AcDbArc
 50
154.4514262048
 51
155.772211352
  0
LINE
  5
33F
330
1F
100
AcDbEntity
  8
0
  6
Continuous
 62
     7
370
    30
100
AcDbLine
 10
363.6859750751
 20
260.1923112933
 30
0.0
 11
360.4222300859
 21
262.0764311709
 31
0.0
  0
LINE
  5
340
330
1F
100
AcDbEntity
  8
0
  6
Continuous
 62
     7
370
    30
100
AcDbLine
 10
360.4610407723
 20
262.5141350799
 30
0.0
 11
360.4222300859
 21
262.0764311709
 31
0.0
  0
LINE
  5
341
330
1F
100
AcDbEntity
  8
0
  6
Continuous
 62
     7
370
    30
100
AcDbLine
 10
360.4710456609
 20
262.5200916925
 30
0.0
 11
360.4610407723
 21
262.5141350799
 31
0.0
  0
LINE
  5
342
330
1F
100
AcDbEntity
  8
0
  6
Continuous
 62
     7
370
    30
100
AcDbLine
 10
364.518786304
 20
264.9376678333
 30
0.0
 11
362.650162915
 21
266.0164011543
 31
0.0
  0
LINE
  5
343
330
1F
100
AcDbEntity
  8
0
  6
Continuous
 62
     7
370
    30
100
AcDbLine
 10
362.5978406947
 20
266.1039891407
 30
0.0
 11
362.650162915
 21
266.0164011543
 31
0.0
  0
LINE
  5
344
330
1F
100
AcDbEntity
  8
0
  6
Continuous
 62
     7
370
    30
100
AcDbLine
 10
362.605521786
 20
266.1010181501
 30
0.0
 11
362.5978406947
 21
266.1039891407
 31
0.0
  0
LINE
  5
345
330
1F
100
AcDbEntity
  8
0
  6
Continuous
 62
     7
370
    30
100
AcDbLine
 10
364.518786304
 20
264.9965140539
 30
0.0
 11
362.605521786
 21
266.1010181501
 31
0.0
  0
ARC
  5
346
330
1F
100
AcDbEntity
  8
0
  6
Continuous
 62
     7
370
    30
100
AcDbCircle
 10
370.7573987369
 20
258.8720213864
 30
0.0
 40
10.80675637335421
100
AcDbArc
 50
142.5904085854
 51
143.9264327736
  0
ARC
  5
347
330
1F
100
AcDbEntity
  8
0
  6
Continuous
 62
     7
370
    30
100
AcDbCircle
 10
370.3947370808
 20
258.9439483108
 30
0.0
 40
10.45326041801735
100
AcDbArc
 50
158.4743227875
 51
159.8403008962
  0
LINE
  5
348
330
1F
100
AcDbEntity
  8
0
  6
Continuous
 62
     7
370
    30
100
AcDbLine
 10
363.4386671185
 20
260.0495434488
 30
0.0
 11
360.2782121416
 21
261.8740352716
 31
0.0
  0
LINE
  5
349
330
1F
100
AcDbEntity
  8
0
  6
Continuous
 62
     7
370
    30
100
AcDbLine
 10
360.271275542
 20
261.8783584473
 30
0.0
 11
360.2782121416
 21
261.8740352716
 31
0.0
  0
LINE
  5
34A
330
1F
100
AcDbEntity
  8
0
  6
Continuous
 62
     7
370
    30
100
AcDbLine
 10
360.352794666
 20
261.8437994216
 30
0.0
 11
360.271275542
 21
261.8783584473
 31
0.0
  0
LINE
  5
34B
330
1F
100
AcDbEntity
  8
0
  6
Continuous
 62
     7
370
    30
100
AcDbLine
 10
360.352794666
 20
261.8437994216
 30
0.0
 11
363.449770529
 21
260.0559533112
 31
0.0
  0
LINE
  5
34C
330
1F
100
AcDbEntity
  8
0
  6
Continuous
 62
     7
370
    30
100
AcDbLine
 10
362.6061605937
 20
266.1129180471
 30
0.0
 11
362.605521786
 21
266.1010181501
 31
0.0
  0
LINE
  5
34D
330
1F
100
AcDbEntity
  8
0
  6
Continuous
 62
     7
370
    30
100
AcDbLine
 10
362.9847662562
 20
266.375497093
 30
0.0
 11
362.6061605937
 21
266.1129180471
 31
0.0
  0
LINE
  5
34E
330
1F
100
AcDbEntity
  8
0
  6
Continuous
 62
     7
370
    30
100
AcDbLine
 10
362.9847662562
 20
266.375497093
 30
0.0
 11
364.518786304
 21
265.4899261693
 31
0.0
  0
ARC
  5
34F
330
1F
100
AcDbEntity
  8
0
  6
Continuous
 62
     7
370
    30
100
AcDbCircle
 10
370.2526288187
 20
259.279496365
 30
0.0
 40
10.1579217340783
100
AcDbArc
 50
138.4543285182
 51
139.8466579144
  0
LINE
  5
350
330
1F
100
AcDbEntity
  8
0
  6
Continuous
 62
     7
370
    30
100
AcDbLine
 10
362.9860128504
 20
259.788231702
 30
0.0
 11
360.2329659614
 21
261.3775318418
 31
0.0
  0
LINE
  5
351
330
1F
100
AcDbEntity
  8
0
  6
Continuous
 62
     7
370
    30
100
AcDbLine
 10
360.2682960059
 20
261.8667647222
 30
0.0
 11
360.2329659614
 21
261.3775318418
 31
0.0
  0
LINE
  5
352
330
1F
100
AcDbEntity
  8
0
  6
Continuous
 62
     7
370
    30
100
AcDbLine
 10
360.2782121416
 20
261.8740352716
 30
0.0
 11
360.2682960059
 21
261.8667647222
 31
0.0
  0
ARC
  5
353
330
1F
100
AcDbEntity
  8
0
  6
Continuous
 62
     7
370
    30
100
AcDbCircle
 10
369.6472961749
 20
259.1962751115
 30
0.0
 40
9.664219744649682
100
AcDbArc
 50
162.6611244412
 51
164.1004794765
  0
ARC
  5
354
330
1F
100
AcDbEntity
  8
0
  6
Continuous
 62
     7
370
    30
100
AcDbCircle
 10
369.6149869261
 20
259.8754775257
 30
0.0
 40
9.284938368446555
100
AcDbArc
 50
134.0898414284
 51
135.5681334868
  0
LINE
  5
355
330
1F
100
AcDbEntity
  8
0
  6
Continuous
 62
     7
370
    30
100
AcDbLine
 10
364.518786304
 20
265.7568891503
 30
0.0
 11
363.1546617985
 21
266.544381465
 31
0.0
  0
LINE
  5
356
330
1F
100
AcDbEntity
  8
0
  6
Continuous
 62
     7
370
    30
100
AcDbLine
 10
363.0791648625
 20
266.5824486032
 30
0.0
 11
363.0773494978
 21
266.5700376768
 31
0.0
  0
LINE
  5
357
330
1F
100
AcDbEntity
  8
0
  6
Continuous
 62
     7
370
    30
100
AcDbLine
 10
363.5039118398
 20
266.8650688069
 30
0.0
 11
363.0791648625
 21
266.5824486032
 31
0.0
  0
LINE
  5
358
330
1F
100
AcDbEntity
  8
0
  6
Continuous
 62
     7
370
    30
100
AcDbLine
 10
363.5039118398
 20
266.8650688069
 30
0.0
 11
364.518786304
 21
266.2791942494
 31
0.0
  0
LINE
  5
359
330
1F
100
AcDbEntity
  8
0
  6
Continuous
 62
     7
370
    30
100
AcDbLine
 10
362.3289671542
 20
259.4089272953
 30
0.0
 11
360.1054223311
 21
260.6925523989
 31
0.0
  0
LINE
  5
35A
330
1F
100
AcDbEntity
  8
0
  6
Continuous
 62
     7
370
    30
100
AcDbLine
 10
360.1318126627
 20
261.2293116385
 30
0.0
 11
360.1054223311
 21
260.6925523989
 31
0.0
  0
LINE
  5
35B
330
1F
100
AcDbEntity
  8
0
  6
Continuous
 62
     7
370
    30
100
AcDbLine
 10
360.1372998843
 20
261.234115939
 30
0.0
 11
360.1318126627
 21
261.2293116385
 31
0.0
  0
ARC
  5
35C
330
1F
100
AcDbEntity
  8
0
  6
Continuous
 62
     7
370
    30
100
AcDbCircle
 10
368.7038775379
 20
259.4375209437
 30
0.0
 40
8.690223542644553
100
AcDbArc
 50
167.1005581243
 51
168.6455508012
  0
LINE
  5
35D
330
1F
100
AcDbEntity
  8
0
  6
Continuous
 62
     7
370
    30
100
AcDbLine
 10
360.1837390099
 20
261.1484343501
 30
0.0
 11
362.762973627
 21
259.659473899
 31
0.0
  0
ARC
  5
35E
330
1F
100
AcDbEntity
  8
0
  6
Continuous
 62
     7
370
    30
100
AcDbCircle
 10
368.920352181
 20
260.6335164205
 30
0.0
 40
8.256516887494556
100
AcDbArc
 50
129.3984015837
 51
130.9970382966
  0
LINE
  5
35F
330
1F
100
AcDbEntity
  8
0
  6
Continuous
 62
     7
370
    30
100
AcDbLine
 10
364.5201883057
 20
266.5286432385
 30
0.0
 11
363.6798669711
 21
267.0137504192
 31
0.0
  0
LINE
  5
360
330
1F
100
AcDbEntity
  8
0
  6
Continuous
 62
     7
370
    30
100
AcDbLine
 10
363.5689721173
 20
266.9956985685
 30
0.0
 11
363.5677377016
 21
266.9903938892
 31
0.0
  0
LINE
  5
361
330
1F
100
AcDbEntity
  8
0
  6
Continuous
 62
     7
370
    30
100
AcDbLine
 10
364.0388610075
 20
267.2915274168
 30
0.0
 11
363.5689721173
 21
266.9956985685
 31
0.0
  0
LINE
  5
362
330
1F
100
AcDbEntity
  8
0
  6
Continuous
 62
     7
370
    30
100
AcDbLine
 10
364.0388610075
 20
267.2915274168
 30
0.0
 11
364.6112366771
 21
266.9611019761
 31
0.0
  0
LINE
  5
363
330
1F
100
AcDbEntity
  8
0
  6
Continuous
 62
     7
370
    30
100
AcDbLine
 10
361.7240614678
 20
259.0597226756
 30
0.0
 11
360.041389628
 21
260.0311084522
 31
0.0
  0
LINE
  5
364
330
1F
100
AcDbEntity
  8
0
  6
Continuous
 62
     7
370
    30
100
AcDbLine
 10
360.0535066697
 20
260.6107242729
 30
0.0
 11
360.041389628
 21
260.0311084522
 31
0.0
  0
ARC
  5
365
330
1F
100
AcDbEntity
  8
0
  6
Continuous
 62
     7
370
    30
100
AcDbCircle
 10
367.635388473
 20
259.620242725
 30
0.0
 40
7.605934402488235
100
AcDbArc
 50
171.8952508745
 51
173.583800083
  0
LINE
  5
366
330
1F
100
AcDbEntity
  8
0
  6
Continuous
 62
     7
370
    30
100
AcDbLine
 10
360.0770948865
 20
260.4702051914
 30
0.0
 11
362.1222242354
 21
259.2895771487
 31
0.0
  0
ARC
  5
367
330
1F
100
AcDbEntity
  8
0
  6
Continuous
 62
     7
370
    30
100
AcDbCircle
 10
368.2437779633
 20
261.508987716
 30
0.0
 40
7.149761674108235
100
AcDbArc
 50
124.264069933
 51
126.0237021731
  0
LINE
  5
368
330
1F
100
AcDbEntity
  8
0
  6
Continuous
 62
     7
370
    30
100
AcDbLine
 10
364.6939622084
 20
267.1433861788
 30
0.0
 11
364.2184057034
 21
267.4179191055
 31
0.0
  0
LINE
  5
369
330
1F
100
AcDbEntity
  8
0
  6
Continuous
 62
     7
370
    30
100
AcDbLine
 10
364.5821042456
 20
267.6488863788
 30
0.0
 11
364.0687065379
 21
267.3468668194
 31
0.0
  0
LINE
  5
36A
330
1F
100
AcDbEntity
  8
0
  6
Continuous
 62
     7
370
    30
100
AcDbLine
 10
364.5821042456
 20
267.6488863788
 30
0.0
 11
364.9078122091
 21
267.4608591738
 31
0.0
  0
ARC
  5
36B
330
1F
100
AcDbEntity
  8
0
  6
Continuous
 62
     7
370
    30
100
AcDbCircle
 10
366.5229876408
 20
259.710294618
 30
0.0
 40
6.489532673069629
100
AcDbArc
 50
177.1663947448
 51
179.0434428707
  0
LINE
  5
36C
330
1F
100
AcDbEntity
  8
0
  6
Continuous
 62
     7
370
    30
100
AcDbLine
 10
360.0343593455
 20
259.8186327963
 30
0.0
 11
361.5365170709
 21
258.9514555998
 31
0.0
  0
LINE
  5
36D
330
1F
100
AcDbEntity
  8
0
  6
Continuous
 62
     7
370
    30
100
AcDbLine
 10
361.1797873412
 20
258.7455199103
 30
0.0
 11
360.0417667309
 21
259.4024852247
 31
0.0
  0
LINE
  5
36E
330
1F
100
AcDbEntity
  8
0
  6
Continuous
 62
     7
370
    30
100
AcDbLine
 10
360.0368689258
 20
259.8171840464
 30
0.0
 11
360.0417667309
 21
259.4024852247
 31
0.0
  0
ARC
  5
36F
330
1F
100
AcDbEntity
  8
0
  6
Continuous
 62
     7
370
    30
100
AcDbCircle
 10
367.6502650568
 20
262.4439691098
 30
0.0
 40
6.041918117728247
100
AcDbArc
 50
118.5495712047
 51
120.5182229393
  0
LINE
  5
370
330
1F
100
AcDbEntity
  8
0
  6
Continuous
 62
     7
370
    30
100
AcDbLine
 10
365.0299196272
 20
267.5969617187
 30
0.0
 11
364.7627180921
 21
267.7512138816
 31
0.0
  0
LINE
  5
371
330
1F
100
AcDbEntity
  8
0
  6
Continuous
 62
     7
370
    30
100
AcDbLine
 10
365.1260156098
 20
267.9321291563
 30
0.0
 11
364.7772743939
 21
267.7428107074
 31
0.0
  0
LINE
  5
372
330
1F
100
AcDbEntity
  8
0
  6
Continuous
 62
     7
370
    30
100
AcDbLine
 10
365.1260156098
 20
267.9321291563
 30
0.0
 11
365.2950555846
 21
267.834544456
 31
0.0
  0
ARC
  5
373
330
1F
100
AcDbEntity
  8
0
  6
Continuous
 62
     7
370
    30
100
AcDbCircle
 10
365.448665213
 20
259.6912600403
 30
0.0
 40
5.414604518301318
100
AcDbArc
 50
183.0571820659
 51
185.1751013558
  0
LINE
  5
374
330
1F
100
AcDbEntity
  8
0
  6
Continuous
 62
     7
370
    30
100
AcDbLine
 10
360.0561323003
 20
259.2028638128
 30
0.0
 11
361.0140741784
 21
258.6498557377
 31
0.0
  0
LINE
  5
375
330
1F
100
AcDbEntity
  8
0
  6
Continuous
 62
     7
370
    30
100
AcDbLine
 10
360.7037851899
 20
258.4707297174
 30
0.0
 11
360.1065483461
 21
258.8155072085
 31
0.0
  0
LINE
  5
376
330
1F
100
AcDbEntity
  8
0
  6
Continuous
 62
     7
370
    30
100
AcDbLine
 10
360.0886253768
 20
259.1841059591
 30
0.0
 11
360.1065483461
 21
258.8155072085
 31
0.0
  0
ARC
  5
377
330
1F
100
AcDbEntity
  8
0
  6
Continuous
 62
     7
370
    30
100
AcDbCircle
 10
367.1869023662
 20
263.3737658412
 30
0.0
 40
5.002592361492395
100
AcDbArc
 50
112.0955815603
 51
114.3282549364
  0
LINE
  5
378
330
1F
100
AcDbEntity
  8
0
  6
Continuous
 62
     7
370
    30
100
AcDbLine
 10
365.4317067444
 20
267.9359039771
 30
0.0
 11
365.3051631844
 21
268.0089560193
 31
0.0
  0
LINE
  5
379
330
1F
100
AcDbEntity
  8
0
  6
Continuous
 62
     7
370
    30
100
AcDbLine
 10
365.6629597769
 20
268.1372796416
 30
0.0
 11
365.3504204818
 21
267.9828295376
 31
0.0
  0
LINE
  5
37A
330
1F
100
AcDbEntity
  8
0
  6
Continuous
 62
     7
370
    30
100
AcDbLine
 10
365.6629597769
 20
268.1372796416
 30
0.0
 11
365.7087243113
 21
268.1108603382
 31
0.0
  0
ARC
  5
37B
330
1F
100
AcDbEntity
  8
0
  6
Continuous
 62
     7
370
    30
100
AcDbCircle
 10
364.485784431
 20
259.5665786085
 30
0.0
 40
4.443176446581593
100
AcDbArc
 50
189.7319661609
 51
192.1483268279
  0
LINE
  5
37C
330
1F
100
AcDbEntity
  8
0
  6
Continuous
 62
     7
370
    30
100
AcDbLine
 10
360.1421081063
 20
258.6315422878
 30
0.0
 11
360.5622295109
 21
258.3890113633
 31
0.0
  0
LINE
  5
37D
330
1F
100
AcDbEntity
  8
0
  6
Continuous
 62
     7
370
    30
100
AcDbLine
 10
360.3027370408
 20
258.239209549
 30
0.0
 11
360.2348250817
 21
258.2784142885
 31
0.0
  0
LINE
  5
37E
330
1F
100
AcDbEntity
  8
0
  6
Continuous
 62
     7
370
    30
100
AcDbLine
 10
360.2065625374
 20
258.5943335368
 30
0.0
 11
360.2348250817
 21
258.2784142885
 31
0.0
  0
ARC
  5
37F
330
1F
100
AcDbEntity
  8
0
  6
Continuous
 62
     7
370
    30
100
AcDbCircle
 10
366.8773550049
 20
264.2342733577
 30
0.0
 40
4.087568203950079
100
AcDbArc
 50
104.7286348745
 51
107.28319291
  0
LINE
  5
380
330
1F
100
AcDbEntity
  8
0
  6
Continuous
 62
     7
370
    30
100
AcDbLine
 10
365.8437178271
 20
268.1842994298
 30
0.0
 11
365.8381262404
 21
268.1875273841
 31
0.0
  0
ARC
  5
381
330
1F
100
AcDbEntity
  8
0
  6
Continuous
 62
     7
370
    30
100
AcDbCircle
 10
363.7577225389
 20
259.3808821743
 30
0.0
 40
3.691373989908997
100
AcDbArc
 50
197.3771720305
 51
198.4550729011
  0
ARC
  5
382
330
1F
100
AcDbEntity
  8
0
  6
Continuous
 62
     7
370
    30
100
AcDbCircle
 10
370.2586328479
 20
259.1195323072
 30
0.0
 40
10.37212848213645
100
AcDbArc
 50
149.2357756745
 51
153.0912597947
  0
ARC
  5
383
330
1F
100
AcDbEntity
  8
0
  6
Continuous
 62
     7
370
    30
100
AcDbCircle
 10
370.2083578289
 20
259.1510444498
 30
0.0
 40
10.31280836671353
100
AcDbArc
 50
145.3019526676
 51
149.172212015
  0
ARC
  5
384
330
1F
100
AcDbEntity
  8
0
  6
Continuous
 62
     7
370
    30
100
AcDbCircle
 10
370.0533909196
 20
259.2220540963
 30
0.0
 40
10.14270763927986
100
AcDbArc
 50
153.1551065455
 51
157.0685310112
  0
ARC
  5
385
330
1F
100
AcDbEntity
  8
0
  6
Continuous
 62
     7
370
    30
100
AcDbCircle
 10
369.9271432159
 20
259.3476262582
 30
0.0
 40
9.96969622895787
100
AcDbArc
 50
141.2791286359
 51
145.237712723
  0
ARC
  5
386
330
1F
100
AcDbEntity
  8
0
  6
Continuous
 62
     7
370
    30
100
AcDbCircle
 10
369.5931111431
 20
259.4149848519
 30
0.0
 40
9.643626918480782
100
AcDbArc
 50
157.1336371379
 51
161.1809865458
  0
ARC
  5
387
330
1F
100
AcDbEntity
  8
0
  6
Continuous
 62
     7
370
    30
100
AcDbCircle
 10
369.4612900166
 20
259.7233487423
 30
0.0
 40
9.371206351801025
100
AcDbArc
 50
137.0877742324
 51
141.2132122002
  0
LINE
  5
388
330
1F
100
AcDbEntity
  8
0
  6
Continuous
 62
     7
370
    30
100
AcDbLine
 10
372.518786304
 20
265.2935128224
 30
0.0
 11
372.52062953
 21
265.2924487506
 31
0.0
  0
ARC
  5
389
330
1F
100
AcDbEntity
  8
0
  6
Continuous
 62
     7
370
    30
100
AcDbCircle
 10
368.9036229862
 20
259.6480027783
 30
0.0
 40
8.915823507014215
100
AcDbArc
 50
161.2484067982
 51
165.5131971195
  0
ARC
  5
38A
330
1F
100
AcDbEntity
  8
0
  6
Continuous
 62
     7
370
    30
100
AcDbCircle
 10
368.8728719519
 20
260.2730141337
 30
0.0
 40
8.565987915301069
100
AcDbArc
 50
132.638901767
 51
137.0190731482
  0
LINE
  5
38B
330
1F
100
AcDbEntity
  8
0
  6
Continuous
 62
     7
370
    30
100
AcDbLine
 10
363.0704807739
 20
266.574474725
 30
0.0
 11
363.1546617985
 21
266.544381465
 31
0.0
  0
ARC
  5
38C
330
1F
100
AcDbEntity
  8
0
  6
Continuous
 62
     7
370
    30
100
AcDbCircle
 10
368.0333195658
 20
259.8707549911
 30
0.0
 40
8.01745880762824
100
AcDbArc
 50
165.5841451776
 51
170.161963748
  0
LINE
  5
38D
330
1F
100
AcDbEntity
  8
0
  6
Continuous
 62
     7
370
    30
100
AcDbLine
 10
360.1837390099
 20
261.1484343501
 30
0.0
 11
360.1337600039
 21
261.2406471253
 31
0.0
  0
ARC
  5
38E
330
1F
100
AcDbEntity
  8
0
  6
Continuous
 62
     7
370
    30
100
AcDbCircle
 10
368.2319133826
 20
260.97221927
 30
0.0
 40
7.617446454192931
100
AcDbArc
 50
127.8293342783
 51
132.566105602
  0
LINE
  5
38F
330
1F
100
AcDbEntity
  8
0
  6
Continuous
 62
     7
370
    30
100
AcDbLine
 10
363.5600457447
 20
266.9887916543
 30
0.0
 11
363.6798669711
 21
267.0137504192
 31
0.0
  0
LINE
  5
390
330
1F
100
AcDbEntity
  8
0
  6
Continuous
 62
     7
370
    30
100
AcDbLine
 10
372.537150753
 20
265.3019862496
 30
0.0
 11
372.518786304
 21
265.3125878204
 31
0.0
  0
LINE
  5
391
330
1F
100
AcDbEntity
  8
0
  6
Continuous
 62
     7
370
    30
100
AcDbLine
 10
372.518786304
 20
265.3158242716
 30
0.0
 11
372.5399539057
 21
265.3036044752
 31
0.0
  0
ARC
  5
392
330
1F
100
AcDbEntity
  8
0
  6
Continuous
 62
     7
370
    30
100
AcDbCircle
 10
367.0476328174
 20
260.0394571542
 30
0.0
 40
7.017429878923137
100
AcDbArc
 50
170.2379358455
 51
175.2411151119
  0
LINE
  5
393
330
1F
100
AcDbEntity
  8
0
  6
Continuous
 62
     7
370
    30
100
AcDbLine
 10
360.0770948865
 20
260.4702051914
 30
0.0
 11
360.0543944796
 21
260.6216423961
 31
0.0
  0
ARC
  5
394
330
1F
100
AcDbEntity
  8
0
  6
Continuous
 62
     7
370
    30
100
AcDbCircle
 10
367.6076758656
 20
261.7797867255
 30
0.0
 40
6.596731336036657
100
AcDbArc
 50
122.5369940278
 51
127.7507780784
  0
LINE
  5
395
330
1F
100
AcDbEntity
  8
0
  6
Continuous
 62
     7
370
    30
100
AcDbLine
 10
364.059663188
 20
267.3411238273
 30
0.0
 11
364.2184057034
 21
267.4179191055
 31
0.0
  0
ARC
  5
396
330
1F
100
AcDbEntity
  8
0
  6
Continuous
 62
     7
370
    30
100
AcDbCircle
 10
366.119498616
 20
260.1176715132
 30
0.0
 40
6.085996986242781
100
AcDbArc
 50
175.3531301432
 51
179.9403343457
  0
LINE
  5
397
330
1F
100
AcDbEntity
  8
0
  6
Continuous
 62
     7
370
    30
100
AcDbLine
 10
360.0343593455
 20
259.8186327963
 30
0.0
 11
360.0343248854
 21
259.9285793524
 31
0.0
  0
ARC
  5
398
330
1F
100
AcDbEntity
  8
0
  6
Continuous
 62
     7
370
    30
100
AcDbCircle
 10
367.2026846977
 20
262.4054136111
 30
0.0
 40
5.851476644094074
100
AcDbArc
 50
120.0168515249
 51
122.3837677755
  0
LWPOLYLINE
  5
399
330
1F
100
AcDbEntity
  8
0
  6
Continuous
 62
     7
370
    30
100
AcDbPolyline
 90
       32
 70
   128
 43
0.0
 10
364.5191684737
 20
266.4994299743
 10
364.6121710961
 20
266.9635608193
 10
364.865111004
 20
267.4073833079
 10
365.2676328081
 20
267.8127272951
 10
365.8032572182
 20
268.1629979505
 10
366.4500557082
 20
268.4438551524
 10
367.1815482718
 20
268.6438005739
 10
367.9677875176
 20
268.754648426
 10
368.7765847184
 20
268.7718605845
 10
369.5748276219
 20
268.6947323817
 10
370.3298360697
 20
268.5264214553
 10
371.0106999273
 20
268.2738184743
 10
371.5895445484
 20
267.9472650345
 10
372.0426719662
 20
267.5601302721
 10
372.3515310909
 20
267.1282635297
 10
372.5034771937
 20
266.6693454825
 10
372.4922895833
 20
266.2021642893
 10
372.3184262818
 20
265.745846403
 10
371.9890052732
 20
265.3190735316
 10
371.5175130922
 20
264.9393178064
 10
370.9232526841
 20
264.6221264716
 10
370.23055314
 20
264.3804853776
 10
369.4677736605
 20
264.2242873392
 10
368.666142527
 20
264.1599271224
 10
367.8584786125
 20
264.1900396422
 10
367.0778477725
 20
264.3133920883
 10
366.3562091252
 20
264.5249343972
 10
365.7231066418
 20
264.8160060019
 10
365.2044596122
 20
265.1746903966
 10
364.8215015067
 20
265.5863030002
 10
364.5899106753
 20
266.0339923442
 10
364.5191684737
 20
266.4994299743
  0
LWPOLYLINE
  5
39A
330
1F
100
AcDbEntity
  8
0
  6
Continuous
 62
     7
370
    30
100
AcDbPolyline
 90
       21
 70
   128
 43
0.0
 10
370.1686286589
 20
266.4543437818
 10
370.0949276787
 20
266.7493064141
 10
369.866942999
 20
267.0166849035
 10
369.5069913489
 20
267.2303063804
 10
369.0503073037
 20
267.3692600863
 10
368.5415942798
 20
267.4199442644
 10
368.0306486523
 20
267.3773975941
 10
367.5674853392
 20
267.24578484
 10
367.1974419926
 20
267.0379891754
 10
366.9567410336
 20
266.7743510879
 10
366.868943949
 20
266.4806773102
 10
366.9426449293
 20
266.1857146779
 10
367.1706296089
 20
265.9183361885
 10
367.530581259
 20
265.7047147116
 10
367.9872653042
 20
265.5657610057
 10
368.4959783281
 20
265.5150768276
 10
369.0069239556
 20
265.5576234979
 10
369.4700872687
 20
265.689236252
 10
369.8401306153
 20
265.8970319165
 10
370.0808315744
 20
266.1606700041
 10
370.1686286589
 20
266.4543437818
  0
LWPOLYLINE
  5
39B
330
1F
100
AcDbEntity
  8
0
  6
Continuous
 62
     7
370
    30
100
AcDbPolyline
 90
       18
 70
   128
 43
0.0
 10
372.518786304
 20
209.309653714
 10
372.4922895833
 20
209.0443074573
 10
372.3184262818
 20
208.587989571
 10
371.9890052732
 20
208.1612166996
 10
371.5175130922
 20
207.7814609744
 10
370.9232526841
 20
207.4642696396
 10
370.23055314
 20
207.2226285456
 10
369.4677736605
 20
207.0664305072
 10
368.666142527
 20
207.0020702904
 10
367.8584786125
 20
207.0321828102
 10
367.0778477725
 20
207.1555352563
 10
366.3562091252
 20
207.3670775652
 10
365.7231066418
 20
207.6581491699
 10
365.2044596122
 20
208.0168335646
 10
364.8215015067
 20
208.4284461682
 10
364.5899106753
 20
208.8761355122
 10
364.5191684737
 20
209.3415731423
 10
364.5191684737
 20
209.3415731423
  0
LINE
  5
39C
330
1F
100
AcDbEntity
  8
0
  6
Continuous
 62
     7
370
    30
100
AcDbLine
 10
354.7302040708
 20
241.9591941508
 30
0.0
 11
346.2449226966
 21
246.8576428218
 31
0.0
  0
LINE
  5
39D
330
1F
100
AcDbEntity
  8
0
  6
Continuous
 62
     7
370
    30
100
AcDbLine
 10
354.7302040708
 20
241.9591941508
 30
0.0
 11
349.7804566025
 21
239.1017657594
 31
0.0
  0
ARC
  5
39E
330
1F
100
AcDbEntity
  8
0
  6
Continuous
 62
     7
370
    30
100
AcDbCircle
 10
346.2449226966
 20
245.9253211842
 30
0.0
 40
7.685109539558453
100
AcDbArc
 50
242.6096722366
 51
297.3903277634
  0
LINE
  5
39F
330
1F
100
AcDbEntity
  8
0
  6
Continuous
 62
     7
370
    30
100
AcDbLine
 10
342.7093887907
 20
239.1017657594
 30
0.0
 11
341.2951752283
 21
239.9181738713
 31
0.0
  0
ARC
  5
3A0
330
1F
100
AcDbEntity
  8
0
  6
Continuous
 62
     7
370
    30
100
AcDbCircle
 10
342.0698103623
 20
241.9591941508
 30
0.0
 40
2.183076584171361
100
AcDbArc
 50
110.7834207995
 51
249.2165792005
  0
LINE
  5
3A1
330
1F
100
AcDbEntity
  8
0
  6
Continuous
 62
     7
370
    30
100
AcDbLine
 10
346.2449226966
 20
246.8576428218
 30
0.0
 11
341.2951752283
 21
244.0002144304
 31
0.0
  0
LWPOLYLINE
  5
3A2
330
1F
100
AcDbEntity
  8
0
  6
Continuous
 62
     7
370
    30
100
AcDbPolyline
 90
       21
 70
   128
 43
0.0
 10
347.4116488855
 20
241.2856574586
 10
347.7150834615
 20
241.5267569749
 10
347.8746084586
 20
241.810186455
 10
347.8746084586
 20
242.1082018466
 10
347.7150834615
 20
242.3916313267
 10
347.4116488855
 20
242.6327308431
 10
346.9940070212
 20
242.8078998952
 10
346.5030395639
 20
242.8999917158
 10
345.9868058293
 20
242.8999917158
 10
345.495838372
 20
242.8078998952
 10
345.0781965076
 20
242.6327308431
 10
344.7747619317
 20
242.3916313267
 10
344.6152369346
 20
242.1082018466
 10
344.6152369346
 20
241.810186455
 10
344.7747619317
 20
241.5267569749
 10
345.0781965076
 20
241.2856574586
 10
345.495838372
 20
241.1104884064
 10
345.9868058293
 20
241.0183965859
 10
346.5030395639
 20
241.0183965859
 10
346.9940070212
 20
241.1104884064
 10
347.4116488855
 20
241.2856574586
  0
LINE
  5
3A3
330
1F
100
AcDbEntity
  8
0
  6
Continuous
 62
     7
370
    30
100
AcDbLine
 10
349.7804566025
 20
239.1017657594
 30
0.0
 11
349.7804566025
 21
232.5694392643
 31
0.0
  0
ARC
  5
3A4
330
1F
100
AcDbEntity
  8
0
  6
Continuous
 62
     7
370
    30
100
AcDbCircle
 10
346.2449226966
 20
239.3929946891
 30
0.0
 40
7.685109539558907
100
AcDbArc
 50
242.6096722366
 51
297.3903277634
  0
LINE
  5
3A5
330
1F
100
AcDbEntity
  8
0
  6
Continuous
 62
     7
370
    30
100
AcDbLine
 10
342.7093887907
 20
232.5694392643
 30
0.0
 11
342.7093887907
 21
239.1017657594
 31
0.0
  0
LINE
  5
3A6
330
1F
100
AcDbEntity
  8
0
  6
Continuous
 62
     7
370
    30
100
AcDbLine
 10
362.5012437286
 20
249.7114831029
 30
0.0
 11
354.7302040708
 21
241.9591941508
 31
0.0
  0
LINE
  5
3A7
330
1F
100
AcDbEntity
  8
0
  6
Continuous
 62
     7
370
    30
100
AcDbLine
 10
383.0144753183
 20
261.5535196348
 30
0.0
 11
362.5012437286
 21
249.7114831029
 31
0.0
  0
LINE
  5
3A8
330
1F
100
AcDbEntity
  8
0
  6
Continuous
 62
     7
370
    30
100
AcDbLine
 10
383.0144753183
 20
251.7550298922
 30
0.0
 11
383.0144753183
 21
261.5535196348
 31
0.0
  0
LINE
  5
3A9
330
1F
100
AcDbEntity
  8
0
  6
Continuous
 62
     7
370
    30
100
AcDbLine
 10
349.7804566025
 20
232.5694392643
 30
0.0
 11
383.0144753183
 21
251.7550298922
 31
0.0
  0
LWPOLYLINE
  5
3AA
330
1F
100
AcDbEntity
  8
0
  6
Continuous
 62
     7
370
    30
100
AcDbPolyline
 90
       21
 70
   128
 43
0.0
 10
377.6051084422
 20
253.5315137358
 10
377.6622120864
 20
253.9808151972
 10
377.8279333165
 20
254.4520663654
 10
378.0860501838
 20
254.8991378926
 10
378.411296411
 20
255.2782673027
 10
378.7718346312
 20
255.5523427676
 10
379.1323728513
 20
255.6945358712
 10
379.4576190785
 20
255.6909277618
 10
379.7157359458
 20
255.5418716261
 10
379.8814571759
 20
255.2619581175
 10
379.9385608201
 20
254.8785871203
 10
379.8814571759
 20
254.4292856588
 10
379.7157359458
 20
253.9580344906
 10
379.4576190785
 20
253.5109629635
 10
379.1323728513
 20
253.1318335533
 10
378.7718346312
 20
252.8577580884
 10
378.411296411
 20
252.7155649848
 10
378.0860501838
 20
252.7191730943
 10
377.8279333165
 20
252.8682292299
 10
377.6622120864
 20
253.1481427386
 10
377.6051084422
 20
253.5315137358
  0
LINE
  5
3AB
330
1F
100
AcDbEntity
  8
0
  6
Continuous
 62
     7
370
    30
100
AcDbLine
 10
342.7093887907
 20
232.5694392643
 30
0.0
 11
341.2951752283
 21
233.3858473762
 31
0.0
  0
LINE
  5
3AC
330
1F
100
AcDbEntity
  8
0
  6
Continuous
 62
     7
370
    30
100
AcDbLine
 10
341.2951752283
 20
239.9181738713
 30
0.0
 11
341.2951752283
 21
233.3858473762
 31
0.0
  0
ARC
  5
3AD
330
1F
100
AcDbEntity
  8
0
  6
Continuous
 62
     7
370
    30
100
AcDbCircle
 10
342.3329944467
 20
235.6763995402
 30
0.0
 40
2.51469639246902
100
AcDbArc
 50
185.6947992512
 51
245.6253417064
  0
LINE
  5
3AE
330
1F
100
AcDbEntity
  8
0
  6
Continuous
 62
     7
370
    30
100
AcDbLine
 10
362.5012437286
 20
249.7114831029
 30
0.0
 11
354.0159623544
 21
254.6099317739
 31
0.0
  0
LINE
  5
3AF
330
1F
100
AcDbEntity
  8
0
  6
Continuous
 62
     7
370
    30
100
AcDbLine
 10
354.0159623544
 20
254.6099317739
 30
0.0
 11
346.2449226966
 21
246.8576428218
 31
0.0
  0
LINE
  5
3B0
330
1F
100
AcDbEntity
  8
0
  6
Continuous
 62
     7
370
    30
100
AcDbLine
 10
378.4182812406
 20
264.2068459982
 30
0.0
 11
374.529193944
 21
266.4519683057
 31
0.0
  0
LINE
  5
3B1
330
1F
100
AcDbEntity
  8
0
  6
Continuous
 62
     7
370
    30
100
AcDbLine
 10
378.4182812406
 20
264.2068459982
 30
0.0
 11
372.518786304
 21
260.8011400638
 31
0.0
  0
LWPOLYLINE
  5
3B2
330
1F
100
AcDbEntity
  8
0
  6
Continuous
 62
     7
370
    30
100
AcDbPolyline
 90
       17
 70
   128
 43
0.0
 10
364.518786304
 20
258.0837851596
 10
364.5849568029
 20
257.665506267
 10
364.8089387058
 20
257.2203528517
 10
365.1824231613
 20
256.8099947564
 10
365.6903591792
 20
256.4509689359
 10
366.3122775276
 20
256.1577437142
 10
367.0231156188
 20
255.9421357274
 10
367.7942275028
 20
255.8128337271
 10
368.5945382655
 20
255.7750484339
 10
369.3917963121
 20
255.8303025512
 10
370.1538730686
 20
255.9763694023
 10
370.8500577261
 20
256.2073626624
 10
371.452294851
 20
256.5139735715
 10
371.9363149861
 20
256.8838460656
 10
372.2826126817
 20
257.3020747126
 10
372.4772325425
 20
257.7518053833
 10
372.518786304
 20
258.0837851596
  0
LINE
  5
3B3
330
1F
100
AcDbEntity
  8
0
  6
Continuous
 62
     7
370
    30
100
AcDbLine
 10
372.518786304
 20
259.984731952
 30
0.0
 11
379.1253880218
 21
263.7986419423
 31
0.0
  0
LINE
  5
3B4
330
1F
100
AcDbEntity
  8
0
  6
Continuous
 62
     7
370
    30
100
AcDbLine
 10
383.0144753183
 20
261.5535196348
 30
0.0
 11
379.1253880218
 21
263.7986419423
 31
0.0
  0
LINE
  5
3B5
330
1F
100
AcDbEntity
  8
0
  6
Continuous
 62
     7
370
    30
100
AcDbLine
 10
374.529193944
 20
266.4519683057
 30
0.0
 11
372.518786304
 21
265.2913846788
 31
0.0
  0
LINE
  5
3B6
330
1F
100
AcDbEntity
  8
0
  6
Continuous
 62
     7
370
    30
100
AcDbLine
 10
364.518786304
 20
260.6730829822
 30
0.0
 11
354.0159623544
 21
254.6099317739
 31
0.0
  0
LINE
  5
3B7
330
1F
100
AcDbEntity
  8
0
  6
Continuous
 62
     7
370
    30
100
AcDbLine
 10
378.4182812406
 20
263.3904378864
 30
0.0
 11
378.4182812406
 21
264.2068459982
 31
0.0
  0
LINE
  5
3B8
330
1F
100
AcDbEntity
  8
0
  6
Continuous
 62
     7
370
    30
100
AcDbLine
 10
363.2154854451
 20
177.2708377391
 30
0.0
 11
347.3055828684
 21
176.6533292411
 31
0.0
  0
LINE
  5
3B9
330
1F
100
AcDbEntity
  8
0
  6
Continuous
 62
     7
370
    30
100
AcDbLine
 10
363.2154854451
 20
176.0394307565
 30
0.0
 11
363.2154854451
 21
177.2708377391
 31
0.0
  0
LINE
  5
3BA
330
1F
100
AcDbEntity
  8
0
  6
Continuous
 62
     7
370
    30
100
AcDbLine
 10
364.6296990074
 20
176.8558388683
 30
0.0
 11
363.2154854451
 21
176.0394307565
 31
0.0
  0
LINE
  5
3BB
330
1F
100
AcDbEntity
  8
0
  6
Continuous
 62
     7
370
    30
100
AcDbLine
 10
364.6296990074
 20
178.0872458509
 30
0.0
 11
364.6296990074
 21
176.8558388683
 31
0.0
  0
LINE
  5
3BC
330
1F
100
AcDbEntity
  8
0
  6
Continuous
 62
     7
370
    30
100
AcDbLine
 10
380.5396015841
 20
195.8389198689
 30
0.0
 11
364.6296990074
 21
178.0872458509
 31
0.0
  0
LINE
  5
3BD
330
1F
100
AcDbEntity
  8
0
  6
Continuous
 62
     7
370
    30
100
AcDbLine
 10
398.5708245044
 20
206.2481232947
 30
0.0
 11
380.5396015841
 21
195.8389198689
 31
0.0
  0
LINE
  5
3BE
330
1F
100
AcDbEntity
  8
0
  6
Continuous
 62
     7
370
    30
100
AcDbLine
 10
398.5708245044
 20
188.2842254332
 30
0.0
 11
398.5708245044
 21
206.2481232947
 31
0.0
  0
LINE
  5
3BF
330
1F
100
AcDbEntity
  8
0
  6
Continuous
 62
     7
370
    30
100
AcDbLine
 10
345.5378159154
 20
157.6689212398
 30
0.0
 11
398.5708245044
 21
188.2842254332
 31
0.0
  0
LINE
  5
3C0
330
1F
100
AcDbEntity
  8
0
  6
Continuous
 62
     7
370
    30
100
AcDbLine
 10
345.5378159154
 20
175.6328191013
 30
0.0
 11
345.5378159154
 21
157.6689212398
 31
0.0
  0
LINE
  5
3C1
330
1F
100
AcDbEntity
  8
0
  6
Continuous
 62
     7
370
    30
100
AcDbLine
 10
347.3055828684
 20
176.6533292411
 30
0.0
 11
345.5378159154
 21
175.6328191013
 31
0.0
  0
LINE
  5
3C2
330
1F
100
AcDbEntity
  8
0
  6
Continuous
 62
     7
370
    30
100
AcDbLine
 10
311.950243809
 20
197.0635320366
 30
0.0
 11
310.1824768561
 21
196.0430218969
 31
0.0
  0
LINE
  5
3C3
330
1F
100
AcDbEntity
  8
0
  6
Continuous
 62
     7
370
    30
100
AcDbLine
 10
311.950243809
 20
197.0635320366
 30
0.0
 11
347.3055828684
 21
176.6533292411
 31
0.0
  0
LINE
  5
3C4
330
1F
100
AcDbEntity
  8
0
  6
Continuous
 62
     7
370
    30
100
AcDbLine
 10
310.1824768561
 20
196.0430218969
 30
0.0
 11
345.5378159154
 21
175.6328191013
 31
0.0
  0
LINE
  5
3C5
330
1F
100
AcDbEntity
  8
0
  6
Continuous
 62
     7
370
    30
100
AcDbLine
 10
310.1824768561
 20
196.0430218969
 30
0.0
 11
310.1824768561
 21
178.0791240354
 31
0.0
  0
LINE
  5
3C6
330
1F
100
AcDbEntity
  8
0
  6
Continuous
 62
     7
370
    30
100
AcDbLine
 10
310.1824768561
 20
178.0791240354
 30
0.0
 11
345.5378159154
 21
157.6689212398
 31
0.0
  0
LWPOLYLINE
  5
3C7
330
1F
100
AcDbEntity
  8
0
  6
Continuous
 62
     7
370
    30
100
AcDbPolyline
 90
       37
 70
   128
 43
0.0
 10
322.9103989174
 20
180.4482866904
 10
322.8513149427
 20
181.2622446749
 10
322.675858255
 20
182.1196878631
 10
322.3893600172
 20
182.9945632777
 10
322.0005253332
 20
183.8602882719
 10
321.5211687481
 20
184.6905582298
 10
320.9658552692
 20
185.4601458189
 10
320.3514578155
 20
186.1456675098
 10
319.6966445427
 20
186.7262940727
 10
319.0213116209
 20
187.1843834633
 10
318.3459786991
 20
187.5060168673
 10
317.6911654263
 20
187.6814216166
 10
317.0767679726
 20
187.7052681264
 10
316.5214544937
 20
187.5768318328
 10
316.0420979086
 20
187.3000152075
 10
315.6532632246
 20
186.8832291835
 10
315.3667649868
 20
186.3391375934
 10
315.1913082991
 20
185.6842723847
 10
315.1322243244
 20
184.9385313054
 10
315.1913082991
 20
184.124573321
 10
315.3667649868
 20
183.2671301327
 10
315.6532632246
 20
182.3922547182
 10
316.0420979086
 20
181.526529724
 10
316.5214544937
 20
180.696259766
 10
317.0767679726
 20
179.9266721769
 10
317.6911654263
 20
179.2411504861
 10
318.3459786991
 20
178.6605239232
 10
319.0213116209
 20
178.2024345326
 10
319.6966445427
 20
177.8808011285
 10
320.3514578155
 20
177.7053963793
 10
320.9658552692
 20
177.6815498694
 10
321.5211687481
 20
177.809986163
 10
322.0005253332
 20
178.0868027884
 10
322.3893600172
 20
178.5035888123
 10
322.675858255
 20
179.0476804025
 10
322.8513149427
 20
179.7025456112
 10
322.9103989174
 20
180.4482866904
  0
LWPOLYLINE
  5
3C8
330
1F
100
AcDbEntity
  8
0
  6
Continuous
 62
     7
370
    30
100
AcDbPolyline
 90
       37
 70
   128
 43
0.0
 10
340.5880684471
 20
170.2431852926
 10
340.5289844723
 20
171.0571432771
 10
340.3535277847
 20
171.9145864653
 10
340.0670295469
 20
172.7894618799
 10
339.6781948629
 20
173.6551868741
 10
339.1988382778
 20
174.485456832
 10
338.6435247988
 20
175.2550444211
 10
338.0291273451
 20
175.940566112
 10
337.3743140724
 20
176.5211926749
 10
336.6989811506
 20
176.9792820655
 10
336.0236482287
 20
177.3009154696
 10
335.368834956
 20
177.4763202188
 10
334.7544375023
 20
177.5001667287
 10
334.1991240234
 20
177.371730435
 10
333.7197674383
 20
177.0949138097
 10
333.3309327542
 20
176.6781277857
 10
333.0444345164
 20
176.1340361956
 10
332.8689778288
 20
175.4791709869
 10
332.809893854
 20
174.7334299077
 10
332.8689778288
 20
173.9194719232
 10
333.0444345164
 20
173.062028735
 10
333.3309327542
 20
172.1871533204
 10
333.7197674383
 20
171.3214283262
 10
334.1991240234
 20
170.4911583683
 10
334.7544375023
 20
169.7215707791
 10
335.368834956
 20
169.0360490883
 10
336.0236482287
 20
168.4554225254
 10
336.6989811506
 20
167.9973331348
 10
337.3743140724
 20
167.6756997307
 10
338.0291273451
 20
167.5002949815
 10
338.6435247988
 20
167.4764484716
 10
339.1988382778
 20
167.6048847653
 10
339.6781948629
 20
167.8817013906
 10
340.0670295469
 20
168.2984874146
 10
340.3535277847
 20
168.8425790047
 10
340.5289844723
 20
169.4974442134
 10
340.5880684471
 20
170.2431852926
  0
LINE
  5
3C9
330
1F
100
AcDbEntity
  8
0
  6
Continuous
 62
     7
370
    30
100
AcDbLine
 10
358.2558514294
 20
180.1339735128
 30
0.0
 11
363.2154854451
 21
177.2708377391
 31
0.0
  0
LINE
  5
3CA
330
1F
100
AcDbEntity
  8
0
  6
Continuous
 62
     7
370
    30
100
AcDbLine
 10
327.8601463857
 20
197.6810405346
 30
0.0
 11
311.950243809
 21
197.0635320366
 31
0.0
  0
LINE
  5
3CB
330
1F
100
AcDbEntity
  8
0
  6
Continuous
 62
     7
370
    30
100
AcDbLine
 10
327.8601463857
 20
197.6810405346
 30
0.0
 11
332.8197804014
 21
194.8179047609
 31
0.0
  0
ELLIPSE
  5
3CC
330
1F
100
AcDbEntity
  8
0
  6
Continuous
 62
     7
370
    30
100
AcDbEllipse
 10
336.1046719704
 20
192.5554230088
 30
0.0
 11
9.200923584610678
 21
-0.6937776875190593
 31
0.0
210
0.0
220
0.0
230
1.0
 40
0.234719594
 41
1.953506319336886
 42
5.237737064478907
  0
LINE
  5
3CD
330
1F
100
AcDbEntity
  8
0
  6
Continuous
 62
     7
370
    30
100
AcDbLine
 10
340.5781818997
 20
190.3390749106
 30
0.0
 11
350.4974499311
 21
184.6128033631
 31
0.0
  0
ELLIPSE
  5
3CE
330
1F
100
AcDbEntity
  8
0
  6
Continuous
 62
     7
370
    30
100
AcDbEllipse
 10
353.7823415
 20
182.350321611
 30
0.0
 11
9.200923584610678
 21
-0.6937776875190877
 31
0.0
210
0.0
220
0.0
230
1.0
 40
0.234719594
 41
1.953506319336889
 42
5.237737064478897
  0
ELLIPSE
  5
3CF
330
1F
100
AcDbEntity
  8
0
  6
Continuous
 62
     7
370
    30
100
AcDbEllipse
 10
336.6989811506
 20
187.1328788602
 30
0.0
 11
3.98588314614284
 21
-1.176580272075114
 31
0.0
210
0.0
220
0.0
230
1.0
 40
0.2853703663
 41
0.0
 42
6.283185307179586
  0
ARC
  5
3D0
330
1F
100
AcDbEntity
  8
0
  6
Continuous
 62
     7
370
    30
100
AcDbCircle
 10
356.0047955153
 20
181.1425822359
 30
0.0
 40
3.670305356532155
100
AcDbArc
 50
339.404522384
 51
356.9982543559
  0
LINE
  5
3D1
330
1F
100
AcDbEntity
  8
0
  6
Continuous
 62
     7
370
    30
100
AcDbLine
 10
359.0928534902
 20
179.6507825081
 30
0.0
 11
359.4405217608
 21
179.8514871286
 31
0.0
  0
ARC
  5
3D2
330
1F
100
AcDbEntity
  8
0
  6
Continuous
 62
     7
370
    30
100
AcDbCircle
 10
357.3252914352
 20
185.0606315571
 30
0.0
 40
6.842511943469522
100
AcDbArc
 50
183.7525719972
 51
195.3537709372
  0
LINE
  5
3D3
330
1F
100
AcDbEntity
  8
0
  6
Continuous
 62
     7
370
    30
100
AcDbLine
 10
352.1412067244
 20
184.0652920057
 30
0.0
 11
350.726993162
 21
183.2488838939
 31
0.0
  0
ARC
  5
3D4
330
1F
100
AcDbEntity
  8
0
  6
Continuous
 62
     7
370
    30
100
AcDbCircle
 10
358.7395049976
 20
185.8770396689
 30
0.0
 40
6.84251194346601
100
AcDbArc
 50
183.7525719972
 51
195.3537709372
  0
ELLIPSE
  5
3D5
330
1F
100
AcDbEntity
  8
0
  6
Continuous
 62
     7
370
    30
100
AcDbEllipse
 10
356.3851734228
 20
183.8529044966
 30
0.0
 11
8.637331130253074
 21
9.08422416262087
 31
0.0
210
0.0
220
0.0
230
1.0
 40
0.3494965827
 41
0.6718206220706284
 42
1.726198533614829
  0
SPLINE
  5
3D6
330
1F
100
AcDbEntity
  8
0
  6
Continuous
 62
     7
370
    30
100
AcDbSpline
210
0.0
220
0.0
230
1.0
 70
     8
 71
     3
 72
    25
 73
    21
 74
     0
 42
0.000000001
 43
0.00000001
 40
0.0
 40
0.0
 40
0.0
 40
0.0
 40
0.0499408706093614
 40
0.1055335437816749
 40
0.1626495732507449
 40
0.2182950551192477
 40
0.2758256915773206
 40
0.3275857658873898
 40
0.3806793716698359
 40
0.4360081276714616
 40
0.4925354446965905
 40
0.5568376218264296
 40
0.622681873567877
 40
0.6807781589726235
 40
0.7403987491789142
 40
0.7985936169697515
 40
0.8591276238028833
 40
0.9090310941963908
 40
0.9601463036307631
 40
1.0
 40
1.0
 40
1.0
 40
1.0
 10
368.8102902766506
 20
193.085525933577
 30
0.0
 10
368.7643508942841
 20
193.2304523746253
 30
0.0
 10
368.6672731749509
 20
193.5367065653288
 30
0.0
 10
368.4106408960409
 20
193.9519880452285
 30
0.0
 10
368.0786929488633
 20
194.3260790261891
 30
0.0
 10
367.6671536868973
 20
194.6254084801758
 30
0.0
 10
367.2092556793936
 20
194.8290542163466
 30
0.0
 10
366.716365550699
 20
194.9432290983079
 30
0.0
 10
366.2035926160621
 20
194.9773564587112
 30
0.0
 10
365.6600148614834
 20
194.9365066220518
 30
0.0
 10
365.0738130174952
 20
194.82087923932
 30
0.0
 10
364.455441746324
 20
194.6306253902393
 30
0.0
 10
363.8437740616425
 20
194.3836922904325
 30
0.0
 10
363.2669264707778
 20
194.1104305864617
 30
0.0
 10
362.7412731158963
 20
193.8356092485214
 30
0.0
 10
362.2522760619516
 20
193.5634369468774
 30
0.0
 10
361.8501075136216
 20
193.328281216109
 30
0.0
 10
361.5344587062137
 20
193.1295694250587
 30
0.0
 10
361.3136246708245
 20
192.9742347171947
 30
0.0
 10
361.2133539624425
 20
192.8822283213374
 30
0.0
 10
361.1694251239973
 20
192.8419200980809
 30
0.0
  0
ELLIPSE
  5
3D7
330
1F
100
AcDbEntity
  8
0
  6
Continuous
 62
     7
370
    30
100
AcDbEllipse
 10
356.3851734228
 20
183.8529044966
 30
0.0
 11
8.637331130253074
 21
9.08422416262087
 31
0.0
210
0.0
220
0.0
230
1.0
 40
0.3494965827
 41
4.725153095652431
 42
5.670663628736358
  0
SPLINE
  5
3D8
330
1F
100
AcDbEntity
  8
0
  6
Continuous
 62
     7
370
    30
100
AcDbSpline
210
0.0
220
0.0
230
1.0
 70
     8
 71
     3
 72
    21
 73
    17
 74
     0
 42
0.000000001
 43
0.00000001
 40
0.0
 40
0.0
 40
0.0
 40
0.0
 40
0.0066940915671768
 40
0.0818588352601571
 40
0.1601878864222584
 40
0.24021374326942
 40
0.331246488015925
 40
0.4244623514493004
 40
0.5067094005545201
 40
0.5911144115843364
 40
0.6735010240074729
 40
0.7591991611233708
 40
0.8298476225763012
 40
0.9022115458647414
 40
0.9975647595655528
 40
1.0
 40
1.0
 40
1.0
 40
1.0
 10
361.4024094925498
 20
182.9388184547749
 30
0.0
 10
361.3942375018279
 20
182.9483404150116
 30
0.0
 10
361.294306146611
 20
183.0647798999739
 30
0.0
 10
361.1651314121257
 20
183.3454300194745
 30
0.0
 10
361.026177290222
 20
183.7718778150517
 30
0.0
 10
360.9695654759579
 20
184.2609959369966
 30
0.0
 10
361.00059882546
 20
184.7895762022543
 30
0.0
 10
361.1322945734512
 20
185.3137932691123
 30
0.0
 10
361.3536438313586
 20
185.7922415243116
 30
0.0
 10
361.6517851569834
 20
186.1983748353311
 30
0.0
 10
362.0384347962145
 20
186.5297794506694
 30
0.0
 10
362.4740174118013
 20
186.7450955039289
 30
0.0
 10
362.9357098931188
 20
186.8612403705206
 30
0.0
 10
363.4484593220199
 20
186.8962182422738
 30
0.0
 10
363.8273647277267
 20
186.8849729225959
 30
0.0
 10
364.053353587109
 20
186.8418822518887
 30
0.0
 10
364.0589814213249
 20
186.8408091584997
 30
0.0
  0
ELLIPSE
  5
3D9
330
1F
100
AcDbEntity
  8
0
  6
Continuous
 62
     7
370
    30
100
AcDbEllipse
 10
338.7075038931
 20
194.0580058944
 30
0.0
 11
8.637331130253074
 21
9.084224162620842
 31
0.0
210
0.0
220
0.0
230
1.0
 40
0.3494965827
 41
0.7806880005309202
 42
1.72619853361483
  0
LINE
  5
3DA
330
1F
100
AcDbEntity
  8
0
  6
Continuous
 62
     7
370
    30
100
AcDbLine
 10
329.2743599481
 20
198.4974486465
 30
0.0
 11
334.2339939638
 21
195.6343128728
 31
0.0
  0
LINE
  5
3DB
330
1F
100
AcDbEntity
  8
0
  6
Continuous
 62
     7
370
    30
100
AcDbLine
 10
345.1842625248
 20
216.2491226645
 30
0.0
 11
329.2743599481
 21
198.4974486465
 31
0.0
  0
LINE
  5
3DC
330
1F
100
AcDbEntity
  8
0
  6
Continuous
 62
     7
370
    30
100
AcDbLine
 10
345.1842625248
 20
216.2491226645
 30
0.0
 11
380.5396015841
 21
195.8389198689
 31
0.0
  0
LINE
  5
3DD
330
1F
100
AcDbEntity
  8
0
  6
Continuous
 62
     7
370
    30
100
AcDbLine
 10
359.6700649917
 20
180.9503816246
 30
0.0
 11
364.6296990074
 21
178.0872458509
 31
0.0
  0
ELLIPSE
  5
3DE
330
1F
100
AcDbEntity
  8
0
  6
Continuous
 62
     7
370
    30
100
AcDbEllipse
 10
364.983252398
 20
192.847735643
 30
0.0
 11
3.594875761247011
 21
2.45276524621815
 31
0.0
210
0.0
220
0.0
230
1.0
 40
0.7151521803
 41
4.332085853678447
 42
8.664524547689876
  0
LINE
  5
3DF
330
1F
100
AcDbEntity
  8
0
  6
Continuous
 62
     7
370
    30
100
AcDbLine
 10
341.9923954621
 20
191.1554830224
 30
0.0
 11
351.9116634935
 21
185.429211475
 31
0.0
  0
ELLIPSE
  5
3E0
330
1F
100
AcDbEntity
  8
0
  6
Continuous
 62
     7
370
    30
100
AcDbEllipse
 10
338.7075038931
 20
194.0580058944
 30
0.0
 11
8.637331130253074
 21
9.084224162620842
 31
0.0
210
0.0
220
0.0
230
1.0
 40
0.3494965827
 41
4.725153095652431
 42
5.779531007196662
  0
ELLIPSE
  5
3E1
330
1F
100
AcDbEntity
  8
0
  6
Continuous
 62
     7
370
    30
100
AcDbEllipse
 10
346.5984760872
 20
203.4610410966
 30
0.0
 11
3.594875761247011
 21
2.452765246218093
 31
0.0
210
0.0
220
0.0
230
1.0
 40
0.7151521803
 41
4.564728583232707
 42
8.897167277244172
  0
ARC
  5
3E2
330
1F
100
AcDbEntity
  8
0
  6
Continuous
 62
     7
370
    30
100
AcDbCircle
 10
338.3271259856
 20
191.3476836336
 30
0.0
 40
3.670305356533373
100
AcDbArc
 50
339.404522384
 51
356.9982543559
  0
LINE
  5
3E3
330
1F
100
AcDbEntity
  8
0
  6
Continuous
 62
     7
370
    30
100
AcDbLine
 10
341.4151839605
 20
189.8558839059
 30
0.0
 11
341.7628522311
 21
190.0565885264
 31
0.0
  0
ARC
  5
3E4
330
1F
100
AcDbEntity
  8
0
  6
Continuous
 62
     7
370
    30
100
AcDbCircle
 10
339.6476219055
 20
195.2657329549
 30
0.0
 40
6.842511943472174
100
AcDbArc
 50
183.7525719972
 51
195.3537709372
  0
LINE
  5
3E5
330
1F
100
AcDbEntity
  8
0
  6
Continuous
 62
     7
370
    30
100
AcDbLine
 10
334.4635371948
 20
194.2703934035
 30
0.0
 11
333.0493236324
 21
193.4539852917
 31
0.0
  0
ARC
  5
3E6
330
1F
100
AcDbEntity
  8
0
  6
Continuous
 62
     7
370
    30
100
AcDbCircle
 10
341.0618354679
 20
196.0821410667
 30
0.0
 40
6.84251194345983
100
AcDbArc
 50
183.7525719972
 51
195.3537709372
  0
SPLINE
  5
3E7
330
1F
100
AcDbEntity
  8
0
  6
Continuous
 62
     7
370
    30
100
AcDbSpline
210
0.0
220
0.0
230
1.0
 70
     8
 71
     3
 72
    26
 73
    22
 74
     0
 42
0.000000001
 43
0.00000001
 40
0.0
 40
0.0
 40
0.0
 40
0.0
 40
0.0231806938011411
 40
0.0933370159642224
 40
0.1514060877457314
 40
0.21173094020704
 40
0.2622193035789661
 40
0.3140920881041557
 40
0.3664474881659079
 40
0.419922722233822
 40
0.4813794875509187
 40
0.5440516702795576
 40
0.6186820174285431
 40
0.6954068405985298
 40
0.7370766101444062
 40
0.7796205356584556
 40
0.8213858342728076
 40
0.8647928429003585
 40
0.9010366579104212
 40
0.9380650880656286
 40
1.0
 40
1.0
 40
1.0
 40
1.0
 10
350.4747154623658
 20
203.8516175013863
 30
0.0
 10
350.4596920260213
 20
203.9156340385954
 30
0.0
 10
350.3992001904468
 20
204.1733964941421
 30
0.0
 10
350.1750012027139
 20
204.5353905479606
 30
0.0
 10
349.8180975481899
 20
204.9105309182929
 30
0.0
 10
349.4118806948372
 20
205.1535702465576
 30
0.0
 10
348.9666455481564
 20
205.2966284985096
 30
0.0
 10
348.5073420862548
 20
205.3517492859032
 30
0.0
 10
348.0165593948004
 20
205.3289297600546
 30
0.0
 10
347.4837716027849
 20
205.228732661274
 30
0.0
 10
346.9143773391872
 20
205.0470602675763
 30
0.0
 10
346.2818645976973
 20
204.7699772900011
 30
0.0
 10
345.6115674746914
 20
204.4037015241982
 30
0.0
 10
345.0191448397915
 20
204.0298982751991
 30
0.0
 10
344.5378451836136
 20
203.7150988997358
 30
0.0
 10
344.1718433909417
 20
203.4783067926603
 30
0.0
 10
343.8217092822244
 20
203.2634397232036
 30
0.0
 10
343.5220769196395
 20
203.0964837015605
 30
0.0
 10
343.2753774835256
 20
202.9732629519475
 30
0.0
 10
343.0313145960529
 20
202.8632223887907
 30
0.0
 10
342.9090808210673
 20
202.8110989682388
 30
0.0
 10
342.8325824133812
 20
202.7784782079306
 30
0.0
  0
SPLINE
  5
3E8
330
1F
100
AcDbEntity
  8
0
  6
Continuous
 62
     7
370
    30
100
AcDbSpline
210
0.0
220
0.0
230
1.0
 70
     8
 71
     3
 72
     9
 73
     5
 74
     0
 42
0.000000001
 43
0.00000001
 40
0.0
 40
0.0
 40
0.0
 40
0.0
 40
0.2370274579726368
 40
1.0
 40
1.0
 40
1.0
 40
1.0
 10
342.7099857100463
 20
202.7155991864313
 30
0.0
 10
342.6962376075642
 20
202.7088888603813
 30
0.0
 10
342.6382354562533
 20
202.68057852829
 30
0.0
 10
342.6218344549683
 20
202.6553973844616
 30
0.0
 10
342.6093209413261
 20
202.6361848631436
 30
0.0
  0
SPLINE
  5
3E9
330
1F
100
AcDbEntity
  8
0
  6
Continuous
 62
     7
370
    30
100
AcDbSpline
210
0.0
220
0.0
230
1.0
 70
     8
 71
     3
 72
    35
 73
    31
 74
     0
 42
0.000000001
 43
0.00000001
 40
0.0
 40
0.0
 40
0.0
 40
0.0
 40
0.0124620978630741
 40
0.0673343426076011
 40
0.0952528024214237
 40
0.1232583227570177
 40
0.1799977941345253
 40
0.2087486718317085
 40
0.2416278603289903
 40
0.3081760632138452
 40
0.3418658277234681
 40
0.3817789753139896
 40
0.4219377640876649
 40
0.4629351685125653
 40
0.504285144249238
 40
0.526586829516473
 40
0.5717008371225109
 40
0.5946023128943254
 40
0.6169164643134014
 40
0.6625498228614254
 40
0.6859675940635299
 40
0.705352184796459
 40
0.744642358803106
 40
0.7645466512697492
 40
0.7976461258845179
 40
0.8649843430853176
 40
0.899190096055317
 40
0.9343851195287295
 40
0.9697469501593305
 40
1.0
 40
1.0
 40
1.0
 40
1.0
 10
343.6238990506048
 20
193.0281716374236
 30
0.0
 10
343.5957846228188
 20
193.0500670584236
 30
0.0
 10
343.4438786970625
 20
193.1683708781616
 30
0.0
 10
343.2614550264964
 20
193.3725439503592
 30
0.0
 10
343.0789106183134
 20
193.6317787545123
 30
0.0
 10
342.9179268268577
 20
193.9133905647392
 30
0.0
 10
342.7916241274246
 20
194.2193239601557
 30
0.0
 10
342.6971759702616
 20
194.5539510864623
 30
0.0
 10
342.6229813039334
 20
194.9261519385913
 30
0.0
 10
342.5916740116261
 20
195.3250244498842
 30
0.0
 10
342.6049879622863
 20
195.7479686110506
 30
0.0
 10
342.6430157971117
 20
196.0909823077868
 30
0.0
 10
342.7150259811182
 20
196.451755988902
 30
0.0
 10
342.820949272677
 20
196.8079280540787
 30
0.0
 10
342.9415210899602
 20
197.0994726491269
 30
0.0
 10
343.092378666261
 20
197.3860694906882
 30
0.0
 10
343.2413384046196
 20
197.6066800921066
 30
0.0
 10
343.4145304818707
 20
197.7999364459237
 30
0.0
 10
343.6044771126426
 20
197.9728003791248
 30
0.0
 10
343.8187349967868
 20
198.1094248969135
 30
0.0
 10
344.0419038422031
 20
198.199228178547
 30
0.0
 10
344.2563163444437
 20
198.2590943084116
 30
0.0
 10
344.4692867475619
 20
198.2868043944677
 30
0.0
 10
344.7242117686846
 20
198.2896207999873
 30
0.0
 10
345.0615075053367
 20
198.2622614757012
 30
0.0
 10
345.4465372737714
 20
198.1776174362159
 30
0.0
 10
345.8422287683471
 20
198.0545234502733
 30
0.0
 10
346.1482487980346
 20
197.9433243989566
 30
0.0
 10
346.4449453276803
 20
197.8237947480199
 30
0.0
 10
346.6396744286384
 20
197.7365905970001
 30
0.0
 10
346.7294581660224
 20
197.6963833832071
 30
0.0
  0
LINE
  5
3EA
330
1F
100
AcDbEntity
  8
0
  6
Continuous
 62
     7
370
    30
100
AcDbLine
 10
359.4405217608
 20
179.8514871286
 30
0.0
 11
364.6296990074
 21
176.8558388683
 31
0.0
  0
LINE
  5
3EB
330
1F
100
AcDbEntity
  8
0
  6
Continuous
 62
     7
370
    30
100
AcDbLine
 10
363.2154854451
 20
226.6583260902
 30
0.0
 11
345.1842625248
 21
216.2491226645
 31
0.0
  0
LINE
  5
3EC
330
1F
100
AcDbEntity
  8
0
  6
Continuous
 62
     7
370
    30
100
AcDbLine
 10
363.2154854451
 20
226.6583260902
 30
0.0
 11
364.518786304
 21
225.9059465192
 31
0.0
  0
LINE
  5
3ED
330
1F
100
AcDbEntity
  8
0
  6
Continuous
 62
     7
370
    30
100
AcDbLine
 10
372.518786304
 20
221.2876448225
 30
0.0
 11
398.5708245044
 21
206.2481232947
 31
0.0
  0
LINE
  5
3EE
330
1F
100
AcDbEntity
  8
0
  6
Continuous
 62
     7
370
    30
100
AcDbLine
 10
341.7628522311
 20
190.0565885264
 30
0.0
 11
352.1412067244
 21
184.0652920057
 31
0.0
  0
LINE
  5
3EF
330
1F
100
AcDbEntity
  8
0
  6
Continuous
 62
     7
370
    30
100
AcDbLine
 10
329.2743599481
 20
197.2660416638
 30
0.0
 11
334.4635371948
 21
194.2703934035
 31
0.0
  0
LINE
  5
3F0
330
1F
100
AcDbEntity
  8
0
  6
Continuous
 62
     7
370
    30
100
AcDbLine
 10
329.2743599481
 20
197.2660416638
 30
0.0
 11
328.9266916775
 21
197.0653370433
 31
0.0
  0
LINE
  5
3F1
330
1F
100
AcDbEntity
  8
0
  6
Continuous
 62
     7
370
    30
100
AcDbLine
 10
329.2743599481
 20
198.4974486465
 30
0.0
 11
329.2743599481
 21
197.2660416638
 31
0.0
  0
LINE
  5
3F2
330
1F
100
AcDbEntity
  8
0
  6
Continuous
 62
     7
370
    30
100
AcDbLine
 10
178.2024885061
 20
152.2856579962
 30
0.0
 11
178.2024885061
 21
151.2856579962
 31
0.0
  0
LINE
  5
3F3
330
1F
100
AcDbEntity
  8
0
  6
Continuous
 62
     7
370
    30
100
AcDbLine
 10
179.8024885061
 20
151.2856579962
 30
0.0
 11
179.8024885061
 21
152.2856579962
 31
0.0
  0
LINE
  5
3F4
330
1F
100
AcDbEntity
  8
0
  6
Continuous
 62
     7
370
    30
100
AcDbLine
 10
206.5024885061
 20
174.5530264662
 30
0.0
 11
206.5024885061
 21
164.2856579962
 31
0.0
  0
LINE
  5
3F5
330
1F
100
AcDbEntity
  8
0
  6
Continuous
 62
     7
370
    30
100
AcDbLine
 10
206.5024885061
 20
152.2856579962
 30
0.0
 11
206.5024885061
 21
104.5530264662
 31
0.0
  0
LINE
  5
3F6
330
1F
100
AcDbEntity
  8
0
  6
Continuous
 62
     7
370
    30
100
AcDbLine
 10
214.5024885061
 20
104.5530264662
 30
0.0
 11
214.5024885061
 21
152.2856579962
 31
0.0
  0
LINE
  5
3F7
330
1F
100
AcDbEntity
  8
0
  6
Continuous
 62
     7
370
    30
100
AcDbLine
 10
214.5024885061
 20
164.2856579962
 30
0.0
 11
214.5024885061
 21
174.5530264662
 31
0.0
  0
CIRCLE
  5
3F8
330
1F
100
AcDbEntity
  8
0
  6
Continuous
 62
     7
370
    30
100
AcDbCircle
 10
219.0024885061
 20
158.2856579962
 30
0.0
 40
1.5
  0
LINE
  5
3F9
330
1F
100
AcDbEntity
  8
0
  6
Continuous
 62
     7
370
    30
100
AcDbLine
 10
179.8024885061
 20
151.2856579962
 30
0.0
 11
178.2024885061
 21
151.2856579962
 31
0.0
  0
ARC
  5
3FA
330
1F
100
AcDbEntity
  8
0
  6
Continuous
 62
     7
370
    30
100
AcDbCircle
 10
219.0024885061
 20
158.2856579962
 30
0.0
 40
6.500000000000011
100
AcDbArc
 50
251.3604313233
 51
253.6121909375
  0
LINE
  5
3FB
330
1F
100
AcDbEntity
  8
0
  6
Continuous
 62
     7
370
    30
100
AcDbLine
 10
217.3738239217
 20
152.2856579962
 30
0.0
 11
217.1685958267
 21
152.0497268196
 31
0.0
  0
LINE
  5
3FC
330
1F
100
AcDbEntity
  8
0
  6
Continuous
 62
     7
370
    30
100
AcDbLine
 10
216.9249990301
 20
152.1265965842
 30
0.0
 11
216.9083049612
 21
152.2856579962
 31
0.0
  0
ARC
  5
3FD
330
1F
100
AcDbEntity
  8
0
  6
Continuous
 62
     7
370
    30
100
AcDbCircle
 10
219.0024885061
 20
158.2856579962
 30
0.0
 40
6.500000000000026
100
AcDbArc
 50
101.9264690591
 51
104.1782286734
  0
LINE
  5
3FE
330
1F
100
AcDbEntity
  8
0
  6
Continuous
 62
     7
370
    30
100
AcDbLine
 10
217.6592231583
 20
164.6453465268
 30
0.0
 11
217.9259377174
 21
164.2856579962
 31
0.0
  0
LINE
  5
3FF
330
1F
100
AcDbEntity
  8
0
  6
Continuous
 62
     7
370
    30
100
AcDbLine
 10
217.3546698694
 20
164.2856579962
 30
0.0
 11
217.4103850253
 21
164.5876581951
 31
0.0
  0
ARC
  5
400
330
1F
100
AcDbEntity
  8
0
  6
Continuous
 62
     7
370
    30
100
AcDbCircle
 10
219.0024885061
 20
158.2856579962
 30
0.0
 40
6.500000000000008
100
AcDbArc
 50
108.7189218893
 51
110.9706815035
  0
LINE
  5
401
330
1F
100
AcDbEntity
  8
0
  6
Continuous
 62
     7
370
    30
100
AcDbLine
 10
216.6717585372
 20
164.2856579962
 30
0.0
 11
216.6762023001
 21
164.3551219337
 31
0.0
  0
LINE
  5
402
330
1F
100
AcDbEntity
  8
0
  6
Continuous
 62
     7
370
    30
100
AcDbLine
 10
216.9164708802
 20
164.4418362315
 30
0.0
 11
217.0639031021
 21
164.2856579962
 31
0.0
  0
ARC
  5
403
330
1F
100
AcDbEntity
  8
0
  6
Continuous
 62
     7
370
    30
100
AcDbCircle
 10
219.0024885061
 20
158.2856579962
 30
0.0
 40
6.49999999999998
100
AcDbArc
 50
81.5491105685
 51
83.8008701828
  0
LINE
  5
404
330
1F
100
AcDbEntity
  8
0
  6
Continuous
 62
     7
370
    30
100
AcDbLine
 10
219.9577391061
 20
164.7150822544
 30
0.0
 11
220.0823370152
 21
164.2856579962
 31
0.0
  0
LINE
  5
405
330
1F
100
AcDbEntity
  8
0
  6
Continuous
 62
     7
370
    30
100
AcDbLine
 10
219.4286539792
 20
164.2856579962
 30
0.0
 11
219.7043861764
 21
164.7476499229
 31
0.0
  0
ARC
  5
406
330
1F
100
AcDbEntity
  8
0
  6
Continuous
 62
     7
370
    30
100
AcDbCircle
 10
219.0024885061
 20
158.2856579962
 30
0.0
 40
6.500000000000011
100
AcDbArc
 50
88.3415633987
 51
90.593323013
  0
LINE
  5
407
330
1F
100
AcDbEntity
  8
0
  6
Continuous
 62
     7
370
    30
100
AcDbLine
 10
218.7123260227
 20
164.2856579962
 30
0.0
 11
218.9351793484
 21
164.7853094852
 31
0.0
  0
LINE
  5
408
330
1F
100
AcDbEntity
  8
0
  6
Continuous
 62
     7
370
    30
100
AcDbLine
 10
219.1906058997
 20
164.7829352603
 30
0.0
 11
219.4014069335
 21
164.2856579962
 31
0.0
  0
ARC
  5
409
330
1F
100
AcDbEntity
  8
0
  6
Continuous
 62
     7
370
    30
100
AcDbCircle
 10
219.0024885061
 20
158.2856579962
 30
0.0
 40
6.500000000000021
100
AcDbArc
 50
271.7377898138
 51
273.9895494281
  0
LINE
  5
40A
330
1F
100
AcDbEntity
  8
0
  6
Continuous
 62
     7
370
    30
100
AcDbLine
 10
219.1996042819
 20
151.7886475013
 30
0.0
 11
218.9531224567
 21
152.2858610836
 31
0.0
  0
LINE
  5
40B
330
1F
100
AcDbEntity
  8
0
  6
Continuous
 62
     7
370
    30
100
AcDbLine
 10
219.6371403359
 20
152.2856579962
 30
0.0
 11
219.4547228862
 21
151.8014090756
 31
0.0
  0
ARC
  5
40C
330
1F
100
AcDbEntity
  8
0
  6
Continuous
 62
     7
370
    30
100
AcDbCircle
 10
219.0024885061
 20
158.2856579962
 30
0.0
 40
6.500000000000083
100
AcDbArc
 50
285.3226954742
 51
287.5744550884
  0
LINE
  5
40D
330
1F
100
AcDbEntity
  8
0
  6
Continuous
 62
     7
370
    30
100
AcDbLine
 10
220.9894686603
 20
152.2856579962
 30
0.0
 11
220.9651302749
 21
152.08904301
 31
0.0
  0
LINE
  5
40E
330
1F
100
AcDbEntity
  8
0
  6
Continuous
 62
     7
370
    30
100
AcDbLine
 10
220.7201466614
 20
152.0167146673
 30
0.0
 11
220.4948462883
 21
152.2856579962
 31
0.0
  0
ARC
  5
40F
330
1F
100
AcDbEntity
  8
0
  6
Continuous
 62
     7
370
    30
100
AcDbCircle
 10
219.0024885061
 20
158.2856579962
 30
0.0
 40
6.499999999999995
100
AcDbArc
 50
74.7566577384
 51
77.0084173526
  0
LINE
  5
410
330
1F
100
AcDbEntity
  8
0
  6
Continuous
 62
     7
370
    30
100
AcDbLine
 10
220.7114626881
 20
164.5569742253
 30
0.0
 11
220.7563189118
 21
164.2856579962
 31
0.0
  0
LINE
  5
411
330
1F
100
AcDbEntity
  8
0
  6
Continuous
 62
     7
370
    30
100
AcDbLine
 10
220.2066079453
 20
164.2856579962
 30
0.0
 11
220.4637398997
 21
164.6192781589
 31
0.0
  0
ARC
  5
412
330
1F
100
AcDbEntity
  8
0
  6
Continuous
 62
     7
370
    30
100
AcDbCircle
 10
219.0024885061
 20
158.2856579962
 30
0.0
 40
6.500000000000012
100
AcDbArc
 50
278.530242644
 51
280.7820022583
  0
LINE
  5
413
330
1F
100
AcDbEntity
  8
0
  6
Continuous
 62
     7
370
    30
100
AcDbLine
 10
220.3134373431
 20
152.2856579962
 30
0.0
 11
220.2184613774
 21
151.9004085903
 31
0.0
  0
LINE
  5
414
330
1F
100
AcDbEntity
  8
0
  6
Continuous
 62
     7
370
    30
100
AcDbLine
 10
219.9666427779
 20
151.857562902
 30
0.0
 11
219.6869182546
 21
152.2856579962
 31
0.0
  0
ARC
  5
415
330
1F
100
AcDbEntity
  8
0
  6
Continuous
 62
     7
370
    30
100
AcDbCircle
 10
219.0024885061
 20
158.2856579962
 30
0.0
 40
6.500000000000066
100
AcDbArc
 50
264.9453369836
 51
267.1970965979
  0
LINE
  5
416
330
1F
100
AcDbEntity
  8
0
  6
Continuous
 62
     7
370
    30
100
AcDbLine
 10
218.4297987124
 20
151.8109358864
 30
0.0
 11
218.2609783559
 21
152.2856579962
 31
0.0
  0
LINE
  5
417
330
1F
100
AcDbEntity
  8
0
  6
Continuous
 62
     7
370
    30
100
AcDbLine
 10
218.9403177909
 20
152.2859801047
 30
0.0
 11
218.6846360156
 21
151.793434202
 31
0.0
  0
ARC
  5
418
330
1F
100
AcDbEntity
  8
0
  6
Continuous
 62
     7
370
    30
100
AcDbCircle
 10
219.0024885061
 20
158.2856579962
 30
0.0
 40
6.500000000000064
100
AcDbArc
 50
95.1340162289
 51
97.3857758432
  0
LINE
  5
419
330
1F
100
AcDbEntity
  8
0
  6
Continuous
 62
     7
370
    30
100
AcDbLine
 10
218.4208319374
 20
164.7595807357
 30
0.0
 11
218.6918662609
 21
164.2856579962
 31
0.0
  0
LINE
  5
41A
330
1F
100
AcDbEntity
  8
0
  6
Continuous
 62
     7
370
    30
100
AcDbLine
 10
218.0284494059
 20
164.2856579962
 30
0.0
 11
218.1669173935
 21
164.7317281879
 31
0.0
  0
ARC
  5
41B
330
1F
100
AcDbEntity
  8
0
  6
Continuous
 62
     7
370
    30
100
AcDbCircle
 10
219.0024885061
 20
158.2856579962
 30
0.0
 40
6.500000000000018
100
AcDbArc
 50
258.1528841534
 51
260.4046437677
  0
LINE
  5
41C
330
1F
100
AcDbEntity
  8
0
  6
Continuous
 62
     7
370
    30
100
AcDbLine
 10
218.1972848996
 20
152.2856579962
 30
0.0
 11
217.9190110972
 21
151.8765959194
 31
0.0
  0
LINE
  5
41D
330
1F
100
AcDbEntity
  8
0
  6
Continuous
 62
     7
370
    30
100
AcDbLine
 10
217.6680324523
 20
151.924115177
 30
0.0
 11
217.5859986588
 21
152.2856579962
 31
0.0
  0
ARC
  5
41E
330
1F
100
AcDbEntity
  8
0
  6
Continuous
 62
     7
370
    30
100
AcDbCircle
 10
219.0024885061
 20
158.2856579962
 30
0.0
 40
6.499999999999994
100
AcDbArc
 50
67.9642049082
 51
70.2159645224
  0
LINE
  5
41F
330
1F
100
AcDbEntity
  8
0
  6
Continuous
 62
     7
370
    30
100
AcDbLine
 10
221.4411960187
 20
164.3108306633
 30
0.0
 11
221.442337006
 21
164.2856579962
 31
0.0
  0
LINE
  5
420
330
1F
100
AcDbEntity
  8
0
  6
Continuous
 62
     7
370
    30
100
AcDbLine
 10
221.0885940693
 20
164.2856579962
 30
0.0
 11
221.2025808565
 21
164.4019962513
 31
0.0
  0
LWPOLYLINE
  5
421
330
1F
100
AcDbEntity
  8
0
  6
Continuous
 62
     7
370
    30
100
AcDbPolyline
 90
        3
 70
   128
 43
0.0
 10
221.5024885061
 20
152.2856579962
 10
221.4790912491
 20
152.2759625919
 10
221.4495383896
 20
152.2638686552
  0
LINE
  5
422
330
1F
100
AcDbEntity
  8
0
  6
Continuous
 62
     7
370
    30
100
AcDbLine
 10
221.4495383896
 20
152.2638686552
 30
0.0
 11
221.4263787314
 21
152.2856579962
 31
0.0
  0
ARC
  5
423
330
1F
100
AcDbEntity
  8
0
  6
Continuous
 62
     7
370
    30
100
AcDbCircle
 10
219.0024885061
 20
158.2856579962
 30
0.0
 40
6.500000000000022
100
AcDbArc
 50
0.0396766063
 51
2.2914362205
  0
LINE
  5
424
330
1F
100
AcDbEntity
  8
0
  6
Continuous
 62
     7
370
    30
100
AcDbLine
 10
225.5024869476
 20
158.2901591641
 30
0.0
 11
225.0024885061
 21
158.0604951889
 31
0.0
  0
LINE
  5
425
330
1F
100
AcDbEntity
  8
0
  6
Continuous
 62
     7
370
    30
100
AcDbLine
 10
225.0024885061
 20
158.748876768
 30
0.0
 11
225.4972909911
 21
158.5455438975
 31
0.0
  0
ARC
  5
426
330
1F
100
AcDbEntity
  8
0
  6
Continuous
 62
     7
370
    30
100
AcDbCircle
 10
219.0024885061
 20
158.2856579962
 30
0.0
 40
6.500000000000009
100
AcDbArc
 50
13.6245822667
 51
15.8763418809
  0
LINE
  5
427
330
1F
100
AcDbEntity
  8
0
  6
Continuous
 62
     7
370
    30
100
AcDbLine
 10
225.0024885061
 20
160.102627353
 30
0.0
 11
225.2545417722
 21
160.0638115211
 31
0.0
  0
LINE
  5
428
330
1F
100
AcDbEntity
  8
0
  6
Continuous
 62
     7
370
    30
100
AcDbLine
 10
225.3195786712
 20
159.816792166
 30
0.0
 11
225.0024885061
 21
159.5667680472
 31
0.0
  0
ARC
  5
429
330
1F
100
AcDbEntity
  8
0
  6
Continuous
 62
     7
370
    30
100
AcDbCircle
 10
219.0024885061
 20
158.2856579962
 30
0.0
 40
6.499999999999978
100
AcDbArc
 50
353.2472237761
 51
355.4989833903
  0
LINE
  5
42A
330
1F
100
AcDbEntity
  8
0
  6
Continuous
 62
     7
370
    30
100
AcDbLine
 10
225.45739645
 20
157.5213521442
 30
0.0
 11
225.0024885061
 21
157.3746115062
 31
0.0
  0
LINE
  5
42B
330
1F
100
AcDbEntity
  8
0
  6
Continuous
 62
     7
370
    30
100
AcDbLine
 10
225.0024885061
 20
158.043049404
 30
0.0
 11
225.4824421256
 21
157.7755588989
 31
0.0
  0
ARC
  5
42C
330
1F
100
AcDbEntity
  8
0
  6
Continuous
 62
     7
370
    30
100
AcDbCircle
 10
219.0024885061
 20
158.2856579962
 30
0.0
 40
6.499999999999956
100
AcDbArc
 50
6.8321294365
 51
9.0838890507
  0
LINE
  5
42D
330
1F
100
AcDbEntity
  8
0
  6
Continuous
 62
     7
370
    30
100
AcDbLine
 10
225.4563317152
 20
159.0589029975
 30
0.0
 11
225.0024885061
 21
158.7811887369
 31
0.0
  0
LINE
  5
42E
330
1F
100
AcDbEntity
  8
0
  6
Continuous
 62
     7
370
    30
100
AcDbLine
 10
225.0024885061
 20
159.4283059376
 30
0.0
 11
225.4209670664
 21
159.3118806677
 31
0.0
  0
ARC
  5
42F
330
1F
100
AcDbEntity
  8
0
  6
Continuous
 62
     7
370
    30
100
AcDbCircle
 10
219.0024885061
 20
158.2856579962
 30
0.0
 40
6.499999999999991
100
AcDbArc
 50
20.4170350968
 51
22.6687947111
  0
LINE
  5
430
330
1F
100
AcDbEntity
  8
0
  6
Continuous
 62
     7
370
    30
100
AcDbLine
 10
225.0941475285
 20
160.5531875671
 30
0.0
 11
225.0024885061
 21
160.4613746232
 31
0.0
  0
ARC
  5
431
330
1F
100
AcDbEntity
  8
0
  6
Continuous
 62
     7
370
    30
100
AcDbCircle
 10
219.0024885061
 20
158.2856579962
 30
0.0
 40
6.49999999999999
100
AcDbArc
 50
339.6623181157
 51
341.91407773
  0
LINE
  5
432
330
1F
100
AcDbEntity
  8
0
  6
Continuous
 62
     7
370
    30
100
AcDbLine
 10
225.0024885061
 20
156.4329137251
 30
0.0
 11
225.1813367465
 21
156.2677793027
 31
0.0
  0
LINE
  5
433
330
1F
100
AcDbEntity
  8
0
  6
Continuous
 62
     7
370
    30
100
AcDbLine
 10
225.0972821565
 20
156.0265673918
 30
0.0
 11
225.0024885061
 21
156.0194508848
 31
0.0
  0
ARC
  5
434
330
1F
100
AcDbEntity
  8
0
  6
Continuous
 62
     7
370
    30
100
AcDbCircle
 10
219.0024885061
 20
158.2856579962
 30
0.0
 40
6.500000000000028
100
AcDbArc
 50
346.4547709459
 51
348.7065305601
  0
LINE
  5
435
330
1F
100
AcDbEntity
  8
0
  6
Continuous
 62
     7
370
    30
100
AcDbLine
 10
225.0024885061
 20
157.2838109736
 30
0.0
 11
225.3766289156
 21
157.0127345735
 31
0.0
  0
LINE
  5
436
330
1F
100
AcDbEntity
  8
0
  6
Continuous
 62
     7
370
    30
100
AcDbLine
 10
225.3216931943
 20
156.763274303
 30
0.0
 11
225.0024885061
 21
156.7007309651
 31
0.0
  0
LINE
  5
437
330
1F
100
AcDbEntity
  8
0
  6
Continuous
 62
     7
370
    30
100
AcDbLine
 10
214.5024885061
 20
174.5530264662
 30
0.0
 11
206.5024885061
 21
174.5530264662
 31
0.0
  0
LINE
  5
438
330
1F
100
AcDbEntity
  8
0
  6
Continuous
 62
     7
370
    30
100
AcDbLine
 10
195.9923981839
 20
164.2856579962
 30
0.0
 11
185.0024885061
 21
160.2856579962
 31
0.0
  0
LINE
  5
439
330
1F
100
AcDbEntity
  8
0
  6
Continuous
 62
     7
370
    30
100
AcDbLine
 10
225.0024885061
 20
164.2856579962
 30
0.0
 11
195.9923981839
 21
164.2856579962
 31
0.0
  0
LINE
  5
43A
330
1F
100
AcDbEntity
  8
0
  6
Continuous
 62
     7
370
    30
100
AcDbLine
 10
225.0024885061
 20
152.2856579962
 30
0.0
 11
225.0024885061
 21
164.2856579962
 31
0.0
  0
LINE
  5
43B
330
1F
100
AcDbEntity
  8
0
  6
Continuous
 62
     7
370
    30
100
AcDbLine
 10
178.0024885061
 20
152.2856579962
 30
0.0
 11
225.0024885061
 21
152.2856579962
 31
0.0
  0
LINE
  5
43C
330
1F
100
AcDbEntity
  8
0
  6
Continuous
 62
     7
370
    30
100
AcDbLine
 10
178.0024885061
 20
160.2856579962
 30
0.0
 11
178.0024885061
 21
152.2856579962
 31
0.0
  0
LINE
  5
43D
330
1F
100
AcDbEntity
  8
0
  6
Continuous
 62
     7
370
    30
100
AcDbLine
 10
185.0024885061
 20
160.2856579962
 30
0.0
 11
178.0024885061
 21
160.2856579962
 31
0.0
  0
CIRCLE
  5
43E
330
1F
100
AcDbEntity
  8
0
  6
Continuous
 62
     7
370
    30
100
AcDbCircle
 10
219.0024885061
 20
158.2856579962
 30
0.0
 40
1.650000000000034
  0
LINE
  5
43F
330
1F
100
AcDbEntity
  8
0
  6
Continuous
 62
     7
370
    30
100
AcDbLine
 10
178.0024885061
 20
152.2856579962
 30
0.0
 11
173.0024885061
 21
152.2856579962
 31
0.0
  0
LINE
  5
440
330
1F
100
AcDbEntity
  8
0
  6
Continuous
 62
     7
370
    30
100
AcDbLine
 10
173.0024885061
 20
152.2856579962
 30
0.0
 11
173.0024885061
 21
160.2856579962
 31
0.0
  0
LINE
  5
441
330
1F
100
AcDbEntity
  8
0
  6
Continuous
 62
     7
370
    30
100
AcDbLine
 10
173.0024885061
 20
160.2856579962
 30
0.0
 11
178.0024885061
 21
160.2856579962
 31
0.0
  0
LINE
  5
442
330
1F
100
AcDbEntity
  8
0
  6
Continuous
 62
     7
370
    30
100
AcDbLine
 10
178.0024885061
 20
94.0611041578
 30
0.0
 11
155.5024885061
 21
104.5530264662
 31
0.0
  0
LINE
  5
443
330
1F
100
AcDbEntity
  8
0
  6
Continuous
 62
     7
370
    30
100
AcDbLine
 10
178.0024885061
 20
92.5530264662
 30
0.0
 11
178.0024885061
 21
94.0611041578
 31
0.0
  0
LINE
  5
444
330
1F
100
AcDbEntity
  8
0
  6
Continuous
 62
     7
370
    30
100
AcDbLine
 10
180.0024885061
 20
92.5530264662
 30
0.0
 11
178.0024885061
 21
92.5530264662
 31
0.0
  0
LINE
  5
445
330
1F
100
AcDbEntity
  8
0
  6
Continuous
 62
     7
370
    30
100
AcDbLine
 10
202.5024885061
 20
104.5530264662
 30
0.0
 11
180.0024885061
 21
94.0611041578
 31
0.0
  0
LINE
  5
446
330
1F
100
AcDbEntity
  8
0
  6
Continuous
 62
     7
370
    30
100
AcDbLine
 10
155.5024885061
 20
104.5530264662
 30
0.0
 11
153.0024885061
 21
104.5530264662
 31
0.0
  0
LINE
  5
447
330
1F
100
AcDbEntity
  8
0
  6
Continuous
 62
     7
370
    30
100
AcDbLine
 10
180.0024885061
 20
94.0611041578
 30
0.0
 11
180.0024885061
 21
92.5530264662
 31
0.0
  0
LINE
  5
448
330
1F
100
AcDbEntity
  8
0
  6
Continuous
 62
     7
370
    30
100
AcDbLine
 10
153.0024885061
 20
104.5530264662
 30
0.0
 11
153.0024885061
 21
82.5530264662
 31
0.0
  0
LINE
  5
449
330
1F
100
AcDbEntity
  8
0
  6
Continuous
 62
     7
370
    30
100
AcDbLine
 10
153.0024885061
 20
82.5530264662
 30
0.0
 11
228.0024885061
 21
82.5530264662
 31
0.0
  0
LINE
  5
44A
330
1F
100
AcDbEntity
  8
0
  6
Continuous
 62
     7
370
    30
100
AcDbLine
 10
228.0024885061
 20
82.5530264662
 30
0.0
 11
228.0024885061
 21
104.5530264662
 31
0.0
  0
LINE
  5
44B
330
1F
100
AcDbEntity
  8
0
  6
Continuous
 62
     7
370
    30
100
AcDbLine
 10
228.0024885061
 20
104.5530264662
 30
0.0
 11
202.5024885061
 21
104.5530264662
 31
0.0
  0
CIRCLE
  5
44C
330
1F
100
AcDbEntity
  8
SLD-0
  6
HIDDEN
 62
     7
370
     0
100
AcDbCircle
 10
179.0024885061
 20
122.2826223926
 30
0.0
 40
26.00000000000002
  0
DIMENSION
  5
44D
330
1F
100
AcDbEntity
  8
SLD-0
 62
     7
100
AcDbDimension
  2
_D_5
 10
197.9360038044
 20
104.4634754308
 30
0.0
 11
136.6994485868
 21
152.9795432208
 31
0.0
 70
   163
  1
Max:<>
 71
     1
 42
-1.0
  3
SLDDIMSTYLE2
100
AcDbDiametricDimension
 15
160.0689732078
 25
140.1017693545
 35
0.0
 40
0.0
  0
DIMENSION
  5
458
330
1F
100
AcDbEntity
  8
SLD-0
 62
     7
100
AcDbDimension
  2
_D_6
 10
249.0024885061
 20
174.5530264662
 30
0.0
 11
249.0024885061
 21
128.5530264662
 31
0.0
 70
   160
  1
<>
 71
     2
 42
-1.0
  3
SLDDIMSTYLE0
100
AcDbAlignedDimension
 13
228.0024885061
 23
82.5530264662
 33
0.0
 14
214.5024885061
 24
174.5530264662
 34
0.0
 50
90.0
100
AcDbRotatedDimension
  0
DIMENSION
  5
462
330
1F
100
AcDbEntity
  8
SLD-0
 62
     7
100
AcDbDimension
  2
_D_7
 10
241.546756312
 20
82.5530264662
 30
0.0
 11
241.546756312
 21
93.5530264662
 31
0.0
 70
   160
  1
<>
 71
     2
 42
-1.0
  3
SLDDIMSTYLE0
100
AcDbAlignedDimension
 13
228.0024885061
 23
104.5530264662
 33
0.0
 14
228.0024885061
 24
82.5530264662
 34
0.0
 50
90.0
100
AcDbRotatedDimension
  0
DIMENSION
  5
46C
330
1F
100
AcDbEntity
  8
SLD-0
 62
     7
100
AcDbDimension
  2
_D_8
 10
228.0024885061
 20
69.2323394421
 30
0.0
 11
190.5024885061
 21
69.2323394421
 31
0.0
 70
   160
  1
<>
 71
     2
 42
-1.0
  3
SLDDIMSTYLE0
100
AcDbAlignedDimension
 13
153.0024885061
 23
82.5530264662
 33
0.0
 14
228.0024885061
 24
82.5530264662
 34
0.0
100
AcDbRotatedDimension
  0
LINE
  5
476
330
1F
100
AcDbEntity
  8
0
  6
Continuous
 62
     7
370
    30
100
AcDbLine
 10
86.6326725173
 20
152.2856579961
 30
0.0
 11
86.6326725173
 21
151.2856579962
 31
0.0
  0
LINE
  5
477
330
1F
100
AcDbEntity
  8
0
  6
Continuous
 62
     7
370
    30
100
AcDbLine
 10
88.2326725173
 20
151.2856579962
 30
0.0
 11
88.2326725173
 21
152.2856579961
 31
0.0
  0
LINE
  5
478
330
1F
100
AcDbEntity
  8
0
  6
Continuous
 62
     7
370
    30
100
AcDbLine
 10
73.4326725173
 20
164.7856579962
 30
0.0
 11
72.9326725173
 21
164.2856579962
 31
0.0
  0
LINE
  5
479
330
1F
100
AcDbEntity
  8
0
  6
Continuous
 62
     7
370
    30
100
AcDbLine
 10
80.9326725173
 20
164.2856579962
 30
0.0
 11
80.4326725173
 21
164.7856579962
 31
0.0
  0
LINE
  5
47A
330
1F
100
AcDbEntity
  8
0
  6
Continuous
 62
     7
370
    30
100
AcDbLine
 10
72.9326725173
 20
152.2856579962
 30
0.0
 11
73.0324245934
 21
152.1859059202
 31
0.0
  0
LINE
  5
47B
330
1F
100
AcDbEntity
  8
0
  6
Continuous
 62
     7
370
    30
100
AcDbLine
 10
80.8329204413
 20
152.1859059202
 30
0.0
 11
80.9326725173
 21
152.2856579962
 31
0.0
  0
LINE
  5
47C
330
1F
100
AcDbEntity
  8
0
  6
Continuous
 62
     7
370
    30
100
AcDbLine
 10
80.4326725173
 20
164.7856579962
 30
0.0
 11
73.4326725173
 21
164.7856579962
 31
0.0
  0
LINE
  5
47D
330
1F
100
AcDbEntity
  8
0
  6
Continuous
 62
     7
370
    30
100
AcDbLine
 10
81.4326725173
 20
161.7856579962
 30
0.0
 11
80.9326725173
 21
161.7856579962
 31
0.0
  0
LINE
  5
47E
330
1F
100
AcDbEntity
  8
0
  6
Continuous
 62
     7
370
    30
100
AcDbLine
 10
80.9326725173
 20
154.7856579962
 30
0.0
 11
81.4326725173
 21
154.7856579962
 31
0.0
  0
LINE
  5
47F
330
1F
100
AcDbEntity
  8
0
  6
Continuous
 62
     7
370
    30
100
AcDbLine
 10
83.4326725173
 20
174.5530264662
 30
0.0
 11
83.4326725173
 21
164.2856579962
 31
0.0
  0
LINE
  5
480
330
1F
100
AcDbEntity
  8
0
  6
Continuous
 62
     7
370
    30
100
AcDbLine
 10
83.4326725173
 20
152.2856579962
 30
0.0
 11
83.4326725173
 21
104.5530264662
 31
0.0
  0
LINE
  5
481
330
1F
100
AcDbEntity
  8
0
  6
Continuous
 62
     7
370
    30
100
AcDbLine
 10
91.4326725173
 20
104.5530264662
 30
0.0
 11
91.4326725173
 21
152.2856579962
 31
0.0
  0
LINE
  5
482
330
1F
100
AcDbEntity
  8
0
  6
Continuous
 62
     7
370
    30
100
AcDbLine
 10
91.4326725173
 20
164.2856579962
 30
0.0
 11
91.4326725173
 21
174.5530264662
 31
0.0
  0
LINE
  5
483
330
1F
100
AcDbEntity
  8
0
  6
Continuous
 62
     7
370
    30
100
AcDbLine
 10
88.2326725173
 20
151.2856579962
 30
0.0
 11
86.6326725173
 21
151.2856579962
 31
0.0
  0
LINE
  5
484
330
1F
100
AcDbEntity
  8
0
  6
Continuous
 62
     7
370
    30
100
AcDbLine
 10
72.9326725173
 20
158.8675863806
 30
0.0
 11
73.4326725173
 21
158.6662287226
 31
0.0
  0
LINE
  5
485
330
1F
100
AcDbEntity
  8
0
  6
Continuous
 62
     7
370
    30
100
AcDbLine
 10
73.4326725173
 20
158.6662287226
 30
0.0
 11
73.4326725173
 21
158.4109847016
 31
0.0
  0
LINE
  5
486
330
1F
100
AcDbEntity
  8
0
  6
Continuous
 62
     7
370
    30
100
AcDbLine
 10
73.4326725173
 20
158.4109847016
 30
0.0
 11
72.9326725173
 21
158.1700109865
 31
0.0
  0
LINE
  5
487
330
1F
100
AcDbEntity
  8
0
  6
Continuous
 62
     7
370
    30
100
AcDbLine
 10
72.9326725173
 20
158.1700109865
 30
0.0
 11
72.9326725173
 21
158.8675863806
 31
0.0
  0
LINE
  5
488
330
1F
100
AcDbEntity
  8
0
  6
Continuous
 62
     7
370
    30
100
AcDbLine
 10
80.4326725173
 20
158.4109847016
 30
0.0
 11
80.4326725173
 21
158.6662287226
 31
0.0
  0
LINE
  5
489
330
1F
100
AcDbEntity
  8
0
  6
Continuous
 62
     7
370
    30
100
AcDbLine
 10
80.4326725173
 20
158.6662287226
 30
0.0
 11
80.9326725173
 21
158.8675863806
 31
0.0
  0
LINE
  5
48A
330
1F
100
AcDbEntity
  8
0
  6
Continuous
 62
     7
370
    30
100
AcDbLine
 10
80.9326725173
 20
158.1700109865
 30
0.0
 11
80.4326725173
 21
158.4109847016
 31
0.0
  0
LINE
  5
48B
330
1F
100
AcDbEntity
  8
0
  6
Continuous
 62
     7
370
    30
100
AcDbLine
 10
80.9326725173
 20
158.8675863806
 30
0.0
 11
80.9326725173
 21
158.1700109865
 31
0.0
  0
LINE
  5
48C
330
1F
100
AcDbEntity
  8
0
  6
Continuous
 62
     7
370
    30
100
AcDbLine
 10
80.4326725173
 20
158.6662287226
 30
0.0
 11
73.4326725173
 21
158.6662287226
 31
0.0
  0
LINE
  5
48D
330
1F
100
AcDbEntity
  8
0
  6
Continuous
 62
     7
370
    30
100
AcDbLine
 10
73.4326725173
 20
158.4109847016
 30
0.0
 11
80.4326725173
 21
158.4109847016
 31
0.0
  0
LINE
  5
48E
330
1F
100
AcDbEntity
  8
0
  6
Continuous
 62
     7
370
    30
100
AcDbLine
 10
72.9326725173
 20
158.1572084171
 30
0.0
 11
73.4326725173
 21
157.8961007447
 31
0.0
  0
LINE
  5
48F
330
1F
100
AcDbEntity
  8
0
  6
Continuous
 62
     7
370
    30
100
AcDbLine
 10
73.4326725173
 20
157.8961007447
 30
0.0
 11
73.4326725173
 21
157.6414723471
 31
0.0
  0
LINE
  5
490
330
1F
100
AcDbEntity
  8
0
  6
Continuous
 62
     7
370
    30
100
AcDbLine
 10
73.4326725173
 20
157.6414723471
 30
0.0
 11
72.9326725173
 21
157.4613155062
 31
0.0
  0
LINE
  5
491
330
1F
100
AcDbEntity
  8
0
  6
Continuous
 62
     7
370
    30
100
AcDbLine
 10
72.9326725173
 20
157.4613155062
 30
0.0
 11
72.9326725173
 21
158.1572084171
 31
0.0
  0
LINE
  5
492
330
1F
100
AcDbEntity
  8
0
  6
Continuous
 62
     7
370
    30
100
AcDbLine
 10
80.4326725173
 20
157.6414723471
 30
0.0
 11
80.4326725173
 21
157.8961007447
 31
0.0
  0
LINE
  5
493
330
1F
100
AcDbEntity
  8
0
  6
Continuous
 62
     7
370
    30
100
AcDbLine
 10
80.4326725173
 20
157.8961007447
 30
0.0
 11
80.9326725173
 21
158.1572084171
 31
0.0
  0
LINE
  5
494
330
1F
100
AcDbEntity
  8
0
  6
Continuous
 62
     7
370
    30
100
AcDbLine
 10
80.9326725173
 20
157.4613155062
 30
0.0
 11
80.4326725173
 21
157.6414723471
 31
0.0
  0
LINE
  5
495
330
1F
100
AcDbEntity
  8
0
  6
Continuous
 62
     7
370
    30
100
AcDbLine
 10
80.9326725173
 20
158.1572084171
 30
0.0
 11
80.9326725173
 21
157.4613155062
 31
0.0
  0
LINE
  5
496
330
1F
100
AcDbEntity
  8
0
  6
Continuous
 62
     7
370
    30
100
AcDbLine
 10
80.4326725173
 20
157.8961007447
 30
0.0
 11
73.4326725173
 21
157.8961007447
 31
0.0
  0
LINE
  5
497
330
1F
100
AcDbEntity
  8
0
  6
Continuous
 62
     7
370
    30
100
AcDbLine
 10
73.4326725173
 20
157.6414723471
 30
0.0
 11
80.4326725173
 21
157.6414723471
 31
0.0
  0
LINE
  5
498
330
1F
100
AcDbEntity
  8
0
  6
Continuous
 62
     7
370
    30
100
AcDbLine
 10
72.9326725173
 20
159.5697953452
 30
0.0
 11
73.4326725173
 21
159.4310143218
 31
0.0
  0
LINE
  5
499
330
1F
100
AcDbEntity
  8
0
  6
Continuous
 62
     7
370
    30
100
AcDbLine
 10
73.4326725173
 20
159.4310143218
 30
0.0
 11
73.4326725173
 21
159.1787377439
 31
0.0
  0
LINE
  5
49A
330
1F
100
AcDbEntity
  8
0
  6
Continuous
 62
     7
370
    30
100
AcDbLine
 10
73.4326725173
 20
159.1787377439
 30
0.0
 11
72.9326725173
 21
158.8803298973
 31
0.0
  0
LINE
  5
49B
330
1F
100
AcDbEntity
  8
0
  6
Continuous
 62
     7
370
    30
100
AcDbLine
 10
72.9326725173
 20
158.8803298973
 30
0.0
 11
72.9326725173
 21
159.5697953452
 31
0.0
  0
LINE
  5
49C
330
1F
100
AcDbEntity
  8
0
  6
Continuous
 62
     7
370
    30
100
AcDbLine
 10
80.4326725173
 20
159.1787377439
 30
0.0
 11
80.4326725173
 21
159.4310143218
 31
0.0
  0
LINE
  5
49D
330
1F
100
AcDbEntity
  8
0
  6
Continuous
 62
     7
370
    30
100
AcDbLine
 10
80.4326725173
 20
159.4310143218
 30
0.0
 11
80.9326725173
 21
159.5697953452
 31
0.0
  0
LINE
  5
49E
330
1F
100
AcDbEntity
  8
0
  6
Continuous
 62
     7
370
    30
100
AcDbLine
 10
80.9326725173
 20
158.8803298973
 30
0.0
 11
80.4326725173
 21
159.1787377439
 31
0.0
  0
LINE
  5
49F
330
1F
100
AcDbEntity
  8
0
  6
Continuous
 62
     7
370
    30
100
AcDbLine
 10
80.9326725173
 20
159.5697953452
 30
0.0
 11
80.9326725173
 21
158.8803298973
 31
0.0
  0
LINE
  5
4A0
330
1F
100
AcDbEntity
  8
0
  6
Continuous
 62
     7
370
    30
100
AcDbLine
 10
80.9326725173
 20
158.1638663996
 30
0.0
 11
72.9326725173
 21
158.1638663996
 31
0.0
  0
LINE
  5
4A1
330
1F
100
AcDbEntity
  8
0
  6
Continuous
 62
     7
370
    30
100
AcDbLine
 10
80.9326725173
 20
158.1700109865
 30
0.0
 11
80.9326725173
 21
158.1638663996
 31
0.0
  0
LINE
  5
4A2
330
1F
100
AcDbEntity
  8
0
  6
Continuous
 62
     7
370
    30
100
AcDbLine
 10
72.9326725173
 20
158.1700109865
 30
0.0
 11
72.9326725173
 21
158.1638663996
 31
0.0
  0
LINE
  5
4A3
330
1F
100
AcDbEntity
  8
0
  6
Continuous
 62
     7
370
    30
100
AcDbLine
 10
80.9326725173
 20
158.872720798
 30
0.0
 11
72.9326725173
 21
158.872720798
 31
0.0
  0
LINE
  5
4A4
330
1F
100
AcDbEntity
  8
0
  6
Continuous
 62
     7
370
    30
100
AcDbLine
 10
80.9326725173
 20
158.872720798
 30
0.0
 11
80.9326725173
 21
158.8675863806
 31
0.0
  0
LINE
  5
4A5
330
1F
100
AcDbEntity
  8
0
  6
Continuous
 62
     7
370
    30
100
AcDbLine
 10
72.9326725173
 20
158.872720798
 30
0.0
 11
72.9326725173
 21
158.8675863806
 31
0.0
  0
LINE
  5
4A6
330
1F
100
AcDbEntity
  8
0
  6
Continuous
 62
     7
370
    30
100
AcDbLine
 10
80.9326725173
 20
158.1638663996
 30
0.0
 11
80.9326725173
 21
158.1572084171
 31
0.0
  0
LINE
  5
4A7
330
1F
100
AcDbEntity
  8
0
  6
Continuous
 62
     7
370
    30
100
AcDbLine
 10
72.9326725173
 20
158.1638663996
 30
0.0
 11
72.9326725173
 21
158.1572084171
 31
0.0
  0
LINE
  5
4A8
330
1F
100
AcDbEntity
  8
0
  6
Continuous
 62
     7
370
    30
100
AcDbLine
 10
73.4326725173
 20
159.1787377439
 30
0.0
 11
80.4326725173
 21
159.1787377439
 31
0.0
  0
LINE
  5
4A9
330
1F
100
AcDbEntity
  8
0
  6
Continuous
 62
     7
370
    30
100
AcDbLine
 10
80.9326725173
 20
158.8803298973
 30
0.0
 11
80.9326725173
 21
158.872720798
 31
0.0
  0
LINE
  5
4AA
330
1F
100
AcDbEntity
  8
0
  6
Continuous
 62
     7
370
    30
100
AcDbLine
 10
72.9326725173
 20
158.8803298973
 30
0.0
 11
72.9326725173
 21
158.872720798
 31
0.0
  0
LINE
  5
4AB
330
1F
100
AcDbEntity
  8
0
  6
Continuous
 62
     7
370
    30
100
AcDbLine
 10
80.4326725173
 20
159.4310143218
 30
0.0
 11
73.4326725173
 21
159.4310143218
 31
0.0
  0
LINE
  5
4AC
330
1F
100
AcDbEntity
  8
0
  6
Continuous
 62
     7
370
    30
100
AcDbLine
 10
80.9326725173
 20
157.4567216883
 30
0.0
 11
72.9326725173
 21
157.4567216883
 31
0.0
  0
LINE
  5
4AD
330
1F
100
AcDbEntity
  8
0
  6
Continuous
 62
     7
370
    30
100
AcDbLine
 10
80.9326725173
 20
157.4613155062
 30
0.0
 11
80.9326725173
 21
157.4567216883
 31
0.0
  0
LINE
  5
4AE
330
1F
100
AcDbEntity
  8
0
  6
Continuous
 62
     7
370
    30
100
AcDbLine
 10
72.9326725173
 20
157.4613155062
 30
0.0
 11
72.9326725173
 21
157.4567216883
 31
0.0
  0
LINE
  5
4AF
330
1F
100
AcDbEntity
  8
0
  6
Continuous
 62
     7
370
    30
100
AcDbLine
 10
80.4326725173
 20
157.1314412966
 30
0.0
 11
73.4326725173
 21
157.1314412966
 31
0.0
  0
LINE
  5
4B0
330
1F
100
AcDbEntity
  8
0
  6
Continuous
 62
     7
370
    30
100
AcDbLine
 10
80.4326725173
 20
156.881002947
 30
0.0
 11
80.4326725173
 21
157.1314412966
 31
0.0
  0
LINE
  5
4B1
330
1F
100
AcDbEntity
  8
0
  6
Continuous
 62
     7
370
    30
100
AcDbLine
 10
73.4326725173
 20
156.881002947
 30
0.0
 11
80.4326725173
 21
156.881002947
 31
0.0
  0
LINE
  5
4B2
330
1F
100
AcDbEntity
  8
0
  6
Continuous
 62
     7
370
    30
100
AcDbLine
 10
73.4326725173
 20
157.1314412966
 30
0.0
 11
73.4326725173
 21
156.881002947
 31
0.0
  0
LINE
  5
4B3
330
1F
100
AcDbEntity
  8
0
  6
Continuous
 62
     7
370
    30
100
AcDbLine
 10
72.9326725173
 20
157.4486336041
 30
0.0
 11
73.4326725173
 21
157.1314412966
 31
0.0
  0
LINE
  5
4B4
330
1F
100
AcDbEntity
  8
0
  6
Continuous
 62
     7
370
    30
100
AcDbLine
 10
73.4326725173
 20
156.881002947
 30
0.0
 11
72.9326725173
 21
156.7641919875
 31
0.0
  0
LINE
  5
4B5
330
1F
100
AcDbEntity
  8
0
  6
Continuous
 62
     7
370
    30
100
AcDbLine
 10
72.9326725173
 20
156.7641919875
 30
0.0
 11
72.9326725173
 21
157.4486336041
 31
0.0
  0
LINE
  5
4B6
330
1F
100
AcDbEntity
  8
0
  6
Continuous
 62
     7
370
    30
100
AcDbLine
 10
80.4326725173
 20
157.1314412966
 30
0.0
 11
80.9326725173
 21
157.4486336041
 31
0.0
  0
LINE
  5
4B7
330
1F
100
AcDbEntity
  8
0
  6
Continuous
 62
     7
370
    30
100
AcDbLine
 10
80.9326725173
 20
156.7641919875
 30
0.0
 11
80.4326725173
 21
156.881002947
 31
0.0
  0
LINE
  5
4B8
330
1F
100
AcDbEntity
  8
0
  6
Continuous
 62
     7
370
    30
100
AcDbLine
 10
80.9326725173
 20
157.4486336041
 30
0.0
 11
80.9326725173
 21
156.7641919875
 31
0.0
  0
LINE
  5
4B9
330
1F
100
AcDbEntity
  8
0
  6
Continuous
 62
     7
370
    30
100
AcDbLine
 10
80.9326725173
 20
159.5733341214
 30
0.0
 11
72.9326725173
 21
159.5733341214
 31
0.0
  0
LINE
  5
4BA
330
1F
100
AcDbEntity
  8
0
  6
Continuous
 62
     7
370
    30
100
AcDbLine
 10
80.9326725173
 20
159.5733341214
 30
0.0
 11
80.9326725173
 21
159.5697953452
 31
0.0
  0
LINE
  5
4BB
330
1F
100
AcDbEntity
  8
0
  6
Continuous
 62
     7
370
    30
100
AcDbLine
 10
72.9326725173
 20
159.5733341214
 30
0.0
 11
72.9326725173
 21
159.5697953452
 31
0.0
  0
LINE
  5
4BC
330
1F
100
AcDbEntity
  8
0
  6
Continuous
 62
     7
370
    30
100
AcDbLine
 10
80.9326725173
 20
157.4567216883
 30
0.0
 11
80.9326725173
 21
157.4486336041
 31
0.0
  0
LINE
  5
4BD
330
1F
100
AcDbEntity
  8
0
  6
Continuous
 62
     7
370
    30
100
AcDbLine
 10
72.9326725173
 20
157.4567216883
 30
0.0
 11
72.9326725173
 21
157.4486336041
 31
0.0
  0
LINE
  5
4BE
330
1F
100
AcDbEntity
  8
0
  6
Continuous
 62
     7
370
    30
100
AcDbLine
 10
72.9326725173
 20
160.2539778363
 30
0.0
 11
73.4326725173
 21
160.1797216289
 31
0.0
  0
LINE
  5
4BF
330
1F
100
AcDbEntity
  8
0
  6
Continuous
 62
     7
370
    30
100
AcDbLine
 10
73.4326725173
 20
160.1797216289
 30
0.0
 11
73.4326725173
 21
159.9339539042
 31
0.0
  0
LINE
  5
4C0
330
1F
100
AcDbEntity
  8
0
  6
Continuous
 62
     7
370
    30
100
AcDbLine
 10
73.4326725173
 20
159.9339539042
 30
0.0
 11
72.9326725173
 21
159.5823009182
 31
0.0
  0
LINE
  5
4C1
330
1F
100
AcDbEntity
  8
0
  6
Continuous
 62
     7
370
    30
100
AcDbLine
 10
72.9326725173
 20
159.5823009182
 30
0.0
 11
72.9326725173
 21
160.2539778363
 31
0.0
  0
LINE
  5
4C2
330
1F
100
AcDbEntity
  8
0
  6
Continuous
 62
     7
370
    30
100
AcDbLine
 10
80.4326725173
 20
159.9339539042
 30
0.0
 11
80.4326725173
 21
160.1797216289
 31
0.0
  0
LINE
  5
4C3
330
1F
100
AcDbEntity
  8
0
  6
Continuous
 62
     7
370
    30
100
AcDbLine
 10
80.4326725173
 20
160.1797216289
 30
0.0
 11
80.9326725173
 21
160.2539778363
 31
0.0
  0
LINE
  5
4C4
330
1F
100
AcDbEntity
  8
0
  6
Continuous
 62
     7
370
    30
100
AcDbLine
 10
80.9326725173
 20
159.5823009182
 30
0.0
 11
80.4326725173
 21
159.9339539042
 31
0.0
  0
LINE
  5
4C5
330
1F
100
AcDbEntity
  8
0
  6
Continuous
 62
     7
370
    30
100
AcDbLine
 10
80.9326725173
 20
160.2539778363
 30
0.0
 11
80.9326725173
 21
159.5823009182
 31
0.0
  0
LINE
  5
4C6
330
1F
100
AcDbEntity
  8
0
  6
Continuous
 62
     7
370
    30
100
AcDbLine
 10
73.4326725173
 20
159.9339539042
 30
0.0
 11
80.4326725173
 21
159.9339539042
 31
0.0
  0
LINE
  5
4C7
330
1F
100
AcDbEntity
  8
0
  6
Continuous
 62
     7
370
    30
100
AcDbLine
 10
80.9326725173
 20
159.5823009182
 30
0.0
 11
80.9326725173
 21
159.5733341214
 31
0.0
  0
LINE
  5
4C8
330
1F
100
AcDbEntity
  8
0
  6
Continuous
 62
     7
370
    30
100
AcDbLine
 10
72.9326725173
 20
159.5823009182
 30
0.0
 11
72.9326725173
 21
159.5733341214
 31
0.0
  0
LINE
  5
4C9
330
1F
100
AcDbEntity
  8
0
  6
Continuous
 62
     7
370
    30
100
AcDbLine
 10
80.9326725173
 20
156.7612134257
 30
0.0
 11
72.9326725173
 21
156.7612134257
 31
0.0
  0
LINE
  5
4CA
330
1F
100
AcDbEntity
  8
0
  6
Continuous
 62
     7
370
    30
100
AcDbLine
 10
80.9326725173
 20
156.7641919875
 30
0.0
 11
80.9326725173
 21
156.7612134257
 31
0.0
  0
LINE
  5
4CB
330
1F
100
AcDbEntity
  8
0
  6
Continuous
 62
     7
370
    30
100
AcDbLine
 10
72.9326725173
 20
156.7641919875
 30
0.0
 11
72.9326725173
 21
156.7612134257
 31
0.0
  0
LINE
  5
4CC
330
1F
100
AcDbEntity
  8
0
  6
Continuous
 62
     7
370
    30
100
AcDbLine
 10
80.4326725173
 20
160.1797216289
 30
0.0
 11
73.4326725173
 21
160.1797216289
 31
0.0
  0
LINE
  5
4CD
330
1F
100
AcDbEntity
  8
0
  6
Continuous
 62
     7
370
    30
100
AcDbLine
 10
80.4326725173
 20
156.3829845209
 30
0.0
 11
73.4326725173
 21
156.3829845209
 31
0.0
  0
LINE
  5
4CE
330
1F
100
AcDbEntity
  8
0
  6
Continuous
 62
     7
370
    30
100
AcDbLine
 10
80.4326725173
 20
156.1402518248
 30
0.0
 11
80.4326725173
 21
156.3829845209
 31
0.0
  0
LINE
  5
4CF
330
1F
100
AcDbEntity
  8
0
  6
Continuous
 62
     7
370
    30
100
AcDbLine
 10
73.4326725173
 20
156.1402518248
 30
0.0
 11
80.4326725173
 21
156.1402518248
 31
0.0
  0
LINE
  5
4D0
330
1F
100
AcDbEntity
  8
0
  6
Continuous
 62
     7
370
    30
100
AcDbLine
 10
73.4326725173
 20
156.3829845209
 30
0.0
 11
73.4326725173
 21
156.1402518248
 31
0.0
  0
LINE
  5
4D1
330
1F
100
AcDbEntity
  8
0
  6
Continuous
 62
     7
370
    30
100
AcDbLine
 10
72.9326725173
 20
156.7518087789
 30
0.0
 11
73.4326725173
 21
156.3829845209
 31
0.0
  0
LINE
  5
4D2
330
1F
100
AcDbEntity
  8
0
  6
Continuous
 62
     7
370
    30
100
AcDbLine
 10
73.4326725173
 20
156.1402518248
 30
0.0
 11
72.9326725173
 21
156.0884265164
 31
0.0
  0
LINE
  5
4D3
330
1F
100
AcDbEntity
  8
0
  6
Continuous
 62
     7
370
    30
100
AcDbLine
 10
72.9326725173
 20
156.0884265164
 30
0.0
 11
72.9326725173
 21
156.7518087789
 31
0.0
  0
LINE
  5
4D4
330
1F
100
AcDbEntity
  8
0
  6
Continuous
 62
     7
370
    30
100
AcDbLine
 10
80.4326725173
 20
156.3829845209
 30
0.0
 11
80.9326725173
 21
156.7518087789
 31
0.0
  0
LINE
  5
4D5
330
1F
100
AcDbEntity
  8
0
  6
Continuous
 62
     7
370
    30
100
AcDbLine
 10
80.9326725173
 20
156.0884265164
 30
0.0
 11
80.4326725173
 21
156.1402518248
 31
0.0
  0
LINE
  5
4D6
330
1F
100
AcDbEntity
  8
0
  6
Continuous
 62
     7
370
    30
100
AcDbLine
 10
80.9326725173
 20
156.7518087789
 30
0.0
 11
80.9326725173
 21
156.0884265164
 31
0.0
  0
LINE
  5
4D7
330
1F
100
AcDbEntity
  8
0
  6
Continuous
 62
     7
370
    30
100
AcDbLine
 10
80.9326725173
 20
160.2558712947
 30
0.0
 11
72.9326725173
 21
160.2558712947
 31
0.0
  0
LINE
  5
4D8
330
1F
100
AcDbEntity
  8
0
  6
Continuous
 62
     7
370
    30
100
AcDbLine
 10
80.9326725173
 20
160.2558712947
 30
0.0
 11
80.9326725173
 21
160.2539778363
 31
0.0
  0
LINE
  5
4D9
330
1F
100
AcDbEntity
  8
0
  6
Continuous
 62
     7
370
    30
100
AcDbLine
 10
72.9326725173
 20
160.2558712947
 30
0.0
 11
72.9326725173
 21
160.2539778363
 31
0.0
  0
LINE
  5
4DA
330
1F
100
AcDbEntity
  8
0
  6
Continuous
 62
     7
370
    30
100
AcDbLine
 10
80.9326725173
 20
156.7612134257
 30
0.0
 11
80.9326725173
 21
156.7518087789
 31
0.0
  0
LINE
  5
4DB
330
1F
100
AcDbEntity
  8
0
  6
Continuous
 62
     7
370
    30
100
AcDbLine
 10
72.9326725173
 20
156.7612134257
 30
0.0
 11
72.9326725173
 21
156.7518087789
 31
0.0
  0
LINE
  5
4DC
330
1F
100
AcDbEntity
  8
0
  6
Continuous
 62
     7
370
    30
100
AcDbLine
 10
80.9326725173
 20
156.0871050233
 30
0.0
 11
72.9326725173
 21
156.0871050233
 31
0.0
  0
LINE
  5
4DD
330
1F
100
AcDbEntity
  8
0
  6
Continuous
 62
     7
370
    30
100
AcDbLine
 10
80.9326725173
 20
156.0884265164
 30
0.0
 11
80.9326725173
 21
156.0871050233
 31
0.0
  0
LINE
  5
4DE
330
1F
100
AcDbEntity
  8
0
  6
Continuous
 62
     7
370
    30
100
AcDbLine
 10
72.9326725173
 20
156.0884265164
 30
0.0
 11
72.9326725173
 21
156.0871050233
 31
0.0
  0
LINE
  5
4DF
330
1F
100
AcDbEntity
  8
0
  6
Continuous
 62
     7
370
    30
100
AcDbLine
 10
73.4326725173
 20
160.666031603
 30
0.0
 11
72.9326725173
 21
160.2660699147
 31
0.0
  0
LINE
  5
4E0
330
1F
100
AcDbEntity
  8
0
  6
Continuous
 62
     7
370
    30
100
AcDbLine
 10
73.4326725173
 20
160.666031603
 30
0.0
 11
80.4326725173
 21
160.666031603
 31
0.0
  0
LINE
  5
4E1
330
1F
100
AcDbEntity
  8
0
  6
Continuous
 62
     7
370
    30
100
AcDbLine
 10
80.9326725173
 20
160.2660699147
 30
0.0
 11
80.4326725173
 21
160.666031603
 31
0.0
  0
LINE
  5
4E2
330
1F
100
AcDbEntity
  8
0
  6
Continuous
 62
     7
370
    30
100
AcDbLine
 10
80.9326725173
 20
160.2660699147
 30
0.0
 11
80.9326725173
 21
160.2558712947
 31
0.0
  0
LINE
  5
4E3
330
1F
100
AcDbEntity
  8
0
  6
Continuous
 62
     7
370
    30
100
AcDbLine
 10
72.9326725173
 20
160.2660699147
 30
0.0
 11
72.9326725173
 21
160.2558712947
 31
0.0
  0
LINE
  5
4E4
330
1F
100
AcDbEntity
  8
0
  6
Continuous
 62
     7
370
    30
100
AcDbLine
 10
73.4326725173
 20
160.9018404343
 30
0.0
 11
73.4326725173
 21
160.666031603
 31
0.0
  0
LINE
  5
4E5
330
1F
100
AcDbEntity
  8
0
  6
Continuous
 62
     7
370
    30
100
AcDbLine
 10
72.9326725173
 20
160.9105294314
 30
0.0
 11
73.4326725173
 21
160.9018404343
 31
0.0
  0
LINE
  5
4E6
330
1F
100
AcDbEntity
  8
0
  6
Continuous
 62
     7
370
    30
100
AcDbLine
 10
72.9326725173
 20
160.2660699147
 30
0.0
 11
72.9326725173
 21
160.9105294314
 31
0.0
  0
LINE
  5
4E7
330
1F
100
AcDbEntity
  8
0
  6
Continuous
 62
     7
370
    30
100
AcDbLine
 10
80.4326725173
 20
160.666031603
 30
0.0
 11
80.4326725173
 21
160.9018404343
 31
0.0
  0
LINE
  5
4E8
330
1F
100
AcDbEntity
  8
0
  6
Continuous
 62
     7
370
    30
100
AcDbLine
 10
80.4326725173
 20
160.9018404343
 30
0.0
 11
80.9326725173
 21
160.9105294314
 31
0.0
  0
LINE
  5
4E9
330
1F
100
AcDbEntity
  8
0
  6
Continuous
 62
     7
370
    30
100
AcDbLine
 10
80.9326725173
 20
160.9105294314
 30
0.0
 11
80.9326725173
 21
160.2660699147
 31
0.0
  0
LINE
  5
4EA
330
1F
100
AcDbEntity
  8
0
  6
Continuous
 62
     7
370
    30
100
AcDbLine
 10
80.4326725173
 20
160.9018404343
 30
0.0
 11
73.4326725173
 21
160.9018404343
 31
0.0
  0
LINE
  5
4EB
330
1F
100
AcDbEntity
  8
0
  6
Continuous
 62
     7
370
    30
100
AcDbLine
 10
72.9326725173
 20
156.0765158343
 30
0.0
 11
73.4326725173
 21
155.6612371101
 31
0.0
  0
LINE
  5
4EC
330
1F
100
AcDbEntity
  8
0
  6
Continuous
 62
     7
370
    30
100
AcDbLine
 10
73.4326725173
 20
155.6612371101
 30
0.0
 11
73.4326725173
 21
155.4296175025
 31
0.0
  0
LINE
  5
4ED
330
1F
100
AcDbEntity
  8
0
  6
Continuous
 62
     7
370
    30
100
AcDbLine
 10
73.4326725173
 20
155.4296175025
 30
0.0
 11
72.9326725173
 21
155.443505359
 31
0.0
  0
LINE
  5
4EE
330
1F
100
AcDbEntity
  8
0
  6
Continuous
 62
     7
370
    30
100
AcDbLine
 10
72.9326725173
 20
155.443505359
 30
0.0
 11
72.9326725173
 21
156.0765158343
 31
0.0
  0
LINE
  5
4EF
330
1F
100
AcDbEntity
  8
0
  6
Continuous
 62
     7
370
    30
100
AcDbLine
 10
80.4326725173
 20
155.6612371101
 30
0.0
 11
73.4326725173
 21
155.6612371101
 31
0.0
  0
LINE
  5
4F0
330
1F
100
AcDbEntity
  8
0
  6
Continuous
 62
     7
370
    30
100
AcDbLine
 10
80.4326725173
 20
155.4296175025
 30
0.0
 11
80.4326725173
 21
155.6612371101
 31
0.0
  0
LINE
  5
4F1
330
1F
100
AcDbEntity
  8
0
  6
Continuous
 62
     7
370
    30
100
AcDbLine
 10
73.4326725173
 20
155.4296175025
 30
0.0
 11
80.4326725173
 21
155.4296175025
 31
0.0
  0
LINE
  5
4F2
330
1F
100
AcDbEntity
  8
0
  6
Continuous
 62
     7
370
    30
100
AcDbLine
 10
80.4326725173
 20
155.6612371101
 30
0.0
 11
80.9326725173
 21
156.0765158343
 31
0.0
  0
LINE
  5
4F3
330
1F
100
AcDbEntity
  8
0
  6
Continuous
 62
     7
370
    30
100
AcDbLine
 10
80.9326725173
 20
155.443505359
 30
0.0
 11
80.4326725173
 21
155.4296175025
 31
0.0
  0
LINE
  5
4F4
330
1F
100
AcDbEntity
  8
0
  6
Continuous
 62
     7
370
    30
100
AcDbLine
 10
80.9326725173
 20
156.0765158343
 30
0.0
 11
80.9326725173
 21
155.443505359
 31
0.0
  0
LINE
  5
4F5
330
1F
100
AcDbEntity
  8
0
  6
Continuous
 62
     7
370
    30
100
AcDbLine
 10
80.9326725173
 20
160.9107509921
 30
0.0
 11
72.9326725173
 21
160.9107509921
 31
0.0
  0
LINE
  5
4F6
330
1F
100
AcDbEntity
  8
0
  6
Continuous
 62
     7
370
    30
100
AcDbLine
 10
80.9326725173
 20
160.9107509921
 30
0.0
 11
80.9326725173
 21
160.9105294314
 31
0.0
  0
LINE
  5
4F7
330
1F
100
AcDbEntity
  8
0
  6
Continuous
 62
     7
370
    30
100
AcDbLine
 10
72.9326725173
 20
160.9107509921
 30
0.0
 11
72.9326725173
 21
160.9105294314
 31
0.0
  0
LINE
  5
4F8
330
1F
100
AcDbEntity
  8
0
  6
Continuous
 62
     7
370
    30
100
AcDbLine
 10
80.9326725173
 20
156.0871050233
 30
0.0
 11
80.9326725173
 21
156.0765158343
 31
0.0
  0
LINE
  5
4F9
330
1F
100
AcDbEntity
  8
0
  6
Continuous
 62
     7
370
    30
100
AcDbLine
 10
72.9326725173
 20
156.0871050233
 30
0.0
 11
72.9326725173
 21
156.0765158343
 31
0.0
  0
LINE
  5
4FA
330
1F
100
AcDbEntity
  8
0
  6
Continuous
 62
     7
370
    30
100
AcDbLine
 10
73.4326725173
 20
161.3646940742
 30
0.0
 11
72.9326725173
 21
160.922038269
 31
0.0
  0
LINE
  5
4FB
330
1F
100
AcDbEntity
  8
0
  6
Continuous
 62
     7
370
    30
100
AcDbLine
 10
73.4326725173
 20
161.3646940742
 30
0.0
 11
80.4326725173
 21
161.3646940742
 31
0.0
  0
LINE
  5
4FC
330
1F
100
AcDbEntity
  8
0
  6
Continuous
 62
     7
370
    30
100
AcDbLine
 10
80.9326725173
 20
160.922038269
 30
0.0
 11
80.4326725173
 21
161.3646940742
 31
0.0
  0
LINE
  5
4FD
330
1F
100
AcDbEntity
  8
0
  6
Continuous
 62
     7
370
    30
100
AcDbLine
 10
80.9326725173
 20
160.922038269
 30
0.0
 11
80.9326725173
 21
160.9107509921
 31
0.0
  0
LINE
  5
4FE
330
1F
100
AcDbEntity
  8
0
  6
Continuous
 62
     7
370
    30
100
AcDbLine
 10
72.9326725173
 20
160.922038269
 30
0.0
 11
72.9326725173
 21
160.9107509921
 31
0.0
  0
LINE
  5
4FF
330
1F
100
AcDbEntity
  8
0
  6
Continuous
 62
     7
370
    30
100
AcDbLine
 10
72.9326725173
 20
161.5302335854
 30
0.0
 11
73.4326725173
 21
161.5872337731
 31
0.0
  0
LINE
  5
500
330
1F
100
AcDbEntity
  8
0
  6
Continuous
 62
     7
370
    30
100
AcDbLine
 10
73.4326725173
 20
161.5872337731
 30
0.0
 11
73.4326725173
 21
161.3646940742
 31
0.0
  0
LINE
  5
501
330
1F
100
AcDbEntity
  8
0
  6
Continuous
 62
     7
370
    30
100
AcDbLine
 10
72.9326725173
 20
160.922038269
 30
0.0
 11
72.9326725173
 21
161.5302335854
 31
0.0
  0
LINE
  5
502
330
1F
100
AcDbEntity
  8
0
  6
Continuous
 62
     7
370
    30
100
AcDbLine
 10
80.4326725173
 20
161.3646940742
 30
0.0
 11
80.4326725173
 21
161.5872337731
 31
0.0
  0
LINE
  5
503
330
1F
100
AcDbEntity
  8
0
  6
Continuous
 62
     7
370
    30
100
AcDbLine
 10
80.4326725173
 20
161.5872337731
 30
0.0
 11
80.9326725173
 21
161.5302335854
 31
0.0
  0
LINE
  5
504
330
1F
100
AcDbEntity
  8
0
  6
Continuous
 62
     7
370
    30
100
AcDbLine
 10
80.9326725173
 20
161.5302335854
 30
0.0
 11
80.9326725173
 21
160.922038269
 31
0.0
  0
LINE
  5
505
330
1F
100
AcDbEntity
  8
0
  6
Continuous
 62
     7
370
    30
100
AcDbLine
 10
80.4326725173
 20
161.5872337731
 30
0.0
 11
73.4326725173
 21
161.5872337731
 31
0.0
  0
LINE
  5
506
330
1F
100
AcDbEntity
  8
0
  6
Continuous
 62
     7
370
    30
100
AcDbLine
 10
80.4326725173
 20
154.9763308158
 30
0.0
 11
73.4326725173
 21
154.9763308158
 31
0.0
  0
LINE
  5
507
330
1F
100
AcDbEntity
  8
0
  6
Continuous
 62
     7
370
    30
100
AcDbLine
 10
80.4326725173
 20
154.7590757281
 30
0.0
 11
80.4326725173
 21
154.9763308158
 31
0.0
  0
LINE
  5
508
330
1F
100
AcDbEntity
  8
0
  6
Continuous
 62
     7
370
    30
100
AcDbLine
 10
73.4326725173
 20
154.7590757281
 30
0.0
 11
80.4326725173
 21
154.7590757281
 31
0.0
  0
LINE
  5
509
330
1F
100
AcDbEntity
  8
0
  6
Continuous
 62
     7
370
    30
100
AcDbLine
 10
73.4326725173
 20
154.9763308158
 30
0.0
 11
73.4326725173
 21
154.7590757281
 31
0.0
  0
LINE
  5
50A
330
1F
100
AcDbEntity
  8
0
  6
Continuous
 62
     7
370
    30
100
AcDbLine
 10
72.9326725173
 20
155.4322344033
 30
0.0
 11
73.4326725173
 21
154.9763308158
 31
0.0
  0
LINE
  5
50B
330
1F
100
AcDbEntity
  8
0
  6
Continuous
 62
     7
370
    30
100
AcDbLine
 10
73.4326725173
 20
154.7590757281
 30
0.0
 11
72.9326725173
 21
154.8384817945
 31
0.0
  0
LINE
  5
50C
330
1F
100
AcDbEntity
  8
0
  6
Continuous
 62
     7
370
    30
100
AcDbLine
 10
72.9326725173
 20
154.8384817945
 30
0.0
 11
72.9326725173
 21
155.4322344033
 31
0.0
  0
LINE
  5
50D
330
1F
100
AcDbEntity
  8
0
  6
Continuous
 62
     7
370
    30
100
AcDbLine
 10
80.4326725173
 20
154.9763308158
 30
0.0
 11
80.9326725173
 21
155.4322344033
 31
0.0
  0
LINE
  5
50E
330
1F
100
AcDbEntity
  8
0
  6
Continuous
 62
     7
370
    30
100
AcDbLine
 10
80.9326725173
 20
154.8384817945
 30
0.0
 11
80.4326725173
 21
154.7590757281
 31
0.0
  0
LINE
  5
50F
330
1F
100
AcDbEntity
  8
0
  6
Continuous
 62
     7
370
    30
100
AcDbLine
 10
80.9326725173
 20
155.4322344033
 30
0.0
 11
80.9326725173
 21
154.8384817945
 31
0.0
  0
LINE
  5
510
330
1F
100
AcDbEntity
  8
0
  6
Continuous
 62
     7
370
    30
100
AcDbLine
 10
80.9326725173
 20
155.443505359
 30
0.0
 11
80.9326725173
 21
155.4322344033
 31
0.0
  0
LINE
  5
511
330
1F
100
AcDbEntity
  8
0
  6
Continuous
 62
     7
370
    30
100
AcDbLine
 10
72.9326725173
 20
155.443505359
 30
0.0
 11
72.9326725173
 21
155.4322344033
 31
0.0
  0
LINE
  5
512
330
1F
100
AcDbEntity
  8
0
  6
Continuous
 62
     7
370
    30
100
AcDbLine
 10
73.4326725173
 20
162.0201336283
 30
0.0
 11
72.9326725173
 21
161.5409976233
 31
0.0
  0
LINE
  5
513
330
1F
100
AcDbEntity
  8
0
  6
Continuous
 62
     7
370
    30
100
AcDbLine
 10
73.4326725173
 20
162.0201336283
 30
0.0
 11
80.4326725173
 21
162.0201336283
 31
0.0
  0
LINE
  5
514
330
1F
100
AcDbEntity
  8
0
  6
Continuous
 62
     7
370
    30
100
AcDbLine
 10
80.9326725173
 20
161.5409976233
 30
0.0
 11
80.4326725173
 21
162.0201336283
 31
0.0
  0
LINE
  5
515
330
1F
100
AcDbEntity
  8
0
  6
Continuous
 62
     7
370
    30
100
AcDbLine
 10
80.9326725173
 20
161.5409976233
 30
0.0
 11
80.9326725173
 21
161.5302335854
 31
0.0
  0
LINE
  5
516
330
1F
100
AcDbEntity
  8
0
  6
Continuous
 62
     7
370
    30
100
AcDbLine
 10
72.9326725173
 20
161.5409976233
 30
0.0
 11
72.9326725173
 21
161.5302335854
 31
0.0
  0
LINE
  5
517
330
1F
100
AcDbEntity
  8
0
  6
Continuous
 62
     7
370
    30
100
AcDbLine
 10
72.9326725173
 20
162.1043910103
 30
0.0
 11
73.4326725173
 21
162.2262802251
 31
0.0
  0
LINE
  5
518
330
1F
100
AcDbEntity
  8
0
  6
Continuous
 62
     7
370
    30
100
AcDbLine
 10
73.4326725173
 20
162.2262802251
 30
0.0
 11
73.4326725173
 21
162.0201336283
 31
0.0
  0
LINE
  5
519
330
1F
100
AcDbEntity
  8
0
  6
Continuous
 62
     7
370
    30
100
AcDbLine
 10
72.9326725173
 20
161.5409976233
 30
0.0
 11
72.9326725173
 21
162.1043910103
 31
0.0
  0
LINE
  5
51A
330
1F
100
AcDbEntity
  8
0
  6
Continuous
 62
     7
370
    30
100
AcDbLine
 10
80.4326725173
 20
162.0201336283
 30
0.0
 11
80.4326725173
 21
162.2262802251
 31
0.0
  0
LINE
  5
51B
330
1F
100
AcDbEntity
  8
0
  6
Continuous
 62
     7
370
    30
100
AcDbLine
 10
80.4326725173
 20
162.2262802251
 30
0.0
 11
80.9326725173
 21
162.1043910103
 31
0.0
  0
LINE
  5
51C
330
1F
100
AcDbEntity
  8
0
  6
Continuous
 62
     7
370
    30
100
AcDbLine
 10
80.9326725173
 20
162.1043910103
 30
0.0
 11
80.9326725173
 21
161.5409976233
 31
0.0
  0
LINE
  5
51D
330
1F
100
AcDbEntity
  8
0
  6
Continuous
 62
     7
370
    30
100
AcDbLine
 10
80.4326725173
 20
162.2262802251
 30
0.0
 11
73.4326725173
 21
162.2262802251
 31
0.0
  0
LINE
  5
51E
330
1F
100
AcDbEntity
  8
0
  6
Continuous
 62
     7
370
    30
100
AcDbLine
 10
72.9326725173
 20
154.8280087847
 30
0.0
 11
73.4326725173
 21
154.3378802209
 31
0.0
  0
LINE
  5
51F
330
1F
100
AcDbEntity
  8
0
  6
Continuous
 62
     7
370
    30
100
AcDbLine
 10
73.4326725173
 20
154.3378802209
 30
0.0
 11
73.4326725173
 21
154.1380394384
 31
0.0
  0
LINE
  5
520
330
1F
100
AcDbEntity
  8
0
  6
Continuous
 62
     7
370
    30
100
AcDbLine
 10
73.4326725173
 20
154.1380394384
 30
0.0
 11
72.9326725173
 21
154.2818490275
 31
0.0
  0
LINE
  5
521
330
1F
100
AcDbEntity
  8
0
  6
Continuous
 62
     7
370
    30
100
AcDbLine
 10
72.9326725173
 20
154.2818490275
 30
0.0
 11
72.9326725173
 21
154.8280087847
 31
0.0
  0
LINE
  5
522
330
1F
100
AcDbEntity
  8
0
  6
Continuous
 62
     7
370
    30
100
AcDbLine
 10
80.4326725173
 20
154.3378802209
 30
0.0
 11
73.4326725173
 21
154.3378802209
 31
0.0
  0
LINE
  5
523
330
1F
100
AcDbEntity
  8
0
  6
Continuous
 62
     7
370
    30
100
AcDbLine
 10
80.4326725173
 20
154.1380394384
 30
0.0
 11
80.4326725173
 21
154.3378802209
 31
0.0
  0
LINE
  5
524
330
1F
100
AcDbEntity
  8
0
  6
Continuous
 62
     7
370
    30
100
AcDbLine
 10
73.4326725173
 20
154.1380394384
 30
0.0
 11
80.4326725173
 21
154.1380394384
 31
0.0
  0
LINE
  5
525
330
1F
100
AcDbEntity
  8
0
  6
Continuous
 62
     7
370
    30
100
AcDbLine
 10
80.4326725173
 20
154.3378802209
 30
0.0
 11
80.9326725173
 21
154.8280087847
 31
0.0
  0
LINE
  5
526
330
1F
100
AcDbEntity
  8
0
  6
Continuous
 62
     7
370
    30
100
AcDbLine
 10
80.9326725173
 20
154.2818490275
 30
0.0
 11
80.4326725173
 21
154.1380394384
 31
0.0
  0
LINE
  5
527
330
1F
100
AcDbEntity
  8
0
  6
Continuous
 62
     7
370
    30
100
AcDbLine
 10
80.9326725173
 20
154.8280087847
 30
0.0
 11
80.9326725173
 21
154.2818490275
 31
0.0
  0
LINE
  5
528
330
1F
100
AcDbEntity
  8
0
  6
Continuous
 62
     7
370
    30
100
AcDbLine
 10
80.9326725173
 20
154.8384817945
 30
0.0
 11
80.9326725173
 21
154.8280087847
 31
0.0
  0
LINE
  5
529
330
1F
100
AcDbEntity
  8
0
  6
Continuous
 62
     7
370
    30
100
AcDbLine
 10
72.9326725173
 20
154.8384817945
 30
0.0
 11
72.9326725173
 21
154.8280087847
 31
0.0
  0
LINE
  5
52A
330
1F
100
AcDbEntity
  8
0
  6
Continuous
 62
     7
370
    30
100
AcDbLine
 10
73.4326725173
 20
162.6231493305
 30
0.0
 11
72.9326725173
 21
162.114259145
 31
0.0
  0
LINE
  5
52B
330
1F
100
AcDbEntity
  8
0
  6
Continuous
 62
     7
370
    30
100
AcDbLine
 10
73.4326725173
 20
162.6231493305
 30
0.0
 11
80.4326725173
 21
162.6231493305
 31
0.0
  0
LINE
  5
52C
330
1F
100
AcDbEntity
  8
0
  6
Continuous
 62
     7
370
    30
100
AcDbLine
 10
80.9326725173
 20
162.114259145
 30
0.0
 11
80.4326725173
 21
162.6231493305
 31
0.0
  0
LINE
  5
52D
330
1F
100
AcDbEntity
  8
0
  6
Continuous
 62
     7
370
    30
100
AcDbLine
 10
80.9326725173
 20
162.114259145
 30
0.0
 11
80.9326725173
 21
162.1043910103
 31
0.0
  0
LINE
  5
52E
330
1F
100
AcDbEntity
  8
0
  6
Continuous
 62
     7
370
    30
100
AcDbLine
 10
72.9326725173
 20
162.114259145
 30
0.0
 11
72.9326725173
 21
162.1043910103
 31
0.0
  0
LINE
  5
52F
330
1F
100
AcDbEntity
  8
0
  6
Continuous
 62
     7
370
    30
100
AcDbLine
 10
72.9326725173
 20
162.6249417944
 30
0.0
 11
73.4326725173
 21
162.810008979
 31
0.0
  0
LINE
  5
530
330
1F
100
AcDbEntity
  8
0
  6
Continuous
 62
     7
370
    30
100
AcDbLine
 10
73.4326725173
 20
162.810008979
 30
0.0
 11
73.4326725173
 21
162.6231493305
 31
0.0
  0
LINE
  5
531
330
1F
100
AcDbEntity
  8
0
  6
Continuous
 62
     7
370
    30
100
AcDbLine
 10
72.9326725173
 20
162.114259145
 30
0.0
 11
72.9326725173
 21
162.6249417944
 31
0.0
  0
LINE
  5
532
330
1F
100
AcDbEntity
  8
0
  6
Continuous
 62
     7
370
    30
100
AcDbLine
 10
80.4326725173
 20
162.6231493305
 30
0.0
 11
80.4326725173
 21
162.810008979
 31
0.0
  0
LINE
  5
533
330
1F
100
AcDbEntity
  8
0
  6
Continuous
 62
     7
370
    30
100
AcDbLine
 10
80.4326725173
 20
162.810008979
 30
0.0
 11
80.9326725173
 21
162.6249417944
 31
0.0
  0
LINE
  5
534
330
1F
100
AcDbEntity
  8
0
  6
Continuous
 62
     7
370
    30
100
AcDbLine
 10
80.9326725173
 20
162.6249417944
 30
0.0
 11
80.9326725173
 21
162.114259145
 31
0.0
  0
LINE
  5
535
330
1F
100
AcDbEntity
  8
0
  6
Continuous
 62
     7
370
    30
100
AcDbLine
 10
80.4326725173
 20
162.810008979
 30
0.0
 11
73.4326725173
 21
162.810008979
 31
0.0
  0
LINE
  5
536
330
1F
100
AcDbEntity
  8
0
  6
Continuous
 62
     7
370
    30
100
AcDbLine
 10
72.9326725173
 20
154.2723209818
 30
0.0
 11
73.4326725173
 21
153.7548477723
 31
0.0
  0
LINE
  5
537
330
1F
100
AcDbEntity
  8
0
  6
Continuous
 62
     7
370
    30
100
AcDbLine
 10
73.4326725173
 20
153.7548477723
 30
0.0
 11
73.4326725173
 21
153.5752266216
 31
0.0
  0
LINE
  5
538
330
1F
100
AcDbEntity
  8
0
  6
Continuous
 62
     7
370
    30
100
AcDbLine
 10
73.4326725173
 20
153.5752266216
 30
0.0
 11
72.9326725173
 21
153.781420962
 31
0.0
  0
LINE
  5
539
330
1F
100
AcDbEntity
  8
0
  6
Continuous
 62
     7
370
    30
100
AcDbLine
 10
72.9326725173
 20
153.781420962
 30
0.0
 11
72.9326725173
 21
154.2723209818
 31
0.0
  0
LINE
  5
53A
330
1F
100
AcDbEntity
  8
0
  6
Continuous
 62
     7
370
    30
100
AcDbLine
 10
80.4326725173
 20
153.7548477723
 30
0.0
 11
73.4326725173
 21
153.7548477723
 31
0.0
  0
LINE
  5
53B
330
1F
100
AcDbEntity
  8
0
  6
Continuous
 62
     7
370
    30
100
AcDbLine
 10
80.4326725173
 20
153.5752266216
 30
0.0
 11
80.4326725173
 21
153.7548477723
 31
0.0
  0
LINE
  5
53C
330
1F
100
AcDbEntity
  8
0
  6
Continuous
 62
     7
370
    30
100
AcDbLine
 10
73.4326725173
 20
153.5752266216
 30
0.0
 11
80.4326725173
 21
153.5752266216
 31
0.0
  0
LINE
  5
53D
330
1F
100
AcDbEntity
  8
0
  6
Continuous
 62
     7
370
    30
100
AcDbLine
 10
80.4326725173
 20
153.7548477723
 30
0.0
 11
80.9326725173
 21
154.2723209818
 31
0.0
  0
LINE
  5
53E
330
1F
100
AcDbEntity
  8
0
  6
Continuous
 62
     7
370
    30
100
AcDbLine
 10
80.9326725173
 20
153.781420962
 30
0.0
 11
80.4326725173
 21
153.5752266216
 31
0.0
  0
LINE
  5
53F
330
1F
100
AcDbEntity
  8
0
  6
Continuous
 62
     7
370
    30
100
AcDbLine
 10
80.9326725173
 20
154.2723209818
 30
0.0
 11
80.9326725173
 21
153.781420962
 31
0.0
  0
LINE
  5
540
330
1F
100
AcDbEntity
  8
0
  6
Continuous
 62
     7
370
    30
100
AcDbLine
 10
80.9326725173
 20
154.2818490275
 30
0.0
 11
80.9326725173
 21
154.2723209818
 31
0.0
  0
LINE
  5
541
330
1F
100
AcDbEntity
  8
0
  6
Continuous
 62
     7
370
    30
100
AcDbLine
 10
72.9326725173
 20
154.2818490275
 30
0.0
 11
72.9326725173
 21
154.2723209818
 31
0.0
  0
LINE
  5
542
330
1F
100
AcDbEntity
  8
0
  6
Continuous
 62
     7
370
    30
100
AcDbLine
 10
73.4326725173
 20
163.1652761623
 30
0.0
 11
72.9326725173
 21
162.633775499
 31
0.0
  0
LINE
  5
543
330
1F
100
AcDbEntity
  8
0
  6
Continuous
 62
     7
370
    30
100
AcDbLine
 10
73.4326725173
 20
163.1652761623
 30
0.0
 11
80.4326725173
 21
163.1652761623
 31
0.0
  0
LINE
  5
544
330
1F
100
AcDbEntity
  8
0
  6
Continuous
 62
     7
370
    30
100
AcDbLine
 10
80.9326725173
 20
162.633775499
 30
0.0
 11
80.4326725173
 21
163.1652761623
 31
0.0
  0
LINE
  5
545
330
1F
100
AcDbEntity
  8
0
  6
Continuous
 62
     7
370
    30
100
AcDbLine
 10
80.9326725173
 20
162.633775499
 30
0.0
 11
80.9326725173
 21
162.6249417944
 31
0.0
  0
LINE
  5
546
330
1F
100
AcDbEntity
  8
0
  6
Continuous
 62
     7
370
    30
100
AcDbLine
 10
72.9326725173
 20
162.633775499
 30
0.0
 11
72.9326725173
 21
162.6249417944
 31
0.0
  0
LINE
  5
547
330
1F
100
AcDbEntity
  8
0
  6
Continuous
 62
     7
370
    30
100
AcDbLine
 10
72.9326725173
 20
163.0845785458
 30
0.0
 11
73.4326725173
 21
163.3302257626
 31
0.0
  0
LINE
  5
548
330
1F
100
AcDbEntity
  8
0
  6
Continuous
 62
     7
370
    30
100
AcDbLine
 10
73.4326725173
 20
163.3302257626
 30
0.0
 11
73.4326725173
 21
163.1652761623
 31
0.0
  0
LINE
  5
549
330
1F
100
AcDbEntity
  8
0
  6
Continuous
 62
     7
370
    30
100
AcDbLine
 10
72.9326725173
 20
162.633775499
 30
0.0
 11
72.9326725173
 21
163.0845785458
 31
0.0
  0
LINE
  5
54A
330
1F
100
AcDbEntity
  8
0
  6
Continuous
 62
     7
370
    30
100
AcDbLine
 10
80.4326725173
 20
163.1652761623
 30
0.0
 11
80.4326725173
 21
163.3302257626
 31
0.0
  0
LINE
  5
54B
330
1F
100
AcDbEntity
  8
0
  6
Continuous
 62
     7
370
    30
100
AcDbLine
 10
80.4326725173
 20
163.3302257626
 30
0.0
 11
80.9326725173
 21
163.0845785458
 31
0.0
  0
LINE
  5
54C
330
1F
100
AcDbEntity
  8
0
  6
Continuous
 62
     7
370
    30
100
AcDbLine
 10
80.9326725173
 20
163.0845785458
 30
0.0
 11
80.9326725173
 21
162.633775499
 31
0.0
  0
LINE
  5
54D
330
1F
100
AcDbEntity
  8
0
  6
Continuous
 62
     7
370
    30
100
AcDbLine
 10
80.4326725173
 20
163.3302257626
 30
0.0
 11
73.4326725173
 21
163.3302257626
 31
0.0
  0
LINE
  5
54E
330
1F
100
AcDbEntity
  8
0
  6
Continuous
 62
     7
370
    30
100
AcDbLine
 10
72.9326725173
 20
153.7729716332
 30
0.0
 11
73.4326725173
 21
153.2354179677
 31
0.0
  0
LINE
  5
54F
330
1F
100
AcDbEntity
  8
0
  6
Continuous
 62
     7
370
    30
100
AcDbLine
 10
73.4326725173
 20
153.2354179677
 30
0.0
 11
73.4326725173
 21
153.078537936
 31
0.0
  0
LINE
  5
550
330
1F
100
AcDbEntity
  8
0
  6
Continuous
 62
     7
370
    30
100
AcDbLine
 10
73.4326725173
 20
153.078537936
 30
0.0
 11
72.9326725173
 21
153.3442225111
 31
0.0
  0
LINE
  5
551
330
1F
100
AcDbEntity
  8
0
  6
Continuous
 62
     7
370
    30
100
AcDbLine
 10
72.9326725173
 20
153.3442225111
 30
0.0
 11
72.9326725173
 21
153.7729716332
 31
0.0
  0
LINE
  5
552
330
1F
100
AcDbEntity
  8
0
  6
Continuous
 62
     7
370
    30
100
AcDbLine
 10
80.4326725173
 20
153.078537936
 30
0.0
 11
80.4326725173
 21
153.2354179677
 31
0.0
  0
LINE
  5
553
330
1F
100
AcDbEntity
  8
0
  6
Continuous
 62
     7
370
    30
100
AcDbLine
 10
80.4326725173
 20
153.2354179677
 30
0.0
 11
80.9326725173
 21
153.7729716332
 31
0.0
  0
LINE
  5
554
330
1F
100
AcDbEntity
  8
0
  6
Continuous
 62
     7
370
    30
100
AcDbLine
 10
80.9326725173
 20
153.3442225111
 30
0.0
 11
80.4326725173
 21
153.078537936
 31
0.0
  0
LINE
  5
555
330
1F
100
AcDbEntity
  8
0
  6
Continuous
 62
     7
370
    30
100
AcDbLine
 10
80.9326725173
 20
153.7729716332
 30
0.0
 11
80.9326725173
 21
153.3442225111
 31
0.0
  0
LINE
  5
556
330
1F
100
AcDbEntity
  8
0
  6
Continuous
 62
     7
370
    30
100
AcDbLine
 10
80.4326725173
 20
153.2354179677
 30
0.0
 11
73.4326725173
 21
153.2354179677
 31
0.0
  0
LINE
  5
557
330
1F
100
AcDbEntity
  8
0
  6
Continuous
 62
     7
370
    30
100
AcDbLine
 10
80.9326725173
 20
153.781420962
 30
0.0
 11
80.9326725173
 21
153.7729716332
 31
0.0
  0
LINE
  5
558
330
1F
100
AcDbEntity
  8
0
  6
Continuous
 62
     7
370
    30
100
AcDbLine
 10
72.9326725173
 20
153.781420962
 30
0.0
 11
72.9326725173
 21
153.7729716332
 31
0.0
  0
LINE
  5
559
330
1F
100
AcDbEntity
  8
0
  6
Continuous
 62
     7
370
    30
100
AcDbLine
 10
73.4326725173
 20
153.078537936
 30
0.0
 11
80.4326725173
 21
153.078537936
 31
0.0
  0
LINE
  5
55A
330
1F
100
AcDbEntity
  8
0
  6
Continuous
 62
     7
370
    30
100
AcDbLine
 10
73.4326725173
 20
163.6389038513
 30
0.0
 11
72.9326725173
 21
163.0922538144
 31
0.0
  0
LINE
  5
55B
330
1F
100
AcDbEntity
  8
0
  6
Continuous
 62
     7
370
    30
100
AcDbLine
 10
73.4326725173
 20
163.6389038513
 30
0.0
 11
80.4326725173
 21
163.6389038513
 31
0.0
  0
LINE
  5
55C
330
1F
100
AcDbEntity
  8
0
  6
Continuous
 62
     7
370
    30
100
AcDbLine
 10
80.9326725173
 20
163.0922538144
 30
0.0
 11
80.4326725173
 21
163.6389038513
 31
0.0
  0
LINE
  5
55D
330
1F
100
AcDbEntity
  8
0
  6
Continuous
 62
     7
370
    30
100
AcDbLine
 10
80.9326725173
 20
163.0922538144
 30
0.0
 11
80.9326725173
 21
163.0845785458
 31
0.0
  0
LINE
  5
55E
330
1F
100
AcDbEntity
  8
0
  6
Continuous
 62
     7
370
    30
100
AcDbLine
 10
72.9326725173
 20
163.0922538144
 30
0.0
 11
72.9326725173
 21
163.0845785458
 31
0.0
  0
LINE
  5
55F
330
1F
100
AcDbEntity
  8
0
  6
Continuous
 62
     7
370
    30
100
AcDbLine
 10
72.9326725173
 20
163.4768489721
 30
0.0
 11
73.4326725173
 21
163.7796278725
 31
0.0
  0
LINE
  5
560
330
1F
100
AcDbEntity
  8
0
  6
Continuous
 62
     7
370
    30
100
AcDbLine
 10
73.4326725173
 20
163.7796278725
 30
0.0
 11
73.4326725173
 21
163.6389038513
 31
0.0
  0
LINE
  5
561
330
1F
100
AcDbEntity
  8
0
  6
Continuous
 62
     7
370
    30
100
AcDbLine
 10
72.9326725173
 20
163.0922538144
 30
0.0
 11
72.9326725173
 21
163.4768489721
 31
0.0
  0
LINE
  5
562
330
1F
100
AcDbEntity
  8
0
  6
Continuous
 62
     7
370
    30
100
AcDbLine
 10
80.4326725173
 20
163.6389038513
 30
0.0
 11
80.4326725173
 21
163.7796278725
 31
0.0
  0
LINE
  5
563
330
1F
100
AcDbEntity
  8
0
  6
Continuous
 62
     7
370
    30
100
AcDbLine
 10
80.4326725173
 20
163.7796278725
 30
0.0
 11
80.9326725173
 21
163.4768489721
 31
0.0
  0
LINE
  5
564
330
1F
100
AcDbEntity
  8
0
  6
Continuous
 62
     7
370
    30
100
AcDbLine
 10
80.9326725173
 20
163.4768489721
 30
0.0
 11
80.9326725173
 21
163.0922538144
 31
0.0
  0
LINE
  5
565
330
1F
100
AcDbEntity
  8
0
  6
Continuous
 62
     7
370
    30
100
AcDbLine
 10
80.4326725173
 20
163.7796278725
 30
0.0
 11
73.4326725173
 21
163.7796278725
 31
0.0
  0
LINE
  5
566
330
1F
100
AcDbEntity
  8
0
  6
Continuous
 62
     7
370
    30
100
AcDbLine
 10
72.9326725173
 20
153.3369705092
 30
0.0
 11
73.4326725173
 21
152.7868824627
 31
0.0
  0
LINE
  5
567
330
1F
100
AcDbEntity
  8
0
  6
Continuous
 62
     7
370
    30
100
AcDbLine
 10
73.4326725173
 20
152.7868824627
 30
0.0
 11
73.4326725173
 21
152.6549458018
 31
0.0
  0
LINE
  5
568
330
1F
100
AcDbEntity
  8
0
  6
Continuous
 62
     7
370
    30
100
AcDbLine
 10
73.4326725173
 20
152.6549458018
 30
0.0
 11
72.9326725173
 21
152.9763909826
 31
0.0
  0
LINE
  5
569
330
1F
100
AcDbEntity
  8
0
  6
Continuous
 62
     7
370
    30
100
AcDbLine
 10
72.9326725173
 20
152.9763909826
 30
0.0
 11
72.9326725173
 21
153.3369705092
 31
0.0
  0
LINE
  5
56A
330
1F
100
AcDbEntity
  8
0
  6
Continuous
 62
     7
370
    30
100
AcDbLine
 10
80.4326725173
 20
152.6549458018
 30
0.0
 11
80.4326725173
 21
152.7868824627
 31
0.0
  0
LINE
  5
56B
330
1F
100
AcDbEntity
  8
0
  6
Continuous
 62
     7
370
    30
100
AcDbLine
 10
80.4326725173
 20
152.7868824627
 30
0.0
 11
80.9326725173
 21
153.3369705092
 31
0.0
  0
LINE
  5
56C
330
1F
100
AcDbEntity
  8
0
  6
Continuous
 62
     7
370
    30
100
AcDbLine
 10
80.9326725173
 20
152.9763909826
 30
0.0
 11
80.4326725173
 21
152.6549458018
 31
0.0
  0
LINE
  5
56D
330
1F
100
AcDbEntity
  8
0
  6
Continuous
 62
     7
370
    30
100
AcDbLine
 10
80.9326725173
 20
153.3369705092
 30
0.0
 11
80.9326725173
 21
152.9763909826
 31
0.0
  0
LINE
  5
56E
330
1F
100
AcDbEntity
  8
0
  6
Continuous
 62
     7
370
    30
100
AcDbLine
 10
80.4326725173
 20
152.7868824627
 30
0.0
 11
73.4326725173
 21
152.7868824627
 31
0.0
  0
LINE
  5
56F
330
1F
100
AcDbEntity
  8
0
  6
Continuous
 62
     7
370
    30
100
AcDbLine
 10
80.9326725173
 20
153.3442225111
 30
0.0
 11
80.9326725173
 21
153.3369705092
 31
0.0
  0
LINE
  5
570
330
1F
100
AcDbEntity
  8
0
  6
Continuous
 62
     7
370
    30
100
AcDbLine
 10
72.9326725173
 20
153.3442225111
 30
0.0
 11
72.9326725173
 21
153.3369705092
 31
0.0
  0
LINE
  5
571
330
1F
100
AcDbEntity
  8
0
  6
Continuous
 62
     7
370
    30
100
AcDbLine
 10
73.4326725173
 20
152.6549458018
 30
0.0
 11
80.4326725173
 21
152.6549458018
 31
0.0
  0
LINE
  5
572
330
1F
100
AcDbEntity
  8
0
  6
Continuous
 62
     7
370
    30
100
AcDbLine
 10
73.4326725173
 20
164.037383703
 30
0.0
 11
72.9326725173
 21
163.4832580607
 31
0.0
  0
LINE
  5
573
330
1F
100
AcDbEntity
  8
0
  6
Continuous
 62
     7
370
    30
100
AcDbLine
 10
73.4326725173
 20
164.037383703
 30
0.0
 11
80.4326725173
 21
164.037383703
 31
0.0
  0
LINE
  5
574
330
1F
100
AcDbEntity
  8
0
  6
Continuous
 62
     7
370
    30
100
AcDbLine
 10
80.9326725173
 20
163.4832580607
 30
0.0
 11
80.4326725173
 21
164.037383703
 31
0.0
  0
LINE
  5
575
330
1F
100
AcDbEntity
  8
0
  6
Continuous
 62
     7
370
    30
100
AcDbLine
 10
80.9326725173
 20
163.4832580607
 30
0.0
 11
80.9326725173
 21
163.4768489721
 31
0.0
  0
LINE
  5
576
330
1F
100
AcDbEntity
  8
0
  6
Continuous
 62
     7
370
    30
100
AcDbLine
 10
72.9326725173
 20
163.4832580607
 30
0.0
 11
72.9326725173
 21
163.4768489721
 31
0.0
  0
LINE
  5
577
330
1F
100
AcDbEntity
  8
0
  6
Continuous
 62
     7
370
    30
100
AcDbLine
 10
72.9326725173
 20
163.7962464563
 30
0.0
 11
73.4326725173
 21
164.1519066884
 31
0.0
  0
LINE
  5
578
330
1F
100
AcDbEntity
  8
0
  6
Continuous
 62
     7
370
    30
100
AcDbLine
 10
73.4326725173
 20
164.1519066884
 30
0.0
 11
73.4326725173
 21
164.037383703
 31
0.0
  0
LINE
  5
579
330
1F
100
AcDbEntity
  8
0
  6
Continuous
 62
     7
370
    30
100
AcDbLine
 10
72.9326725173
 20
163.4832580607
 30
0.0
 11
72.9326725173
 21
163.7962464563
 31
0.0
  0
LINE
  5
57A
330
1F
100
AcDbEntity
  8
0
  6
Continuous
 62
     7
370
    30
100
AcDbLine
 10
80.4326725173
 20
164.037383703
 30
0.0
 11
80.4326725173
 21
164.1519066884
 31
0.0
  0
LINE
  5
57B
330
1F
100
AcDbEntity
  8
0
  6
Continuous
 62
     7
370
    30
100
AcDbLine
 10
80.4326725173
 20
164.1519066884
 30
0.0
 11
80.9326725173
 21
163.7962464563
 31
0.0
  0
LINE
  5
57C
330
1F
100
AcDbEntity
  8
0
  6
Continuous
 62
     7
370
    30
100
AcDbLine
 10
80.9326725173
 20
163.7962464563
 30
0.0
 11
80.9326725173
 21
163.4832580607
 31
0.0
  0
LINE
  5
57D
330
1F
100
AcDbEntity
  8
0
  6
Continuous
 62
     7
370
    30
100
AcDbLine
 10
80.4326725173
 20
164.1519066884
 30
0.0
 11
73.4326725173
 21
164.1519066884
 31
0.0
  0
LINE
  5
57E
330
1F
100
AcDbEntity
  8
0
  6
Continuous
 62
     7
370
    30
100
AcDbLine
 10
72.9326725173
 20
152.9704381099
 30
0.0
 11
73.4326725173
 21
152.4155377128
 31
0.0
  0
LINE
  5
57F
330
1F
100
AcDbEntity
  8
0
  6
Continuous
 62
     7
370
    30
100
AcDbLine
 10
73.4326725173
 20
152.4155377128
 30
0.0
 11
73.4326725173
 21
152.3103965241
 31
0.0
  0
LINE
  5
580
330
1F
100
AcDbEntity
  8
0
  6
Continuous
 62
     7
370
    30
100
AcDbLine
 10
73.4326725173
 20
152.3103965241
 30
0.0
 11
72.9326725173
 21
152.6830899249
 31
0.0
  0
LINE
  5
581
330
1F
100
AcDbEntity
  8
0
  6
Continuous
 62
     7
370
    30
100
AcDbLine
 10
72.9326725173
 20
152.6830899249
 30
0.0
 11
72.9326725173
 21
152.9704381099
 31
0.0
  0
LINE
  5
582
330
1F
100
AcDbEntity
  8
0
  6
Continuous
 62
     7
370
    30
100
AcDbLine
 10
80.4326725173
 20
152.3103965241
 30
0.0
 11
80.4326725173
 21
152.4155377128
 31
0.0
  0
LINE
  5
583
330
1F
100
AcDbEntity
  8
0
  6
Continuous
 62
     7
370
    30
100
AcDbLine
 10
80.4326725173
 20
152.4155377128
 30
0.0
 11
80.9326725173
 21
152.9704381099
 31
0.0
  0
LINE
  5
584
330
1F
100
AcDbEntity
  8
0
  6
Continuous
 62
     7
370
    30
100
AcDbLine
 10
80.9326725173
 20
152.6830899249
 30
0.0
 11
80.4326725173
 21
152.3103965241
 31
0.0
  0
LINE
  5
585
330
1F
100
AcDbEntity
  8
0
  6
Continuous
 62
     7
370
    30
100
AcDbLine
 10
80.9326725173
 20
152.9704381099
 30
0.0
 11
80.9326725173
 21
152.6830899249
 31
0.0
  0
LINE
  5
586
330
1F
100
AcDbEntity
  8
0
  6
Continuous
 62
     7
370
    30
100
AcDbLine
 10
80.4326725173
 20
152.4155377128
 30
0.0
 11
73.4326725173
 21
152.4155377128
 31
0.0
  0
LINE
  5
587
330
1F
100
AcDbEntity
  8
0
  6
Continuous
 62
     7
370
    30
100
AcDbLine
 10
80.9326725173
 20
152.9763909826
 30
0.0
 11
80.9326725173
 21
152.9704381099
 31
0.0
  0
LINE
  5
588
330
1F
100
AcDbEntity
  8
0
  6
Continuous
 62
     7
370
    30
100
AcDbLine
 10
72.9326725173
 20
152.9763909826
 30
0.0
 11
72.9326725173
 21
152.9704381099
 31
0.0
  0
LINE
  5
589
330
1F
100
AcDbEntity
  8
0
  6
Continuous
 62
     7
370
    30
100
AcDbLine
 10
73.4326725173
 20
152.3103965241
 30
0.0
 11
80.4326725173
 21
152.3103965241
 31
0.0
  0
LINE
  5
58A
330
1F
100
AcDbEntity
  8
0
  6
Continuous
 62
     7
370
    30
100
AcDbLine
 10
73.4326725173
 20
164.3551219337
 30
0.0
 11
72.9326725173
 21
163.8012993955
 31
0.0
  0
LINE
  5
58B
330
1F
100
AcDbEntity
  8
0
  6
Continuous
 62
     7
370
    30
100
AcDbLine
 10
73.4326725173
 20
164.3551219337
 30
0.0
 11
80.4326725173
 21
164.3551219337
 31
0.0
  0
LINE
  5
58C
330
1F
100
AcDbEntity
  8
0
  6
Continuous
 62
     7
370
    30
100
AcDbLine
 10
80.9326725173
 20
163.8012993955
 30
0.0
 11
80.4326725173
 21
164.3551219337
 31
0.0
  0
LINE
  5
58D
330
1F
100
AcDbEntity
  8
0
  6
Continuous
 62
     7
370
    30
100
AcDbLine
 10
80.9326725173
 20
163.8012993955
 30
0.0
 11
80.9326725173
 21
163.7962464563
 31
0.0
  0
LINE
  5
58E
330
1F
100
AcDbEntity
  8
0
  6
Continuous
 62
     7
370
    30
100
AcDbLine
 10
72.9326725173
 20
163.8012993955
 30
0.0
 11
72.9326725173
 21
163.7962464563
 31
0.0
  0
LINE
  5
58F
330
1F
100
AcDbEntity
  8
0
  6
Continuous
 62
     7
370
    30
100
AcDbLine
 10
72.9326725173
 20
164.0382873579
 30
0.0
 11
73.4326725173
 21
164.4418362315
 31
0.0
  0
LINE
  5
590
330
1F
100
AcDbEntity
  8
0
  6
Continuous
 62
     7
370
    30
100
AcDbLine
 10
73.4326725173
 20
164.4418362315
 30
0.0
 11
73.4326725173
 21
164.3551219337
 31
0.0
  0
LINE
  5
591
330
1F
100
AcDbEntity
  8
0
  6
Continuous
 62
     7
370
    30
100
AcDbLine
 10
72.9326725173
 20
163.8012993955
 30
0.0
 11
72.9326725173
 21
164.0382873579
 31
0.0
  0
LINE
  5
592
330
1F
100
AcDbEntity
  8
0
  6
Continuous
 62
     7
370
    30
100
AcDbLine
 10
80.4326725173
 20
164.3551219337
 30
0.0
 11
80.4326725173
 21
164.4418362315
 31
0.0
  0
LINE
  5
593
330
1F
100
AcDbEntity
  8
0
  6
Continuous
 62
     7
370
    30
100
AcDbLine
 10
80.4326725173
 20
164.4418362315
 30
0.0
 11
80.9326725173
 21
164.0382873579
 31
0.0
  0
LINE
  5
594
330
1F
100
AcDbEntity
  8
0
  6
Continuous
 62
     7
370
    30
100
AcDbLine
 10
80.9326725173
 20
164.0382873579
 30
0.0
 11
80.9326725173
 21
163.8012993955
 31
0.0
  0
LINE
  5
595
330
1F
100
AcDbEntity
  8
0
  6
Continuous
 62
     7
370
    30
100
AcDbLine
 10
80.4326725173
 20
164.4418362315
 30
0.0
 11
73.4326725173
 21
164.4418362315
 31
0.0
  0
LINE
  5
596
330
1F
100
AcDbEntity
  8
0
  6
Continuous
 62
     7
370
    30
100
AcDbLine
 10
80.4326725173
 20
152.1265965842
 30
0.0
 11
73.4326725173
 21
152.1265965842
 31
0.0
  0
LINE
  5
597
330
1F
100
AcDbEntity
  8
0
  6
Continuous
 62
     7
370
    30
100
AcDbLine
 10
72.9326725173
 20
152.6785197466
 30
0.0
 11
73.4326725173
 21
152.1265965842
 31
0.0
  0
LINE
  5
598
330
1F
100
AcDbEntity
  8
0
  6
Continuous
 62
     7
370
    30
100
AcDbLine
 10
80.4326725173
 20
152.1265965842
 30
0.0
 11
80.9326725173
 21
152.6785197466
 31
0.0
  0
LINE
  5
599
330
1F
100
AcDbEntity
  8
0
  6
Continuous
 62
     7
370
    30
100
AcDbLine
 10
80.9326725173
 20
152.6830899249
 30
0.0
 11
80.9326725173
 21
152.6785197466
 31
0.0
  0
LINE
  5
59A
330
1F
100
AcDbEntity
  8
0
  6
Continuous
 62
     7
370
    30
100
AcDbLine
 10
72.9326725173
 20
152.6830899249
 30
0.0
 11
72.9326725173
 21
152.6785197466
 31
0.0
  0
LINE
  5
59B
330
1F
100
AcDbEntity
  8
0
  6
Continuous
 62
     7
370
    30
100
AcDbLine
 10
73.4326725173
 20
152.1265965842
 30
0.0
 11
73.4326725173
 21
152.0497268196
 31
0.0
  0
LINE
  5
59C
330
1F
100
AcDbEntity
  8
0
  6
Continuous
 62
     7
370
    30
100
AcDbLine
 10
73.4326725173
 20
152.0497268196
 30
0.0
 11
72.9326725173
 21
152.468436642
 31
0.0
  0
LINE
  5
59D
330
1F
100
AcDbEntity
  8
0
  6
Continuous
 62
     7
370
    30
100
AcDbLine
 10
72.9326725173
 20
152.468436642
 30
0.0
 11
72.9326725173
 21
152.6785197466
 31
0.0
  0
LINE
  5
59E
330
1F
100
AcDbEntity
  8
0
  6
Continuous
 62
     7
370
    30
100
AcDbLine
 10
80.4326725173
 20
152.0497268196
 30
0.0
 11
80.4326725173
 21
152.1265965842
 31
0.0
  0
LINE
  5
59F
330
1F
100
AcDbEntity
  8
0
  6
Continuous
 62
     7
370
    30
100
AcDbLine
 10
80.9326725173
 20
152.468436642
 30
0.0
 11
80.4326725173
 21
152.0497268196
 31
0.0
  0
LINE
  5
5A0
330
1F
100
AcDbEntity
  8
0
  6
Continuous
 62
     7
370
    30
100
AcDbLine
 10
80.9326725173
 20
152.6785197466
 30
0.0
 11
80.9326725173
 21
152.468436642
 31
0.0
  0
LINE
  5
5A1
330
1F
100
AcDbEntity
  8
0
  6
Continuous
 62
     7
370
    30
100
AcDbLine
 10
73.4326725173
 20
152.0497268196
 30
0.0
 11
80.4326725173
 21
152.0497268196
 31
0.0
  0
LINE
  5
5A2
330
1F
100
AcDbEntity
  8
0
  6
Continuous
 62
     7
370
    30
100
AcDbLine
 10
73.4326725173
 20
164.5876581951
 30
0.0
 11
72.9326725173
 21
164.0419132154
 31
0.0
  0
LINE
  5
5A3
330
1F
100
AcDbEntity
  8
0
  6
Continuous
 62
     7
370
    30
100
AcDbLine
 10
73.4326725173
 20
164.5876581951
 30
0.0
 11
80.4326725173
 21
164.5876581951
 31
0.0
  0
LINE
  5
5A4
330
1F
100
AcDbEntity
  8
0
  6
Continuous
 62
     7
370
    30
100
AcDbLine
 10
80.9326725173
 20
164.0419132154
 30
0.0
 11
80.4326725173
 21
164.5876581951
 31
0.0
  0
LINE
  5
5A5
330
1F
100
AcDbEntity
  8
0
  6
Continuous
 62
     7
370
    30
100
AcDbLine
 10
80.9326725173
 20
164.0419132154
 30
0.0
 11
80.9326725173
 21
164.0382873579
 31
0.0
  0
LINE
  5
5A6
330
1F
100
AcDbEntity
  8
0
  6
Continuous
 62
     7
370
    30
100
AcDbLine
 10
72.9326725173
 20
164.0419132154
 30
0.0
 11
72.9326725173
 21
164.0382873579
 31
0.0
  0
LINE
  5
5A7
330
1F
100
AcDbEntity
  8
0
  6
Continuous
 62
     7
370
    30
100
AcDbLine
 10
72.9326725173
 20
164.1995739532
 30
0.0
 11
73.4326725173
 21
164.6453465268
 31
0.0
  0
LINE
  5
5A8
330
1F
100
AcDbEntity
  8
0
  6
Continuous
 62
     7
370
    30
100
AcDbLine
 10
73.4326725173
 20
164.6453465268
 30
0.0
 11
73.4326725173
 21
164.5876581951
 31
0.0
  0
LINE
  5
5A9
330
1F
100
AcDbEntity
  8
0
  6
Continuous
 62
     7
370
    30
100
AcDbLine
 10
72.9326725173
 20
164.0419132154
 30
0.0
 11
72.9326725173
 21
164.1995739532
 31
0.0
  0
LINE
  5
5AA
330
1F
100
AcDbEntity
  8
0
  6
Continuous
 62
     7
370
    30
100
AcDbLine
 10
80.4326725173
 20
164.5876581951
 30
0.0
 11
80.4326725173
 21
164.6453465268
 31
0.0
  0
LINE
  5
5AB
330
1F
100
AcDbEntity
  8
0
  6
Continuous
 62
     7
370
    30
100
AcDbLine
 10
80.4326725173
 20
164.6453465268
 30
0.0
 11
80.9326725173
 21
164.1995739532
 31
0.0
  0
LINE
  5
5AC
330
1F
100
AcDbEntity
  8
0
  6
Continuous
 62
     7
370
    30
100
AcDbLine
 10
80.9326725173
 20
164.1995739532
 30
0.0
 11
80.9326725173
 21
164.0419132154
 31
0.0
  0
LINE
  5
5AD
330
1F
100
AcDbEntity
  8
0
  6
Continuous
 62
     7
370
    30
100
AcDbLine
 10
80.4326725173
 20
151.924115177
 30
0.0
 11
73.4326725173
 21
151.924115177
 31
0.0
  0
LINE
  5
5AE
330
1F
100
AcDbEntity
  8
0
  6
Continuous
 62
     7
370
    30
100
AcDbLine
 10
72.9326725173
 20
152.4653133135
 30
0.0
 11
73.4326725173
 21
151.924115177
 31
0.0
  0
LINE
  5
5AF
330
1F
100
AcDbEntity
  8
0
  6
Continuous
 62
     7
370
    30
100
AcDbLine
 10
80.4326725173
 20
151.924115177
 30
0.0
 11
80.9326725173
 21
152.4653133135
 31
0.0
  0
LINE
  5
5B0
330
1F
100
AcDbEntity
  8
0
  6
Continuous
 62
     7
370
    30
100
AcDbLine
 10
80.9326725173
 20
152.468436642
 30
0.0
 11
80.9326725173
 21
152.4653133135
 31
0.0
  0
LINE
  5
5B1
330
1F
100
AcDbEntity
  8
0
  6
Continuous
 62
     7
370
    30
100
AcDbLine
 10
72.9326725173
 20
152.468436642
 30
0.0
 11
72.9326725173
 21
152.4653133135
 31
0.0
  0
LINE
  5
5B2
330
1F
100
AcDbEntity
  8
0
  6
Continuous
 62
     7
370
    30
100
AcDbLine
 10
73.4326725173
 20
151.924115177
 30
0.0
 11
73.4326725173
 21
151.8765959194
 31
0.0
  0
LINE
  5
5B3
330
1F
100
AcDbEntity
  8
0
  6
Continuous
 62
     7
370
    30
100
AcDbLine
 10
73.4326725173
 20
151.8765959194
 30
0.0
 11
72.9326725173
 21
152.3354443954
 31
0.0
  0
LINE
  5
5B4
330
1F
100
AcDbEntity
  8
0
  6
Continuous
 62
     7
370
    30
100
AcDbLine
 10
72.9326725173
 20
152.3354443954
 30
0.0
 11
72.9326725173
 21
152.4653133135
 31
0.0
  0
LINE
  5
5B5
330
1F
100
AcDbEntity
  8
0
  6
Continuous
 62
     7
370
    30
100
AcDbLine
 10
80.4326725173
 20
151.8765959194
 30
0.0
 11
80.4326725173
 21
151.924115177
 31
0.0
  0
LINE
  5
5B6
330
1F
100
AcDbEntity
  8
0
  6
Continuous
 62
     7
370
    30
100
AcDbLine
 10
80.9326725173
 20
152.3354443954
 30
0.0
 11
80.4326725173
 21
151.8765959194
 31
0.0
  0
LINE
  5
5B7
330
1F
100
AcDbEntity
  8
0
  6
Continuous
 62
     7
370
    30
100
AcDbLine
 10
80.9326725173
 20
152.4653133135
 30
0.0
 11
80.9326725173
 21
152.3354443954
 31
0.0
  0
LINE
  5
5B8
330
1F
100
AcDbEntity
  8
0
  6
Continuous
 62
     7
370
    30
100
AcDbLine
 10
80.4326725173
 20
164.6453465268
 30
0.0
 11
73.4326725173
 21
164.6453465268
 31
0.0
  0
LINE
  5
5B9
330
1F
100
AcDbEntity
  8
0
  6
Continuous
 62
     7
370
    30
100
AcDbLine
 10
73.4326725173
 20
151.8765959194
 30
0.0
 11
80.4326725173
 21
151.8765959194
 31
0.0
  0
LINE
  5
5BA
330
1F
100
AcDbEntity
  8
0
  6
Continuous
 62
     7
370
    30
100
AcDbLine
 10
73.4326725173
 20
164.7317281879
 30
0.0
 11
72.9326725173
 21
164.2017218298
 31
0.0
  0
LINE
  5
5BB
330
1F
100
AcDbEntity
  8
0
  6
Continuous
 62
     7
370
    30
100
AcDbLine
 10
73.4326725173
 20
164.7317281879
 30
0.0
 11
80.4326725173
 21
164.7317281879
 31
0.0
  0
LINE
  5
5BC
330
1F
100
AcDbEntity
  8
0
  6
Continuous
 62
     7
370
    30
100
AcDbLine
 10
80.9326725173
 20
164.2017218298
 30
0.0
 11
80.4326725173
 21
164.7317281879
 31
0.0
  0
LINE
  5
5BD
330
1F
100
AcDbEntity
  8
0
  6
Continuous
 62
     7
370
    30
100
AcDbLine
 10
80.9326725173
 20
164.2017218298
 30
0.0
 11
80.9326725173
 21
164.1995739532
 31
0.0
  0
LINE
  5
5BE
330
1F
100
AcDbEntity
  8
0
  6
Continuous
 62
     7
370
    30
100
AcDbLine
 10
72.9326725173
 20
164.2017218298
 30
0.0
 11
72.9326725173
 21
164.1995739532
 31
0.0
  0
LINE
  5
5BF
330
1F
100
AcDbEntity
  8
0
  6
Continuous
 62
     7
370
    30
100
AcDbLine
 10
72.9326725173
 20
164.2778421319
 30
0.0
 11
73.4326725173
 21
164.7595807357
 31
0.0
  0
LINE
  5
5C0
330
1F
100
AcDbEntity
  8
0
  6
Continuous
 62
     7
370
    30
100
AcDbLine
 10
73.4326725173
 20
164.7595807357
 30
0.0
 11
73.4326725173
 21
164.7317281879
 31
0.0
  0
LINE
  5
5C1
330
1F
100
AcDbEntity
  8
0
  6
Continuous
 62
     7
370
    30
100
AcDbLine
 10
72.9326725173
 20
164.2017218298
 30
0.0
 11
72.9326725173
 21
164.2778421319
 31
0.0
  0
LINE
  5
5C2
330
1F
100
AcDbEntity
  8
0
  6
Continuous
 62
     7
370
    30
100
AcDbLine
 10
80.4326725173
 20
164.7317281879
 30
0.0
 11
80.4326725173
 21
164.7595807357
 31
0.0
  0
LINE
  5
5C3
330
1F
100
AcDbEntity
  8
0
  6
Continuous
 62
     7
370
    30
100
AcDbLine
 10
80.4326725173
 20
164.7595807357
 30
0.0
 11
80.9326725173
 21
164.2778421319
 31
0.0
  0
LINE
  5
5C4
330
1F
100
AcDbEntity
  8
0
  6
Continuous
 62
     7
370
    30
100
AcDbLine
 10
80.9326725173
 20
164.2778421319
 30
0.0
 11
80.9326725173
 21
164.2017218298
 31
0.0
  0
LINE
  5
5C5
330
1F
100
AcDbEntity
  8
0
  6
Continuous
 62
     7
370
    30
100
AcDbLine
 10
80.4326725173
 20
151.8109358864
 30
0.0
 11
73.4326725173
 21
151.8109358864
 31
0.0
  0
LINE
  5
5C6
330
1F
100
AcDbEntity
  8
0
  6
Continuous
 62
     7
370
    30
100
AcDbLine
 10
72.9326725173
 20
152.3338117613
 30
0.0
 11
73.4326725173
 21
151.8109358864
 31
0.0
  0
LINE
  5
5C7
330
1F
100
AcDbEntity
  8
0
  6
Continuous
 62
     7
370
    30
100
AcDbLine
 10
80.4326725173
 20
151.8109358864
 30
0.0
 11
80.9326725173
 21
152.3338117613
 31
0.0
  0
LINE
  5
5C8
330
1F
100
AcDbEntity
  8
0
  6
Continuous
 62
     7
370
    30
100
AcDbLine
 10
80.9326725173
 20
152.3354443954
 30
0.0
 11
80.9326725173
 21
152.3338117613
 31
0.0
  0
LINE
  5
5C9
330
1F
100
AcDbEntity
  8
0
  6
Continuous
 62
     7
370
    30
100
AcDbLine
 10
72.9326725173
 20
152.3354443954
 30
0.0
 11
72.9326725173
 21
152.3338117613
 31
0.0
  0
LINE
  5
5CA
330
1F
100
AcDbEntity
  8
0
  6
Continuous
 62
     7
370
    30
100
AcDbLine
 10
73.4326725173
 20
151.8109358864
 30
0.0
 11
73.4326725173
 21
151.793434202
 31
0.0
  0
LINE
  5
5CB
330
1F
100
AcDbEntity
  8
0
  6
Continuous
 62
     7
370
    30
100
AcDbLine
 10
73.4326725173
 20
151.793434202
 30
0.0
 11
72.9326725173
 21
152.2859801047
 31
0.0
  0
LINE
  5
5CC
330
1F
100
AcDbEntity
  8
0
  6
Continuous
 62
     7
370
    30
100
AcDbLine
 10
72.9326725173
 20
152.2859801047
 30
0.0
 11
72.9326725173
 21
152.3338117613
 31
0.0
  0
LINE
  5
5CD
330
1F
100
AcDbEntity
  8
0
  6
Continuous
 62
     7
370
    30
100
AcDbLine
 10
80.4326725173
 20
151.793434202
 30
0.0
 11
80.4326725173
 21
151.8109358864
 31
0.0
  0
LINE
  5
5CE
330
1F
100
AcDbEntity
  8
0
  6
Continuous
 62
     7
370
    30
100
AcDbLine
 10
80.9326725173
 20
152.2859801047
 30
0.0
 11
80.4326725173
 21
151.793434202
 31
0.0
  0
LINE
  5
5CF
330
1F
100
AcDbEntity
  8
0
  6
Continuous
 62
     7
370
    30
100
AcDbLine
 10
80.9326725173
 20
152.3338117613
 30
0.0
 11
80.9326725173
 21
152.2859801047
 31
0.0
  0
LINE
  5
5D0
330
1F
100
AcDbEntity
  8
0
  6
Continuous
 62
     7
370
    30
100
AcDbLine
 10
80.4326725173
 20
164.7595807357
 30
0.0
 11
73.4326725173
 21
164.7595807357
 31
0.0
  0
LINE
  5
5D1
330
1F
100
AcDbEntity
  8
0
  6
Continuous
 62
     7
370
    30
100
AcDbLine
 10
73.4326725173
 20
151.793434202
 30
0.0
 11
80.4326725173
 21
151.793434202
 31
0.0
  0
LINE
  5
5D2
330
1F
100
AcDbEntity
  8
0
  6
Continuous
 62
     7
370
    30
100
AcDbLine
 10
73.4326725173
 20
164.7853094852
 30
0.0
 11
72.9326725173
 21
164.2784818763
 31
0.0
  0
LINE
  5
5D3
330
1F
100
AcDbEntity
  8
0
  6
Continuous
 62
     7
370
    30
100
AcDbLine
 10
73.4326725173
 20
164.7853094852
 30
0.0
 11
80.4326725173
 21
164.7853094852
 31
0.0
  0
LINE
  5
5D4
330
1F
100
AcDbEntity
  8
0
  6
Continuous
 62
     7
370
    30
100
AcDbLine
 10
80.9326725173
 20
164.2784818763
 30
0.0
 11
80.4326725173
 21
164.7853094852
 31
0.0
  0
LINE
  5
5D5
330
1F
100
AcDbEntity
  8
0
  6
Continuous
 62
     7
370
    30
100
AcDbLine
 10
80.9326725173
 20
164.2784818763
 30
0.0
 11
80.9326725173
 21
164.2778421319
 31
0.0
  0
LINE
  5
5D6
330
1F
100
AcDbEntity
  8
0
  6
Continuous
 62
     7
370
    30
100
AcDbLine
 10
72.9326725173
 20
164.2784818763
 30
0.0
 11
72.9326725173
 21
164.2778421319
 31
0.0
  0
LINE
  5
5D7
330
1F
100
AcDbEntity
  8
0
  6
Continuous
 62
     7
370
    30
100
AcDbLine
 10
73.4326725173
 20
164.7856579962
 30
0.0
 11
73.4326725173
 21
164.7853094852
 31
0.0
  0
LINE
  5
5D8
330
1F
100
AcDbEntity
  8
0
  6
Continuous
 62
     7
370
    30
100
AcDbLine
 10
72.9326725173
 20
164.2784818763
 30
0.0
 11
72.9326725173
 21
164.2856579962
 31
0.0
  0
LINE
  5
5D9
330
1F
100
AcDbEntity
  8
0
  6
Continuous
 62
     7
370
    30
100
AcDbLine
 10
80.4326725173
 20
164.7853094852
 30
0.0
 11
80.4326725173
 21
164.7856579962
 31
0.0
  0
LINE
  5
5DA
330
1F
100
AcDbEntity
  8
0
  6
Continuous
 62
     7
370
    30
100
AcDbLine
 10
80.9326725173
 20
164.2856579962
 30
0.0
 11
80.9326725173
 21
164.2784818763
 31
0.0
  0
LINE
  5
5DB
330
1F
100
AcDbEntity
  8
0
  6
Continuous
 62
     7
370
    30
100
AcDbLine
 10
80.4326725173
 20
151.7886475013
 30
0.0
 11
73.4326725173
 21
151.7886475013
 31
0.0
  0
LINE
  5
5DC
330
1F
100
AcDbEntity
  8
0
  6
Continuous
 62
     7
370
    30
100
AcDbLine
 10
72.9326725173
 20
152.2858610836
 30
0.0
 11
73.4326725173
 21
151.7886475013
 31
0.0
  0
LINE
  5
5DD
330
1F
100
AcDbEntity
  8
0
  6
Continuous
 62
     7
370
    30
100
AcDbLine
 10
80.4326725173
 20
151.7886475013
 30
0.0
 11
80.9326725173
 21
152.2858610836
 31
0.0
  0
LINE
  5
5DE
330
1F
100
AcDbEntity
  8
0
  6
Continuous
 62
     7
370
    30
100
AcDbLine
 10
80.9326725173
 20
152.2859801047
 30
0.0
 11
80.9326725173
 21
152.2858610836
 31
0.0
  0
LINE
  5
5DF
330
1F
100
AcDbEntity
  8
0
  6
Continuous
 62
     7
370
    30
100
AcDbLine
 10
72.9326725173
 20
152.2859801047
 30
0.0
 11
72.9326725173
 21
152.2858610836
 31
0.0
  0
LINE
  5
5E0
330
1F
100
AcDbEntity
  8
0
  6
Continuous
 62
     7
370
    30
100
AcDbLine
 10
84.565418235
 20
174.5530264662
 30
0.0
 11
83.4326725173
 21
174.5530264662
 31
0.0
  0
LINE
  5
5E1
330
1F
100
AcDbEntity
  8
0
  6
Continuous
 62
     7
370
    30
100
AcDbLine
 10
91.4326725173
 20
174.5530264662
 30
0.0
 11
84.565418235
 21
174.5530264662
 31
0.0
  0
LINE
  5
5E2
330
1F
100
AcDbEntity
  8
0
  6
Continuous
 62
     7
370
    30
100
AcDbLine
 10
86.4326725173
 20
160.2856579962
 30
0.0
 11
86.4326725173
 21
152.2856579962
 31
0.0
  0
LINE
  5
5E3
330
1F
100
AcDbEntity
  8
0
  6
Continuous
 62
     7
370
    30
100
AcDbLine
 10
86.4326725173
 20
152.2856579962
 30
0.0
 11
81.4326725173
 21
152.2856579962
 31
0.0
  0
LINE
  5
5E4
330
1F
100
AcDbEntity
  8
0
  6
Continuous
 62
     7
370
    30
100
AcDbLine
 10
81.4326725173
 20
152.2856579962
 30
0.0
 11
81.4326725173
 21
160.2856579962
 31
0.0
  0
LINE
  5
5E5
330
1F
100
AcDbEntity
  8
0
  6
Continuous
 62
     7
370
    30
100
AcDbLine
 10
81.4326725173
 20
160.2856579962
 30
0.0
 11
86.4326725173
 21
160.2856579962
 31
0.0
  0
LINE
  5
5E6
330
1F
100
AcDbEntity
  8
0
  6
Continuous
 62
     7
370
    30
100
AcDbLine
 10
88.4326725173
 20
152.2856579962
 30
0.0
 11
88.4326725173
 21
160.2856579962
 31
0.0
  0
LINE
  5
5E7
330
1F
100
AcDbEntity
  8
0
  6
Continuous
 62
     7
370
    30
100
AcDbLine
 10
88.4326725173
 20
152.2856579962
 30
0.0
 11
86.4326725173
 21
152.2856579962
 31
0.0
  0
LINE
  5
5E8
330
1F
100
AcDbEntity
  8
0
  6
Continuous
 62
     7
370
    30
100
AcDbLine
 10
88.4326725173
 20
160.2856579962
 30
0.0
 11
86.4326725173
 21
160.2856579962
 31
0.0
  0
LINE
  5
5E9
330
1F
100
AcDbEntity
  8
0
  6
Continuous
 62
     7
370
    30
100
AcDbLine
 10
93.4326725173
 20
160.2856579962
 30
0.0
 11
93.4326725173
 21
152.2856579962
 31
0.0
  0
LINE
  5
5EA
330
1F
100
AcDbEntity
  8
0
  6
Continuous
 62
     7
370
    30
100
AcDbLine
 10
93.4326725173
 20
152.2856579962
 30
0.0
 11
88.4326725173
 21
152.2856579962
 31
0.0
  0
LINE
  5
5EB
330
1F
100
AcDbEntity
  8
0
  6
Continuous
 62
     7
370
    30
100
AcDbLine
 10
88.4326725173
 20
160.2856579962
 30
0.0
 11
93.4326725173
 21
160.2856579962
 31
0.0
  0
LINE
  5
5EC
330
1F
100
AcDbEntity
  8
0
  6
Continuous
 62
     7
370
    30
100
AcDbLine
 10
93.4326725173
 20
164.2856579962
 30
0.0
 11
81.4326725173
 21
164.2856579962
 31
0.0
  0
LINE
  5
5ED
330
1F
100
AcDbEntity
  8
0
  6
Continuous
 62
     7
370
    30
100
AcDbLine
 10
93.4326725173
 20
164.2856579962
 30
0.0
 11
93.4326725173
 21
160.2856579962
 31
0.0
  0
LINE
  5
5EE
330
1F
100
AcDbEntity
  8
0
  6
Continuous
 62
     7
370
    30
100
AcDbLine
 10
81.4326725173
 20
164.2856579962
 30
0.0
 11
81.4326725173
 21
160.2856579962
 31
0.0
  0
LINE
  5
5EF
330
1F
100
AcDbEntity
  8
0
  6
Continuous
 62
     7
370
    30
100
AcDbLine
 10
62.4326725173
 20
104.5530264662
 30
0.0
 11
62.4326725173
 21
82.5530264662
 31
0.0
  0
LINE
  5
5F0
330
1F
100
AcDbEntity
  8
0
  6
Continuous
 62
     7
370
    30
100
AcDbLine
 10
112.4326725173
 20
104.5530264662
 30
0.0
 11
112.4326725173
 21
82.5530264662
 31
0.0
  0
LINE
  5
5F1
330
1F
100
AcDbEntity
  8
0
  6
Continuous
 62
     7
370
    30
100
AcDbLine
 10
62.4326725173
 20
82.5530264662
 30
0.0
 11
112.4326725173
 21
82.5530264662
 31
0.0
  0
CIRCLE
  5
5F2
330
1F
100
AcDbEntity
  8
0
  6
Continuous
 62
     7
370
    30
100
AcDbCircle
 10
74.9326725173
 20
94.4530264662
 30
0.0
 40
5.499999999999986
  0
CIRCLE
  5
5F3
330
1F
100
AcDbEntity
  8
0
  6
Continuous
 62
     7
370
    30
100
AcDbCircle
 10
99.9326725173
 20
94.4530264662
 30
0.0
 40
5.5
  0
LINE
  5
5F4
330
1F
100
AcDbEntity
  8
0
  6
Continuous
 62
     7
370
    30
100
AcDbLine
 10
62.4326725173
 20
104.5530264662
 30
0.0
 11
112.4326725173
 21
104.5530264662
 31
0.0
  0
CIRCLE
  5
5F5
330
1F
100
AcDbEntity
  8
0
  6
Continuous
 62
     7
370
    30
100
AcDbCircle
 10
74.9326725173
 20
94.4530264662
 30
0.0
 40
3.299999999999983
  0
CIRCLE
  5
5F6
330
1F
100
AcDbEntity
  8
0
  6
Continuous
 62
     7
370
    30
100
AcDbCircle
 10
99.9326725173
 20
94.4530264662
 30
0.0
 40
3.299999999999997
  0
DIMENSION
  5
5F7
330
1F
100
AcDbEntity
  8
SLD-0
 62
     7
100
AcDbDimension
  2
_D_9
 10
99.9326725173
 20
72.0530264662
 30
0.0
 11
87.4326725173
 21
72.0530264662
 31
0.0
 70
   160
  1
<>
 71
     2
 42
-1.0
  3
SLDDIMSTYLE0
100
AcDbAlignedDimension
 13
74.9326725173
 23
87.9530264662
 33
0.0
 14
99.9326725173
 24
87.9530264662
 34
0.0
100
AcDbRotatedDimension
  0
DIMENSION
  5
601
330
1F
100
AcDbEntity
  8
SLD-0
 62
     7
100
AcDbDimension
  2
_D_10
 10
77.1168287499
 20
89.4053080161
 30
0.0
 11
50.6543962269
 21
125.1836922068
 31
0.0
 70
   163
  1
2 HOLES,\P M6 CLR
 71
     1
 42
-1.0
  3
SLDDIMSTYLE1
100
AcDbDiametricDimension
 15
72.7485162847
 25
99.5007449164
 35
0.0
 40
0.0
  0
INSERT
  5
615
330
1F
100
AcDbEntity
  8
SLD-0
 62
     7
100
AcDbBlockReference
  2
SW_CENTERMARKSYMBOL_3
 10
74.9326725173
 20
94.4530264662
 30
0.0
  0
INSERT
  5
621
330
1F
100
AcDbEntity
  8
SLD-0
 62
     7
100
AcDbBlockReference
  2
SW_CENTERMARKSYMBOL_4
 10
99.9326725173
 20
94.4530264662
 30
0.0
  0
ENDSEC
  0
SECTION
  2
OBJECTS
  0
DICTIONARY
  5
C
330
0
100
AcDbDictionary
281
     1
  3
ACAD_GROUP
350
D
  3
ACAD_LAYOUT
350
1A
  3
ACAD_MLINESTYLE
350
17
  3
ACAD_PLOTSETTINGS
350
19
  3
ACAD_PLOTSTYLENAME
350
E
  3
ACAD_SCALELIST
350
47
  0
DICTIONARY
  5
D
102
{ACAD_REACTORS
330
C
102
}
330
C
100
AcDbDictionary
281
     1
  0
DICTIONARY
  5
1A
102
{ACAD_REACTORS
330
C
102
}
330
C
100
AcDbDictionary
281
     1
  3
Layout1
350
1E
  3
Layout2
350
26
  3
Model
350
22
  0
DICTIONARY
  5
17
102
{ACAD_REACTORS
330
C
102
}
330
C
100
AcDbDictionary
281
     1
  3
Standard
350
18
  0
DICTIONARY
  5
19
102
{ACAD_REACTORS
330
C
102
}
330
C
100
AcDbDictionary
281
     1
  0
ACDBDICTIONARYWDFLT
  5
E
102
{ACAD_REACTORS
330
C
102
}
330
C
100
AcDbDictionary
281
     1
  3
Normal
350
F
100
AcDbDictionaryWithDefault
340
F
  0
DICTIONARY
  5
47
102
{ACAD_REACTORS
330
C
102
}
330
C
100
AcDbDictionary
281
     1
  3
A0
350
48
  3
A1
350
49
  3
A2
350
4A
  3
A3
350
4B
  3
A4
350
4C
  3
A5
350
4D
  3
A6
350
4E
  3
A7
350
4F
  3
A8
350
50
  3
A9
350
51
  3
B0
350
52
  3
B1
350
53
  3
B2
350
54
  3
B3
350
55
  3
B4
350
56
  3
B5
350
57
  3
B6
350
58
  3
B7
350
59
  3
B8
350
5A
  3
B9
350
5B
  3
C0
350
5C
  3
C1
350
5D
  3
C2
350
5E
  3
C3
350
5F
  3
C4
350
60
  3
C5
350
61
  3
C6
350
62
  3
C7
350
63
  3
C8
350
64
  3
C9
350
65
  3
D0
350
66
  3
D1
350
67
  3
D2
350
68
  0
LAYOUT
  5
1E
102
{ACAD_REACTORS
330
1A
102
}
330
1A
100
AcDbPlotSettings
  1

  2
none_device
  4

  6

 40
0.0
 41
0.0
 42
0.0
 43
0.0
 44
0.0
 45
0.0
 46
0.0
 47
0.0
 48
0.0
 49
0.0
140
0.0
141
0.0
142
1.0
143
1.0
 70
   688
 72
     1
 73
     0
 74
     5
  7

 75
    16
147
1.0
148
0.0
149
0.0
100
AcDbLayout
  1
Layout1
 70
     1
 71
     1
 10
0.0
 20
0.0
 11
420.0
 21
297.0
 12
0.0
 22
0.0
 32
0.0
 14
1.0000000000E+20
 24
1.0000000000E+20
 34
1.0000000000E+20
 15
-1.0000000000E+20
 25
-1.0000000000E+20
 35
-1.0000000000E+20
146
0.0
 13
0.0
 23
0.0
 33
0.0
 16
1.0
 26
0.0
 36
0.0
 17
0.0
 27
1.0
 37
0.0
 76
     0
330
1B
  0
LAYOUT
  5
26
102
{ACAD_REACTORS
330
1A
102
}
330
1A
100
AcDbPlotSettings
  1

  2
none_device
  4

  6

 40
0.0
 41
0.0
 42
0.0
 43
0.0
 44
0.0
 45
0.0
 46
0.0
 47
0.0
 48
0.0
 49
0.0
140
0.0
141
0.0
142
1.0
143
1.0
 70
   688
 72
     1
 73
     0
 74
     5
  7

 75
    16
147
1.0
148
0.0
149
0.0
100
AcDbLayout
  1
Layout2
 70
     1
 71
     2
 10
0.0
 20
0.0
 11
0.0
 21
0.0
 12
0.0
 22
0.0
 32
0.0
 14
0.0
 24
0.0
 34
0.0
 15
0.0
 25
0.0
 35
0.0
146
0.0
 13
0.0
 23
0.0
 33
0.0
 16
1.0
 26
0.0
 36
0.0
 17
0.0
 27
1.0
 37
0.0
 76
     0
330
23
  0
LAYOUT
  5
22
102
{ACAD_REACTORS
330
1A
102
}
330
1A
100
AcDbPlotSettings
  1

  2
none_device
  4
Letter_(8.50_x_11.00_Inches)
  6

 40
6.35
 41
6.35
 42
6.35000508
 43
6.35000508
 44
215.9
 45
279.4
 46
0.0
 47
0.0
 48
0.0
 49
0.0
140
0.0
141
0.0
142
1.0
143
1.0
 70
  1712
 72
     1
 73
     0
 74
     0
  7

 75
     0
147
1.0
148
0.0
149
0.0
100
AcDbLayout
  1
Model
 70
     1
 71
     0
 10
0.0
 20
0.0
 11
445.5
 21
315.0
 12
0.0
 22
0.0
 32
0.0
 14
0.0
 24
0.0
 34
0.0
 15
445.5
 25
315.0
 35
0.0
146
0.0
 13
0.0
 23
0.0
 33
0.0
 16
1.0
 26
0.0
 36
0.0
 17
0.0
 27
1.0
 37
0.0
 76
     0
330
1F
331
29
  0
MLINESTYLE
  5
18
102
{ACAD_REACTORS
330
17
102
}
330
17
100
AcDbMlineStyle
  2
Standard
 70
     0
  3

 62
   256
 51
90.0
 52
90.0
 71
     2
 49
0.5
 62
   256
  6
BYLAYER
 49
-0.5
 62
   256
  6
BYLAYER
  0
ACDBPLACEHOLDER
  5
F
102
{ACAD_REACTORS
330
E
102
}
330
E
  0
SCALE
  5
48
102
{ACAD_REACTORS
330
47
102
}
330
47
100
AcDbScale
 70
     0
300
1:1
140
1.0
141
1.0
290
     1
  0
SCALE
  5
49
102
{ACAD_REACTORS
330
47
102
}
330
47
100
AcDbScale
 70
     0
300
1:2
140
1.0
141
2.0
290
     0
  0
SCALE
  5
4A
102
{ACAD_REACTORS
330
47
102
}
330
47
100
AcDbScale
 70
     0
300
1:4
140
1.0
141
4.0
290
     0
  0
SCALE
  5
4B
102
{ACAD_REACTORS
330
47
102
}
330
47
100
AcDbScale
 70
     0
300
1:5
140
1.0
141
5.0
290
     0
  0
SCALE
  5
4C
102
{ACAD_REACTORS
330
47
102
}
330
47
100
AcDbScale
 70
     0
300
1:8
140
1.0
141
8.0
290
     0
  0
SCALE
  5
4D
102
{ACAD_REACTORS
330
47
102
}
330
47
100
AcDbScale
 70
     0
300
1:10
140
1.0
141
10.0
290
     0
  0
SCALE
  5
4E
102
{ACAD_REACTORS
330
47
102
}
330
47
100
AcDbScale
 70
     0
300
1:16
140
1.0
141
16.0
290
     0
  0
SCALE
  5
4F
102
{ACAD_REACTORS
330
47
102
}
330
47
100
AcDbScale
 70
     0
300
1:20
140
1.0
141
20.0
290
     0
  0
SCALE
  5
50
102
{ACAD_REACTORS
330
47
102
}
330
47
100
AcDbScale
 70
     0
300
1:30
140
1.0
141
30.0
290
     0
  0
SCALE
  5
51
102
{ACAD_REACTORS
330
47
102
}
330
47
100
AcDbScale
 70
     0
300
1:40
140
1.0
141
40.0
290
     0
  0
SCALE
  5
52
102
{ACAD_REACTORS
330
47
102
}
330
47
100
AcDbScale
 70
     0
300
1:50
140
1.0
141
50.0
290
     0
  0
SCALE
  5
53
102
{ACAD_REACTORS
330
47
102
}
330
47
100
AcDbScale
 70
     0
300
1:100
140
1.0
141
100.0
290
     0
  0
SCALE
  5
54
102
{ACAD_REACTORS
330
47
102
}
330
47
100
AcDbScale
 70
     0
300
2:1
140
2.0
141
1.0
290
     0
  0
SCALE
  5
55
102
{ACAD_REACTORS
330
47
102
}
330
47
100
AcDbScale
 70
     0
300
4:1
140
4.0
141
1.0
290
     0
  0
SCALE
  5
56
102
{ACAD_REACTORS
330
47
102
}
330
47
100
AcDbScale
 70
     0
300
8:1
140
8.0
141
1.0
290
     0
  0
SCALE
  5
57
102
{ACAD_REACTORS
330
47
102
}
330
47
100
AcDbScale
 70
     0
300
10:1
140
10.0
141
1.0
290
     0
  0
SCALE
  5
58
102
{ACAD_REACTORS
330
47
102
}
330
47
100
AcDbScale
 70
     0
300
100:1
140
100.0
141
1.0
290
     0
  0
SCALE
  5
59
102
{ACAD_REACTORS
330
47
102
}
330
47
100
AcDbScale
 70
     0
300
1/128" = 1'-0"
140
0.0078125
141
12.0
290
     0
  0
SCALE
  5
5A
102
{ACAD_REACTORS
330
47
102
}
330
47
100
AcDbScale
 70
     0
300
1/64" = 1'-0"
140
0.015625
141
12.0
290
     0
  0
SCALE
  5
5B
102
{ACAD_REACTORS
330
47
102
}
330
47
100
AcDbScale
 70
     0
300
1/32" = 1'-0"
140
0.03125
141
12.0
290
     0
  0
SCALE
  5
5C
102
{ACAD_REACTORS
330
47
102
}
330
47
100
AcDbScale
 70
     0
300
1/16" = 1'-0"
140
0.0625
141
12.0
290
     0
  0
SCALE
  5
5D
102
{ACAD_REACTORS
330
47
102
}
330
47
100
AcDbScale
 70
     0
300
3/32" = 1'-0"
140
0.09375
141
12.0
290
     0
  0
SCALE
  5
5E
102
{ACAD_REACTORS
330
47
102
}
330
47
100
AcDbScale
 70
     0
300
1/8" = 1'-0"
140
0.125
141
12.0
290
     0
  0
SCALE
  5
5F
102
{ACAD_REACTORS
330
47
102
}
330
47
100
AcDbScale
 70
     0
300
3/16" = 1'-0"
140
0.1875
141
12.0
290
     0
  0
SCALE
  5
60
102
{ACAD_REACTORS
330
47
102
}
330
47
100
AcDbScale
 70
     0
300
1/4" = 1'-0"
140
0.25
141
12.0
290
     0
  0
SCALE
  5
61
102
{ACAD_REACTORS
330
47
102
}
330
47
100
AcDbScale
 70
     0
300
3/8" = 1'-0"
140
0.375
141
12.0
290
     0
  0
SCALE
  5
62
102
{ACAD_REACTORS
330
47
102
}
330
47
100
AcDbScale
 70
     0
300
1/2" = 1'-0"
140
0.5
141
12.0
290
     0
  0
SCALE
  5
63
102
{ACAD_REACTORS
330
47
102
}
330
47
100
AcDbScale
 70
     0
300
3/4" = 1'-0"
140
0.75
141
12.0
290
     0
  0
SCALE
  5
64
102
{ACAD_REACTORS
330
47
102
}
330
47
100
AcDbScale
 70
     0
300
1" = 1'-0"
140
1.0
141
12.0
290
     0
  0
SCALE
  5
65
102
{ACAD_REACTORS
330
47
102
}
330
47
100
AcDbScale
 70
     0
300
1-1/2" = 1'-0"
140
1.5
141
12.0
290
     0
  0
SCALE
  5
66
102
{ACAD_REACTORS
330
47
102
}
330
47
100
AcDbScale
 70
     0
300
3" = 1'-0"
140
3.0
141
12.0
290
     0
  0
SCALE
  5
67
102
{ACAD_REACTORS
330
47
102
}
330
47
100
AcDbScale
 70
     0
300
6" = 1'-0"
140
6.0
141
12.0
290
     0
  0
SCALE
  5
68
102
{ACAD_REACTORS
330
47
102
}
330
47
100
AcDbScale
 70
     0
300
1'-0" = 1'-0"
140
12.0
141
12.0
290
     0
  0
ENDSEC
  0
EOF
