  0
SECTION
  2
HEADER
  9
$ACADVER
  1
AC1015
  9
$ACADMAINTVER
 70
     6
  9
$DWGCODEPAGE
  3
ANSI_950
  9
$INSBASE
 10
0.0
 20
0.0
 30
0.0
  9
$EXTMIN
 10
0.0
 20
0.0
 30
0.0
  9
$EXTMAX
 10
445.5
 20
315.0
 30
0.0
  9
$LIMMIN
 10
0.0
 20
0.0
  9
$LIMMAX
 10
445.5
 20
315.0
  9
$ORTHOMODE
 70
     0
  9
$REGENMODE
 70
     1
  9
$FILLMODE
 70
     1
  9
$QTEXTMODE
 70
     0
  9
$MIRRTEXT
 70
     1
  9
$LTSCALE
 40
1.5
  9
$ATTMODE
 70
     1
  9
$TEXTSIZE
 40
3.75
  9
$TRACEWID
 40
1.0
  9
$TEXTSTYLE
  7
STANDARD
  9
$CLAYER
  8
0
  9
$CELTYPE
  6
ByLayer
  9
$CECOLOR
 62
   256
  9
$CELTSCALE
 40
1.0
  9
$DISPSILH
 70
     0
  9
$DIMSCALE
 40
1.0
  9
$DIMASZ
 40
3.0
  9
$DIMEXO
 40
1.5
  9
$DIMDLI
 40
3.75
  9
$DIMRND
 40
0.0
  9
$DIMDLE
 40
0.0
  9
$DIMEXE
 40
1.5
  9
$DIMTP
 40
0.0
  9
$DIMTM
 40
0.0
  9
$DIMTXT
 40
3.75
  9
$DIMCEN
 40
2.5
  9
$DIMTSZ
 40
0.0
  9
$DIMTOL
 70
     0
  9
$DIMLIM
 70
     0
  9
$DIMTIH
 70
     1
  9
$DIMTOH
 70
     1
  9
$DIMSE1
 70
     0
  9
$DIMSE2
 70
     0
  9
$DIMTAD
 70
     1
  9
$DIMZIN
 70
     0
  9
$DIMBLK
  1

  9
$DIMASO
 70
     1
  9
$DIMSHO
 70
     1
  9
$DIMPOST
  1

  9
$DIMAPOST
  1

  9
$DIMALT
 70
     0
  9
$DIMALTD
 70
     3
  9
$DIMALTF
 40
0.0393700787
  9
$DIMLFAC
 40
1.0
  9
$DIMTOFL
 70
     1
  9
$DIMTVP
 40
0.0
  9
$DIMTIX
 70
     0
  9
$DIMSOXD
 70
     0
  9
$DIMSAH
 70
     0
  9
$DIMBLK1
  1

  9
$DIMBLK2
  1

  9
$DIMSTYLE
  2
ISO-25
  9
$DIMCLRD
 70
     0
  9
$DIMCLRE
 70
     0
  9
$DIMCLRT
 70
     0
  9
$DIMTFAC
 40
1.0
  9
$DIMGAP
 40
1.5
  9
$DIMJUST
 70
     0
  9
$DIMSD1
 70
     0
  9
$DIMSD2
 70
     0
  9
$DIMTOLJ
 70
     0
  9
$DIMTZIN
 70
     0
  9
$DIMALTZ
 70
     0
  9
$DIMALTTZ
 70
     0
  9
$DIMUPT
 70
     0
  9
$DIMDEC
 70
     2
  9
$DIMTDEC
 70
     2
  9
$DIMALTU
 70
     2
  9
$DIMALTTD
 70
     3
  9
$DIMTXSTY
  7
STANDARD
  9
$DIMAUNIT
 70
     0
  9
$DIMADEC
 70
     1
  9
$DIMALTRND
 40
0.0
  9
$DIMAZIN
 70
     0
  9
$DIMDSEP
 70
    44
  9
$DIMATFIT
 70
     3
  9
$DIMFRAC
 70
     0
  9
$DIMLDRBLK
  1

  9
$DIMLUNIT
 70
     2
  9
$DIMLWD
 70
    -2
  9
$DIMLWE
 70
    -2
  9
$DIMTMOVE
 70
     0
  9
$LUNITS
 70
     2
  9
$LUPREC
 70
     2
  9
$SKETCHINC
 40
1.0
  9
$FILLETRAD
 40
10.0
  9
$AUNITS
 70
     0
  9
$AUPREC
 70
     1
  9
$MENU
  1
.
  9
$ELEVATION
 40
0.0
  9
$PELEVATION
 40
0.0
  9
$THICKNESS
 40
0.0
  9
$LIMCHECK
 70
     0
  9
$CHAMFERA
 40
0.0
  9
$CHAMFERB
 40
0.0
  9
$CHAMFERC
 40
0.0
  9
$CHAMFERD
 40
0.0
  9
$SKPOLY
 70
     0
  9
$TDCREATE
 40
2457497.46408397
  9
$TDUCREATE
 40
2457497.130750637
  9
$TDUPDATE
 40
2457497.46409066
  9
$TDUUPDATE
 40
2457497.130757326
  9
$TDINDWG
 40
0.0000000116
  9
$TDUSRTIMER
 40
0.0000000116
  9
$USRTIMER
 70
     1
  9
$ANGBASE
 50
0.0
  9
$ANGDIR
 70
     0
  9
$PDMODE
 70
     0
  9
$PDSIZE
 40
-1.0
  9
$PLINEWID
 40
0.0
  9
$SPLFRAME
 70
     0
  9
$SPLINETYPE
 70
     6
  9
$SPLINESEGS
 70
     8
  9
$HANDSEED
  5
623
  9
$SURFTAB1
 70
     6
  9
$SURFTAB2
 70
     6
  9
$SURFTYPE
 70
     6
  9
$SURFU
 70
     6
  9
$SURFV
 70
     6
  9
$UCSBASE
  2

  9
$UCSNAME
  2

  9
$UCSORG
 10
0.0
 20
0.0
 30
0.0
  9
$UCSXDIR
 10
1.0
 20
0.0
 30
0.0
  9
$UCSYDIR
 10
0.0
 20
1.0
 30
0.0
  9
$UCSORTHOREF
  2

  9
$UCSORTHOVIEW
 70
     0
  9
$UCSORGTOP
 10
0.0
 20
0.0
 30
0.0
  9
$UCSORGBOTTOM
 10
0.0
 20
0.0
 30
0.0
  9
$UCSORGLEFT
 10
0.0
 20
0.0
 30
0.0
  9
$UCSORGRIGHT
 10
0.0
 20
0.0
 30
0.0
  9
$UCSORGFRONT
 10
0.0
 20
0.0
 30
0.0
  9
$UCSORGBACK
 10
0.0
 20
0.0
 30
0.0
  9
$PUCSBASE
  2

  9
$PUCSNAME
  2

  9
$PUCSORG
 10
0.0
 20
0.0
 30
0.0
  9
$PUCSXDIR
 10
1.0
 20
0.0
 30
0.0
  9
$PUCSYDIR
 10
0.0
 20
1.0
 30
0.0
  9
$PUCSORTHOREF
  2

  9
$PUCSORTHOVIEW
 70
     0
  9
$PUCSORGTOP
 10
0.0
 20
0.0
 30
0.0
  9
$PUCSORGBOTTOM
 10
0.0
 20
0.0
 30
0.0
  9
$PUCSORGLEFT
 10
0.0
 20
0.0
 30
0.0
  9
$PUCSORGRIGHT
 10
0.0
 20
0.0
 30
0.0
  9
$PUCSORGFRONT
 10
0.0
 20
0.0
 30
0.0
  9
$PUCSORGBACK
 10
0.0
 20
0.0
 30
0.0
  9
$USERI1
 70
     0
  9
$USERI2
 70
     0
  9
$USERI3
 70
     0
  9
$USERI4
 70
     0
  9
$USERI5
 70
     0
  9
$USERR1
 40
0.0
  9
$USERR2
 40
0.0
  9
$USERR3
 40
0.0
  9
$USERR4
 40
0.0
  9
$USERR5
 40
0.0
  9
$WORLDVIEW
 70
     1
  9
$SHADEDGE
 70
     3
  9
$SHADEDIF
 70
    70
  9
$TILEMODE
 70
     1
  9
$MAXACTVP
 70
    64
  9
$PINSBASE
 10
0.0
 20
0.0
 30
0.0
  9
$PLIMCHECK
 70
     0
  9
$PEXTMIN
 10
1.0000000000E+20
 20
1.0000000000E+20
 30
1.0000000000E+20
  9
$PEXTMAX
 10
-1.0000000000E+20
 20
-1.0000000000E+20
 30
-1.0000000000E+20
  9
$PLIMMIN
 10
0.0
 20
0.0
  9
$PLIMMAX
 10
420.0
 20
297.0
  9
$UNITMODE
 70
     0
  9
$VISRETAIN
 70
     1
  9
$PLINEGEN
 70
     0
  9
$PSLTSCALE
 70
     1
  9
$TREEDEPTH
 70
  3020
  9
$CMLSTYLE
  2
Standard
  9
$CMLJUST
 70
     0
  9
$CMLSCALE
 40
20.0
  9
$PROXYGRAPHICS
 70
     1
  9
$MEASUREMENT
 70
     1
  9
$CELWEIGHT
370
    -1
  9
$ENDCAPS
280
     0
  9
$JOINSTYLE
280
     0
  9
$LWDISPLAY
290
     1
  9
$INSUNITS
 70
     4
  9
$HYPERLINKBASE
  1

  9
$STYLESHEET
  1

  9
$XEDIT
290
     1
  9
$CEPSNTYPE
380
     0
  9
$PSTYLEMODE
290
     1
  9
$FINGERPRINTGUID
  2
{A93E936B-3169-4604-9AD0-9E8B0DE7EABA}
  9
$VERSIONGUID
  2
{FAEB1C32-E019-11D5-929B-00C0DF256EC4}
  9
$EXTNAMES
290
     1
  9
$PSVPSCALE
 40
0.0
  9
$OLESTARTUP
290
     0
  0
ENDSEC
  0
SECTION
  2
CLASSES
  0
CLASS
  1
ACDBDICTIONARYWDFLT
  2
AcDbDictionaryWithDefault
  3
ObjectDBX Classes
 90
        0
280
     0
281
     0
  0
CLASS
  1
VISUALSTYLE
  2
AcDbVisualStyle
  3
ObjectDBX Classes
 90
     4095
280
     0
281
     0
  0
CLASS
  1
MATERIAL
  2
AcDbMaterial
  3
ObjectDBX Classes
 90
     1153
280
     0
281
     0
  0
CLASS
  1
SCALE
  2
AcDbScale
  3
ObjectDBX Classes
 90
     1153
280
     0
281
     0
  0
CLASS
  1
TABLESTYLE
  2
AcDbTableStyle
  3
ObjectDBX Classes
 90
     4095
280
     0
281
     0
  0
CLASS
  1
MLEADERSTYLE
  2
AcDbMLeaderStyle
  3
ACDB_MLEADERSTYLE_CLASS
 90
     4095
280
     0
281
     0
  0
CLASS
  1
SUN
  2
AcDbSun
  3
SCENEOE
 90
     1153
280
     0
281
     0
  0
CLASS
  1
ACDBPLACEHOLDER
  2
AcDbPlaceHolder
  3
ObjectDBX Classes
 90
        0
280
     0
281
     0
  0
CLASS
  1
LAYOUT
  2
AcDbLayout
  3
ObjectDBX Classes
 90
        0
280
     0
281
     0
  0
ENDSEC
  0
SECTION
  2
TABLES
  0
TABLE
  2
VPORT
  5
8
330
0
100
AcDbSymbolTable
 70
     1
  0
VPORT
  5
29
330
8
100
AcDbSymbolTableRecord
100
AcDbViewportTableRecord
  2
*Active
 70
     0
 10
0.0
 20
0.0
 11
1.0
 21
1.0
 12
222.75
 22
157.5
 13
0.0
 23
0.0
 14
10.0
 24
10.0
 15
10.0
 25
10.0
 16
0.0
 26
0.0
 36
1.0
 17
0.0
 27
0.0
 37
0.0
 40
315.0
 41
1.4142857143
 42
50.0
 43
0.0
 44
0.0
 50
0.0
 51
0.0
 71
     0
 72
  2000
 73
     1
 74
     3
 75
     0
 76
     0
 77
     0
 78
     0
281
     0
 65
     1
110
0.0
120
0.0
130
0.0
111
1.0
121
0.0
131
0.0
112
0.0
122
1.0
132
0.0
 79
     0
146
0.0
  0
ENDTAB
  0
TABLE
  2
LTYPE
  5
5
330
0
100
AcDbSymbolTable
 70
     6
  0
LTYPE
  5
14
330
5
100
AcDbSymbolTableRecord
100
AcDbLinetypeTableRecord
  2
ByBlock
 70
     0
  3

 72
    65
 73
     0
 40
0.0
  0
LTYPE
  5
15
330
5
100
AcDbSymbolTableRecord
100
AcDbLinetypeTableRecord
  2
ByLayer
 70
     0
  3

 72
    65
 73
     0
 40
0.0
  0
LTYPE
  5
16
330
5
100
AcDbSymbolTableRecord
100
AcDbLinetypeTableRecord
  2
Continuous
 70
     0
  3
Solid line
 72
    65
 73
     0
 40
0.0
  0
LTYPE
  5
6E
330
5
100
AcDbSymbolTableRecord
100
AcDbLinetypeTableRecord
  2
HIDDEN
 70
     0
  3
Hidden __ __ __ __ __ __ __ __ __ __ __ __ __ __
 72
    65
 73
     2
 40
1.905
 49
1.27
 74
     0
 49
-0.635
 74
     0
  0
LTYPE
  5
6F
330
5
100
AcDbSymbolTableRecord
100
AcDbLinetypeTableRecord
  2
PHANTOM
 70
     0
  3
Phantom ______  __  __  ______  __  __  ______
 72
    65
 73
     6
 40
12.7
 49
6.35
 74
     0
 49
-1.27
 74
     0
 49
1.27
 74
     0
 49
-1.27
 74
     0
 49
1.27
 74
     0
 49
-1.27
 74
     0
  0
LTYPE
  5
70
330
5
100
AcDbSymbolTableRecord
100
AcDbLinetypeTableRecord
  2
CENTER
 70
     0
  3
Center ____ _ ____ _ ____ _ ____ _ ____ _ ____
 72
    65
 73
     4
 40
10.16
 49
6.35
 74
     0
 49
-1.27
 74
     0
 49
1.27
 74
     0
 49
-1.27
 74
     0
  0
LTYPE
  5
71
330
5
100
AcDbSymbolTableRecord
100
AcDbLinetypeTableRecord
  2
CENTERX2
 70
     0
  3
Center (2x) ________  __  ________  __  _____
 72
    65
 73
     4
 40
20.32
 49
12.7
 74
     0
 49
-2.54
 74
     0
 49
2.54
 74
     0
 49
-2.54
 74
     0
  0
LTYPE
  5
72
330
5
100
AcDbSymbolTableRecord
100
AcDbLinetypeTableRecord
  2
DOT2
 70
     0
  3
Dot (.5x) ........................................
 72
    65
 73
     2
 40
0.635
 49
0.0
 74
     0
 49
-0.635
 74
     0
  0
ENDTAB
  0
TABLE
  2
LAYER
  5
2
330
0
100
AcDbSymbolTable
 70
     3
  0
LAYER
  5
10
330
2
100
AcDbSymbolTableRecord
100
AcDbLayerTableRecord
  2
0
 70
     0
 62
     7
  6
Continuous
370
    -3
390
F
  0
LAYER
  5
73
330
2
100
AcDbSymbolTableRecord
100
AcDbLayerTableRecord
  2
SLD-0
 70
     0
 62
     7
  6
Continuous
370
    15
390
F
  0
LAYER
  5
74
330
2
100
AcDbSymbolTableRecord
100
AcDbLayerTableRecord
  2
工作區域參考線
 70
     0
 62
   179
  6
Continuous
370
    -3
390
F
  0
ENDTAB
  0
TABLE
  2
STYLE
  5
3
330
0
100
AcDbSymbolTable
 70
     4
  0
STYLE
  5
11
330
3
100
AcDbSymbolTableRecord
100
AcDbTextStyleTableRecord
  2
STANDARD
 70
     0
 40
0.0
 41
1.0
 50
0.0
 71
     0
 42
3.75
  3
ARIAL.TTF
  4

1001
ACAD
1000
ARIAL
1071
       34
  0
STYLE
  5
C9
330
3
100
AcDbSymbolTableRecord
100
AcDbTextStyleTableRecord
  2
SLDTEXTSTYLE0
 70
     0
 40
0.0
 41
0.948
 50
0.0
 71
     0
 42
3.75
  3
ARIAL.TTF
  4

1001
ACAD
1000
Arial
1071
      290
  0
STYLE
  5
D2
330
3
100
AcDbSymbolTableRecord
100
AcDbTextStyleTableRecord
  2
SLDTEXTSTYLE1
 70
     0
 40
0.0
 41
1.0
 50
0.0
 71
     0
 42
3.75
  3
ARIALBD.TTF
  4

1001
ACAD
1000
Arial CE
1071
 33554722
  0
STYLE
  5
E1
330
3
100
AcDbSymbolTableRecord
100
AcDbTextStyleTableRecord
  2
SLDTEXTSTYLE2
 70
     0
 40
0.0
 41
1.0
 50
0.0
 71
     0
 42
3.75
  3
ARIAL.TTF
  4

1001
ACAD
1000
Arial CE
1071
      290
  0
ENDTAB
  0
TABLE
  2
VIEW
  5
6
330
0
100
AcDbSymbolTable
 70
     0
  0
ENDTAB
  0
TABLE
  2
UCS
  5
7
330
0
100
AcDbSymbolTable
 70
     0
  0
ENDTAB
  0
TABLE
  2
APPID
  5
9
330
0
100
AcDbSymbolTable
 70
     1
  0
APPID
  5
12
330
9
100
AcDbSymbolTableRecord
100
AcDbRegAppTableRecord
  2
ACAD
 70
     0
  0
ENDTAB
  0
TABLE
  2
DIMSTYLE
  5
A
330
0
100
AcDbSymbolTable
 70
     4
100
AcDbDimStyleTable
  0
DIMSTYLE
105
27
330
A
100
AcDbSymbolTableRecord
100
AcDbDimStyleTableRecord
  2
ISO-25
 70
     0
 41
2.5
 42
0.625
 43
3.75
 44
1.25
 73
     0
 74
     0
 77
     1
 78
     8
140
2.5
141
2.5
143
0.0393700787
147
0.625
171
     3
172
     1
178
     0
271
     2
272
     2
274
     3
278
    44
283
     0
284
     8
340
11
  0
DIMSTYLE
105
2B5
102
{ACAD_REACTORS
330
2B4
330
2BF
330
2C9
330
2DD
330
459
330
463
330
46D
330
5F8
102
}
330
A
100
AcDbSymbolTableRecord
100
AcDbDimStyleTableRecord
  2
SLDDIMSTYLE0
 70
     0
 41
3.0
 44
0.0
 45
0.000000001
 73
     0
 74
     0
 77
     1
 78
    12
 79
     3
140
3.75
147
0.9375
173
     1
178
     0
271
     2
272
     2
276
     2
284
    12
340
C9
  0
DIMSTYLE
105
2D4
102
{ACAD_REACTORS
330
2D3
330
602
102
}
330
A
100
AcDbSymbolTableRecord
100
AcDbDimStyleTableRecord
  2
SLDDIMSTYLE1
 70
     0
  3
<>
 41
3.0
 44
0.0
 45
0.000000001
 78
    12
 79
     3
140
3.75
141
0.0
147
0.9375
173
     1
178
     0
271
     2
272
     2
276
     2
284
    12
340
C9
  0
DIMSTYLE
105
44F
102
{ACAD_REACTORS
330
44E
102
}
330
A
100
AcDbSymbolTableRecord
100
AcDbDimStyleTableRecord
  2
SLDDIMSTYLE2
 70
     0
 41
3.0
 44
0.0
 45
0.000000001
 78
    12
 79
     3
140
3.75
141
0.0
147
0.9375
173
     1
178
     0
271
     2
272
     2
276
     2
284
    12
340
C9
  0
ENDTAB
  0
TABLE
  2
BLOCK_RECORD
  5
1
330
0
100
AcDbSymbolTable
 70
    20
  0
BLOCK_RECORD
  5
1F
330
1
100
AcDbSymbolTableRecord
100
AcDbBlockTableRecord
  2
*Model_Space
340
22
  0
BLOCK_RECORD
  5
1B
330
1
100
AcDbSymbolTableRecord
100
AcDbBlockTableRecord
  2
*Paper_Space
340
1E
  0
BLOCK_RECORD
  5
23
330
1
100
AcDbSymbolTableRecord
100
AcDbBlockTableRecord
  2
*Paper_Space0
340
26
  0
BLOCK_RECORD
  5
75
330
1
100
AcDbSymbolTableRecord
100
AcDbBlockTableRecord
  2
圖塊6
340
0
102
{BLKREFS
331
C8
102
}
  0
BLOCK_RECORD
  5
CB
330
1
100
AcDbSymbolTableRecord
100
AcDbBlockTableRecord
  2
SW_NOTE_0
340
0
102
{BLKREFS
331
D1
102
}
  0
BLOCK_RECORD
  5
DE
330
1
100
AcDbSymbolTableRecord
100
AcDbBlockTableRecord
  2
SW_NOTE_1
340
0
102
{BLKREFS
331
E4
102
}
  0
BLOCK_RECORD
  5
2B6
330
1
100
AcDbSymbolTableRecord
100
AcDbBlockTableRecord
  2
_D
340
0
  0
BLOCK_RECORD
  5
2C0
330
1
100
AcDbSymbolTableRecord
100
AcDbBlockTableRecord
  2
_D_1
340
0
  0
BLOCK_RECORD
  5
2CA
330
1
100
AcDbSymbolTableRecord
100
AcDbBlockTableRecord
  2
_D_2
340
0
  0
BLOCK_RECORD
  5
2D5
330
1
100
AcDbSymbolTableRecord
100
AcDbBlockTableRecord
  2
_D_3
340
0
  0
BLOCK_RECORD
  5
2DE
330
1
100
AcDbSymbolTableRecord
100
AcDbBlockTableRecord
  2
_D_4
340
0
  0
BLOCK_RECORD
  5
2E7
330
1
100
AcDbSymbolTableRecord
100
AcDbBlockTableRecord
  2
SW_CENTERMARKSYMBOL_0
340
0
102
{BLKREFS
331
2F2
102
}
  0
BLOCK_RECORD
  5
2F3
330
1
100
AcDbSymbolTableRecord
100
AcDbBlockTableRecord
  2
SW_CENTERMARKSYMBOL_1
340
0
102
{BLKREFS
331
2FE
102
}
  0
BLOCK_RECORD
  5
2FF
330
1
100
AcDbSymbolTableRecord
100
AcDbBlockTableRecord
  2
SW_CENTERMARKSYMBOL_2
340
0
102
{BLKREFS
331
30A
102
}
  0
BLOCK_RECORD
  5
450
330
1
100
AcDbSymbolTableRecord
100
AcDbBlockTableRecord
  2
_D_5
340
0
  0
BLOCK_RECORD
  5
45A
330
1
100
AcDbSymbolTableRecord
100
AcDbBlockTableRecord
  2
_D_6
340
0
  0
BLOCK_RECORD
  5
464
330
1
100
AcDbSymbolTableRecord
100
AcDbBlockTableRecord
  2
_D_7
340
0
  0
BLOCK_RECORD
  5
46E
330
1
100
AcDbSymbolTableRecord
100
AcDbBlockTableRecord
  2
_D_8
340
0
  0
BLOCK_RECORD
  5
5F9
330
1
100
AcDbSymbolTableRecord
100
AcDbBlockTableRecord
  2
_D_9
340
0
  0
BLOCK_RECORD
  5
603
330
1
100
AcDbSymbolTableRecord
100
AcDbBlockTableRecord
  2
_D_10
340
0
  0
BLOCK_RECORD
  5
60B
330
1
100
AcDbSymbolTableRecord
100
AcDbBlockTableRecord
  2
SW_CENTERMARKSYMBOL_3
340
0
102
{BLKREFS
331
616
102
}
  0
BLOCK_RECORD
  5
617
330
1
100
AcDbSymbolTableRecord
100
AcDbBlockTableRecord
  2
SW_CENTERMARKSYMBOL_4
340
0
102
{BLKREFS
331
622
102
}
  0
ENDTAB
  0
ENDSEC
  0
SECTION
  2
BLOCKS
  0
BLOCK
  5
20
330
1F
100
AcDbEntity
  8
0
100
AcDbBlockBegin
  2
*Model_Space
 70
     0
 10
0.0
 20
0.0
 30
0.0
  3
*Model_Space
  1

  0
ENDBLK
  5
21
330
1F
100
AcDbEntity
  8
0
100
AcDbBlockEnd
  0
BLOCK
  5
1C
330
1B
100
AcDbEntity
 67
     1
  8
0
100
AcDbBlockBegin
  2
*Paper_Space
 70
     0
 10
0.0
 20
0.0
 30
0.0
  3
*Paper_Space
  1

  0
ENDBLK
  5
1D
330
1B
100
AcDbEntity
 67
     1
  8
0
100
AcDbBlockEnd
  0
BLOCK
  5
24
330
23
100
AcDbEntity
  8
0
100
AcDbBlockBegin
  2
*Paper_Space0
 70
     0
 10
0.0
 20
0.0
 30
0.0
  3
*Paper_Space0
  1

  0
ENDBLK
  5
25
330
23
100
AcDbEntity
  8
0
100
AcDbBlockEnd
  0
BLOCK
  5
76
330
75
100
AcDbEntity
  8
0
100
AcDbBlockBegin
  2
圖塊6
 70
     0
 10
0.0
 20
0.0
 30
0.0
  3
圖塊6
  1

  0
ARC
  5
78
330
75
100
AcDbEntity
  8
0
 62
     7
370
    30
100
AcDbCircle
 10
2.2952316509
 20
9.1531024337
 30
0.0
 40
2.295231650915506
100
AcDbArc
 50
130.2115225915
 51
228.588904108
  0
ARC
  5
79
330
75
100
AcDbEntity
  8
0
 62
     7
370
    30
100
AcDbCircle
 10
7.2763703972
 20
8.9924181622
 30
0.0
 40
3.866003140226431
100
AcDbArc
 50
140.4331765613
 51
251.0865666567
  0
ARC
  5
7A
330
75
100
AcDbEntity
  8
0
 62
     7
370
    30
100
AcDbCircle
 10
7.7647562974
 20
9.4676339569
 30
0.0
 40
4.484454986654794
100
AcDbArc
 50
247.1485306747
 51
309.6030773927
  0
LINE
  5
7B
330
75
100
AcDbEntity
  8
0
 62
     7
370
    30
100
AcDbLine
 10
2.7733465903
 20
12.7982738976
 30
0.0
 11
0.813404208
 21
10.9058932828
 31
0.0
  0
LINE
  5
7C
330
75
100
AcDbEntity
  8
0
 62
     7
370
    30
100
AcDbLine
 10
0.7770343349
 20
7.4317177465
 30
0.0
 11
6.7908378002
 21
2.2048119861
 31
0.0
  0
LINE
  5
7D
330
75
100
AcDbEntity
  8
0
 62
     7
370
    30
100
AcDbLine
 10
6.7908378002
 20
2.2048119861
 30
0.0
 11
5.8442599196
 21
1.2809614004
 31
0.0
  0
LINE
  5
7E
330
75
100
AcDbEntity
  8
0
 62
     7
370
    30
100
AcDbLine
 10
5.8442599196
 20
1.2809614004
 30
0.0
 11
7.3320789667
 21
0.0
 31
0.0
  0
LINE
  5
7F
330
75
100
AcDbEntity
  8
0
 62
     7
370
    30
100
AcDbLine
 10
12.1465756182
 20
4.6748669483
 30
0.0
 11
10.6234410708
 21
6.0124555399
 31
0.0
  0
LINE
  5
80
330
75
100
AcDbEntity
  8
0
 62
     7
370
    30
100
AcDbLine
 10
4.2961373614
 20
11.4549760463
 30
0.0
 11
2.7733465903
 21
12.7982738976
 31
0.0
  0
LINE
  5
81
330
75
100
AcDbEntity
  8
0
 62
     7
370
    30
100
AcDbLine
 10
7.3320789667
 20
0.0
 30
0.0
 11
12.1465756182
 21
4.6748669483
 31
0.0
  0
ENDBLK
  5
77
330
75
100
AcDbEntity
  8
0
100
AcDbBlockEnd
  0
BLOCK
  5
CC
330
CB
100
AcDbEntity
  8
0
100
AcDbBlockBegin
  2
SW_NOTE_0
 70
     0
 10
0.0
 20
0.0
 30
0.0
  3
SW_NOTE_0
  1

  0
MTEXT
  5
CE
330
CB
100
AcDbEntity
  8
0
  6
Continuous
 62
     0
370
     0
100
AcDbMText
 10
0.0
 20
5.1159875922
 30
0.0
 40
3.96875
 41
0.0
 71
     1
 72
     1
  1
PROPRIETARY AND CONFIDENTIAL
  7
SLDTEXTSTYLE0
 73
     1
 44
1.0
  0
MTEXT
  5
CF
330
CB
100
AcDbEntity
  8
0
  6
Continuous
 62
     0
370
     0
100
AcDbMText
 10
0.0
 20
-0.12297522
 30
0.0
 40
2.778125
 41
0.0
 71
     1
 72
     1
  1
THE INFORMATION CONTAINED IN THIS DRAWING IS THE SOLE PROPERTY OF UNICE E-O SERVICES INC. ANY REPRODUCTION IN PART OR AS A WHOLE WITHOUT THE WRITTEN PERMISSION OF UNICE E-O SERVICES INC IS 
  7
SLDTEXTSTYLE0
 73
     1
 44
1.0
  0
MTEXT
  5
D0
330
CB
100
AcDbEntity
  8
0
  6
Continuous
 62
     0
370
     0
100
AcDbMText
 10
0.0
 20
-3.8271418419
 30
0.0
 40
2.778125
 41
0.0
 71
     1
 72
     1
  1
PROHIBITED.
  7
SLDTEXTSTYLE0
 73
     1
 44
1.0
  0
ENDBLK
  5
CD
330
CB
100
AcDbEntity
  8
0
100
AcDbBlockEnd
  0
BLOCK
  5
DF
330
DE
100
AcDbEntity
  8
0
100
AcDbBlockBegin
  2
SW_NOTE_1
 70
     0
 10
0.0
 20
0.0
 30
0.0
  3
SW_NOTE_1
  1

  0
MTEXT
  5
E2
330
DE
100
AcDbEntity
  8
0
  6
Continuous
 62
     0
370
     0
100
AcDbMText
 10
0.0
 20
3.5811913146
 30
0.0
 40
2.778125
 41
0.0
 71
     1
 72
     1
  1
No.5, Andong Rd., Chung Li District,
  7
SLDTEXTSTYLE2
 73
     1
 44
1.0
  0
MTEXT
  5
E3
330
DE
100
AcDbEntity
  8
0
  6
Continuous
 62
     0
370
     0
100
AcDbMText
 10
0.0
 20
-0.1229753073
 30
0.0
 40
2.778125
 41
0.0
 71
     1
 72
     1
  1
Taoyuan City 32063, Taiwan, R.O.C.
  7
SLDTEXTSTYLE2
 73
     1
 44
1.0
  0
ENDBLK
  5
E0
330
DE
100
AcDbEntity
  8
0
100
AcDbBlockEnd
  0
BLOCK
  5
2B7
330
2B6
100
AcDbEntity
  8
0
100
AcDbBlockBegin
  2
_D
 70
     0
 10
0.0
 20
0.0
 30
0.0
  3
_D
  1

  0
SOLID
  5
2B9
330
2B6
100
AcDbEntity
  8
SLD-0
 62
     7
100
AcDbTrace
 10
250.7556612021
 20
252.8154855738
 30
0.0
 11
250.3806612021
 21
249.8154855738
 31
0.0
 12
251.1306612021
 22
249.8154855738
 32
0.0
 13
251.1306612021
 23
249.8154855738
 33
0.0
  0
SOLID
  5
2BA
330
2B6
100
AcDbEntity
  8
SLD-0
 62
     7
100
AcDbTrace
 10
250.7556612021
 20
202.8154855738
 30
0.0
 11
251.1306612021
 21
205.8154855738
 31
0.0
 12
250.3806612021
 22
205.8154855738
 32
0.0
 13
250.3806612021
 23
205.8154855738
 33
0.0
  0
LINE
  5
2BB
330
2B6
100
AcDbEntity
  8
SLD-0
 62
     7
100
AcDbLine
 10
182.9798257253
 20
252.8154855738
 30
0.0
 11
252.2556612021
 21
252.8154855738
 31
0.0
  0
LINE
  5
2BC
330
2B6
100
AcDbEntity
  8
SLD-0
 62
     7
100
AcDbLine
 10
182.9798257253
 20
202.8154855738
 30
0.0
 11
252.2556612021
 21
202.8154855738
 31
0.0
  0
LINE
  5
2BD
330
2B6
100
AcDbEntity
  8
SLD-0
 62
     7
100
AcDbLine
 10
250.7556612021
 20
252.8154855738
 30
0.0
 11
250.7556612021
 21
202.8154855738
 31
0.0
  0
MTEXT
  5
2BE
330
2B6
100
AcDbEntity
  8
SLD-0
 62
     7
100
AcDbMText
 10
245.9216574399
 20
224.9509022366
 30
0.0
 40
3.75
 41
0.0
 71
     1
 72
     1
  1
50
  7
SLDTEXTSTYLE0
 11
-7.044195017643634E-15
 21
1.0
 31
0.0
 73
     1
 44
1.0
  0
ENDBLK
  5
2B8
330
2B6
100
AcDbEntity
  8
0
100
AcDbBlockEnd
  0
BLOCK
  5
2C1
330
2C0
100
AcDbEntity
  8
0
100
AcDbBlockBegin
  2
_D_1
 70
     0
 10
0.0
 20
0.0
 30
0.0
  3
_D_1
  1

  0
SOLID
  5
2C3
330
2C0
100
AcDbEntity
  8
SLD-0
 62
     7
100
AcDbTrace
 10
168.9798257253
 20
191.065051682
 30
0.0
 11
171.9798257253
 21
190.690051682
 31
0.0
 12
171.9798257253
 22
191.440051682
 32
0.0
 13
171.9798257253
 23
191.440051682
 33
0.0
  0
SOLID
  5
2C4
330
2C0
100
AcDbEntity
  8
SLD-0
 62
     7
100
AcDbTrace
 10
195.9798257253
 20
191.065051682
 30
0.0
 11
192.9798257253
 21
191.440051682
 31
0.0
 12
192.9798257253
 22
190.690051682
 32
0.0
 13
192.9798257253
 23
190.690051682
 33
0.0
  0
LINE
  5
2C5
330
2C0
100
AcDbEntity
  8
SLD-0
 62
     7
100
AcDbLine
 10
168.9798257253
 20
220.9492255738
 30
0.0
 11
168.9798257253
 21
189.565051682
 31
0.0
  0
LINE
  5
2C6
330
2C0
100
AcDbEntity
  8
SLD-0
 62
     7
100
AcDbLine
 10
195.9798257253
 20
207.9492255738
 30
0.0
 11
195.9798257253
 21
189.565051682
 31
0.0
  0
LINE
  5
2C7
330
2C0
100
AcDbEntity
  8
SLD-0
 62
     7
100
AcDbLine
 10
168.9798257253
 20
191.065051682
 30
0.0
 11
195.9798257253
 21
191.065051682
 31
0.0
  0
MTEXT
  5
2C8
330
2C0
100
AcDbEntity
  8
SLD-0
 62
     7
100
AcDbMText
 10
179.615242388
 20
195.8990554442
 30
0.0
 40
3.75
 41
0.0
 71
     1
 72
     1
  1
27
  7
SLDTEXTSTYLE0
 73
     1
 44
1.0
  0
ENDBLK
  5
2C2
330
2C0
100
AcDbEntity
  8
0
100
AcDbBlockEnd
  0
BLOCK
  5
2CB
330
2CA
100
AcDbEntity
  8
0
100
AcDbBlockBegin
  2
_D_2
 70
     0
 10
0.0
 20
0.0
 30
0.0
  3
_D_2
  1

  0
SOLID
  5
2CD
330
2CA
100
AcDbEntity
  8
SLD-0
 62
     7
100
AcDbTrace
 10
241.9798257253
 20
240.8154855738
 30
0.0
 11
241.6048257253
 21
237.8154855738
 31
0.0
 12
242.3548257253
 22
237.8154855738
 32
0.0
 13
242.3548257253
 23
237.8154855738
 33
0.0
  0
SOLID
  5
2CE
330
2CA
100
AcDbEntity
  8
SLD-0
 62
     7
100
AcDbTrace
 10
241.9798257253
 20
214.8154855738
 30
0.0
 11
242.3548257253
 21
217.8154855738
 31
0.0
 12
241.6048257253
 22
217.8154855738
 32
0.0
 13
241.6048257253
 23
217.8154855738
 33
0.0
  0
LINE
  5
2CF
330
2CA
100
AcDbEntity
  8
SLD-0
 62
     7
100
AcDbLine
 10
202.8460857253
 20
240.8154855738
 30
0.0
 11
243.4798257253
 21
240.8154855738
 31
0.0
  0
LINE
  5
2D0
330
2CA
100
AcDbEntity
  8
SLD-0
 62
     7
100
AcDbLine
 10
202.8460857253
 20
214.8154855738
 30
0.0
 11
243.4798257253
 21
214.8154855738
 31
0.0
  0
LINE
  5
2D1
330
2CA
100
AcDbEntity
  8
SLD-0
 62
     7
100
AcDbLine
 10
241.9798257253
 20
240.8154855738
 30
0.0
 11
241.9798257253
 21
214.8154855738
 31
0.0
  0
MTEXT
  5
2D2
330
2CA
100
AcDbEntity
  8
SLD-0
 62
     7
100
AcDbMText
 10
237.145821963
 20
224.9509022366
 30
0.0
 40
3.75
 41
0.0
 71
     1
 72
     1
  1
26
  7
SLDTEXTSTYLE0
 11
-7.044195017643634E-15
 21
1.0
 31
0.0
 73
     1
 44
1.0
  0
ENDBLK
  5
2CC
330
2CA
100
AcDbEntity
  8
0
100
AcDbBlockEnd
  0
BLOCK
  5
2D6
330
2D5
100
AcDbEntity
  8
0
100
AcDbBlockBegin
  2
_D_3
 70
     0
 10
0.0
 20
0.0
 30
0.0
  3
_D_3
  1

  0
SOLID
  5
2D8
330
2D5
100
AcDbEntity
  8
SLD-0
 62
     7
100
AcDbTrace
 10
165.1985336457
 20
229.9986155738
 30
0.0
 11
162.7879574344
 21
231.8233751002
 31
0.0
 12
162.4129574344
 22
231.1738560474
 32
0.0
 13
162.4129574344
 23
231.1738560474
 33
0.0
  0
LINE
  5
2D9
330
2D5
100
AcDbEntity
  8
SLD-0
 62
     7
100
AcDbLine
 10
165.1985336457
 20
229.9986155738
 30
0.0
 11
144.3586872879
 21
242.0305064784
 31
0.0
  0
LINE
  5
2DA
330
2D5
100
AcDbEntity
  8
SLD-0
 62
     7
100
AcDbLine
 10
144.3586872879
 20
242.0305064784
 30
0.0
 11
96.0930690903
 21
242.0305064784
 31
0.0
  0
MTEXT
  5
2DB
330
2D5
100
AcDbEntity
  8
SLD-0
 62
     7
100
AcDbMText
 10
96.0930690903
 20
252.6197184404
 30
0.0
 40
3.75
 41
0.0
 71
     1
 72
     1
  1
3 HOLES for both of
  7
SLDTEXTSTYLE0
 73
     1
 44
1.0
  0
MTEXT
  5
2DC
330
2D5
100
AcDbEntity
  8
SLD-0
 62
     7
100
AcDbMText
 10
96.0930690903
 20
246.8645102406
 30
0.0
 40
3.75
 41
0.0
 71
     1
 72
     1
  1
 M4 and 8-32 CLR
  7
SLDTEXTSTYLE0
 73
     1
 44
1.0
  0
ENDBLK
  5
2D7
330
2D5
100
AcDbEntity
  8
0
100
AcDbBlockEnd
  0
BLOCK
  5
2DF
330
2DE
100
AcDbEntity
  8
0
100
AcDbBlockBegin
  2
_D_4
 70
     0
 10
0.0
 20
0.0
 30
0.0
  3
_D_4
  1

  0
SOLID
  5
2E1
330
2DE
100
AcDbEntity
  8
SLD-0
 62
     7
100
AcDbTrace
 10
195.9798257253
 20
191.065051682
 30
0.0
 11
198.9798257253
 21
190.690051682
 31
0.0
 12
198.9798257253
 22
191.440051682
 32
0.0
 13
198.9798257253
 23
191.440051682
 33
0.0
  0
SOLID
  5
2E2
330
2DE
100
AcDbEntity
  8
SLD-0
 62
     7
100
AcDbTrace
 10
231.4798257253
 20
191.065051682
 30
0.0
 11
228.4798257253
 21
191.440051682
 31
0.0
 12
228.4798257253
 22
190.690051682
 32
0.0
 13
228.4798257253
 23
190.690051682
 33
0.0
  0
LINE
  5
2E3
330
2DE
100
AcDbEntity
  8
SLD-0
 62
     7
100
AcDbLine
 10
195.9798257253
 20
207.9492255738
 30
0.0
 11
195.9798257253
 21
189.565051682
 31
0.0
  0
LINE
  5
2E4
330
2DE
100
AcDbEntity
  8
SLD-0
 62
     7
100
AcDbLine
 10
231.4798257253
 20
201.3154855738
 30
0.0
 11
231.4798257253
 21
189.565051682
 31
0.0
  0
LINE
  5
2E5
330
2DE
100
AcDbEntity
  8
SLD-0
 62
     7
100
AcDbLine
 10
195.9798257253
 20
191.065051682
 30
0.0
 11
231.4798257253
 21
191.065051682
 31
0.0
  0
MTEXT
  5
2E6
330
2DE
100
AcDbEntity
  8
SLD-0
 62
     7
100
AcDbMText
 10
208.7168050161
 20
195.8990554442
 30
0.0
 40
3.75
 41
0.0
 71
     1
 72
     1
  1
35.5
  7
SLDTEXTSTYLE0
 73
     1
 44
1.0
  0
ENDBLK
  5
2E0
330
2DE
100
AcDbEntity
  8
0
100
AcDbBlockEnd
  0
BLOCK
  5
2E8
330
2E7
100
AcDbEntity
  8
0
100
AcDbBlockBegin
  2
SW_CENTERMARKSYMBOL_0
 70
     0
 10
0.0
 20
0.0
 30
0.0
  3
SW_CENTERMARKSYMBOL_0
  1

  0
LINE
  5
2EA
330
2E7
100
AcDbEntity
  8
SLD-0
 62
     0
100
AcDbLine
 10
0.0
 20
0.0
 30
0.0
 11
0.0
 21
1.0
 31
0.0
  0
LINE
  5
2EB
330
2E7
100
AcDbEntity
  8
SLD-0
 62
     0
100
AcDbLine
 10
0.0
 20
0.0
 30
0.0
 11
-1.0
 21
0.0
 31
0.0
  0
LINE
  5
2EC
330
2E7
100
AcDbEntity
  8
SLD-0
 62
     0
100
AcDbLine
 10
0.0
 20
0.0
 30
0.0
 11
0.0
 21
-1.0
 31
0.0
  0
LINE
  5
2ED
330
2E7
100
AcDbEntity
  8
SLD-0
 62
     0
100
AcDbLine
 10
0.0
 20
0.0
 30
0.0
 11
1.0
 21
0.0
 31
0.0
  0
LINE
  5
2EE
330
2E7
100
AcDbEntity
  8
SLD-0
 62
     0
100
AcDbLine
 10
0.0
 20
2.0
 30
0.0
 11
0.0
 21
5.36626
 31
0.0
  0
LINE
  5
2EF
330
2E7
100
AcDbEntity
  8
SLD-0
 62
     0
100
AcDbLine
 10
-2.0
 20
0.0
 30
0.0
 11
-5.36626
 21
0.0
 31
0.0
  0
LINE
  5
2F0
330
2E7
100
AcDbEntity
  8
SLD-0
 62
     0
100
AcDbLine
 10
0.0
 20
-2.0
 30
0.0
 11
0.0
 21
-5.36626
 31
0.0
  0
LINE
  5
2F1
330
2E7
100
AcDbEntity
  8
SLD-0
 62
     0
100
AcDbLine
 10
2.0
 20
0.0
 30
0.0
 11
5.36626
 21
0.0
 31
0.0
  0
ENDBLK
  5
2E9
330
2E7
100
AcDbEntity
  8
0
100
AcDbBlockEnd
  0
BLOCK
  5
2F4
330
2F3
100
AcDbEntity
  8
0
100
AcDbBlockBegin
  2
SW_CENTERMARKSYMBOL_1
 70
     0
 10
0.0
 20
0.0
 30
0.0
  3
SW_CENTERMARKSYMBOL_1
  1

  0
LINE
  5
2F6
330
2F3
100
AcDbEntity
  8
SLD-0
 62
     0
100
AcDbLine
 10
0.0
 20
0.0
 30
0.0
 11
0.0
 21
1.0
 31
0.0
  0
LINE
  5
2F7
330
2F3
100
AcDbEntity
  8
SLD-0
 62
     0
100
AcDbLine
 10
0.0
 20
0.0
 30
0.0
 11
-1.0
 21
0.0
 31
0.0
  0
LINE
  5
2F8
330
2F3
100
AcDbEntity
  8
SLD-0
 62
     0
100
AcDbLine
 10
0.0
 20
0.0
 30
0.0
 11
0.0
 21
-1.0
 31
0.0
  0
LINE
  5
2F9
330
2F3
100
AcDbEntity
  8
SLD-0
 62
     0
100
AcDbLine
 10
0.0
 20
0.0
 30
0.0
 11
1.0
 21
0.0
 31
0.0
  0
LINE
  5
2FA
330
2F3
100
AcDbEntity
  8
SLD-0
 62
     0
100
AcDbLine
 10
0.0
 20
2.0
 30
0.0
 11
0.0
 21
5.36626
 31
0.0
  0
LINE
  5
2FB
330
2F3
100
AcDbEntity
  8
SLD-0
 62
     0
100
AcDbLine
 10
-2.0
 20
0.0
 30
0.0
 11
-5.36626
 21
0.0
 31
0.0
  0
LINE
  5
2FC
330
2F3
100
AcDbEntity
  8
SLD-0
 62
     0
100
AcDbLine
 10
0.0
 20
-2.0
 30
0.0
 11
0.0
 21
-5.36626
 31
0.0
  0
LINE
  5
2FD
330
2F3
100
AcDbEntity
  8
SLD-0
 62
     0
100
AcDbLine
 10
2.0
 20
0.0
 30
0.0
 11
5.36626
 21
0.0
 31
0.0
  0
ENDBLK
  5
2F5
330
2F3
100
AcDbEntity
  8
0
100
AcDbBlockEnd
  0
BLOCK
  5
300
330
2FF
100
AcDbEntity
  8
0
100
AcDbBlockBegin
  2
SW_CENTERMARKSYMBOL_2
 70
     0
 10
0.0
 20
0.0
 30
0.0
  3
SW_CENTERMARKSYMBOL_2
  1

  0
LINE
  5
302
330
2FF
100
AcDbEntity
  8
SLD-0
 62
     0
100
AcDbLine
 10
0.0
 20
0.0
 30
0.0
 11
0.0
 21
1.0
 31
0.0
  0
LINE
  5
303
330
2FF
100
AcDbEntity
  8
SLD-0
 62
     0
100
AcDbLine
 10
0.0
 20
0.0
 30
0.0
 11
-1.0
 21
0.0
 31
0.0
  0
LINE
  5
304
330
2FF
100
AcDbEntity
  8
SLD-0
 62
     0
100
AcDbLine
 10
0.0
 20
0.0
 30
0.0
 11
0.0
 21
-1.0
 31
0.0
  0
LINE
  5
305
330
2FF
100
AcDbEntity
  8
SLD-0
 62
     0
100
AcDbLine
 10
0.0
 20
0.0
 30
0.0
 11
1.0
 21
0.0
 31
0.0
  0
LINE
  5
306
330
2FF
100
AcDbEntity
  8
SLD-0
 62
     0
100
AcDbLine
 10
0.0
 20
2.0
 30
0.0
 11
0.0
 21
5.36626
 31
0.0
  0
LINE
  5
307
330
2FF
100
AcDbEntity
  8
SLD-0
 62
     0
100
AcDbLine
 10
-2.0
 20
0.0
 30
0.0
 11
-5.36626
 21
0.0
 31
0.0
  0
LINE
  5
308
330
2FF
100
AcDbEntity
  8
SLD-0
 62
     0
100
AcDbLine
 10
0.0
 20
-2.0
 30
0.0
 11
0.0
 21
-5.36626
 31
0.0
  0
LINE
  5
309
330
2FF
100
AcDbEntity
  8
SLD-0
 62
     0
100
AcDbLine
 10
2.0
 20
0.0
 30
0.0
 11
5.36626
 21
0.0
 31
0.0
  0
ENDBLK
  5
301
330
2FF
100
AcDbEntity
  8
0
100
AcDbBlockEnd
  0
BLOCK
  5
451
330
450
100
AcDbEntity
  8
0
100
AcDbBlockBegin
  2
_D_5
 70
     0
 10
0.0
 20
0.0
 30
0.0
  3
_D_5
  1

  0
SOLID
  5
453
330
450
100
AcDbEntity
  8
SLD-0
 62
     7
100
AcDbTrace
 10
163.5463104269
 20
138.9622609609
 30
0.0
 11
161.6186809737
 21
141.2913959271
 31
0.0
 12
161.104667119
 22
140.745236832
 32
0.0
 13
161.104667119
 23
140.745236832
 33
0.0
  0
LINE
  5
454
330
450
100
AcDbEntity
  8
SLD-0
 62
     7
100
AcDbLine
 10
163.5463104269
 20
138.9622609609
 30
0.0
 11
153.2334269432
 21
148.6681599184
 31
0.0
  0
LINE
  5
455
330
450
100
AcDbEntity
  8
SLD-0
 62
     7
100
AcDbLine
 10
153.2334269432
 20
148.6681599184
 30
0.0
 11
128.9951446687
 21
148.6681599184
 31
0.0
  0
MTEXT
  5
456
330
450
100
AcDbEntity
  8
SLD-0
 62
     7
100
AcDbMText
 10
128.9951446687
 20
153.5125802908
 30
0.0
 40
3.75
 41
0.0
 71
     1
 72
     1
  1
Max:
  7
SLDTEXTSTYLE0
 73
     1
 44
1.0
  0
MTEXT
  5
457
330
450
100
AcDbEntity
  8
SLD-0
 62
     7
100
AcDbMText
 10
140.1618115359
 20
153.5021635933
 30
0.0
 40
3.75
 41
0.0
 71
     1
 72
     1
  1
%%c
  7
SLDTEXTSTYLE0
 73
     1
 44
1.0
  0
MTEXT
  5
458
330
450
100
AcDbEntity
  8
SLD-0
 62
     7
100
AcDbMText
 10
145.629259221
 20
153.5125802908
 30
0.0
 40
3.75
 41
0.0
 71
     1
 72
     1
  1
52
  7
SLDTEXTSTYLE0
 73
     1
 44
1.0
  0
ENDBLK
  5
452
330
450
100
AcDbEntity
  8
0
100
AcDbBlockEnd
  0
BLOCK
  5
45B
330
45A
100
AcDbEntity
  8
0
100
AcDbBlockBegin
  2
_D_6
 70
     0
 10
0.0
 20
0.0
 30
0.0
  3
_D_6
  1

  0
SOLID
  5
45D
330
45A
100
AcDbEntity
  8
SLD-0
 62
     7
100
AcDbTrace
 10
252.4798257253
 20
81.4135180727
 30
0.0
 11
252.8548257253
 21
84.4135180727
 31
0.0
 12
252.1048257253
 22
84.4135180727
 32
0.0
 13
252.1048257253
 23
84.4135180727
 33
0.0
  0
SOLID
  5
45E
330
45A
100
AcDbEntity
  8
SLD-0
 62
     7
100
AcDbTrace
 10
252.4798257253
 20
173.4135180727
 30
0.0
 11
252.1048257253
 21
170.4135180727
 31
0.0
 12
252.8548257253
 22
170.4135180727
 32
0.0
 13
252.8548257253
 23
170.4135180727
 33
0.0
  0
LINE
  5
45F
330
45A
100
AcDbEntity
  8
SLD-0
 62
     7
100
AcDbLine
 10
232.9798257253
 20
81.4135180727
 30
0.0
 11
253.9798257253
 21
81.4135180727
 31
0.0
  0
LINE
  5
460
330
45A
100
AcDbEntity
  8
SLD-0
 62
     7
100
AcDbLine
 10
219.4798257253
 20
173.4135180727
 30
0.0
 11
253.9798257253
 21
173.4135180727
 31
0.0
  0
LINE
  5
461
330
45A
100
AcDbEntity
  8
SLD-0
 62
     7
100
AcDbLine
 10
252.4798257253
 20
81.4135180727
 30
0.0
 11
252.4798257253
 21
173.4135180727
 31
0.0
  0
MTEXT
  5
462
330
45A
100
AcDbEntity
  8
SLD-0
 62
     7
100
AcDbMText
 10
247.645821963
 20
124.5489347354
 30
0.0
 40
3.75
 41
0.0
 71
     1
 72
     1
  1
92
  7
SLDTEXTSTYLE0
 11
6.123233995736766E-17
 21
1.0
 31
0.0
 73
     1
 44
1.0
  0
ENDBLK
  5
45C
330
45A
100
AcDbEntity
  8
0
100
AcDbBlockEnd
  0
BLOCK
  5
465
330
464
100
AcDbEntity
  8
0
100
AcDbBlockBegin
  2
_D_7
 70
     0
 10
0.0
 20
0.0
 30
0.0
  3
_D_7
  1

  0
SOLID
  5
467
330
464
100
AcDbEntity
  8
SLD-0
 62
     7
100
AcDbTrace
 10
245.0240935312
 20
103.4135180727
 30
0.0
 11
244.6490935312
 21
100.4135180727
 31
0.0
 12
245.3990935312
 22
100.4135180727
 32
0.0
 13
245.3990935312
 23
100.4135180727
 33
0.0
  0
SOLID
  5
468
330
464
100
AcDbEntity
  8
SLD-0
 62
     7
100
AcDbTrace
 10
245.0240935312
 20
81.4135180727
 30
0.0
 11
245.3990935312
 21
84.4135180727
 31
0.0
 12
244.6490935312
 22
84.4135180727
 32
0.0
 13
244.6490935312
 23
84.4135180727
 33
0.0
  0
LINE
  5
469
330
464
100
AcDbEntity
  8
SLD-0
 62
     7
100
AcDbLine
 10
232.9798257253
 20
103.4135180727
 30
0.0
 11
246.5240935312
 21
103.4135180727
 31
0.0
  0
LINE
  5
46A
330
464
100
AcDbEntity
  8
SLD-0
 62
     7
100
AcDbLine
 10
232.9798257253
 20
81.4135180727
 30
0.0
 11
246.5240935312
 21
81.4135180727
 31
0.0
  0
LINE
  5
46B
330
464
100
AcDbEntity
  8
SLD-0
 62
     7
100
AcDbLine
 10
245.0240935312
 20
103.4135180727
 30
0.0
 11
245.0240935312
 21
81.4135180727
 31
0.0
  0
MTEXT
  5
46C
330
464
100
AcDbEntity
  8
SLD-0
 62
     7
100
AcDbMText
 10
240.190089769
 20
89.5489347354
 30
0.0
 40
3.75
 41
0.0
 71
     1
 72
     1
  1
22
  7
SLDTEXTSTYLE0
 11
-7.044195017643634E-15
 21
1.0
 31
0.0
 73
     1
 44
1.0
  0
ENDBLK
  5
466
330
464
100
AcDbEntity
  8
0
100
AcDbBlockEnd
  0
BLOCK
  5
46F
330
46E
100
AcDbEntity
  8
0
100
AcDbBlockBegin
  2
_D_8
 70
     0
 10
0.0
 20
0.0
 30
0.0
  3
_D_8
  1

  0
SOLID
  5
471
330
46E
100
AcDbEntity
  8
SLD-0
 62
     7
100
AcDbTrace
 10
156.4798257253
 20
65.7248173589
 30
0.0
 11
159.4798257253
 21
65.3498173589
 31
0.0
 12
159.4798257253
 22
66.0998173589
 32
0.0
 13
159.4798257253
 23
66.0998173589
 33
0.0
  0
SOLID
  5
472
330
46E
100
AcDbEntity
  8
SLD-0
 62
     7
100
AcDbTrace
 10
231.4798257253
 20
65.7248173589
 30
0.0
 11
228.4798257253
 21
66.0998173589
 31
0.0
 12
228.4798257253
 22
65.3498173589
 32
0.0
 13
228.4798257253
 23
65.3498173589
 33
0.0
  0
LINE
  5
473
330
46E
100
AcDbEntity
  8
SLD-0
 62
     7
100
AcDbLine
 10
156.4798257253
 20
79.9135180727
 30
0.0
 11
156.4798257253
 21
64.2248173589
 31
0.0
  0
LINE
  5
474
330
46E
100
AcDbEntity
  8
SLD-0
 62
     7
100
AcDbLine
 10
231.4798257253
 20
79.9135180727
 30
0.0
 11
231.4798257253
 21
64.2248173589
 31
0.0
  0
LINE
  5
475
330
46E
100
AcDbEntity
  8
SLD-0
 62
     7
100
AcDbLine
 10
156.4798257253
 20
65.7248173589
 30
0.0
 11
231.4798257253
 21
65.7248173589
 31
0.0
  0
MTEXT
  5
476
330
46E
100
AcDbEntity
  8
SLD-0
 62
     7
100
AcDbMText
 10
191.115242388
 20
70.5588211212
 30
0.0
 40
3.75
 41
0.0
 71
     1
 72
     1
  1
75
  7
SLDTEXTSTYLE0
 73
     1
 44
1.0
  0
ENDBLK
  5
470
330
46E
100
AcDbEntity
  8
0
100
AcDbBlockEnd
  0
BLOCK
  5
5FA
330
5F9
100
AcDbEntity
  8
0
100
AcDbBlockBegin
  2
_D_9
 70
     0
 10
0.0
 20
0.0
 30
0.0
  3
_D_9
  1

  0
SOLID
  5
5FC
330
5F9
100
AcDbEntity
  8
SLD-0
 62
     7
100
AcDbTrace
 10
74.6871677533
 20
68.3061243469
 30
0.0
 11
77.6871677533
 21
67.9311243469
 31
0.0
 12
77.6871677533
 22
68.6811243469
 32
0.0
 13
77.6871677533
 23
68.6811243469
 33
0.0
  0
SOLID
  5
5FD
330
5F9
100
AcDbEntity
  8
SLD-0
 62
     7
100
AcDbTrace
 10
100.0871677533
 20
68.3061243469
 30
0.0
 11
97.0871677533
 21
68.6811243469
 31
0.0
 12
97.0871677533
 22
67.9311243469
 32
0.0
 13
97.0871677533
 23
67.9311243469
 33
0.0
  0
LINE
  5
5FE
330
5F9
100
AcDbEntity
  8
SLD-0
 62
     7
100
AcDbLine
 10
74.6871677533
 20
84.8597580727
 30
0.0
 11
74.6871677533
 21
66.8061243469
 31
0.0
  0
LINE
  5
5FF
330
5F9
100
AcDbEntity
  8
SLD-0
 62
     7
100
AcDbLine
 10
100.0871677533
 20
84.8597580727
 30
0.0
 11
100.0871677533
 21
66.8061243469
 31
0.0
  0
LINE
  5
600
330
5F9
100
AcDbEntity
  8
SLD-0
 62
     7
100
AcDbLine
 10
74.6871677533
 20
68.3061243469
 30
0.0
 11
100.0871677533
 21
68.3061243469
 31
0.0
  0
MTEXT
  5
601
330
5F9
100
AcDbEntity
  8
SLD-0
 62
     7
100
AcDbMText
 10
82.3741470442
 20
73.1401281092
 30
0.0
 40
3.75
 41
0.0
 71
     1
 72
     1
  1
25.4
  7
SLDTEXTSTYLE0
 73
     1
 44
1.0
  0
ENDBLK
  5
5FB
330
5F9
100
AcDbEntity
  8
0
100
AcDbBlockEnd
  0
BLOCK
  5
604
330
603
100
AcDbEntity
  8
0
100
AcDbBlockBegin
  2
_D_10
 70
     0
 10
0.0
 20
0.0
 30
0.0
  3
_D_10
  1

  0
SOLID
  5
606
330
603
100
AcDbEntity
  8
SLD-0
 62
     7
100
AcDbTrace
 10
73.1462212754
 20
99.0644086202
 30
0.0
 11
72.7319863249
 21
102.059243241
 31
0.0
 12
72.0075419552
 22
101.8651289571
 32
0.0
 13
72.0075419552
 23
101.8651289571
 33
0.0
  0
LINE
  5
607
330
603
100
AcDbEntity
  8
SLD-0
 62
     7
100
AcDbLine
 10
73.1462212754
 20
99.0644086202
 30
0.0
 11
68.6759024093
 21
115.7478657543
 31
0.0
  0
LINE
  5
608
330
603
100
AcDbEntity
  8
SLD-0
 62
     7
100
AcDbLine
 10
68.6759024093
 20
115.7478657543
 30
0.0
 11
37.201943619
 21
115.7478657543
 31
0.0
  0
MTEXT
  5
609
330
603
100
AcDbEntity
  8
SLD-0
 62
     7
100
AcDbMText
 10
37.201943619
 20
126.3370777163
 30
0.0
 40
3.75
 41
0.0
 71
     1
 72
     1
  1
2 HOLES,
  7
SLDTEXTSTYLE0
 73
     1
 44
1.0
  0
MTEXT
  5
60A
330
603
100
AcDbEntity
  8
SLD-0
 62
     7
100
AcDbMText
 10
37.201943619
 20
120.5818695165
 30
0.0
 40
3.75
 41
0.0
 71
     1
 72
     1
  1
 1/4"-20 CLR
  7
SLDTEXTSTYLE0
 73
     1
 44
1.0
  0
ENDBLK
  5
605
330
603
100
AcDbEntity
  8
0
100
AcDbBlockEnd
  0
BLOCK
  5
60C
330
60B
100
AcDbEntity
  8
0
100
AcDbBlockBegin
  2
SW_CENTERMARKSYMBOL_3
 70
     0
 10
0.0
 20
0.0
 30
0.0
  3
SW_CENTERMARKSYMBOL_3
  1

  0
LINE
  5
60E
330
60B
100
AcDbEntity
  8
SLD-0
 62
     0
100
AcDbLine
 10
0.0
 20
0.0
 30
0.0
 11
0.0
 21
1.0
 31
0.0
  0
LINE
  5
60F
330
60B
100
AcDbEntity
  8
SLD-0
 62
     0
100
AcDbLine
 10
0.0
 20
0.0
 30
0.0
 11
-1.0
 21
0.0
 31
0.0
  0
LINE
  5
610
330
60B
100
AcDbEntity
  8
SLD-0
 62
     0
100
AcDbLine
 10
0.0
 20
0.0
 30
0.0
 11
0.0
 21
-1.0
 31
0.0
  0
LINE
  5
611
330
60B
100
AcDbEntity
  8
SLD-0
 62
     0
100
AcDbLine
 10
0.0
 20
0.0
 30
0.0
 11
1.0
 21
0.0
 31
0.0
  0
LINE
  5
612
330
60B
100
AcDbEntity
  8
SLD-0
 62
     0
100
AcDbLine
 10
0.0
 20
2.0
 30
0.0
 11
0.0
 21
6.95376
 31
0.0
  0
LINE
  5
613
330
60B
100
AcDbEntity
  8
SLD-0
 62
     0
100
AcDbLine
 10
-2.0
 20
0.0
 30
0.0
 11
-6.95376
 21
0.0
 31
0.0
  0
LINE
  5
614
330
60B
100
AcDbEntity
  8
SLD-0
 62
     0
100
AcDbLine
 10
0.0
 20
-2.0
 30
0.0
 11
0.0
 21
-6.95376
 31
0.0
  0
LINE
  5
615
330
60B
100
AcDbEntity
  8
SLD-0
 62
     0
100
AcDbLine
 10
2.0
 20
0.0
 30
0.0
 11
6.95376
 21
0.0
 31
0.0
  0
ENDBLK
  5
60D
330
60B
100
AcDbEntity
  8
0
100
AcDbBlockEnd
  0
BLOCK
  5
618
330
617
100
AcDbEntity
  8
0
100
AcDbBlockBegin
  2
SW_CENTERMARKSYMBOL_4
 70
     0
 10
0.0
 20
0.0
 30
0.0
  3
SW_CENTERMARKSYMBOL_4
  1

  0
LINE
  5
61A
330
617
100
AcDbEntity
  8
SLD-0
 62
     0
100
AcDbLine
 10
0.0
 20
0.0
 30
0.0
 11
0.0
 21
1.0
 31
0.0
  0
LINE
  5
61B
330
617
100
AcDbEntity
  8
SLD-0
 62
     0
100
AcDbLine
 10
0.0
 20
0.0
 30
0.0
 11
-1.0
 21
0.0
 31
0.0
  0
LINE
  5
61C
330
617
100
AcDbEntity
  8
SLD-0
 62
     0
100
AcDbLine
 10
0.0
 20
0.0
 30
0.0
 11
0.0
 21
-1.0
 31
0.0
  0
LINE
  5
61D
330
617
100
AcDbEntity
  8
SLD-0
 62
     0
100
AcDbLine
 10
0.0
 20
0.0
 30
0.0
 11
1.0
 21
0.0
 31
0.0
  0
LINE
  5
61E
330
617
100
AcDbEntity
  8
SLD-0
 62
     0
100
AcDbLine
 10
0.0
 20
2.0
 30
0.0
 11
0.0
 21
6.95376
 31
0.0
  0
LINE
  5
61F
330
617
100
AcDbEntity
  8
SLD-0
 62
     0
100
AcDbLine
 10
-2.0
 20
0.0
 30
0.0
 11
-6.95376
 21
0.0
 31
0.0
  0
LINE
  5
620
330
617
100
AcDbEntity
  8
SLD-0
 62
     0
100
AcDbLine
 10
0.0
 20
-2.0
 30
0.0
 11
0.0
 21
-6.95376
 31
0.0
  0
LINE
  5
621
330
617
100
AcDbEntity
  8
SLD-0
 62
     0
100
AcDbLine
 10
2.0
 20
0.0
 30
0.0
 11
6.95376
 21
0.0
 31
0.0
  0
ENDBLK
  5
619
330
617
100
AcDbEntity
  8
0
100
AcDbBlockEnd
  0
ENDSEC
  0
SECTION
  2
ENTITIES
  0
HATCH
  5
82
330
1F
100
AcDbEntity
  8
0
  6
Continuous
 62
     7
100
AcDbHatch
 10
0.0
 20
0.0
 30
0.0
210
0.0
220
0.0
230
1.0
  2
SOLID
 70
     1
 71
     0
 91
        1
 92
        0
 93
       10
 72
     2
 10
288.210894844405
 20
53.63371321483284
 40
4.484454986654788
 50
50.3969226073138
 51
112.8514693252976
 73
     0
 72
     2
 10
287.722508944218
 20
53.15849742009306
 40
3.866003140226428
 50
108.9134333432859
 51
219.5668234386823
 73
     0
 72
     1
 10
284.7422759084405
 20
55.62105530422515
 11
283.2194851373368
 21
56.96435315545179
 72
     1
 10
283.2194851373368
 20
56.96435315545179
 11
281.2595427550144
 21
55.07197254069054
 72
     2
 10
282.7413701979584
 20
53.31918169158669
 40
2.295231650915492
 50
130.2115225915088
 51
228.5889041080187
 73
     1
 72
     1
 10
281.2231728819765
 20
51.59779700444966
 11
287.2369763472699
 21
46.37089124403766
 72
     1
 10
287.2369763472699
 20
46.37089124403766
 11
286.2903984666472
 21
45.4470406583311
 72
     1
 10
286.2903984666472
 20
45.4470406583311
 11
287.7782175137356
 21
44.16607925790036
 72
     1
 10
287.7782175137356
 20
44.16607925790036
 11
292.5927141652834
 21
48.84094620617359
 72
     1
 10
292.5927141652834
 20
48.84094620617359
 11
291.0695796177962
 21
50.17853479777325
 97
        0
 75
     0
 76
     1
 98
        1
 10
0.0
 20
0.0
  0
HATCH
  5
83
330
1F
100
AcDbEntity
  8
0
  6
Continuous
 62
     1
100
AcDbHatch
 10
0.0
 20
0.0
 30
0.0
210
0.0
220
0.0
230
1.0
  2
SOLID
 70
     1
 71
     0
 91
        1
 92
        0
 93
       10
 72
     2
 10
288.8838683441533
 20
53.49460373447415
 40
3.866351232519375
 50
317.8184992995785
 51
398.0564711573078
 73
     0
 72
     1
 10
291.9282471087245
 20
51.1112385104617
 11
293.4064204481987
 21
49.82319310062746
 72
     1
 10
293.4064204481987
 20
49.82319310062746
 11
295.2689424203894
 21
51.62984251423828
 72
     2
 10
293.9288539318962
 20
53.47176261196967
 40
2.277829406127398
 50
306.0377529468134
 51
403.4396461533871
 73
     1
 72
     1
 10
295.5827837289046
 20
55.03797557002689
 11
289.3926499413897
 21
60.42173997297782
 72
     1
 10
289.3926499413897
 20
60.42173997297782
 11
290.3290268942806
 21
61.33532761923384
 72
     1
 10
290.3290268942806
 20
61.33532761923384
 11
288.9332671290045
 21
62.58061594900059
 72
     1
 10
288.9332671290045
 20
62.58061594900059
 11
284.0798889563897
 21
57.89023557907947
 72
     1
 10
284.0798889563897
 20
57.89023557907947
 11
285.6135007724125
 21
56.55254978839827
 72
     2
 10
288.4073839080665
 20
52.68337102625687
 40
4.772455056791814
 50
234.1674444878512
 51
314.4407074583993
 73
     0
 97
        0
 75
     0
 76
     1
 98
        1
 10
0.0
 20
0.0
  0
LINE
  5
84
330
1F
100
AcDbEntity
  8
0
  6
Continuous
 62
     7
370
     0
100
AcDbLine
 10
251.7890662777
 20
26.6617788769
 30
0.0
 11
253.2890662777
 21
26.6617788769
 31
0.0
  0
LINE
  5
85
330
1F
100
AcDbEntity
  8
0
  6
Continuous
 62
     7
370
     0
100
AcDbLine
 10
247.2890662777
 20
26.6617788769
 30
0.0
 11
251.0390662777
 21
26.6617788769
 31
0.0
  0
LINE
  5
86
330
1F
100
AcDbEntity
  8
0
  6
Continuous
 62
     7
370
     0
100
AcDbLine
 10
272.0390662777
 20
22.9117788769
 30
0.0
 11
272.0390662777
 21
30.4117788769
 31
0.0
  0
LINE
  5
87
330
1F
100
AcDbEntity
  8
0
  6
Continuous
 62
     7
370
     0
100
AcDbLine
 10
261.5390662777
 20
24.4117788769
 30
0.0
 11
272.0390662777
 21
22.9117788769
 31
0.0
  0
LINE
  5
88
330
1F
100
AcDbEntity
  8
0
  6
Continuous
 62
     7
370
     0
100
AcDbLine
 10
252.5390662777
 20
25.1617788769
 30
0.0
 11
252.5390662777
 21
21.4117788769
 31
0.0
  0
LINE
  5
89
330
1F
100
AcDbEntity
  8
0
  6
Continuous
 62
     7
370
     0
100
AcDbLine
 10
272.0390662777
 20
30.4117788769
 30
0.0
 11
261.5390662777
 21
28.9117788769
 31
0.0
  0
LINE
  5
8A
330
1F
100
AcDbEntity
  8
0
  6
Continuous
 62
     7
370
     0
100
AcDbLine
 10
260.0390662777
 20
26.6617788769
 30
0.0
 11
273.5390662777
 21
26.6617788769
 31
0.0
  0
LINE
  5
8B
330
1F
100
AcDbEntity
  8
0
  6
Continuous
 62
     7
370
     0
100
AcDbLine
 10
252.5390662777
 20
27.4117788769
 30
0.0
 11
252.5390662777
 21
25.9117788769
 31
0.0
  0
LINE
  5
8C
330
1F
100
AcDbEntity
  8
0
  6
Continuous
 62
     7
370
     0
100
AcDbLine
 10
254.0390662777
 20
26.6617788769
 30
0.0
 11
257.7890662777
 21
26.6617788769
 31
0.0
  0
LINE
  5
8D
330
1F
100
AcDbEntity
  8
0
  6
Continuous
 62
     7
370
     0
100
AcDbLine
 10
252.5390662777
 20
31.9117788769
 30
0.0
 11
252.5390662777
 21
28.1617788769
 31
0.0
  0
LINE
  5
8E
330
1F
100
AcDbEntity
  8
0
  6
Continuous
 62
     7
370
     0
100
AcDbLine
 10
261.5390662777
 20
28.9117788769
 30
0.0
 11
261.5390662777
 21
24.4117788769
 31
0.0
  0
LINE
  5
8F
330
1F
100
AcDbEntity
  8
工作區域參考線
 62
     1
370
    30
100
AcDbLine
 10
285.6135007724
 20
56.5525497884
 30
0.0
 11
284.0798889564
 21
57.8902355791
 31
0.0
  0
LINE
  5
90
330
1F
100
AcDbEntity
  8
工作區域參考線
 62
     1
370
    30
100
AcDbLine
 10
284.0798889564
 20
57.8902355791
 30
0.0
 11
288.933267129
 21
62.580615949
 31
0.0
  0
LINE
  5
91
330
1F
100
AcDbEntity
  8
工作區域參考線
 62
     1
370
    30
100
AcDbLine
 10
288.933267129
 20
62.580615949
 30
0.0
 11
290.3290268943
 21
61.3353276192
 31
0.0
  0
LINE
  5
92
330
1F
100
AcDbEntity
  8
工作區域參考線
 62
     1
370
    30
100
AcDbLine
 10
290.3290268943
 20
61.3353276192
 30
0.0
 11
289.3926499414
 21
60.421739973
 31
0.0
  0
LINE
  5
93
330
1F
100
AcDbEntity
  8
工作區域參考線
 62
     1
370
    30
100
AcDbLine
 10
289.3926499414
 20
60.421739973
 30
0.0
 11
295.5827837289
 21
55.03797557
 31
0.0
  0
LINE
  5
94
330
1F
100
AcDbEntity
  8
工作區域參考線
 62
     1
370
    30
100
AcDbLine
 10
291.9282471087
 20
51.1112385105
 30
0.0
 11
293.4064204482
 21
49.8231931006
 31
0.0
  0
LINE
  5
95
330
1F
100
AcDbEntity
  8
工作區域參考線
 62
     1
370
    30
100
AcDbLine
 10
293.4064204482
 20
49.8231931006
 30
0.0
 11
295.2689424204
 21
51.6298425142
 31
0.0
  0
LINE
  5
96
330
1F
100
AcDbEntity
  8
0
  6
Continuous
 62
     7
370
     0
100
AcDbLine
 10
278.5361947814
 20
19.6728696119
 30
0.0
 11
428.5361947814
 21
19.6728696119
 31
0.0
  0
LINE
  5
97
330
1F
100
AcDbEntity
  8
0
  6
Continuous
 62
     7
370
     0
100
AcDbLine
 10
278.5361947814
 20
27.1728696119
 30
0.0
 11
353.5361947814
 21
27.1728696119
 31
0.0
  0
LINE
  5
98
330
1F
100
AcDbEntity
  8
0
  6
Continuous
 62
     7
370
     0
100
AcDbLine
 10
278.5361947814
 20
34.6728696119
 30
0.0
 11
353.5361947814
 21
34.6728696119
 31
0.0
  0
LINE
  5
99
330
1F
100
AcDbEntity
  8
0
  6
Continuous
 62
     7
370
     0
100
AcDbLine
 10
278.5361947814
 20
42.1728696119
 30
0.0
 11
428.5361947814
 21
42.1728696119
 31
0.0
  0
LINE
  5
9A
330
1F
100
AcDbEntity
  8
0
  6
Continuous
 62
     7
370
     0
100
AcDbLine
 10
353.5361947814
 20
49.6728696119
 30
0.0
 11
428.5361947814
 21
49.6728696119
 31
0.0
  0
LINE
  5
9B
330
1F
100
AcDbEntity
  8
0
  6
Continuous
 62
     7
370
    15
100
AcDbLine
 10
353.5361947814
 20
27.1728696119
 30
0.0
 11
428.5361947814
 21
27.1728696119
 31
0.0
  0
LINE
  5
9C
330
1F
100
AcDbEntity
  8
0
  6
Continuous
 62
     7
370
     0
100
AcDbLine
 10
278.5361947814
 20
64.6728696119
 30
0.0
 11
428.5361947814
 21
64.6728696119
 31
0.0
  0
LINE
  5
9D
330
1F
100
AcDbEntity
  8
0
  6
Continuous
 62
     7
370
     0
100
AcDbLine
 10
376.8558265126
 20
12.1728696119
 30
0.0
 11
376.8558265126
 21
27.1728696119
 31
0.0
  0
LINE
  5
9E
330
1F
100
AcDbEntity
  8
0
  6
Continuous
 62
     7
370
     0
100
AcDbLine
 10
353.5361947814
 20
12.1728696119
 30
0.0
 11
353.5361947814
 21
64.6728696119
 31
0.0
  0
LINE
  5
9F
330
1F
100
AcDbEntity
  8
0
  6
Continuous
 62
     7
370
     0
100
AcDbLine
 10
376.8558265126
 20
42.1728696119
 30
0.0
 11
376.8558265126
 21
49.6728696119
 31
0.0
  0
LINE
  5
A0
330
1F
100
AcDbEntity
  8
0
  6
Continuous
 62
     7
370
     0
100
AcDbLine
 10
321.624612953
 20
12.1728696119
 30
0.0
 11
321.624612953
 21
42.1728696119
 31
0.0
  0
LINE
  5
A1
330
1F
100
AcDbEntity
  8
0
  6
Continuous
 62
     7
370
     0
100
AcDbLine
 10
299.6678831259
 20
12.1728696119
 30
0.0
 11
299.6678831259
 21
42.1728696119
 31
0.0
  0
LINE
  5
A2
330
1F
100
AcDbEntity
  8
0
  6
Continuous
 62
     7
370
     0
100
AcDbLine
 10
278.5361947814
 20
12.1728696119
 30
0.0
 11
278.5361947814
 21
64.6728696119
 31
0.0
  0
LINE
  5
A3
330
1F
100
AcDbEntity
  8
0
  6
Continuous
 62
     7
370
    15
100
AcDbLine
 10
13.0361947814
 20
157.1154554872
 30
0.0
 11
22.0361947814
 21
157.1154554872
 31
0.0
  0
LINE
  5
A4
330
1F
100
AcDbEntity
  8
0
  6
Continuous
 62
     7
370
    15
100
AcDbLine
 10
428.5361947814
 20
157.1154554872
 30
0.0
 11
419.5361947814
 21
157.1154554872
 31
0.0
  0
LINE
  5
A5
330
1F
100
AcDbEntity
  8
0
  6
Continuous
 62
     7
370
    15
100
AcDbLine
 10
220.7861947814
 20
12.1728696119
 30
0.0
 11
220.7861947814
 21
21.1728696119
 31
0.0
  0
LINE
  5
A6
330
1F
100
AcDbEntity
  8
0
  6
Continuous
 62
     7
370
    15
100
AcDbLine
 10
220.7861947814
 20
302.0580413626
 30
0.0
 11
220.7861947814
 21
293.0580413626
 31
0.0
  0
LINE
  5
A7
330
1F
100
AcDbEntity
  8
0
  6
Continuous
 62
     7
370
    15
100
AcDbLine
 10
64.9811947814
 20
302.0580413626
 30
0.0
 11
64.9811947814
 21
304.3080413626
 31
0.0
  0
LINE
  5
A8
330
1F
100
AcDbEntity
  8
0
  6
Continuous
 62
     7
370
    15
100
AcDbLine
 10
116.9261947814
 20
302.0580413626
 30
0.0
 11
116.9261947814
 21
304.3080413626
 31
0.0
  0
LINE
  5
A9
330
1F
100
AcDbEntity
  8
0
  6
Continuous
 62
     7
370
    15
100
AcDbLine
 10
168.8711947814
 20
302.0580413626
 30
0.0
 11
168.8711947814
 21
304.3080413626
 31
0.0
  0
LINE
  5
AA
330
1F
100
AcDbEntity
  8
0
  6
Continuous
 62
     7
370
    15
100
AcDbLine
 10
220.8161947814
 20
302.0580413626
 30
0.0
 11
220.8161947814
 21
304.3080413626
 31
0.0
  0
LINE
  5
AB
330
1F
100
AcDbEntity
  8
0
  6
Continuous
 62
     7
370
    15
100
AcDbLine
 10
272.7611947814
 20
302.0580413626
 30
0.0
 11
272.7611947814
 21
304.3080413626
 31
0.0
  0
LINE
  5
AC
330
1F
100
AcDbEntity
  8
0
  6
Continuous
 62
     7
370
    15
100
AcDbLine
 10
324.7061947814
 20
302.0580413626
 30
0.0
 11
324.7061947814
 21
304.3080413626
 31
0.0
  0
LINE
  5
AD
330
1F
100
AcDbEntity
  8
0
  6
Continuous
 62
     7
370
    15
100
AcDbLine
 10
376.6511947814
 20
302.0580413626
 30
0.0
 11
376.6511947814
 21
304.3080413626
 31
0.0
  0
LINE
  5
AE
330
1F
100
AcDbEntity
  8
0
  6
Continuous
 62
     7
370
    15
100
AcDbLine
 10
64.9736947814
 20
12.1728696119
 30
0.0
 11
64.9736947814
 21
9.9228696119
 31
0.0
  0
LINE
  5
AF
330
1F
100
AcDbEntity
  8
0
  6
Continuous
 62
     7
370
    15
100
AcDbLine
 10
116.9111947814
 20
12.1728696119
 30
0.0
 11
116.9111947814
 21
9.9228696119
 31
0.0
  0
LINE
  5
B0
330
1F
100
AcDbEntity
  8
0
  6
Continuous
 62
     7
370
    15
100
AcDbLine
 10
168.8486947814
 20
12.1728696119
 30
0.0
 11
168.8486947814
 21
9.9228696119
 31
0.0
  0
LINE
  5
B1
330
1F
100
AcDbEntity
  8
0
  6
Continuous
 62
     7
370
    15
100
AcDbLine
 10
220.7861947814
 20
12.1728696119
 30
0.0
 11
220.7861947814
 21
9.9228696119
 31
0.0
  0
LINE
  5
B2
330
1F
100
AcDbEntity
  8
0
  6
Continuous
 62
     7
370
    15
100
AcDbLine
 10
272.7236947814
 20
12.1728696119
 30
0.0
 11
272.7236947814
 21
9.9228696119
 31
0.0
  0
LINE
  5
B3
330
1F
100
AcDbEntity
  8
0
  6
Continuous
 62
     7
370
    15
100
AcDbLine
 10
324.6611947814
 20
12.1728696119
 30
0.0
 11
324.6611947814
 21
9.9228696119
 31
0.0
  0
LINE
  5
B4
330
1F
100
AcDbEntity
  8
0
  6
Continuous
 62
     7
370
     0
100
AcDbLine
 10
428.5361947814
 20
302.0580413626
 30
0.0
 11
13.0361947814
 21
302.0580413626
 31
0.0
  0
LINE
  5
B5
330
1F
100
AcDbEntity
  8
0
  6
Continuous
 62
     7
370
     0
100
AcDbLine
 10
428.5361947814
 20
12.1728696119
 30
0.0
 11
428.5361947814
 21
302.0580413626
 31
0.0
  0
LINE
  5
B6
330
1F
100
AcDbEntity
  8
0
  6
Continuous
 62
     7
370
     0
100
AcDbLine
 10
13.0361947814
 20
302.0580413626
 30
0.0
 11
13.0361947814
 21
12.1728696119
 31
0.0
  0
LINE
  5
B7
330
1F
100
AcDbEntity
  8
0
  6
Continuous
 62
     7
370
     0
100
AcDbLine
 10
13.0361947814
 20
12.1728696119
 30
0.0
 11
428.5361947814
 21
12.1728696119
 31
0.0
  0
LINE
  5
B8
330
1F
100
AcDbEntity
  8
0
  6
Continuous
 62
     7
370
    15
100
AcDbLine
 10
376.5986947814
 20
12.1728696119
 30
0.0
 11
376.5986947814
 21
9.9228696119
 31
0.0
  0
LINE
  5
B9
330
1F
100
AcDbEntity
  8
0
  6
Continuous
 62
     7
370
    15
100
AcDbLine
 10
13.0361947814
 20
60.4878696119
 30
0.0
 11
10.7861947814
 21
60.4878696119
 31
0.0
  0
LINE
  5
BA
330
1F
100
AcDbEntity
  8
0
  6
Continuous
 62
     7
370
    15
100
AcDbLine
 10
13.0361947814
 20
108.8028696119
 30
0.0
 11
10.7861947814
 21
108.8028696119
 31
0.0
  0
LINE
  5
BB
330
1F
100
AcDbEntity
  8
0
  6
Continuous
 62
     7
370
    15
100
AcDbLine
 10
13.0361947814
 20
157.1178696119
 30
0.0
 11
10.7861947814
 21
157.1178696119
 31
0.0
  0
LINE
  5
BC
330
1F
100
AcDbEntity
  8
0
  6
Continuous
 62
     7
370
    15
100
AcDbLine
 10
13.0361947814
 20
205.4328696119
 30
0.0
 11
10.7861947814
 21
205.4328696119
 31
0.0
  0
LINE
  5
BD
330
1F
100
AcDbEntity
  8
0
  6
Continuous
 62
     7
370
    15
100
AcDbLine
 10
13.0361947814
 20
253.7478696119
 30
0.0
 11
10.7861947814
 21
253.7478696119
 31
0.0
  0
LINE
  5
BE
330
1F
100
AcDbEntity
  8
0
  6
Continuous
 62
     7
370
    15
100
AcDbLine
 10
428.5361947814
 20
60.4878696119
 30
0.0
 11
430.7861947814
 21
60.4878696119
 31
0.0
  0
LINE
  5
BF
330
1F
100
AcDbEntity
  8
0
  6
Continuous
 62
     7
370
    15
100
AcDbLine
 10
428.5361947814
 20
108.8028696119
 30
0.0
 11
430.7861947814
 21
108.8028696119
 31
0.0
  0
LINE
  5
C0
330
1F
100
AcDbEntity
  8
0
  6
Continuous
 62
     7
370
    15
100
AcDbLine
 10
428.5361947814
 20
157.1178696119
 30
0.0
 11
430.7861947814
 21
157.1178696119
 31
0.0
  0
LINE
  5
C1
330
1F
100
AcDbEntity
  8
0
  6
Continuous
 62
     7
370
    15
100
AcDbLine
 10
428.5361947814
 20
205.4328696119
 30
0.0
 11
430.7861947814
 21
205.4328696119
 31
0.0
  0
LINE
  5
C2
330
1F
100
AcDbEntity
  8
0
  6
Continuous
 62
     7
370
    15
100
AcDbLine
 10
428.5361947814
 20
253.7478696119
 30
0.0
 11
430.7861947814
 21
253.7478696119
 31
0.0
  0
CIRCLE
  5
C3
330
1F
100
AcDbEntity
  8
0
  6
Continuous
 62
     7
370
     0
100
AcDbCircle
 10
252.5390662777
 20
26.6617788769
 30
0.0
 40
2.249999999999943
  0
CIRCLE
  5
C4
330
1F
100
AcDbEntity
  8
0
  6
Continuous
 62
     7
370
     0
100
AcDbCircle
 10
252.5390662777
 20
26.6617788769
 30
0.0
 40
3.749999999999943
  0
ARC
  5
C5
330
1F
100
AcDbEntity
  8
工作區域參考線
 62
     1
370
    30
100
AcDbCircle
 10
293.9288539319
 20
53.471762612
 30
0.0
 40
2.277829406127415
100
AcDbArc
 50
306.0377529468
 51
43.4396461534
  0
ARC
  5
C6
330
1F
100
AcDbEntity
  8
工作區域參考線
 62
     1
370
    30
100
AcDbCircle
 10
288.4073839081
 20
52.6833710263
 30
0.0
 40
4.772455056791824
100
AcDbArc
 50
45.5592925416
 51
125.8325555121
  0
ARC
  5
C7
330
1F
100
AcDbEntity
  8
工作區域參考線
 62
     1
370
    30
100
AcDbCircle
 10
288.8838683442
 20
53.4946037345
 30
0.0
 40
3.866351232519385
100
AcDbArc
 50
321.9435288427
 51
42.1815007004
  0
INSERT
  5
C8
330
1F
100
AcDbEntity
  8
0
  6
Continuous
 62
     7
100
AcDbBlockReference
  2
圖塊6
 10
280.446138547
 20
44.1660792579
 30
0.0
  0
MTEXT
  5
CA
330
1F
100
AcDbEntity
  8
0
  6
Continuous
 62
     7
370
     0
100
AcDbMText
 10
248.3140276206
 20
19.8312660554
 30
0.0
 40
3.96875
 41
0.0
 71
     1
 72
     1
  1
UNIT:m/m
  7
SLDTEXTSTYLE0
 73
     1
 44
1.0
  0
INSERT
  5
D1
330
1F
100
AcDbEntity
  8
0
  6
Continuous
 62
     7
370
     0
100
AcDbBlockReference
  2
SW_NOTE_0
 10
18.347261408
 20
290.8356456377
 30
0.0
  0
MTEXT
  5
D3
330
1F
100
AcDbEntity
  8
0
  6
Continuous
 62
     7
370
     0
100
AcDbMText
 10
298.0877840902
 20
60.6610161208
 30
0.0
 40
3.571875
 41
0.0
 71
     1
 72
     1
  1
Unice E-O Services Inc.
  7
SLDTEXTSTYLE1
 73
     1
 44
1.0
  0
MTEXT
  5
D4
330
1F
100
AcDbEntity
  8
0
  6
Continuous
 62
     7
370
     0
100
AcDbMText
 10
326.3385807224
 20
32.3800722766
 30
0.0
 40
2.778125
 41
0.0
 71
     1
 72
     1
  1
2015/4/17
  7
SLDTEXTSTYLE0
 73
     1
 44
1.0
  0
MTEXT
  5
D5
330
1F
100
AcDbEntity
  8
0
  6
Continuous
 62
     7
370
     0
100
AcDbMText
 10
378.913347376
 20
25.30676661
 30
0.0
 40
3.75
 41
0.0
 71
     1
 72
     1
  1
1:1.5
  7
SLDTEXTSTYLE0
 73
     1
 44
1.0
  0
MTEXT
  5
D6
330
1F
100
AcDbEntity
  8
0
  6
Continuous
 62
     7
370
     0
100
AcDbMText
 10
378.4613399977
 20
48.2278793156
 30
0.0
 40
3.75
 41
0.0
 71
     1
 72
     1
  1
04VCH-1
  7
SLDTEXTSTYLE0
 73
     1
 44
1.0
  0
MTEXT
  5
D7
330
1F
100
AcDbEntity
  8
0
  6
Continuous
 62
     7
370
     0
100
AcDbMText
 10
378.4613399977
 20
57.1623176818
 30
0.0
 40
3.75
 41
0.0
 71
     1
 72
     1
  1
04VCH-1
  7
SLDTEXTSTYLE0
 73
     1
 44
1.0
  0
MTEXT
  5
D8
330
1F
100
AcDbEntity
  8
0
  6
Continuous
 62
     7
370
     0
100
AcDbMText
 10
354.588280018
 20
24.7597193593
 30
0.0
 40
3.175
 41
0.0
 71
     1
 72
     1
  1
SCALE:
  7
SLDTEXTSTYLE0
 73
     1
 44
1.0
  0
MTEXT
  5
D9
330
1F
100
AcDbEntity
  8
0
  6
Continuous
 62
     7
370
     0
100
AcDbMText
 10
279.5004130184
 20
32.3800722766
 30
0.0
 40
2.778125
 41
0.0
 71
     1
 72
     1
  1
DRAWN
  7
SLDTEXTSTYLE0
 73
     1
 44
1.0
  0
MTEXT
  5
DA
330
1F
100
AcDbEntity
  8
0
  6
Continuous
 62
     7
370
     0
100
AcDbMText
 10
304.8342551905
 20
40.024812462
 30
0.0
 40
2.778125
 41
0.0
 71
     1
 72
     1
  1
NAME
  7
SLDTEXTSTYLE0
 73
     1
 44
1.0
  0
MTEXT
  5
DB
330
1F
100
AcDbEntity
  8
0
  6
Continuous
 62
     7
370
     0
100
AcDbMText
 10
331.3065233636
 20
40.024812462
 30
0.0
 40
2.778125
 41
0.0
 71
     1
 72
     1
  1
DATE
  7
SLDTEXTSTYLE0
 73
     1
 44
1.0
  0
MTEXT
  5
DC
330
1F
100
AcDbEntity
  8
0
  6
Continuous
 62
     7
370
     0
100
AcDbMText
 10
354.4134474968
 20
47.6808320649
 30
0.0
 40
3.175
 41
0.0
 71
     1
 72
     1
  1
DWG. NO.
  7
SLDTEXTSTYLE0
 73
     1
 44
1.0
  0
MTEXT
  5
DD
330
1F
100
AcDbEntity
  8
0
  6
Continuous
 62
     7
370
     0
100
AcDbMText
 10
354.5444860632
 20
62.8260987365
 30
0.0
 40
3.175
 41
0.0
 71
     1
 72
     1
  1
TITLE:
  7
SLDTEXTSTYLE0
 73
     1
 44
1.0
  0
INSERT
  5
E4
330
1F
100
AcDbEntity
  8
0
  6
Continuous
 62
     7
370
     0
100
AcDbBlockReference
  2
SW_NOTE_1
 10
298.0877840902
 20
48.8036189306
 30
0.0
  0
MTEXT
  5
E5
330
1F
100
AcDbEntity
  8
0
  6
Continuous
 62
     7
370
     0
100
AcDbMText
 10
304.5471314703
 20
24.3605684586
 30
0.0
 40
2.778125
 41
0.0
 71
     1
 72
     1
  1
Johnny
  7
SLDTEXTSTYLE0
 73
     1
 44
1.0
  0
MTEXT
  5
E6
330
1F
100
AcDbEntity
  8
0
  6
Continuous
 62
     7
370
     0
100
AcDbMText
 10
326.3385807224
 20
24.3605684586
 30
0.0
 40
2.778125
 41
0.0
 71
     1
 72
     1
  1
2015/4/17
  7
SLDTEXTSTYLE0
 73
     1
 44
1.0
  0
MTEXT
  5
E7
330
1F
100
AcDbEntity
  8
0
  6
Continuous
 62
     7
370
     0
100
AcDbMText
 10
279.5004130184
 20
24.3605684586
 30
0.0
 40
2.778125
 41
0.0
 71
     1
 72
     1
  1
ENG APPR.
  7
SLDTEXTSTYLE0
 73
     1
 44
1.0
  0
MTEXT
  5
E8
330
1F
100
AcDbEntity
  8
0
  6
Continuous
 62
     7
370
     0
100
AcDbMText
 10
354.588280018
 20
17.5280083932
 30
0.0
 40
3.175
 41
0.0
 71
     1
 72
     1
  1
REV
  7
SLDTEXTSTYLE0
 73
     1
 44
1.0
  0
MTEXT
  5
E9
330
1F
100
AcDbEntity
  8
0
  6
Continuous
 62
     7
370
     0
100
AcDbMText
 10
354.5444860632
 20
40.4239633627
 30
0.0
 40
3.175
 41
0.0
 71
     1
 72
     1
  1
MATERIAL:
  7
SLDTEXTSTYLE0
 73
     1
 44
1.0
  0
MTEXT
  5
EA
330
1F
100
AcDbEntity
  8
0
  6
Continuous
 62
     7
370
     0
100
AcDbMText
 10
378.913347376
 20
33.326270428
 30
0.0
 40
3.75
 41
0.0
 71
     1
 72
     1
  1
N/A
  7
SLDTEXTSTYLE0
 73
     1
 44
1.0
  0
MTEXT
  5
EB
330
1F
100
AcDbEntity
  8
0
  6
Continuous
 62
     7
370
     0
100
AcDbMText
 10
39.90448973
 20
306.6800274854
 30
0.0
 40
3.175
 41
0.0
 71
     1
 72
     1
  1
1
  7
SLDTEXTSTYLE0
 73
     1
 44
1.0
  0
MTEXT
  5
EC
330
1F
100
AcDbEntity
  8
0
  6
Continuous
 62
     7
370
     0
100
AcDbMText
 10
91.0756493586
 20
306.6800274854
 30
0.0
 40
3.175
 41
0.0
 71
     1
 72
     1
  1
2
  7
SLDTEXTSTYLE0
 73
     1
 44
1.0
  0
MTEXT
  5
ED
330
1F
100
AcDbEntity
  8
0
  6
Continuous
 62
     7
370
     0
100
AcDbMText
 10
142.3514915859
 20
306.6800274854
 30
0.0
 40
3.175
 41
0.0
 71
     1
 72
     1
  1
3
  7
SLDTEXTSTYLE0
 73
     1
 44
1.0
  0
MTEXT
  5
EE
330
1F
100
AcDbEntity
  8
0
  6
Continuous
 62
     7
370
     0
100
AcDbMText
 10
193.8800044277
 20
306.4488876546
 30
0.0
 40
3.175
 41
0.0
 71
     1
 72
     1
  1
4
  7
SLDTEXTSTYLE0
 73
     1
 44
1.0
  0
MTEXT
  5
EF
330
1F
100
AcDbEntity
  8
0
  6
Continuous
 62
     7
370
     0
100
AcDbMText
 10
245.5534851959
 20
306.6800274854
 30
0.0
 40
3.175
 41
0.0
 71
     1
 72
     1
  1
5
  7
SLDTEXTSTYLE0
 73
     1
 44
1.0
  0
MTEXT
  5
F0
330
1F
100
AcDbEntity
  8
0
  6
Continuous
 62
     7
370
     0
100
AcDbMText
 10
297.9573255623
 20
306.6800274854
 30
0.0
 40
3.175
 41
0.0
 71
     1
 72
     1
  1
6
  7
SLDTEXTSTYLE0
 73
     1
 44
1.0
  0
MTEXT
  5
F1
330
1F
100
AcDbEntity
  8
0
  6
Continuous
 62
     7
370
     0
100
AcDbMText
 10
351.544598611
 20
306.6800274854
 30
0.0
 40
3.175
 41
0.0
 71
     1
 72
     1
  1
7
  7
SLDTEXTSTYLE0
 73
     1
 44
1.0
  0
MTEXT
  5
F2
330
1F
100
AcDbEntity
  8
0
  6
Continuous
 62
     7
370
     0
100
AcDbMText
 10
399.4181730741
 20
306.6800274854
 30
0.0
 40
3.175
 41
0.0
 71
     1
 72
     1
  1
8
  7
SLDTEXTSTYLE0
 73
     1
 44
1.0
  0
MTEXT
  5
F3
330
1F
100
AcDbEntity
  8
0
  6
Continuous
 62
     7
370
     0
100
AcDbMText
 10
8.0352354832
 20
278.7169534319
 30
0.0
 40
3.175
 41
0.0
 71
     1
 72
     1
  1
A
  7
SLDTEXTSTYLE0
 73
     1
 44
1.0
  0
MTEXT
  5
F4
330
1F
100
AcDbEntity
  8
0
  6
Continuous
 62
     7
370
     0
100
AcDbMText
 10
8.3865647747
 20
231.4489572357
 30
0.0
 40
3.175
 41
0.0
 71
     1
 72
     1
  1
B
  7
SLDTEXTSTYLE0
 73
     1
 44
1.0
  0
MTEXT
  5
F5
330
1F
100
AcDbEntity
  8
0
  6
Continuous
 62
     7
370
     0
100
AcDbMText
 10
8.3865647747
 20
181.9115271345
 30
0.0
 40
3.175
 41
0.0
 71
     1
 72
     1
  1
C
  7
SLDTEXTSTYLE0
 73
     1
 44
1.0
  0
MTEXT
  5
F6
330
1F
100
AcDbEntity
  8
0
  6
Continuous
 62
     7
370
     0
100
AcDbMText
 10
8.3865647747
 20
133.1179830331
 30
0.0
 40
3.175
 41
0.0
 71
     1
 72
     1
  1
D
  7
SLDTEXTSTYLE0
 73
     1
 44
1.0
  0
MTEXT
  5
F7
330
1F
100
AcDbEntity
  8
0
  6
Continuous
 62
     7
370
     0
100
AcDbMText
 10
8.3865647747
 20
86.3338273796
 30
0.0
 40
3.175
 41
0.0
 71
     1
 72
     1
  1
E
  7
SLDTEXTSTYLE0
 73
     1
 44
1.0
  0
MTEXT
  5
F8
330
1F
100
AcDbEntity
  8
0
  6
Continuous
 62
     7
370
     0
100
AcDbMText
 10
8.3865647747
 20
38.3541318378
 30
0.0
 40
3.175
 41
0.0
 71
     1
 72
     1
  1
F
  7
SLDTEXTSTYLE0
 73
     1
 44
1.0
  0
MTEXT
  5
F9
330
1F
100
AcDbEntity
  8
0
  6
Continuous
 62
     7
370
     0
100
AcDbMText
 10
399.2787925446
 20
9.9354335945
 30
0.0
 40
3.175
 41
0.0
 71
     1
 72
     1
  1
8
  7
SLDTEXTSTYLE0
 73
     1
 44
1.0
  0
MTEXT
  5
FA
330
1F
100
AcDbEntity
  8
0
  6
Continuous
 62
     7
370
     0
100
AcDbMText
 10
351.4052180815
 20
9.9354335945
 30
0.0
 40
3.175
 41
0.0
 71
     1
 72
     1
  1
7
  7
SLDTEXTSTYLE0
 73
     1
 44
1.0
  0
MTEXT
  5
FB
330
1F
100
AcDbEntity
  8
0
  6
Continuous
 62
     7
370
     0
100
AcDbMText
 10
297.8179450327
 20
9.9354335945
 30
0.0
 40
3.175
 41
0.0
 71
     1
 72
     1
  1
6
  7
SLDTEXTSTYLE0
 73
     1
 44
1.0
  0
MTEXT
  5
FC
330
1F
100
AcDbEntity
  8
0
  6
Continuous
 62
     7
370
     0
100
AcDbMText
 10
245.4141046664
 20
9.9354335945
 30
0.0
 40
3.175
 41
0.0
 71
     1
 72
     1
  1
5
  7
SLDTEXTSTYLE0
 73
     1
 44
1.0
  0
MTEXT
  5
FD
330
1F
100
AcDbEntity
  8
0
  6
Continuous
 62
     7
370
     0
100
AcDbMText
 10
193.7406238981
 20
9.7042937637
 30
0.0
 40
3.175
 41
0.0
 71
     1
 72
     1
  1
4
  7
SLDTEXTSTYLE0
 73
     1
 44
1.0
  0
MTEXT
  5
FE
330
1F
100
AcDbEntity
  8
0
  6
Continuous
 62
     7
370
     0
100
AcDbMText
 10
142.2121110564
 20
9.9354335945
 30
0.0
 40
3.175
 41
0.0
 71
     1
 72
     1
  1
3
  7
SLDTEXTSTYLE0
 73
     1
 44
1.0
  0
MTEXT
  5
FF
330
1F
100
AcDbEntity
  8
0
  6
Continuous
 62
     7
370
     0
100
AcDbMText
 10
90.9362688291
 20
9.9354335945
 30
0.0
 40
3.175
 41
0.0
 71
     1
 72
     1
  1
2
  7
SLDTEXTSTYLE0
 73
     1
 44
1.0
  0
MTEXT
  5
100
330
1F
100
AcDbEntity
  8
0
  6
Continuous
 62
     7
370
     0
100
AcDbMText
 10
39.7651092004
 20
9.9354335945
 30
0.0
 40
3.175
 41
0.0
 71
     1
 72
     1
  1
1
  7
SLDTEXTSTYLE0
 73
     1
 44
1.0
  0
MTEXT
  5
101
330
1F
100
AcDbEntity
  8
0
  6
Continuous
 62
     7
370
     0
100
AcDbMText
 10
430.6535769217
 20
279.9637363637
 30
0.0
 40
3.175
 41
0.0
 71
     1
 72
     1
  1
A
  7
SLDTEXTSTYLE0
 73
     1
 44
1.0
  0
MTEXT
  5
102
330
1F
100
AcDbEntity
  8
0
  6
Continuous
 62
     7
370
     0
100
AcDbMText
 10
431.0049062132
 20
232.6957401676
 30
0.0
 40
3.175
 41
0.0
 71
     1
 72
     1
  1
B
  7
SLDTEXTSTYLE0
 73
     1
 44
1.0
  0
MTEXT
  5
103
330
1F
100
AcDbEntity
  8
0
  6
Continuous
 62
     7
370
     0
100
AcDbMText
 10
431.0049062132
 20
183.1583100664
 30
0.0
 40
3.175
 41
0.0
 71
     1
 72
     1
  1
C
  7
SLDTEXTSTYLE0
 73
     1
 44
1.0
  0
MTEXT
  5
104
330
1F
100
AcDbEntity
  8
0
  6
Continuous
 62
     7
370
     0
100
AcDbMText
 10
431.0049062132
 20
134.364765965
 30
0.0
 40
3.175
 41
0.0
 71
     1
 72
     1
  1
D
  7
SLDTEXTSTYLE0
 73
     1
 44
1.0
  0
MTEXT
  5
105
330
1F
100
AcDbEntity
  8
0
  6
Continuous
 62
     7
370
     0
100
AcDbMText
 10
431.0049062132
 20
87.5806103114
 30
0.0
 40
3.175
 41
0.0
 71
     1
 72
     1
  1
E
  7
SLDTEXTSTYLE0
 73
     1
 44
1.0
  0
MTEXT
  5
106
330
1F
100
AcDbEntity
  8
0
  6
Continuous
 62
     7
370
     0
100
AcDbMText
 10
431.0049062132
 20
39.6009147696
 30
0.0
 40
3.175
 41
0.0
 71
     1
 72
     1
  1
F
  7
SLDTEXTSTYLE0
 73
     1
 44
1.0
  0
MTEXT
  5
107
330
1F
100
AcDbEntity
  8
0
  6
Continuous
 62
     7
370
     0
100
AcDbMText
 10
304.7329693203
 20
32.3800722766
 30
0.0
 40
2.778125
 41
0.0
 71
     1
 72
     1
  1
Miki
  7
SLDTEXTSTYLE0
 73
     1
 44
1.0
  0
MTEXT
  5
108
330
1F
100
AcDbEntity
  8
0
  6
Continuous
 62
     7
370
     0
100
AcDbMText
 10
379.2723359468
 20
18.0750556439
 30
0.0
 40
3.75
 41
0.0
 71
     1
 72
     1
  1
0
  7
SLDTEXTSTYLE0
 73
     1
 44
1.0
  0
LINE
  5
109
330
1F
100
AcDbEntity
  8
0
  6
Continuous
 62
     7
370
    30
100
AcDbLine
 10
224.4798257253
 20
227.3154855738
 30
0.0
 11
224.4798257253
 21
228.3154855738
 31
0.0
  0
LINE
  5
10A
330
1F
100
AcDbEntity
  8
0
  6
Continuous
 62
     7
370
    30
100
AcDbLine
 10
220.4798257253
 20
228.3154855738
 30
0.0
 11
220.4798257253
 21
227.3154855738
 31
0.0
  0
LINE
  5
10B
330
1F
100
AcDbEntity
  8
0
  6
Continuous
 62
     7
370
    30
100
AcDbLine
 10
216.4798257253
 20
242.3154855738
 30
0.0
 11
216.2404482626
 21
242.0761081112
 31
0.0
  0
LINE
  5
10C
330
1F
100
AcDbEntity
  8
0
  6
Continuous
 62
     7
370
    30
100
AcDbLine
 10
216.2404482626
 20
234.5548630365
 30
0.0
 11
216.4798257253
 21
234.3154855738
 31
0.0
  0
LINE
  5
10D
330
1F
100
AcDbEntity
  8
0
  6
Continuous
 62
     7
370
    30
100
AcDbLine
 10
228.4798257253
 20
234.3154855738
 30
0.0
 11
228.9700689956
 21
234.8057288441
 31
0.0
  0
LINE
  5
10E
330
1F
100
AcDbEntity
  8
0
  6
Continuous
 62
     7
370
    30
100
AcDbLine
 10
228.9700689956
 20
241.8252423035
 30
0.0
 11
228.4798257253
 21
242.3154855738
 31
0.0
  0
LINE
  5
10F
330
1F
100
AcDbEntity
  8
0
  6
Continuous
 62
     7
370
    30
100
AcDbLine
 10
225.9798257253
 20
233.8154855738
 30
0.0
 11
225.9798257253
 21
234.3154855738
 31
0.0
  0
LINE
  5
110
330
1F
100
AcDbEntity
  8
0
  6
Continuous
 62
     7
370
    30
100
AcDbLine
 10
218.9798257253
 20
234.3154855738
 30
0.0
 11
218.9798257253
 21
233.8154855738
 31
0.0
  0
LINE
  5
111
330
1F
100
AcDbEntity
  8
0
  6
Continuous
 62
     7
370
    30
100
AcDbLine
 10
183.6345262636
 20
227.8154855738
 30
0.0
 11
183.0571759944
 21
228.8154855738
 31
0.0
  0
LINE
  5
112
330
1F
100
AcDbEntity
  8
0
  6
Continuous
 62
     7
370
    30
100
AcDbLine
 10
181.9024754561
 20
228.8154855738
 30
0.0
 11
183.0571759944
 21
228.8154855738
 31
0.0
  0
LINE
  5
113
330
1F
100
AcDbEntity
  8
0
  6
Continuous
 62
     7
370
    30
100
AcDbLine
 10
181.3251251869
 20
227.8154855738
 30
0.0
 11
181.9024754561
 21
228.8154855738
 31
0.0
  0
LINE
  5
114
330
1F
100
AcDbEntity
  8
0
  6
Continuous
 62
     7
370
    30
100
AcDbLine
 10
181.9024754561
 20
226.8154855738
 30
0.0
 11
181.3251251869
 21
227.8154855738
 31
0.0
  0
LINE
  5
115
330
1F
100
AcDbEntity
  8
0
  6
Continuous
 62
     7
370
    30
100
AcDbLine
 10
183.0571759944
 20
226.8154855738
 30
0.0
 11
181.9024754561
 21
226.8154855738
 31
0.0
  0
LINE
  5
116
330
1F
100
AcDbEntity
  8
0
  6
Continuous
 62
     7
370
    30
100
AcDbLine
 10
183.6345262636
 20
227.8154855738
 30
0.0
 11
183.0571759944
 21
226.8154855738
 31
0.0
  0
LINE
  5
117
330
1F
100
AcDbEntity
  8
0
  6
Continuous
 62
     7
370
    30
100
AcDbLine
 10
222.884536811
 20
242.3154855738
 30
0.0
 11
222.6679431188
 21
241.8154855738
 31
0.0
  0
LINE
  5
118
330
1F
100
AcDbEntity
  8
0
  6
Continuous
 62
     7
370
    30
100
AcDbLine
 10
222.6679431188
 20
241.8154855738
 30
0.0
 11
222.4125165676
 21
241.8154855738
 31
0.0
  0
LINE
  5
119
330
1F
100
AcDbEntity
  8
0
  6
Continuous
 62
     7
370
    30
100
AcDbLine
 10
222.4125165676
 20
241.8154855738
 30
0.0
 11
222.1864625665
 21
242.3154855738
 31
0.0
  0
LINE
  5
11A
330
1F
100
AcDbEntity
  8
0
  6
Continuous
 62
     7
370
    30
100
AcDbLine
 10
222.1864625665
 20
242.3154855738
 30
0.0
 11
222.884536811
 21
242.3154855738
 31
0.0
  0
LINE
  5
11B
330
1F
100
AcDbEntity
  8
0
  6
Continuous
 62
     7
370
    30
100
AcDbLine
 10
222.4125165676
 20
234.8154855738
 30
0.0
 11
222.6679431188
 21
234.8154855738
 31
0.0
  0
LINE
  5
11C
330
1F
100
AcDbEntity
  8
0
  6
Continuous
 62
     7
370
    30
100
AcDbLine
 10
222.6679431188
 20
234.8154855738
 30
0.0
 11
222.884536811
 21
234.3154855738
 31
0.0
  0
LINE
  5
11D
330
1F
100
AcDbEntity
  8
0
  6
Continuous
 62
     7
370
    30
100
AcDbLine
 10
222.1864625665
 20
234.3154855738
 30
0.0
 11
222.4125165676
 21
234.8154855738
 31
0.0
  0
LINE
  5
11E
330
1F
100
AcDbEntity
  8
0
  6
Continuous
 62
     7
370
    30
100
AcDbLine
 10
222.884536811
 20
234.3154855738
 30
0.0
 11
222.1864625665
 21
234.3154855738
 31
0.0
  0
LINE
  5
11F
330
1F
100
AcDbEntity
  8
0
  6
Continuous
 62
     7
370
    30
100
AcDbLine
 10
222.6679431188
 20
234.8154855738
 30
0.0
 11
222.6679431188
 21
241.8154855738
 31
0.0
  0
LINE
  5
120
330
1F
100
AcDbEntity
  8
0
  6
Continuous
 62
     7
370
    30
100
AcDbLine
 10
222.4125165676
 20
241.8154855738
 30
0.0
 11
222.4125165676
 21
234.8154855738
 31
0.0
  0
LINE
  5
121
330
1F
100
AcDbEntity
  8
0
  6
Continuous
 62
     7
370
    30
100
AcDbLine
 10
221.6442546126
 20
234.8154855738
 30
0.0
 11
221.8981691565
 21
234.8154855738
 31
0.0
  0
LINE
  5
122
330
1F
100
AcDbEntity
  8
0
  6
Continuous
 62
     7
370
    30
100
AcDbLine
 10
221.8981691565
 20
234.8154855738
 30
0.0
 11
222.1736733383
 21
234.3154855738
 31
0.0
  0
LINE
  5
123
330
1F
100
AcDbEntity
  8
0
  6
Continuous
 62
     7
370
    30
100
AcDbLine
 10
221.4797313713
 20
234.3154855738
 30
0.0
 11
221.6442546126
 21
234.8154855738
 31
0.0
  0
LINE
  5
124
330
1F
100
AcDbEntity
  8
0
  6
Continuous
 62
     7
370
    30
100
AcDbLine
 10
222.1736733383
 20
234.3154855738
 30
0.0
 11
221.4797313713
 21
234.3154855738
 31
0.0
  0
LINE
  5
125
330
1F
100
AcDbEntity
  8
0
  6
Continuous
 62
     7
370
    30
100
AcDbLine
 10
222.1736733383
 20
242.3154855738
 30
0.0
 11
221.8981691565
 21
241.8154855738
 31
0.0
  0
LINE
  5
126
330
1F
100
AcDbEntity
  8
0
  6
Continuous
 62
     7
370
    30
100
AcDbLine
 10
221.8981691565
 20
241.8154855738
 30
0.0
 11
221.6442546126
 21
241.8154855738
 31
0.0
  0
LINE
  5
127
330
1F
100
AcDbEntity
  8
0
  6
Continuous
 62
     7
370
    30
100
AcDbLine
 10
221.6442546126
 20
241.8154855738
 30
0.0
 11
221.4797313713
 21
242.3154855738
 31
0.0
  0
LINE
  5
128
330
1F
100
AcDbEntity
  8
0
  6
Continuous
 62
     7
370
    30
100
AcDbLine
 10
221.4797313713
 20
242.3154855738
 30
0.0
 11
222.1736733383
 21
242.3154855738
 31
0.0
  0
LINE
  5
129
330
1F
100
AcDbEntity
  8
0
  6
Continuous
 62
     7
370
    30
100
AcDbLine
 10
221.8981691565
 20
234.8154855738
 30
0.0
 11
221.8981691565
 21
241.8154855738
 31
0.0
  0
LINE
  5
12A
330
1F
100
AcDbEntity
  8
0
  6
Continuous
 62
     7
370
    30
100
AcDbLine
 10
221.6442546126
 20
241.8154855738
 30
0.0
 11
221.6442546126
 21
234.8154855738
 31
0.0
  0
LINE
  5
12B
330
1F
100
AcDbEntity
  8
0
  6
Continuous
 62
     7
370
    30
100
AcDbLine
 10
223.1817233956
 20
234.8154855738
 30
0.0
 11
223.4350763253
 21
234.8154855738
 31
0.0
  0
LINE
  5
12C
330
1F
100
AcDbEntity
  8
0
  6
Continuous
 62
     7
370
    30
100
AcDbLine
 10
223.4350763253
 20
234.8154855738
 30
0.0
 11
223.5897190272
 21
234.3154855738
 31
0.0
  0
LINE
  5
12D
330
1F
100
AcDbEntity
  8
0
  6
Continuous
 62
     7
370
    30
100
AcDbLine
 10
222.8973119374
 20
234.3154855738
 30
0.0
 11
223.1817233956
 21
234.8154855738
 31
0.0
  0
LINE
  5
12E
330
1F
100
AcDbEntity
  8
0
  6
Continuous
 62
     7
370
    30
100
AcDbLine
 10
223.5897190272
 20
234.3154855738
 30
0.0
 11
222.8973119374
 21
234.3154855738
 31
0.0
  0
LINE
  5
12F
330
1F
100
AcDbEntity
  8
0
  6
Continuous
 62
     7
370
    30
100
AcDbLine
 10
223.5897190272
 20
242.3154855738
 30
0.0
 11
223.4350763253
 21
241.8154855738
 31
0.0
  0
LINE
  5
130
330
1F
100
AcDbEntity
  8
0
  6
Continuous
 62
     7
370
    30
100
AcDbLine
 10
223.4350763253
 20
241.8154855738
 30
0.0
 11
223.1817233956
 21
241.8154855738
 31
0.0
  0
LINE
  5
131
330
1F
100
AcDbEntity
  8
0
  6
Continuous
 62
     7
370
    30
100
AcDbLine
 10
223.1817233956
 20
241.8154855738
 30
0.0
 11
222.8973119374
 21
242.3154855738
 31
0.0
  0
LINE
  5
132
330
1F
100
AcDbEntity
  8
0
  6
Continuous
 62
     7
370
    30
100
AcDbLine
 10
222.8973119374
 20
242.3154855738
 30
0.0
 11
223.5897190272
 21
242.3154855738
 31
0.0
  0
LINE
  5
133
330
1F
100
AcDbEntity
  8
0
  6
Continuous
 62
     7
370
    30
100
AcDbLine
 10
222.1806984173
 20
234.3154855738
 30
0.0
 11
222.1806984173
 21
242.3154855738
 31
0.0
  0
LINE
  5
134
330
1F
100
AcDbEntity
  8
0
  6
Continuous
 62
     7
370
    30
100
AcDbLine
 10
222.1864625665
 20
234.3154855738
 30
0.0
 11
222.1806984173
 21
234.3154855738
 31
0.0
  0
LINE
  5
135
330
1F
100
AcDbEntity
  8
0
  6
Continuous
 62
     7
370
    30
100
AcDbLine
 10
222.1864625665
 20
242.3154855738
 30
0.0
 11
222.1806984173
 21
242.3154855738
 31
0.0
  0
LINE
  5
136
330
1F
100
AcDbEntity
  8
0
  6
Continuous
 62
     7
370
    30
100
AcDbLine
 10
223.4350763253
 20
234.8154855738
 30
0.0
 11
223.4350763253
 21
241.8154855738
 31
0.0
  0
LINE
  5
137
330
1F
100
AcDbEntity
  8
0
  6
Continuous
 62
     7
370
    30
100
AcDbLine
 10
223.1817233956
 20
241.8154855738
 30
0.0
 11
223.1817233956
 21
234.8154855738
 31
0.0
  0
LINE
  5
138
330
1F
100
AcDbEntity
  8
0
  6
Continuous
 62
     7
370
    30
100
AcDbLine
 10
222.8900597319
 20
234.3154855738
 30
0.0
 11
222.8900597319
 21
242.3154855738
 31
0.0
  0
LINE
  5
139
330
1F
100
AcDbEntity
  8
0
  6
Continuous
 62
     7
370
    30
100
AcDbLine
 10
222.8973119374
 20
234.3154855738
 30
0.0
 11
222.8900597319
 21
234.3154855738
 31
0.0
  0
LINE
  5
13A
330
1F
100
AcDbEntity
  8
0
  6
Continuous
 62
     7
370
    30
100
AcDbLine
 10
222.8973119374
 20
242.3154855738
 30
0.0
 11
222.8900597319
 21
242.3154855738
 31
0.0
  0
LINE
  5
13B
330
1F
100
AcDbEntity
  8
0
  6
Continuous
 62
     7
370
    30
100
AcDbLine
 10
222.8900597319
 20
234.3154855738
 30
0.0
 11
222.884536811
 21
234.3154855738
 31
0.0
  0
LINE
  5
13C
330
1F
100
AcDbEntity
  8
0
  6
Continuous
 62
     7
370
    30
100
AcDbLine
 10
222.8900597319
 20
242.3154855738
 30
0.0
 11
222.884536811
 21
242.3154855738
 31
0.0
  0
LINE
  5
13D
330
1F
100
AcDbEntity
  8
0
  6
Continuous
 62
     7
370
    30
100
AcDbLine
 10
222.1806984173
 20
234.3154855738
 30
0.0
 11
222.1736733383
 21
234.3154855738
 31
0.0
  0
LINE
  5
13E
330
1F
100
AcDbEntity
  8
0
  6
Continuous
 62
     7
370
    30
100
AcDbLine
 10
222.1806984173
 20
242.3154855738
 30
0.0
 11
222.1736733383
 21
242.3154855738
 31
0.0
  0
LINE
  5
13F
330
1F
100
AcDbEntity
  8
0
  6
Continuous
 62
     7
370
    30
100
AcDbLine
 10
221.4755361944
 20
234.3154855738
 30
0.0
 11
221.4755361944
 21
242.3154855738
 31
0.0
  0
LINE
  5
140
330
1F
100
AcDbEntity
  8
0
  6
Continuous
 62
     7
370
    30
100
AcDbLine
 10
221.4797313713
 20
234.3154855738
 30
0.0
 11
221.4755361944
 21
234.3154855738
 31
0.0
  0
LINE
  5
141
330
1F
100
AcDbEntity
  8
0
  6
Continuous
 62
     7
370
    30
100
AcDbLine
 10
221.4797313713
 20
242.3154855738
 30
0.0
 11
221.4755361944
 21
242.3154855738
 31
0.0
  0
LINE
  5
142
330
1F
100
AcDbEntity
  8
0
  6
Continuous
 62
     7
370
    30
100
AcDbLine
 10
221.467107574
 20
242.3154855738
 30
0.0
 11
221.1365603774
 21
241.8154855738
 31
0.0
  0
LINE
  5
143
330
1F
100
AcDbEntity
  8
0
  6
Continuous
 62
     7
370
    30
100
AcDbLine
 10
221.1365603774
 20
241.8154855738
 30
0.0
 11
220.8877222445
 21
241.8154855738
 31
0.0
  0
LINE
  5
144
330
1F
100
AcDbEntity
  8
0
  6
Continuous
 62
     7
370
    30
100
AcDbLine
 10
220.8877222445
 20
241.8154855738
 30
0.0
 11
220.7870393086
 21
242.3154855738
 31
0.0
  0
LINE
  5
145
330
1F
100
AcDbEntity
  8
0
  6
Continuous
 62
     7
370
    30
100
AcDbLine
 10
220.7870393086
 20
242.3154855738
 30
0.0
 11
221.467107574
 21
242.3154855738
 31
0.0
  0
LINE
  5
146
330
1F
100
AcDbEntity
  8
0
  6
Continuous
 62
     7
370
    30
100
AcDbLine
 10
221.1365603774
 20
234.8154855738
 30
0.0
 11
221.1365603774
 21
241.8154855738
 31
0.0
  0
LINE
  5
147
330
1F
100
AcDbEntity
  8
0
  6
Continuous
 62
     7
370
    30
100
AcDbLine
 10
220.8877222445
 20
234.8154855738
 30
0.0
 11
221.1365603774
 21
234.8154855738
 31
0.0
  0
LINE
  5
148
330
1F
100
AcDbEntity
  8
0
  6
Continuous
 62
     7
370
    30
100
AcDbLine
 10
220.8877222445
 20
241.8154855738
 30
0.0
 11
220.8877222445
 21
234.8154855738
 31
0.0
  0
LINE
  5
149
330
1F
100
AcDbEntity
  8
0
  6
Continuous
 62
     7
370
    30
100
AcDbLine
 10
221.1365603774
 20
234.8154855738
 30
0.0
 11
221.467107574
 21
234.3154855738
 31
0.0
  0
LINE
  5
14A
330
1F
100
AcDbEntity
  8
0
  6
Continuous
 62
     7
370
    30
100
AcDbLine
 10
220.7870393086
 20
234.3154855738
 30
0.0
 11
220.8877222445
 21
234.8154855738
 31
0.0
  0
LINE
  5
14B
330
1F
100
AcDbEntity
  8
0
  6
Continuous
 62
     7
370
    30
100
AcDbLine
 10
221.467107574
 20
234.3154855738
 30
0.0
 11
220.7870393086
 21
234.3154855738
 31
0.0
  0
LINE
  5
14C
330
1F
100
AcDbEntity
  8
0
  6
Continuous
 62
     7
370
    30
100
AcDbLine
 10
223.5936622602
 20
234.3154855738
 30
0.0
 11
223.5936622602
 21
242.3154855738
 31
0.0
  0
LINE
  5
14D
330
1F
100
AcDbEntity
  8
0
  6
Continuous
 62
     7
370
    30
100
AcDbLine
 10
223.5936622602
 20
234.3154855738
 30
0.0
 11
223.5897190272
 21
234.3154855738
 31
0.0
  0
LINE
  5
14E
330
1F
100
AcDbEntity
  8
0
  6
Continuous
 62
     7
370
    30
100
AcDbLine
 10
223.5936622602
 20
242.3154855738
 30
0.0
 11
223.5897190272
 21
242.3154855738
 31
0.0
  0
LINE
  5
14F
330
1F
100
AcDbEntity
  8
0
  6
Continuous
 62
     7
370
    30
100
AcDbLine
 10
224.2793207743
 20
242.3154855738
 30
0.0
 11
224.1887999072
 21
241.8154855738
 31
0.0
  0
LINE
  5
150
330
1F
100
AcDbEntity
  8
0
  6
Continuous
 62
     7
370
    30
100
AcDbLine
 10
224.1887999072
 20
241.8154855738
 30
0.0
 11
223.9410771188
 21
241.8154855738
 31
0.0
  0
LINE
  5
151
330
1F
100
AcDbEntity
  8
0
  6
Continuous
 62
     7
370
    30
100
AcDbLine
 10
223.9410771188
 20
241.8154855738
 30
0.0
 11
223.6023007171
 21
242.3154855738
 31
0.0
  0
LINE
  5
152
330
1F
100
AcDbEntity
  8
0
  6
Continuous
 62
     7
370
    30
100
AcDbLine
 10
223.6023007171
 20
242.3154855738
 30
0.0
 11
224.2793207743
 21
242.3154855738
 31
0.0
  0
LINE
  5
153
330
1F
100
AcDbEntity
  8
0
  6
Continuous
 62
     7
370
    30
100
AcDbLine
 10
223.9410771188
 20
234.8154855738
 30
0.0
 11
224.1887999072
 21
234.8154855738
 31
0.0
  0
LINE
  5
154
330
1F
100
AcDbEntity
  8
0
  6
Continuous
 62
     7
370
    30
100
AcDbLine
 10
224.1887999072
 20
234.8154855738
 30
0.0
 11
224.2793207743
 21
234.3154855738
 31
0.0
  0
LINE
  5
155
330
1F
100
AcDbEntity
  8
0
  6
Continuous
 62
     7
370
    30
100
AcDbLine
 10
223.6023007171
 20
234.3154855738
 30
0.0
 11
223.9410771188
 21
234.8154855738
 31
0.0
  0
LINE
  5
156
330
1F
100
AcDbEntity
  8
0
  6
Continuous
 62
     7
370
    30
100
AcDbLine
 10
224.2793207743
 20
234.3154855738
 30
0.0
 11
223.6023007171
 21
234.3154855738
 31
0.0
  0
LINE
  5
157
330
1F
100
AcDbEntity
  8
0
  6
Continuous
 62
     7
370
    30
100
AcDbLine
 10
223.9410771188
 20
241.8154855738
 30
0.0
 11
223.9410771188
 21
234.8154855738
 31
0.0
  0
LINE
  5
158
330
1F
100
AcDbEntity
  8
0
  6
Continuous
 62
     7
370
    30
100
AcDbLine
 10
223.6023007171
 20
234.3154855738
 30
0.0
 11
223.5936622602
 21
234.3154855738
 31
0.0
  0
LINE
  5
159
330
1F
100
AcDbEntity
  8
0
  6
Continuous
 62
     7
370
    30
100
AcDbLine
 10
223.6023007171
 20
242.3154855738
 30
0.0
 11
223.5936622602
 21
242.3154855738
 31
0.0
  0
LINE
  5
15A
330
1F
100
AcDbEntity
  8
0
  6
Continuous
 62
     7
370
    30
100
AcDbLine
 10
221.4755361944
 20
234.3154855738
 30
0.0
 11
221.467107574
 21
234.3154855738
 31
0.0
  0
LINE
  5
15B
330
1F
100
AcDbEntity
  8
0
  6
Continuous
 62
     7
370
    30
100
AcDbLine
 10
221.4755361944
 20
242.3154855738
 30
0.0
 11
221.467107574
 21
242.3154855738
 31
0.0
  0
LINE
  5
15C
330
1F
100
AcDbEntity
  8
0
  6
Continuous
 62
     7
370
    30
100
AcDbLine
 10
224.1887999072
 20
234.8154855738
 30
0.0
 11
224.1887999072
 21
241.8154855738
 31
0.0
  0
LINE
  5
15D
330
1F
100
AcDbEntity
  8
0
  6
Continuous
 62
     7
370
    30
100
AcDbLine
 10
220.7844719952
 20
234.3154855738
 30
0.0
 11
220.7844719952
 21
242.3154855738
 31
0.0
  0
LINE
  5
15E
330
1F
100
AcDbEntity
  8
0
  6
Continuous
 62
     7
370
    30
100
AcDbLine
 10
220.7870393086
 20
234.3154855738
 30
0.0
 11
220.7844719952
 21
234.3154855738
 31
0.0
  0
LINE
  5
15F
330
1F
100
AcDbEntity
  8
0
  6
Continuous
 62
     7
370
    30
100
AcDbLine
 10
220.7870393086
 20
242.3154855738
 30
0.0
 11
220.7844719952
 21
242.3154855738
 31
0.0
  0
LINE
  5
160
330
1F
100
AcDbEntity
  8
0
  6
Continuous
 62
     7
370
    30
100
AcDbLine
 10
224.2816289652
 20
234.3154855738
 30
0.0
 11
224.2816289652
 21
242.3154855738
 31
0.0
  0
LINE
  5
161
330
1F
100
AcDbEntity
  8
0
  6
Continuous
 62
     7
370
    30
100
AcDbLine
 10
224.2816289652
 20
234.3154855738
 30
0.0
 11
224.2793207743
 21
234.3154855738
 31
0.0
  0
LINE
  5
162
330
1F
100
AcDbEntity
  8
0
  6
Continuous
 62
     7
370
    30
100
AcDbLine
 10
224.2816289652
 20
242.3154855738
 30
0.0
 11
224.2793207743
 21
242.3154855738
 31
0.0
  0
LINE
  5
163
330
1F
100
AcDbEntity
  8
0
  6
Continuous
 62
     7
370
    30
100
AcDbLine
 10
220.3938080994
 20
234.8154855738
 30
0.0
 11
220.3938080994
 21
241.8154855738
 31
0.0
  0
LINE
  5
164
330
1F
100
AcDbEntity
  8
0
  6
Continuous
 62
     7
370
    30
100
AcDbLine
 10
220.1535395193
 20
234.8154855738
 30
0.0
 11
220.3938080994
 21
234.8154855738
 31
0.0
  0
LINE
  5
165
330
1F
100
AcDbEntity
  8
0
  6
Continuous
 62
     7
370
    30
100
AcDbLine
 10
220.1535395193
 20
241.8154855738
 30
0.0
 11
220.1535395193
 21
234.8154855738
 31
0.0
  0
LINE
  5
166
330
1F
100
AcDbEntity
  8
0
  6
Continuous
 62
     7
370
    30
100
AcDbLine
 10
220.3938080994
 20
241.8154855738
 30
0.0
 11
220.1535395193
 21
241.8154855738
 31
0.0
  0
LINE
  5
167
330
1F
100
AcDbEntity
  8
0
  6
Continuous
 62
     7
370
    30
100
AcDbLine
 10
220.3938080994
 20
234.8154855738
 30
0.0
 11
220.7747581527
 21
234.3154855738
 31
0.0
  0
LINE
  5
168
330
1F
100
AcDbEntity
  8
0
  6
Continuous
 62
     7
370
    30
100
AcDbLine
 10
220.1181102565
 20
234.3154855738
 30
0.0
 11
220.1535395193
 21
234.8154855738
 31
0.0
  0
LINE
  5
169
330
1F
100
AcDbEntity
  8
0
  6
Continuous
 62
     7
370
    30
100
AcDbLine
 10
220.7747581527
 20
234.3154855738
 30
0.0
 11
220.1181102565
 21
234.3154855738
 31
0.0
  0
LINE
  5
16A
330
1F
100
AcDbEntity
  8
0
  6
Continuous
 62
     7
370
    30
100
AcDbLine
 10
220.7747581527
 20
242.3154855738
 30
0.0
 11
220.3938080994
 21
241.8154855738
 31
0.0
  0
LINE
  5
16B
330
1F
100
AcDbEntity
  8
0
  6
Continuous
 62
     7
370
    30
100
AcDbLine
 10
220.1535395193
 20
241.8154855738
 30
0.0
 11
220.1181102565
 21
242.3154855738
 31
0.0
  0
LINE
  5
16C
330
1F
100
AcDbEntity
  8
0
  6
Continuous
 62
     7
370
    30
100
AcDbLine
 10
220.1181102565
 20
242.3154855738
 30
0.0
 11
220.7747581527
 21
242.3154855738
 31
0.0
  0
LINE
  5
16D
330
1F
100
AcDbEntity
  8
0
  6
Continuous
 62
     7
370
    30
100
AcDbLine
 10
224.6799180757
 20
241.8154855738
 30
0.0
 11
224.2915324083
 21
242.3154855738
 31
0.0
  0
LINE
  5
16E
330
1F
100
AcDbEntity
  8
0
  6
Continuous
 62
     7
370
    30
100
AcDbLine
 10
224.6799180757
 20
241.8154855738
 30
0.0
 11
224.6799180757
 21
234.8154855738
 31
0.0
  0
LINE
  5
16F
330
1F
100
AcDbEntity
  8
0
  6
Continuous
 62
     7
370
    30
100
AcDbLine
 10
224.2915324083
 20
234.3154855738
 30
0.0
 11
224.6799180757
 21
234.8154855738
 31
0.0
  0
LINE
  5
170
330
1F
100
AcDbEntity
  8
0
  6
Continuous
 62
     7
370
    30
100
AcDbLine
 10
224.2915324083
 20
234.3154855738
 30
0.0
 11
224.2816289652
 21
234.3154855738
 31
0.0
  0
LINE
  5
171
330
1F
100
AcDbEntity
  8
0
  6
Continuous
 62
     7
370
    30
100
AcDbLine
 10
224.2915324083
 20
242.3154855738
 30
0.0
 11
224.2816289652
 21
242.3154855738
 31
0.0
  0
LINE
  5
172
330
1F
100
AcDbEntity
  8
0
  6
Continuous
 62
     7
370
    30
100
AcDbLine
 10
224.6799180757
 20
234.8154855738
 30
0.0
 11
224.9185332378
 21
234.8154855738
 31
0.0
  0
LINE
  5
173
330
1F
100
AcDbEntity
  8
0
  6
Continuous
 62
     7
370
    30
100
AcDbLine
 10
224.9185332378
 20
234.8154855738
 30
0.0
 11
224.9436615555
 21
234.3154855738
 31
0.0
  0
LINE
  5
174
330
1F
100
AcDbEntity
  8
0
  6
Continuous
 62
     7
370
    30
100
AcDbLine
 10
224.9436615555
 20
234.3154855738
 30
0.0
 11
224.2915324083
 21
234.3154855738
 31
0.0
  0
LINE
  5
175
330
1F
100
AcDbEntity
  8
0
  6
Continuous
 62
     7
370
    30
100
AcDbLine
 10
224.9436615555
 20
242.3154855738
 30
0.0
 11
224.9185332378
 21
241.8154855738
 31
0.0
  0
LINE
  5
176
330
1F
100
AcDbEntity
  8
0
  6
Continuous
 62
     7
370
    30
100
AcDbLine
 10
224.9185332378
 20
241.8154855738
 30
0.0
 11
224.6799180757
 21
241.8154855738
 31
0.0
  0
LINE
  5
177
330
1F
100
AcDbEntity
  8
0
  6
Continuous
 62
     7
370
    30
100
AcDbLine
 10
224.2915324083
 20
242.3154855738
 30
0.0
 11
224.9436615555
 21
242.3154855738
 31
0.0
  0
LINE
  5
178
330
1F
100
AcDbEntity
  8
0
  6
Continuous
 62
     7
370
    30
100
AcDbLine
 10
220.7844719952
 20
234.3154855738
 30
0.0
 11
220.7747581527
 21
234.3154855738
 31
0.0
  0
LINE
  5
179
330
1F
100
AcDbEntity
  8
0
  6
Continuous
 62
     7
370
    30
100
AcDbLine
 10
220.7844719952
 20
242.3154855738
 30
0.0
 11
220.7747581527
 21
242.3154855738
 31
0.0
  0
LINE
  5
17A
330
1F
100
AcDbEntity
  8
0
  6
Continuous
 62
     7
370
    30
100
AcDbLine
 10
224.9185332378
 20
234.8154855738
 30
0.0
 11
224.9185332378
 21
241.8154855738
 31
0.0
  0
LINE
  5
17B
330
1F
100
AcDbEntity
  8
0
  6
Continuous
 62
     7
370
    30
100
AcDbLine
 10
220.117206846
 20
234.3154855738
 30
0.0
 11
220.117206846
 21
242.3154855738
 31
0.0
  0
LINE
  5
17C
330
1F
100
AcDbEntity
  8
0
  6
Continuous
 62
     7
370
    30
100
AcDbLine
 10
220.1181102565
 20
234.3154855738
 30
0.0
 11
220.117206846
 21
234.3154855738
 31
0.0
  0
LINE
  5
17D
330
1F
100
AcDbEntity
  8
0
  6
Continuous
 62
     7
370
    30
100
AcDbLine
 10
220.1181102565
 20
242.3154855738
 30
0.0
 11
220.117206846
 21
242.3154855738
 31
0.0
  0
LINE
  5
17E
330
1F
100
AcDbEntity
  8
0
  6
Continuous
 62
     7
370
    30
100
AcDbLine
 10
224.9443023023
 20
234.3154855738
 30
0.0
 11
224.9443023023
 21
242.3154855738
 31
0.0
  0
LINE
  5
17F
330
1F
100
AcDbEntity
  8
0
  6
Continuous
 62
     7
370
    30
100
AcDbLine
 10
224.9443023023
 20
234.3154855738
 30
0.0
 11
224.9436615555
 21
234.3154855738
 31
0.0
  0
LINE
  5
180
330
1F
100
AcDbEntity
  8
0
  6
Continuous
 62
     7
370
    30
100
AcDbLine
 10
224.9443023023
 20
242.3154855738
 30
0.0
 11
224.9436615555
 21
242.3154855738
 31
0.0
  0
LINE
  5
181
330
1F
100
AcDbEntity
  8
0
  6
Continuous
 62
     7
370
    30
100
AcDbLine
 10
219.4520127531
 20
234.8154855738
 30
0.0
 11
219.6803389362
 21
234.8154855738
 31
0.0
  0
LINE
  5
182
330
1F
100
AcDbEntity
  8
0
  6
Continuous
 62
     7
370
    30
100
AcDbLine
 10
219.6803389362
 20
234.8154855738
 30
0.0
 11
220.1063441426
 21
234.3154855738
 31
0.0
  0
LINE
  5
183
330
1F
100
AcDbEntity
  8
0
  6
Continuous
 62
     7
370
    30
100
AcDbLine
 10
219.4823345127
 20
234.3154855738
 30
0.0
 11
219.4520127531
 21
234.8154855738
 31
0.0
  0
LINE
  5
184
330
1F
100
AcDbEntity
  8
0
  6
Continuous
 62
     7
370
    30
100
AcDbLine
 10
220.1063441426
 20
234.3154855738
 30
0.0
 11
219.4823345127
 21
234.3154855738
 31
0.0
  0
LINE
  5
185
330
1F
100
AcDbEntity
  8
0
  6
Continuous
 62
     7
370
    30
100
AcDbLine
 10
220.1063441426
 20
242.3154855738
 30
0.0
 11
219.6803389362
 21
241.8154855738
 31
0.0
  0
LINE
  5
186
330
1F
100
AcDbEntity
  8
0
  6
Continuous
 62
     7
370
    30
100
AcDbLine
 10
219.6803389362
 20
241.8154855738
 30
0.0
 11
219.4520127531
 21
241.8154855738
 31
0.0
  0
LINE
  5
187
330
1F
100
AcDbEntity
  8
0
  6
Continuous
 62
     7
370
    30
100
AcDbLine
 10
219.4520127531
 20
241.8154855738
 30
0.0
 11
219.4823345127
 21
242.3154855738
 31
0.0
  0
LINE
  5
188
330
1F
100
AcDbEntity
  8
0
  6
Continuous
 62
     7
370
    30
100
AcDbLine
 10
219.4823345127
 20
242.3154855738
 30
0.0
 11
220.1063441426
 21
242.3154855738
 31
0.0
  0
LINE
  5
189
330
1F
100
AcDbEntity
  8
0
  6
Continuous
 62
     7
370
    30
100
AcDbLine
 10
219.6803389362
 20
234.8154855738
 30
0.0
 11
219.6803389362
 21
241.8154855738
 31
0.0
  0
LINE
  5
18A
330
1F
100
AcDbEntity
  8
0
  6
Continuous
 62
     7
370
    30
100
AcDbLine
 10
219.4520127531
 20
241.8154855738
 30
0.0
 11
219.4520127531
 21
234.8154855738
 31
0.0
  0
LINE
  5
18B
330
1F
100
AcDbEntity
  8
0
  6
Continuous
 62
     7
370
    30
100
AcDbLine
 10
225.3878745585
 20
241.8154855738
 30
0.0
 11
224.955331709
 21
242.3154855738
 31
0.0
  0
LINE
  5
18C
330
1F
100
AcDbEntity
  8
0
  6
Continuous
 62
     7
370
    30
100
AcDbLine
 10
225.3878745585
 20
241.8154855738
 30
0.0
 11
225.3878745585
 21
234.8154855738
 31
0.0
  0
LINE
  5
18D
330
1F
100
AcDbEntity
  8
0
  6
Continuous
 62
     7
370
    30
100
AcDbLine
 10
224.955331709
 20
234.3154855738
 30
0.0
 11
225.3878745585
 21
234.8154855738
 31
0.0
  0
LINE
  5
18E
330
1F
100
AcDbEntity
  8
0
  6
Continuous
 62
     7
370
    30
100
AcDbLine
 10
224.955331709
 20
234.3154855738
 30
0.0
 11
224.9443023023
 21
234.3154855738
 31
0.0
  0
LINE
  5
18F
330
1F
100
AcDbEntity
  8
0
  6
Continuous
 62
     7
370
    30
100
AcDbLine
 10
224.955331709
 20
242.3154855738
 30
0.0
 11
224.9443023023
 21
242.3154855738
 31
0.0
  0
LINE
  5
190
330
1F
100
AcDbEntity
  8
0
  6
Continuous
 62
     7
370
    30
100
AcDbLine
 10
225.3878745585
 20
234.8154855738
 30
0.0
 11
225.6140324606
 21
234.8154855738
 31
0.0
  0
LINE
  5
191
330
1F
100
AcDbEntity
  8
0
  6
Continuous
 62
     7
370
    30
100
AcDbLine
 10
225.6140324606
 20
234.8154855738
 30
0.0
 11
225.5734154824
 21
234.3154855738
 31
0.0
  0
LINE
  5
192
330
1F
100
AcDbEntity
  8
0
  6
Continuous
 62
     7
370
    30
100
AcDbLine
 10
225.5734154824
 20
234.3154855738
 30
0.0
 11
224.955331709
 21
234.3154855738
 31
0.0
  0
LINE
  5
193
330
1F
100
AcDbEntity
  8
0
  6
Continuous
 62
     7
370
    30
100
AcDbLine
 10
225.5734154824
 20
242.3154855738
 30
0.0
 11
225.6140324606
 21
241.8154855738
 31
0.0
  0
LINE
  5
194
330
1F
100
AcDbEntity
  8
0
  6
Continuous
 62
     7
370
    30
100
AcDbLine
 10
225.6140324606
 20
241.8154855738
 30
0.0
 11
225.3878745585
 21
241.8154855738
 31
0.0
  0
LINE
  5
195
330
1F
100
AcDbEntity
  8
0
  6
Continuous
 62
     7
370
    30
100
AcDbLine
 10
224.955331709
 20
242.3154855738
 30
0.0
 11
225.5734154824
 21
242.3154855738
 31
0.0
  0
LINE
  5
196
330
1F
100
AcDbEntity
  8
0
  6
Continuous
 62
     7
370
    30
100
AcDbLine
 10
220.117206846
 20
234.3154855738
 30
0.0
 11
220.1063441426
 21
234.3154855738
 31
0.0
  0
LINE
  5
197
330
1F
100
AcDbEntity
  8
0
  6
Continuous
 62
     7
370
    30
100
AcDbLine
 10
220.117206846
 20
242.3154855738
 30
0.0
 11
220.1063441426
 21
242.3154855738
 31
0.0
  0
LINE
  5
198
330
1F
100
AcDbEntity
  8
0
  6
Continuous
 62
     7
370
    30
100
AcDbLine
 10
225.6140324606
 20
234.8154855738
 30
0.0
 11
225.6140324606
 21
241.8154855738
 31
0.0
  0
LINE
  5
199
330
1F
100
AcDbEntity
  8
0
  6
Continuous
 62
     7
370
    30
100
AcDbLine
 10
226.0550084103
 20
241.8154855738
 30
0.0
 11
225.5843803321
 21
242.3154855738
 31
0.0
  0
LINE
  5
19A
330
1F
100
AcDbEntity
  8
0
  6
Continuous
 62
     7
370
    30
100
AcDbLine
 10
226.0550084103
 20
241.8154855738
 30
0.0
 11
226.0550084103
 21
234.8154855738
 31
0.0
  0
LINE
  5
19B
330
1F
100
AcDbEntity
  8
0
  6
Continuous
 62
     7
370
    30
100
AcDbLine
 10
225.5843803321
 20
234.3154855738
 30
0.0
 11
226.0550084103
 21
234.8154855738
 31
0.0
  0
LINE
  5
19C
330
1F
100
AcDbEntity
  8
0
  6
Continuous
 62
     7
370
    30
100
AcDbLine
 10
225.5843803321
 20
234.3154855738
 30
0.0
 11
225.5734154824
 21
234.3154855738
 31
0.0
  0
LINE
  5
19D
330
1F
100
AcDbEntity
  8
0
  6
Continuous
 62
     7
370
    30
100
AcDbLine
 10
225.5843803321
 20
242.3154855738
 30
0.0
 11
225.5734154824
 21
242.3154855738
 31
0.0
  0
LINE
  5
19E
330
1F
100
AcDbEntity
  8
0
  6
Continuous
 62
     7
370
    30
100
AcDbLine
 10
219.4712486111
 20
242.3154855738
 30
0.0
 11
219.0061684309
 21
241.8154855738
 31
0.0
  0
LINE
  5
19F
330
1F
100
AcDbEntity
  8
0
  6
Continuous
 62
     7
370
    30
100
AcDbLine
 10
219.0061684309
 20
241.8154855738
 30
0.0
 11
218.7929898441
 21
241.8154855738
 31
0.0
  0
LINE
  5
1A0
330
1F
100
AcDbEntity
  8
0
  6
Continuous
 62
     7
370
    30
100
AcDbLine
 10
218.7929898441
 20
241.8154855738
 30
0.0
 11
218.8886369749
 21
242.3154855738
 31
0.0
  0
LINE
  5
1A1
330
1F
100
AcDbEntity
  8
0
  6
Continuous
 62
     7
370
    30
100
AcDbLine
 10
218.8886369749
 20
242.3154855738
 30
0.0
 11
219.4712486111
 21
242.3154855738
 31
0.0
  0
LINE
  5
1A2
330
1F
100
AcDbEntity
  8
0
  6
Continuous
 62
     7
370
    30
100
AcDbLine
 10
218.7929898441
 20
234.8154855738
 30
0.0
 11
219.0061684309
 21
234.8154855738
 31
0.0
  0
LINE
  5
1A3
330
1F
100
AcDbEntity
  8
0
  6
Continuous
 62
     7
370
    30
100
AcDbLine
 10
219.0061684309
 20
234.8154855738
 30
0.0
 11
219.4712486111
 21
234.3154855738
 31
0.0
  0
LINE
  5
1A4
330
1F
100
AcDbEntity
  8
0
  6
Continuous
 62
     7
370
    30
100
AcDbLine
 10
218.8886369749
 20
234.3154855738
 30
0.0
 11
218.7929898441
 21
234.8154855738
 31
0.0
  0
LINE
  5
1A5
330
1F
100
AcDbEntity
  8
0
  6
Continuous
 62
     7
370
    30
100
AcDbLine
 10
219.4712486111
 20
234.3154855738
 30
0.0
 11
218.8886369749
 21
234.3154855738
 31
0.0
  0
LINE
  5
1A6
330
1F
100
AcDbEntity
  8
0
  6
Continuous
 62
     7
370
    30
100
AcDbLine
 10
219.0061684309
 20
234.8154855738
 30
0.0
 11
219.0061684309
 21
241.8154855738
 31
0.0
  0
LINE
  5
1A7
330
1F
100
AcDbEntity
  8
0
  6
Continuous
 62
     7
370
    30
100
AcDbLine
 10
218.7929898441
 20
241.8154855738
 30
0.0
 11
218.7929898441
 21
234.8154855738
 31
0.0
  0
LINE
  5
1A8
330
1F
100
AcDbEntity
  8
0
  6
Continuous
 62
     7
370
    30
100
AcDbLine
 10
226.0550084103
 20
234.8154855738
 30
0.0
 11
226.2655342911
 21
234.8154855738
 31
0.0
  0
LINE
  5
1A9
330
1F
100
AcDbEntity
  8
0
  6
Continuous
 62
     7
370
    30
100
AcDbLine
 10
226.2655342911
 20
234.8154855738
 30
0.0
 11
226.1597421904
 21
234.3154855738
 31
0.0
  0
LINE
  5
1AA
330
1F
100
AcDbEntity
  8
0
  6
Continuous
 62
     7
370
    30
100
AcDbLine
 10
226.1597421904
 20
234.3154855738
 30
0.0
 11
225.5843803321
 21
234.3154855738
 31
0.0
  0
LINE
  5
1AB
330
1F
100
AcDbEntity
  8
0
  6
Continuous
 62
     7
370
    30
100
AcDbLine
 10
226.1597421904
 20
242.3154855738
 30
0.0
 11
226.2655342911
 21
241.8154855738
 31
0.0
  0
LINE
  5
1AC
330
1F
100
AcDbEntity
  8
0
  6
Continuous
 62
     7
370
    30
100
AcDbLine
 10
226.2655342911
 20
241.8154855738
 30
0.0
 11
226.0550084103
 21
241.8154855738
 31
0.0
  0
LINE
  5
1AD
330
1F
100
AcDbEntity
  8
0
  6
Continuous
 62
     7
370
    30
100
AcDbLine
 10
225.5843803321
 20
242.3154855738
 30
0.0
 11
226.1597421904
 21
242.3154855738
 31
0.0
  0
LINE
  5
1AE
330
1F
100
AcDbEntity
  8
0
  6
Continuous
 62
     7
370
    30
100
AcDbLine
 10
219.4823345127
 20
234.3154855738
 30
0.0
 11
219.4712486111
 21
234.3154855738
 31
0.0
  0
LINE
  5
1AF
330
1F
100
AcDbEntity
  8
0
  6
Continuous
 62
     7
370
    30
100
AcDbLine
 10
219.4823345127
 20
242.3154855738
 30
0.0
 11
219.4712486111
 21
242.3154855738
 31
0.0
  0
LINE
  5
1B0
330
1F
100
AcDbEntity
  8
0
  6
Continuous
 62
     7
370
    30
100
AcDbLine
 10
226.2655342911
 20
234.8154855738
 30
0.0
 11
226.2655342911
 21
241.8154855738
 31
0.0
  0
LINE
  5
1B1
330
1F
100
AcDbEntity
  8
0
  6
Continuous
 62
     7
370
    30
100
AcDbLine
 10
226.6719545341
 20
241.8154855738
 30
0.0
 11
226.1698478138
 21
242.3154855738
 31
0.0
  0
LINE
  5
1B2
330
1F
100
AcDbEntity
  8
0
  6
Continuous
 62
     7
370
    30
100
AcDbLine
 10
226.6719545341
 20
241.8154855738
 30
0.0
 11
226.6719545341
 21
234.8154855738
 31
0.0
  0
LINE
  5
1B3
330
1F
100
AcDbEntity
  8
0
  6
Continuous
 62
     7
370
    30
100
AcDbLine
 10
226.1698478138
 20
234.3154855738
 30
0.0
 11
226.6719545341
 21
234.8154855738
 31
0.0
  0
LINE
  5
1B4
330
1F
100
AcDbEntity
  8
0
  6
Continuous
 62
     7
370
    30
100
AcDbLine
 10
226.1698478138
 20
234.3154855738
 30
0.0
 11
226.1597421904
 21
234.3154855738
 31
0.0
  0
LINE
  5
1B5
330
1F
100
AcDbEntity
  8
0
  6
Continuous
 62
     7
370
    30
100
AcDbLine
 10
226.1698478138
 20
242.3154855738
 30
0.0
 11
226.1597421904
 21
242.3154855738
 31
0.0
  0
LINE
  5
1B6
330
1F
100
AcDbEntity
  8
0
  6
Continuous
 62
     7
370
    30
100
AcDbLine
 10
226.6719545341
 20
234.8154855738
 30
0.0
 11
226.8638930717
 21
234.8154855738
 31
0.0
  0
LINE
  5
1B7
330
1F
100
AcDbEntity
  8
0
  6
Continuous
 62
     7
370
    30
100
AcDbLine
 10
226.8638930717
 20
234.8154855738
 30
0.0
 11
226.6944109377
 21
234.3154855738
 31
0.0
  0
LINE
  5
1B8
330
1F
100
AcDbEntity
  8
0
  6
Continuous
 62
     7
370
    30
100
AcDbLine
 10
226.6944109377
 20
234.3154855738
 30
0.0
 11
226.1698478138
 21
234.3154855738
 31
0.0
  0
LINE
  5
1B9
330
1F
100
AcDbEntity
  8
0
  6
Continuous
 62
     7
370
    30
100
AcDbLine
 10
226.6944109377
 20
242.3154855738
 30
0.0
 11
226.8638930717
 21
241.8154855738
 31
0.0
  0
LINE
  5
1BA
330
1F
100
AcDbEntity
  8
0
  6
Continuous
 62
     7
370
    30
100
AcDbLine
 10
226.8638930717
 20
241.8154855738
 30
0.0
 11
226.6719545341
 21
241.8154855738
 31
0.0
  0
LINE
  5
1BB
330
1F
100
AcDbEntity
  8
0
  6
Continuous
 62
     7
370
    30
100
AcDbLine
 10
226.1698478138
 20
242.3154855738
 30
0.0
 11
226.6944109377
 21
242.3154855738
 31
0.0
  0
LINE
  5
1BC
330
1F
100
AcDbEntity
  8
0
  6
Continuous
 62
     7
370
    30
100
AcDbLine
 10
218.1857220291
 20
234.8154855738
 30
0.0
 11
218.3807604597
 21
234.8154855738
 31
0.0
  0
LINE
  5
1BD
330
1F
100
AcDbEntity
  8
0
  6
Continuous
 62
     7
370
    30
100
AcDbLine
 10
218.3807604597
 20
234.8154855738
 30
0.0
 11
218.8783869074
 21
234.3154855738
 31
0.0
  0
LINE
  5
1BE
330
1F
100
AcDbEntity
  8
0
  6
Continuous
 62
     7
370
    30
100
AcDbLine
 10
218.3453518552
 20
234.3154855738
 30
0.0
 11
218.1857220291
 21
234.8154855738
 31
0.0
  0
LINE
  5
1BF
330
1F
100
AcDbEntity
  8
0
  6
Continuous
 62
     7
370
    30
100
AcDbLine
 10
218.8783869074
 20
234.3154855738
 30
0.0
 11
218.3453518552
 21
234.3154855738
 31
0.0
  0
LINE
  5
1C0
330
1F
100
AcDbEntity
  8
0
  6
Continuous
 62
     7
370
    30
100
AcDbLine
 10
218.8783869074
 20
242.3154855738
 30
0.0
 11
218.3807604597
 21
241.8154855738
 31
0.0
  0
LINE
  5
1C1
330
1F
100
AcDbEntity
  8
0
  6
Continuous
 62
     7
370
    30
100
AcDbLine
 10
218.3807604597
 20
241.8154855738
 30
0.0
 11
218.1857220291
 21
241.8154855738
 31
0.0
  0
LINE
  5
1C2
330
1F
100
AcDbEntity
  8
0
  6
Continuous
 62
     7
370
    30
100
AcDbLine
 10
218.1857220291
 20
241.8154855738
 30
0.0
 11
218.3453518552
 21
242.3154855738
 31
0.0
  0
LINE
  5
1C3
330
1F
100
AcDbEntity
  8
0
  6
Continuous
 62
     7
370
    30
100
AcDbLine
 10
218.3453518552
 20
242.3154855738
 30
0.0
 11
218.8783869074
 21
242.3154855738
 31
0.0
  0
LINE
  5
1C4
330
1F
100
AcDbEntity
  8
0
  6
Continuous
 62
     7
370
    30
100
AcDbLine
 10
218.3807604597
 20
234.8154855738
 30
0.0
 11
218.3807604597
 21
241.8154855738
 31
0.0
  0
LINE
  5
1C5
330
1F
100
AcDbEntity
  8
0
  6
Continuous
 62
     7
370
    30
100
AcDbLine
 10
218.1857220291
 20
241.8154855738
 30
0.0
 11
218.1857220291
 21
234.8154855738
 31
0.0
  0
LINE
  5
1C6
330
1F
100
AcDbEntity
  8
0
  6
Continuous
 62
     7
370
    30
100
AcDbLine
 10
218.8886369749
 20
234.3154855738
 30
0.0
 11
218.8783869074
 21
234.3154855738
 31
0.0
  0
LINE
  5
1C7
330
1F
100
AcDbEntity
  8
0
  6
Continuous
 62
     7
370
    30
100
AcDbLine
 10
218.8886369749
 20
242.3154855738
 30
0.0
 11
218.8783869074
 21
242.3154855738
 31
0.0
  0
LINE
  5
1C8
330
1F
100
AcDbEntity
  8
0
  6
Continuous
 62
     7
370
    30
100
AcDbLine
 10
226.8638930717
 20
234.8154855738
 30
0.0
 11
226.8638930717
 21
241.8154855738
 31
0.0
  0
LINE
  5
1C9
330
1F
100
AcDbEntity
  8
0
  6
Continuous
 62
     7
370
    30
100
AcDbLine
 10
227.2300523587
 20
241.8154855738
 30
0.0
 11
226.703515474
 21
242.3154855738
 31
0.0
  0
LINE
  5
1CA
330
1F
100
AcDbEntity
  8
0
  6
Continuous
 62
     7
370
    30
100
AcDbLine
 10
227.2300523587
 20
241.8154855738
 30
0.0
 11
227.2300523587
 21
234.8154855738
 31
0.0
  0
LINE
  5
1CB
330
1F
100
AcDbEntity
  8
0
  6
Continuous
 62
     7
370
    30
100
AcDbLine
 10
226.703515474
 20
234.3154855738
 30
0.0
 11
227.2300523587
 21
234.8154855738
 31
0.0
  0
LINE
  5
1CC
330
1F
100
AcDbEntity
  8
0
  6
Continuous
 62
     7
370
    30
100
AcDbLine
 10
226.703515474
 20
234.3154855738
 30
0.0
 11
226.6944109377
 21
234.3154855738
 31
0.0
  0
LINE
  5
1CD
330
1F
100
AcDbEntity
  8
0
  6
Continuous
 62
     7
370
    30
100
AcDbLine
 10
226.703515474
 20
242.3154855738
 30
0.0
 11
226.6944109377
 21
242.3154855738
 31
0.0
  0
LINE
  5
1CE
330
1F
100
AcDbEntity
  8
0
  6
Continuous
 62
     7
370
    30
100
AcDbLine
 10
227.2300523587
 20
234.8154855738
 30
0.0
 11
227.4007091568
 21
234.8154855738
 31
0.0
  0
LINE
  5
1CF
330
1F
100
AcDbEntity
  8
0
  6
Continuous
 62
     7
370
    30
100
AcDbLine
 10
227.4007091568
 20
234.8154855738
 30
0.0
 11
227.169916147
 21
234.3154855738
 31
0.0
  0
LINE
  5
1D0
330
1F
100
AcDbEntity
  8
0
  6
Continuous
 62
     7
370
    30
100
AcDbLine
 10
227.169916147
 20
234.3154855738
 30
0.0
 11
226.703515474
 21
234.3154855738
 31
0.0
  0
LINE
  5
1D1
330
1F
100
AcDbEntity
  8
0
  6
Continuous
 62
     7
370
    30
100
AcDbLine
 10
227.169916147
 20
242.3154855738
 30
0.0
 11
227.4007091568
 21
241.8154855738
 31
0.0
  0
LINE
  5
1D2
330
1F
100
AcDbEntity
  8
0
  6
Continuous
 62
     7
370
    30
100
AcDbLine
 10
227.4007091568
 20
241.8154855738
 30
0.0
 11
227.2300523587
 21
241.8154855738
 31
0.0
  0
LINE
  5
1D3
330
1F
100
AcDbEntity
  8
0
  6
Continuous
 62
     7
370
    30
100
AcDbLine
 10
226.703515474
 20
242.3154855738
 30
0.0
 11
227.169916147
 21
242.3154855738
 31
0.0
  0
LINE
  5
1D4
330
1F
100
AcDbEntity
  8
0
  6
Continuous
 62
     7
370
    30
100
AcDbLine
 10
218.3360815103
 20
242.3154855738
 30
0.0
 11
217.8128943796
 21
241.8154855738
 31
0.0
  0
LINE
  5
1D5
330
1F
100
AcDbEntity
  8
0
  6
Continuous
 62
     7
370
    30
100
AcDbLine
 10
217.8128943796
 20
241.8154855738
 30
0.0
 11
217.6387340173
 21
241.8154855738
 31
0.0
  0
LINE
  5
1D6
330
1F
100
AcDbEntity
  8
0
  6
Continuous
 62
     7
370
    30
100
AcDbLine
 10
217.6387340173
 20
241.8154855738
 30
0.0
 11
217.8601056857
 21
242.3154855738
 31
0.0
  0
LINE
  5
1D7
330
1F
100
AcDbEntity
  8
0
  6
Continuous
 62
     7
370
    30
100
AcDbLine
 10
217.8601056857
 20
242.3154855738
 30
0.0
 11
218.3360815103
 21
242.3154855738
 31
0.0
  0
LINE
  5
1D8
330
1F
100
AcDbEntity
  8
0
  6
Continuous
 62
     7
370
    30
100
AcDbLine
 10
217.6387340173
 20
234.8154855738
 30
0.0
 11
217.8128943796
 21
234.8154855738
 31
0.0
  0
LINE
  5
1D9
330
1F
100
AcDbEntity
  8
0
  6
Continuous
 62
     7
370
    30
100
AcDbLine
 10
217.8128943796
 20
234.8154855738
 30
0.0
 11
218.3360815103
 21
234.3154855738
 31
0.0
  0
LINE
  5
1DA
330
1F
100
AcDbEntity
  8
0
  6
Continuous
 62
     7
370
    30
100
AcDbLine
 10
217.8601056857
 20
234.3154855738
 30
0.0
 11
217.6387340173
 21
234.8154855738
 31
0.0
  0
LINE
  5
1DB
330
1F
100
AcDbEntity
  8
0
  6
Continuous
 62
     7
370
    30
100
AcDbLine
 10
218.3360815103
 20
234.3154855738
 30
0.0
 11
217.8601056857
 21
234.3154855738
 31
0.0
  0
LINE
  5
1DC
330
1F
100
AcDbEntity
  8
0
  6
Continuous
 62
     7
370
    30
100
AcDbLine
 10
217.8128943796
 20
234.8154855738
 30
0.0
 11
217.8128943796
 21
241.8154855738
 31
0.0
  0
LINE
  5
1DD
330
1F
100
AcDbEntity
  8
0
  6
Continuous
 62
     7
370
    30
100
AcDbLine
 10
217.6387340173
 20
241.8154855738
 30
0.0
 11
217.6387340173
 21
234.8154855738
 31
0.0
  0
LINE
  5
1DE
330
1F
100
AcDbEntity
  8
0
  6
Continuous
 62
     7
370
    30
100
AcDbLine
 10
218.3453518552
 20
234.3154855738
 30
0.0
 11
218.3360815103
 21
234.3154855738
 31
0.0
  0
LINE
  5
1DF
330
1F
100
AcDbEntity
  8
0
  6
Continuous
 62
     7
370
    30
100
AcDbLine
 10
218.3453518552
 20
242.3154855738
 30
0.0
 11
218.3360815103
 21
242.3154855738
 31
0.0
  0
LINE
  5
1E0
330
1F
100
AcDbEntity
  8
0
  6
Continuous
 62
     7
370
    30
100
AcDbLine
 10
227.4007091568
 20
234.8154855738
 30
0.0
 11
227.4007091568
 21
241.8154855738
 31
0.0
  0
LINE
  5
1E1
330
1F
100
AcDbEntity
  8
0
  6
Continuous
 62
     7
370
    30
100
AcDbLine
 10
217.8519451987
 20
242.3154855738
 30
0.0
 11
217.3105417855
 21
241.8154855738
 31
0.0
  0
LINE
  5
1E2
330
1F
100
AcDbEntity
  8
0
  6
Continuous
 62
     7
370
    30
100
AcDbLine
 10
217.3105417855
 20
241.8154855738
 30
0.0
 11
217.1597043212
 21
241.8154855738
 31
0.0
  0
LINE
  5
1E3
330
1F
100
AcDbEntity
  8
0
  6
Continuous
 62
     7
370
    30
100
AcDbLine
 10
217.1597043212
 20
241.8154855738
 30
0.0
 11
217.4397102591
 21
242.3154855738
 31
0.0
  0
LINE
  5
1E4
330
1F
100
AcDbEntity
  8
0
  6
Continuous
 62
     7
370
    30
100
AcDbLine
 10
217.4397102591
 20
242.3154855738
 30
0.0
 11
217.8519451987
 21
242.3154855738
 31
0.0
  0
LINE
  5
1E5
330
1F
100
AcDbEntity
  8
0
  6
Continuous
 62
     7
370
    30
100
AcDbLine
 10
217.1597043212
 20
234.8154855738
 30
0.0
 11
217.3105417855
 21
234.8154855738
 31
0.0
  0
LINE
  5
1E6
330
1F
100
AcDbEntity
  8
0
  6
Continuous
 62
     7
370
    30
100
AcDbLine
 10
217.3105417855
 20
234.8154855738
 30
0.0
 11
217.8519451987
 21
234.3154855738
 31
0.0
  0
LINE
  5
1E7
330
1F
100
AcDbEntity
  8
0
  6
Continuous
 62
     7
370
    30
100
AcDbLine
 10
217.4397102591
 20
234.3154855738
 30
0.0
 11
217.1597043212
 21
234.8154855738
 31
0.0
  0
LINE
  5
1E8
330
1F
100
AcDbEntity
  8
0
  6
Continuous
 62
     7
370
    30
100
AcDbLine
 10
217.8519451987
 20
234.3154855738
 30
0.0
 11
217.4397102591
 21
234.3154855738
 31
0.0
  0
LINE
  5
1E9
330
1F
100
AcDbEntity
  8
0
  6
Continuous
 62
     7
370
    30
100
AcDbLine
 10
227.7214674139
 20
241.8154855738
 30
0.0
 11
227.1778917885
 21
242.3154855738
 31
0.0
  0
LINE
  5
1EA
330
1F
100
AcDbEntity
  8
0
  6
Continuous
 62
     7
370
    30
100
AcDbLine
 10
227.7214674139
 20
241.8154855738
 30
0.0
 11
227.7214674139
 21
234.8154855738
 31
0.0
  0
LINE
  5
1EB
330
1F
100
AcDbEntity
  8
0
  6
Continuous
 62
     7
370
    30
100
AcDbLine
 10
227.1778917885
 20
234.3154855738
 30
0.0
 11
227.7214674139
 21
234.8154855738
 31
0.0
  0
LINE
  5
1EC
330
1F
100
AcDbEntity
  8
0
  6
Continuous
 62
     7
370
    30
100
AcDbLine
 10
227.1778917885
 20
234.3154855738
 30
0.0
 11
227.169916147
 21
234.3154855738
 31
0.0
  0
LINE
  5
1ED
330
1F
100
AcDbEntity
  8
0
  6
Continuous
 62
     7
370
    30
100
AcDbLine
 10
227.1778917885
 20
242.3154855738
 30
0.0
 11
227.169916147
 21
242.3154855738
 31
0.0
  0
LINE
  5
1EE
330
1F
100
AcDbEntity
  8
0
  6
Continuous
 62
     7
370
    30
100
AcDbLine
 10
217.3105417855
 20
234.8154855738
 30
0.0
 11
217.3105417855
 21
241.8154855738
 31
0.0
  0
LINE
  5
1EF
330
1F
100
AcDbEntity
  8
0
  6
Continuous
 62
     7
370
    30
100
AcDbLine
 10
217.8601056857
 20
234.3154855738
 30
0.0
 11
217.8519451987
 21
234.3154855738
 31
0.0
  0
LINE
  5
1F0
330
1F
100
AcDbEntity
  8
0
  6
Continuous
 62
     7
370
    30
100
AcDbLine
 10
217.8601056857
 20
242.3154855738
 30
0.0
 11
217.8519451987
 21
242.3154855738
 31
0.0
  0
LINE
  5
1F1
330
1F
100
AcDbEntity
  8
0
  6
Continuous
 62
     7
370
    30
100
AcDbLine
 10
227.5795827677
 20
242.3154855738
 30
0.0
 11
227.8684468252
 21
241.8154855738
 31
0.0
  0
LINE
  5
1F2
330
1F
100
AcDbEntity
  8
0
  6
Continuous
 62
     7
370
    30
100
AcDbLine
 10
227.8684468252
 20
241.8154855738
 30
0.0
 11
227.7214674139
 21
241.8154855738
 31
0.0
  0
LINE
  5
1F3
330
1F
100
AcDbEntity
  8
0
  6
Continuous
 62
     7
370
    30
100
AcDbLine
 10
227.1778917885
 20
242.3154855738
 30
0.0
 11
227.5795827677
 21
242.3154855738
 31
0.0
  0
LINE
  5
1F4
330
1F
100
AcDbEntity
  8
0
  6
Continuous
 62
     7
370
    30
100
AcDbLine
 10
227.7214674139
 20
234.8154855738
 30
0.0
 11
227.8684468252
 21
234.8154855738
 31
0.0
  0
LINE
  5
1F5
330
1F
100
AcDbEntity
  8
0
  6
Continuous
 62
     7
370
    30
100
AcDbLine
 10
227.8684468252
 20
234.8154855738
 30
0.0
 11
227.5795827677
 21
234.3154855738
 31
0.0
  0
LINE
  5
1F6
330
1F
100
AcDbEntity
  8
0
  6
Continuous
 62
     7
370
    30
100
AcDbLine
 10
227.5795827677
 20
234.3154855738
 30
0.0
 11
227.1778917885
 21
234.3154855738
 31
0.0
  0
LINE
  5
1F7
330
1F
100
AcDbEntity
  8
0
  6
Continuous
 62
     7
370
    30
100
AcDbLine
 10
217.1597043212
 20
241.8154855738
 30
0.0
 11
217.1597043212
 21
234.8154855738
 31
0.0
  0
LINE
  5
1F8
330
1F
100
AcDbEntity
  8
0
  6
Continuous
 62
     7
370
    30
100
AcDbLine
 10
227.8684468252
 20
234.8154855738
 30
0.0
 11
227.8684468252
 21
241.8154855738
 31
0.0
  0
LINE
  5
1F9
330
1F
100
AcDbEntity
  8
0
  6
Continuous
 62
     7
370
    30
100
AcDbLine
 10
216.7553574678
 20
234.8154855738
 30
0.0
 11
216.8807546068
 21
234.8154855738
 31
0.0
  0
LINE
  5
1FA
330
1F
100
AcDbEntity
  8
0
  6
Continuous
 62
     7
370
    30
100
AcDbLine
 10
216.8807546068
 20
234.8154855738
 30
0.0
 11
217.4327741853
 21
234.3154855738
 31
0.0
  0
LINE
  5
1FB
330
1F
100
AcDbEntity
  8
0
  6
Continuous
 62
     7
370
    30
100
AcDbLine
 10
217.0900670055
 20
234.3154855738
 30
0.0
 11
216.7553574678
 21
234.8154855738
 31
0.0
  0
LINE
  5
1FC
330
1F
100
AcDbEntity
  8
0
  6
Continuous
 62
     7
370
    30
100
AcDbLine
 10
217.4327741853
 20
234.3154855738
 30
0.0
 11
217.0900670055
 21
234.3154855738
 31
0.0
  0
LINE
  5
1FD
330
1F
100
AcDbEntity
  8
0
  6
Continuous
 62
     7
370
    30
100
AcDbLine
 10
217.4327741853
 20
242.3154855738
 30
0.0
 11
216.8807546068
 21
241.8154855738
 31
0.0
  0
LINE
  5
1FE
330
1F
100
AcDbEntity
  8
0
  6
Continuous
 62
     7
370
    30
100
AcDbLine
 10
216.8807546068
 20
241.8154855738
 30
0.0
 11
216.7553574678
 21
241.8154855738
 31
0.0
  0
LINE
  5
1FF
330
1F
100
AcDbEntity
  8
0
  6
Continuous
 62
     7
370
    30
100
AcDbLine
 10
216.7553574678
 20
241.8154855738
 30
0.0
 11
217.0900670055
 21
242.3154855738
 31
0.0
  0
LINE
  5
200
330
1F
100
AcDbEntity
  8
0
  6
Continuous
 62
     7
370
    30
100
AcDbLine
 10
217.0900670055
 20
242.3154855738
 30
0.0
 11
217.4327741853
 21
242.3154855738
 31
0.0
  0
LINE
  5
201
330
1F
100
AcDbEntity
  8
0
  6
Continuous
 62
     7
370
    30
100
AcDbLine
 10
216.8807546068
 20
234.8154855738
 30
0.0
 11
216.8807546068
 21
241.8154855738
 31
0.0
  0
LINE
  5
202
330
1F
100
AcDbEntity
  8
0
  6
Continuous
 62
     7
370
    30
100
AcDbLine
 10
217.4397102591
 20
234.3154855738
 30
0.0
 11
217.4327741853
 21
234.3154855738
 31
0.0
  0
LINE
  5
203
330
1F
100
AcDbEntity
  8
0
  6
Continuous
 62
     7
370
    30
100
AcDbLine
 10
217.4397102591
 20
242.3154855738
 30
0.0
 11
217.4327741853
 21
242.3154855738
 31
0.0
  0
LINE
  5
204
330
1F
100
AcDbEntity
  8
0
  6
Continuous
 62
     7
370
    30
100
AcDbLine
 10
228.1393013097
 20
241.8154855738
 30
0.0
 11
227.5863175538
 21
242.3154855738
 31
0.0
  0
LINE
  5
205
330
1F
100
AcDbEntity
  8
0
  6
Continuous
 62
     7
370
    30
100
AcDbLine
 10
228.1393013097
 20
241.8154855738
 30
0.0
 11
228.1393013097
 21
234.8154855738
 31
0.0
  0
LINE
  5
206
330
1F
100
AcDbEntity
  8
0
  6
Continuous
 62
     7
370
    30
100
AcDbLine
 10
227.5863175538
 20
234.3154855738
 30
0.0
 11
228.1393013097
 21
234.8154855738
 31
0.0
  0
LINE
  5
207
330
1F
100
AcDbEntity
  8
0
  6
Continuous
 62
     7
370
    30
100
AcDbLine
 10
227.5863175538
 20
234.3154855738
 30
0.0
 11
227.5795827677
 21
234.3154855738
 31
0.0
  0
LINE
  5
208
330
1F
100
AcDbEntity
  8
0
  6
Continuous
 62
     7
370
    30
100
AcDbLine
 10
227.5863175538
 20
242.3154855738
 30
0.0
 11
227.5795827677
 21
242.3154855738
 31
0.0
  0
LINE
  5
209
330
1F
100
AcDbEntity
  8
0
  6
Continuous
 62
     7
370
    30
100
AcDbLine
 10
227.9176599783
 20
242.3154855738
 30
0.0
 11
228.2605400654
 21
241.8154855738
 31
0.0
  0
LINE
  5
20A
330
1F
100
AcDbEntity
  8
0
  6
Continuous
 62
     7
370
    30
100
AcDbLine
 10
228.2605400654
 20
241.8154855738
 30
0.0
 11
228.1393013097
 21
241.8154855738
 31
0.0
  0
LINE
  5
20B
330
1F
100
AcDbEntity
  8
0
  6
Continuous
 62
     7
370
    30
100
AcDbLine
 10
227.5863175538
 20
242.3154855738
 30
0.0
 11
227.9176599783
 21
242.3154855738
 31
0.0
  0
LINE
  5
20C
330
1F
100
AcDbEntity
  8
0
  6
Continuous
 62
     7
370
    30
100
AcDbLine
 10
228.1393013097
 20
234.8154855738
 30
0.0
 11
228.2605400654
 21
234.8154855738
 31
0.0
  0
LINE
  5
20D
330
1F
100
AcDbEntity
  8
0
  6
Continuous
 62
     7
370
    30
100
AcDbLine
 10
228.2605400654
 20
234.8154855738
 30
0.0
 11
227.9176599783
 21
234.3154855738
 31
0.0
  0
LINE
  5
20E
330
1F
100
AcDbEntity
  8
0
  6
Continuous
 62
     7
370
    30
100
AcDbLine
 10
227.9176599783
 20
234.3154855738
 30
0.0
 11
227.5863175538
 21
234.3154855738
 31
0.0
  0
LINE
  5
20F
330
1F
100
AcDbEntity
  8
0
  6
Continuous
 62
     7
370
    30
100
AcDbLine
 10
216.7553574678
 20
241.8154855738
 30
0.0
 11
216.7553574678
 21
234.8154855738
 31
0.0
  0
LINE
  5
210
330
1F
100
AcDbEntity
  8
0
  6
Continuous
 62
     7
370
    30
100
AcDbLine
 10
228.2605400654
 20
234.8154855738
 30
0.0
 11
228.2605400654
 21
241.8154855738
 31
0.0
  0
LINE
  5
211
330
1F
100
AcDbEntity
  8
0
  6
Continuous
 62
     7
370
    30
100
AcDbLine
 10
216.5295661132
 20
241.8154855738
 30
0.0
 11
216.4313696006
 21
241.8154855738
 31
0.0
  0
LINE
  5
212
330
1F
100
AcDbEntity
  8
0
  6
Continuous
 62
     7
370
    30
100
AcDbLine
 10
216.4313696006
 20
241.8154855738
 30
0.0
 11
216.8160841498
 21
242.3154855738
 31
0.0
  0
LINE
  5
213
330
1F
100
AcDbEntity
  8
0
  6
Continuous
 62
     7
370
    30
100
AcDbLine
 10
217.0844527123
 20
242.3154855738
 30
0.0
 11
216.5295661132
 21
241.8154855738
 31
0.0
  0
LINE
  5
214
330
1F
100
AcDbEntity
  8
0
  6
Continuous
 62
     7
370
    30
100
AcDbLine
 10
216.8160841498
 20
242.3154855738
 30
0.0
 11
217.0844527123
 21
242.3154855738
 31
0.0
  0
LINE
  5
215
330
1F
100
AcDbEntity
  8
0
  6
Continuous
 62
     7
370
    30
100
AcDbLine
 10
216.8160841498
 20
234.3154855738
 30
0.0
 11
216.4313696006
 21
234.8154855738
 31
0.0
  0
LINE
  5
216
330
1F
100
AcDbEntity
  8
0
  6
Continuous
 62
     7
370
    30
100
AcDbLine
 10
216.4313696006
 20
234.8154855738
 30
0.0
 11
216.5295661132
 21
234.8154855738
 31
0.0
  0
LINE
  5
217
330
1F
100
AcDbEntity
  8
0
  6
Continuous
 62
     7
370
    30
100
AcDbLine
 10
216.5295661132
 20
234.8154855738
 30
0.0
 11
217.0844527123
 21
234.3154855738
 31
0.0
  0
LINE
  5
218
330
1F
100
AcDbEntity
  8
0
  6
Continuous
 62
     7
370
    30
100
AcDbLine
 10
217.0844527123
 20
234.3154855738
 30
0.0
 11
216.8160841498
 21
234.3154855738
 31
0.0
  0
LINE
  5
219
330
1F
100
AcDbEntity
  8
0
  6
Continuous
 62
     7
370
    30
100
AcDbLine
 10
216.5295661132
 20
234.8154855738
 30
0.0
 11
216.5295661132
 21
241.8154855738
 31
0.0
  0
LINE
  5
21A
330
1F
100
AcDbEntity
  8
0
  6
Continuous
 62
     7
370
    30
100
AcDbLine
 10
217.0900670055
 20
234.3154855738
 30
0.0
 11
217.0844527123
 21
234.3154855738
 31
0.0
  0
LINE
  5
21B
330
1F
100
AcDbEntity
  8
0
  6
Continuous
 62
     7
370
    30
100
AcDbLine
 10
217.0900670055
 20
242.3154855738
 30
0.0
 11
217.0844527123
 21
242.3154855738
 31
0.0
  0
LINE
  5
21C
330
1F
100
AcDbEntity
  8
0
  6
Continuous
 62
     7
370
    30
100
AcDbLine
 10
228.477688574
 20
241.8154855738
 30
0.0
 11
227.9230593674
 21
242.3154855738
 31
0.0
  0
LINE
  5
21D
330
1F
100
AcDbEntity
  8
0
  6
Continuous
 62
     7
370
    30
100
AcDbLine
 10
228.477688574
 20
241.8154855738
 30
0.0
 11
228.477688574
 21
234.8154855738
 31
0.0
  0
LINE
  5
21E
330
1F
100
AcDbEntity
  8
0
  6
Continuous
 62
     7
370
    30
100
AcDbLine
 10
227.9230593674
 20
234.3154855738
 30
0.0
 11
228.477688574
 21
234.8154855738
 31
0.0
  0
LINE
  5
21F
330
1F
100
AcDbEntity
  8
0
  6
Continuous
 62
     7
370
    30
100
AcDbLine
 10
227.9230593674
 20
234.3154855738
 30
0.0
 11
227.9176599783
 21
234.3154855738
 31
0.0
  0
LINE
  5
220
330
1F
100
AcDbEntity
  8
0
  6
Continuous
 62
     7
370
    30
100
AcDbLine
 10
227.9230593674
 20
242.3154855738
 30
0.0
 11
227.9176599783
 21
242.3154855738
 31
0.0
  0
LINE
  5
221
330
1F
100
AcDbEntity
  8
0
  6
Continuous
 62
     7
370
    30
100
AcDbLine
 10
228.1794019158
 20
242.3154855738
 30
0.0
 11
228.5714847477
 21
241.8154855738
 31
0.0
  0
LINE
  5
222
330
1F
100
AcDbEntity
  8
0
  6
Continuous
 62
     7
370
    30
100
AcDbLine
 10
228.5714847477
 20
241.8154855738
 30
0.0
 11
228.477688574
 21
241.8154855738
 31
0.0
  0
LINE
  5
223
330
1F
100
AcDbEntity
  8
0
  6
Continuous
 62
     7
370
    30
100
AcDbLine
 10
227.9230593674
 20
242.3154855738
 30
0.0
 11
228.1794019158
 21
242.3154855738
 31
0.0
  0
LINE
  5
224
330
1F
100
AcDbEntity
  8
0
  6
Continuous
 62
     7
370
    30
100
AcDbLine
 10
228.477688574
 20
234.8154855738
 30
0.0
 11
228.5714847477
 21
234.8154855738
 31
0.0
  0
LINE
  5
225
330
1F
100
AcDbEntity
  8
0
  6
Continuous
 62
     7
370
    30
100
AcDbLine
 10
228.5714847477
 20
234.8154855738
 30
0.0
 11
228.1794019158
 21
234.3154855738
 31
0.0
  0
LINE
  5
226
330
1F
100
AcDbEntity
  8
0
  6
Continuous
 62
     7
370
    30
100
AcDbLine
 10
228.1794019158
 20
234.3154855738
 30
0.0
 11
227.9230593674
 21
234.3154855738
 31
0.0
  0
LINE
  5
227
330
1F
100
AcDbEntity
  8
0
  6
Continuous
 62
     7
370
    30
100
AcDbLine
 10
216.4313696006
 20
241.8154855738
 30
0.0
 11
216.4313696006
 21
234.8154855738
 31
0.0
  0
LINE
  5
228
330
1F
100
AcDbEntity
  8
0
  6
Continuous
 62
     7
370
    30
100
AcDbLine
 10
228.5714847477
 20
234.8154855738
 30
0.0
 11
228.5714847477
 21
241.8154855738
 31
0.0
  0
LINE
  5
229
330
1F
100
AcDbEntity
  8
0
  6
Continuous
 62
     7
370
    30
100
AcDbLine
 10
216.2619062215
 20
234.8154855738
 30
0.0
 11
216.2619062215
 21
241.8154855738
 31
0.0
  0
LINE
  5
22A
330
1F
100
AcDbEntity
  8
0
  6
Continuous
 62
     7
370
    30
100
AcDbLine
 10
216.8118704496
 20
242.3154855738
 30
0.0
 11
216.2619062215
 21
241.8154855738
 31
0.0
  0
LINE
  5
22B
330
1F
100
AcDbEntity
  8
0
  6
Continuous
 62
     7
370
    30
100
AcDbLine
 10
216.2619062215
 20
234.8154855738
 30
0.0
 11
216.8118704496
 21
234.3154855738
 31
0.0
  0
LINE
  5
22C
330
1F
100
AcDbEntity
  8
0
  6
Continuous
 62
     7
370
    30
100
AcDbLine
 10
216.8160841498
 20
234.3154855738
 30
0.0
 11
216.8118704496
 21
234.3154855738
 31
0.0
  0
LINE
  5
22D
330
1F
100
AcDbEntity
  8
0
  6
Continuous
 62
     7
370
    30
100
AcDbLine
 10
216.8160841498
 20
242.3154855738
 30
0.0
 11
216.8118704496
 21
242.3154855738
 31
0.0
  0
LINE
  5
22E
330
1F
100
AcDbEntity
  8
0
  6
Continuous
 62
     7
370
    30
100
AcDbLine
 10
216.1922887989
 20
234.8154855738
 30
0.0
 11
216.2619062215
 21
234.8154855738
 31
0.0
  0
LINE
  5
22F
330
1F
100
AcDbEntity
  8
0
  6
Continuous
 62
     7
370
    30
100
AcDbLine
 10
216.6216078108
 20
234.3154855738
 30
0.0
 11
216.1922887989
 21
234.8154855738
 31
0.0
  0
LINE
  5
230
330
1F
100
AcDbEntity
  8
0
  6
Continuous
 62
     7
370
    30
100
AcDbLine
 10
216.8118704496
 20
234.3154855738
 30
0.0
 11
216.6216078108
 21
234.3154855738
 31
0.0
  0
LINE
  5
231
330
1F
100
AcDbEntity
  8
0
  6
Continuous
 62
     7
370
    30
100
AcDbLine
 10
216.2619062215
 20
241.8154855738
 30
0.0
 11
216.1922887989
 21
241.8154855738
 31
0.0
  0
LINE
  5
232
330
1F
100
AcDbEntity
  8
0
  6
Continuous
 62
     7
370
    30
100
AcDbLine
 10
216.1922887989
 20
241.8154855738
 30
0.0
 11
216.6216078108
 21
242.3154855738
 31
0.0
  0
LINE
  5
233
330
1F
100
AcDbEntity
  8
0
  6
Continuous
 62
     7
370
    30
100
AcDbLine
 10
216.6216078108
 20
242.3154855738
 30
0.0
 11
216.8118704496
 21
242.3154855738
 31
0.0
  0
LINE
  5
234
330
1F
100
AcDbEntity
  8
0
  6
Continuous
 62
     7
370
    30
100
AcDbLine
 10
228.7318789913
 20
241.8154855738
 30
0.0
 11
228.1833901124
 21
242.3154855738
 31
0.0
  0
LINE
  5
235
330
1F
100
AcDbEntity
  8
0
  6
Continuous
 62
     7
370
    30
100
AcDbLine
 10
228.7318789913
 20
241.8154855738
 30
0.0
 11
228.7318789913
 21
234.8154855738
 31
0.0
  0
LINE
  5
236
330
1F
100
AcDbEntity
  8
0
  6
Continuous
 62
     7
370
    30
100
AcDbLine
 10
228.1833901124
 20
234.3154855738
 30
0.0
 11
228.7318789913
 21
234.8154855738
 31
0.0
  0
LINE
  5
237
330
1F
100
AcDbEntity
  8
0
  6
Continuous
 62
     7
370
    30
100
AcDbLine
 10
228.1833901124
 20
234.3154855738
 30
0.0
 11
228.1794019158
 21
234.3154855738
 31
0.0
  0
LINE
  5
238
330
1F
100
AcDbEntity
  8
0
  6
Continuous
 62
     7
370
    30
100
AcDbLine
 10
228.1833901124
 20
242.3154855738
 30
0.0
 11
228.1794019158
 21
242.3154855738
 31
0.0
  0
LINE
  5
239
330
1F
100
AcDbEntity
  8
0
  6
Continuous
 62
     7
370
    30
100
AcDbLine
 10
228.7318789913
 20
234.8154855738
 30
0.0
 11
228.7969158904
 21
234.8154855738
 31
0.0
  0
LINE
  5
23A
330
1F
100
AcDbEntity
  8
0
  6
Continuous
 62
     7
370
    30
100
AcDbLine
 10
228.7969158904
 20
234.8154855738
 30
0.0
 11
228.3611342973
 21
234.3154855738
 31
0.0
  0
LINE
  5
23B
330
1F
100
AcDbEntity
  8
0
  6
Continuous
 62
     7
370
    30
100
AcDbLine
 10
228.3611342973
 20
234.3154855738
 30
0.0
 11
228.1833901124
 21
234.3154855738
 31
0.0
  0
LINE
  5
23C
330
1F
100
AcDbEntity
  8
0
  6
Continuous
 62
     7
370
    30
100
AcDbLine
 10
228.3611342973
 20
242.3154855738
 30
0.0
 11
228.7969158904
 21
241.8154855738
 31
0.0
  0
LINE
  5
23D
330
1F
100
AcDbEntity
  8
0
  6
Continuous
 62
     7
370
    30
100
AcDbLine
 10
228.7969158904
 20
241.8154855738
 30
0.0
 11
228.7318789913
 21
241.8154855738
 31
0.0
  0
LINE
  5
23E
330
1F
100
AcDbEntity
  8
0
  6
Continuous
 62
     7
370
    30
100
AcDbLine
 10
228.1833901124
 20
242.3154855738
 30
0.0
 11
228.3611342973
 21
242.3154855738
 31
0.0
  0
LINE
  5
23F
330
1F
100
AcDbEntity
  8
0
  6
Continuous
 62
     7
370
    30
100
AcDbLine
 10
216.1922887989
 20
241.8154855738
 30
0.0
 11
216.1922887989
 21
234.8154855738
 31
0.0
  0
LINE
  5
240
330
1F
100
AcDbEntity
  8
0
  6
Continuous
 62
     7
370
    30
100
AcDbLine
 10
228.7969158904
 20
234.8154855738
 30
0.0
 11
228.7969158904
 21
241.8154855738
 31
0.0
  0
LINE
  5
241
330
1F
100
AcDbEntity
  8
0
  6
Continuous
 62
     7
370
    30
100
AcDbLine
 10
216.0815322897
 20
234.8154855738
 30
0.0
 11
216.0815322897
 21
241.8154855738
 31
0.0
  0
LINE
  5
242
330
1F
100
AcDbEntity
  8
0
  6
Continuous
 62
     7
370
    30
100
AcDbLine
 10
216.6188538546
 20
242.3154855738
 30
0.0
 11
216.0815322897
 21
241.8154855738
 31
0.0
  0
LINE
  5
243
330
1F
100
AcDbEntity
  8
0
  6
Continuous
 62
     7
370
    30
100
AcDbLine
 10
216.0815322897
 20
234.8154855738
 30
0.0
 11
216.6188538546
 21
234.3154855738
 31
0.0
  0
LINE
  5
244
330
1F
100
AcDbEntity
  8
0
  6
Continuous
 62
     7
370
    30
100
AcDbLine
 10
216.6216078108
 20
234.3154855738
 30
0.0
 11
216.6188538546
 21
234.3154855738
 31
0.0
  0
LINE
  5
245
330
1F
100
AcDbEntity
  8
0
  6
Continuous
 62
     7
370
    30
100
AcDbLine
 10
216.6216078108
 20
242.3154855738
 30
0.0
 11
216.6188538546
 21
242.3154855738
 31
0.0
  0
LINE
  5
246
330
1F
100
AcDbEntity
  8
0
  6
Continuous
 62
     7
370
    30
100
AcDbLine
 10
216.0414712333
 20
234.8154855738
 30
0.0
 11
216.0815322897
 21
234.8154855738
 31
0.0
  0
LINE
  5
247
330
1F
100
AcDbEntity
  8
0
  6
Continuous
 62
     7
370
    30
100
AcDbLine
 10
216.50936801
 20
234.3154855738
 30
0.0
 11
216.0414712333
 21
234.8154855738
 31
0.0
  0
LINE
  5
248
330
1F
100
AcDbEntity
  8
0
  6
Continuous
 62
     7
370
    30
100
AcDbLine
 10
216.6188538546
 20
234.3154855738
 30
0.0
 11
216.50936801
 21
234.3154855738
 31
0.0
  0
LINE
  5
249
330
1F
100
AcDbEntity
  8
0
  6
Continuous
 62
     7
370
    30
100
AcDbLine
 10
216.0815322897
 20
241.8154855738
 30
0.0
 11
216.0414712333
 21
241.8154855738
 31
0.0
  0
LINE
  5
24A
330
1F
100
AcDbEntity
  8
0
  6
Continuous
 62
     7
370
    30
100
AcDbLine
 10
216.0414712333
 20
241.8154855738
 30
0.0
 11
216.50936801
 21
242.3154855738
 31
0.0
  0
LINE
  5
24B
330
1F
100
AcDbEntity
  8
0
  6
Continuous
 62
     7
370
    30
100
AcDbLine
 10
216.50936801
 20
242.3154855738
 30
0.0
 11
216.6188538546
 21
242.3154855738
 31
0.0
  0
LINE
  5
24C
330
1F
100
AcDbEntity
  8
0
  6
Continuous
 62
     7
370
    30
100
AcDbLine
 10
228.8983042855
 20
241.8154855738
 30
0.0
 11
228.3636553158
 21
242.3154855738
 31
0.0
  0
LINE
  5
24D
330
1F
100
AcDbEntity
  8
0
  6
Continuous
 62
     7
370
    30
100
AcDbLine
 10
228.8983042855
 20
241.8154855738
 30
0.0
 11
228.8983042855
 21
234.8154855738
 31
0.0
  0
LINE
  5
24E
330
1F
100
AcDbEntity
  8
0
  6
Continuous
 62
     7
370
    30
100
AcDbLine
 10
228.3636553158
 20
234.3154855738
 30
0.0
 11
228.8983042855
 21
234.8154855738
 31
0.0
  0
LINE
  5
24F
330
1F
100
AcDbEntity
  8
0
  6
Continuous
 62
     7
370
    30
100
AcDbLine
 10
228.3636553158
 20
234.3154855738
 30
0.0
 11
228.3611342973
 21
234.3154855738
 31
0.0
  0
LINE
  5
250
330
1F
100
AcDbEntity
  8
0
  6
Continuous
 62
     7
370
    30
100
AcDbLine
 10
228.3636553158
 20
242.3154855738
 30
0.0
 11
228.3611342973
 21
242.3154855738
 31
0.0
  0
LINE
  5
251
330
1F
100
AcDbEntity
  8
0
  6
Continuous
 62
     7
370
    30
100
AcDbLine
 10
228.8983042855
 20
234.8154855738
 30
0.0
 11
228.9336689344
 21
234.8154855738
 31
0.0
  0
LINE
  5
252
330
1F
100
AcDbEntity
  8
0
  6
Continuous
 62
     7
370
    30
100
AcDbLine
 10
228.9336689344
 20
234.8154855738
 30
0.0
 11
228.4603059984
 21
234.3154855738
 31
0.0
  0
LINE
  5
253
330
1F
100
AcDbEntity
  8
0
  6
Continuous
 62
     7
370
    30
100
AcDbLine
 10
228.4603059984
 20
234.3154855738
 30
0.0
 11
228.3636553158
 21
234.3154855738
 31
0.0
  0
LINE
  5
254
330
1F
100
AcDbEntity
  8
0
  6
Continuous
 62
     7
370
    30
100
AcDbLine
 10
228.4603059984
 20
242.3154855738
 30
0.0
 11
228.9336689344
 21
241.8154855738
 31
0.0
  0
LINE
  5
255
330
1F
100
AcDbEntity
  8
0
  6
Continuous
 62
     7
370
    30
100
AcDbLine
 10
228.9336689344
 20
241.8154855738
 30
0.0
 11
228.8983042855
 21
241.8154855738
 31
0.0
  0
LINE
  5
256
330
1F
100
AcDbEntity
  8
0
  6
Continuous
 62
     7
370
    30
100
AcDbLine
 10
228.3636553158
 20
242.3154855738
 30
0.0
 11
228.4603059984
 21
242.3154855738
 31
0.0
  0
LINE
  5
257
330
1F
100
AcDbEntity
  8
0
  6
Continuous
 62
     7
370
    30
100
AcDbLine
 10
216.0414712333
 20
241.8154855738
 30
0.0
 11
216.0414712333
 21
234.8154855738
 31
0.0
  0
LINE
  5
258
330
1F
100
AcDbEntity
  8
0
  6
Continuous
 62
     7
370
    30
100
AcDbLine
 10
228.9336689344
 20
234.8154855738
 30
0.0
 11
228.9336689344
 21
241.8154855738
 31
0.0
  0
LINE
  5
259
330
1F
100
AcDbEntity
  8
0
  6
Continuous
 62
     7
370
    30
100
AcDbLine
 10
215.9909763725
 20
234.8154855738
 30
0.0
 11
215.9909763725
 21
241.8154855738
 31
0.0
  0
LINE
  5
25A
330
1F
100
AcDbEntity
  8
0
  6
Continuous
 62
     7
370
    30
100
AcDbLine
 10
216.5081124572
 20
242.3154855738
 30
0.0
 11
215.9909763725
 21
241.8154855738
 31
0.0
  0
LINE
  5
25B
330
1F
100
AcDbEntity
  8
0
  6
Continuous
 62
     7
370
    30
100
AcDbLine
 10
215.9909763725
 20
234.8154855738
 30
0.0
 11
216.5081124572
 21
234.3154855738
 31
0.0
  0
LINE
  5
25C
330
1F
100
AcDbEntity
  8
0
  6
Continuous
 62
     7
370
    30
100
AcDbLine
 10
216.50936801
 20
234.3154855738
 30
0.0
 11
216.5081124572
 21
234.3154855738
 31
0.0
  0
LINE
  5
25D
330
1F
100
AcDbEntity
  8
0
  6
Continuous
 62
     7
370
    30
100
AcDbLine
 10
216.50936801
 20
242.3154855738
 30
0.0
 11
216.5081124572
 21
242.3154855738
 31
0.0
  0
LINE
  5
25E
330
1F
100
AcDbEntity
  8
0
  6
Continuous
 62
     7
370
    30
100
AcDbLine
 10
215.9909763725
 20
241.8154855738
 30
0.0
 11
215.9810340516
 21
241.8154855738
 31
0.0
  0
LINE
  5
25F
330
1F
100
AcDbEntity
  8
0
  6
Continuous
 62
     7
370
    30
100
AcDbLine
 10
215.9810340516
 20
241.8154855738
 30
0.0
 11
216.2410280589
 21
242.0755283149
 31
0.0
  0
LINE
  5
260
330
1F
100
AcDbEntity
  8
0
  6
Continuous
 62
     7
370
    30
100
AcDbLine
 10
216.4798257253
 20
242.3154855738
 30
0.0
 11
216.5081124572
 21
242.3154855738
 31
0.0
  0
LINE
  5
261
330
1F
100
AcDbEntity
  8
0
  6
Continuous
 62
     7
370
    30
100
AcDbLine
 10
215.9810340516
 20
234.8154855738
 30
0.0
 11
215.9909763725
 21
234.8154855738
 31
0.0
  0
LINE
  5
262
330
1F
100
AcDbEntity
  8
0
  6
Continuous
 62
     7
370
    30
100
AcDbLine
 10
216.2410280589
 20
234.5554428327
 30
0.0
 11
215.9810340516
 21
234.8154855738
 31
0.0
  0
LINE
  5
263
330
1F
100
AcDbEntity
  8
0
  6
Continuous
 62
     7
370
    30
100
AcDbLine
 10
216.5081124572
 20
234.3154855738
 30
0.0
 11
216.4798257253
 21
234.3154855738
 31
0.0
  0
LINE
  5
264
330
1F
100
AcDbEntity
  8
0
  6
Continuous
 62
     7
370
    30
100
AcDbLine
 10
228.9746282102
 20
241.8154855738
 30
0.0
 11
228.4613244492
 21
242.3154855738
 31
0.0
  0
LINE
  5
265
330
1F
100
AcDbEntity
  8
0
  6
Continuous
 62
     7
370
    30
100
AcDbLine
 10
228.9746282102
 20
241.8154855738
 30
0.0
 11
228.9746282102
 21
234.8154855738
 31
0.0
  0
LINE
  5
266
330
1F
100
AcDbEntity
  8
0
  6
Continuous
 62
     7
370
    30
100
AcDbLine
 10
228.4613244492
 20
234.3154855738
 30
0.0
 11
228.9746282102
 21
234.8154855738
 31
0.0
  0
LINE
  5
267
330
1F
100
AcDbEntity
  8
0
  6
Continuous
 62
     7
370
    30
100
AcDbLine
 10
228.4613244492
 20
234.3154855738
 30
0.0
 11
228.4603059984
 21
234.3154855738
 31
0.0
  0
LINE
  5
268
330
1F
100
AcDbEntity
  8
0
  6
Continuous
 62
     7
370
    30
100
AcDbLine
 10
228.4613244492
 20
242.3154855738
 30
0.0
 11
228.4603059984
 21
242.3154855738
 31
0.0
  0
LINE
  5
269
330
1F
100
AcDbEntity
  8
0
  6
Continuous
 62
     7
370
    30
100
AcDbLine
 10
228.9746282102
 20
234.8154855738
 30
0.0
 11
228.9798241668
 21
234.8154855738
 31
0.0
  0
LINE
  5
26A
330
1F
100
AcDbEntity
  8
0
  6
Continuous
 62
     7
370
    30
100
AcDbLine
 10
228.9798241668
 20
234.8154855738
 30
0.0
 11
228.9700264521
 21
234.8057713876
 31
0.0
  0
LINE
  5
26B
330
1F
100
AcDbEntity
  8
0
  6
Continuous
 62
     7
370
    30
100
AcDbLine
 10
228.4798257253
 20
234.3154855738
 30
0.0
 11
228.4613244492
 21
234.3154855738
 31
0.0
  0
LINE
  5
26C
330
1F
100
AcDbEntity
  8
0
  6
Continuous
 62
     7
370
    30
100
AcDbLine
 10
228.9700264521
 20
241.8251997601
 30
0.0
 11
228.9798241668
 21
241.8154855738
 31
0.0
  0
LINE
  5
26D
330
1F
100
AcDbEntity
  8
0
  6
Continuous
 62
     7
370
    30
100
AcDbLine
 10
228.9798241668
 20
241.8154855738
 30
0.0
 11
228.9746282102
 21
241.8154855738
 31
0.0
  0
LINE
  5
26E
330
1F
100
AcDbEntity
  8
0
  6
Continuous
 62
     7
370
    30
100
AcDbLine
 10
228.4613244492
 20
242.3154855738
 30
0.0
 11
228.4798257253
 21
242.3154855738
 31
0.0
  0
LINE
  5
26F
330
1F
100
AcDbEntity
  8
0
  6
Continuous
 62
     7
370
    30
100
AcDbLine
 10
215.9810340516
 20
241.8154855738
 30
0.0
 11
215.9810340516
 21
234.8154855738
 31
0.0
  0
LINE
  5
270
330
1F
100
AcDbEntity
  8
0
  6
Continuous
 62
     7
370
    30
100
AcDbLine
 10
228.9798241668
 20
234.8154855738
 30
0.0
 11
228.9798241668
 21
241.8154855738
 31
0.0
  0
CIRCLE
  5
271
330
1F
100
AcDbEntity
  8
0
  6
Continuous
 62
     7
370
    30
100
AcDbCircle
 10
213.9798257253
 20
227.8154855738
 30
0.0
 40
4.000000000000001
  0
CIRCLE
  5
272
330
1F
100
AcDbEntity
  8
0
  6
Continuous
 62
     7
370
    30
100
AcDbCircle
 10
213.9798257253
 20
227.8154855738
 30
0.0
 40
1.649999999999998
  0
LINE
  5
273
330
1F
100
AcDbEntity
  8
0
  6
Continuous
 62
     7
370
    30
100
AcDbLine
 10
199.4697354031
 20
221.8154855738
 30
0.0
 11
199.4697354031
 21
233.8154855738
 31
0.0
  0
LINE
  5
274
330
1F
100
AcDbEntity
  8
0
  6
Continuous
 62
     7
370
    30
100
AcDbLine
 10
199.4697354031
 20
221.8154855738
 30
0.0
 11
188.4798257253
 21
221.8154855738
 31
0.0
  0
LINE
  5
275
330
1F
100
AcDbEntity
  8
0
  6
Continuous
 62
     7
370
    30
100
AcDbLine
 10
188.4798257253
 20
221.8154855738
 30
0.0
 11
188.4798257253
 21
233.8154855738
 31
0.0
  0
LINE
  5
276
330
1F
100
AcDbEntity
  8
0
  6
Continuous
 62
     7
370
    30
100
AcDbLine
 10
199.4697354031
 20
233.8154855738
 30
0.0
 11
188.4798257253
 21
233.8154855738
 31
0.0
  0
LINE
  5
277
330
1F
100
AcDbEntity
  8
0
  6
Continuous
 62
     7
370
    30
100
AcDbLine
 10
228.4798257253
 20
221.8154855738
 30
0.0
 11
199.4697354031
 21
221.8154855738
 31
0.0
  0
LINE
  5
278
330
1F
100
AcDbEntity
  8
0
  6
Continuous
 62
     7
370
    30
100
AcDbLine
 10
228.4798257253
 20
233.8154855738
 30
0.0
 11
199.4697354031
 21
233.8154855738
 31
0.0
  0
LINE
  5
279
330
1F
100
AcDbEntity
  8
0
  6
Continuous
 62
     7
370
    30
100
AcDbLine
 10
228.4798257253
 20
228.3154855738
 30
0.0
 11
228.4798257253
 21
233.8154855738
 31
0.0
  0
LINE
  5
27A
330
1F
100
AcDbEntity
  8
0
  6
Continuous
 62
     7
370
    30
100
AcDbLine
 10
228.4798257253
 20
228.3154855738
 30
0.0
 11
217.9484526919
 21
228.3154855738
 31
0.0
  0
LINE
  5
27B
330
1F
100
AcDbEntity
  8
0
  6
Continuous
 62
     7
370
    30
100
AcDbLine
 10
217.9484526919
 20
227.3154855738
 30
0.0
 11
228.4798257253
 21
227.3154855738
 31
0.0
  0
LINE
  5
27C
330
1F
100
AcDbEntity
  8
0
  6
Continuous
 62
     7
370
    30
100
AcDbLine
 10
228.4798257253
 20
221.8154855738
 30
0.0
 11
228.4798257253
 21
227.3154855738
 31
0.0
  0
ARC
  5
27D
330
1F
100
AcDbEntity
  8
0
  6
Continuous
 62
     7
370
    30
100
AcDbCircle
 10
181.4798257253
 20
226.8154855738
 30
0.0
 40
5.0
100
AcDbArc
 50
180.0
 51
270.0
  0
LINE
  5
27E
330
1F
100
AcDbEntity
  8
0
  6
Continuous
 62
     7
370
    30
100
AcDbLine
 10
176.4798257253
 20
226.8154855738
 30
0.0
 11
176.4798257253
 21
228.8154855738
 31
0.0
  0
ARC
  5
27F
330
1F
100
AcDbEntity
  8
0
  6
Continuous
 62
     7
370
    30
100
AcDbCircle
 10
181.4798257253
 20
228.8154855738
 30
0.0
 40
5.0
100
AcDbArc
 50
90.0
 51
180.0
  0
CIRCLE
  5
280
330
1F
100
AcDbEntity
  8
0
  6
Continuous
 62
     7
370
    30
100
AcDbCircle
 10
182.4798257253
 20
227.8154855738
 30
0.0
 40
1.649999999999977
  0
LINE
  5
281
330
1F
100
AcDbEntity
  8
0
  6
Continuous
 62
     7
370
    30
100
AcDbLine
 10
188.4798257253
 20
233.8154855738
 30
0.0
 11
181.4798257253
 21
233.8154855738
 31
0.0
  0
LINE
  5
282
330
1F
100
AcDbEntity
  8
0
  6
Continuous
 62
     7
370
    30
100
AcDbLine
 10
188.4798257253
 20
221.8154855738
 30
0.0
 11
181.4798257253
 21
221.8154855738
 31
0.0
  0
LINE
  5
283
330
1F
100
AcDbEntity
  8
0
  6
Continuous
 62
     7
370
    30
100
AcDbLine
 10
231.4798257253
 20
252.8154855738
 30
0.0
 11
231.4798257253
 21
202.8154855738
 31
0.0
  0
LINE
  5
284
330
1F
100
AcDbEntity
  8
0
  6
Continuous
 62
     7
370
    30
100
AcDbLine
 10
231.4798257253
 20
202.8154855738
 30
0.0
 11
205.9798257253
 21
202.8154855738
 31
0.0
  0
LINE
  5
285
330
1F
100
AcDbEntity
  8
0
  6
Continuous
 62
     7
370
    30
100
AcDbLine
 10
205.9798257253
 20
252.8154855738
 30
0.0
 11
205.9798257253
 21
233.8154855738
 31
0.0
  0
LINE
  5
286
330
1F
100
AcDbEntity
  8
0
  6
Continuous
 62
     7
370
    30
100
AcDbLine
 10
205.9798257253
 20
221.8154855738
 30
0.0
 11
205.9798257253
 21
202.8154855738
 31
0.0
  0
LINE
  5
287
330
1F
100
AcDbEntity
  8
0
  6
Continuous
 62
     7
370
    30
100
AcDbLine
 10
231.4798257253
 20
252.8154855738
 30
0.0
 11
205.9798257253
 21
252.8154855738
 31
0.0
  0
LINE
  5
288
330
1F
100
AcDbEntity
  8
0
  6
Continuous
 62
     7
370
    30
100
AcDbLine
 10
158.9798257253
 20
252.8154855738
 30
0.0
 11
158.9798257253
 21
202.8154855738
 31
0.0
  0
LINE
  5
289
330
1F
100
AcDbEntity
  8
0
  6
Continuous
 62
     7
370
    30
100
AcDbLine
 10
158.9798257253
 20
202.8154855738
 30
0.0
 11
156.4798257253
 21
202.8154855738
 31
0.0
  0
LINE
  5
28A
330
1F
100
AcDbEntity
  8
0
  6
Continuous
 62
     7
370
    30
100
AcDbLine
 10
156.4798257253
 20
252.8154855738
 30
0.0
 11
156.4798257253
 21
202.8154855738
 31
0.0
  0
LINE
  5
28B
330
1F
100
AcDbEntity
  8
0
  6
Continuous
 62
     7
370
    30
100
AcDbLine
 10
158.9798257253
 20
252.8154855738
 30
0.0
 11
156.4798257253
 21
252.8154855738
 31
0.0
  0
LINE
  5
28C
330
1F
100
AcDbEntity
  8
0
  6
Continuous
 62
     7
370
    30
100
AcDbLine
 10
181.4798257253
 20
209.1746392501
 30
0.0
 11
181.4798257253
 21
202.8154855738
 31
0.0
  0
LINE
  5
28D
330
1F
100
AcDbEntity
  8
0
  6
Continuous
 62
     7
370
    30
100
AcDbLine
 10
181.4798257253
 20
202.8154855738
 30
0.0
 11
158.9798257253
 21
202.8154855738
 31
0.0
  0
LINE
  5
28E
330
1F
100
AcDbEntity
  8
0
  6
Continuous
 62
     7
370
    30
100
AcDbLine
 10
181.4798257253
 20
252.8154855738
 30
0.0
 11
181.4798257253
 21
246.4563318975
 31
0.0
  0
ELLIPSE
  5
28F
330
1F
100
AcDbEntity
  8
0
  6
Continuous
 62
     7
370
    30
100
AcDbEllipse
 10
180.6393456224
 20
240.5154855738
 30
0.0
 11
12.76787952305293
 21
0.0
 31
0.0
210
0.0
220
0.0
230
1.0
 40
0.4663076582
 41
1.504920995282057
 42
4.778264311897535
  0
LINE
  5
290
330
1F
100
AcDbEntity
  8
0
  6
Continuous
 62
     7
370
    30
100
AcDbLine
 10
181.4798257253
 20
234.5746392501
 30
0.0
 11
181.4798257253
 21
233.8154855738
 31
0.0
  0
LINE
  5
291
330
1F
100
AcDbEntity
  8
0
  6
Continuous
 62
     7
370
    30
100
AcDbLine
 10
181.4798257253
 20
221.8154855738
 30
0.0
 11
181.4798257253
 21
221.0563318975
 31
0.0
  0
ELLIPSE
  5
292
330
1F
100
AcDbEntity
  8
0
  6
Continuous
 62
     7
370
    30
100
AcDbEllipse
 10
180.6393456224
 20
215.1154855738
 30
0.0
 11
12.76787952305293
 21
0.0
 31
0.0
210
0.0
220
0.0
230
1.0
 40
0.4663076582
 41
1.504920995282058
 42
4.778264311897535
  0
CIRCLE
  5
293
330
1F
100
AcDbEntity
  8
0
  6
Continuous
 62
     7
370
    30
100
AcDbCircle
 10
168.9798257253
 20
227.8154855738
 30
0.0
 40
4.366259999999983
  0
LINE
  5
294
330
1F
100
AcDbEntity
  8
0
  6
Continuous
 62
     7
370
    30
100
AcDbLine
 10
181.4798257253
 20
252.8154855738
 30
0.0
 11
158.9798257253
 21
252.8154855738
 31
0.0
  0
ELLIPSE
  5
295
330
1F
100
AcDbEntity
  8
0
  6
Continuous
 62
     7
370
    30
100
AcDbEllipse
 10
184.3203058281
 20
240.5154855738
 30
0.0
 11
12.76787952305295
 21
0.0
 31
0.0
210
0.0
220
0.0
230
1.0
 40
0.4663076582
 41
0.7440529101848715
 42
1.636671658307734
  0
LINE
  5
296
330
1F
100
AcDbEntity
  8
0
  6
Continuous
 62
     7
370
    30
100
AcDbLine
 10
183.4798257253
 20
252.8154855738
 30
0.0
 11
183.4798257253
 21
246.4563318975
 31
0.0
  0
LINE
  5
297
330
1F
100
AcDbEntity
  8
0
  6
Continuous
 62
     7
370
    30
100
AcDbLine
 10
183.4798257253
 20
209.1746392501
 30
0.0
 11
183.4798257253
 21
202.8154855738
 31
0.0
  0
ELLIPSE
  5
298
330
1F
100
AcDbEntity
  8
0
  6
Continuous
 62
     7
370
    30
100
AcDbEllipse
 10
184.3203058281
 20
215.1154855738
 30
0.0
 11
12.76787952305295
 21
0.0
 31
0.0
210
0.0
220
0.0
230
1.0
 40
0.4663076582
 41
4.646513648871857
 42
5.539132396994775
  0
ARC
  5
299
330
1F
100
AcDbEntity
  8
0
  6
Continuous
 62
     7
370
    30
100
AcDbCircle
 10
195.9798257253
 20
214.8154855738
 30
0.0
 40
4.366259999999985
100
AcDbArc
 50
238.7390529781
 51
112.8616763394
  0
ELLIPSE
  5
29A
330
1F
100
AcDbEntity
  8
0
  6
Continuous
 62
     7
370
    30
100
AcDbEllipse
 10
184.3203058281
 20
215.1154855738
 30
0.0
 11
12.76787952305295
 21
0.0
 31
0.0
210
0.0
220
0.0
230
1.0
 40
0.4663076582
 41
0.6755986339306885
 42
1.636671658307735
  0
LINE
  5
29B
330
1F
100
AcDbEntity
  8
0
  6
Continuous
 62
     7
370
    30
100
AcDbLine
 10
183.4798257253
 20
234.5746392501
 30
0.0
 11
183.4798257253
 21
233.8154855738
 31
0.0
  0
LINE
  5
29C
330
1F
100
AcDbEntity
  8
0
  6
Continuous
 62
     7
370
    30
100
AcDbLine
 10
183.4798257253
 20
221.8154855738
 30
0.0
 11
183.4798257253
 21
221.0563318975
 31
0.0
  0
ELLIPSE
  5
29D
330
1F
100
AcDbEntity
  8
0
  6
Continuous
 62
     7
370
    30
100
AcDbEllipse
 10
184.3203058281
 20
240.5154855738
 30
0.0
 11
12.76787952305295
 21
0.0
 31
0.0
210
0.0
220
0.0
230
1.0
 40
0.4663076582
 41
4.646513648871858
 42
5.607586673248914
  0
ARC
  5
29E
330
1F
100
AcDbEntity
  8
0
  6
Continuous
 62
     7
370
    30
100
AcDbCircle
 10
195.9798257253
 20
240.8154855738
 30
0.0
 40
4.366260000000266
100
AcDbArc
 50
247.1383236606
 51
121.2609470219
  0
LINE
  5
29F
330
1F
100
AcDbEntity
  8
0
  6
Continuous
 62
     7
370
    30
100
AcDbLine
 10
205.9798257253
 20
202.8154855738
 30
0.0
 11
183.4798257253
 21
202.8154855738
 31
0.0
  0
LINE
  5
2A0
330
1F
100
AcDbEntity
  8
0
  6
Continuous
 62
     7
370
    30
100
AcDbLine
 10
205.9798257253
 20
252.8154855738
 30
0.0
 11
183.4798257253
 21
252.8154855738
 31
0.0
  0
LINE
  5
2A1
330
1F
100
AcDbEntity
  8
0
  6
Continuous
 62
     7
370
    30
100
AcDbLine
 10
183.4798257253
 20
234.873034144
 30
0.0
 11
183.4798257253
 21
234.5746392501
 31
0.0
  0
LINE
  5
2A2
330
1F
100
AcDbEntity
  8
0
  6
Continuous
 62
     7
370
    30
100
AcDbLine
 10
181.4798257253
 20
234.873034144
 30
0.0
 11
183.4798257253
 21
234.873034144
 31
0.0
  0
LINE
  5
2A3
330
1F
100
AcDbEntity
  8
0
  6
Continuous
 62
     7
370
    30
100
AcDbLine
 10
181.4798257253
 20
234.5746392501
 30
0.0
 11
181.4798257253
 21
234.873034144
 31
0.0
  0
LINE
  5
2A4
330
1F
100
AcDbEntity
  8
0
  6
Continuous
 62
     7
370
    30
100
AcDbLine
 10
181.4798257253
 20
246.1579370036
 30
0.0
 11
181.4798257253
 21
246.4563318975
 31
0.0
  0
LINE
  5
2A5
330
1F
100
AcDbEntity
  8
0
  6
Continuous
 62
     7
370
    30
100
AcDbLine
 10
183.4798257253
 20
246.1579370036
 30
0.0
 11
181.4798257253
 21
246.1579370036
 31
0.0
  0
LINE
  5
2A6
330
1F
100
AcDbEntity
  8
0
  6
Continuous
 62
     7
370
    30
100
AcDbLine
 10
183.4798257253
 20
246.4563318975
 30
0.0
 11
183.4798257253
 21
246.1579370036
 31
0.0
  0
SPLINE
  5
2A7
330
1F
100
AcDbEntity
  8
0
  6
Continuous
 62
     7
370
    30
100
AcDbSpline
210
0.0
220
0.0
230
1.0
 70
     8
 71
     3
 72
    20
 73
    16
 74
     0
 42
0.000000001
 43
0.00000001
 40
0.0
 40
0.0
 40
0.0
 40
0.0
 40
0.0690880659152409
 40
0.1428648722947529
 40
0.2166323219708338
 40
0.3005066236170665
 40
0.3842595966417506
 40
0.445042182512204
 40
0.5058022649599068
 40
0.5666180078195063
 40
0.6274545725020498
 40
0.7482462454577165
 40
0.8855331604345726
 40
0.9687369405764532
 40
1.0
 40
1.0
 40
1.0
 40
1.0
 10
194.244059673168
 20
236.8536717445075
 30
0.0
 10
194.0385152521231
 20
236.9358354322308
 30
0.0
 10
193.6134769032497
 20
237.1057389401431
 30
0.0
 10
193.0845322589093
 20
237.5294294729611
 30
0.0
 10
192.5765283989016
 20
238.0440014680574
 30
0.0
 10
192.1439462504031
 20
238.6810911877071
 30
0.0
 10
191.8408562772088
 20
239.3629517031213
 30
0.0
 10
191.6724743473508
 20
240.0233099903717
 30
0.0
 10
191.6029546599967
 20
240.629588055033
 30
0.0
 10
191.6207459233222
 20
241.2387043480254
 30
0.0
 10
191.7520937716804
 20
242.0271707940037
 30
0.0
 10
192.1254858657223
 20
242.9885584794976
 30
0.0
 10
192.7654808778489
 20
243.8130382630656
 30
0.0
 10
193.3264658699152
 20
244.3148018229996
 30
0.0
 10
193.6293275871784
 20
244.4829167061388
 30
0.0
 10
193.7120448518453
 20
244.5288320612016
 30
0.0
  0
LINE
  5
2A8
330
1F
100
AcDbEntity
  8
0
  6
Continuous
 62
     7
370
    30
100
AcDbLine
 10
183.4798257253
 20
209.473034144
 30
0.0
 11
183.4798257253
 21
209.1746392501
 31
0.0
  0
LINE
  5
2A9
330
1F
100
AcDbEntity
  8
0
  6
Continuous
 62
     7
370
    30
100
AcDbLine
 10
181.4798257253
 20
209.473034144
 30
0.0
 11
183.4798257253
 21
209.473034144
 31
0.0
  0
LINE
  5
2AA
330
1F
100
AcDbEntity
  8
0
  6
Continuous
 62
     7
370
    30
100
AcDbLine
 10
181.4798257253
 20
209.1746392501
 30
0.0
 11
181.4798257253
 21
209.473034144
 31
0.0
  0
LINE
  5
2AB
330
1F
100
AcDbEntity
  8
0
  6
Continuous
 62
     7
370
    30
100
AcDbLine
 10
181.4798257253
 20
220.7579370036
 30
0.0
 11
181.4798257253
 21
221.0563318975
 31
0.0
  0
LINE
  5
2AC
330
1F
100
AcDbEntity
  8
0
  6
Continuous
 62
     7
370
    30
100
AcDbLine
 10
183.4798257253
 20
220.7579370036
 30
0.0
 11
181.4798257253
 21
220.7579370036
 31
0.0
  0
LINE
  5
2AD
330
1F
100
AcDbEntity
  8
0
  6
Continuous
 62
     7
370
    30
100
AcDbLine
 10
183.4798257253
 20
221.0563318975
 30
0.0
 11
183.4798257253
 21
220.7579370036
 31
0.0
  0
SPLINE
  5
2AE
330
1F
100
AcDbEntity
  8
0
  6
Continuous
 62
     7
370
    30
100
AcDbSpline
210
0.0
220
0.0
230
1.0
 70
     8
 71
     3
 72
    21
 73
    17
 74
     0
 42
0.000000001
 43
0.00000001
 40
0.0
 40
0.0
 40
0.0
 40
0.0
 40
0.0081060861643777
 40
0.0831010021844207
 40
0.1580846078306948
 40
0.2334093504663954
 40
0.308658244470345
 40
0.3717601030391937
 40
0.4348221900506379
 40
0.4981051323974131
 40
0.5613936331952223
 40
0.680473874786043
 40
0.809861907381749
 40
0.8861968660209811
 40
0.9625177228259292
 40
1.0
 40
1.0
 40
1.0
 40
1.0
 10
193.661956153246
 20
211.1211157971674
 30
0.0
 10
193.6403515321336
 20
211.1327672157389
 30
0.0
 10
193.418867867904
 20
211.252213831593
 30
0.0
 10
193.0573409420435
 20
211.5573108678176
 30
0.0
 10
192.5845092601436
 20
212.0392913247958
 30
0.0
 10
192.1917036399241
 20
212.6087542726104
 30
0.0
 10
191.8989956263566
 20
213.214936128083
 30
0.0
 10
191.7099434984676
 20
213.8388943854101
 30
0.0
 10
191.6126925587711
 20
214.4570991131613
 30
0.0
 10
191.6077775977484
 20
215.0913213266357
 30
0.0
 10
191.7173672708698
 20
215.9053462785583
 30
0.0
 10
192.06997461523
 20
216.8806061072216
 30
0.0
 10
192.6749960020395
 20
217.7262902626293
 30
0.0
 10
193.333087032279
 20
218.3082422698499
 30
0.0
 10
193.8287761309105
 20
218.6392237332773
 30
0.0
 10
194.1641951007153
 20
218.7774376037471
 30
0.0
 10
194.2746689194591
 20
218.8229598176011
 30
0.0
  0
LINE
  5
2AF
330
1F
100
AcDbEntity
  8
0
  6
Continuous
 62
     7
370
    30
100
AcDbLine
 10
183.4798257253
 20
252.8154855738
 30
0.0
 11
181.4798257253
 21
252.8154855738
 31
0.0
  0
LINE
  5
2B0
330
1F
100
AcDbEntity
  8
0
  6
Continuous
 62
     7
370
    30
100
AcDbLine
 10
183.4798257253
 20
202.8154855738
 30
0.0
 11
181.4798257253
 21
202.8154855738
 31
0.0
  0
CIRCLE
  5
2B1
330
1F
100
AcDbEntity
  8
0
  6
Continuous
 62
     7
370
    30
100
AcDbCircle
 10
168.9798257253
 20
227.8154855738
 30
0.0
 40
2.247899999999987
  0
CIRCLE
  5
2B2
330
1F
100
AcDbEntity
  8
0
  6
Continuous
 62
     7
370
    30
100
AcDbCircle
 10
195.9798257253
 20
240.8154855738
 30
0.0
 40
2.247899999999987
  0
CIRCLE
  5
2B3
330
1F
100
AcDbEntity
  8
0
  6
Continuous
 62
     7
370
    30
100
AcDbCircle
 10
195.9798257253
 20
214.8154855738
 30
0.0
 40
2.247900000000016
  0
DIMENSION
  5
2B4
330
1F
100
AcDbEntity
  8
SLD-0
 62
     7
100
AcDbDimension
  2
_D
 10
250.7556612021
 20
202.8154855738
 30
0.0
 11
250.7556612021
 21
227.8154855738
 31
0.0
 70
   160
  1
<>
 71
     2
 42
-1.0
  3
SLDDIMSTYLE0
100
AcDbAlignedDimension
 13
181.4798257253
 23
252.8154855738
 33
0.0
 14
181.4798257253
 24
202.8154855738
 34
0.0
 50
90.0
100
AcDbRotatedDimension
  0
DIMENSION
  5
2BF
330
1F
100
AcDbEntity
  8
SLD-0
 62
     7
100
AcDbDimension
  2
_D_1
 10
195.9798257253
 20
191.065051682
 30
0.0
 11
182.4798257253
 21
191.065051682
 31
0.0
 70
   160
  1
<>
 71
     2
 42
-1.0
  3
SLDDIMSTYLE0
100
AcDbAlignedDimension
 13
168.9798257253
 23
222.4492255738
 33
0.0
 14
195.9798257253
 24
209.4492255738
 34
0.0
100
AcDbRotatedDimension
  0
DIMENSION
  5
2C9
330
1F
100
AcDbEntity
  8
SLD-0
 62
     7
100
AcDbDimension
  2
_D_2
 10
241.9798257253
 20
214.8154855738
 30
0.0
 11
241.9798257253
 21
227.8154855738
 31
0.0
 70
   160
  1
<>
 71
     2
 42
-1.0
  3
SLDDIMSTYLE0
100
AcDbAlignedDimension
 13
201.3460857253
 23
240.8154855738
 33
0.0
 14
201.3460857253
 24
214.8154855738
 34
0.0
 50
90.0
100
AcDbRotatedDimension
  0
DIMENSION
  5
2D3
330
1F
100
AcDbEntity
  8
SLD-0
 62
     7
100
AcDbDimension
  2
_D_3
 10
172.7611178048
 20
225.6323555738
 30
0.0
 11
119.2883781891
 21
247.7857146782
 31
0.0
 70
   163
  1
3 HOLES for both of\P M4 and 8-32 CLR
 71
     1
 42
-1.0
  3
SLDDIMSTYLE1
100
AcDbDiametricDimension
 15
165.1985336457
 25
229.9986155738
 35
0.0
 40
0.0
  0
DIMENSION
  5
2DD
330
1F
100
AcDbEntity
  8
SLD-0
 62
     7
100
AcDbDimension
  2
_D_4
 10
231.4798257253
 20
191.065051682
 30
0.0
 11
213.7298257253
 21
191.065051682
 31
0.0
 70
   160
  1
<>
 71
     2
 42
-1.0
  3
SLDDIMSTYLE0
100
AcDbAlignedDimension
 13
195.9798257253
 23
209.4492255738
 33
0.0
 14
231.4798257253
 24
202.8154855738
 34
0.0
100
AcDbRotatedDimension
  0
INSERT
  5
2F2
330
1F
100
AcDbEntity
  8
SLD-0
 62
     7
100
AcDbBlockReference
  2
SW_CENTERMARKSYMBOL_0
 10
168.9798257253
 20
227.8154855738
 30
0.0
  0
INSERT
  5
2FE
330
1F
100
AcDbEntity
  8
SLD-0
 62
     7
100
AcDbBlockReference
  2
SW_CENTERMARKSYMBOL_1
 10
195.9798257253
 20
240.8154855738
 30
0.0
  0
INSERT
  5
30A
330
1F
100
AcDbEntity
  8
SLD-0
 62
     7
100
AcDbBlockReference
  2
SW_CENTERMARKSYMBOL_2
 10
195.9798257253
 20
214.8154855738
 30
0.0
  0
LINE
  5
30B
330
1F
100
AcDbEntity
  8
0
  6
Continuous
 62
     7
370
    30
100
AcDbLine
 10
381.2955863479
 20
254.6721835887
 30
0.0
 11
381.4016351264
 21
254.7334241488
 31
0.0
  0
LINE
  5
30C
330
1F
100
AcDbEntity
  8
0
  6
Continuous
 62
     7
370
    30
100
AcDbLine
 10
382.4621229111
 20
256.5704419173
 30
0.0
 11
382.4621229111
 21
256.6929031341
 31
0.0
  0
LINE
  5
30D
330
1F
100
AcDbEntity
  8
0
  6
Continuous
 62
     7
370
    30
100
AcDbLine
 10
362.6631330379
 20
261.8770946442
 30
0.0
 11
362.6631330379
 21
261.6816649419
 31
0.0
  0
LINE
  5
30E
330
1F
100
AcDbEntity
  8
0
  6
Continuous
 62
     7
370
    30
100
AcDbLine
 10
367.2585801048
 20
269.4293009187
 30
0.0
 11
366.9050841766
 21
269.2251657184
 31
0.0
  0
LINE
  5
30F
330
1F
100
AcDbEntity
  8
0
  6
Continuous
 62
     7
370
    30
100
AcDbLine
 10
367.1484144121
 20
268.2205959514
 30
0.0
 11
367.1484144121
 21
259.836870565
 31
0.0
  0
LINE
  5
310
330
1F
100
AcDbEntity
  8
0
  6
Continuous
 62
     7
370
    30
100
AcDbLine
 10
367.1484144121
 20
242.8307813031
 30
0.0
 11
367.1484144121
 21
211.0627391194
 31
0.0
  0
LINE
  5
311
330
1F
100
AcDbEntity
  8
0
  6
Continuous
 62
     7
370
    30
100
AcDbLine
 10
375.1484144121
 20
211.0627391194
 30
0.0
 11
375.1484144121
 21
247.4490829998
 31
0.0
  0
LINE
  5
312
330
1F
100
AcDbEntity
  8
0
  6
Continuous
 62
     7
370
    30
100
AcDbLine
 10
375.1484144121
 20
259.836870565
 30
0.0
 11
375.1484144121
 21
268.2205959514
 31
0.0
  0
LINE
  5
313
330
1F
100
AcDbEntity
  8
0
  6
Continuous
 62
     7
370
    30
100
AcDbLine
 10
342.4603372424
 20
243.7122795562
 30
0.0
 11
342.4603372424
 21
237.1799530612
 31
0.0
  0
LWPOLYLINE
  5
314
330
1F
100
AcDbEntity
  8
0
  6
Continuous
 62
     7
370
    30
100
AcDbPolyline
 90
       20
 70
   128
 43
0.0
 10
381.4014627393
 20
254.7333246156
 10
381.7458585341
 20
254.9985037262
 10
382.0529337007
 20
255.3676738659
 10
382.2894118799
 20
255.8008297217
 10
382.4296669919
 20
256.2510321355
 10
382.4585002189
 20
256.6694946903
 10
382.3727870333
 20
257.0108704751
 10
382.1818157888
 20
257.2381661266
 10
381.906281183
 20
257.3267506341
 10
381.5760416657
 20
257.2670244917
 10
381.2268838129
 20
257.0654599537
 10
380.8966442956
 20
256.7438996654
 10
380.6211096898
 20
256.3371896735
 10
380.4301384453
 20
255.8894033164
 10
380.3444252598
 20
255.449065194
 10
380.3732584867
 20
255.0638927745
 10
380.5135135987
 20
254.775625466
 10
380.749991778
 20
254.6155015043
 10
381.0570669445
 20
254.6008728054
 10
381.4014627393
 20
254.7333246156
  0
LINE
  5
315
330
1F
100
AcDbEntity
  8
0
  6
Continuous
 62
     7
370
    30
100
AcDbLine
 10
367.1484144121
 20
264.0704421093
 30
0.0
 11
363.9593083137
 21
265.9114738724
 31
0.0
  0
LINE
  5
316
330
1F
100
AcDbEntity
  8
0
  6
Continuous
 62
     7
370
    30
100
AcDbLine
 10
363.9757040911
 20
266.1780281
 30
0.0
 11
363.9593083137
 21
265.9114738724
 31
0.0
  0
LINE
  5
317
330
1F
100
AcDbEntity
  8
0
  6
Continuous
 62
     7
370
    30
100
AcDbLine
 10
363.985137422
 20
266.1796205681
 30
0.0
 11
363.9757040911
 21
266.1780281
 31
0.0
  0
LINE
  5
318
330
1F
100
AcDbEntity
  8
0
  6
Continuous
 62
     7
370
    30
100
AcDbLine
 10
367.1484144121
 20
264.3534996318
 30
0.0
 11
363.985137422
 21
266.1796205681
 31
0.0
  0
LINE
  5
319
330
1F
100
AcDbEntity
  8
0
  6
Continuous
 62
     7
370
    30
100
AcDbLine
 10
367.1484144121
 20
263.5348905054
 30
0.0
 11
363.643129802
 21
265.5584482382
 31
0.0
  0
LINE
  5
31A
330
1F
100
AcDbEntity
  8
0
  6
Continuous
 62
     7
370
    30
100
AcDbLine
 10
363.6391383578
 20
265.5667396127
 30
0.0
 11
363.643129802
 21
265.5584482382
 31
0.0
  0
LINE
  5
31B
330
1F
100
AcDbEntity
  8
0
  6
Continuous
 62
     7
370
    30
100
AcDbLine
 10
363.8361583405
 20
265.6878023771
 30
0.0
 11
363.6391383578
 21
265.5667396127
 31
0.0
  0
LINE
  5
31C
330
1F
100
AcDbEntity
  8
0
  6
Continuous
 62
     7
370
    30
100
AcDbLine
 10
363.8361583405
 20
265.6878023771
 30
0.0
 11
367.1484144121
 21
263.7756776477
 31
0.0
  0
LINE
  5
31D
330
1F
100
AcDbEntity
  8
0
  6
Continuous
 62
     7
370
    30
100
AcDbLine
 10
363.9822592148
 20
266.1890253727
 30
0.0
 11
363.985137422
 21
266.1796205681
 31
0.0
  0
LINE
  5
31E
330
1F
100
AcDbEntity
  8
0
  6
Continuous
 62
     7
370
    30
100
AcDbLine
 10
364.2229372729
 20
266.3537537855
 30
0.0
 11
363.9822592148
 21
266.1890253727
 31
0.0
  0
LINE
  5
31F
330
1F
100
AcDbEntity
  8
0
  6
Continuous
 62
     7
370
    30
100
AcDbLine
 10
364.2229372729
 20
266.3537537855
 30
0.0
 11
367.1484144121
 21
264.664911781
 31
0.0
  0
LINE
  5
320
330
1F
100
AcDbEntity
  8
0
  6
Continuous
 62
     7
370
    30
100
AcDbLine
 10
367.1484144121
 20
263.1836790259
 30
0.0
 11
363.6040913879
 21
265.2297731554
 31
0.0
  0
LINE
  5
321
330
1F
100
AcDbEntity
  8
0
  6
Continuous
 62
     7
370
    30
100
AcDbLine
 10
363.6333680222
 20
265.5553507341
 30
0.0
 11
363.6040913879
 21
265.2297731554
 31
0.0
  0
LINE
  5
322
330
1F
100
AcDbEntity
  8
0
  6
Continuous
 62
     7
370
    30
100
AcDbLine
 10
363.643129802
 20
265.5584482382
 30
0.0
 11
363.6333680222
 21
265.5553507341
 31
0.0
  0
LINE
  5
323
330
1F
100
AcDbEntity
  8
0
  6
Continuous
 62
     7
370
    30
100
AcDbLine
 10
367.1484144121
 20
264.9588308184
 30
0.0
 11
364.3608502698
 21
266.5680573444
 31
0.0
  0
LINE
  5
324
330
1F
100
AcDbEntity
  8
0
  6
Continuous
 62
     7
370
    30
100
AcDbLine
 10
364.3591719149
 20
266.7747115288
 30
0.0
 11
364.3608502698
 21
266.5680573444
 31
0.0
  0
LINE
  5
325
330
1F
100
AcDbEntity
  8
0
  6
Continuous
 62
     7
370
    30
100
AcDbLine
 10
364.3681443737
 20
266.7747766062
 30
0.0
 11
364.3591719149
 21
266.7747115288
 31
0.0
  0
LINE
  5
326
330
1F
100
AcDbEntity
  8
0
  6
Continuous
 62
     7
370
    30
100
AcDbLine
 10
367.1484144121
 20
265.1697608768
 30
0.0
 11
364.3681443737
 21
266.7747766062
 31
0.0
  0
LINE
  5
327
330
1F
100
AcDbEntity
  8
0
  6
Continuous
 62
     7
370
    30
100
AcDbLine
 10
367.1484144121
 20
262.7254249752
 30
0.0
 11
363.3469225508
 21
264.9199795143
 31
0.0
  0
LINE
  5
328
330
1F
100
AcDbEntity
  8
0
  6
Continuous
 62
     7
370
    30
100
AcDbLine
 10
363.3418739009
 20
264.9270410661
 30
0.0
 11
363.3469225508
 21
264.9199795143
 31
0.0
  0
LINE
  5
329
330
1F
100
AcDbEntity
  8
0
  6
Continuous
 62
     7
370
    30
100
AcDbLine
 10
363.497433194
 20
264.9998735812
 30
0.0
 11
363.3418739009
 21
264.9270410661
 31
0.0
  0
LINE
  5
32A
330
1F
100
AcDbEntity
  8
0
  6
Continuous
 62
     7
370
    30
100
AcDbLine
 10
363.497433194
 20
264.9998735812
 30
0.0
 11
367.1484144121
 21
262.8922069869
 31
0.0
  0
LINE
  5
32B
330
1F
100
AcDbEntity
  8
0
  6
Continuous
 62
     7
370
    30
100
AcDbLine
 10
364.3664198071
 20
266.785162818
 30
0.0
 11
364.3681443737
 21
266.7747766062
 31
0.0
  0
LINE
  5
32C
330
1F
100
AcDbEntity
  8
0
  6
Continuous
 62
     7
370
    30
100
AcDbLine
 10
364.6523404629
 20
266.9883793082
 30
0.0
 11
364.3664198071
 21
266.785162818
 31
0.0
  0
LINE
  5
32D
330
1F
100
AcDbEntity
  8
0
  6
Continuous
 62
     7
370
    30
100
AcDbLine
 10
364.6523404629
 20
266.9883793082
 30
0.0
 11
367.1484144121
 21
265.5474264889
 31
0.0
  0
LINE
  5
32E
330
1F
100
AcDbEntity
  8
0
  6
Continuous
 62
     7
370
    30
100
AcDbLine
 10
367.0486560012
 20
262.3685790828
 30
0.0
 11
363.3001859594
 21
264.5325247771
 31
0.0
  0
LINE
  5
32F
330
1F
100
AcDbEntity
  8
0
  6
Continuous
 62
     7
370
    30
100
AcDbLine
 10
363.3369693561
 20
264.9154204564
 30
0.0
 11
363.3001859594
 21
264.5325247771
 31
0.0
  0
LINE
  5
330
330
1F
100
AcDbEntity
  8
0
  6
Continuous
 62
     7
370
    30
100
AcDbLine
 10
363.3469225508
 20
264.9199795143
 30
0.0
 11
363.3369693561
 21
264.9154204564
 31
0.0
  0
LINE
  5
331
330
1F
100
AcDbEntity
  8
0
  6
Continuous
 62
     7
370
    30
100
AcDbLine
 10
367.1484144121
 20
265.836374123
 30
0.0
 11
364.8030804872
 21
267.1903065785
 31
0.0
  0
LINE
  5
332
330
1F
100
AcDbEntity
  8
0
  6
Continuous
 62
     7
370
    30
100
AcDbLine
 10
364.7783884458
 20
267.3370248932
 30
0.0
 11
364.8030804872
 21
267.1903065785
 31
0.0
  0
LINE
  5
333
330
1F
100
AcDbEntity
  8
0
  6
Continuous
 62
     7
370
    30
100
AcDbLine
 10
364.7867740788
 20
267.3355616664
 30
0.0
 11
364.7783884458
 21
267.3370248932
 31
0.0
  0
LINE
  5
334
330
1F
100
AcDbEntity
  8
0
  6
Continuous
 62
     7
370
    30
100
AcDbLine
 10
367.1484144121
 20
265.9722157216
 30
0.0
 11
364.7867740788
 21
267.3355616664
 31
0.0
  0
ARC
  5
335
330
1F
100
AcDbEntity
  8
0
  6
Continuous
 62
     7
370
    30
100
AcDbCircle
 10
373.7459912743
 20
260.3773436989
 30
0.0
 40
11.24303162621479
100
AcDbArc
 50
150.5129010512
 51
151.814134418
  0
ARC
  5
336
330
1F
100
AcDbEntity
  8
0
  6
Continuous
 62
     7
370
    30
100
AcDbCircle
 10
373.6916618638
 20
260.4117750975
 30
0.0
 40
11.17872336654528
100
AcDbArc
 50
146.5839727367
 51
147.8901919459
  0
LINE
  5
337
330
1F
100
AcDbEntity
  8
0
  6
Continuous
 62
     7
370
    30
100
AcDbLine
 10
366.7242738888
 20
262.1813172753
 30
0.0
 11
363.100673769
 21
264.2731770979
 31
0.0
  0
LINE
  5
338
330
1F
100
AcDbEntity
  8
0
  6
Continuous
 62
     7
370
    30
100
AcDbLine
 10
363.0946387853
 20
264.2789096982
 30
0.0
 11
363.100673769
 21
264.2731770979
 31
0.0
  0
LINE
  5
339
330
1F
100
AcDbEntity
  8
0
  6
Continuous
 62
     7
370
    30
100
AcDbLine
 10
363.2115167921
 20
264.29962441
 30
0.0
 11
363.0946387853
 21
264.2789096982
 31
0.0
  0
LINE
  5
33A
330
1F
100
AcDbEntity
  8
0
  6
Continuous
 62
     7
370
    30
100
AcDbLine
 10
363.2115167921
 20
264.29962441
 30
0.0
 11
366.8026019264
 21
262.2265350889
 31
0.0
  0
LINE
  5
33B
330
1F
100
AcDbEntity
  8
0
  6
Continuous
 62
     7
370
    30
100
AcDbLine
 10
364.786227362
 20
267.3467834856
 30
0.0
 11
364.7867740788
 21
267.3355616664
 31
0.0
  0
LINE
  5
33C
330
1F
100
AcDbEntity
  8
0
  6
Continuous
 62
     7
370
    30
100
AcDbLine
 10
365.1183400308
 20
267.5827701943
 30
0.0
 11
364.786227362
 21
267.3467834856
 31
0.0
  0
LINE
  5
33D
330
1F
100
AcDbEntity
  8
0
  6
Continuous
 62
     7
370
    30
100
AcDbLine
 10
365.1183400308
 20
267.5827701943
 30
0.0
 11
367.1484144121
 21
266.4108331993
 31
0.0
  0
ARC
  5
33E
330
1F
100
AcDbEntity
  8
0
  6
Continuous
 62
     7
370
    30
100
AcDbCircle
 10
373.5233850378
 20
260.4881861339
 30
0.0
 40
10.99431825970036
100
AcDbArc
 50
154.4514262048
 51
155.772211352
  0
LINE
  5
33F
330
1F
100
AcDbEntity
  8
0
  6
Continuous
 62
     7
370
    30
100
AcDbLine
 10
366.3156031833
 20
261.9453966987
 30
0.0
 11
363.0518581941
 21
263.8295165764
 31
0.0
  0
LINE
  5
340
330
1F
100
AcDbEntity
  8
0
  6
Continuous
 62
     7
370
    30
100
AcDbLine
 10
363.0906688805
 20
264.2672204854
 30
0.0
 11
363.0518581941
 21
263.8295165764
 31
0.0
  0
LINE
  5
341
330
1F
100
AcDbEntity
  8
0
  6
Continuous
 62
     7
370
    30
100
AcDbLine
 10
363.100673769
 20
264.2731770979
 30
0.0
 11
363.0906688805
 21
264.2672204854
 31
0.0
  0
LINE
  5
342
330
1F
100
AcDbEntity
  8
0
  6
Continuous
 62
     7
370
    30
100
AcDbLine
 10
367.1484144121
 20
266.6907532387
 30
0.0
 11
365.2797910232
 21
267.7694865597
 31
0.0
  0
LINE
  5
343
330
1F
100
AcDbEntity
  8
0
  6
Continuous
 62
     7
370
    30
100
AcDbLine
 10
365.2274688028
 20
267.8570745461
 30
0.0
 11
365.2797910232
 21
267.7694865597
 31
0.0
  0
LINE
  5
344
330
1F
100
AcDbEntity
  8
0
  6
Continuous
 62
     7
370
    30
100
AcDbLine
 10
365.2351498941
 20
267.8541035555
 30
0.0
 11
365.2274688028
 21
267.8570745461
 31
0.0
  0
LINE
  5
345
330
1F
100
AcDbEntity
  8
0
  6
Continuous
 62
     7
370
    30
100
AcDbLine
 10
367.1484144121
 20
266.7495994593
 30
0.0
 11
365.2351498941
 21
267.8541035555
 31
0.0
  0
ARC
  5
346
330
1F
100
AcDbEntity
  8
0
  6
Continuous
 62
     7
370
    30
100
AcDbCircle
 10
373.3870268445
 20
260.6251067922
 30
0.0
 40
10.80675637274442
100
AcDbArc
 50
142.5904085853
 51
143.9264327736
  0
ARC
  5
347
330
1F
100
AcDbEntity
  8
0
  6
Continuous
 62
     7
370
    30
100
AcDbCircle
 10
373.0243651887
 20
260.6970337163
 30
0.0
 40
10.45326041780964
100
AcDbArc
 50
158.4743227875
 51
159.8403008962
  0
LINE
  5
348
330
1F
100
AcDbEntity
  8
0
  6
Continuous
 62
     7
370
    30
100
AcDbLine
 10
366.0682952266
 20
261.8026288542
 30
0.0
 11
362.9078402498
 21
263.627120677
 31
0.0
  0
LINE
  5
349
330
1F
100
AcDbEntity
  8
0
  6
Continuous
 62
     7
370
    30
100
AcDbLine
 10
362.9009036501
 20
263.6314438527
 30
0.0
 11
362.9078402498
 21
263.627120677
 31
0.0
  0
LINE
  5
34A
330
1F
100
AcDbEntity
  8
0
  6
Continuous
 62
     7
370
    30
100
AcDbLine
 10
362.9824227741
 20
263.596884827
 30
0.0
 11
362.9009036501
 21
263.6314438527
 31
0.0
  0
LINE
  5
34B
330
1F
100
AcDbEntity
  8
0
  6
Continuous
 62
     7
370
    30
100
AcDbLine
 10
362.9824227741
 20
263.596884827
 30
0.0
 11
366.0793986371
 21
261.8090387167
 31
0.0
  0
LINE
  5
34C
330
1F
100
AcDbEntity
  8
0
  6
Continuous
 62
     7
370
    30
100
AcDbLine
 10
365.2357887018
 20
267.8660034526
 30
0.0
 11
365.2351498941
 21
267.8541035555
 31
0.0
  0
LINE
  5
34D
330
1F
100
AcDbEntity
  8
0
  6
Continuous
 62
     7
370
    30
100
AcDbLine
 10
365.6143943643
 20
268.1285824984
 30
0.0
 11
365.2357887018
 21
267.8660034526
 31
0.0
  0
LINE
  5
34E
330
1F
100
AcDbEntity
  8
0
  6
Continuous
 62
     7
370
    30
100
AcDbLine
 10
365.6143943643
 20
268.1285824984
 30
0.0
 11
367.1484144121
 21
267.2430115747
 31
0.0
  0
ARC
  5
34F
330
1F
100
AcDbEntity
  8
0
  6
Continuous
 62
     7
370
    30
100
AcDbCircle
 10
372.8822569261
 20
261.0325817711
 30
0.0
 40
10.15792173306601
100
AcDbArc
 50
138.4543285181
 51
139.8466579145
  0
LINE
  5
350
330
1F
100
AcDbEntity
  8
0
  6
Continuous
 62
     7
370
    30
100
AcDbLine
 10
365.6156409586
 20
261.5413171074
 30
0.0
 11
362.8625940696
 21
263.1306172472
 31
0.0
  0
LINE
  5
351
330
1F
100
AcDbEntity
  8
0
  6
Continuous
 62
     7
370
    30
100
AcDbLine
 10
362.8979241141
 20
263.6198501276
 30
0.0
 11
362.8625940696
 21
263.1306172472
 31
0.0
  0
LINE
  5
352
330
1F
100
AcDbEntity
  8
0
  6
Continuous
 62
     7
370
    30
100
AcDbLine
 10
362.9078402498
 20
263.627120677
 30
0.0
 11
362.8979241141
 21
263.6198501276
 31
0.0
  0
ARC
  5
353
330
1F
100
AcDbEntity
  8
0
  6
Continuous
 62
     7
370
    30
100
AcDbCircle
 10
372.2769242832
 20
260.9493605169
 30
0.0
 40
9.664219744814874
100
AcDbArc
 50
162.6611244412
 51
164.1004794765
  0
ARC
  5
354
330
1F
100
AcDbEntity
  8
0
  6
Continuous
 62
     7
370
    30
100
AcDbCircle
 10
372.2446150343
 20
261.6285629311
 30
0.0
 40
9.284938368520804
100
AcDbArc
 50
134.0898414284
 51
135.5681334868
  0
LINE
  5
355
330
1F
100
AcDbEntity
  8
0
  6
Continuous
 62
     7
370
    30
100
AcDbLine
 10
367.1484144121
 20
267.5099745557
 30
0.0
 11
365.7842899066
 21
268.2974668704
 31
0.0
  0
LINE
  5
356
330
1F
100
AcDbEntity
  8
0
  6
Continuous
 62
     7
370
    30
100
AcDbLine
 10
365.7087929706
 20
268.3355340086
 30
0.0
 11
365.7069776059
 21
268.3231230822
 31
0.0
  0
LINE
  5
357
330
1F
100
AcDbEntity
  8
0
  6
Continuous
 62
     7
370
    30
100
AcDbLine
 10
366.133539948
 20
268.6181542123
 30
0.0
 11
365.7087929706
 21
268.3355340086
 31
0.0
  0
LINE
  5
358
330
1F
100
AcDbEntity
  8
0
  6
Continuous
 62
     7
370
    30
100
AcDbLine
 10
366.133539948
 20
268.6181542123
 30
0.0
 11
367.1484144121
 21
268.0322796548
 31
0.0
  0
LINE
  5
359
330
1F
100
AcDbEntity
  8
0
  6
Continuous
 62
     7
370
    30
100
AcDbLine
 10
364.9585952623
 20
261.1620127007
 30
0.0
 11
362.7350504393
 21
262.4456378044
 31
0.0
  0
LINE
  5
35A
330
1F
100
AcDbEntity
  8
0
  6
Continuous
 62
     7
370
    30
100
AcDbLine
 10
362.7614407709
 20
262.9823970439
 30
0.0
 11
362.7350504393
 21
262.4456378044
 31
0.0
  0
LINE
  5
35B
330
1F
100
AcDbEntity
  8
0
  6
Continuous
 62
     7
370
    30
100
AcDbLine
 10
362.7669279925
 20
262.9872013445
 30
0.0
 11
362.7614407709
 21
262.9823970439
 31
0.0
  0
ARC
  5
35C
330
1F
100
AcDbEntity
  8
0
  6
Continuous
 62
     7
370
    30
100
AcDbCircle
 10
371.3335056466
 20
261.190606349
 30
0.0
 40
8.690223543177083
100
AcDbArc
 50
167.1005581244
 51
168.6455508012
  0
LINE
  5
35D
330
1F
100
AcDbEntity
  8
0
  6
Continuous
 62
     7
370
    30
100
AcDbLine
 10
362.813367118
 20
262.9015197555
 30
0.0
 11
365.3926017352
 21
261.4125593045
 31
0.0
  0
ARC
  5
35E
330
1F
100
AcDbEntity
  8
0
  6
Continuous
 62
     7
370
    30
100
AcDbCircle
 10
371.5499802891
 20
262.3866018259
 30
0.0
 40
8.25651688752204
100
AcDbArc
 50
129.3984015837
 51
130.9970382966
  0
LINE
  5
35F
330
1F
100
AcDbEntity
  8
0
  6
Continuous
 62
     7
370
    30
100
AcDbLine
 10
367.1498164138
 20
268.2817286439
 30
0.0
 11
366.3094950792
 21
268.7668358246
 31
0.0
  0
LINE
  5
360
330
1F
100
AcDbEntity
  8
0
  6
Continuous
 62
     7
370
    30
100
AcDbLine
 10
366.1986002255
 20
268.7487839739
 30
0.0
 11
366.1973658098
 21
268.7434792946
 31
0.0
  0
LINE
  5
361
330
1F
100
AcDbEntity
  8
0
  6
Continuous
 62
     7
370
    30
100
AcDbLine
 10
366.6684891157
 20
269.0446128223
 30
0.0
 11
366.1986002255
 21
268.7487839739
 31
0.0
  0
LINE
  5
362
330
1F
100
AcDbEntity
  8
0
  6
Continuous
 62
     7
370
    30
100
AcDbLine
 10
366.6684891157
 20
269.0446128223
 30
0.0
 11
367.2408647853
 21
268.7141873815
 31
0.0
  0
LINE
  5
363
330
1F
100
AcDbEntity
  8
0
  6
Continuous
 62
     7
370
    30
100
AcDbLine
 10
364.353689576
 20
260.812808081
 30
0.0
 11
362.6710177362
 21
261.7841938576
 31
0.0
  0
LINE
  5
364
330
1F
100
AcDbEntity
  8
0
  6
Continuous
 62
     7
370
    30
100
AcDbLine
 10
362.6831347779
 20
262.3638096783
 30
0.0
 11
362.6710177362
 21
261.7841938576
 31
0.0
  0
ARC
  5
365
330
1F
100
AcDbEntity
  8
0
  6
Continuous
 62
     7
370
    30
100
AcDbCircle
 10
370.2650165808
 20
261.3733281305
 30
0.0
 40
7.605934402100301
100
AcDbArc
 50
171.8952508744
 51
173.583800083
  0
LINE
  5
366
330
1F
100
AcDbEntity
  8
0
  6
Continuous
 62
     7
370
    30
100
AcDbLine
 10
362.7067229946
 20
262.2232905969
 30
0.0
 11
364.7518523435
 21
261.0426625541
 31
0.0
  0
ARC
  5
367
330
1F
100
AcDbEntity
  8
0
  6
Continuous
 62
     7
370
    30
100
AcDbCircle
 10
370.8734060716
 20
263.2620731211
 30
0.0
 40
7.149761674458601
100
AcDbArc
 50
124.2640699331
 51
126.0237021731
  0
LINE
  5
368
330
1F
100
AcDbEntity
  8
0
  6
Continuous
 62
     7
370
    30
100
AcDbLine
 10
367.3235903165
 20
268.8964715842
 30
0.0
 11
366.8480338115
 21
269.1710045109
 31
0.0
  0
LINE
  5
369
330
1F
100
AcDbEntity
  8
0
  6
Continuous
 62
     7
370
    30
100
AcDbLine
 10
367.2117323537
 20
269.4019717842
 30
0.0
 11
366.6983346461
 21
269.0999522249
 31
0.0
  0
LINE
  5
36A
330
1F
100
AcDbEntity
  8
0
  6
Continuous
 62
     7
370
    30
100
AcDbLine
 10
367.2117323537
 20
269.4019717842
 30
0.0
 11
367.5374403172
 21
269.2139445792
 31
0.0
  0
ARC
  5
36B
330
1F
100
AcDbEntity
  8
0
  6
Continuous
 62
     7
370
    30
100
AcDbCircle
 10
369.1526157493
 20
261.4633800234
 30
0.0
 40
6.489532673447225
100
AcDbArc
 50
177.1663947449
 51
179.0434428707
  0
LINE
  5
36C
330
1F
100
AcDbEntity
  8
0
  6
Continuous
 62
     7
370
    30
100
AcDbLine
 10
362.6639874536
 20
261.5717182017
 30
0.0
 11
364.1661451791
 21
260.7045410052
 31
0.0
  0
LINE
  5
36D
330
1F
100
AcDbEntity
  8
0
  6
Continuous
 62
     7
370
    30
100
AcDbLine
 10
363.8094154493
 20
260.4986053157
 30
0.0
 11
362.6713948391
 21
261.1555706301
 31
0.0
  0
LINE
  5
36E
330
1F
100
AcDbEntity
  8
0
  6
Continuous
 62
     7
370
    30
100
AcDbLine
 10
362.6664970339
 20
261.5702694519
 30
0.0
 11
362.6713948391
 21
261.1555706301
 31
0.0
  0
ARC
  5
36F
330
1F
100
AcDbEntity
  8
0
  6
Continuous
 62
     7
370
    30
100
AcDbCircle
 10
370.2798931648
 20
264.1970545154
 30
0.0
 40
6.041918117437408
100
AcDbArc
 50
118.5495712047
 51
120.5182229393
  0
LINE
  5
370
330
1F
100
AcDbEntity
  8
0
  6
Continuous
 62
     7
370
    30
100
AcDbLine
 10
367.6595477353
 20
269.3500471241
 30
0.0
 11
367.3923462002
 21
269.504299287
 31
0.0
  0
LINE
  5
371
330
1F
100
AcDbEntity
  8
0
  6
Continuous
 62
     7
370
    30
100
AcDbLine
 10
367.755643718
 20
269.6852145617
 30
0.0
 11
367.4069025021
 21
269.4958961128
 31
0.0
  0
LINE
  5
372
330
1F
100
AcDbEntity
  8
0
  6
Continuous
 62
     7
370
    30
100
AcDbLine
 10
367.755643718
 20
269.6852145617
 30
0.0
 11
367.9246836928
 21
269.5876298614
 31
0.0
  0
ARC
  5
373
330
1F
100
AcDbEntity
  8
0
  6
Continuous
 62
     7
370
    30
100
AcDbCircle
 10
368.0782933212
 20
261.4443454457
 30
0.0
 40
5.414604518373585
100
AcDbArc
 50
183.057182066
 51
185.1751013558
  0
LINE
  5
374
330
1F
100
AcDbEntity
  8
0
  6
Continuous
 62
     7
370
    30
100
AcDbLine
 10
362.6857604084
 20
260.9559492183
 30
0.0
 11
363.6437022866
 21
260.4029411431
 31
0.0
  0
LINE
  5
375
330
1F
100
AcDbEntity
  8
0
  6
Continuous
 62
     7
370
    30
100
AcDbLine
 10
363.333413298
 20
260.2238151228
 30
0.0
 11
362.7361764542
 21
260.568592614
 31
0.0
  0
LINE
  5
376
330
1F
100
AcDbEntity
  8
0
  6
Continuous
 62
     7
370
    30
100
AcDbLine
 10
362.7182534849
 20
260.9371913645
 30
0.0
 11
362.7361764542
 21
260.568592614
 31
0.0
  0
ARC
  5
377
330
1F
100
AcDbEntity
  8
0
  6
Continuous
 62
     7
370
    30
100
AcDbCircle
 10
369.8165304743
 20
265.1268512468
 30
0.0
 40
5.002592361362425
100
AcDbArc
 50
112.0955815602
 51
114.3282549364
  0
LINE
  5
378
330
1F
100
AcDbEntity
  8
0
  6
Continuous
 62
     7
370
    30
100
AcDbLine
 10
368.0613348525
 20
269.6889893825
 30
0.0
 11
367.9347912926
 21
269.7620414247
 31
0.0
  0
LINE
  5
379
330
1F
100
AcDbEntity
  8
0
  6
Continuous
 62
     7
370
    30
100
AcDbLine
 10
368.292587885
 20
269.890365047
 30
0.0
 11
367.9800485899
 21
269.7359149431
 31
0.0
  0
LINE
  5
37A
330
1F
100
AcDbEntity
  8
0
  6
Continuous
 62
     7
370
    30
100
AcDbLine
 10
368.292587885
 20
269.890365047
 30
0.0
 11
368.3383524194
 21
269.8639457437
 31
0.0
  0
ARC
  5
37B
330
1F
100
AcDbEntity
  8
0
  6
Continuous
 62
     7
370
    30
100
AcDbCircle
 10
367.1154125393
 20
261.319664014
 30
0.0
 40
4.443176446674723
100
AcDbArc
 50
189.731966161
 51
192.1483268279
  0
LINE
  5
37C
330
1F
100
AcDbEntity
  8
0
  6
Continuous
 62
     7
370
    30
100
AcDbLine
 10
362.7717362144
 20
260.3846276933
 30
0.0
 11
363.191857619
 21
260.1420967688
 31
0.0
  0
LINE
  5
37D
330
1F
100
AcDbEntity
  8
0
  6
Continuous
 62
     7
370
    30
100
AcDbLine
 10
362.9323651489
 20
259.9922949544
 30
0.0
 11
362.8644531898
 21
260.0314996939
 31
0.0
  0
LINE
  5
37E
330
1F
100
AcDbEntity
  8
0
  6
Continuous
 62
     7
370
    30
100
AcDbLine
 10
362.8361906455
 20
260.3474189422
 30
0.0
 11
362.8644531898
 21
260.0314996939
 31
0.0
  0
ARC
  5
37F
330
1F
100
AcDbEntity
  8
0
  6
Continuous
 62
     7
370
    30
100
AcDbCircle
 10
369.506983113
 20
265.9873587631
 30
0.0
 40
4.087568203990486
100
AcDbArc
 50
104.7286348745
 51
107.28319291
  0
LINE
  5
380
330
1F
100
AcDbEntity
  8
0
  6
Continuous
 62
     7
370
    30
100
AcDbLine
 10
368.4733459353
 20
269.9373848352
 30
0.0
 11
368.4677543485
 21
269.9406127895
 31
0.0
  0
ARC
  5
381
330
1F
100
AcDbEntity
  8
0
  6
Continuous
 62
     7
370
    30
100
AcDbCircle
 10
366.3873506475
 20
261.1339675798
 30
0.0
 40
3.691373990347847
100
AcDbArc
 50
197.3771720306
 51
198.455072901
  0
ARC
  5
382
330
1F
100
AcDbEntity
  8
0
  6
Continuous
 62
     7
370
    30
100
AcDbCircle
 10
372.888260956
 20
260.8726177126
 30
0.0
 40
10.37212848208348
100
AcDbArc
 50
149.2357756745
 51
153.0912597947
  0
ARC
  5
383
330
1F
100
AcDbEntity
  8
0
  6
Continuous
 62
     7
370
    30
100
AcDbCircle
 10
372.837985937
 20
260.9041298552
 30
0.0
 40
10.31280836676336
100
AcDbArc
 50
145.3019526676
 51
149.172212015
  0
ARC
  5
384
330
1F
100
AcDbEntity
  8
0
  6
Continuous
 62
     7
370
    30
100
AcDbCircle
 10
372.6830190278
 20
260.9751395017
 30
0.0
 40
10.14270763930454
100
AcDbArc
 50
153.1551065455
 51
157.0685310112
  0
ARC
  5
385
330
1F
100
AcDbEntity
  8
0
  6
Continuous
 62
     7
370
    30
100
AcDbCircle
 10
372.5567713241
 20
261.1007116636
 30
0.0
 40
9.969696228964025
100
AcDbArc
 50
141.2791286359
 51
145.237712723
  0
ARC
  5
386
330
1F
100
AcDbEntity
  8
0
  6
Continuous
 62
     7
370
    30
100
AcDbCircle
 10
372.2227392512
 20
261.1680702573
 30
0.0
 40
9.64362691847698
100
AcDbArc
 50
157.1336371379
 51
161.1809865458
  0
ARC
  5
387
330
1F
100
AcDbEntity
  8
0
  6
Continuous
 62
     7
370
    30
100
AcDbCircle
 10
372.0909181249
 20
261.4764341477
 30
0.0
 40
9.371206351907626
100
AcDbArc
 50
137.0877742324
 51
141.2132122002
  0
LINE
  5
388
330
1F
100
AcDbEntity
  8
0
  6
Continuous
 62
     7
370
    30
100
AcDbLine
 10
375.1484144121
 20
267.0465982278
 30
0.0
 11
375.1502576382
 21
267.045534156
 31
0.0
  0
ARC
  5
389
330
1F
100
AcDbEntity
  8
0
  6
Continuous
 62
     7
370
    30
100
AcDbCircle
 10
371.5332510943
 20
261.4010881838
 30
0.0
 40
8.91582350699637
100
AcDbArc
 50
161.2484067982
 51
165.5131971195
  0
ARC
  5
38A
330
1F
100
AcDbEntity
  8
0
  6
Continuous
 62
     7
370
    30
100
AcDbCircle
 10
371.50250006
 20
262.0260995391
 30
0.0
 40
8.56598791530131
100
AcDbArc
 50
132.638901767
 51
137.0190731482
  0
LINE
  5
38B
330
1F
100
AcDbEntity
  8
0
  6
Continuous
 62
     7
370
    30
100
AcDbLine
 10
365.7001088821
 20
268.3275601304
 30
0.0
 11
365.7842899066
 21
268.2974668704
 31
0.0
  0
ARC
  5
38C
330
1F
100
AcDbEntity
  8
0
  6
Continuous
 62
     7
370
    30
100
AcDbCircle
 10
370.6629476739
 20
261.6238403966
 30
0.0
 40
8.017458807566797
100
AcDbArc
 50
165.5841451776
 51
170.161963748
  0
LINE
  5
38D
330
1F
100
AcDbEntity
  8
0
  6
Continuous
 62
     7
370
    30
100
AcDbLine
 10
362.813367118
 20
262.9015197555
 30
0.0
 11
362.763388112
 21
262.9937325308
 31
0.0
  0
ARC
  5
38E
330
1F
100
AcDbEntity
  8
0
  6
Continuous
 62
     7
370
    30
100
AcDbCircle
 10
370.8615414908
 20
262.7253046754
 30
0.0
 40
7.617446454200048
100
AcDbArc
 50
127.8293342783
 51
132.566105602
  0
LINE
  5
38F
330
1F
100
AcDbEntity
  8
0
  6
Continuous
 62
     7
370
    30
100
AcDbLine
 10
366.1896738528
 20
268.7418770598
 30
0.0
 11
366.3094950792
 21
268.7668358246
 31
0.0
  0
LINE
  5
390
330
1F
100
AcDbEntity
  8
0
  6
Continuous
 62
     7
370
    30
100
AcDbLine
 10
375.1667788611
 20
267.055071655
 30
0.0
 11
375.1484144121
 21
267.0656732258
 31
0.0
  0
LINE
  5
391
330
1F
100
AcDbEntity
  8
0
  6
Continuous
 62
     7
370
    30
100
AcDbLine
 10
375.1484144121
 20
267.068909677
 30
0.0
 11
375.1695820138
 21
267.0566898806
 31
0.0
  0
ARC
  5
392
330
1F
100
AcDbEntity
  8
0
  6
Continuous
 62
     7
370
    30
100
AcDbCircle
 10
369.6772609256
 20
261.7925425596
 30
0.0
 40
7.017429878971729
100
AcDbArc
 50
170.2379358455
 51
175.2411151119
  0
LINE
  5
393
330
1F
100
AcDbEntity
  8
0
  6
Continuous
 62
     7
370
    30
100
AcDbLine
 10
362.7067229946
 20
262.2232905969
 30
0.0
 11
362.6840225877
 21
262.3747278015
 31
0.0
  0
ARC
  5
394
330
1F
100
AcDbEntity
  8
0
  6
Continuous
 62
     7
370
    30
100
AcDbCircle
 10
370.2373039738
 20
263.5328721309
 30
0.0
 40
6.596731336060325
100
AcDbArc
 50
122.5369940278
 51
127.7507780784
  0
LINE
  5
395
330
1F
100
AcDbEntity
  8
0
  6
Continuous
 62
     7
370
    30
100
AcDbLine
 10
366.6892912961
 20
269.0942092327
 30
0.0
 11
366.8480338115
 21
269.1710045109
 31
0.0
  0
ARC
  5
396
330
1F
100
AcDbEntity
  8
0
  6
Continuous
 62
     7
370
    30
100
AcDbCircle
 10
368.7491267242
 20
261.8707569186
 30
0.0
 40
6.085996986255403
100
AcDbArc
 50
175.3531301432
 51
179.9403343457
  0
LINE
  5
397
330
1F
100
AcDbEntity
  8
0
  6
Continuous
 62
     7
370
    30
100
AcDbLine
 10
362.6639874536
 20
261.5717182017
 30
0.0
 11
362.6639529936
 21
261.6816647578
 31
0.0
  0
ARC
  5
398
330
1F
100
AcDbEntity
  8
0
  6
Continuous
 62
     7
370
    30
100
AcDbCircle
 10
369.8323128058
 20
264.1584990165
 30
0.0
 40
5.851476644094152
100
AcDbArc
 50
120.0168515249
 51
122.3837677755
  0
LWPOLYLINE
  5
399
330
1F
100
AcDbEntity
  8
0
  6
Continuous
 62
     7
370
    30
100
AcDbPolyline
 90
       32
 70
   128
 43
0.0
 10
367.1487965819
 20
268.2525153798
 10
367.2417992042
 20
268.7166462248
 10
367.4947391122
 20
269.1604687133
 10
367.8972609162
 20
269.5658127005
 10
368.4328853263
 20
269.916083356
 10
369.0796838163
 20
270.1969405579
 10
369.8111763799
 20
270.3968859794
 10
370.5974156257
 20
270.5077338314
 10
371.4062128266
 20
270.5249459899
 10
372.20445573
 20
270.4478177871
 10
372.9594641779
 20
270.2795068607
 10
373.6403280355
 20
270.0269038797
 10
374.2191726566
 20
269.7003504399
 10
374.6723000743
 20
269.3132156775
 10
374.9811591991
 20
268.8813489351
 10
375.1331053019
 20
268.4224308879
 10
375.1219176915
 20
267.9552496947
 10
374.94805439
 20
267.4989318085
 10
374.6186333813
 20
267.072158937
 10
374.1471412003
 20
266.6924032119
 10
373.5528807923
 20
266.375211877
 10
372.8601812481
 20
266.133570783
 10
372.0974017686
 20
265.9773727446
 10
371.2957706352
 20
265.9130125279
 10
370.4881067207
 20
265.9431250476
 10
369.7074758806
 20
266.0664774937
 10
368.9858372334
 20
266.2780198026
 10
368.3527347499
 20
266.5690914073
 10
367.8340877203
 20
266.927775802
 10
367.4511296149
 20
267.3393884056
 10
367.2195387834
 20
267.7870777496
 10
367.1487965819
 20
268.2525153798
  0
LWPOLYLINE
  5
39A
330
1F
100
AcDbEntity
  8
0
  6
Continuous
 62
     7
370
    30
100
AcDbPolyline
 90
       21
 70
   128
 43
0.0
 10
372.7982567671
 20
268.2074291872
 10
372.7245557868
 20
268.5023918195
 10
372.4965711071
 20
268.7697703089
 10
372.136619457
 20
268.9833917858
 10
371.6799354119
 20
269.1223454917
 10
371.1712223879
 20
269.1730296698
 10
370.6602767604
 20
269.1304829995
 10
370.1971134473
 20
268.9988702454
 10
369.8270701007
 20
268.7910745809
 10
369.5863691417
 20
268.5274364933
 10
369.4985720571
 20
268.2337627156
 10
369.5722730374
 20
267.9388000833
 10
369.8002577171
 20
267.6714215939
 10
370.1602093672
 20
267.457800117
 10
370.6168934123
 20
267.3188464111
 10
371.1256064363
 20
267.268162233
 10
371.6365520638
 20
267.3107089033
 10
372.0997153769
 20
267.4423216574
 10
372.4697587235
 20
267.650117322
 10
372.7104596825
 20
267.9137554095
 10
372.7982567671
 20
268.2074291872
  0
LWPOLYLINE
  5
39B
330
1F
100
AcDbEntity
  8
0
  6
Continuous
 62
     7
370
    30
100
AcDbPolyline
 90
       18
 70
   128
 43
0.0
 10
375.1484144121
 20
211.0627391194
 10
375.1219176915
 20
210.7973928627
 10
374.94805439
 20
210.3410749765
 10
374.6186333813
 20
209.914302105
 10
374.1471412003
 20
209.5345463799
 10
373.5528807923
 20
209.217355045
 10
372.8601812481
 20
208.975713951
 10
372.0974017686
 20
208.8195159126
 10
371.2957706352
 20
208.7551556959
 10
370.4881067207
 20
208.7852682156
 10
369.7074758806
 20
208.9086206617
 10
368.9858372334
 20
209.1201629706
 10
368.3527347499
 20
209.4112345753
 10
367.8340877203
 20
209.76991897
 10
367.4511296149
 20
210.1815315736
 10
367.2195387834
 20
210.6292209176
 10
367.1487965819
 20
211.0946585478
 10
367.1487965819
 20
211.0946585478
  0
LINE
  5
39C
330
1F
100
AcDbEntity
  8
0
  6
Continuous
 62
     7
370
    30
100
AcDbLine
 10
357.359832179
 20
243.7122795562
 30
0.0
 11
348.8745508047
 21
248.6107282272
 31
0.0
  0
LINE
  5
39D
330
1F
100
AcDbEntity
  8
0
  6
Continuous
 62
     7
370
    30
100
AcDbLine
 10
357.359832179
 20
243.7122795562
 30
0.0
 11
352.4100847107
 21
240.8548511649
 31
0.0
  0
ARC
  5
39E
330
1F
100
AcDbEntity
  8
0
  6
Continuous
 62
     7
370
    30
100
AcDbCircle
 10
348.8745508047
 20
247.6784065896
 30
0.0
 40
7.685109539558402
100
AcDbArc
 50
242.6096722366
 51
297.3903277634
  0
LINE
  5
39F
330
1F
100
AcDbEntity
  8
0
  6
Continuous
 62
     7
370
    30
100
AcDbLine
 10
345.3390168988
 20
240.8548511649
 30
0.0
 11
343.9248033364
 21
241.6712592767
 31
0.0
  0
ARC
  5
3A0
330
1F
100
AcDbEntity
  8
0
  6
Continuous
 62
     7
370
    30
100
AcDbCircle
 10
344.6994384704
 20
243.7122795562
 30
0.0
 40
2.183076584171407
100
AcDbArc
 50
110.7834207995
 51
249.2165792005
  0
LINE
  5
3A1
330
1F
100
AcDbEntity
  8
0
  6
Continuous
 62
     7
370
    30
100
AcDbLine
 10
348.8745508047
 20
248.6107282272
 30
0.0
 11
343.9248033364
 21
245.7532998358
 31
0.0
  0
LWPOLYLINE
  5
3A2
330
1F
100
AcDbEntity
  8
0
  6
Continuous
 62
     7
370
    30
100
AcDbPolyline
 90
       21
 70
   128
 43
0.0
 10
350.0412769937
 20
243.038742864
 10
350.3447115696
 20
243.2798423804
 10
350.5042365667
 20
243.5632718605
 10
350.5042365667
 20
243.861287252
 10
350.3447115696
 20
244.1447167321
 10
350.0412769937
 20
244.3858162485
 10
349.6236351293
 20
244.5609853006
 10
349.132667672
 20
244.6530771212
 10
348.6164339374
 20
244.6530771212
 10
348.1254664802
 20
244.5609853006
 10
347.7078246158
 20
244.3858162485
 10
347.4043900398
 20
244.1447167321
 10
347.2448650427
 20
243.861287252
 10
347.2448650427
 20
243.5632718605
 10
347.4043900398
 20
243.2798423804
 10
347.7078246158
 20
243.038742864
 10
348.1254664802
 20
242.8635738119
 10
348.6164339374
 20
242.7714819913
 10
349.132667672
 20
242.7714819913
 10
349.6236351293
 20
242.8635738119
 10
350.0412769937
 20
243.038742864
  0
LINE
  5
3A3
330
1F
100
AcDbEntity
  8
0
  6
Continuous
 62
     7
370
    30
100
AcDbLine
 10
352.4100847107
 20
240.8548511649
 30
0.0
 11
352.4100847107
 21
234.3225246698
 31
0.0
  0
ARC
  5
3A4
330
1F
100
AcDbEntity
  8
0
  6
Continuous
 62
     7
370
    30
100
AcDbCircle
 10
348.8745508047
 20
241.1460800946
 30
0.0
 40
7.685109539558605
100
AcDbArc
 50
242.6096722366
 51
297.3903277634
  0
LINE
  5
3A5
330
1F
100
AcDbEntity
  8
0
  6
Continuous
 62
     7
370
    30
100
AcDbLine
 10
345.3390168988
 20
234.3225246698
 30
0.0
 11
345.3390168988
 21
240.8548511649
 31
0.0
  0
LINE
  5
3A6
330
1F
100
AcDbEntity
  8
0
  6
Continuous
 62
     7
370
    30
100
AcDbLine
 10
365.1308718368
 20
251.4645685084
 30
0.0
 11
357.359832179
 21
243.7122795562
 31
0.0
  0
LINE
  5
3A7
330
1F
100
AcDbEntity
  8
0
  6
Continuous
 62
     7
370
    30
100
AcDbLine
 10
385.6441034264
 20
263.3066050402
 30
0.0
 11
365.1308718368
 21
251.4645685084
 31
0.0
  0
LINE
  5
3A8
330
1F
100
AcDbEntity
  8
0
  6
Continuous
 62
     7
370
    30
100
AcDbLine
 10
385.6441034264
 20
253.5081152976
 30
0.0
 11
385.6441034264
 21
263.3066050402
 31
0.0
  0
LINE
  5
3A9
330
1F
100
AcDbEntity
  8
0
  6
Continuous
 62
     7
370
    30
100
AcDbLine
 10
352.4100847107
 20
234.3225246698
 30
0.0
 11
385.6441034264
 21
253.5081152976
 31
0.0
  0
LWPOLYLINE
  5
3AA
330
1F
100
AcDbEntity
  8
0
  6
Continuous
 62
     7
370
    30
100
AcDbPolyline
 90
       21
 70
   128
 43
0.0
 10
380.2347365503
 20
255.2845991412
 10
380.2918401946
 20
255.7339006027
 10
380.4575614247
 20
256.2051517708
 10
380.715678292
 20
256.652223298
 10
381.0409245191
 20
257.0313527082
 10
381.4014627393
 20
257.3054281731
 10
381.7620009595
 20
257.4476212766
 10
382.0872471866
 20
257.4440131672
 10
382.345364054
 20
257.2949570316
 10
382.511085284
 20
257.0150435229
 10
382.5681889283
 20
256.6316725257
 10
382.511085284
 20
256.1823710643
 10
382.345364054
 20
255.7111198961
 10
382.0872471866
 20
255.2640483689
 10
381.7620009595
 20
254.8849189588
 10
381.4014627393
 20
254.6108434938
 10
381.0409245191
 20
254.4686503903
 10
380.715678292
 20
254.4722584997
 10
380.4575614247
 20
254.6213146353
 10
380.2918401946
 20
254.901228144
 10
380.2347365503
 20
255.2845991412
  0
LINE
  5
3AB
330
1F
100
AcDbEntity
  8
0
  6
Continuous
 62
     7
370
    30
100
AcDbLine
 10
345.3390168988
 20
234.3225246698
 30
0.0
 11
343.9248033364
 21
235.1389327816
 31
0.0
  0
LINE
  5
3AC
330
1F
100
AcDbEntity
  8
0
  6
Continuous
 62
     7
370
    30
100
AcDbLine
 10
343.9248033364
 20
241.6712592767
 30
0.0
 11
343.9248033364
 21
235.1389327816
 31
0.0
  0
ARC
  5
3AD
330
1F
100
AcDbEntity
  8
0
  6
Continuous
 62
     7
370
    30
100
AcDbCircle
 10
344.9626225548
 20
237.4294849457
 30
0.0
 40
2.514696392468957
100
AcDbArc
 50
185.6947992512
 51
245.6253417064
  0
LINE
  5
3AE
330
1F
100
AcDbEntity
  8
0
  6
Continuous
 62
     7
370
    30
100
AcDbLine
 10
365.1308718368
 20
251.4645685084
 30
0.0
 11
356.6455904625
 21
256.3630171793
 31
0.0
  0
LINE
  5
3AF
330
1F
100
AcDbEntity
  8
0
  6
Continuous
 62
     7
370
    30
100
AcDbLine
 10
356.6455904625
 20
256.3630171793
 30
0.0
 11
348.8745508047
 21
248.6107282272
 31
0.0
  0
LINE
  5
3B0
330
1F
100
AcDbEntity
  8
0
  6
Continuous
 62
     7
370
    30
100
AcDbLine
 10
381.0479093487
 20
265.9599314037
 30
0.0
 11
377.1588220522
 21
268.2050537112
 31
0.0
  0
LINE
  5
3B1
330
1F
100
AcDbEntity
  8
0
  6
Continuous
 62
     7
370
    30
100
AcDbLine
 10
381.0479093487
 20
265.9599314037
 30
0.0
 11
375.1484144121
 21
262.5542254692
 31
0.0
  0
LWPOLYLINE
  5
3B2
330
1F
100
AcDbEntity
  8
0
  6
Continuous
 62
     7
370
    30
100
AcDbPolyline
 90
       17
 70
   128
 43
0.0
 10
367.1484144121
 20
259.836870565
 10
367.214584911
 20
259.4185916724
 10
367.4385668139
 20
258.9734382571
 10
367.8120512694
 20
258.5630801618
 10
368.3199872874
 20
258.2040543413
 10
368.9419056358
 20
257.9108291197
 10
369.652743727
 20
257.6952211329
 10
370.4238556109
 20
257.5659191326
 10
371.2241663737
 20
257.5281338394
 10
372.0214244202
 20
257.5833879567
 10
372.7835011767
 20
257.7294548077
 10
373.4796858343
 20
257.9604480679
 10
374.0819229592
 20
258.2670589769
 10
374.5659430942
 20
258.636931471
 10
374.9122407898
 20
259.055160118
 10
375.1068606507
 20
259.5048907887
 10
375.1484144121
 20
259.836870565
  0
LINE
  5
3B3
330
1F
100
AcDbEntity
  8
0
  6
Continuous
 62
     7
370
    30
100
AcDbLine
 10
375.1484144121
 20
261.7378173574
 30
0.0
 11
381.7550161299
 21
265.5517273478
 31
0.0
  0
LINE
  5
3B4
330
1F
100
AcDbEntity
  8
0
  6
Continuous
 62
     7
370
    30
100
AcDbLine
 10
385.6441034264
 20
263.3066050402
 30
0.0
 11
381.7550161299
 21
265.5517273478
 31
0.0
  0
LINE
  5
3B5
330
1F
100
AcDbEntity
  8
0
  6
Continuous
 62
     7
370
    30
100
AcDbLine
 10
377.1588220522
 20
268.2050537112
 30
0.0
 11
375.1484144121
 21
267.0444700843
 31
0.0
  0
LINE
  5
3B6
330
1F
100
AcDbEntity
  8
0
  6
Continuous
 62
     7
370
    30
100
AcDbLine
 10
367.1484144121
 20
262.4261683876
 30
0.0
 11
356.6455904625
 21
256.3630171793
 31
0.0
  0
LINE
  5
3B7
330
1F
100
AcDbEntity
  8
0
  6
Continuous
 62
     7
370
    30
100
AcDbLine
 10
381.0479093487
 20
265.1435232918
 30
0.0
 11
381.0479093487
 21
265.9599314037
 31
0.0
  0
LINE
  5
3B8
330
1F
100
AcDbEntity
  8
0
  6
Continuous
 62
     7
370
    30
100
AcDbLine
 10
365.8451135532
 20
179.0239231445
 30
0.0
 11
349.9352109765
 21
178.4064146465
 31
0.0
  0
LINE
  5
3B9
330
1F
100
AcDbEntity
  8
0
  6
Continuous
 62
     7
370
    30
100
AcDbLine
 10
365.8451135532
 20
177.7925161619
 30
0.0
 11
365.8451135532
 21
179.0239231445
 31
0.0
  0
LINE
  5
3BA
330
1F
100
AcDbEntity
  8
0
  6
Continuous
 62
     7
370
    30
100
AcDbLine
 10
367.2593271156
 20
178.6089242737
 30
0.0
 11
365.8451135532
 21
177.7925161619
 31
0.0
  0
LINE
  5
3BB
330
1F
100
AcDbEntity
  8
0
  6
Continuous
 62
     7
370
    30
100
AcDbLine
 10
367.2593271156
 20
179.8403312563
 30
0.0
 11
367.2593271156
 21
178.6089242737
 31
0.0
  0
LINE
  5
3BC
330
1F
100
AcDbEntity
  8
0
  6
Continuous
 62
     7
370
    30
100
AcDbLine
 10
383.1692296923
 20
197.5920052743
 30
0.0
 11
367.2593271156
 21
179.8403312563
 31
0.0
  0
LINE
  5
3BD
330
1F
100
AcDbEntity
  8
0
  6
Continuous
 62
     7
370
    30
100
AcDbLine
 10
401.2004526125
 20
208.0012087001
 30
0.0
 11
383.1692296923
 21
197.5920052743
 31
0.0
  0
LINE
  5
3BE
330
1F
100
AcDbEntity
  8
0
  6
Continuous
 62
     7
370
    30
100
AcDbLine
 10
401.2004526125
 20
190.0373108386
 30
0.0
 11
401.2004526125
 21
208.0012087001
 31
0.0
  0
LINE
  5
3BF
330
1F
100
AcDbEntity
  8
0
  6
Continuous
 62
     7
370
    30
100
AcDbLine
 10
348.1674440235
 20
159.4220066452
 30
0.0
 11
401.2004526125
 21
190.0373108386
 31
0.0
  0
LINE
  5
3C0
330
1F
100
AcDbEntity
  8
0
  6
Continuous
 62
     7
370
    30
100
AcDbLine
 10
348.1674440235
 20
177.3859045067
 30
0.0
 11
348.1674440235
 21
159.4220066452
 31
0.0
  0
LINE
  5
3C1
330
1F
100
AcDbEntity
  8
0
  6
Continuous
 62
     7
370
    30
100
AcDbLine
 10
349.9352109765
 20
178.4064146465
 30
0.0
 11
348.1674440235
 21
177.3859045067
 31
0.0
  0
LINE
  5
3C2
330
1F
100
AcDbEntity
  8
0
  6
Continuous
 62
     7
370
    30
100
AcDbLine
 10
314.5798719172
 20
198.8166174421
 30
0.0
 11
312.8121049642
 21
197.7961073023
 31
0.0
  0
LINE
  5
3C3
330
1F
100
AcDbEntity
  8
0
  6
Continuous
 62
     7
370
    30
100
AcDbLine
 10
314.5798719172
 20
198.8166174421
 30
0.0
 11
349.9352109765
 21
178.4064146465
 31
0.0
  0
LINE
  5
3C4
330
1F
100
AcDbEntity
  8
0
  6
Continuous
 62
     7
370
    30
100
AcDbLine
 10
312.8121049642
 20
197.7961073023
 30
0.0
 11
348.1674440235
 21
177.3859045067
 31
0.0
  0
LINE
  5
3C5
330
1F
100
AcDbEntity
  8
0
  6
Continuous
 62
     7
370
    30
100
AcDbLine
 10
312.8121049642
 20
197.7961073023
 30
0.0
 11
312.8121049642
 21
179.8322094408
 31
0.0
  0
LINE
  5
3C6
330
1F
100
AcDbEntity
  8
0
  6
Continuous
 62
     7
370
    30
100
AcDbLine
 10
312.8121049642
 20
179.8322094408
 30
0.0
 11
348.1674440235
 21
159.4220066452
 31
0.0
  0
LWPOLYLINE
  5
3C7
330
1F
100
AcDbEntity
  8
0
  6
Continuous
 62
     7
370
    30
100
AcDbPolyline
 90
       39
 70
   128
 43
0.0
 10
325.7194624424
 20
182.0977862346
 10
325.6620442925
 20
182.9311076565
 10
325.4913560604
 20
183.807991827
 10
325.212053676
 20
184.7045196318
 10
324.8317557804
 20
185.5962361295
 10
324.3608359087
 20
186.4588176187
 10
323.8121395274
 20
187.2687351247
 10
323.2006336436
 20
188.0038962094
 10
322.5429985436
 20
188.6442475948
 10
321.8571727985
 20
189.1723221643
 10
321.1618639471
 20
189.5737154204
 10
320.4760382021
 20
189.8374784013
 10
319.818403102
 20
189.9564163405
 10
319.2068972182
 20
189.927284921
 10
318.6582008369
 20
189.7508787721
 10
318.1872809652
 20
189.4320097936
 10
317.8069830696
 20
188.9793759
 10
317.5276806852
 20
188.4053237641
 10
317.3569924531
 20
187.7255120316
 10
317.2995743032
 20
186.9584841945
 10
317.3569924531
 20
186.1251627726
 10
317.5276806852
 20
185.2482786021
 10
317.8069830696
 20
184.3517507973
 10
318.1872809652
 20
183.4600342995
 10
318.6582008369
 20
182.5974528104
 10
319.2068972182
 20
181.7875353044
 10
319.818403102
 20
181.0523742197
 10
320.4760382021
 20
180.4120228343
 10
321.1618639471
 20
179.8839482647
 10
321.8571727985
 20
179.4825550087
 10
322.5429985436
 20
179.2187920278
 10
323.2006336436
 20
179.0998540886
 10
323.8121395274
 20
179.1289855081
 10
324.3608359087
 20
179.305391657
 10
324.8317557804
 20
179.6242606355
 10
325.212053676
 20
180.076894529
 10
325.4913560604
 20
180.650946665
 10
325.6620442925
 20
181.3307583975
 10
325.7194624424
 20
182.0977862346
  0
LWPOLYLINE
  5
3C8
330
1F
100
AcDbEntity
  8
0
  6
Continuous
 62
     7
370
    30
100
AcDbPolyline
 90
       39
 70
   128
 43
0.0
 10
343.6799746845
 20
171.7294032145
 10
343.6225565346
 20
172.5627246363
 10
343.4518683025
 20
173.4396088068
 10
343.1725659182
 20
174.3361366117
 10
342.7922680225
 20
175.2278531094
 10
342.3213481508
 20
176.0904345985
 10
341.7726517696
 20
176.9003521045
 10
341.1611458857
 20
177.6355131892
 10
340.5035107857
 20
178.2758645746
 10
339.8176850407
 20
178.8039391442
 10
339.1223761892
 20
179.2053324002
 10
338.4365504442
 20
179.4690953811
 10
337.7789153442
 20
179.5880333203
 10
337.1674094603
 20
179.5589019009
 10
336.6187130791
 20
179.3824957519
 10
336.1477932074
 20
179.0636267735
 10
335.7674953117
 20
178.6109928799
 10
335.4881929274
 20
178.0369407439
 10
335.3175046952
 20
177.3571290114
 10
335.2600865454
 20
176.5901011743
 10
335.3175046952
 20
175.7567797525
 10
335.4881929274
 20
174.879895582
 10
335.7674953117
 20
173.9833677771
 10
336.1477932074
 20
173.0916512794
 10
336.6187130791
 20
172.2290697903
 10
337.1674094603
 20
171.4191522842
 10
337.7789153442
 20
170.6839911995
 10
338.4365504442
 20
170.0436398142
 10
339.1223761892
 20
169.5155652446
 10
339.8176850407
 20
169.1141719885
 10
340.5035107857
 20
168.8504090076
 10
341.1611458857
 20
168.7314710685
 10
341.7726517696
 20
168.7606024879
 10
342.3213481508
 20
168.9370086368
 10
342.7922680225
 20
169.2558776153
 10
343.1725659182
 20
169.7085115089
 10
343.4518683025
 20
170.2825636448
 10
343.6225565346
 20
170.9623753773
 10
343.6799746845
 20
171.7294032145
  0
LINE
  5
3C9
330
1F
100
AcDbEntity
  8
0
  6
Continuous
 62
     7
370
    30
100
AcDbLine
 10
361.3485128661
 20
181.6197554673
 30
0.0
 11
365.8451135532
 21
179.0239231445
 31
0.0
  0
LINE
  5
3CA
330
1F
100
AcDbEntity
  8
0
  6
Continuous
 62
     7
370
    30
100
AcDbLine
 10
330.4897744939
 20
199.4341259401
 30
0.0
 11
314.5798719172
 21
198.8166174421
 31
0.0
  0
LINE
  5
3CB
330
1F
100
AcDbEntity
  8
0
  6
Continuous
 62
     7
370
    30
100
AcDbLine
 10
330.4897744939
 20
199.4341259401
 30
0.0
 11
334.986375181
 21
196.8382936172
 31
0.0
  0
ELLIPSE
  5
3CC
330
1F
100
AcDbEntity
  8
0
  6
Continuous
 62
     7
370
    30
100
AcDbEllipse
 10
338.5928787223
 20
194.3901492254
 30
0.0
 11
9.960016509292984
 21
-0.7510156081533523
 31
0.0
210
0.0
220
0.0
230
1.0
 40
0.234719594
 41
1.958950033600156
 42
5.232293350215636
  0
LINE
  5
3CD
330
1F
100
AcDbEntity
  8
0
  6
Continuous
 62
     7
370
    30
100
AcDbLine
 10
343.3880006239
 20
191.9881384875
 30
0.0
 11
352.9468874231
 21
186.4699105971
 31
0.0
  0
ELLIPSE
  5
3CE
330
1F
100
AcDbEntity
  8
0
  6
Continuous
 62
     7
370
    30
100
AcDbEllipse
 10
356.5533909644
 20
184.0217662053
 30
0.0
 11
9.960016509292984
 21
-0.7510156081533809
 31
0.0
210
0.0
220
0.0
230
1.0
 40
0.234719594
 41
1.958950033600156
 42
5.232293350215635
  0
ELLIPSE
  5
3CF
330
1F
100
AcDbEntity
  8
0
  6
Continuous
 62
     7
370
    30
100
AcDbEllipse
 10
339.3286092587
 20
188.8859642656
 30
0.0
 11
4.350850536419387
 21
-1.284313844687659
 31
0.0
210
0.0
220
0.0
230
1.0
 40
0.2853703663
 41
0.0
 42
6.283185307179586
  0
ARC
  5
3D0
330
1F
100
AcDbEntity
  8
0
  6
Continuous
 62
     7
370
    30
100
AcDbCircle
 10
358.6798359075
 20
182.6376872171
 30
0.0
 40
4.087860905473957
100
AcDbArc
 50
341.2925523267
 51
357.174283517
  0
LINE
  5
3D1
330
1F
100
AcDbEntity
  8
0
  6
Continuous
 62
     7
370
    30
100
AcDbLine
 10
362.2040611049
 20
181.125857982
 30
0.0
 11
362.5517293755
 21
181.3265626025
 31
0.0
  0
ARC
  5
3D2
330
1F
100
AcDbEntity
  8
0
  6
Continuous
 62
     7
370
    30
100
AcDbCircle
 10
360.2040786426
 20
186.9084176101
 30
0.0
 40
7.270427277451203
100
AcDbArc
 50
183.4578241432
 51
194.2669159171
  0
LINE
  5
3D3
330
1F
100
AcDbEntity
  8
0
  6
Continuous
 62
     7
370
    30
100
AcDbLine
 10
354.5720980385
 20
185.9331057203
 30
0.0
 11
353.1578844761
 21
185.1166976085
 31
0.0
  0
ARC
  5
3D4
330
1F
100
AcDbEntity
  8
0
  6
Continuous
 62
     7
370
    30
100
AcDbCircle
 10
361.618292205
 20
187.7248257219
 30
0.0
 40
7.2704272774363
100
AcDbArc
 50
183.4578241432
 51
194.2669159172
  0
ELLIPSE
  5
3D5
330
1F
100
AcDbEntity
  8
0
  6
Continuous
 62
     7
370
    30
100
AcDbEllipse
 10
359.1562228872
 20
185.5243490909
 30
0.0
 11
9.34992665273734
 21
9.833689172808249
 31
0.0
210
0.0
220
0.0
230
1.0
 40
0.3494965827
 41
0.7596817949745224
 42
1.720754819351568
  0
SPLINE
  5
3D6
330
1F
100
AcDbEntity
  8
0
  6
Continuous
 62
     7
370
    30
100
AcDbSpline
210
0.0
220
0.0
230
1.0
 70
     8
 71
     3
 72
    26
 73
    22
 74
     0
 42
0.000000001
 43
0.00000001
 40
0.0
 40
0.0
 40
0.0
 40
0.0
 40
0.0175382510926487
 40
0.0841642244279576
 40
0.1385179782774528
 40
0.1943788190087911
 40
0.2487761289765434
 40
0.3049528431524289
 40
0.3564781195601806
 40
0.409285054542963
 40
0.4653470938677836
 40
0.5225970733108996
 40
0.5884843730759126
 40
0.6559473303900448
 40
0.7125079996476458
 40
0.7704968806649591
 40
0.817948826651554
 40
0.866760845155948
 40
0.914223820507423
 40
0.962933868996524
 40
1.0
 40
1.0
 40
1.0
 40
1.0
 10
371.8689641657998
 20
195.0418195749311
 30
0.0
 10
371.8589986006795
 20
195.0987724361659
 30
0.0
 10
371.8111749006476
 20
195.3720832337739
 30
0.0
 10
371.62791785626
 20
195.7852335387234
 30
0.0
 10
371.3260364838169
 20
196.2615139241622
 30
0.0
 10
370.9577249245974
 20
196.6350411576186
 30
0.0
 10
370.5127038850075
 20
196.9283443581163
 30
0.0
 10
370.0185800709422
 20
197.1209920511662
 30
0.0
 10
369.4877654527178
 20
197.2198374498434
 30
0.0
 10
368.9310006100679
 20
197.2340424558567
 30
0.0
 10
368.3393776189116
 20
197.1664969858821
 30
0.0
 10
367.6964185737286
 20
197.0149014287188
 30
0.0
 10
367.0164986260767
 20
196.7794326752043
 30
0.0
 10
366.3517048933846
 20
196.485693977856
 30
0.0
 10
365.7338816234533
 20
196.172423453404
 30
0.0
 10
365.2076748408728
 20
195.8841187964916
 30
0.0
 10
364.7415902548387
 20
195.6195601860099
 30
0.0
 10
364.3489720743175
 20
195.3931509862212
 30
0.0
 10
364.0088183601546
 20
195.1928806023531
 30
0.0
 10
363.7490988912122
 20
195.0331729687621
 30
0.0
 10
363.6230041165815
 20
194.9435333464872
 30
0.0
 10
363.5685152659127
 20
194.9047977207925
 30
0.0
  0
ELLIPSE
  5
3D7
330
1F
100
AcDbEntity
  8
0
  6
Continuous
 62
     7
370
    30
100
AcDbEllipse
 10
359.1562228872
 20
185.5243490909
 30
0.0
 11
9.34992665273734
 21
9.833689172808249
 31
0.0
210
0.0
220
0.0
230
1.0
 40
0.3494965827
 41
4.730596809915692
 42
5.623215558038613
  0
SPLINE
  5
3D8
330
1F
100
AcDbEntity
  8
0
  6
Continuous
 62
     7
370
    30
100
AcDbSpline
210
0.0
220
0.0
230
1.0
 70
     8
 71
     3
 72
    23
 73
    19
 74
     0
 42
0.000000001
 43
0.00000001
 40
0.0
 40
0.0
 40
0.0
 40
0.0
 40
0.0125779693322475
 40
0.0744502667355619
 40
0.1378615982994364
 40
0.2051817062536707
 40
0.2739283098896524
 40
0.353046732737141
 40
0.4340572279669951
 40
0.5019760979589342
 40
0.5716099852960016
 40
0.6285909685946552
 40
0.6872051466508765
 40
0.7441993741704565
 40
0.8026911051569615
 40
0.8798447714812175
 40
0.9591980768427223
 40
1.0
 40
1.0
 40
1.0
 40
1.0
 10
364.0274183170372
 20
183.8888939870084
 30
0.0
 10
364.0028718362093
 20
183.9083807004577
 30
0.0
 10
363.8575787450285
 20
184.023724519144
 30
0.0
 10
363.6590867337901
 20
184.3096966929811
 30
0.0
 10
363.4346045769637
 20
184.7378550879001
 30
0.0
 10
363.2931117912678
 20
185.231099198079
 30
0.0
 10
363.2306221623919
 20
185.7892279606974
 30
0.0
 10
363.2680114170892
 20
186.3958436172168
 30
0.0
 10
363.4147759934459
 20
186.9885715787239
 30
0.0
 10
363.6547381196348
 20
187.5199947826
 30
0.0
 10
363.9524975226339
 20
187.9401617944729
 30
0.0
 10
364.3081562036483
 20
188.2685127432303
 30
0.0
 10
364.6949802795885
 20
188.4981067185589
 30
0.0
 10
365.1291112995752
 20
188.6447155829398
 30
0.0
 10
365.6435976561066
 20
188.7180389536717
 30
0.0
 10
366.2484091712681
 20
188.6959434242716
 30
0.0
 10
366.820452037162
 20
188.6043652271245
 30
0.0
 10
367.1769761773102
 20
188.5038623534268
 30
0.0
 10
367.2980434895642
 20
188.4697339132394
 30
0.0
  0
ELLIPSE
  5
3D9
330
1F
100
AcDbEntity
  8
0
  6
Continuous
 62
     7
370
    30
100
AcDbEllipse
 10
341.195710645
 20
195.892732111
 30
0.0
 11
9.349926652737338
 21
9.833689172808221
 31
0.0
210
0.0
220
0.0
230
1.0
 40
0.3494965827
 41
0.8281360712287108
 42
1.720754819351571
  0
LINE
  5
3DA
330
1F
100
AcDbEntity
  8
0
  6
Continuous
 62
     7
370
    30
100
AcDbLine
 10
331.9039880562
 20
200.2505340519
 30
0.0
 11
336.4005887434
 21
197.6547017291
 31
0.0
  0
LINE
  5
3DB
330
1F
100
AcDbEntity
  8
0
  6
Continuous
 62
     7
370
    30
100
AcDbLine
 10
347.8138906329
 20
218.0022080699
 30
0.0
 11
331.9039880562
 21
200.2505340519
 31
0.0
  0
LINE
  5
3DC
330
1F
100
AcDbEntity
  8
0
  6
Continuous
 62
     7
370
    30
100
AcDbLine
 10
347.8138906329
 20
218.0022080699
 30
0.0
 11
383.1692296923
 21
197.5920052743
 31
0.0
  0
LINE
  5
3DD
330
1F
100
AcDbEntity
  8
0
  6
Continuous
 62
     7
370
    30
100
AcDbLine
 10
362.7627264284
 20
182.4361635792
 30
0.0
 11
367.2593271156
 21
179.8403312563
 31
0.0
  0
ELLIPSE
  5
3DE
330
1F
100
AcDbEntity
  8
0
  6
Continuous
 62
     7
370
    30
100
AcDbEllipse
 10
367.6128805062
 20
194.6008210484
 30
0.0
 11
3.924040560325579
 21
2.677352695988048
 31
0.0
210
0.0
220
0.0
230
1.0
 40
0.7151521803
 41
4.498223785843529
 42
8.58443441690374
  0
LINE
  5
3DF
330
1F
100
AcDbEntity
  8
0
  6
Continuous
 62
     7
370
    30
100
AcDbLine
 10
344.8022141863
 20
192.8045465993
 30
0.0
 11
354.3611009855
 21
187.2863187089
 31
0.0
  0
ELLIPSE
  5
3E0
330
1F
100
AcDbEntity
  8
0
  6
Continuous
 62
     7
370
    30
100
AcDbEllipse
 10
341.195710645
 20
195.892732111
 30
0.0
 11
9.349926652737338
 21
9.833689172808221
 31
0.0
210
0.0
220
0.0
230
1.0
 40
0.3494965827
 41
4.730596809915694
 42
5.691669834292763
  0
ELLIPSE
  5
3E1
330
1F
100
AcDbEntity
  8
0
  6
Continuous
 62
     7
370
    30
100
AcDbEllipse
 10
349.2281041953
 20
205.2141265021
 30
0.0
 11
3.92404056032558
 21
2.677352695988134
 31
0.0
210
0.0
220
0.0
230
1.0
 40
0.7151521803
 41
4.644818714018861
 42
8.731029345079026
  0
ARC
  5
3E2
330
1F
100
AcDbEntity
  8
0
  6
Continuous
 62
     7
370
    30
100
AcDbCircle
 10
340.7193236654
 20
193.0060702373
 30
0.0
 40
4.087860905478769
100
AcDbArc
 50
341.2925523267
 51
357.174283517
  0
LINE
  5
3E3
330
1F
100
AcDbEntity
  8
0
  6
Continuous
 62
     7
370
    30
100
AcDbLine
 10
344.2435488627
 20
191.4942410021
 30
0.0
 11
344.5912171334
 21
191.6949456226
 31
0.0
  0
ARC
  5
3E4
330
1F
100
AcDbEntity
  8
0
  6
Continuous
 62
     7
370
    30
100
AcDbCircle
 10
342.2435664005
 20
197.2768006302
 30
0.0
 40
7.270427277441573
100
AcDbArc
 50
183.4578241432
 51
194.2669159172
  0
LINE
  5
3E5
330
1F
100
AcDbEntity
  8
0
  6
Continuous
 62
     7
370
    30
100
AcDbLine
 10
336.6115857963
 20
196.3014887405
 30
0.0
 11
335.1973722339
 21
195.4850806287
 31
0.0
  0
ARC
  5
3E6
330
1F
100
AcDbEntity
  8
0
  6
Continuous
 62
     7
370
    30
100
AcDbCircle
 10
343.6577799628
 20
198.0932087421
 30
0.0
 40
7.270427277436078
100
AcDbArc
 50
183.4578241432
 51
194.2669159172
  0
SPLINE
  5
3E7
330
1F
100
AcDbEntity
  8
0
  6
Continuous
 62
     7
370
    30
100
AcDbSpline
210
0.0
220
0.0
230
1.0
 70
     8
 71
     3
 72
    26
 73
    22
 74
     0
 42
0.000000001
 43
0.00000001
 40
0.0
 40
0.0
 40
0.0
 40
0.0
 40
0.0320262107008447
 40
0.105363234343525
 40
0.1568235043492519
 40
0.2097462746807714
 40
0.2612261061677723
 40
0.314223987530858
 40
0.3656458132791061
 40
0.4182384716622557
 40
0.476740325750276
 40
0.5364190021997621
 40
0.6069894886601843
 40
0.6792821647795942
 40
0.7286113597054255
 40
0.7790030113354882
 40
0.819247063704094
 40
0.8606216333320635
 40
0.9008881803560487
 40
0.942253643999652
 40
1.0
 40
1.0
 40
1.0
 40
1.0
 10
353.4958460779792
 20
205.7892612474303
 30
0.0
 10
353.4770002051526
 20
205.8885921698417
 30
0.0
 10
353.4149990482382
 20
206.2153816034511
 30
0.0
 10
353.1815454522123
 20
206.6454733187774
 30
0.0
 10
352.8371881821125
 20
207.0615472049856
 30
0.0
 10
352.4578667499808
 20
207.3519663063808
 30
0.0
 10
352.0139991404438
 20
207.560335416643
 30
0.0
 10
351.5263870778428
 20
207.6773663833309
 30
0.0
 10
351.0032806252026
 20
207.7074582039907
 30
0.0
 10
350.4425124654089
 20
207.6554173752595
 30
0.0
 10
349.8438475475741
 20
207.5187328695872
 30
0.0
 10
349.1823026427338
 20
207.2874375908141
 30
0.0
 10
348.4800810878921
 20
206.9634221799011
 30
0.0
 10
347.8264495932701
 20
206.600224372371
 30
0.0
 10
347.255681456098
 20
206.2552613142047
 30
0.0
 10
346.8044374443992
 20
205.9749116816
 30
0.0
 10
346.4002918888155
 20
205.7276420641288
 30
0.0
 10
346.054668332288
 20
205.5251315253413
 30
0.0
 10
345.746604221428
 20
205.3554906306559
 30
0.0
 10
345.4460476500136
 20
205.2007132807479
 30
0.0
 10
345.2928959091511
 20
205.1228728691732
 30
0.0
 10
345.2036638177449
 20
205.0775200531907
 30
0.0
  0
SPLINE
  5
3E8
330
1F
100
AcDbEntity
  8
0
  6
Continuous
 62
     7
370
    30
100
AcDbSpline
210
0.0
220
0.0
230
1.0
 70
     8
 71
     3
 72
     9
 73
     5
 74
     0
 42
0.000000001
 43
0.00000001
 40
0.0
 40
0.0
 40
0.0
 40
0.0
 40
0.8424895751758785
 40
1.0
 40
1.0
 40
1.0
 40
1.0
 10
345.1055090490344
 20
205.0206405514014
 30
0.0
 10
345.0672065853383
 20
204.9997942993613
 30
0.0
 10
345.0217431578673
 20
204.9750506673279
 30
0.0
 10
344.991532462975
 20
204.9534417345462
 30
0.0
 10
344.9867739635883
 20
204.9500381023638
 30
0.0
  0
SPLINE
  5
3E9
330
1F
100
AcDbEntity
  8
0
  6
Continuous
 62
     7
370
    30
100
AcDbSpline
210
0.0
220
0.0
230
1.0
 70
     8
 71
     3
 72
    25
 73
    21
 74
     0
 42
0.000000001
 43
0.00000001
 40
0.0
 40
0.0
 40
0.0
 40
0.0
 40
0.0226851633012514
 40
0.0781839491678368
 40
0.1320323073035009
 40
0.1871067482186793
 40
0.2483692324788656
 40
0.3108640718929223
 40
0.3847646923674553
 40
0.4604687705019466
 40
0.5121257491536751
 40
0.5648953205280578
 40
0.6070384399766889
 40
0.6503654243965641
 40
0.6925320999955531
 40
0.735849548730917
 40
0.7963208838826498
 40
0.8584609003475903
 40
0.938874851156653
 40
1.0
 40
1.0
 40
1.0
 40
1.0
 10
346.0363767563934
 20
194.2222084898963
 30
0.0
 10
345.9774767287648
 20
194.2606987579109
 30
0.0
 10
345.7744789938599
 20
194.3933546756997
 30
0.0
 10
345.5021489845486
 20
194.700458978084
 30
0.0
 10
345.224328430139
 20
195.1272265922089
 30
0.0
 10
345.0197985834807
 20
195.6225924075757
 30
0.0
 10
344.8902452060917
 20
196.1792106493469
 30
0.0
 10
344.8443895977956
 20
196.8190138404387
 30
0.0
 10
344.9049094369016
 20
197.513433513094
 30
0.0
 10
345.0757500617971
 20
198.1553500084138
 30
0.0
 10
345.319908408058
 20
198.688864402497
 30
0.0
 10
345.5840084737017
 20
199.0772321450306
 30
0.0
 10
345.8900555149198
 20
199.3811888858206
 30
0.0
 10
346.2163578414903
 20
199.5946507458224
 30
0.0
 10
346.5799196285303
 20
199.7330025897155
 30
0.0
 10
347.0176996335147
 20
199.8053294870564
 30
0.0
 10
347.5373457567323
 20
199.788245417392
 30
0.0
 10
348.1897511163155
 20
199.660469912768
 30
0.0
 10
348.8584562940467
 20
199.4515383019693
 30
0.0
 10
349.3318030822654
 20
199.2503854888652
 30
0.0
 10
349.5362228712526
 20
199.1635155308717
 30
0.0
  0
LINE
  5
3EA
330
1F
100
AcDbEntity
  8
0
  6
Continuous
 62
     7
370
    30
100
AcDbLine
 10
362.5517293755
 20
181.3265626025
 30
0.0
 11
367.2593271156
 21
178.6089242737
 31
0.0
  0
LINE
  5
3EB
330
1F
100
AcDbEntity
  8
0
  6
Continuous
 62
     7
370
    30
100
AcDbLine
 10
365.8451135532
 20
228.4114114956
 30
0.0
 11
347.8138906329
 21
218.0022080699
 31
0.0
  0
LINE
  5
3EC
330
1F
100
AcDbEntity
  8
0
  6
Continuous
 62
     7
370
    30
100
AcDbLine
 10
365.8451135532
 20
228.4114114956
 30
0.0
 11
367.1484144121
 21
227.6590319247
 31
0.0
  0
LINE
  5
3ED
330
1F
100
AcDbEntity
  8
0
  6
Continuous
 62
     7
370
    30
100
AcDbLine
 10
375.1484144121
 20
223.040730228
 30
0.0
 11
401.2004526125
 21
208.0012087001
 31
0.0
  0
LINE
  5
3EE
330
1F
100
AcDbEntity
  8
0
  6
Continuous
 62
     7
370
    30
100
AcDbLine
 10
344.5912171334
 20
191.6949456226
 30
0.0
 11
354.5720980385
 21
185.9331057203
 31
0.0
  0
LINE
  5
3EF
330
1F
100
AcDbEntity
  8
0
  6
Continuous
 62
     7
370
    30
100
AcDbLine
 10
331.9039880562
 20
199.0191270693
 30
0.0
 11
336.6115857963
 21
196.3014887405
 31
0.0
  0
LINE
  5
3F0
330
1F
100
AcDbEntity
  8
0
  6
Continuous
 62
     7
370
    30
100
AcDbLine
 10
331.9039880562
 20
199.0191270693
 30
0.0
 11
331.5563197856
 21
198.8184224488
 31
0.0
  0
LINE
  5
3F1
330
1F
100
AcDbEntity
  8
0
  6
Continuous
 62
     7
370
    30
100
AcDbLine
 10
331.9039880562
 20
200.2505340519
 30
0.0
 11
331.9039880562
 21
199.0191270693
 31
0.0
  0
LWPOLYLINE
  5
3F2
330
1F
100
AcDbEntity
  8
0
  6
Continuous
 62
     7
370
    30
100
AcDbPolyline
 90
        3
 70
   128
 43
0.0
 10
346.3912193575
 20
194.6069684325
 10
346.1406921409
 20
194.4732277429
 10
345.8855221969
 20
194.3125954358
  0
LINE
  5
3F3
330
1F
100
AcDbEntity
  8
0
  6
Continuous
 62
     7
370
    30
100
AcDbLine
 10
181.6798257253
 20
151.1461496027
 30
0.0
 11
181.6798257253
 21
150.1461496027
 31
0.0
  0
LINE
  5
3F4
330
1F
100
AcDbEntity
  8
0
  6
Continuous
 62
     7
370
    30
100
AcDbLine
 10
183.2798257253
 20
150.1461496027
 30
0.0
 11
183.2798257253
 21
151.1461496027
 31
0.0
  0
LINE
  5
3F5
330
1F
100
AcDbEntity
  8
0
  6
Continuous
 62
     7
370
    30
100
AcDbLine
 10
209.9798257253
 20
173.4135180727
 30
0.0
 11
209.9798257253
 21
163.1461496027
 31
0.0
  0
LINE
  5
3F6
330
1F
100
AcDbEntity
  8
0
  6
Continuous
 62
     7
370
    30
100
AcDbLine
 10
209.9798257253
 20
151.1461496027
 30
0.0
 11
209.9798257253
 21
103.4135180727
 31
0.0
  0
LINE
  5
3F7
330
1F
100
AcDbEntity
  8
0
  6
Continuous
 62
     7
370
    30
100
AcDbLine
 10
217.9798257253
 20
103.4135180727
 30
0.0
 11
217.9798257253
 21
151.1461496027
 31
0.0
  0
LINE
  5
3F8
330
1F
100
AcDbEntity
  8
0
  6
Continuous
 62
     7
370
    30
100
AcDbLine
 10
217.9798257253
 20
163.1461496027
 30
0.0
 11
217.9798257253
 21
173.4135180727
 31
0.0
  0
CIRCLE
  5
3F9
330
1F
100
AcDbEntity
  8
0
  6
Continuous
 62
     7
370
    30
100
AcDbCircle
 10
222.4798257253
 20
157.1461496027
 30
0.0
 40
1.5
  0
LINE
  5
3FA
330
1F
100
AcDbEntity
  8
0
  6
Continuous
 62
     7
370
    30
100
AcDbLine
 10
183.2798257253
 20
150.1461496027
 30
0.0
 11
181.6798257253
 21
150.1461496027
 31
0.0
  0
ARC
  5
3FB
330
1F
100
AcDbEntity
  8
0
  6
Continuous
 62
     7
370
    30
100
AcDbCircle
 10
222.4798257253
 20
157.1461496027
 30
0.0
 40
6.500000000000008
100
AcDbArc
 50
108.7189218893
 51
110.9706815035
  0
LINE
  5
3FC
330
1F
100
AcDbEntity
  8
0
  6
Continuous
 62
     7
370
    30
100
AcDbLine
 10
220.1490957563
 20
163.1461496027
 30
0.0
 11
220.1535395193
 21
163.2156135401
 31
0.0
  0
LINE
  5
3FD
330
1F
100
AcDbEntity
  8
0
  6
Continuous
 62
     7
370
    30
100
AcDbLine
 10
220.3938080994
 20
163.3023278379
 30
0.0
 11
220.5412403212
 21
163.1461496027
 31
0.0
  0
ARC
  5
3FE
330
1F
100
AcDbEntity
  8
0
  6
Continuous
 62
     7
370
    30
100
AcDbCircle
 10
222.4798257253
 20
157.1461496027
 30
0.0
 40
6.500000000000053
100
AcDbArc
 50
101.9264690591
 51
104.1782286734
  0
LINE
  5
3FF
330
1F
100
AcDbEntity
  8
0
  6
Continuous
 62
     7
370
    30
100
AcDbLine
 10
221.1365603774
 20
163.5058381332
 30
0.0
 11
221.4032749366
 21
163.1461496027
 31
0.0
  0
LINE
  5
400
330
1F
100
AcDbEntity
  8
0
  6
Continuous
 62
     7
370
    30
100
AcDbLine
 10
220.8320070885
 20
163.1461496027
 30
0.0
 11
220.8877222445
 21
163.4481498015
 31
0.0
  0
ARC
  5
401
330
1F
100
AcDbEntity
  8
0
  6
Continuous
 62
     7
370
    30
100
AcDbCircle
 10
222.4798257253
 20
157.1461496027
 30
0.0
 40
6.500000000000011
100
AcDbArc
 50
251.3604313233
 51
253.6121909375
  0
LINE
  5
402
330
1F
100
AcDbEntity
  8
0
  6
Continuous
 62
     7
370
    30
100
AcDbLine
 10
220.8511611408
 20
151.1461496027
 30
0.0
 11
220.6459330458
 21
150.910218426
 31
0.0
  0
LINE
  5
403
330
1F
100
AcDbEntity
  8
0
  6
Continuous
 62
     7
370
    30
100
AcDbLine
 10
220.4023362492
 20
150.9870881906
 30
0.0
 11
220.3856421803
 21
151.1461496027
 31
0.0
  0
ARC
  5
404
330
1F
100
AcDbEntity
  8
0
  6
Continuous
 62
     7
370
    30
100
AcDbCircle
 10
222.4798257253
 20
157.1461496027
 30
0.0
 40
6.500000000000011
100
AcDbArc
 50
88.3415633987
 51
90.593323013
  0
LINE
  5
405
330
1F
100
AcDbEntity
  8
0
  6
Continuous
 62
     7
370
    30
100
AcDbLine
 10
222.1896632419
 20
163.1461496027
 30
0.0
 11
222.4125165676
 21
163.6458010916
 31
0.0
  0
LINE
  5
406
330
1F
100
AcDbEntity
  8
0
  6
Continuous
 62
     7
370
    30
100
AcDbLine
 10
222.6679431188
 20
163.6434268667
 30
0.0
 11
222.8787441526
 21
163.1461496027
 31
0.0
  0
ARC
  5
407
330
1F
100
AcDbEntity
  8
0
  6
Continuous
 62
     7
370
    30
100
AcDbCircle
 10
222.4798257253
 20
157.1461496027
 30
0.0
 40
6.500000000000007
100
AcDbArc
 50
81.5491105685
 51
83.8008701828
  0
LINE
  5
408
330
1F
100
AcDbEntity
  8
0
  6
Continuous
 62
     7
370
    30
100
AcDbLine
 10
223.4350763253
 20
163.5755738608
 30
0.0
 11
223.5596742344
 21
163.1461496027
 31
0.0
  0
LINE
  5
409
330
1F
100
AcDbEntity
  8
0
  6
Continuous
 62
     7
370
    30
100
AcDbLine
 10
222.9059911983
 20
163.1461496027
 30
0.0
 11
223.1817233956
 21
163.6081415293
 31
0.0
  0
ARC
  5
40A
330
1F
100
AcDbEntity
  8
0
  6
Continuous
 62
     7
370
    30
100
AcDbCircle
 10
222.4798257253
 20
157.1461496027
 30
0.0
 40
6.500000000000022
100
AcDbArc
 50
74.7566577384
 51
77.0084173526
  0
LINE
  5
40B
330
1F
100
AcDbEntity
  8
0
  6
Continuous
 62
     7
370
    30
100
AcDbLine
 10
224.1887999072
 20
163.4174658317
 30
0.0
 11
224.2336561309
 21
163.1461496027
 31
0.0
  0
LINE
  5
40C
330
1F
100
AcDbEntity
  8
0
  6
Continuous
 62
     7
370
    30
100
AcDbLine
 10
223.6839451644
 20
163.1461496027
 30
0.0
 11
223.9410771188
 21
163.4797697653
 31
0.0
  0
ARC
  5
40D
330
1F
100
AcDbEntity
  8
0
  6
Continuous
 62
     7
370
    30
100
AcDbCircle
 10
222.4798257253
 20
157.1461496027
 30
0.0
 40
6.499999999999993
100
AcDbArc
 50
271.7377898138
 51
273.9895494281
  0
LINE
  5
40E
330
1F
100
AcDbEntity
  8
0
  6
Continuous
 62
     7
370
    30
100
AcDbLine
 10
222.676941501
 20
150.6491391077
 30
0.0
 11
222.4304596758
 21
151.14635269
 31
0.0
  0
LINE
  5
40F
330
1F
100
AcDbEntity
  8
0
  6
Continuous
 62
     7
370
    30
100
AcDbLine
 10
223.114477555
 20
151.1461496027
 30
0.0
 11
222.9320601053
 21
150.661900682
 31
0.0
  0
ARC
  5
410
330
1F
100
AcDbEntity
  8
0
  6
Continuous
 62
     7
370
    30
100
AcDbCircle
 10
222.4798257253
 20
157.1461496027
 30
0.0
 40
6.500000000000056
100
AcDbArc
 50
285.3226954742
 51
287.5744550884
  0
LINE
  5
411
330
1F
100
AcDbEntity
  8
0
  6
Continuous
 62
     7
370
    30
100
AcDbLine
 10
224.4668058795
 20
151.1461496027
 30
0.0
 11
224.442467494
 21
150.9495346164
 31
0.0
  0
LINE
  5
412
330
1F
100
AcDbEntity
  8
0
  6
Continuous
 62
     7
370
    30
100
AcDbLine
 10
224.1974838806
 20
150.8772062737
 30
0.0
 11
223.9721835074
 21
151.1461496027
 31
0.0
  0
ARC
  5
413
330
1F
100
AcDbEntity
  8
0
  6
Continuous
 62
     7
370
    30
100
AcDbCircle
 10
222.4798257253
 20
157.1461496027
 30
0.0
 40
6.499999999999984
100
AcDbArc
 50
278.530242644
 51
280.7820022583
  0
LINE
  5
414
330
1F
100
AcDbEntity
  8
0
  6
Continuous
 62
     7
370
    30
100
AcDbLine
 10
223.7907745623
 20
151.1461496027
 30
0.0
 11
223.6957985965
 21
150.7609001967
 31
0.0
  0
LINE
  5
415
330
1F
100
AcDbEntity
  8
0
  6
Continuous
 62
     7
370
    30
100
AcDbLine
 10
223.443979997
 20
150.7180545084
 30
0.0
 11
223.1642554737
 21
151.1461496027
 31
0.0
  0
ARC
  5
416
330
1F
100
AcDbEntity
  8
0
  6
Continuous
 62
     7
370
    30
100
AcDbCircle
 10
222.4798257253
 20
157.1461496027
 30
0.0
 40
6.500000000000092
100
AcDbArc
 50
95.1340162289
 51
97.3857758432
  0
LINE
  5
417
330
1F
100
AcDbEntity
  8
0
  6
Continuous
 62
     7
370
    30
100
AcDbLine
 10
221.8981691565
 20
163.6200723421
 30
0.0
 11
222.16920348
 21
163.1461496027
 31
0.0
  0
LINE
  5
418
330
1F
100
AcDbEntity
  8
0
  6
Continuous
 62
     7
370
    30
100
AcDbLine
 10
221.5057866251
 20
163.1461496027
 30
0.0
 11
221.6442546126
 21
163.5922197943
 31
0.0
  0
ARC
  5
419
330
1F
100
AcDbEntity
  8
0
  6
Continuous
 62
     7
370
    30
100
AcDbCircle
 10
222.4798257253
 20
157.1461496027
 30
0.0
 40
6.500000000000037
100
AcDbArc
 50
264.9453369836
 51
267.1970965979
  0
LINE
  5
41A
330
1F
100
AcDbEntity
  8
0
  6
Continuous
 62
     7
370
    30
100
AcDbLine
 10
221.9071359316
 20
150.6714274928
 30
0.0
 11
221.7383155751
 21
151.1461496027
 31
0.0
  0
LINE
  5
41B
330
1F
100
AcDbEntity
  8
0
  6
Continuous
 62
     7
370
    30
100
AcDbLine
 10
222.4176550101
 20
151.1464717111
 30
0.0
 11
222.1619732347
 21
150.6539258084
 31
0.0
  0
ARC
  5
41C
330
1F
100
AcDbEntity
  8
0
  6
Continuous
 62
     7
370
    30
100
AcDbCircle
 10
222.4798257253
 20
157.1461496027
 30
0.0
 40
6.49999999999999
100
AcDbArc
 50
258.1528841534
 51
260.4046437677
  0
LINE
  5
41D
330
1F
100
AcDbEntity
  8
0
  6
Continuous
 62
     7
370
    30
100
AcDbLine
 10
221.6746221187
 20
151.1461496027
 30
0.0
 11
221.3963483163
 21
150.7370875258
 31
0.0
  0
LINE
  5
41E
330
1F
100
AcDbEntity
  8
0
  6
Continuous
 62
     7
370
    30
100
AcDbLine
 10
221.1453696715
 20
150.7846067835
 30
0.0
 11
221.063335878
 21
151.1461496027
 31
0.0
  0
ARC
  5
41F
330
1F
100
AcDbEntity
  8
0
  6
Continuous
 62
     7
370
    30
100
AcDbCircle
 10
222.4798257253
 20
157.1461496027
 30
0.0
 40
6.50000000000002
100
AcDbArc
 50
67.9642049082
 51
70.2159645224
  0
LINE
  5
420
330
1F
100
AcDbEntity
  8
0
  6
Continuous
 62
     7
370
    30
100
AcDbLine
 10
224.9185332378
 20
163.1713222697
 30
0.0
 11
224.9196742252
 21
163.1461496027
 31
0.0
  0
LINE
  5
421
330
1F
100
AcDbEntity
  8
0
  6
Continuous
 62
     7
370
    30
100
AcDbLine
 10
224.5659312885
 20
163.1461496027
 30
0.0
 11
224.6799180757
 21
163.2624878577
 31
0.0
  0
LWPOLYLINE
  5
422
330
1F
100
AcDbEntity
  8
0
  6
Continuous
 62
     7
370
    30
100
AcDbPolyline
 90
        3
 70
   128
 43
0.0
 10
224.9798257253
 20
151.1461496027
 10
224.9564284682
 20
151.1364541983
 10
224.9268756087
 20
151.1243602616
  0
LINE
  5
423
330
1F
100
AcDbEntity
  8
0
  6
Continuous
 62
     7
370
    30
100
AcDbLine
 10
224.9268756087
 20
151.1243602616
 30
0.0
 11
224.9037159506
 21
151.1461496027
 31
0.0
  0
ARC
  5
424
330
1F
100
AcDbEntity
  8
0
  6
Continuous
 62
     7
370
    30
100
AcDbCircle
 10
222.4798257253
 20
157.1461496027
 30
0.0
 40
6.500000000000022
100
AcDbArc
 50
0.0396766063
 51
2.2914362205
  0
SPLINE
  5
425
330
1F
100
AcDbEntity
  8
0
  6
Continuous
 62
     7
370
    30
100
AcDbSpline
210
0.0
220
0.0
230
1.0
 70
    24
 71
     3
 72
     9
 73
     5
 74
     0
 42
0.000000001
 43
0.00000001
 40
0.0
 40
0.0
 40
0.0
 40
0.0
 40
0.5042867390691849
 40
0.9999999999999999
 40
0.9999999999999999
 40
0.9999999999999999
 40
0.9999999999999999
 10
228.9798241667538
 20
157.1506507704947
 30
0.0
 10
228.8960378771164
 20
157.1121652658482
 30
0.0
 10
228.729889765048
 20
157.0358485561971
 30
0.0
 10
228.5627026133893
 20
156.9590545851329
 30
0.0
 10
228.4798257252549
 20
156.920986795317
 30
0.0
  0
LINE
  5
426
330
1F
100
AcDbEntity
  8
0
  6
Continuous
 62
     7
370
    30
100
AcDbLine
 10
228.4798257253
 20
157.6093683744
 30
0.0
 11
228.9746282102
 21
157.4060355039
 31
0.0
  0
ARC
  5
427
330
1F
100
AcDbEntity
  8
0
  6
Continuous
 62
     7
370
    30
100
AcDbCircle
 10
222.4798257253
 20
157.1461496027
 30
0.0
 40
6.500000000000016
100
AcDbArc
 50
13.6245822667
 51
15.8763418809
  0
LINE
  5
428
330
1F
100
AcDbEntity
  8
0
  6
Continuous
 62
     7
370
    30
100
AcDbLine
 10
228.4798257253
 20
158.9631189594
 30
0.0
 11
228.7318789913
 21
158.9243031275
 31
0.0
  0
LINE
  5
429
330
1F
100
AcDbEntity
  8
0
  6
Continuous
 62
     7
370
    30
100
AcDbLine
 10
228.7969158904
 20
158.6772837724
 30
0.0
 11
228.4798257253
 21
158.4272596536
 31
0.0
  0
ARC
  5
42A
330
1F
100
AcDbEntity
  8
0
  6
Continuous
 62
     7
370
    30
100
AcDbCircle
 10
222.4798257253
 20
157.1461496027
 30
0.0
 40
6.499999999999974
100
AcDbArc
 50
353.2472237761
 51
355.4989833903
  0
LINE
  5
42B
330
1F
100
AcDbEntity
  8
0
  6
Continuous
 62
     7
370
    30
100
AcDbLine
 10
228.9347336692
 20
156.3818437506
 30
0.0
 11
228.4798257253
 21
156.2351031126
 31
0.0
  0
LINE
  5
42C
330
1F
100
AcDbEntity
  8
0
  6
Continuous
 62
     7
370
    30
100
AcDbLine
 10
228.4798257253
 20
156.9035410104
 30
0.0
 11
228.9597793448
 21
156.6360505053
 31
0.0
  0
ARC
  5
42D
330
1F
100
AcDbEntity
  8
0
  6
Continuous
 62
     7
370
    30
100
AcDbCircle
 10
222.4798257253
 20
157.1461496027
 30
0.0
 40
6.499999999999958
100
AcDbArc
 50
6.8321294365
 51
9.0838890507
  0
LINE
  5
42E
330
1F
100
AcDbEntity
  8
0
  6
Continuous
 62
     7
370
    30
100
AcDbLine
 10
228.9336689344
 20
157.9193946039
 30
0.0
 11
228.4798257253
 21
157.6416803433
 31
0.0
  0
LINE
  5
42F
330
1F
100
AcDbEntity
  8
0
  6
Continuous
 62
     7
370
    30
100
AcDbLine
 10
228.4798257253
 20
158.288797544
 30
0.0
 11
228.8983042855
 21
158.1723722741
 31
0.0
  0
ARC
  5
430
330
1F
100
AcDbEntity
  8
0
  6
Continuous
 62
     7
370
    30
100
AcDbCircle
 10
222.4798257253
 20
157.1461496027
 30
0.0
 40
6.499999999999999
100
AcDbArc
 50
20.4170350968
 51
22.6687947111
  0
LINE
  5
431
330
1F
100
AcDbEntity
  8
0
  6
Continuous
 62
     7
370
    30
100
AcDbLine
 10
228.5714847477
 20
159.4136791735
 30
0.0
 11
228.4798257253
 21
159.3218662297
 31
0.0
  0
ARC
  5
432
330
1F
100
AcDbEntity
  8
0
  6
Continuous
 62
     7
370
    30
100
AcDbCircle
 10
222.4798257253
 20
157.1461496027
 30
0.0
 40
6.49999999999999
100
AcDbArc
 50
339.6623181157
 51
341.91407773
  0
LINE
  5
433
330
1F
100
AcDbEntity
  8
0
  6
Continuous
 62
     7
370
    30
100
AcDbLine
 10
228.4798257253
 20
155.2934053315
 30
0.0
 11
228.6586739657
 21
155.1282709091
 31
0.0
  0
LINE
  5
434
330
1F
100
AcDbEntity
  8
0
  6
Continuous
 62
     7
370
    30
100
AcDbLine
 10
228.5746193757
 20
154.8870589982
 30
0.0
 11
228.4798257253
 21
154.8799424912
 31
0.0
  0
ARC
  5
435
330
1F
100
AcDbEntity
  8
0
  6
Continuous
 62
     7
370
    30
100
AcDbCircle
 10
222.4798257253
 20
157.1461496027
 30
0.0
 40
6.500000000000028
100
AcDbArc
 50
346.4547709459
 51
348.7065305601
  0
LINE
  5
436
330
1F
100
AcDbEntity
  8
0
  6
Continuous
 62
     7
370
    30
100
AcDbLine
 10
228.4798257253
 20
156.14430258
 30
0.0
 11
228.8539661347
 21
155.8732261799
 31
0.0
  0
LINE
  5
437
330
1F
100
AcDbEntity
  8
0
  6
Continuous
 62
     7
370
    30
100
AcDbLine
 10
228.7990304134
 20
155.6237659094
 30
0.0
 11
228.4798257253
 21
155.5612225715
 31
0.0
  0
LINE
  5
438
330
1F
100
AcDbEntity
  8
0
  6
Continuous
 62
     7
370
    30
100
AcDbLine
 10
217.9798257253
 20
173.4135180727
 30
0.0
 11
209.9798257253
 21
173.4135180727
 31
0.0
  0
LINE
  5
439
330
1F
100
AcDbEntity
  8
0
  6
Continuous
 62
     7
370
    30
100
AcDbLine
 10
199.4697354031
 20
163.1461496027
 30
0.0
 11
188.4798257253
 21
159.1461496027
 31
0.0
  0
LINE
  5
43A
330
1F
100
AcDbEntity
  8
0
  6
Continuous
 62
     7
370
    30
100
AcDbLine
 10
228.4798257253
 20
163.1461496027
 30
0.0
 11
199.4697354031
 21
163.1461496027
 31
0.0
  0
LINE
  5
43B
330
1F
100
AcDbEntity
  8
0
  6
Continuous
 62
     7
370
    30
100
AcDbLine
 10
228.4798257253
 20
151.1461496027
 30
0.0
 11
228.4798257253
 21
163.1461496027
 31
0.0
  0
LINE
  5
43C
330
1F
100
AcDbEntity
  8
0
  6
Continuous
 62
     7
370
    30
100
AcDbLine
 10
181.4798257253
 20
151.1461496027
 30
0.0
 11
228.4798257253
 21
151.1461496027
 31
0.0
  0
LINE
  5
43D
330
1F
100
AcDbEntity
  8
0
  6
Continuous
 62
     7
370
    30
100
AcDbLine
 10
181.4798257253
 20
159.1461496027
 30
0.0
 11
181.4798257253
 21
151.1461496027
 31
0.0
  0
LINE
  5
43E
330
1F
100
AcDbEntity
  8
0
  6
Continuous
 62
     7
370
    30
100
AcDbLine
 10
188.4798257253
 20
159.1461496027
 30
0.0
 11
181.4798257253
 21
159.1461496027
 31
0.0
  0
CIRCLE
  5
43F
330
1F
100
AcDbEntity
  8
0
  6
Continuous
 62
     7
370
    30
100
AcDbCircle
 10
222.4798257253
 20
157.1461496027
 30
0.0
 40
1.650000000000034
  0
LINE
  5
440
330
1F
100
AcDbEntity
  8
0
  6
Continuous
 62
     7
370
    30
100
AcDbLine
 10
181.4798257253
 20
151.1461496027
 30
0.0
 11
176.4798257253
 21
151.1461496027
 31
0.0
  0
LINE
  5
441
330
1F
100
AcDbEntity
  8
0
  6
Continuous
 62
     7
370
    30
100
AcDbLine
 10
176.4798257253
 20
151.1461496027
 30
0.0
 11
176.4798257253
 21
159.1461496027
 31
0.0
  0
LINE
  5
442
330
1F
100
AcDbEntity
  8
0
  6
Continuous
 62
     7
370
    30
100
AcDbLine
 10
176.4798257253
 20
159.1461496027
 30
0.0
 11
181.4798257253
 21
159.1461496027
 31
0.0
  0
LINE
  5
443
330
1F
100
AcDbEntity
  8
0
  6
Continuous
 62
     7
370
    30
100
AcDbLine
 10
181.4798257253
 20
92.9215957642
 30
0.0
 11
158.9798257253
 21
103.4135180727
 31
0.0
  0
LINE
  5
444
330
1F
100
AcDbEntity
  8
0
  6
Continuous
 62
     7
370
    30
100
AcDbLine
 10
181.4798257253
 20
91.4135180727
 30
0.0
 11
181.4798257253
 21
92.9215957642
 31
0.0
  0
LINE
  5
445
330
1F
100
AcDbEntity
  8
0
  6
Continuous
 62
     7
370
    30
100
AcDbLine
 10
183.4798257253
 20
91.4135180727
 30
0.0
 11
181.4798257253
 21
91.4135180727
 31
0.0
  0
LINE
  5
446
330
1F
100
AcDbEntity
  8
0
  6
Continuous
 62
     7
370
    30
100
AcDbLine
 10
205.9798257253
 20
103.4135180727
 30
0.0
 11
183.4798257253
 21
92.9215957642
 31
0.0
  0
LINE
  5
447
330
1F
100
AcDbEntity
  8
0
  6
Continuous
 62
     7
370
    30
100
AcDbLine
 10
158.9798257253
 20
103.4135180727
 30
0.0
 11
156.4798257253
 21
103.4135180727
 31
0.0
  0
LINE
  5
448
330
1F
100
AcDbEntity
  8
0
  6
Continuous
 62
     7
370
    30
100
AcDbLine
 10
183.4798257253
 20
92.9215957642
 30
0.0
 11
183.4798257253
 21
91.4135180727
 31
0.0
  0
LINE
  5
449
330
1F
100
AcDbEntity
  8
0
  6
Continuous
 62
     7
370
    30
100
AcDbLine
 10
156.4798257253
 20
103.4135180727
 30
0.0
 11
156.4798257253
 21
81.4135180727
 31
0.0
  0
LINE
  5
44A
330
1F
100
AcDbEntity
  8
0
  6
Continuous
 62
     7
370
    30
100
AcDbLine
 10
156.4798257253
 20
81.4135180727
 30
0.0
 11
231.4798257253
 21
81.4135180727
 31
0.0
  0
LINE
  5
44B
330
1F
100
AcDbEntity
  8
0
  6
Continuous
 62
     7
370
    30
100
AcDbLine
 10
231.4798257253
 20
81.4135180727
 30
0.0
 11
231.4798257253
 21
103.4135180727
 31
0.0
  0
LINE
  5
44C
330
1F
100
AcDbEntity
  8
0
  6
Continuous
 62
     7
370
    30
100
AcDbLine
 10
231.4798257253
 20
103.4135180727
 30
0.0
 11
205.9798257253
 21
103.4135180727
 31
0.0
  0
CIRCLE
  5
44D
330
1F
100
AcDbEntity
  8
SLD-0
  6
HIDDEN
 62
     7
370
     0
100
AcDbCircle
 10
182.4798257253
 20
121.143113999
 30
0.0
 40
26.00000000000003
  0
DIMENSION
  5
44E
330
1F
100
AcDbEntity
  8
SLD-0
 62
     7
100
AcDbDimension
  2
_D_5
 10
201.4133410236
 20
103.3239670372
 30
0.0
 11
140.176785806
 21
151.8400348272
 31
0.0
 70
   163
  1
Max:<>
 71
     1
 42
-1.0
  3
SLDDIMSTYLE2
100
AcDbDiametricDimension
 15
163.5463104269
 25
138.9622609609
 35
0.0
 40
0.0
  0
DIMENSION
  5
459
330
1F
100
AcDbEntity
  8
SLD-0
 62
     7
100
AcDbDimension
  2
_D_6
 10
252.4798257253
 20
173.4135180727
 30
0.0
 11
252.4798257253
 21
127.4135180727
 31
0.0
 70
   160
  1
<>
 71
     2
 42
-1.0
  3
SLDDIMSTYLE0
100
AcDbAlignedDimension
 13
231.4798257253
 23
81.4135180727
 33
0.0
 14
217.9798257253
 24
173.4135180727
 34
0.0
 50
90.0
100
AcDbRotatedDimension
  0
DIMENSION
  5
463
330
1F
100
AcDbEntity
  8
SLD-0
 62
     7
100
AcDbDimension
  2
_D_7
 10
245.0240935312
 20
81.4135180727
 30
0.0
 11
245.0240935312
 21
92.4135180727
 31
0.0
 70
   160
  1
<>
 71
     2
 42
-1.0
  3
SLDDIMSTYLE0
100
AcDbAlignedDimension
 13
231.4798257253
 23
103.4135180727
 33
0.0
 14
231.4798257253
 24
81.4135180727
 34
0.0
 50
90.0
100
AcDbRotatedDimension
  0
DIMENSION
  5
46D
330
1F
100
AcDbEntity
  8
SLD-0
 62
     7
100
AcDbDimension
  2
_D_8
 10
231.4798257253
 20
65.7248173589
 30
0.0
 11
193.9798257253
 21
65.7248173589
 31
0.0
 70
   160
  1
<>
 71
     2
 42
-1.0
  3
SLDDIMSTYLE0
100
AcDbAlignedDimension
 13
156.4798257253
 23
81.4135180727
 33
0.0
 14
231.4798257253
 24
81.4135180727
 34
0.0
100
AcDbRotatedDimension
  0
LINE
  5
477
330
1F
100
AcDbEntity
  8
0
  6
Continuous
 62
     7
370
    30
100
AcDbLine
 10
86.5871677533
 20
151.1461496025
 30
0.0
 11
86.5871677533
 21
150.1461496027
 31
0.0
  0
LINE
  5
478
330
1F
100
AcDbEntity
  8
0
  6
Continuous
 62
     7
370
    30
100
AcDbLine
 10
88.1871677533
 20
150.1461496027
 30
0.0
 11
88.1871677533
 21
151.1461496025
 31
0.0
  0
LINE
  5
479
330
1F
100
AcDbEntity
  8
0
  6
Continuous
 62
     7
370
    30
100
AcDbLine
 10
73.3871677533
 20
163.6461496027
 30
0.0
 11
72.8871677533
 21
163.1461496027
 31
0.0
  0
LINE
  5
47A
330
1F
100
AcDbEntity
  8
0
  6
Continuous
 62
     7
370
    30
100
AcDbLine
 10
80.8871677533
 20
163.1461496027
 30
0.0
 11
80.3871677533
 21
163.6461496027
 31
0.0
  0
LINE
  5
47B
330
1F
100
AcDbEntity
  8
0
  6
Continuous
 62
     7
370
    30
100
AcDbLine
 10
72.8871677533
 20
151.1461496027
 30
0.0
 11
72.9869198294
 21
151.0463975266
 31
0.0
  0
LINE
  5
47C
330
1F
100
AcDbEntity
  8
0
  6
Continuous
 62
     7
370
    30
100
AcDbLine
 10
80.7874156773
 20
151.0463975266
 30
0.0
 11
80.8871677533
 21
151.1461496027
 31
0.0
  0
LINE
  5
47D
330
1F
100
AcDbEntity
  8
0
  6
Continuous
 62
     7
370
    30
100
AcDbLine
 10
80.3871677533
 20
163.6461496027
 30
0.0
 11
73.3871677533
 21
163.6461496027
 31
0.0
  0
LINE
  5
47E
330
1F
100
AcDbEntity
  8
0
  6
Continuous
 62
     7
370
    30
100
AcDbLine
 10
81.3871677533
 20
160.6461496027
 30
0.0
 11
80.8871677533
 21
160.6461496027
 31
0.0
  0
LINE
  5
47F
330
1F
100
AcDbEntity
  8
0
  6
Continuous
 62
     7
370
    30
100
AcDbLine
 10
80.8871677533
 20
153.6461496027
 30
0.0
 11
81.3871677533
 21
153.6461496027
 31
0.0
  0
LINE
  5
480
330
1F
100
AcDbEntity
  8
0
  6
Continuous
 62
     7
370
    30
100
AcDbLine
 10
83.3871677533
 20
173.4135180727
 30
0.0
 11
83.3871677533
 21
163.1461496027
 31
0.0
  0
LINE
  5
481
330
1F
100
AcDbEntity
  8
0
  6
Continuous
 62
     7
370
    30
100
AcDbLine
 10
83.3871677533
 20
151.1461496027
 30
0.0
 11
83.3871677533
 21
103.4135180727
 31
0.0
  0
LINE
  5
482
330
1F
100
AcDbEntity
  8
0
  6
Continuous
 62
     7
370
    30
100
AcDbLine
 10
91.3871677533
 20
103.4135180727
 30
0.0
 11
91.3871677533
 21
151.1461496027
 31
0.0
  0
LINE
  5
483
330
1F
100
AcDbEntity
  8
0
  6
Continuous
 62
     7
370
    30
100
AcDbLine
 10
91.3871677533
 20
163.1461496027
 30
0.0
 11
91.3871677533
 21
173.4135180727
 31
0.0
  0
LINE
  5
484
330
1F
100
AcDbEntity
  8
0
  6
Continuous
 62
     7
370
    30
100
AcDbLine
 10
88.1871677533
 20
150.1461496027
 30
0.0
 11
86.5871677533
 21
150.1461496027
 31
0.0
  0
LINE
  5
485
330
1F
100
AcDbEntity
  8
0
  6
Continuous
 62
     7
370
    30
100
AcDbLine
 10
72.8871677533
 20
157.728077987
 30
0.0
 11
73.3871677533
 21
157.5267203291
 31
0.0
  0
LINE
  5
486
330
1F
100
AcDbEntity
  8
0
  6
Continuous
 62
     7
370
    30
100
AcDbLine
 10
73.3871677533
 20
157.5267203291
 30
0.0
 11
73.3871677533
 21
157.271476308
 31
0.0
  0
LINE
  5
487
330
1F
100
AcDbEntity
  8
0
  6
Continuous
 62
     7
370
    30
100
AcDbLine
 10
73.3871677533
 20
157.271476308
 30
0.0
 11
72.8871677533
 21
157.0305025929
 31
0.0
  0
LINE
  5
488
330
1F
100
AcDbEntity
  8
0
  6
Continuous
 62
     7
370
    30
100
AcDbLine
 10
72.8871677533
 20
157.0305025929
 30
0.0
 11
72.8871677533
 21
157.728077987
 31
0.0
  0
LINE
  5
489
330
1F
100
AcDbEntity
  8
0
  6
Continuous
 62
     7
370
    30
100
AcDbLine
 10
80.3871677533
 20
157.271476308
 30
0.0
 11
80.3871677533
 21
157.5267203291
 31
0.0
  0
LINE
  5
48A
330
1F
100
AcDbEntity
  8
0
  6
Continuous
 62
     7
370
    30
100
AcDbLine
 10
80.3871677533
 20
157.5267203291
 30
0.0
 11
80.8871677533
 21
157.728077987
 31
0.0
  0
LINE
  5
48B
330
1F
100
AcDbEntity
  8
0
  6
Continuous
 62
     7
370
    30
100
AcDbLine
 10
80.8871677533
 20
157.0305025929
 30
0.0
 11
80.3871677533
 21
157.271476308
 31
0.0
  0
LINE
  5
48C
330
1F
100
AcDbEntity
  8
0
  6
Continuous
 62
     7
370
    30
100
AcDbLine
 10
80.8871677533
 20
157.728077987
 30
0.0
 11
80.8871677533
 21
157.0305025929
 31
0.0
  0
LINE
  5
48D
330
1F
100
AcDbEntity
  8
0
  6
Continuous
 62
     7
370
    30
100
AcDbLine
 10
80.3871677533
 20
157.5267203291
 30
0.0
 11
73.3871677533
 21
157.5267203291
 31
0.0
  0
LINE
  5
48E
330
1F
100
AcDbEntity
  8
0
  6
Continuous
 62
     7
370
    30
100
AcDbLine
 10
73.3871677533
 20
157.271476308
 30
0.0
 11
80.3871677533
 21
157.271476308
 31
0.0
  0
LINE
  5
48F
330
1F
100
AcDbEntity
  8
0
  6
Continuous
 62
     7
370
    30
100
AcDbLine
 10
72.8871677533
 20
157.0177000235
 30
0.0
 11
73.3871677533
 21
156.7565923511
 31
0.0
  0
LINE
  5
490
330
1F
100
AcDbEntity
  8
0
  6
Continuous
 62
     7
370
    30
100
AcDbLine
 10
73.3871677533
 20
156.7565923511
 30
0.0
 11
73.3871677533
 21
156.5019639535
 31
0.0
  0
LINE
  5
491
330
1F
100
AcDbEntity
  8
0
  6
Continuous
 62
     7
370
    30
100
AcDbLine
 10
73.3871677533
 20
156.5019639535
 30
0.0
 11
72.8871677533
 21
156.3218071126
 31
0.0
  0
LINE
  5
492
330
1F
100
AcDbEntity
  8
0
  6
Continuous
 62
     7
370
    30
100
AcDbLine
 10
72.8871677533
 20
156.3218071126
 30
0.0
 11
72.8871677533
 21
157.0177000235
 31
0.0
  0
LINE
  5
493
330
1F
100
AcDbEntity
  8
0
  6
Continuous
 62
     7
370
    30
100
AcDbLine
 10
80.3871677533
 20
156.5019639535
 30
0.0
 11
80.3871677533
 21
156.7565923511
 31
0.0
  0
LINE
  5
494
330
1F
100
AcDbEntity
  8
0
  6
Continuous
 62
     7
370
    30
100
AcDbLine
 10
80.3871677533
 20
156.7565923511
 30
0.0
 11
80.8871677533
 21
157.0177000235
 31
0.0
  0
LINE
  5
495
330
1F
100
AcDbEntity
  8
0
  6
Continuous
 62
     7
370
    30
100
AcDbLine
 10
80.8871677533
 20
156.3218071126
 30
0.0
 11
80.3871677533
 21
156.5019639535
 31
0.0
  0
LINE
  5
496
330
1F
100
AcDbEntity
  8
0
  6
Continuous
 62
     7
370
    30
100
AcDbLine
 10
80.8871677533
 20
157.0177000235
 30
0.0
 11
80.8871677533
 21
156.3218071126
 31
0.0
  0
LINE
  5
497
330
1F
100
AcDbEntity
  8
0
  6
Continuous
 62
     7
370
    30
100
AcDbLine
 10
80.3871677533
 20
156.7565923511
 30
0.0
 11
73.3871677533
 21
156.7565923511
 31
0.0
  0
LINE
  5
498
330
1F
100
AcDbEntity
  8
0
  6
Continuous
 62
     7
370
    30
100
AcDbLine
 10
73.3871677533
 20
156.5019639535
 30
0.0
 11
80.3871677533
 21
156.5019639535
 31
0.0
  0
LINE
  5
499
330
1F
100
AcDbEntity
  8
0
  6
Continuous
 62
     7
370
    30
100
AcDbLine
 10
72.8871677533
 20
158.4302869516
 30
0.0
 11
73.3871677533
 21
158.2915059282
 31
0.0
  0
LINE
  5
49A
330
1F
100
AcDbEntity
  8
0
  6
Continuous
 62
     7
370
    30
100
AcDbLine
 10
73.3871677533
 20
158.2915059282
 30
0.0
 11
73.3871677533
 21
158.0392293503
 31
0.0
  0
LINE
  5
49B
330
1F
100
AcDbEntity
  8
0
  6
Continuous
 62
     7
370
    30
100
AcDbLine
 10
73.3871677533
 20
158.0392293503
 30
0.0
 11
72.8871677533
 21
157.7408215037
 31
0.0
  0
LINE
  5
49C
330
1F
100
AcDbEntity
  8
0
  6
Continuous
 62
     7
370
    30
100
AcDbLine
 10
72.8871677533
 20
157.7408215037
 30
0.0
 11
72.8871677533
 21
158.4302869516
 31
0.0
  0
LINE
  5
49D
330
1F
100
AcDbEntity
  8
0
  6
Continuous
 62
     7
370
    30
100
AcDbLine
 10
80.3871677533
 20
158.0392293503
 30
0.0
 11
80.3871677533
 21
158.2915059282
 31
0.0
  0
LINE
  5
49E
330
1F
100
AcDbEntity
  8
0
  6
Continuous
 62
     7
370
    30
100
AcDbLine
 10
80.3871677533
 20
158.2915059282
 30
0.0
 11
80.8871677533
 21
158.4302869516
 31
0.0
  0
LINE
  5
49F
330
1F
100
AcDbEntity
  8
0
  6
Continuous
 62
     7
370
    30
100
AcDbLine
 10
80.8871677533
 20
157.7408215037
 30
0.0
 11
80.3871677533
 21
158.0392293503
 31
0.0
  0
LINE
  5
4A0
330
1F
100
AcDbEntity
  8
0
  6
Continuous
 62
     7
370
    30
100
AcDbLine
 10
80.8871677533
 20
158.4302869516
 30
0.0
 11
80.8871677533
 21
157.7408215037
 31
0.0
  0
LINE
  5
4A1
330
1F
100
AcDbEntity
  8
0
  6
Continuous
 62
     7
370
    30
100
AcDbLine
 10
80.8871677533
 20
157.024358006
 30
0.0
 11
72.8871677533
 21
157.024358006
 31
0.0
  0
LINE
  5
4A2
330
1F
100
AcDbEntity
  8
0
  6
Continuous
 62
     7
370
    30
100
AcDbLine
 10
80.8871677533
 20
157.0305025929
 30
0.0
 11
80.8871677533
 21
157.024358006
 31
0.0
  0
LINE
  5
4A3
330
1F
100
AcDbEntity
  8
0
  6
Continuous
 62
     7
370
    30
100
AcDbLine
 10
72.8871677533
 20
157.0305025929
 30
0.0
 11
72.8871677533
 21
157.024358006
 31
0.0
  0
LINE
  5
4A4
330
1F
100
AcDbEntity
  8
0
  6
Continuous
 62
     7
370
    30
100
AcDbLine
 10
80.8871677533
 20
157.7332124044
 30
0.0
 11
72.8871677533
 21
157.7332124044
 31
0.0
  0
LINE
  5
4A5
330
1F
100
AcDbEntity
  8
0
  6
Continuous
 62
     7
370
    30
100
AcDbLine
 10
80.8871677533
 20
157.7332124044
 30
0.0
 11
80.8871677533
 21
157.728077987
 31
0.0
  0
LINE
  5
4A6
330
1F
100
AcDbEntity
  8
0
  6
Continuous
 62
     7
370
    30
100
AcDbLine
 10
72.8871677533
 20
157.7332124044
 30
0.0
 11
72.8871677533
 21
157.728077987
 31
0.0
  0
LINE
  5
4A7
330
1F
100
AcDbEntity
  8
0
  6
Continuous
 62
     7
370
    30
100
AcDbLine
 10
80.8871677533
 20
157.024358006
 30
0.0
 11
80.8871677533
 21
157.0177000235
 31
0.0
  0
LINE
  5
4A8
330
1F
100
AcDbEntity
  8
0
  6
Continuous
 62
     7
370
    30
100
AcDbLine
 10
72.8871677533
 20
157.024358006
 30
0.0
 11
72.8871677533
 21
157.0177000235
 31
0.0
  0
LINE
  5
4A9
330
1F
100
AcDbEntity
  8
0
  6
Continuous
 62
     7
370
    30
100
AcDbLine
 10
73.3871677533
 20
158.0392293503
 30
0.0
 11
80.3871677533
 21
158.0392293503
 31
0.0
  0
LINE
  5
4AA
330
1F
100
AcDbEntity
  8
0
  6
Continuous
 62
     7
370
    30
100
AcDbLine
 10
80.8871677533
 20
157.7408215037
 30
0.0
 11
80.8871677533
 21
157.7332124044
 31
0.0
  0
LINE
  5
4AB
330
1F
100
AcDbEntity
  8
0
  6
Continuous
 62
     7
370
    30
100
AcDbLine
 10
72.8871677533
 20
157.7408215037
 30
0.0
 11
72.8871677533
 21
157.7332124044
 31
0.0
  0
LINE
  5
4AC
330
1F
100
AcDbEntity
  8
0
  6
Continuous
 62
     7
370
    30
100
AcDbLine
 10
80.3871677533
 20
158.2915059282
 30
0.0
 11
73.3871677533
 21
158.2915059282
 31
0.0
  0
LINE
  5
4AD
330
1F
100
AcDbEntity
  8
0
  6
Continuous
 62
     7
370
    30
100
AcDbLine
 10
80.8871677533
 20
156.3172132947
 30
0.0
 11
72.8871677533
 21
156.3172132947
 31
0.0
  0
LINE
  5
4AE
330
1F
100
AcDbEntity
  8
0
  6
Continuous
 62
     7
370
    30
100
AcDbLine
 10
80.8871677533
 20
156.3218071126
 30
0.0
 11
80.8871677533
 21
156.3172132947
 31
0.0
  0
LINE
  5
4AF
330
1F
100
AcDbEntity
  8
0
  6
Continuous
 62
     7
370
    30
100
AcDbLine
 10
72.8871677533
 20
156.3218071126
 30
0.0
 11
72.8871677533
 21
156.3172132947
 31
0.0
  0
LINE
  5
4B0
330
1F
100
AcDbEntity
  8
0
  6
Continuous
 62
     7
370
    30
100
AcDbLine
 10
80.3871677533
 20
155.991932903
 30
0.0
 11
73.3871677533
 21
155.991932903
 31
0.0
  0
LINE
  5
4B1
330
1F
100
AcDbEntity
  8
0
  6
Continuous
 62
     7
370
    30
100
AcDbLine
 10
80.3871677533
 20
155.7414945534
 30
0.0
 11
80.3871677533
 21
155.991932903
 31
0.0
  0
LINE
  5
4B2
330
1F
100
AcDbEntity
  8
0
  6
Continuous
 62
     7
370
    30
100
AcDbLine
 10
73.3871677533
 20
155.7414945534
 30
0.0
 11
80.3871677533
 21
155.7414945534
 31
0.0
  0
LINE
  5
4B3
330
1F
100
AcDbEntity
  8
0
  6
Continuous
 62
     7
370
    30
100
AcDbLine
 10
73.3871677533
 20
155.991932903
 30
0.0
 11
73.3871677533
 21
155.7414945534
 31
0.0
  0
LINE
  5
4B4
330
1F
100
AcDbEntity
  8
0
  6
Continuous
 62
     7
370
    30
100
AcDbLine
 10
72.8871677533
 20
156.3091252106
 30
0.0
 11
73.3871677533
 21
155.991932903
 31
0.0
  0
LINE
  5
4B5
330
1F
100
AcDbEntity
  8
0
  6
Continuous
 62
     7
370
    30
100
AcDbLine
 10
73.3871677533
 20
155.7414945534
 30
0.0
 11
72.8871677533
 21
155.6246835939
 31
0.0
  0
LINE
  5
4B6
330
1F
100
AcDbEntity
  8
0
  6
Continuous
 62
     7
370
    30
100
AcDbLine
 10
72.8871677533
 20
155.6246835939
 30
0.0
 11
72.8871677533
 21
156.3091252106
 31
0.0
  0
LINE
  5
4B7
330
1F
100
AcDbEntity
  8
0
  6
Continuous
 62
     7
370
    30
100
AcDbLine
 10
80.3871677533
 20
155.991932903
 30
0.0
 11
80.8871677533
 21
156.3091252106
 31
0.0
  0
LINE
  5
4B8
330
1F
100
AcDbEntity
  8
0
  6
Continuous
 62
     7
370
    30
100
AcDbLine
 10
80.8871677533
 20
155.6246835939
 30
0.0
 11
80.3871677533
 21
155.7414945534
 31
0.0
  0
LINE
  5
4B9
330
1F
100
AcDbEntity
  8
0
  6
Continuous
 62
     7
370
    30
100
AcDbLine
 10
80.8871677533
 20
156.3091252106
 30
0.0
 11
80.8871677533
 21
155.6246835939
 31
0.0
  0
LINE
  5
4BA
330
1F
100
AcDbEntity
  8
0
  6
Continuous
 62
     7
370
    30
100
AcDbLine
 10
80.8871677533
 20
158.4338257278
 30
0.0
 11
72.8871677533
 21
158.4338257278
 31
0.0
  0
LINE
  5
4BB
330
1F
100
AcDbEntity
  8
0
  6
Continuous
 62
     7
370
    30
100
AcDbLine
 10
80.8871677533
 20
158.4338257278
 30
0.0
 11
80.8871677533
 21
158.4302869516
 31
0.0
  0
LINE
  5
4BC
330
1F
100
AcDbEntity
  8
0
  6
Continuous
 62
     7
370
    30
100
AcDbLine
 10
72.8871677533
 20
158.4338257278
 30
0.0
 11
72.8871677533
 21
158.4302869516
 31
0.0
  0
LINE
  5
4BD
330
1F
100
AcDbEntity
  8
0
  6
Continuous
 62
     7
370
    30
100
AcDbLine
 10
80.8871677533
 20
156.3172132947
 30
0.0
 11
80.8871677533
 21
156.3091252106
 31
0.0
  0
LINE
  5
4BE
330
1F
100
AcDbEntity
  8
0
  6
Continuous
 62
     7
370
    30
100
AcDbLine
 10
72.8871677533
 20
156.3172132947
 30
0.0
 11
72.8871677533
 21
156.3091252106
 31
0.0
  0
LINE
  5
4BF
330
1F
100
AcDbEntity
  8
0
  6
Continuous
 62
     7
370
    30
100
AcDbLine
 10
72.8871677533
 20
159.1144694427
 30
0.0
 11
73.3871677533
 21
159.0402132353
 31
0.0
  0
LINE
  5
4C0
330
1F
100
AcDbEntity
  8
0
  6
Continuous
 62
     7
370
    30
100
AcDbLine
 10
73.3871677533
 20
159.0402132353
 30
0.0
 11
73.3871677533
 21
158.7944455106
 31
0.0
  0
LINE
  5
4C1
330
1F
100
AcDbEntity
  8
0
  6
Continuous
 62
     7
370
    30
100
AcDbLine
 10
73.3871677533
 20
158.7944455106
 30
0.0
 11
72.8871677533
 21
158.4427925246
 31
0.0
  0
LINE
  5
4C2
330
1F
100
AcDbEntity
  8
0
  6
Continuous
 62
     7
370
    30
100
AcDbLine
 10
72.8871677533
 20
158.4427925246
 30
0.0
 11
72.8871677533
 21
159.1144694427
 31
0.0
  0
LINE
  5
4C3
330
1F
100
AcDbEntity
  8
0
  6
Continuous
 62
     7
370
    30
100
AcDbLine
 10
80.3871677533
 20
158.7944455106
 30
0.0
 11
80.3871677533
 21
159.0402132353
 31
0.0
  0
LINE
  5
4C4
330
1F
100
AcDbEntity
  8
0
  6
Continuous
 62
     7
370
    30
100
AcDbLine
 10
80.3871677533
 20
159.0402132353
 30
0.0
 11
80.8871677533
 21
159.1144694427
 31
0.0
  0
LINE
  5
4C5
330
1F
100
AcDbEntity
  8
0
  6
Continuous
 62
     7
370
    30
100
AcDbLine
 10
80.8871677533
 20
158.4427925246
 30
0.0
 11
80.3871677533
 21
158.7944455106
 31
0.0
  0
LINE
  5
4C6
330
1F
100
AcDbEntity
  8
0
  6
Continuous
 62
     7
370
    30
100
AcDbLine
 10
80.8871677533
 20
159.1144694427
 30
0.0
 11
80.8871677533
 21
158.4427925246
 31
0.0
  0
LINE
  5
4C7
330
1F
100
AcDbEntity
  8
0
  6
Continuous
 62
     7
370
    30
100
AcDbLine
 10
73.3871677533
 20
158.7944455106
 30
0.0
 11
80.3871677533
 21
158.7944455106
 31
0.0
  0
LINE
  5
4C8
330
1F
100
AcDbEntity
  8
0
  6
Continuous
 62
     7
370
    30
100
AcDbLine
 10
80.8871677533
 20
158.4427925246
 30
0.0
 11
80.8871677533
 21
158.4338257278
 31
0.0
  0
LINE
  5
4C9
330
1F
100
AcDbEntity
  8
0
  6
Continuous
 62
     7
370
    30
100
AcDbLine
 10
72.8871677533
 20
158.4427925246
 30
0.0
 11
72.8871677533
 21
158.4338257278
 31
0.0
  0
LINE
  5
4CA
330
1F
100
AcDbEntity
  8
0
  6
Continuous
 62
     7
370
    30
100
AcDbLine
 10
80.8871677533
 20
155.6217050322
 30
0.0
 11
72.8871677533
 21
155.6217050322
 31
0.0
  0
LINE
  5
4CB
330
1F
100
AcDbEntity
  8
0
  6
Continuous
 62
     7
370
    30
100
AcDbLine
 10
80.8871677533
 20
155.6246835939
 30
0.0
 11
80.8871677533
 21
155.6217050322
 31
0.0
  0
LINE
  5
4CC
330
1F
100
AcDbEntity
  8
0
  6
Continuous
 62
     7
370
    30
100
AcDbLine
 10
72.8871677533
 20
155.6246835939
 30
0.0
 11
72.8871677533
 21
155.6217050322
 31
0.0
  0
LINE
  5
4CD
330
1F
100
AcDbEntity
  8
0
  6
Continuous
 62
     7
370
    30
100
AcDbLine
 10
80.3871677533
 20
159.0402132353
 30
0.0
 11
73.3871677533
 21
159.0402132353
 31
0.0
  0
LINE
  5
4CE
330
1F
100
AcDbEntity
  8
0
  6
Continuous
 62
     7
370
    30
100
AcDbLine
 10
80.3871677533
 20
155.2434761273
 30
0.0
 11
73.3871677533
 21
155.2434761273
 31
0.0
  0
LINE
  5
4CF
330
1F
100
AcDbEntity
  8
0
  6
Continuous
 62
     7
370
    30
100
AcDbLine
 10
80.3871677533
 20
155.0007434312
 30
0.0
 11
80.3871677533
 21
155.2434761273
 31
0.0
  0
LINE
  5
4D0
330
1F
100
AcDbEntity
  8
0
  6
Continuous
 62
     7
370
    30
100
AcDbLine
 10
73.3871677533
 20
155.0007434312
 30
0.0
 11
80.3871677533
 21
155.0007434312
 31
0.0
  0
LINE
  5
4D1
330
1F
100
AcDbEntity
  8
0
  6
Continuous
 62
     7
370
    30
100
AcDbLine
 10
73.3871677533
 20
155.2434761273
 30
0.0
 11
73.3871677533
 21
155.0007434312
 31
0.0
  0
LINE
  5
4D2
330
1F
100
AcDbEntity
  8
0
  6
Continuous
 62
     7
370
    30
100
AcDbLine
 10
72.8871677533
 20
155.6123003853
 30
0.0
 11
73.3871677533
 21
155.2434761273
 31
0.0
  0
LINE
  5
4D3
330
1F
100
AcDbEntity
  8
0
  6
Continuous
 62
     7
370
    30
100
AcDbLine
 10
73.3871677533
 20
155.0007434312
 30
0.0
 11
72.8871677533
 21
154.9489181228
 31
0.0
  0
LINE
  5
4D4
330
1F
100
AcDbEntity
  8
0
  6
Continuous
 62
     7
370
    30
100
AcDbLine
 10
72.8871677533
 20
154.9489181228
 30
0.0
 11
72.8871677533
 21
155.6123003853
 31
0.0
  0
LINE
  5
4D5
330
1F
100
AcDbEntity
  8
0
  6
Continuous
 62
     7
370
    30
100
AcDbLine
 10
80.3871677533
 20
155.2434761273
 30
0.0
 11
80.8871677533
 21
155.6123003853
 31
0.0
  0
LINE
  5
4D6
330
1F
100
AcDbEntity
  8
0
  6
Continuous
 62
     7
370
    30
100
AcDbLine
 10
80.8871677533
 20
154.9489181228
 30
0.0
 11
80.3871677533
 21
155.0007434312
 31
0.0
  0
LINE
  5
4D7
330
1F
100
AcDbEntity
  8
0
  6
Continuous
 62
     7
370
    30
100
AcDbLine
 10
80.8871677533
 20
155.6123003853
 30
0.0
 11
80.8871677533
 21
154.9489181228
 31
0.0
  0
LINE
  5
4D8
330
1F
100
AcDbEntity
  8
0
  6
Continuous
 62
     7
370
    30
100
AcDbLine
 10
80.8871677533
 20
159.1163629011
 30
0.0
 11
72.8871677533
 21
159.1163629011
 31
0.0
  0
LINE
  5
4D9
330
1F
100
AcDbEntity
  8
0
  6
Continuous
 62
     7
370
    30
100
AcDbLine
 10
80.8871677533
 20
159.1163629011
 30
0.0
 11
80.8871677533
 21
159.1144694427
 31
0.0
  0
LINE
  5
4DA
330
1F
100
AcDbEntity
  8
0
  6
Continuous
 62
     7
370
    30
100
AcDbLine
 10
72.8871677533
 20
159.1163629011
 30
0.0
 11
72.8871677533
 21
159.1144694427
 31
0.0
  0
LINE
  5
4DB
330
1F
100
AcDbEntity
  8
0
  6
Continuous
 62
     7
370
    30
100
AcDbLine
 10
80.8871677533
 20
155.6217050322
 30
0.0
 11
80.8871677533
 21
155.6123003853
 31
0.0
  0
LINE
  5
4DC
330
1F
100
AcDbEntity
  8
0
  6
Continuous
 62
     7
370
    30
100
AcDbLine
 10
72.8871677533
 20
155.6217050322
 30
0.0
 11
72.8871677533
 21
155.6123003853
 31
0.0
  0
LINE
  5
4DD
330
1F
100
AcDbEntity
  8
0
  6
Continuous
 62
     7
370
    30
100
AcDbLine
 10
80.8871677533
 20
154.9475966297
 30
0.0
 11
72.8871677533
 21
154.9475966297
 31
0.0
  0
LINE
  5
4DE
330
1F
100
AcDbEntity
  8
0
  6
Continuous
 62
     7
370
    30
100
AcDbLine
 10
80.8871677533
 20
154.9489181228
 30
0.0
 11
80.8871677533
 21
154.9475966297
 31
0.0
  0
LINE
  5
4DF
330
1F
100
AcDbEntity
  8
0
  6
Continuous
 62
     7
370
    30
100
AcDbLine
 10
72.8871677533
 20
154.9489181228
 30
0.0
 11
72.8871677533
 21
154.9475966297
 31
0.0
  0
LINE
  5
4E0
330
1F
100
AcDbEntity
  8
0
  6
Continuous
 62
     7
370
    30
100
AcDbLine
 10
73.3871677533
 20
159.5265232094
 30
0.0
 11
72.8871677533
 21
159.1265615211
 31
0.0
  0
LINE
  5
4E1
330
1F
100
AcDbEntity
  8
0
  6
Continuous
 62
     7
370
    30
100
AcDbLine
 10
73.3871677533
 20
159.5265232094
 30
0.0
 11
80.3871677533
 21
159.5265232094
 31
0.0
  0
LINE
  5
4E2
330
1F
100
AcDbEntity
  8
0
  6
Continuous
 62
     7
370
    30
100
AcDbLine
 10
80.8871677533
 20
159.1265615211
 30
0.0
 11
80.3871677533
 21
159.5265232094
 31
0.0
  0
LINE
  5
4E3
330
1F
100
AcDbEntity
  8
0
  6
Continuous
 62
     7
370
    30
100
AcDbLine
 10
80.8871677533
 20
159.1265615211
 30
0.0
 11
80.8871677533
 21
159.1163629011
 31
0.0
  0
LINE
  5
4E4
330
1F
100
AcDbEntity
  8
0
  6
Continuous
 62
     7
370
    30
100
AcDbLine
 10
72.8871677533
 20
159.1265615211
 30
0.0
 11
72.8871677533
 21
159.1163629011
 31
0.0
  0
LINE
  5
4E5
330
1F
100
AcDbEntity
  8
0
  6
Continuous
 62
     7
370
    30
100
AcDbLine
 10
73.3871677533
 20
159.7623320407
 30
0.0
 11
73.3871677533
 21
159.5265232094
 31
0.0
  0
LINE
  5
4E6
330
1F
100
AcDbEntity
  8
0
  6
Continuous
 62
     7
370
    30
100
AcDbLine
 10
72.8871677533
 20
159.7710210378
 30
0.0
 11
73.3871677533
 21
159.7623320407
 31
0.0
  0
LINE
  5
4E7
330
1F
100
AcDbEntity
  8
0
  6
Continuous
 62
     7
370
    30
100
AcDbLine
 10
72.8871677533
 20
159.1265615211
 30
0.0
 11
72.8871677533
 21
159.7710210378
 31
0.0
  0
LINE
  5
4E8
330
1F
100
AcDbEntity
  8
0
  6
Continuous
 62
     7
370
    30
100
AcDbLine
 10
80.3871677533
 20
159.5265232094
 30
0.0
 11
80.3871677533
 21
159.7623320407
 31
0.0
  0
LINE
  5
4E9
330
1F
100
AcDbEntity
  8
0
  6
Continuous
 62
     7
370
    30
100
AcDbLine
 10
80.3871677533
 20
159.7623320407
 30
0.0
 11
80.8871677533
 21
159.7710210378
 31
0.0
  0
LINE
  5
4EA
330
1F
100
AcDbEntity
  8
0
  6
Continuous
 62
     7
370
    30
100
AcDbLine
 10
80.8871677533
 20
159.7710210378
 30
0.0
 11
80.8871677533
 21
159.1265615211
 31
0.0
  0
LINE
  5
4EB
330
1F
100
AcDbEntity
  8
0
  6
Continuous
 62
     7
370
    30
100
AcDbLine
 10
80.3871677533
 20
159.7623320407
 30
0.0
 11
73.3871677533
 21
159.7623320407
 31
0.0
  0
LINE
  5
4EC
330
1F
100
AcDbEntity
  8
0
  6
Continuous
 62
     7
370
    30
100
AcDbLine
 10
72.8871677533
 20
154.9370074408
 30
0.0
 11
73.3871677533
 21
154.5217287165
 31
0.0
  0
LINE
  5
4ED
330
1F
100
AcDbEntity
  8
0
  6
Continuous
 62
     7
370
    30
100
AcDbLine
 10
73.3871677533
 20
154.5217287165
 30
0.0
 11
73.3871677533
 21
154.2901091089
 31
0.0
  0
LINE
  5
4EE
330
1F
100
AcDbEntity
  8
0
  6
Continuous
 62
     7
370
    30
100
AcDbLine
 10
73.3871677533
 20
154.2901091089
 30
0.0
 11
72.8871677533
 21
154.3039969654
 31
0.0
  0
LINE
  5
4EF
330
1F
100
AcDbEntity
  8
0
  6
Continuous
 62
     7
370
    30
100
AcDbLine
 10
72.8871677533
 20
154.3039969654
 30
0.0
 11
72.8871677533
 21
154.9370074408
 31
0.0
  0
LINE
  5
4F0
330
1F
100
AcDbEntity
  8
0
  6
Continuous
 62
     7
370
    30
100
AcDbLine
 10
80.3871677533
 20
154.5217287165
 30
0.0
 11
73.3871677533
 21
154.5217287165
 31
0.0
  0
LINE
  5
4F1
330
1F
100
AcDbEntity
  8
0
  6
Continuous
 62
     7
370
    30
100
AcDbLine
 10
80.3871677533
 20
154.2901091089
 30
0.0
 11
80.3871677533
 21
154.5217287165
 31
0.0
  0
LINE
  5
4F2
330
1F
100
AcDbEntity
  8
0
  6
Continuous
 62
     7
370
    30
100
AcDbLine
 10
73.3871677533
 20
154.2901091089
 30
0.0
 11
80.3871677533
 21
154.2901091089
 31
0.0
  0
LINE
  5
4F3
330
1F
100
AcDbEntity
  8
0
  6
Continuous
 62
     7
370
    30
100
AcDbLine
 10
80.3871677533
 20
154.5217287165
 30
0.0
 11
80.8871677533
 21
154.9370074408
 31
0.0
  0
LINE
  5
4F4
330
1F
100
AcDbEntity
  8
0
  6
Continuous
 62
     7
370
    30
100
AcDbLine
 10
80.8871677533
 20
154.3039969654
 30
0.0
 11
80.3871677533
 21
154.2901091089
 31
0.0
  0
LINE
  5
4F5
330
1F
100
AcDbEntity
  8
0
  6
Continuous
 62
     7
370
    30
100
AcDbLine
 10
80.8871677533
 20
154.9370074408
 30
0.0
 11
80.8871677533
 21
154.3039969654
 31
0.0
  0
LINE
  5
4F6
330
1F
100
AcDbEntity
  8
0
  6
Continuous
 62
     7
370
    30
100
AcDbLine
 10
80.8871677533
 20
159.7712425985
 30
0.0
 11
72.8871677533
 21
159.7712425985
 31
0.0
  0
LINE
  5
4F7
330
1F
100
AcDbEntity
  8
0
  6
Continuous
 62
     7
370
    30
100
AcDbLine
 10
80.8871677533
 20
159.7712425985
 30
0.0
 11
80.8871677533
 21
159.7710210378
 31
0.0
  0
LINE
  5
4F8
330
1F
100
AcDbEntity
  8
0
  6
Continuous
 62
     7
370
    30
100
AcDbLine
 10
72.8871677533
 20
159.7712425985
 30
0.0
 11
72.8871677533
 21
159.7710210378
 31
0.0
  0
LINE
  5
4F9
330
1F
100
AcDbEntity
  8
0
  6
Continuous
 62
     7
370
    30
100
AcDbLine
 10
80.8871677533
 20
154.9475966297
 30
0.0
 11
80.8871677533
 21
154.9370074408
 31
0.0
  0
LINE
  5
4FA
330
1F
100
AcDbEntity
  8
0
  6
Continuous
 62
     7
370
    30
100
AcDbLine
 10
72.8871677533
 20
154.9475966297
 30
0.0
 11
72.8871677533
 21
154.9370074408
 31
0.0
  0
LINE
  5
4FB
330
1F
100
AcDbEntity
  8
0
  6
Continuous
 62
     7
370
    30
100
AcDbLine
 10
73.3871677533
 20
160.2251856807
 30
0.0
 11
72.8871677533
 21
159.7825298754
 31
0.0
  0
LINE
  5
4FC
330
1F
100
AcDbEntity
  8
0
  6
Continuous
 62
     7
370
    30
100
AcDbLine
 10
73.3871677533
 20
160.2251856807
 30
0.0
 11
80.3871677533
 21
160.2251856807
 31
0.0
  0
LINE
  5
4FD
330
1F
100
AcDbEntity
  8
0
  6
Continuous
 62
     7
370
    30
100
AcDbLine
 10
80.8871677533
 20
159.7825298754
 30
0.0
 11
80.3871677533
 21
160.2251856807
 31
0.0
  0
LINE
  5
4FE
330
1F
100
AcDbEntity
  8
0
  6
Continuous
 62
     7
370
    30
100
AcDbLine
 10
80.8871677533
 20
159.7825298754
 30
0.0
 11
80.8871677533
 21
159.7712425985
 31
0.0
  0
LINE
  5
4FF
330
1F
100
AcDbEntity
  8
0
  6
Continuous
 62
     7
370
    30
100
AcDbLine
 10
72.8871677533
 20
159.7825298754
 30
0.0
 11
72.8871677533
 21
159.7712425985
 31
0.0
  0
LINE
  5
500
330
1F
100
AcDbEntity
  8
0
  6
Continuous
 62
     7
370
    30
100
AcDbLine
 10
72.8871677533
 20
160.3907251918
 30
0.0
 11
73.3871677533
 21
160.4477253795
 31
0.0
  0
LINE
  5
501
330
1F
100
AcDbEntity
  8
0
  6
Continuous
 62
     7
370
    30
100
AcDbLine
 10
73.3871677533
 20
160.4477253795
 30
0.0
 11
73.3871677533
 21
160.2251856807
 31
0.0
  0
LINE
  5
502
330
1F
100
AcDbEntity
  8
0
  6
Continuous
 62
     7
370
    30
100
AcDbLine
 10
72.8871677533
 20
159.7825298754
 30
0.0
 11
72.8871677533
 21
160.3907251918
 31
0.0
  0
LINE
  5
503
330
1F
100
AcDbEntity
  8
0
  6
Continuous
 62
     7
370
    30
100
AcDbLine
 10
80.3871677533
 20
160.2251856807
 30
0.0
 11
80.3871677533
 21
160.4477253795
 31
0.0
  0
LINE
  5
504
330
1F
100
AcDbEntity
  8
0
  6
Continuous
 62
     7
370
    30
100
AcDbLine
 10
80.3871677533
 20
160.4477253795
 30
0.0
 11
80.8871677533
 21
160.3907251918
 31
0.0
  0
LINE
  5
505
330
1F
100
AcDbEntity
  8
0
  6
Continuous
 62
     7
370
    30
100
AcDbLine
 10
80.8871677533
 20
160.3907251918
 30
0.0
 11
80.8871677533
 21
159.7825298754
 31
0.0
  0
LINE
  5
506
330
1F
100
AcDbEntity
  8
0
  6
Continuous
 62
     7
370
    30
100
AcDbLine
 10
80.3871677533
 20
160.4477253795
 30
0.0
 11
73.3871677533
 21
160.4477253795
 31
0.0
  0
LINE
  5
507
330
1F
100
AcDbEntity
  8
0
  6
Continuous
 62
     7
370
    30
100
AcDbLine
 10
80.3871677533
 20
153.8368224222
 30
0.0
 11
73.3871677533
 21
153.8368224222
 31
0.0
  0
LINE
  5
508
330
1F
100
AcDbEntity
  8
0
  6
Continuous
 62
     7
370
    30
100
AcDbLine
 10
80.3871677533
 20
153.6195673345
 30
0.0
 11
80.3871677533
 21
153.8368224222
 31
0.0
  0
LINE
  5
509
330
1F
100
AcDbEntity
  8
0
  6
Continuous
 62
     7
370
    30
100
AcDbLine
 10
73.3871677533
 20
153.6195673345
 30
0.0
 11
80.3871677533
 21
153.6195673345
 31
0.0
  0
LINE
  5
50A
330
1F
100
AcDbEntity
  8
0
  6
Continuous
 62
     7
370
    30
100
AcDbLine
 10
73.3871677533
 20
153.8368224222
 30
0.0
 11
73.3871677533
 21
153.6195673345
 31
0.0
  0
LINE
  5
50B
330
1F
100
AcDbEntity
  8
0
  6
Continuous
 62
     7
370
    30
100
AcDbLine
 10
72.8871677533
 20
154.2927260097
 30
0.0
 11
73.3871677533
 21
153.8368224222
 31
0.0
  0
LINE
  5
50C
330
1F
100
AcDbEntity
  8
0
  6
Continuous
 62
     7
370
    30
100
AcDbLine
 10
73.3871677533
 20
153.6195673345
 30
0.0
 11
72.8871677533
 21
153.6989734009
 31
0.0
  0
LINE
  5
50D
330
1F
100
AcDbEntity
  8
0
  6
Continuous
 62
     7
370
    30
100
AcDbLine
 10
72.8871677533
 20
153.6989734009
 30
0.0
 11
72.8871677533
 21
154.2927260097
 31
0.0
  0
LINE
  5
50E
330
1F
100
AcDbEntity
  8
0
  6
Continuous
 62
     7
370
    30
100
AcDbLine
 10
80.3871677533
 20
153.8368224222
 30
0.0
 11
80.8871677533
 21
154.2927260097
 31
0.0
  0
LINE
  5
50F
330
1F
100
AcDbEntity
  8
0
  6
Continuous
 62
     7
370
    30
100
AcDbLine
 10
80.8871677533
 20
153.6989734009
 30
0.0
 11
80.3871677533
 21
153.6195673345
 31
0.0
  0
LINE
  5
510
330
1F
100
AcDbEntity
  8
0
  6
Continuous
 62
     7
370
    30
100
AcDbLine
 10
80.8871677533
 20
154.2927260097
 30
0.0
 11
80.8871677533
 21
153.6989734009
 31
0.0
  0
LINE
  5
511
330
1F
100
AcDbEntity
  8
0
  6
Continuous
 62
     7
370
    30
100
AcDbLine
 10
80.8871677533
 20
154.3039969654
 30
0.0
 11
80.8871677533
 21
154.2927260097
 31
0.0
  0
LINE
  5
512
330
1F
100
AcDbEntity
  8
0
  6
Continuous
 62
     7
370
    30
100
AcDbLine
 10
72.8871677533
 20
154.3039969654
 30
0.0
 11
72.8871677533
 21
154.2927260097
 31
0.0
  0
LINE
  5
513
330
1F
100
AcDbEntity
  8
0
  6
Continuous
 62
     7
370
    30
100
AcDbLine
 10
73.3871677533
 20
160.8806252347
 30
0.0
 11
72.8871677533
 21
160.4014892297
 31
0.0
  0
LINE
  5
514
330
1F
100
AcDbEntity
  8
0
  6
Continuous
 62
     7
370
    30
100
AcDbLine
 10
73.3871677533
 20
160.8806252347
 30
0.0
 11
80.3871677533
 21
160.8806252347
 31
0.0
  0
LINE
  5
515
330
1F
100
AcDbEntity
  8
0
  6
Continuous
 62
     7
370
    30
100
AcDbLine
 10
80.8871677533
 20
160.4014892297
 30
0.0
 11
80.3871677533
 21
160.8806252347
 31
0.0
  0
LINE
  5
516
330
1F
100
AcDbEntity
  8
0
  6
Continuous
 62
     7
370
    30
100
AcDbLine
 10
80.8871677533
 20
160.4014892297
 30
0.0
 11
80.8871677533
 21
160.3907251918
 31
0.0
  0
LINE
  5
517
330
1F
100
AcDbEntity
  8
0
  6
Continuous
 62
     7
370
    30
100
AcDbLine
 10
72.8871677533
 20
160.4014892297
 30
0.0
 11
72.8871677533
 21
160.3907251918
 31
0.0
  0
LINE
  5
518
330
1F
100
AcDbEntity
  8
0
  6
Continuous
 62
     7
370
    30
100
AcDbLine
 10
72.8871677533
 20
160.9648826167
 30
0.0
 11
73.3871677533
 21
161.0867718315
 31
0.0
  0
LINE
  5
519
330
1F
100
AcDbEntity
  8
0
  6
Continuous
 62
     7
370
    30
100
AcDbLine
 10
73.3871677533
 20
161.0867718315
 30
0.0
 11
73.3871677533
 21
160.8806252347
 31
0.0
  0
LINE
  5
51A
330
1F
100
AcDbEntity
  8
0
  6
Continuous
 62
     7
370
    30
100
AcDbLine
 10
72.8871677533
 20
160.4014892297
 30
0.0
 11
72.8871677533
 21
160.9648826167
 31
0.0
  0
LINE
  5
51B
330
1F
100
AcDbEntity
  8
0
  6
Continuous
 62
     7
370
    30
100
AcDbLine
 10
80.3871677533
 20
160.8806252347
 30
0.0
 11
80.3871677533
 21
161.0867718315
 31
0.0
  0
LINE
  5
51C
330
1F
100
AcDbEntity
  8
0
  6
Continuous
 62
     7
370
    30
100
AcDbLine
 10
80.3871677533
 20
161.0867718315
 30
0.0
 11
80.8871677533
 21
160.9648826167
 31
0.0
  0
LINE
  5
51D
330
1F
100
AcDbEntity
  8
0
  6
Continuous
 62
     7
370
    30
100
AcDbLine
 10
80.8871677533
 20
160.9648826167
 30
0.0
 11
80.8871677533
 21
160.4014892297
 31
0.0
  0
LINE
  5
51E
330
1F
100
AcDbEntity
  8
0
  6
Continuous
 62
     7
370
    30
100
AcDbLine
 10
80.3871677533
 20
161.0867718315
 30
0.0
 11
73.3871677533
 21
161.0867718315
 31
0.0
  0
LINE
  5
51F
330
1F
100
AcDbEntity
  8
0
  6
Continuous
 62
     7
370
    30
100
AcDbLine
 10
72.8871677533
 20
153.6885003911
 30
0.0
 11
73.3871677533
 21
153.1983718273
 31
0.0
  0
LINE
  5
520
330
1F
100
AcDbEntity
  8
0
  6
Continuous
 62
     7
370
    30
100
AcDbLine
 10
73.3871677533
 20
153.1983718273
 30
0.0
 11
73.3871677533
 21
152.9985310449
 31
0.0
  0
LINE
  5
521
330
1F
100
AcDbEntity
  8
0
  6
Continuous
 62
     7
370
    30
100
AcDbLine
 10
73.3871677533
 20
152.9985310449
 30
0.0
 11
72.8871677533
 21
153.1423406339
 31
0.0
  0
LINE
  5
522
330
1F
100
AcDbEntity
  8
0
  6
Continuous
 62
     7
370
    30
100
AcDbLine
 10
72.8871677533
 20
153.1423406339
 30
0.0
 11
72.8871677533
 21
153.6885003911
 31
0.0
  0
LINE
  5
523
330
1F
100
AcDbEntity
  8
0
  6
Continuous
 62
     7
370
    30
100
AcDbLine
 10
80.3871677533
 20
153.1983718273
 30
0.0
 11
73.3871677533
 21
153.1983718273
 31
0.0
  0
LINE
  5
524
330
1F
100
AcDbEntity
  8
0
  6
Continuous
 62
     7
370
    30
100
AcDbLine
 10
80.3871677533
 20
152.9985310449
 30
0.0
 11
80.3871677533
 21
153.1983718273
 31
0.0
  0
LINE
  5
525
330
1F
100
AcDbEntity
  8
0
  6
Continuous
 62
     7
370
    30
100
AcDbLine
 10
73.3871677533
 20
152.9985310449
 30
0.0
 11
80.3871677533
 21
152.9985310449
 31
0.0
  0
LINE
  5
526
330
1F
100
AcDbEntity
  8
0
  6
Continuous
 62
     7
370
    30
100
AcDbLine
 10
80.3871677533
 20
153.1983718273
 30
0.0
 11
80.8871677533
 21
153.6885003911
 31
0.0
  0
LINE
  5
527
330
1F
100
AcDbEntity
  8
0
  6
Continuous
 62
     7
370
    30
100
AcDbLine
 10
80.8871677533
 20
153.1423406339
 30
0.0
 11
80.3871677533
 21
152.9985310449
 31
0.0
  0
LINE
  5
528
330
1F
100
AcDbEntity
  8
0
  6
Continuous
 62
     7
370
    30
100
AcDbLine
 10
80.8871677533
 20
153.6885003911
 30
0.0
 11
80.8871677533
 21
153.1423406339
 31
0.0
  0
LINE
  5
529
330
1F
100
AcDbEntity
  8
0
  6
Continuous
 62
     7
370
    30
100
AcDbLine
 10
80.8871677533
 20
153.6989734009
 30
0.0
 11
80.8871677533
 21
153.6885003911
 31
0.0
  0
LINE
  5
52A
330
1F
100
AcDbEntity
  8
0
  6
Continuous
 62
     7
370
    30
100
AcDbLine
 10
72.8871677533
 20
153.6989734009
 30
0.0
 11
72.8871677533
 21
153.6885003911
 31
0.0
  0
LINE
  5
52B
330
1F
100
AcDbEntity
  8
0
  6
Continuous
 62
     7
370
    30
100
AcDbLine
 10
73.3871677533
 20
161.4836409369
 30
0.0
 11
72.8871677533
 21
160.9747507514
 31
0.0
  0
LINE
  5
52C
330
1F
100
AcDbEntity
  8
0
  6
Continuous
 62
     7
370
    30
100
AcDbLine
 10
73.3871677533
 20
161.4836409369
 30
0.0
 11
80.3871677533
 21
161.4836409369
 31
0.0
  0
LINE
  5
52D
330
1F
100
AcDbEntity
  8
0
  6
Continuous
 62
     7
370
    30
100
AcDbLine
 10
80.8871677533
 20
160.9747507514
 30
0.0
 11
80.3871677533
 21
161.4836409369
 31
0.0
  0
LINE
  5
52E
330
1F
100
AcDbEntity
  8
0
  6
Continuous
 62
     7
370
    30
100
AcDbLine
 10
80.8871677533
 20
160.9747507514
 30
0.0
 11
80.8871677533
 21
160.9648826167
 31
0.0
  0
LINE
  5
52F
330
1F
100
AcDbEntity
  8
0
  6
Continuous
 62
     7
370
    30
100
AcDbLine
 10
72.8871677533
 20
160.9747507514
 30
0.0
 11
72.8871677533
 21
160.9648826167
 31
0.0
  0
LINE
  5
530
330
1F
100
AcDbEntity
  8
0
  6
Continuous
 62
     7
370
    30
100
AcDbLine
 10
72.8871677533
 20
161.4854334008
 30
0.0
 11
73.3871677533
 21
161.6705005854
 31
0.0
  0
LINE
  5
531
330
1F
100
AcDbEntity
  8
0
  6
Continuous
 62
     7
370
    30
100
AcDbLine
 10
73.3871677533
 20
161.6705005854
 30
0.0
 11
73.3871677533
 21
161.4836409369
 31
0.0
  0
LINE
  5
532
330
1F
100
AcDbEntity
  8
0
  6
Continuous
 62
     7
370
    30
100
AcDbLine
 10
72.8871677533
 20
160.9747507514
 30
0.0
 11
72.8871677533
 21
161.4854334008
 31
0.0
  0
LINE
  5
533
330
1F
100
AcDbEntity
  8
0
  6
Continuous
 62
     7
370
    30
100
AcDbLine
 10
80.3871677533
 20
161.4836409369
 30
0.0
 11
80.3871677533
 21
161.6705005854
 31
0.0
  0
LINE
  5
534
330
1F
100
AcDbEntity
  8
0
  6
Continuous
 62
     7
370
    30
100
AcDbLine
 10
80.3871677533
 20
161.6705005854
 30
0.0
 11
80.8871677533
 21
161.4854334008
 31
0.0
  0
LINE
  5
535
330
1F
100
AcDbEntity
  8
0
  6
Continuous
 62
     7
370
    30
100
AcDbLine
 10
80.8871677533
 20
161.4854334008
 30
0.0
 11
80.8871677533
 21
160.9747507514
 31
0.0
  0
LINE
  5
536
330
1F
100
AcDbEntity
  8
0
  6
Continuous
 62
     7
370
    30
100
AcDbLine
 10
80.3871677533
 20
161.6705005854
 30
0.0
 11
73.3871677533
 21
161.6705005854
 31
0.0
  0
LINE
  5
537
330
1F
100
AcDbEntity
  8
0
  6
Continuous
 62
     7
370
    30
100
AcDbLine
 10
72.8871677533
 20
153.1328125882
 30
0.0
 11
73.3871677533
 21
152.6153393787
 31
0.0
  0
LINE
  5
538
330
1F
100
AcDbEntity
  8
0
  6
Continuous
 62
     7
370
    30
100
AcDbLine
 10
73.3871677533
 20
152.6153393787
 30
0.0
 11
73.3871677533
 21
152.4357182281
 31
0.0
  0
LINE
  5
539
330
1F
100
AcDbEntity
  8
0
  6
Continuous
 62
     7
370
    30
100
AcDbLine
 10
73.3871677533
 20
152.4357182281
 30
0.0
 11
72.8871677533
 21
152.6419125684
 31
0.0
  0
LINE
  5
53A
330
1F
100
AcDbEntity
  8
0
  6
Continuous
 62
     7
370
    30
100
AcDbLine
 10
72.8871677533
 20
152.6419125684
 30
0.0
 11
72.8871677533
 21
153.1328125882
 31
0.0
  0
LINE
  5
53B
330
1F
100
AcDbEntity
  8
0
  6
Continuous
 62
     7
370
    30
100
AcDbLine
 10
80.3871677533
 20
152.6153393787
 30
0.0
 11
73.3871677533
 21
152.6153393787
 31
0.0
  0
LINE
  5
53C
330
1F
100
AcDbEntity
  8
0
  6
Continuous
 62
     7
370
    30
100
AcDbLine
 10
80.3871677533
 20
152.4357182281
 30
0.0
 11
80.3871677533
 21
152.6153393787
 31
0.0
  0
LINE
  5
53D
330
1F
100
AcDbEntity
  8
0
  6
Continuous
 62
     7
370
    30
100
AcDbLine
 10
73.3871677533
 20
152.4357182281
 30
0.0
 11
80.3871677533
 21
152.4357182281
 31
0.0
  0
LINE
  5
53E
330
1F
100
AcDbEntity
  8
0
  6
Continuous
 62
     7
370
    30
100
AcDbLine
 10
80.3871677533
 20
152.6153393787
 30
0.0
 11
80.8871677533
 21
153.1328125882
 31
0.0
  0
LINE
  5
53F
330
1F
100
AcDbEntity
  8
0
  6
Continuous
 62
     7
370
    30
100
AcDbLine
 10
80.8871677533
 20
152.6419125684
 30
0.0
 11
80.3871677533
 21
152.4357182281
 31
0.0
  0
LINE
  5
540
330
1F
100
AcDbEntity
  8
0
  6
Continuous
 62
     7
370
    30
100
AcDbLine
 10
80.8871677533
 20
153.1328125882
 30
0.0
 11
80.8871677533
 21
152.6419125684
 31
0.0
  0
LINE
  5
541
330
1F
100
AcDbEntity
  8
0
  6
Continuous
 62
     7
370
    30
100
AcDbLine
 10
80.8871677533
 20
153.1423406339
 30
0.0
 11
80.8871677533
 21
153.1328125882
 31
0.0
  0
LINE
  5
542
330
1F
100
AcDbEntity
  8
0
  6
Continuous
 62
     7
370
    30
100
AcDbLine
 10
72.8871677533
 20
153.1423406339
 30
0.0
 11
72.8871677533
 21
153.1328125882
 31
0.0
  0
LINE
  5
543
330
1F
100
AcDbEntity
  8
0
  6
Continuous
 62
     7
370
    30
100
AcDbLine
 10
73.3871677533
 20
162.0257677687
 30
0.0
 11
72.8871677533
 21
161.4942671054
 31
0.0
  0
LINE
  5
544
330
1F
100
AcDbEntity
  8
0
  6
Continuous
 62
     7
370
    30
100
AcDbLine
 10
73.3871677533
 20
162.0257677687
 30
0.0
 11
80.3871677533
 21
162.0257677687
 31
0.0
  0
LINE
  5
545
330
1F
100
AcDbEntity
  8
0
  6
Continuous
 62
     7
370
    30
100
AcDbLine
 10
80.8871677533
 20
161.4942671054
 30
0.0
 11
80.3871677533
 21
162.0257677687
 31
0.0
  0
LINE
  5
546
330
1F
100
AcDbEntity
  8
0
  6
Continuous
 62
     7
370
    30
100
AcDbLine
 10
80.8871677533
 20
161.4942671054
 30
0.0
 11
80.8871677533
 21
161.4854334008
 31
0.0
  0
LINE
  5
547
330
1F
100
AcDbEntity
  8
0
  6
Continuous
 62
     7
370
    30
100
AcDbLine
 10
72.8871677533
 20
161.4942671054
 30
0.0
 11
72.8871677533
 21
161.4854334008
 31
0.0
  0
LINE
  5
548
330
1F
100
AcDbEntity
  8
0
  6
Continuous
 62
     7
370
    30
100
AcDbLine
 10
72.8871677533
 20
161.9450701522
 30
0.0
 11
73.3871677533
 21
162.190717369
 31
0.0
  0
LINE
  5
549
330
1F
100
AcDbEntity
  8
0
  6
Continuous
 62
     7
370
    30
100
AcDbLine
 10
73.3871677533
 20
162.190717369
 30
0.0
 11
73.3871677533
 21
162.0257677687
 31
0.0
  0
LINE
  5
54A
330
1F
100
AcDbEntity
  8
0
  6
Continuous
 62
     7
370
    30
100
AcDbLine
 10
72.8871677533
 20
161.4942671054
 30
0.0
 11
72.8871677533
 21
161.9450701522
 31
0.0
  0
LINE
  5
54B
330
1F
100
AcDbEntity
  8
0
  6
Continuous
 62
     7
370
    30
100
AcDbLine
 10
80.3871677533
 20
162.0257677687
 30
0.0
 11
80.3871677533
 21
162.190717369
 31
0.0
  0
LINE
  5
54C
330
1F
100
AcDbEntity
  8
0
  6
Continuous
 62
     7
370
    30
100
AcDbLine
 10
80.3871677533
 20
162.190717369
 30
0.0
 11
80.8871677533
 21
161.9450701522
 31
0.0
  0
LINE
  5
54D
330
1F
100
AcDbEntity
  8
0
  6
Continuous
 62
     7
370
    30
100
AcDbLine
 10
80.8871677533
 20
161.9450701522
 30
0.0
 11
80.8871677533
 21
161.4942671054
 31
0.0
  0
LINE
  5
54E
330
1F
100
AcDbEntity
  8
0
  6
Continuous
 62
     7
370
    30
100
AcDbLine
 10
80.3871677533
 20
162.190717369
 30
0.0
 11
73.3871677533
 21
162.190717369
 31
0.0
  0
LINE
  5
54F
330
1F
100
AcDbEntity
  8
0
  6
Continuous
 62
     7
370
    30
100
AcDbLine
 10
72.8871677533
 20
152.6334632396
 30
0.0
 11
73.3871677533
 21
152.0959095741
 31
0.0
  0
LINE
  5
550
330
1F
100
AcDbEntity
  8
0
  6
Continuous
 62
     7
370
    30
100
AcDbLine
 10
73.3871677533
 20
152.0959095741
 30
0.0
 11
73.3871677533
 21
151.9390295424
 31
0.0
  0
LINE
  5
551
330
1F
100
AcDbEntity
  8
0
  6
Continuous
 62
     7
370
    30
100
AcDbLine
 10
73.3871677533
 20
151.9390295424
 30
0.0
 11
72.8871677533
 21
152.2047141175
 31
0.0
  0
LINE
  5
552
330
1F
100
AcDbEntity
  8
0
  6
Continuous
 62
     7
370
    30
100
AcDbLine
 10
72.8871677533
 20
152.2047141175
 30
0.0
 11
72.8871677533
 21
152.6334632396
 31
0.0
  0
LINE
  5
553
330
1F
100
AcDbEntity
  8
0
  6
Continuous
 62
     7
370
    30
100
AcDbLine
 10
80.3871677533
 20
151.9390295424
 30
0.0
 11
80.3871677533
 21
152.0959095741
 31
0.0
  0
LINE
  5
554
330
1F
100
AcDbEntity
  8
0
  6
Continuous
 62
     7
370
    30
100
AcDbLine
 10
80.3871677533
 20
152.0959095741
 30
0.0
 11
80.8871677533
 21
152.6334632396
 31
0.0
  0
LINE
  5
555
330
1F
100
AcDbEntity
  8
0
  6
Continuous
 62
     7
370
    30
100
AcDbLine
 10
80.8871677533
 20
152.2047141175
 30
0.0
 11
80.3871677533
 21
151.9390295424
 31
0.0
  0
LINE
  5
556
330
1F
100
AcDbEntity
  8
0
  6
Continuous
 62
     7
370
    30
100
AcDbLine
 10
80.8871677533
 20
152.6334632396
 30
0.0
 11
80.8871677533
 21
152.2047141175
 31
0.0
  0
LINE
  5
557
330
1F
100
AcDbEntity
  8
0
  6
Continuous
 62
     7
370
    30
100
AcDbLine
 10
80.3871677533
 20
152.0959095741
 30
0.0
 11
73.3871677533
 21
152.0959095741
 31
0.0
  0
LINE
  5
558
330
1F
100
AcDbEntity
  8
0
  6
Continuous
 62
     7
370
    30
100
AcDbLine
 10
80.8871677533
 20
152.6419125684
 30
0.0
 11
80.8871677533
 21
152.6334632396
 31
0.0
  0
LINE
  5
559
330
1F
100
AcDbEntity
  8
0
  6
Continuous
 62
     7
370
    30
100
AcDbLine
 10
72.8871677533
 20
152.6419125684
 30
0.0
 11
72.8871677533
 21
152.6334632396
 31
0.0
  0
LINE
  5
55A
330
1F
100
AcDbEntity
  8
0
  6
Continuous
 62
     7
370
    30
100
AcDbLine
 10
73.3871677533
 20
151.9390295424
 30
0.0
 11
80.3871677533
 21
151.9390295424
 31
0.0
  0
LINE
  5
55B
330
1F
100
AcDbEntity
  8
0
  6
Continuous
 62
     7
370
    30
100
AcDbLine
 10
73.3871677533
 20
162.4993954578
 30
0.0
 11
72.8871677533
 21
161.9527454208
 31
0.0
  0
LINE
  5
55C
330
1F
100
AcDbEntity
  8
0
  6
Continuous
 62
     7
370
    30
100
AcDbLine
 10
73.3871677533
 20
162.4993954578
 30
0.0
 11
80.3871677533
 21
162.4993954578
 31
0.0
  0
LINE
  5
55D
330
1F
100
AcDbEntity
  8
0
  6
Continuous
 62
     7
370
    30
100
AcDbLine
 10
80.8871677533
 20
161.9527454208
 30
0.0
 11
80.3871677533
 21
162.4993954578
 31
0.0
  0
LINE
  5
55E
330
1F
100
AcDbEntity
  8
0
  6
Continuous
 62
     7
370
    30
100
AcDbLine
 10
80.8871677533
 20
161.9527454208
 30
0.0
 11
80.8871677533
 21
161.9450701522
 31
0.0
  0
LINE
  5
55F
330
1F
100
AcDbEntity
  8
0
  6
Continuous
 62
     7
370
    30
100
AcDbLine
 10
72.8871677533
 20
161.9527454208
 30
0.0
 11
72.8871677533
 21
161.9450701522
 31
0.0
  0
LINE
  5
560
330
1F
100
AcDbEntity
  8
0
  6
Continuous
 62
     7
370
    30
100
AcDbLine
 10
72.8871677533
 20
162.3373405785
 30
0.0
 11
73.3871677533
 21
162.6401194789
 31
0.0
  0
LINE
  5
561
330
1F
100
AcDbEntity
  8
0
  6
Continuous
 62
     7
370
    30
100
AcDbLine
 10
73.3871677533
 20
162.6401194789
 30
0.0
 11
73.3871677533
 21
162.4993954578
 31
0.0
  0
LINE
  5
562
330
1F
100
AcDbEntity
  8
0
  6
Continuous
 62
     7
370
    30
100
AcDbLine
 10
72.8871677533
 20
161.9527454208
 30
0.0
 11
72.8871677533
 21
162.3373405785
 31
0.0
  0
LINE
  5
563
330
1F
100
AcDbEntity
  8
0
  6
Continuous
 62
     7
370
    30
100
AcDbLine
 10
80.3871677533
 20
162.4993954578
 30
0.0
 11
80.3871677533
 21
162.6401194789
 31
0.0
  0
LINE
  5
564
330
1F
100
AcDbEntity
  8
0
  6
Continuous
 62
     7
370
    30
100
AcDbLine
 10
80.3871677533
 20
162.6401194789
 30
0.0
 11
80.8871677533
 21
162.3373405785
 31
0.0
  0
LINE
  5
565
330
1F
100
AcDbEntity
  8
0
  6
Continuous
 62
     7
370
    30
100
AcDbLine
 10
80.8871677533
 20
162.3373405785
 30
0.0
 11
80.8871677533
 21
161.9527454208
 31
0.0
  0
LINE
  5
566
330
1F
100
AcDbEntity
  8
0
  6
Continuous
 62
     7
370
    30
100
AcDbLine
 10
80.3871677533
 20
162.6401194789
 30
0.0
 11
73.3871677533
 21
162.6401194789
 31
0.0
  0
LINE
  5
567
330
1F
100
AcDbEntity
  8
0
  6
Continuous
 62
     7
370
    30
100
AcDbLine
 10
72.8871677533
 20
152.1974621156
 30
0.0
 11
73.3871677533
 21
151.6473740691
 31
0.0
  0
LINE
  5
568
330
1F
100
AcDbEntity
  8
0
  6
Continuous
 62
     7
370
    30
100
AcDbLine
 10
73.3871677533
 20
151.6473740691
 30
0.0
 11
73.3871677533
 21
151.5154374082
 31
0.0
  0
LINE
  5
569
330
1F
100
AcDbEntity
  8
0
  6
Continuous
 62
     7
370
    30
100
AcDbLine
 10
73.3871677533
 20
151.5154374082
 30
0.0
 11
72.8871677533
 21
151.836882589
 31
0.0
  0
LINE
  5
56A
330
1F
100
AcDbEntity
  8
0
  6
Continuous
 62
     7
370
    30
100
AcDbLine
 10
72.8871677533
 20
151.836882589
 30
0.0
 11
72.8871677533
 21
152.1974621156
 31
0.0
  0
LINE
  5
56B
330
1F
100
AcDbEntity
  8
0
  6
Continuous
 62
     7
370
    30
100
AcDbLine
 10
80.3871677533
 20
151.5154374082
 30
0.0
 11
80.3871677533
 21
151.6473740691
 31
0.0
  0
LINE
  5
56C
330
1F
100
AcDbEntity
  8
0
  6
Continuous
 62
     7
370
    30
100
AcDbLine
 10
80.3871677533
 20
151.6473740691
 30
0.0
 11
80.8871677533
 21
152.1974621156
 31
0.0
  0
LINE
  5
56D
330
1F
100
AcDbEntity
  8
0
  6
Continuous
 62
     7
370
    30
100
AcDbLine
 10
80.8871677533
 20
151.836882589
 30
0.0
 11
80.3871677533
 21
151.5154374082
 31
0.0
  0
LINE
  5
56E
330
1F
100
AcDbEntity
  8
0
  6
Continuous
 62
     7
370
    30
100
AcDbLine
 10
80.8871677533
 20
152.1974621156
 30
0.0
 11
80.8871677533
 21
151.836882589
 31
0.0
  0
LINE
  5
56F
330
1F
100
AcDbEntity
  8
0
  6
Continuous
 62
     7
370
    30
100
AcDbLine
 10
80.3871677533
 20
151.6473740691
 30
0.0
 11
73.3871677533
 21
151.6473740691
 31
0.0
  0
LINE
  5
570
330
1F
100
AcDbEntity
  8
0
  6
Continuous
 62
     7
370
    30
100
AcDbLine
 10
80.8871677533
 20
152.2047141175
 30
0.0
 11
80.8871677533
 21
152.1974621156
 31
0.0
  0
LINE
  5
571
330
1F
100
AcDbEntity
  8
0
  6
Continuous
 62
     7
370
    30
100
AcDbLine
 10
72.8871677533
 20
152.2047141175
 30
0.0
 11
72.8871677533
 21
152.1974621156
 31
0.0
  0
LINE
  5
572
330
1F
100
AcDbEntity
  8
0
  6
Continuous
 62
     7
370
    30
100
AcDbLine
 10
73.3871677533
 20
151.5154374082
 30
0.0
 11
80.3871677533
 21
151.5154374082
 31
0.0
  0
LINE
  5
573
330
1F
100
AcDbEntity
  8
0
  6
Continuous
 62
     7
370
    30
100
AcDbLine
 10
73.3871677533
 20
162.8978753094
 30
0.0
 11
72.8871677533
 21
162.3437496672
 31
0.0
  0
LINE
  5
574
330
1F
100
AcDbEntity
  8
0
  6
Continuous
 62
     7
370
    30
100
AcDbLine
 10
73.3871677533
 20
162.8978753094
 30
0.0
 11
80.3871677533
 21
162.8978753094
 31
0.0
  0
LINE
  5
575
330
1F
100
AcDbEntity
  8
0
  6
Continuous
 62
     7
370
    30
100
AcDbLine
 10
80.8871677533
 20
162.3437496672
 30
0.0
 11
80.3871677533
 21
162.8978753094
 31
0.0
  0
LINE
  5
576
330
1F
100
AcDbEntity
  8
0
  6
Continuous
 62
     7
370
    30
100
AcDbLine
 10
80.8871677533
 20
162.3437496672
 30
0.0
 11
80.8871677533
 21
162.3373405785
 31
0.0
  0
LINE
  5
577
330
1F
100
AcDbEntity
  8
0
  6
Continuous
 62
     7
370
    30
100
AcDbLine
 10
72.8871677533
 20
162.3437496672
 30
0.0
 11
72.8871677533
 21
162.3373405785
 31
0.0
  0
LINE
  5
578
330
1F
100
AcDbEntity
  8
0
  6
Continuous
 62
     7
370
    30
100
AcDbLine
 10
72.8871677533
 20
162.6567380628
 30
0.0
 11
73.3871677533
 21
163.0123982948
 31
0.0
  0
LINE
  5
579
330
1F
100
AcDbEntity
  8
0
  6
Continuous
 62
     7
370
    30
100
AcDbLine
 10
73.3871677533
 20
163.0123982948
 30
0.0
 11
73.3871677533
 21
162.8978753094
 31
0.0
  0
LINE
  5
57A
330
1F
100
AcDbEntity
  8
0
  6
Continuous
 62
     7
370
    30
100
AcDbLine
 10
72.8871677533
 20
162.3437496672
 30
0.0
 11
72.8871677533
 21
162.6567380628
 31
0.0
  0
LINE
  5
57B
330
1F
100
AcDbEntity
  8
0
  6
Continuous
 62
     7
370
    30
100
AcDbLine
 10
80.3871677533
 20
162.8978753094
 30
0.0
 11
80.3871677533
 21
163.0123982948
 31
0.0
  0
LINE
  5
57C
330
1F
100
AcDbEntity
  8
0
  6
Continuous
 62
     7
370
    30
100
AcDbLine
 10
80.3871677533
 20
163.0123982948
 30
0.0
 11
80.8871677533
 21
162.6567380628
 31
0.0
  0
LINE
  5
57D
330
1F
100
AcDbEntity
  8
0
  6
Continuous
 62
     7
370
    30
100
AcDbLine
 10
80.8871677533
 20
162.6567380628
 30
0.0
 11
80.8871677533
 21
162.3437496672
 31
0.0
  0
LINE
  5
57E
330
1F
100
AcDbEntity
  8
0
  6
Continuous
 62
     7
370
    30
100
AcDbLine
 10
80.3871677533
 20
163.0123982948
 30
0.0
 11
73.3871677533
 21
163.0123982948
 31
0.0
  0
LINE
  5
57F
330
1F
100
AcDbEntity
  8
0
  6
Continuous
 62
     7
370
    30
100
AcDbLine
 10
72.8871677533
 20
151.8309297163
 30
0.0
 11
73.3871677533
 21
151.2760293192
 31
0.0
  0
LINE
  5
580
330
1F
100
AcDbEntity
  8
0
  6
Continuous
 62
     7
370
    30
100
AcDbLine
 10
73.3871677533
 20
151.2760293192
 30
0.0
 11
73.3871677533
 21
151.1708881305
 31
0.0
  0
LINE
  5
581
330
1F
100
AcDbEntity
  8
0
  6
Continuous
 62
     7
370
    30
100
AcDbLine
 10
73.3871677533
 20
151.1708881305
 30
0.0
 11
72.8871677533
 21
151.5435815314
 31
0.0
  0
LINE
  5
582
330
1F
100
AcDbEntity
  8
0
  6
Continuous
 62
     7
370
    30
100
AcDbLine
 10
72.8871677533
 20
151.5435815314
 30
0.0
 11
72.8871677533
 21
151.8309297163
 31
0.0
  0
LINE
  5
583
330
1F
100
AcDbEntity
  8
0
  6
Continuous
 62
     7
370
    30
100
AcDbLine
 10
80.3871677533
 20
151.1708881305
 30
0.0
 11
80.3871677533
 21
151.2760293192
 31
0.0
  0
LINE
  5
584
330
1F
100
AcDbEntity
  8
0
  6
Continuous
 62
     7
370
    30
100
AcDbLine
 10
80.3871677533
 20
151.2760293192
 30
0.0
 11
80.8871677533
 21
151.8309297163
 31
0.0
  0
LINE
  5
585
330
1F
100
AcDbEntity
  8
0
  6
Continuous
 62
     7
370
    30
100
AcDbLine
 10
80.8871677533
 20
151.5435815314
 30
0.0
 11
80.3871677533
 21
151.1708881305
 31
0.0
  0
LINE
  5
586
330
1F
100
AcDbEntity
  8
0
  6
Continuous
 62
     7
370
    30
100
AcDbLine
 10
80.8871677533
 20
151.8309297163
 30
0.0
 11
80.8871677533
 21
151.5435815314
 31
0.0
  0
LINE
  5
587
330
1F
100
AcDbEntity
  8
0
  6
Continuous
 62
     7
370
    30
100
AcDbLine
 10
80.3871677533
 20
151.2760293192
 30
0.0
 11
73.3871677533
 21
151.2760293192
 31
0.0
  0
LINE
  5
588
330
1F
100
AcDbEntity
  8
0
  6
Continuous
 62
     7
370
    30
100
AcDbLine
 10
80.8871677533
 20
151.836882589
 30
0.0
 11
80.8871677533
 21
151.8309297163
 31
0.0
  0
LINE
  5
589
330
1F
100
AcDbEntity
  8
0
  6
Continuous
 62
     7
370
    30
100
AcDbLine
 10
72.8871677533
 20
151.836882589
 30
0.0
 11
72.8871677533
 21
151.8309297163
 31
0.0
  0
LINE
  5
58A
330
1F
100
AcDbEntity
  8
0
  6
Continuous
 62
     7
370
    30
100
AcDbLine
 10
73.3871677533
 20
151.1708881305
 30
0.0
 11
80.3871677533
 21
151.1708881305
 31
0.0
  0
LINE
  5
58B
330
1F
100
AcDbEntity
  8
0
  6
Continuous
 62
     7
370
    30
100
AcDbLine
 10
73.3871677533
 20
163.2156135401
 30
0.0
 11
72.8871677533
 21
162.6617910019
 31
0.0
  0
LINE
  5
58C
330
1F
100
AcDbEntity
  8
0
  6
Continuous
 62
     7
370
    30
100
AcDbLine
 10
73.3871677533
 20
163.2156135401
 30
0.0
 11
80.3871677533
 21
163.2156135401
 31
0.0
  0
LINE
  5
58D
330
1F
100
AcDbEntity
  8
0
  6
Continuous
 62
     7
370
    30
100
AcDbLine
 10
80.8871677533
 20
162.6617910019
 30
0.0
 11
80.3871677533
 21
163.2156135401
 31
0.0
  0
LINE
  5
58E
330
1F
100
AcDbEntity
  8
0
  6
Continuous
 62
     7
370
    30
100
AcDbLine
 10
80.8871677533
 20
162.6617910019
 30
0.0
 11
80.8871677533
 21
162.6567380628
 31
0.0
  0
LINE
  5
58F
330
1F
100
AcDbEntity
  8
0
  6
Continuous
 62
     7
370
    30
100
AcDbLine
 10
72.8871677533
 20
162.6617910019
 30
0.0
 11
72.8871677533
 21
162.6567380628
 31
0.0
  0
LINE
  5
590
330
1F
100
AcDbEntity
  8
0
  6
Continuous
 62
     7
370
    30
100
AcDbLine
 10
72.8871677533
 20
162.8987789644
 30
0.0
 11
73.3871677533
 21
163.3023278379
 31
0.0
  0
LINE
  5
591
330
1F
100
AcDbEntity
  8
0
  6
Continuous
 62
     7
370
    30
100
AcDbLine
 10
73.3871677533
 20
163.3023278379
 30
0.0
 11
73.3871677533
 21
163.2156135401
 31
0.0
  0
LINE
  5
592
330
1F
100
AcDbEntity
  8
0
  6
Continuous
 62
     7
370
    30
100
AcDbLine
 10
72.8871677533
 20
162.6617910019
 30
0.0
 11
72.8871677533
 21
162.8987789644
 31
0.0
  0
LINE
  5
593
330
1F
100
AcDbEntity
  8
0
  6
Continuous
 62
     7
370
    30
100
AcDbLine
 10
80.3871677533
 20
163.2156135401
 30
0.0
 11
80.3871677533
 21
163.3023278379
 31
0.0
  0
LINE
  5
594
330
1F
100
AcDbEntity
  8
0
  6
Continuous
 62
     7
370
    30
100
AcDbLine
 10
80.3871677533
 20
163.3023278379
 30
0.0
 11
80.8871677533
 21
162.8987789644
 31
0.0
  0
LINE
  5
595
330
1F
100
AcDbEntity
  8
0
  6
Continuous
 62
     7
370
    30
100
AcDbLine
 10
80.8871677533
 20
162.8987789644
 30
0.0
 11
80.8871677533
 21
162.6617910019
 31
0.0
  0
LINE
  5
596
330
1F
100
AcDbEntity
  8
0
  6
Continuous
 62
     7
370
    30
100
AcDbLine
 10
80.3871677533
 20
163.3023278379
 30
0.0
 11
73.3871677533
 21
163.3023278379
 31
0.0
  0
LINE
  5
597
330
1F
100
AcDbEntity
  8
0
  6
Continuous
 62
     7
370
    30
100
AcDbLine
 10
80.3871677533
 20
150.9870881906
 30
0.0
 11
73.3871677533
 21
150.9870881906
 31
0.0
  0
LINE
  5
598
330
1F
100
AcDbEntity
  8
0
  6
Continuous
 62
     7
370
    30
100
AcDbLine
 10
72.8871677533
 20
151.5390113531
 30
0.0
 11
73.3871677533
 21
150.9870881906
 31
0.0
  0
LINE
  5
599
330
1F
100
AcDbEntity
  8
0
  6
Continuous
 62
     7
370
    30
100
AcDbLine
 10
80.3871677533
 20
150.9870881906
 30
0.0
 11
80.8871677533
 21
151.5390113531
 31
0.0
  0
LINE
  5
59A
330
1F
100
AcDbEntity
  8
0
  6
Continuous
 62
     7
370
    30
100
AcDbLine
 10
80.8871677533
 20
151.5435815314
 30
0.0
 11
80.8871677533
 21
151.5390113531
 31
0.0
  0
LINE
  5
59B
330
1F
100
AcDbEntity
  8
0
  6
Continuous
 62
     7
370
    30
100
AcDbLine
 10
72.8871677533
 20
151.5435815314
 30
0.0
 11
72.8871677533
 21
151.5390113531
 31
0.0
  0
LINE
  5
59C
330
1F
100
AcDbEntity
  8
0
  6
Continuous
 62
     7
370
    30
100
AcDbLine
 10
73.3871677533
 20
150.9870881906
 30
0.0
 11
73.3871677533
 21
150.910218426
 31
0.0
  0
LINE
  5
59D
330
1F
100
AcDbEntity
  8
0
  6
Continuous
 62
     7
370
    30
100
AcDbLine
 10
73.3871677533
 20
150.910218426
 30
0.0
 11
72.8871677533
 21
151.3289282484
 31
0.0
  0
LINE
  5
59E
330
1F
100
AcDbEntity
  8
0
  6
Continuous
 62
     7
370
    30
100
AcDbLine
 10
72.8871677533
 20
151.3289282484
 30
0.0
 11
72.8871677533
 21
151.5390113531
 31
0.0
  0
LINE
  5
59F
330
1F
100
AcDbEntity
  8
0
  6
Continuous
 62
     7
370
    30
100
AcDbLine
 10
80.3871677533
 20
150.910218426
 30
0.0
 11
80.3871677533
 21
150.9870881906
 31
0.0
  0
LINE
  5
5A0
330
1F
100
AcDbEntity
  8
0
  6
Continuous
 62
     7
370
    30
100
AcDbLine
 10
80.8871677533
 20
151.3289282484
 30
0.0
 11
80.3871677533
 21
150.910218426
 31
0.0
  0
LINE
  5
5A1
330
1F
100
AcDbEntity
  8
0
  6
Continuous
 62
     7
370
    30
100
AcDbLine
 10
80.8871677533
 20
151.5390113531
 30
0.0
 11
80.8871677533
 21
151.3289282484
 31
0.0
  0
LINE
  5
5A2
330
1F
100
AcDbEntity
  8
0
  6
Continuous
 62
     7
370
    30
100
AcDbLine
 10
73.3871677533
 20
150.910218426
 30
0.0
 11
80.3871677533
 21
150.910218426
 31
0.0
  0
LINE
  5
5A3
330
1F
100
AcDbEntity
  8
0
  6
Continuous
 62
     7
370
    30
100
AcDbLine
 10
73.3871677533
 20
163.4481498015
 30
0.0
 11
72.8871677533
 21
162.9024048218
 31
0.0
  0
LINE
  5
5A4
330
1F
100
AcDbEntity
  8
0
  6
Continuous
 62
     7
370
    30
100
AcDbLine
 10
73.3871677533
 20
163.4481498015
 30
0.0
 11
80.3871677533
 21
163.4481498015
 31
0.0
  0
LINE
  5
5A5
330
1F
100
AcDbEntity
  8
0
  6
Continuous
 62
     7
370
    30
100
AcDbLine
 10
80.8871677533
 20
162.9024048218
 30
0.0
 11
80.3871677533
 21
163.4481498015
 31
0.0
  0
LINE
  5
5A6
330
1F
100
AcDbEntity
  8
0
  6
Continuous
 62
     7
370
    30
100
AcDbLine
 10
80.8871677533
 20
162.9024048218
 30
0.0
 11
80.8871677533
 21
162.8987789644
 31
0.0
  0
LINE
  5
5A7
330
1F
100
AcDbEntity
  8
0
  6
Continuous
 62
     7
370
    30
100
AcDbLine
 10
72.8871677533
 20
162.9024048218
 30
0.0
 11
72.8871677533
 21
162.8987789644
 31
0.0
  0
LINE
  5
5A8
330
1F
100
AcDbEntity
  8
0
  6
Continuous
 62
     7
370
    30
100
AcDbLine
 10
72.8871677533
 20
163.0600655596
 30
0.0
 11
73.3871677533
 21
163.5058381332
 31
0.0
  0
LINE
  5
5A9
330
1F
100
AcDbEntity
  8
0
  6
Continuous
 62
     7
370
    30
100
AcDbLine
 10
73.3871677533
 20
163.5058381332
 30
0.0
 11
73.3871677533
 21
163.4481498015
 31
0.0
  0
LINE
  5
5AA
330
1F
100
AcDbEntity
  8
0
  6
Continuous
 62
     7
370
    30
100
AcDbLine
 10
72.8871677533
 20
162.9024048218
 30
0.0
 11
72.8871677533
 21
163.0600655596
 31
0.0
  0
LINE
  5
5AB
330
1F
100
AcDbEntity
  8
0
  6
Continuous
 62
     7
370
    30
100
AcDbLine
 10
80.3871677533
 20
163.4481498015
 30
0.0
 11
80.3871677533
 21
163.5058381332
 31
0.0
  0
LINE
  5
5AC
330
1F
100
AcDbEntity
  8
0
  6
Continuous
 62
     7
370
    30
100
AcDbLine
 10
80.3871677533
 20
163.5058381332
 30
0.0
 11
80.8871677533
 21
163.0600655596
 31
0.0
  0
LINE
  5
5AD
330
1F
100
AcDbEntity
  8
0
  6
Continuous
 62
     7
370
    30
100
AcDbLine
 10
80.8871677533
 20
163.0600655596
 30
0.0
 11
80.8871677533
 21
162.9024048218
 31
0.0
  0
LINE
  5
5AE
330
1F
100
AcDbEntity
  8
0
  6
Continuous
 62
     7
370
    30
100
AcDbLine
 10
80.3871677533
 20
150.7846067835
 30
0.0
 11
73.3871677533
 21
150.7846067835
 31
0.0
  0
LINE
  5
5AF
330
1F
100
AcDbEntity
  8
0
  6
Continuous
 62
     7
370
    30
100
AcDbLine
 10
72.8871677533
 20
151.3258049199
 30
0.0
 11
73.3871677533
 21
150.7846067835
 31
0.0
  0
LINE
  5
5B0
330
1F
100
AcDbEntity
  8
0
  6
Continuous
 62
     7
370
    30
100
AcDbLine
 10
80.3871677533
 20
150.7846067835
 30
0.0
 11
80.8871677533
 21
151.3258049199
 31
0.0
  0
LINE
  5
5B1
330
1F
100
AcDbEntity
  8
0
  6
Continuous
 62
     7
370
    30
100
AcDbLine
 10
80.8871677533
 20
151.3289282484
 30
0.0
 11
80.8871677533
 21
151.3258049199
 31
0.0
  0
LINE
  5
5B2
330
1F
100
AcDbEntity
  8
0
  6
Continuous
 62
     7
370
    30
100
AcDbLine
 10
72.8871677533
 20
151.3289282484
 30
0.0
 11
72.8871677533
 21
151.3258049199
 31
0.0
  0
LINE
  5
5B3
330
1F
100
AcDbEntity
  8
0
  6
Continuous
 62
     7
370
    30
100
AcDbLine
 10
73.3871677533
 20
150.7846067835
 30
0.0
 11
73.3871677533
 21
150.7370875258
 31
0.0
  0
LINE
  5
5B4
330
1F
100
AcDbEntity
  8
0
  6
Continuous
 62
     7
370
    30
100
AcDbLine
 10
73.3871677533
 20
150.7370875258
 30
0.0
 11
72.8871677533
 21
151.1959360018
 31
0.0
  0
LINE
  5
5B5
330
1F
100
AcDbEntity
  8
0
  6
Continuous
 62
     7
370
    30
100
AcDbLine
 10
72.8871677533
 20
151.1959360018
 30
0.0
 11
72.8871677533
 21
151.3258049199
 31
0.0
  0
LINE
  5
5B6
330
1F
100
AcDbEntity
  8
0
  6
Continuous
 62
     7
370
    30
100
AcDbLine
 10
80.3871677533
 20
150.7370875258
 30
0.0
 11
80.3871677533
 21
150.7846067835
 31
0.0
  0
LINE
  5
5B7
330
1F
100
AcDbEntity
  8
0
  6
Continuous
 62
     7
370
    30
100
AcDbLine
 10
80.8871677533
 20
151.1959360018
 30
0.0
 11
80.3871677533
 21
150.7370875258
 31
0.0
  0
LINE
  5
5B8
330
1F
100
AcDbEntity
  8
0
  6
Continuous
 62
     7
370
    30
100
AcDbLine
 10
80.8871677533
 20
151.3258049199
 30
0.0
 11
80.8871677533
 21
151.1959360018
 31
0.0
  0
LINE
  5
5B9
330
1F
100
AcDbEntity
  8
0
  6
Continuous
 62
     7
370
    30
100
AcDbLine
 10
80.3871677533
 20
163.5058381332
 30
0.0
 11
73.3871677533
 21
163.5058381332
 31
0.0
  0
LINE
  5
5BA
330
1F
100
AcDbEntity
  8
0
  6
Continuous
 62
     7
370
    30
100
AcDbLine
 10
73.3871677533
 20
150.7370875258
 30
0.0
 11
80.3871677533
 21
150.7370875258
 31
0.0
  0
LINE
  5
5BB
330
1F
100
AcDbEntity
  8
0
  6
Continuous
 62
     7
370
    30
100
AcDbLine
 10
73.3871677533
 20
163.5922197943
 30
0.0
 11
72.8871677533
 21
163.0622134362
 31
0.0
  0
LINE
  5
5BC
330
1F
100
AcDbEntity
  8
0
  6
Continuous
 62
     7
370
    30
100
AcDbLine
 10
73.3871677533
 20
163.5922197943
 30
0.0
 11
80.3871677533
 21
163.5922197943
 31
0.0
  0
LINE
  5
5BD
330
1F
100
AcDbEntity
  8
0
  6
Continuous
 62
     7
370
    30
100
AcDbLine
 10
80.8871677533
 20
163.0622134362
 30
0.0
 11
80.3871677533
 21
163.5922197943
 31
0.0
  0
LINE
  5
5BE
330
1F
100
AcDbEntity
  8
0
  6
Continuous
 62
     7
370
    30
100
AcDbLine
 10
80.8871677533
 20
163.0622134362
 30
0.0
 11
80.8871677533
 21
163.0600655596
 31
0.0
  0
LINE
  5
5BF
330
1F
100
AcDbEntity
  8
0
  6
Continuous
 62
     7
370
    30
100
AcDbLine
 10
72.8871677533
 20
163.0622134362
 30
0.0
 11
72.8871677533
 21
163.0600655596
 31
0.0
  0
LINE
  5
5C0
330
1F
100
AcDbEntity
  8
0
  6
Continuous
 62
     7
370
    30
100
AcDbLine
 10
72.8871677533
 20
163.1383337383
 30
0.0
 11
73.3871677533
 21
163.6200723421
 31
0.0
  0
LINE
  5
5C1
330
1F
100
AcDbEntity
  8
0
  6
Continuous
 62
     7
370
    30
100
AcDbLine
 10
73.3871677533
 20
163.6200723421
 30
0.0
 11
73.3871677533
 21
163.5922197943
 31
0.0
  0
LINE
  5
5C2
330
1F
100
AcDbEntity
  8
0
  6
Continuous
 62
     7
370
    30
100
AcDbLine
 10
72.8871677533
 20
163.0622134362
 30
0.0
 11
72.8871677533
 21
163.1383337383
 31
0.0
  0
LINE
  5
5C3
330
1F
100
AcDbEntity
  8
0
  6
Continuous
 62
     7
370
    30
100
AcDbLine
 10
80.3871677533
 20
163.5922197943
 30
0.0
 11
80.3871677533
 21
163.6200723421
 31
0.0
  0
LINE
  5
5C4
330
1F
100
AcDbEntity
  8
0
  6
Continuous
 62
     7
370
    30
100
AcDbLine
 10
80.3871677533
 20
163.6200723421
 30
0.0
 11
80.8871677533
 21
163.1383337383
 31
0.0
  0
LINE
  5
5C5
330
1F
100
AcDbEntity
  8
0
  6
Continuous
 62
     7
370
    30
100
AcDbLine
 10
80.8871677533
 20
163.1383337383
 30
0.0
 11
80.8871677533
 21
163.0622134362
 31
0.0
  0
LINE
  5
5C6
330
1F
100
AcDbEntity
  8
0
  6
Continuous
 62
     7
370
    30
100
AcDbLine
 10
80.3871677533
 20
150.6714274928
 30
0.0
 11
73.3871677533
 21
150.6714274928
 31
0.0
  0
LINE
  5
5C7
330
1F
100
AcDbEntity
  8
0
  6
Continuous
 62
     7
370
    30
100
AcDbLine
 10
72.8871677533
 20
151.1943033677
 30
0.0
 11
73.3871677533
 21
150.6714274928
 31
0.0
  0
LINE
  5
5C8
330
1F
100
AcDbEntity
  8
0
  6
Continuous
 62
     7
370
    30
100
AcDbLine
 10
80.3871677533
 20
150.6714274928
 30
0.0
 11
80.8871677533
 21
151.1943033677
 31
0.0
  0
LINE
  5
5C9
330
1F
100
AcDbEntity
  8
0
  6
Continuous
 62
     7
370
    30
100
AcDbLine
 10
80.8871677533
 20
151.1959360018
 30
0.0
 11
80.8871677533
 21
151.1943033677
 31
0.0
  0
LINE
  5
5CA
330
1F
100
AcDbEntity
  8
0
  6
Continuous
 62
     7
370
    30
100
AcDbLine
 10
72.8871677533
 20
151.1959360018
 30
0.0
 11
72.8871677533
 21
151.1943033677
 31
0.0
  0
LINE
  5
5CB
330
1F
100
AcDbEntity
  8
0
  6
Continuous
 62
     7
370
    30
100
AcDbLine
 10
73.3871677533
 20
150.6714274928
 30
0.0
 11
73.3871677533
 21
150.6539258084
 31
0.0
  0
LINE
  5
5CC
330
1F
100
AcDbEntity
  8
0
  6
Continuous
 62
     7
370
    30
100
AcDbLine
 10
73.3871677533
 20
150.6539258084
 30
0.0
 11
72.8871677533
 21
151.1464717111
 31
0.0
  0
LINE
  5
5CD
330
1F
100
AcDbEntity
  8
0
  6
Continuous
 62
     7
370
    30
100
AcDbLine
 10
72.8871677533
 20
151.1464717111
 30
0.0
 11
72.8871677533
 21
151.1943033677
 31
0.0
  0
LINE
  5
5CE
330
1F
100
AcDbEntity
  8
0
  6
Continuous
 62
     7
370
    30
100
AcDbLine
 10
80.3871677533
 20
150.6539258084
 30
0.0
 11
80.3871677533
 21
150.6714274928
 31
0.0
  0
LINE
  5
5CF
330
1F
100
AcDbEntity
  8
0
  6
Continuous
 62
     7
370
    30
100
AcDbLine
 10
80.8871677533
 20
151.1464717111
 30
0.0
 11
80.3871677533
 21
150.6539258084
 31
0.0
  0
LINE
  5
5D0
330
1F
100
AcDbEntity
  8
0
  6
Continuous
 62
     7
370
    30
100
AcDbLine
 10
80.8871677533
 20
151.1943033677
 30
0.0
 11
80.8871677533
 21
151.1464717111
 31
0.0
  0
LINE
  5
5D1
330
1F
100
AcDbEntity
  8
0
  6
Continuous
 62
     7
370
    30
100
AcDbLine
 10
80.3871677533
 20
163.6200723421
 30
0.0
 11
73.3871677533
 21
163.6200723421
 31
0.0
  0
LINE
  5
5D2
330
1F
100
AcDbEntity
  8
0
  6
Continuous
 62
     7
370
    30
100
AcDbLine
 10
73.3871677533
 20
150.6539258084
 30
0.0
 11
80.3871677533
 21
150.6539258084
 31
0.0
  0
LINE
  5
5D3
330
1F
100
AcDbEntity
  8
0
  6
Continuous
 62
     7
370
    30
100
AcDbLine
 10
73.3871677533
 20
163.6458010916
 30
0.0
 11
72.8871677533
 21
163.1389734827
 31
0.0
  0
LINE
  5
5D4
330
1F
100
AcDbEntity
  8
0
  6
Continuous
 62
     7
370
    30
100
AcDbLine
 10
73.3871677533
 20
163.6458010916
 30
0.0
 11
80.3871677533
 21
163.6458010916
 31
0.0
  0
LINE
  5
5D5
330
1F
100
AcDbEntity
  8
0
  6
Continuous
 62
     7
370
    30
100
AcDbLine
 10
80.8871677533
 20
163.1389734827
 30
0.0
 11
80.3871677533
 21
163.6458010916
 31
0.0
  0
LINE
  5
5D6
330
1F
100
AcDbEntity
  8
0
  6
Continuous
 62
     7
370
    30
100
AcDbLine
 10
80.8871677533
 20
163.1389734827
 30
0.0
 11
80.8871677533
 21
163.1383337383
 31
0.0
  0
LINE
  5
5D7
330
1F
100
AcDbEntity
  8
0
  6
Continuous
 62
     7
370
    30
100
AcDbLine
 10
72.8871677533
 20
163.1389734827
 30
0.0
 11
72.8871677533
 21
163.1383337383
 31
0.0
  0
LINE
  5
5D8
330
1F
100
AcDbEntity
  8
0
  6
Continuous
 62
     7
370
    30
100
AcDbLine
 10
73.3871677533
 20
163.6461496027
 30
0.0
 11
73.3871677533
 21
163.6458010916
 31
0.0
  0
LINE
  5
5D9
330
1F
100
AcDbEntity
  8
0
  6
Continuous
 62
     7
370
    30
100
AcDbLine
 10
72.8871677533
 20
163.1389734827
 30
0.0
 11
72.8871677533
 21
163.1461496027
 31
0.0
  0
LINE
  5
5DA
330
1F
100
AcDbEntity
  8
0
  6
Continuous
 62
     7
370
    30
100
AcDbLine
 10
80.3871677533
 20
163.6458010916
 30
0.0
 11
80.3871677533
 21
163.6461496027
 31
0.0
  0
LINE
  5
5DB
330
1F
100
AcDbEntity
  8
0
  6
Continuous
 62
     7
370
    30
100
AcDbLine
 10
80.8871677533
 20
163.1461496027
 30
0.0
 11
80.8871677533
 21
163.1389734827
 31
0.0
  0
LINE
  5
5DC
330
1F
100
AcDbEntity
  8
0
  6
Continuous
 62
     7
370
    30
100
AcDbLine
 10
80.3871677533
 20
150.6491391077
 30
0.0
 11
73.3871677533
 21
150.6491391077
 31
0.0
  0
LINE
  5
5DD
330
1F
100
AcDbEntity
  8
0
  6
Continuous
 62
     7
370
    30
100
AcDbLine
 10
72.8871677533
 20
151.14635269
 30
0.0
 11
73.3871677533
 21
150.6491391077
 31
0.0
  0
LINE
  5
5DE
330
1F
100
AcDbEntity
  8
0
  6
Continuous
 62
     7
370
    30
100
AcDbLine
 10
80.3871677533
 20
150.6491391077
 30
0.0
 11
80.8871677533
 21
151.14635269
 31
0.0
  0
LINE
  5
5DF
330
1F
100
AcDbEntity
  8
0
  6
Continuous
 62
     7
370
    30
100
AcDbLine
 10
80.8871677533
 20
151.1464717111
 30
0.0
 11
80.8871677533
 21
151.14635269
 31
0.0
  0
LINE
  5
5E0
330
1F
100
AcDbEntity
  8
0
  6
Continuous
 62
     7
370
    30
100
AcDbLine
 10
72.8871677533
 20
151.1464717111
 30
0.0
 11
72.8871677533
 21
151.14635269
 31
0.0
  0
LINE
  5
5E1
330
1F
100
AcDbEntity
  8
0
  6
Continuous
 62
     7
370
    30
100
AcDbLine
 10
84.519913471
 20
173.4135180727
 30
0.0
 11
83.3871677533
 21
173.4135180727
 31
0.0
  0
LINE
  5
5E2
330
1F
100
AcDbEntity
  8
0
  6
Continuous
 62
     7
370
    30
100
AcDbLine
 10
91.3871677533
 20
173.4135180727
 30
0.0
 11
84.519913471
 21
173.4135180727
 31
0.0
  0
LINE
  5
5E3
330
1F
100
AcDbEntity
  8
0
  6
Continuous
 62
     7
370
    30
100
AcDbLine
 10
86.3871677533
 20
159.1461496027
 30
0.0
 11
86.3871677533
 21
151.1461496027
 31
0.0
  0
LINE
  5
5E4
330
1F
100
AcDbEntity
  8
0
  6
Continuous
 62
     7
370
    30
100
AcDbLine
 10
86.3871677533
 20
151.1461496027
 30
0.0
 11
81.3871677533
 21
151.1461496027
 31
0.0
  0
LINE
  5
5E5
330
1F
100
AcDbEntity
  8
0
  6
Continuous
 62
     7
370
    30
100
AcDbLine
 10
81.3871677533
 20
151.1461496027
 30
0.0
 11
81.3871677533
 21
159.1461496027
 31
0.0
  0
LINE
  5
5E6
330
1F
100
AcDbEntity
  8
0
  6
Continuous
 62
     7
370
    30
100
AcDbLine
 10
81.3871677533
 20
159.1461496027
 30
0.0
 11
86.3871677533
 21
159.1461496027
 31
0.0
  0
LINE
  5
5E7
330
1F
100
AcDbEntity
  8
0
  6
Continuous
 62
     7
370
    30
100
AcDbLine
 10
88.3871677533
 20
151.1461496027
 30
0.0
 11
88.3871677533
 21
159.1461496027
 31
0.0
  0
LINE
  5
5E8
330
1F
100
AcDbEntity
  8
0
  6
Continuous
 62
     7
370
    30
100
AcDbLine
 10
88.3871677533
 20
151.1461496027
 30
0.0
 11
86.3871677533
 21
151.1461496027
 31
0.0
  0
LINE
  5
5E9
330
1F
100
AcDbEntity
  8
0
  6
Continuous
 62
     7
370
    30
100
AcDbLine
 10
88.3871677533
 20
159.1461496027
 30
0.0
 11
86.3871677533
 21
159.1461496027
 31
0.0
  0
LINE
  5
5EA
330
1F
100
AcDbEntity
  8
0
  6
Continuous
 62
     7
370
    30
100
AcDbLine
 10
93.3871677533
 20
159.1461496027
 30
0.0
 11
93.3871677533
 21
151.1461496027
 31
0.0
  0
LINE
  5
5EB
330
1F
100
AcDbEntity
  8
0
  6
Continuous
 62
     7
370
    30
100
AcDbLine
 10
93.3871677533
 20
151.1461496027
 30
0.0
 11
88.3871677533
 21
151.1461496027
 31
0.0
  0
LINE
  5
5EC
330
1F
100
AcDbEntity
  8
0
  6
Continuous
 62
     7
370
    30
100
AcDbLine
 10
88.3871677533
 20
159.1461496027
 30
0.0
 11
93.3871677533
 21
159.1461496027
 31
0.0
  0
LINE
  5
5ED
330
1F
100
AcDbEntity
  8
0
  6
Continuous
 62
     7
370
    30
100
AcDbLine
 10
93.3871677533
 20
163.1461496027
 30
0.0
 11
81.3871677533
 21
163.1461496027
 31
0.0
  0
LINE
  5
5EE
330
1F
100
AcDbEntity
  8
0
  6
Continuous
 62
     7
370
    30
100
AcDbLine
 10
93.3871677533
 20
163.1461496027
 30
0.0
 11
93.3871677533
 21
159.1461496027
 31
0.0
  0
LINE
  5
5EF
330
1F
100
AcDbEntity
  8
0
  6
Continuous
 62
     7
370
    30
100
AcDbLine
 10
81.3871677533
 20
163.1461496027
 30
0.0
 11
81.3871677533
 21
159.1461496027
 31
0.0
  0
LINE
  5
5F0
330
1F
100
AcDbEntity
  8
0
  6
Continuous
 62
     7
370
    30
100
AcDbLine
 10
62.3871677533
 20
103.4135180727
 30
0.0
 11
62.3871677533
 21
81.4135180727
 31
0.0
  0
LINE
  5
5F1
330
1F
100
AcDbEntity
  8
0
  6
Continuous
 62
     7
370
    30
100
AcDbLine
 10
112.3871677533
 20
103.4135180727
 30
0.0
 11
112.3871677533
 21
81.4135180727
 31
0.0
  0
LINE
  5
5F2
330
1F
100
AcDbEntity
  8
0
  6
Continuous
 62
     7
370
    30
100
AcDbLine
 10
62.3871677533
 20
81.4135180727
 30
0.0
 11
112.3871677533
 21
81.4135180727
 31
0.0
  0
CIRCLE
  5
5F3
330
1F
100
AcDbEntity
  8
0
  6
Continuous
 62
     7
370
    30
100
AcDbCircle
 10
74.6871677533
 20
93.3135180727
 30
0.0
 40
5.953759999999988
  0
CIRCLE
  5
5F4
330
1F
100
AcDbEntity
  8
0
  6
Continuous
 62
     7
370
    30
100
AcDbCircle
 10
100.0871677533
 20
93.3135180727
 30
0.0
 40
5.953759999999988
  0
LINE
  5
5F5
330
1F
100
AcDbEntity
  8
0
  6
Continuous
 62
     7
370
    30
100
AcDbLine
 10
62.3871677533
 20
103.4135180727
 30
0.0
 11
112.3871677533
 21
103.4135180727
 31
0.0
  0
CIRCLE
  5
5F6
330
1F
100
AcDbEntity
  8
0
  6
Continuous
 62
     7
370
    30
100
AcDbCircle
 10
74.6871677533
 20
93.3135180727
 30
0.0
 40
3.378199999999978
  0
CIRCLE
  5
5F7
330
1F
100
AcDbEntity
  8
0
  6
Continuous
 62
     7
370
    30
100
AcDbCircle
 10
100.0871677533
 20
93.3135180727
 30
0.0
 40
3.378199999999993
  0
DIMENSION
  5
5F8
330
1F
100
AcDbEntity
  8
SLD-0
 62
     7
100
AcDbDimension
  2
_D_9
 10
100.0871677533
 20
68.3061243469
 30
0.0
 11
87.3871677533
 21
68.3061243469
 31
0.0
 70
   160
  1
<>
 71
     2
 42
-1.0
  3
SLDDIMSTYLE0
100
AcDbAlignedDimension
 13
74.6871677533
 23
86.3597580727
 33
0.0
 14
100.0871677533
 24
86.3597580727
 34
0.0
100
AcDbRotatedDimension
  0
DIMENSION
  5
602
330
1F
100
AcDbEntity
  8
SLD-0
 62
     7
100
AcDbDimension
  2
_D_10
 10
76.2281142313
 20
87.5626275251
 30
0.0
 11
52.0014230142
 21
121.5030739541
 31
0.0
 70
   163
  1
2 HOLES,\P 1/4"-20 CLR
 71
     1
 42
-1.0
  3
SLDDIMSTYLE1
100
AcDbDiametricDimension
 15
73.1462212754
 25
99.0644086202
 35
0.0
 40
0.0
  0
INSERT
  5
616
330
1F
100
AcDbEntity
  8
SLD-0
 62
     7
100
AcDbBlockReference
  2
SW_CENTERMARKSYMBOL_3
 10
74.6871677533
 20
93.3135180727
 30
0.0
  0
INSERT
  5
622
330
1F
100
AcDbEntity
  8
SLD-0
 62
     7
100
AcDbBlockReference
  2
SW_CENTERMARKSYMBOL_4
 10
100.0871677533
 20
93.3135180727
 30
0.0
  0
ENDSEC
  0
SECTION
  2
OBJECTS
  0
DICTIONARY
  5
C
330
0
100
AcDbDictionary
281
     1
  3
ACAD_GROUP
350
D
  3
ACAD_LAYOUT
350
1A
  3
ACAD_MLINESTYLE
350
17
  3
ACAD_PLOTSETTINGS
350
19
  3
ACAD_PLOTSTYLENAME
350
E
  3
ACAD_SCALELIST
350
47
  0
DICTIONARY
  5
D
102
{ACAD_REACTORS
330
C
102
}
330
C
100
AcDbDictionary
281
     1
  0
DICTIONARY
  5
1A
102
{ACAD_REACTORS
330
C
102
}
330
C
100
AcDbDictionary
281
     1
  3
Layout1
350
1E
  3
Layout2
350
26
  3
Model
350
22
  0
DICTIONARY
  5
17
102
{ACAD_REACTORS
330
C
102
}
330
C
100
AcDbDictionary
281
     1
  3
Standard
350
18
  0
DICTIONARY
  5
19
102
{ACAD_REACTORS
330
C
102
}
330
C
100
AcDbDictionary
281
     1
  0
ACDBDICTIONARYWDFLT
  5
E
102
{ACAD_REACTORS
330
C
102
}
330
C
100
AcDbDictionary
281
     1
  3
Normal
350
F
100
AcDbDictionaryWithDefault
340
F
  0
DICTIONARY
  5
47
102
{ACAD_REACTORS
330
C
102
}
330
C
100
AcDbDictionary
281
     1
  3
A0
350
48
  3
A1
350
49
  3
A2
350
4A
  3
A3
350
4B
  3
A4
350
4C
  3
A5
350
4D
  3
A6
350
4E
  3
A7
350
4F
  3
A8
350
50
  3
A9
350
51
  3
B0
350
52
  3
B1
350
53
  3
B2
350
54
  3
B3
350
55
  3
B4
350
56
  3
B5
350
57
  3
B6
350
58
  3
B7
350
59
  3
B8
350
5A
  3
B9
350
5B
  3
C0
350
5C
  3
C1
350
5D
  3
C2
350
5E
  3
C3
350
5F
  3
C4
350
60
  3
C5
350
61
  3
C6
350
62
  3
C7
350
63
  3
C8
350
64
  3
C9
350
65
  3
D0
350
66
  3
D1
350
67
  3
D2
350
68
  0
LAYOUT
  5
1E
102
{ACAD_REACTORS
330
1A
102
}
330
1A
100
AcDbPlotSettings
  1

  2
none_device
  4

  6

 40
0.0
 41
0.0
 42
0.0
 43
0.0
 44
0.0
 45
0.0
 46
0.0
 47
0.0
 48
0.0
 49
0.0
140
0.0
141
0.0
142
1.0
143
1.0
 70
   688
 72
     1
 73
     0
 74
     5
  7

 75
    16
147
1.0
148
0.0
149
0.0
100
AcDbLayout
  1
Layout1
 70
     1
 71
     1
 10
0.0
 20
0.0
 11
420.0
 21
297.0
 12
0.0
 22
0.0
 32
0.0
 14
1.0000000000E+20
 24
1.0000000000E+20
 34
1.0000000000E+20
 15
-1.0000000000E+20
 25
-1.0000000000E+20
 35
-1.0000000000E+20
146
0.0
 13
0.0
 23
0.0
 33
0.0
 16
1.0
 26
0.0
 36
0.0
 17
0.0
 27
1.0
 37
0.0
 76
     0
330
1B
  0
LAYOUT
  5
26
102
{ACAD_REACTORS
330
1A
102
}
330
1A
100
AcDbPlotSettings
  1

  2
none_device
  4

  6

 40
0.0
 41
0.0
 42
0.0
 43
0.0
 44
0.0
 45
0.0
 46
0.0
 47
0.0
 48
0.0
 49
0.0
140
0.0
141
0.0
142
1.0
143
1.0
 70
   688
 72
     1
 73
     0
 74
     5
  7

 75
    16
147
1.0
148
0.0
149
0.0
100
AcDbLayout
  1
Layout2
 70
     1
 71
     2
 10
0.0
 20
0.0
 11
0.0
 21
0.0
 12
0.0
 22
0.0
 32
0.0
 14
0.0
 24
0.0
 34
0.0
 15
0.0
 25
0.0
 35
0.0
146
0.0
 13
0.0
 23
0.0
 33
0.0
 16
1.0
 26
0.0
 36
0.0
 17
0.0
 27
1.0
 37
0.0
 76
     0
330
23
  0
LAYOUT
  5
22
102
{ACAD_REACTORS
330
1A
102
}
330
1A
100
AcDbPlotSettings
  1

  2
none_device
  4
Letter_(8.50_x_11.00_Inches)
  6

 40
6.35
 41
6.35
 42
6.35000508
 43
6.35000508
 44
215.9
 45
279.4
 46
0.0
 47
0.0
 48
0.0
 49
0.0
140
0.0
141
0.0
142
1.0
143
1.0
 70
  1712
 72
     1
 73
     0
 74
     0
  7

 75
     0
147
1.0
148
0.0
149
0.0
100
AcDbLayout
  1
Model
 70
     1
 71
     0
 10
0.0
 20
0.0
 11
445.5
 21
315.0
 12
0.0
 22
0.0
 32
0.0
 14
0.0
 24
0.0
 34
0.0
 15
445.5
 25
315.0
 35
0.0
146
0.0
 13
0.0
 23
0.0
 33
0.0
 16
1.0
 26
0.0
 36
0.0
 17
0.0
 27
1.0
 37
0.0
 76
     0
330
1F
331
29
  0
MLINESTYLE
  5
18
102
{ACAD_REACTORS
330
17
102
}
330
17
100
AcDbMlineStyle
  2
Standard
 70
     0
  3

 62
   256
 51
90.0
 52
90.0
 71
     2
 49
0.5
 62
   256
  6
BYLAYER
 49
-0.5
 62
   256
  6
BYLAYER
  0
ACDBPLACEHOLDER
  5
F
102
{ACAD_REACTORS
330
E
102
}
330
E
  0
SCALE
  5
48
102
{ACAD_REACTORS
330
47
102
}
330
47
100
AcDbScale
 70
     0
300
1:1
140
1.0
141
1.0
290
     1
  0
SCALE
  5
49
102
{ACAD_REACTORS
330
47
102
}
330
47
100
AcDbScale
 70
     0
300
1:2
140
1.0
141
2.0
290
     0
  0
SCALE
  5
4A
102
{ACAD_REACTORS
330
47
102
}
330
47
100
AcDbScale
 70
     0
300
1:4
140
1.0
141
4.0
290
     0
  0
SCALE
  5
4B
102
{ACAD_REACTORS
330
47
102
}
330
47
100
AcDbScale
 70
     0
300
1:5
140
1.0
141
5.0
290
     0
  0
SCALE
  5
4C
102
{ACAD_REACTORS
330
47
102
}
330
47
100
AcDbScale
 70
     0
300
1:8
140
1.0
141
8.0
290
     0
  0
SCALE
  5
4D
102
{ACAD_REACTORS
330
47
102
}
330
47
100
AcDbScale
 70
     0
300
1:10
140
1.0
141
10.0
290
     0
  0
SCALE
  5
4E
102
{ACAD_REACTORS
330
47
102
}
330
47
100
AcDbScale
 70
     0
300
1:16
140
1.0
141
16.0
290
     0
  0
SCALE
  5
4F
102
{ACAD_REACTORS
330
47
102
}
330
47
100
AcDbScale
 70
     0
300
1:20
140
1.0
141
20.0
290
     0
  0
SCALE
  5
50
102
{ACAD_REACTORS
330
47
102
}
330
47
100
AcDbScale
 70
     0
300
1:30
140
1.0
141
30.0
290
     0
  0
SCALE
  5
51
102
{ACAD_REACTORS
330
47
102
}
330
47
100
AcDbScale
 70
     0
300
1:40
140
1.0
141
40.0
290
     0
  0
SCALE
  5
52
102
{ACAD_REACTORS
330
47
102
}
330
47
100
AcDbScale
 70
     0
300
1:50
140
1.0
141
50.0
290
     0
  0
SCALE
  5
53
102
{ACAD_REACTORS
330
47
102
}
330
47
100
AcDbScale
 70
     0
300
1:100
140
1.0
141
100.0
290
     0
  0
SCALE
  5
54
102
{ACAD_REACTORS
330
47
102
}
330
47
100
AcDbScale
 70
     0
300
2:1
140
2.0
141
1.0
290
     0
  0
SCALE
  5
55
102
{ACAD_REACTORS
330
47
102
}
330
47
100
AcDbScale
 70
     0
300
4:1
140
4.0
141
1.0
290
     0
  0
SCALE
  5
56
102
{ACAD_REACTORS
330
47
102
}
330
47
100
AcDbScale
 70
     0
300
8:1
140
8.0
141
1.0
290
     0
  0
SCALE
  5
57
102
{ACAD_REACTORS
330
47
102
}
330
47
100
AcDbScale
 70
     0
300
10:1
140
10.0
141
1.0
290
     0
  0
SCALE
  5
58
102
{ACAD_REACTORS
330
47
102
}
330
47
100
AcDbScale
 70
     0
300
100:1
140
100.0
141
1.0
290
     0
  0
SCALE
  5
59
102
{ACAD_REACTORS
330
47
102
}
330
47
100
AcDbScale
 70
     0
300
1/128" = 1'-0"
140
0.0078125
141
12.0
290
     0
  0
SCALE
  5
5A
102
{ACAD_REACTORS
330
47
102
}
330
47
100
AcDbScale
 70
     0
300
1/64" = 1'-0"
140
0.015625
141
12.0
290
     0
  0
SCALE
  5
5B
102
{ACAD_REACTORS
330
47
102
}
330
47
100
AcDbScale
 70
     0
300
1/32" = 1'-0"
140
0.03125
141
12.0
290
     0
  0
SCALE
  5
5C
102
{ACAD_REACTORS
330
47
102
}
330
47
100
AcDbScale
 70
     0
300
1/16" = 1'-0"
140
0.0625
141
12.0
290
     0
  0
SCALE
  5
5D
102
{ACAD_REACTORS
330
47
102
}
330
47
100
AcDbScale
 70
     0
300
3/32" = 1'-0"
140
0.09375
141
12.0
290
     0
  0
SCALE
  5
5E
102
{ACAD_REACTORS
330
47
102
}
330
47
100
AcDbScale
 70
     0
300
1/8" = 1'-0"
140
0.125
141
12.0
290
     0
  0
SCALE
  5
5F
102
{ACAD_REACTORS
330
47
102
}
330
47
100
AcDbScale
 70
     0
300
3/16" = 1'-0"
140
0.1875
141
12.0
290
     0
  0
SCALE
  5
60
102
{ACAD_REACTORS
330
47
102
}
330
47
100
AcDbScale
 70
     0
300
1/4" = 1'-0"
140
0.25
141
12.0
290
     0
  0
SCALE
  5
61
102
{ACAD_REACTORS
330
47
102
}
330
47
100
AcDbScale
 70
     0
300
3/8" = 1'-0"
140
0.375
141
12.0
290
     0
  0
SCALE
  5
62
102
{ACAD_REACTORS
330
47
102
}
330
47
100
AcDbScale
 70
     0
300
1/2" = 1'-0"
140
0.5
141
12.0
290
     0
  0
SCALE
  5
63
102
{ACAD_REACTORS
330
47
102
}
330
47
100
AcDbScale
 70
     0
300
3/4" = 1'-0"
140
0.75
141
12.0
290
     0
  0
SCALE
  5
64
102
{ACAD_REACTORS
330
47
102
}
330
47
100
AcDbScale
 70
     0
300
1" = 1'-0"
140
1.0
141
12.0
290
     0
  0
SCALE
  5
65
102
{ACAD_REACTORS
330
47
102
}
330
47
100
AcDbScale
 70
     0
300
1-1/2" = 1'-0"
140
1.5
141
12.0
290
     0
  0
SCALE
  5
66
102
{ACAD_REACTORS
330
47
102
}
330
47
100
AcDbScale
 70
     0
300
3" = 1'-0"
140
3.0
141
12.0
290
     0
  0
SCALE
  5
67
102
{ACAD_REACTORS
330
47
102
}
330
47
100
AcDbScale
 70
     0
300
6" = 1'-0"
140
6.0
141
12.0
290
     0
  0
SCALE
  5
68
102
{ACAD_REACTORS
330
47
102
}
330
47
100
AcDbScale
 70
     0
300
1'-0" = 1'-0"
140
12.0
141
12.0
290
     0
  0
ENDSEC
  0
EOF
