  0
SECTION
  2
HEADER
  9
$ACADVER
  1
AC1015
  9
$ACADMAINTVER
 70
     6
  9
$DWGCODEPAGE
  3
ANSI_950
  9
$INSBASE
 10
0.0
 20
0.0
 30
0.0
  9
$EXTMIN
 10
0.0
 20
0.0
 30
0.0
  9
$EXTMAX
 10
297.0
 20
210.0
 30
0.0
  9
$LIMMIN
 10
0.0
 20
0.0
  9
$LIMMAX
 10
297.0
 20
210.0
  9
$ORTHOMODE
 70
     0
  9
$REGENMODE
 70
     1
  9
$FILLMODE
 70
     1
  9
$QTEXTMODE
 70
     0
  9
$MIRRTEXT
 70
     1
  9
$LTSCALE
 40
1.0
  9
$ATTMODE
 70
     1
  9
$TEXTSIZE
 40
2.5
  9
$TRACEWID
 40
1.0
  9
$TEXTSTYLE
  7
Standard
  9
$CLAYER
  8
0
  9
$CELTYPE
  6
ByLayer
  9
$CECOLOR
 62
   256
  9
$CELTSCALE
 40
1.0
  9
$DISPSILH
 70
     0
  9
$DIMSCALE
 40
1.0
  9
$DIMASZ
 40
2.0
  9
$DIMEXO
 40
1.0
  9
$DIMDLI
 40
3.75
  9
$DIMRND
 40
0.0
  9
$DIMDLE
 40
0.0
  9
$DIMEXE
 40
1.0
  9
$DIMTP
 40
0.0
  9
$DIMTM
 40
0.0
  9
$DIMTXT
 40
2.5
  9
$DIMCEN
 40
2.5
  9
$DIMTSZ
 40
0.0
  9
$DIMTOL
 70
     0
  9
$DIMLIM
 70
     0
  9
$DIMTIH
 70
     1
  9
$DIMTOH
 70
     1
  9
$DIMSE1
 70
     0
  9
$DIMSE2
 70
     0
  9
$DIMTAD
 70
     1
  9
$DIMZIN
 70
     0
  9
$DIMBLK
  1

  9
$DIMASO
 70
     1
  9
$DIMSHO
 70
     1
  9
$DIMPOST
  1

  9
$DIMAPOST
  1

  9
$DIMALT
 70
     0
  9
$DIMALTD
 70
     3
  9
$DIMALTF
 40
0.0393700787
  9
$DIMLFAC
 40
1.0
  9
$DIMTOFL
 70
     1
  9
$DIMTVP
 40
0.0
  9
$DIMTIX
 70
     0
  9
$DIMSOXD
 70
     0
  9
$DIMSAH
 70
     0
  9
$DIMBLK1
  1

  9
$DIMBLK2
  1

  9
$DIMSTYLE
  2
ISO-25
  9
$DIMCLRD
 70
     0
  9
$DIMCLRE
 70
     0
  9
$DIMCLRT
 70
     0
  9
$DIMTFAC
 40
1.0
  9
$DIMGAP
 40
1.0
  9
$DIMJUST
 70
     0
  9
$DIMSD1
 70
     0
  9
$DIMSD2
 70
     0
  9
$DIMTOLJ
 70
     0
  9
$DIMTZIN
 70
     0
  9
$DIMALTZ
 70
     0
  9
$DIMALTTZ
 70
     0
  9
$DIMUPT
 70
     0
  9
$DIMDEC
 70
     2
  9
$DIMTDEC
 70
     2
  9
$DIMALTU
 70
     2
  9
$DIMALTTD
 70
     3
  9
$DIMTXSTY
  7
Standard
  9
$DIMAUNIT
 70
     0
  9
$DIMADEC
 70
     1
  9
$DIMALTRND
 40
0.0
  9
$DIMAZIN
 70
     0
  9
$DIMDSEP
 70
    44
  9
$DIMATFIT
 70
     3
  9
$DIMFRAC
 70
     0
  9
$DIMLDRBLK
  1

  9
$DIMLUNIT
 70
     2
  9
$DIMLWD
 70
    -2
  9
$DIMLWE
 70
    -2
  9
$DIMTMOVE
 70
     0
  9
$LUNITS
 70
     2
  9
$LUPREC
 70
     2
  9
$SKETCHINC
 40
1.0
  9
$FILLETRAD
 40
10.0
  9
$AUNITS
 70
     0
  9
$AUPREC
 70
     1
  9
$MENU
  1
.
  9
$ELEVATION
 40
0.0
  9
$PELEVATION
 40
0.0
  9
$THICKNESS
 40
0.0
  9
$LIMCHECK
 70
     0
  9
$CHAMFERA
 40
0.0
  9
$CHAMFERB
 40
0.0
  9
$CHAMFERC
 40
0.0
  9
$CHAMFERD
 40
0.0
  9
$SKPOLY
 70
     0
  9
$TDCREATE
 40
2459781.463263866
  9
$TDUCREATE
 40
2459781.129930533
  9
$TDUPDATE
 40
2459781.46327838
  9
$TDUUPDATE
 40
2459781.129945046
  9
$TDINDWG
 40
0.0000000116
  9
$TDUSRTIMER
 40
0.0000000116
  9
$USRTIMER
 70
     1
  9
$ANGBASE
 50
0.0
  9
$ANGDIR
 70
     0
  9
$PDMODE
 70
     0
  9
$PDSIZE
 40
-1.0
  9
$PLINEWID
 40
0.0
  9
$SPLFRAME
 70
     0
  9
$SPLINETYPE
 70
     6
  9
$SPLINESEGS
 70
     8
  9
$HANDSEED
  5
32B
  9
$SURFTAB1
 70
     6
  9
$SURFTAB2
 70
     6
  9
$SURFTYPE
 70
     6
  9
$SURFU
 70
     6
  9
$SURFV
 70
     6
  9
$UCSBASE
  2

  9
$UCSNAME
  2

  9
$UCSORG
 10
0.0
 20
0.0
 30
0.0
  9
$UCSXDIR
 10
1.0
 20
0.0
 30
0.0
  9
$UCSYDIR
 10
0.0
 20
1.0
 30
0.0
  9
$UCSORTHOREF
  2

  9
$UCSORTHOVIEW
 70
     0
  9
$UCSORGTOP
 10
0.0
 20
0.0
 30
0.0
  9
$UCSORGBOTTOM
 10
0.0
 20
0.0
 30
0.0
  9
$UCSORGLEFT
 10
0.0
 20
0.0
 30
0.0
  9
$UCSORGRIGHT
 10
0.0
 20
0.0
 30
0.0
  9
$UCSORGFRONT
 10
0.0
 20
0.0
 30
0.0
  9
$UCSORGBACK
 10
0.0
 20
0.0
 30
0.0
  9
$PUCSBASE
  2

  9
$PUCSNAME
  2

  9
$PUCSORG
 10
0.0
 20
0.0
 30
0.0
  9
$PUCSXDIR
 10
1.0
 20
0.0
 30
0.0
  9
$PUCSYDIR
 10
0.0
 20
1.0
 30
0.0
  9
$PUCSORTHOREF
  2

  9
$PUCSORTHOVIEW
 70
     0
  9
$PUCSORGTOP
 10
0.0
 20
0.0
 30
0.0
  9
$PUCSORGBOTTOM
 10
0.0
 20
0.0
 30
0.0
  9
$PUCSORGLEFT
 10
0.0
 20
0.0
 30
0.0
  9
$PUCSORGRIGHT
 10
0.0
 20
0.0
 30
0.0
  9
$PUCSORGFRONT
 10
0.0
 20
0.0
 30
0.0
  9
$PUCSORGBACK
 10
0.0
 20
0.0
 30
0.0
  9
$USERI1
 70
     0
  9
$USERI2
 70
     0
  9
$USERI3
 70
     0
  9
$USERI4
 70
     0
  9
$USERI5
 70
     0
  9
$USERR1
 40
0.0
  9
$USERR2
 40
0.0
  9
$USERR3
 40
0.0
  9
$USERR4
 40
0.0
  9
$USERR5
 40
0.0
  9
$WORLDVIEW
 70
     1
  9
$SHADEDGE
 70
     3
  9
$SHADEDIF
 70
    70
  9
$TILEMODE
 70
     1
  9
$MAXACTVP
 70
    64
  9
$PINSBASE
 10
0.0
 20
0.0
 30
0.0
  9
$PLIMCHECK
 70
     0
  9
$PEXTMIN
 10
1.0000000000E+20
 20
1.0000000000E+20
 30
1.0000000000E+20
  9
$PEXTMAX
 10
-1.0000000000E+20
 20
-1.0000000000E+20
 30
-1.0000000000E+20
  9
$PLIMMIN
 10
0.0
 20
0.0
  9
$PLIMMAX
 10
420.0
 20
297.0
  9
$UNITMODE
 70
     0
  9
$VISRETAIN
 70
     1
  9
$PLINEGEN
 70
     0
  9
$PSLTSCALE
 70
     1
  9
$TREEDEPTH
 70
  3020
  9
$CMLSTYLE
  2
Standard
  9
$CMLJUST
 70
     0
  9
$CMLSCALE
 40
20.0
  9
$PROXYGRAPHICS
 70
     1
  9
$MEASUREMENT
 70
     1
  9
$CELWEIGHT
370
    -1
  9
$ENDCAPS
280
     0
  9
$JOINSTYLE
280
     0
  9
$LWDISPLAY
290
     1
  9
$INSUNITS
 70
     4
  9
$HYPERLINKBASE
  1

  9
$STYLESHEET
  1

  9
$XEDIT
290
     1
  9
$CEPSNTYPE
380
     0
  9
$PSTYLEMODE
290
     1
  9
$FINGERPRINTGUID
  2
{283b707d-5bf1-4a02-94d6-21f3fb7a6b75}
  9
$VERSIONGUID
  2
{FAEB1C32-E019-11D5-929B-00C0DF256EC4}
  9
$EXTNAMES
290
     1
  9
$PSVPSCALE
 40
0.0
  9
$OLESTARTUP
290
     0
  0
ENDSEC
  0
SECTION
  2
CLASSES
  0
CLASS
  1
ACDBDICTIONARYWDFLT
  2
AcDbDictionaryWithDefault
  3
ObjectDBX Classes
 90
        0
280
     0
281
     0
  0
CLASS
  1
VISUALSTYLE
  2
AcDbVisualStyle
  3
ObjectDBX Classes
 90
     4095
280
     0
281
     0
  0
CLASS
  1
MATERIAL
  2
AcDbMaterial
  3
ObjectDBX Classes
 90
     1153
280
     0
281
     0
  0
CLASS
  1
SCALE
  2
AcDbScale
  3
ObjectDBX Classes
 90
     1153
280
     0
281
     0
  0
CLASS
  1
TABLESTYLE
  2
AcDbTableStyle
  3
ObjectDBX Classes
 90
     4095
280
     0
281
     0
  0
CLASS
  1
MLEADERSTYLE
  2
AcDbMLeaderStyle
  3
ACDB_MLEADERSTYLE_CLASS
 90
     4095
280
     0
281
     0
  0
CLASS
  1
SUN
  2
AcDbSun
  3
SCENEOE
 90
     1153
280
     0
281
     0
  0
CLASS
  1
ACDBPLACEHOLDER
  2
AcDbPlaceHolder
  3
ObjectDBX Classes
 90
        0
280
     0
281
     0
  0
CLASS
  1
LAYOUT
  2
AcDbLayout
  3
ObjectDBX Classes
 90
        0
280
     0
281
     0
  0
ENDSEC
  0
SECTION
  2
TABLES
  0
TABLE
  2
VPORT
  5
8
330
0
100
AcDbSymbolTable
 70
     1
  0
VPORT
  5
29
330
8
100
AcDbSymbolTableRecord
100
AcDbViewportTableRecord
  2
*Active
 70
     0
 10
0.0
 20
0.0
 11
1.0
 21
1.0
 12
148.5
 22
105.0
 13
0.0
 23
0.0
 14
10.0
 24
10.0
 15
10.0
 25
10.0
 16
0.0
 26
0.0
 36
1.0
 17
0.0
 27
0.0
 37
0.0
 40
210.0
 41
1.4142857143
 42
50.0
 43
0.0
 44
0.0
 50
0.0
 51
0.0
 71
     0
 72
  2000
 73
     1
 74
     3
 75
     0
 76
     0
 77
     0
 78
     0
281
     0
 65
     1
110
0.0
120
0.0
130
0.0
111
1.0
121
0.0
131
0.0
112
0.0
122
1.0
132
0.0
 79
     0
146
0.0
  0
ENDTAB
  0
TABLE
  2
LTYPE
  5
5
330
0
100
AcDbSymbolTable
 70
     6
  0
LTYPE
  5
14
330
5
100
AcDbSymbolTableRecord
100
AcDbLinetypeTableRecord
  2
ByBlock
 70
     0
  3

 72
    65
 73
     0
 40
0.0
  0
LTYPE
  5
15
330
5
100
AcDbSymbolTableRecord
100
AcDbLinetypeTableRecord
  2
ByLayer
 70
     0
  3

 72
    65
 73
     0
 40
0.0
  0
LTYPE
  5
16
330
5
100
AcDbSymbolTableRecord
100
AcDbLinetypeTableRecord
  2
Continuous
 70
     0
  3
Solid line
 72
    65
 73
     0
 40
0.0
  0
LTYPE
  5
6E
330
5
100
AcDbSymbolTableRecord
100
AcDbLinetypeTableRecord
  2
HIDDEN
 70
     0
  3
Hidden __ __ __ __ __ __ __ __ __ __ __ __ __ __
 72
    65
 73
     2
 40
1.905
 49
1.27
 74
     0
 49
-0.635
 74
     0
  0
LTYPE
  5
6F
330
5
100
AcDbSymbolTableRecord
100
AcDbLinetypeTableRecord
  2
PHANTOM
 70
     0
  3
Phantom ______  __  __  ______  __  __  ______
 72
    65
 73
     6
 40
12.7
 49
6.35
 74
     0
 49
-1.27
 74
     0
 49
1.27
 74
     0
 49
-1.27
 74
     0
 49
1.27
 74
     0
 49
-1.27
 74
     0
  0
LTYPE
  5
70
330
5
100
AcDbSymbolTableRecord
100
AcDbLinetypeTableRecord
  2
CENTER
 70
     0
  3
Center ____ _ ____ _ ____ _ ____ _ ____ _ ____
 72
    65
 73
     4
 40
10.16
 49
6.35
 74
     0
 49
-1.27
 74
     0
 49
1.27
 74
     0
 49
-1.27
 74
     0
  0
LTYPE
  5
71
330
5
100
AcDbSymbolTableRecord
100
AcDbLinetypeTableRecord
  2
CENTERX2
 70
     0
  3
Center (2x) ________  __  ________  __  _____
 72
    65
 73
     4
 40
20.32
 49
12.7
 74
     0
 49
-2.54
 74
     0
 49
2.54
 74
     0
 49
-2.54
 74
     0
  0
LTYPE
  5
72
330
5
100
AcDbSymbolTableRecord
100
AcDbLinetypeTableRecord
  2
DOT2
 70
     0
  3
Dot (.5x) ........................................
 72
    65
 73
     2
 40
0.635
 49
0.0
 74
     0
 49
-0.635
 74
     0
  0
ENDTAB
  0
TABLE
  2
LAYER
  5
2
330
0
100
AcDbSymbolTable
 70
     3
  0
LAYER
  5
10
330
2
100
AcDbSymbolTableRecord
100
AcDbLayerTableRecord
  2
0
 70
     0
 62
     7
  6
Continuous
370
    -3
390
F
  0
LAYER
  5
73
330
2
100
AcDbSymbolTableRecord
100
AcDbLayerTableRecord
  2
SLD-0
 70
     0
 62
     7
  6
Continuous
370
    25
390
F
  0
LAYER
  5
74
330
2
100
AcDbSymbolTableRecord
100
AcDbLayerTableRecord
  2
工作區域參考線
 70
     0
 62
   179
  6
Continuous
370
    -3
390
F
  0
ENDTAB
  0
TABLE
  2
STYLE
  5
3
330
0
100
AcDbSymbolTable
 70
     2
  0
STYLE
  5
11
330
3
100
AcDbSymbolTableRecord
100
AcDbTextStyleTableRecord
  2
Standard
 70
     0
 40
0.0
 41
1.0
 50
0.0
 71
     0
 42
2.5
  3
txt
  4

  0
STYLE
  5
C9
330
3
100
AcDbSymbolTableRecord
100
AcDbTextStyleTableRecord
  2
SLDTEXTSTYLE0
 70
     0
 40
0.0
 41
0.605
 50
0.0
 71
     0
 42
2.5
  3
TXT
  4

  0
ENDTAB
  0
TABLE
  2
VIEW
  5
6
330
0
100
AcDbSymbolTable
 70
     0
  0
ENDTAB
  0
TABLE
  2
UCS
  5
7
330
0
100
AcDbSymbolTable
 70
     0
  0
ENDTAB
  0
TABLE
  2
APPID
  5
9
330
0
100
AcDbSymbolTable
 70
     1
  0
APPID
  5
12
330
9
100
AcDbSymbolTableRecord
100
AcDbRegAppTableRecord
  2
ACAD
 70
     0
  0
ENDTAB
  0
TABLE
  2
DIMSTYLE
  5
A
330
0
100
AcDbSymbolTable
 70
     6
100
AcDbDimStyleTable
  0
DIMSTYLE
105
27
330
A
100
AcDbSymbolTableRecord
100
AcDbDimStyleTableRecord
  2
ISO-25
 70
     0
 41
2.5
 42
0.625
 43
3.75
 44
1.25
 73
     0
 74
     0
 77
     1
 78
     8
140
2.5
141
2.5
143
0.0393700787
147
0.625
171
     3
172
     1
178
     0
271
     2
272
     2
274
     3
278
    44
283
     0
284
     8
340
11
  0
DIMSTYLE
105
1A0
102
{ACAD_REACTORS
330
19F
330
1AA
330
239
330
243
330
24D
330
257
330
29B
330
2A5
102
}
330
A
100
AcDbSymbolTableRecord
100
AcDbDimStyleTableRecord
  2
SLDDIMSTYLE0
 70
     0
 41
2.0
 44
0.0
 45
0.000000001
 73
     0
 74
     0
 77
     1
 78
    12
 79
     3
140
2.5
147
0.625
173
     1
178
     0
271
     2
272
     2
276
     2
284
    12
340
C9
  0
DIMSTYLE
105
1B5
102
{ACAD_REACTORS
330
1B4
102
}
330
A
100
AcDbSymbolTableRecord
100
AcDbDimStyleTableRecord
  2
SLDDIMSTYLE1
 70
     0
 41
2.0
 44
0.0
 45
0.000000001
 73
     0
 74
     0
 77
     1
 78
    12
 79
     3
140
2.5
147
0.625
172
     1
173
     1
178
     0
271
     2
272
     2
276
     2
284
    12
289
     0
340
C9
  0
DIMSTYLE
105
262
102
{ACAD_REACTORS
330
261
102
}
330
A
100
AcDbSymbolTableRecord
100
AcDbDimStyleTableRecord
  2
SLDDIMSTYLE2
 70
     0
  3
<>
 41
2.0
 44
0.0
 45
0.000000001
 78
    12
 79
     3
140
2.5
141
0.0
147
0.625
173
     1
178
     0
271
     2
272
     2
276
     2
284
    12
340
C9
  0
DIMSTYLE
105
26C
102
{ACAD_REACTORS
330
26B
102
}
330
A
100
AcDbSymbolTableRecord
100
AcDbDimStyleTableRecord
  2
SLDDIMSTYLE3
 70
     0
 41
2.0
 44
0.0
 45
0.000000001
 73
     0
 74
     0
 77
     1
 78
    12
 79
     3
140
2.5
147
0.625
173
     1
178
     0
271
     1
272
     1
276
     2
284
    12
340
C9
  0
DIMSTYLE
105
2B0
102
{ACAD_REACTORS
330
2AF
102
}
330
A
100
AcDbSymbolTableRecord
100
AcDbDimStyleTableRecord
  2
SLDDIMSTYLE4
 70
     0
 41
2.0
 44
0.0
 45
0.000000001
 78
    12
 79
     3
140
2.5
141
0.0
147
0.625
173
     1
178
     0
271
     2
272
     2
276
     2
284
    12
340
C9
  0
ENDTAB
  0
TABLE
  2
BLOCK_RECORD
  5
1
330
0
100
AcDbSymbolTable
 70
    19
  0
BLOCK_RECORD
  5
1F
330
1
100
AcDbSymbolTableRecord
100
AcDbBlockTableRecord
  2
*Model_Space
340
22
  0
BLOCK_RECORD
  5
1B
330
1
100
AcDbSymbolTableRecord
100
AcDbBlockTableRecord
  2
*Paper_Space
340
1E
  0
BLOCK_RECORD
  5
23
330
1
100
AcDbSymbolTableRecord
100
AcDbBlockTableRecord
  2
*Paper_Space0
340
26
  0
BLOCK_RECORD
  5
75
330
1
100
AcDbSymbolTableRecord
100
AcDbBlockTableRecord
  2
圖塊6
340
0
102
{BLKREFS
331
C8
102
}
  0
BLOCK_RECORD
  5
CB
330
1
100
AcDbSymbolTableRecord
100
AcDbBlockTableRecord
  2
SW_NOTE_0
340
0
102
{BLKREFS
331
D1
102
}
  0
BLOCK_RECORD
  5
DD
330
1
100
AcDbSymbolTableRecord
100
AcDbBlockTableRecord
  2
SW_NOTE_0_1
340
0
102
{BLKREFS
331
E2
102
}
  0
BLOCK_RECORD
  5
1A1
330
1
100
AcDbSymbolTableRecord
100
AcDbBlockTableRecord
  2
_D
340
0
  0
BLOCK_RECORD
  5
1AB
330
1
100
AcDbSymbolTableRecord
100
AcDbBlockTableRecord
  2
_D_1
340
0
  0
BLOCK_RECORD
  5
1B6
330
1
100
AcDbSymbolTableRecord
100
AcDbBlockTableRecord
  2
_D_2
340
0
  0
BLOCK_RECORD
  5
1C1
330
1
100
AcDbSymbolTableRecord
100
AcDbBlockTableRecord
  2
SW_CENTERMARKSYMBOL_0
340
0
102
{BLKREFS
331
1CC
102
}
  0
BLOCK_RECORD
  5
23A
330
1
100
AcDbSymbolTableRecord
100
AcDbBlockTableRecord
  2
_D_3
340
0
  0
BLOCK_RECORD
  5
244
330
1
100
AcDbSymbolTableRecord
100
AcDbBlockTableRecord
  2
_D_4
340
0
  0
BLOCK_RECORD
  5
24E
330
1
100
AcDbSymbolTableRecord
100
AcDbBlockTableRecord
  2
_D_5
340
0
  0
BLOCK_RECORD
  5
258
330
1
100
AcDbSymbolTableRecord
100
AcDbBlockTableRecord
  2
_D_6
340
0
  0
BLOCK_RECORD
  5
263
330
1
100
AcDbSymbolTableRecord
100
AcDbBlockTableRecord
  2
_D_7
340
0
  0
BLOCK_RECORD
  5
26D
330
1
100
AcDbSymbolTableRecord
100
AcDbBlockTableRecord
  2
_D_8
340
0
  0
BLOCK_RECORD
  5
277
330
1
100
AcDbSymbolTableRecord
100
AcDbBlockTableRecord
  2
SW_CENTERMARKSYMBOL_1
340
0
102
{BLKREFS
331
282
102
}
  0
BLOCK_RECORD
  5
29C
330
1
100
AcDbSymbolTableRecord
100
AcDbBlockTableRecord
  2
_D_9
340
0
  0
BLOCK_RECORD
  5
2A6
330
1
100
AcDbSymbolTableRecord
100
AcDbBlockTableRecord
  2
_D_10
340
0
  0
BLOCK_RECORD
  5
2B1
330
1
100
AcDbSymbolTableRecord
100
AcDbBlockTableRecord
  2
_D_11
340
0
  0
BLOCK_RECORD
  5
2BA
330
1
100
AcDbSymbolTableRecord
100
AcDbBlockTableRecord
  2
SW_CENTERMARKSYMBOL_2
340
0
102
{BLKREFS
331
2C5
102
}
  0
ENDTAB
  0
ENDSEC
  0
SECTION
  2
BLOCKS
  0
BLOCK
  5
20
330
1F
100
AcDbEntity
  8
0
100
AcDbBlockBegin
  2
*Model_Space
 70
     0
 10
0.0
 20
0.0
 30
0.0
  3
*Model_Space
  1

  0
ENDBLK
  5
21
330
1F
100
AcDbEntity
  8
0
100
AcDbBlockEnd
  0
BLOCK
  5
1C
330
1B
100
AcDbEntity
 67
     1
  8
0
100
AcDbBlockBegin
  2
*Paper_Space
 70
     0
 10
0.0
 20
0.0
 30
0.0
  3
*Paper_Space
  1

  0
ENDBLK
  5
1D
330
1B
100
AcDbEntity
 67
     1
  8
0
100
AcDbBlockEnd
  0
BLOCK
  5
24
330
23
100
AcDbEntity
  8
0
100
AcDbBlockBegin
  2
*Paper_Space0
 70
     0
 10
0.0
 20
0.0
 30
0.0
  3
*Paper_Space0
  1

  0
ENDBLK
  5
25
330
23
100
AcDbEntity
  8
0
100
AcDbBlockEnd
  0
BLOCK
  5
76
330
75
100
AcDbEntity
  8
0
100
AcDbBlockBegin
  2
圖塊6
 70
     0
 10
0.0
 20
0.0
 30
0.0
  3
圖塊6
  1

  0
ARC
  5
78
330
75
100
AcDbEntity
  8
0
 62
     7
370
    35
100
AcDbCircle
 10
1.5301544339
 20
6.1020682891
 30
0.0
 40
1.53015443394367
100
AcDbArc
 50
130.2115225915
 51
228.588904108
  0
ARC
  5
79
330
75
100
AcDbEntity
  8
0
 62
     7
370
    35
100
AcDbCircle
 10
4.8509135981
 20
5.9949454415
 30
0.0
 40
2.577335426817622
100
AcDbArc
 50
140.4331765613
 51
251.0865666567
  0
ARC
  5
7A
330
75
100
AcDbEntity
  8
0
 62
     7
370
    35
100
AcDbCircle
 10
5.1765041982
 20
6.3117559713
 30
0.0
 40
2.989636657769863
100
AcDbArc
 50
247.1485306747
 51
309.6030773927
  0
LINE
  5
7B
330
75
100
AcDbEntity
  8
0
 62
     7
370
    35
100
AcDbLine
 10
1.8488977269
 20
8.5321825984
 30
0.0
 11
0.542269472
 21
7.2705955219
 31
0.0
  0
LINE
  5
7C
330
75
100
AcDbEntity
  8
0
 62
     7
370
    35
100
AcDbLine
 10
0.51802289
 20
4.9544784977
 30
0.0
 11
4.5272252002
 21
1.4698746574
 31
0.0
  0
LINE
  5
7D
330
75
100
AcDbEntity
  8
0
 62
     7
370
    35
100
AcDbLine
 10
4.5272252002
 20
1.4698746574
 30
0.0
 11
3.8961732797
 21
0.853974267
 31
0.0
  0
LINE
  5
7E
330
75
100
AcDbEntity
  8
0
 62
     7
370
    35
100
AcDbLine
 10
3.8961732797
 20
0.853974267
 30
0.0
 11
4.8880526445
 21
0.0
 31
0.0
  0
LINE
  5
7F
330
75
100
AcDbEntity
  8
0
 62
     7
370
    35
100
AcDbLine
 10
8.0977170788
 20
3.1165779655
 30
0.0
 11
7.0822940472
 21
4.0083036932
 31
0.0
  0
LINE
  5
80
330
75
100
AcDbEntity
  8
0
 62
     7
370
    35
100
AcDbLine
 10
2.8640915743
 20
7.6366506975
 30
0.0
 11
1.8488977269
 21
8.5321825984
 31
0.0
  0
LINE
  5
81
330
75
100
AcDbEntity
  8
0
 62
     7
370
    35
100
AcDbLine
 10
4.8880526445
 20
0.0
 30
0.0
 11
8.0977170788
 21
3.1165779655
 31
0.0
  0
ENDBLK
  5
77
330
75
100
AcDbEntity
  8
0
100
AcDbBlockEnd
  0
BLOCK
  5
CC
330
CB
100
AcDbEntity
  8
0
100
AcDbBlockBegin
  2
SW_NOTE_0
 70
     0
 10
0.0
 20
0.0
 30
0.0
  3
SW_NOTE_0
  1

  0
MTEXT
  5
CE
330
CB
100
AcDbEntity
  8
0
  6
Continuous
 62
     0
370
     0
100
AcDbMText
 10
0.0
 20
3.4106583948
 30
0.0
 40
2.6458333333
 41
0.0
 71
     1
 72
     1
  1
PROPRIETARY AND CONFIDENTIAL
  7
SLDTEXTSTYLE0
 73
     1
 44
1.0
  0
MTEXT
  5
CF
330
CB
100
AcDbEntity
  8
0
  6
Continuous
 62
     0
370
     0
100
AcDbMText
 10
0.0
 20
-0.08198348
 30
0.0
 40
1.8520833333
 41
0.0
 71
     1
 72
     1
  1
THE INFORMATION CONTAINED IN THIS DRAWING IS THE SOLE PROPERTY OF UNICE E-O SERVICES INC. ANY REPRODUCTION IN PART OR AS A WHOLE WITHOUT THE WRITTEN PERMISSION OF UNICE E-O SERVICES INC IS
  7
SLDTEXTSTYLE0
 73
     1
 44
1.0
  0
MTEXT
  5
D0
330
CB
100
AcDbEntity
  8
0
  6
Continuous
 62
     0
370
     0
100
AcDbMText
 10
0.0
 20
-2.5514278946
 30
0.0
 40
1.8520833333
 41
0.0
 71
     1
 72
     1
  1
PROHIBITED.
  7
SLDTEXTSTYLE0
 73
     1
 44
1.0
  0
ENDBLK
  5
CD
330
CB
100
AcDbEntity
  8
0
100
AcDbBlockEnd
  0
BLOCK
  5
DE
330
DD
100
AcDbEntity
  8
0
100
AcDbBlockBegin
  2
SW_NOTE_0_1
 70
     0
 10
0.0
 20
0.0
 30
0.0
  3
SW_NOTE_0_1
  1

  0
MTEXT
  5
E0
330
DD
100
AcDbEntity
  8
0
  6
Continuous
 62
     0
370
     0
100
AcDbMText
 10
0.0
 20
2.0463950369
 30
0.0
 40
1.5875
 41
0.0
 71
     1
 72
     1
  1
No.5, Andong Rd., Chung Li District,
  7
SLDTEXTSTYLE0
 73
     1
 44
1.0
  0
MTEXT
  5
E1
330
DD
100
AcDbEntity
  8
0
  6
Continuous
 62
     0
370
     0
100
AcDbMText
 10
0.0
 20
-0.0702716042
 30
0.0
 40
1.5875
 41
0.0
 71
     1
 72
     1
  1
Taoyuan City 32063, Taiwan, R.O.C.
  7
SLDTEXTSTYLE0
 73
     1
 44
1.0
  0
ENDBLK
  5
DF
330
DD
100
AcDbEntity
  8
0
100
AcDbBlockEnd
  0
BLOCK
  5
1A2
330
1A1
100
AcDbEntity
  8
0
100
AcDbBlockBegin
  2
_D
 70
     0
 10
0.0
 20
0.0
 30
0.0
  3
_D
  1

  0
SOLID
  5
1A4
330
1A1
100
AcDbEntity
  8
SLD-0
 62
     7
100
AcDbTrace
 10
57.1860038228
 20
53.2214805641
 30
0.0
 11
55.1860038228
 21
53.4714805641
 31
0.0
 12
55.1860038228
 22
52.9714805641
 32
0.0
 13
55.1860038228
 23
52.9714805641
 33
0.0
  0
SOLID
  5
1A5
330
1A1
100
AcDbEntity
  8
SLD-0
 62
     7
100
AcDbTrace
 10
29.1860038228
 20
53.2214805641
 30
0.0
 11
31.1860038228
 21
52.9714805641
 31
0.0
 12
31.1860038228
 22
53.4714805641
 32
0.0
 13
31.1860038228
 23
53.4714805641
 33
0.0
  0
LINE
  5
1A6
330
1A1
100
AcDbEntity
  8
SLD-0
 62
     7
100
AcDbLine
 10
57.1860038228
 20
77.5059096597
 30
0.0
 11
57.1860038228
 21
52.2214805641
 31
0.0
  0
LINE
  5
1A7
330
1A1
100
AcDbEntity
  8
SLD-0
 62
     7
100
AcDbLine
 10
29.1860038228
 20
67.5059096597
 30
0.0
 11
29.1860038228
 21
52.2214805641
 31
0.0
  0
LINE
  5
1A8
330
1A1
100
AcDbEntity
  8
SLD-0
 62
     7
100
AcDbLine
 10
57.1860038228
 20
53.2214805641
 30
0.0
 11
29.1860038228
 21
53.2214805641
 31
0.0
  0
MTEXT
  5
1A9
330
1A1
100
AcDbEntity
  8
SLD-0
 62
     7
100
AcDbMText
 10
41.276281598
 20
56.4441497389
 30
0.0
 40
2.5
 41
0.0
 71
     1
 72
     1
  1
28
  7
SLDTEXTSTYLE0
 73
     1
 44
1.0
  0
ENDBLK
  5
1A3
330
1A1
100
AcDbEntity
  8
0
100
AcDbBlockEnd
  0
BLOCK
  5
1AC
330
1AB
100
AcDbEntity
  8
0
100
AcDbBlockBegin
  2
_D_1
 70
     0
 10
0.0
 20
0.0
 30
0.0
  3
_D_1
  1

  0
SOLID
  5
1AE
330
1AB
100
AcDbEntity
  8
SLD-0
 62
     7
100
AcDbTrace
 10
22.1860038228
 20
63.5059096597
 30
0.0
 11
22.4360038228
 21
65.5059096597
 31
0.0
 12
21.9360038228
 22
65.5059096597
 32
0.0
 13
21.9360038228
 23
65.5059096597
 33
0.0
  0
SOLID
  5
1AF
330
1AB
100
AcDbEntity
  8
SLD-0
 62
     7
100
AcDbTrace
 10
22.1860038228
 20
91.5059096597
 30
0.0
 11
21.9360038228
 21
89.5059096597
 31
0.0
 12
22.4360038228
 22
89.5059096597
 32
0.0
 13
22.4360038228
 23
89.5059096597
 33
0.0
  0
LINE
  5
1B0
330
1AB
100
AcDbEntity
  8
SLD-0
 62
     7
100
AcDbLine
 10
33.1860038228
 20
63.5059096597
 30
0.0
 11
21.1860038228
 21
63.5059096597
 31
0.0
  0
LINE
  5
1B1
330
1AB
100
AcDbEntity
  8
SLD-0
 62
     7
100
AcDbLine
 10
43.1860038228
 20
91.5059096597
 30
0.0
 11
21.1860038228
 21
91.5059096597
 31
0.0
  0
LINE
  5
1B2
330
1AB
100
AcDbEntity
  8
SLD-0
 62
     7
100
AcDbLine
 10
22.1860038228
 20
63.5059096597
 30
0.0
 11
22.1860038228
 21
91.5059096597
 31
0.0
  0
MTEXT
  5
1B3
330
1AB
100
AcDbEntity
  8
SLD-0
 62
     7
100
AcDbMText
 10
18.963334648
 20
75.5961874349
 30
0.0
 40
2.5
 41
0.0
 71
     1
 72
     1
  1
28
  7
SLDTEXTSTYLE0
 11
3.613946018757869E-15
 21
1.0
 31
0.0
 73
     1
 44
1.0
  0
ENDBLK
  5
1AD
330
1AB
100
AcDbEntity
  8
0
100
AcDbBlockEnd
  0
BLOCK
  5
1B7
330
1B6
100
AcDbEntity
  8
0
100
AcDbBlockBegin
  2
_D_2
 70
     0
 10
0.0
 20
0.0
 30
0.0
  3
_D_2
  1

  0
SOLID
  5
1B9
330
1B6
100
AcDbEntity
  8
SLD-0
100
AcDbTrace
 10
85.5954649722
 20
58.8513832994
 30
0.0
 11
87.4750162908
 21
59.5792478754
 31
0.0
 12
87.2380172776
 22
60.0195108284
 32
0.0
 13
87.2380172776
 23
60.0195108284
 33
0.0
  0
SOLID
  5
1BA
330
1B6
100
AcDbEntity
  8
SLD-0
100
AcDbTrace
 10
83.8344131602
 20
57.9033872469
 30
0.0
 11
81.9548618417
 21
57.175522671
 31
0.0
 12
82.1918608548
 22
56.735259718
 32
0.0
 13
82.1918608548
 23
56.735259718
 33
0.0
  0
LINE
  5
1BB
330
1B6
100
AcDbEntity
  8
SLD-0
100
AcDbLine
 10
79.8141906431
 20
69.5910099111
 30
0.0
 11
86.0694629984
 21
57.9708573934
 31
0.0
  0
LINE
  5
1BC
330
1B6
100
AcDbEntity
  8
SLD-0
100
AcDbLine
 10
78.0531388311
 20
68.6430138586
 30
0.0
 11
84.3084111865
 21
57.022861341
 31
0.0
  0
LINE
  5
1BD
330
1B6
100
AcDbEntity
  8
SLD-0
100
AcDbLine
 10
85.5954649722
 20
58.8513832994
 30
0.0
 11
88.2370426902
 21
60.2733773781
 31
0.0
  0
LINE
  5
1BE
330
1B6
100
AcDbEntity
  8
SLD-0
100
AcDbLine
 10
85.5954649722
 20
58.8513832994
 30
0.0
 11
83.8344131602
 21
57.9033872469
 31
0.0
  0
LINE
  5
1BF
330
1B6
100
AcDbEntity
  8
SLD-0
100
AcDbLine
 10
83.8344131602
 20
57.9033872469
 30
0.0
 11
79.3640710476
 21
55.4969465919
 31
0.0
  0
MTEXT
  5
1C0
330
1B6
100
AcDbEntity
  8
SLD-0
100
AcDbMText
 10
77.8365322195
 20
58.3345902868
 30
0.0
 40
2.5
 41
0.0
 71
     1
 72
     1
  1
2
  7
SLDTEXTSTYLE0
 11
0.8805259059934309
 21
0.4739980262347592
 31
0.0
 73
     1
 44
1.0
  0
ENDBLK
  5
1B8
330
1B6
100
AcDbEntity
  8
0
100
AcDbBlockEnd
  0
BLOCK
  5
1C2
330
1C1
100
AcDbEntity
  8
0
100
AcDbBlockBegin
  2
SW_CENTERMARKSYMBOL_0
 70
     0
 10
0.0
 20
0.0
 30
0.0
  3
SW_CENTERMARKSYMBOL_0
  1

  0
LINE
  5
1C4
330
1C1
100
AcDbEntity
  8
SLD-0
 62
     0
100
AcDbLine
 10
0.0
 20
0.0
 30
0.0
 11
0.0
 21
1.0
 31
0.0
  0
LINE
  5
1C5
330
1C1
100
AcDbEntity
  8
SLD-0
 62
     0
100
AcDbLine
 10
0.0
 20
0.0
 30
0.0
 11
-1.0
 21
0.0
 31
0.0
  0
LINE
  5
1C6
330
1C1
100
AcDbEntity
  8
SLD-0
 62
     0
100
AcDbLine
 10
0.0
 20
0.0
 30
0.0
 11
0.0
 21
-1.0
 31
0.0
  0
LINE
  5
1C7
330
1C1
100
AcDbEntity
  8
SLD-0
 62
     0
100
AcDbLine
 10
0.0
 20
0.0
 30
0.0
 11
1.0
 21
0.0
 31
0.0
  0
LINE
  5
1C8
330
1C1
100
AcDbEntity
  8
SLD-0
 62
     0
100
AcDbLine
 10
0.0
 20
2.0
 30
0.0
 11
0.0
 21
13.0
 31
0.0
  0
LINE
  5
1C9
330
1C1
100
AcDbEntity
  8
SLD-0
 62
     0
100
AcDbLine
 10
-2.0
 20
0.0
 30
0.0
 11
-13.0
 21
0.0
 31
0.0
  0
LINE
  5
1CA
330
1C1
100
AcDbEntity
  8
SLD-0
 62
     0
100
AcDbLine
 10
0.0
 20
-2.0
 30
0.0
 11
0.0
 21
-13.0
 31
0.0
  0
LINE
  5
1CB
330
1C1
100
AcDbEntity
  8
SLD-0
 62
     0
100
AcDbLine
 10
2.0
 20
0.0
 30
0.0
 11
13.0
 21
0.0
 31
0.0
  0
ENDBLK
  5
1C3
330
1C1
100
AcDbEntity
  8
0
100
AcDbBlockEnd
  0
BLOCK
  5
23B
330
23A
100
AcDbEntity
  8
0
100
AcDbBlockBegin
  2
_D_3
 70
     0
 10
0.0
 20
0.0
 30
0.0
  3
_D_3
  1

  0
SOLID
  5
23D
330
23A
100
AcDbEntity
  8
SLD-0
 62
     7
100
AcDbTrace
 10
104.7865064188
 20
54.5181412397
 30
0.0
 11
106.7865064188
 21
54.2681412397
 31
0.0
 12
106.7865064188
 22
54.7681412397
 32
0.0
 13
106.7865064188
 23
54.7681412397
 33
0.0
  0
SOLID
  5
23E
330
23A
100
AcDbEntity
  8
SLD-0
 62
     7
100
AcDbTrace
 10
110.7865064188
 20
54.5181412397
 30
0.0
 11
108.7865064188
 21
54.7681412397
 31
0.0
 12
108.7865064188
 22
54.2681412397
 32
0.0
 13
108.7865064188
 23
54.2681412397
 33
0.0
  0
LINE
  5
23F
330
23A
100
AcDbEntity
  8
SLD-0
 62
     7
100
AcDbLine
 10
104.7865064188
 20
62.5059096597
 30
0.0
 11
104.7865064188
 21
53.5181412397
 31
0.0
  0
LINE
  5
240
330
23A
100
AcDbEntity
  8
SLD-0
 62
     7
100
AcDbLine
 10
110.7865064188
 20
85.5059096597
 30
0.0
 11
110.7865064188
 21
53.5181412397
 31
0.0
  0
LINE
  5
241
330
23A
100
AcDbEntity
  8
SLD-0
 62
     7
100
AcDbLine
 10
104.7865064188
 20
54.5181412397
 30
0.0
 11
110.7865064188
 21
54.5181412397
 31
0.0
  0
MTEXT
  5
242
330
23A
100
AcDbEntity
  8
SLD-0
 62
     7
100
AcDbMText
 10
106.8316453064
 20
57.7408104145
 30
0.0
 40
2.5
 41
0.0
 71
     1
 72
     1
  1
6
  7
SLDTEXTSTYLE0
 73
     1
 44
1.0
  0
ENDBLK
  5
23C
330
23A
100
AcDbEntity
  8
0
100
AcDbBlockEnd
  0
BLOCK
  5
245
330
244
100
AcDbEntity
  8
0
100
AcDbBlockBegin
  2
_D_4
 70
     0
 10
0.0
 20
0.0
 30
0.0
  3
_D_4
  1

  0
SOLID
  5
247
330
244
100
AcDbEntity
  8
SLD-0
 62
     7
100
AcDbTrace
 10
104.7865064188
 20
48.2145410575
 30
0.0
 11
106.7865064188
 21
47.9645410575
 31
0.0
 12
106.7865064188
 22
48.4645410575
 32
0.0
 13
106.7865064188
 23
48.4645410575
 33
0.0
  0
SOLID
  5
248
330
244
100
AcDbEntity
  8
SLD-0
 62
     7
100
AcDbTrace
 10
116.7865064188
 20
48.2145410575
 30
0.0
 11
114.7865064188
 21
48.4645410575
 31
0.0
 12
114.7865064188
 22
47.9645410575
 32
0.0
 13
114.7865064188
 23
47.9645410575
 33
0.0
  0
LINE
  5
249
330
244
100
AcDbEntity
  8
SLD-0
 62
     7
100
AcDbLine
 10
104.7865064188
 20
62.5059096597
 30
0.0
 11
104.7865064188
 21
47.2145410575
 31
0.0
  0
LINE
  5
24A
330
244
100
AcDbEntity
  8
SLD-0
 62
     7
100
AcDbLine
 10
116.7865064188
 20
62.5059096597
 30
0.0
 11
116.7865064188
 21
47.2145410575
 31
0.0
  0
LINE
  5
24B
330
244
100
AcDbEntity
  8
SLD-0
 62
     7
100
AcDbLine
 10
104.7865064188
 20
48.2145410575
 30
0.0
 11
116.7865064188
 21
48.2145410575
 31
0.0
  0
MTEXT
  5
24C
330
244
100
AcDbEntity
  8
SLD-0
 62
     7
100
AcDbMText
 10
108.876784194
 20
51.4372102324
 30
0.0
 40
2.5
 41
0.0
 71
     1
 72
     1
  1
12
  7
SLDTEXTSTYLE0
 73
     1
 44
1.0
  0
ENDBLK
  5
246
330
244
100
AcDbEntity
  8
0
100
AcDbBlockEnd
  0
BLOCK
  5
24F
330
24E
100
AcDbEntity
  8
0
100
AcDbBlockBegin
  2
_D_5
 70
     0
 10
0.0
 20
0.0
 30
0.0
  3
_D_5
  1

  0
SOLID
  5
251
330
24E
100
AcDbEntity
  8
SLD-0
 62
     7
100
AcDbTrace
 10
119.7865064188
 20
48.2145410575
 30
0.0
 11
121.7865064188
 21
47.9645410575
 31
0.0
 12
121.7865064188
 22
48.4645410575
 32
0.0
 13
121.7865064188
 23
48.4645410575
 33
0.0
  0
SOLID
  5
252
330
24E
100
AcDbEntity
  8
SLD-0
 62
     7
100
AcDbTrace
 10
127.7865064188
 20
48.2145410575
 30
0.0
 11
125.7865064188
 21
48.4645410575
 31
0.0
 12
125.7865064188
 22
47.9645410575
 32
0.0
 13
125.7865064188
 23
47.9645410575
 33
0.0
  0
LINE
  5
253
330
24E
100
AcDbEntity
  8
SLD-0
 62
     7
100
AcDbLine
 10
119.7865064188
 20
64.5059096597
 30
0.0
 11
119.7865064188
 21
47.2145410575
 31
0.0
  0
LINE
  5
254
330
24E
100
AcDbEntity
  8
SLD-0
 62
     7
100
AcDbLine
 10
127.7865064188
 20
64.5059096597
 30
0.0
 11
127.7865064188
 21
47.2145410575
 31
0.0
  0
LINE
  5
255
330
24E
100
AcDbEntity
  8
SLD-0
 62
     7
100
AcDbLine
 10
119.7865064188
 20
48.2145410575
 30
0.0
 11
127.7865064188
 21
48.2145410575
 31
0.0
  0
MTEXT
  5
256
330
24E
100
AcDbEntity
  8
SLD-0
 62
     7
100
AcDbMText
 10
122.8316453064
 20
51.4372102324
 30
0.0
 40
2.5
 41
0.0
 71
     1
 72
     1
  1
8
  7
SLDTEXTSTYLE0
 73
     1
 44
1.0
  0
ENDBLK
  5
250
330
24E
100
AcDbEntity
  8
0
100
AcDbBlockEnd
  0
BLOCK
  5
259
330
258
100
AcDbEntity
  8
0
100
AcDbBlockBegin
  2
_D_6
 70
     0
 10
0.0
 20
0.0
 30
0.0
  3
_D_6
  1

  0
SOLID
  5
25B
330
258
100
AcDbEntity
  8
SLD-0
 62
     7
100
AcDbTrace
 10
104.7865064188
 20
42.5059096597
 30
0.0
 11
106.7865064188
 21
42.2559096597
 31
0.0
 12
106.7865064188
 22
42.7559096597
 32
0.0
 13
106.7865064188
 23
42.7559096597
 33
0.0
  0
SOLID
  5
25C
330
258
100
AcDbEntity
  8
SLD-0
 62
     7
100
AcDbTrace
 10
127.7865064188
 20
42.5059096597
 30
0.0
 11
125.7865064188
 21
42.7559096597
 31
0.0
 12
125.7865064188
 22
42.2559096597
 32
0.0
 13
125.7865064188
 23
42.2559096597
 33
0.0
  0
LINE
  5
25D
330
258
100
AcDbEntity
  8
SLD-0
 62
     7
100
AcDbLine
 10
104.7865064188
 20
62.5059096597
 30
0.0
 11
104.7865064188
 21
41.5059096597
 31
0.0
  0
LINE
  5
25E
330
258
100
AcDbEntity
  8
SLD-0
 62
     7
100
AcDbLine
 10
127.7865064188
 20
64.5059096597
 30
0.0
 11
127.7865064188
 21
41.5059096597
 31
0.0
  0
LINE
  5
25F
330
258
100
AcDbEntity
  8
SLD-0
 62
     7
100
AcDbLine
 10
104.7865064188
 20
42.5059096597
 30
0.0
 11
127.7865064188
 21
42.5059096597
 31
0.0
  0
MTEXT
  5
260
330
258
100
AcDbEntity
  8
SLD-0
 62
     7
100
AcDbMText
 10
114.376784194
 20
45.7285788345
 30
0.0
 40
2.5
 41
0.0
 71
     1
 72
     1
  1
23
  7
SLDTEXTSTYLE0
 73
     1
 44
1.0
  0
ENDBLK
  5
25A
330
258
100
AcDbEntity
  8
0
100
AcDbBlockEnd
  0
BLOCK
  5
264
330
263
100
AcDbEntity
  8
0
100
AcDbBlockBegin
  2
_D_7
 70
     0
 10
0.0
 20
0.0
 30
0.0
  3
_D_7
  1

  0
SOLID
  5
266
330
263
100
AcDbEntity
  8
SLD-0
 62
     7
100
AcDbTrace
 10
110.2963024519
 20
95.4757585322
 30
0.0
 11
110.299316023
 21
97.4913207165
 31
0.0
 12
109.8030849139
 22
97.4300452206
 32
0.0
 13
109.8030849139
 23
97.4300452206
 33
0.0
  0
LINE
  5
267
330
263
100
AcDbEntity
  8
SLD-0
 62
     7
100
AcDbLine
 10
110.2963024519
 20
95.4757585322
 30
0.0
 11
106.2383525801
 21
128.3385030456
 31
0.0
  0
LINE
  5
268
330
263
100
AcDbEntity
  8
SLD-0
 62
     7
100
AcDbLine
 10
106.2383525801
 20
128.3385030456
 30
0.0
 11
73.1064129603
 21
128.3385030456
 31
0.0
  0
MTEXT
  5
269
330
263
100
AcDbEntity
  8
SLD-0
 62
     7
100
AcDbMText
 10
73.1064129603
 20
135.397977687
 30
0.0
 40
2.5
 41
0.0
 71
     1
 72
     1
  1
2 HOLES for both of
  7
SLDTEXTSTYLE0
 73
     1
 44
1.0
  0
MTEXT
  5
26A
330
263
100
AcDbEntity
  8
SLD-0
 62
     7
100
AcDbMText
 10
74.0439129603
 20
131.5611722204
 30
0.0
 40
2.5
 41
0.0
 71
     1
 72
     1
  1
M4 and 8-32 CLR
  7
SLDTEXTSTYLE0
 73
     1
 44
1.0
  0
ENDBLK
  5
265
330
263
100
AcDbEntity
  8
0
100
AcDbBlockEnd
  0
BLOCK
  5
26E
330
26D
100
AcDbEntity
  8
0
100
AcDbBlockBegin
  2
_D_8
 70
     0
 10
0.0
 20
0.0
 30
0.0
  3
_D_8
  1

  0
SOLID
  5
270
330
26D
100
AcDbEntity
  8
SLD-0
100
AcDbTrace
 10
94.7860913424
 20
30.1819729127
 30
0.0
 11
96.7860913424
 21
29.9319729127
 31
0.0
 12
96.7860913424
 22
30.4319729127
 32
0.0
 13
96.7860913424
 23
30.4319729127
 33
0.0
  0
SOLID
  5
271
330
26D
100
AcDbEntity
  8
SLD-0
100
AcDbTrace
 10
127.7865064188
 20
30.1819729127
 30
0.0
 11
125.7865064188
 21
30.4319729127
 31
0.0
 12
125.7865064188
 22
29.9319729127
 32
0.0
 13
125.7865064188
 23
29.9319729127
 33
0.0
  0
LINE
  5
272
330
26D
100
AcDbEntity
  8
SLD-0
100
AcDbLine
 10
94.7860913424
 20
66.5059096597
 30
0.0
 11
94.7860913424
 21
29.1819729127
 31
0.0
  0
LINE
  5
273
330
26D
100
AcDbEntity
  8
SLD-0
100
AcDbLine
 10
127.7865064188
 20
64.5059096597
 30
0.0
 11
127.7865064188
 21
29.1819729127
 31
0.0
  0
LINE
  5
274
330
26D
100
AcDbEntity
  8
SLD-0
100
AcDbLine
 10
94.7860913424
 20
30.1819729127
 30
0.0
 11
127.7865064188
 21
30.1819729127
 31
0.0
  0
MTEXT
  5
275
330
26D
100
AcDbEntity
  8
SLD-0
100
AcDbMText
 10
109.3765766558
 20
37.241447554
 30
0.0
 40
2.5
 41
0.0
 71
     1
 72
     1
  1
33
  7
SLDTEXTSTYLE0
 73
     1
 44
1.0
  0
MTEXT
  5
276
330
26D
100
AcDbEntity
  8
SLD-0
100
AcDbMText
 10
103.4633820376
 20
33.4046420875
 30
0.0
 40
2.5
 41
0.0
 71
     1
 72
     1
  1
NOMINAL
  7
SLDTEXTSTYLE0
 73
     1
 44
1.0
  0
ENDBLK
  5
26F
330
26D
100
AcDbEntity
  8
0
100
AcDbBlockEnd
  0
BLOCK
  5
278
330
277
100
AcDbEntity
  8
0
100
AcDbBlockBegin
  2
SW_CENTERMARKSYMBOL_1
 70
     0
 10
0.0
 20
0.0
 30
0.0
  3
SW_CENTERMARKSYMBOL_1
  1

  0
LINE
  5
27A
330
277
100
AcDbEntity
  8
SLD-0
 62
     0
100
AcDbLine
 10
0.0
 20
0.0
 30
0.0
 11
0.0
 21
1.0
 31
0.0
  0
LINE
  5
27B
330
277
100
AcDbEntity
  8
SLD-0
 62
     0
100
AcDbLine
 10
0.0
 20
0.0
 30
0.0
 11
-1.0
 21
0.0
 31
0.0
  0
LINE
  5
27C
330
277
100
AcDbEntity
  8
SLD-0
 62
     0
100
AcDbLine
 10
0.0
 20
0.0
 30
0.0
 11
0.0
 21
-1.0
 31
0.0
  0
LINE
  5
27D
330
277
100
AcDbEntity
  8
SLD-0
 62
     0
100
AcDbLine
 10
0.0
 20
0.0
 30
0.0
 11
1.0
 21
0.0
 31
0.0
  0
LINE
  5
27E
330
277
100
AcDbEntity
  8
SLD-0
 62
     0
100
AcDbLine
 10
0.0
 20
2.0
 30
0.0
 11
0.0
 21
5.0
 31
0.0
  0
LINE
  5
27F
330
277
100
AcDbEntity
  8
SLD-0
 62
     0
100
AcDbLine
 10
-2.0
 20
0.0
 30
0.0
 11
-5.0
 21
0.0
 31
0.0
  0
LINE
  5
280
330
277
100
AcDbEntity
  8
SLD-0
 62
     0
100
AcDbLine
 10
0.0
 20
-2.0
 30
0.0
 11
0.0
 21
-5.0
 31
0.0
  0
LINE
  5
281
330
277
100
AcDbEntity
  8
SLD-0
 62
     0
100
AcDbLine
 10
2.0
 20
0.0
 30
0.0
 11
5.0
 21
0.0
 31
0.0
  0
ENDBLK
  5
279
330
277
100
AcDbEntity
  8
0
100
AcDbBlockEnd
  0
BLOCK
  5
29D
330
29C
100
AcDbEntity
  8
0
100
AcDbBlockBegin
  2
_D_9
 70
     0
 10
0.0
 20
0.0
 30
0.0
  3
_D_9
  1

  0
SOLID
  5
29F
330
29C
100
AcDbEntity
  8
SLD-0
 62
     7
100
AcDbTrace
 10
142.646928572
 20
54.1715129992
 30
0.0
 11
144.646928572
 21
53.9215129992
 31
0.0
 12
144.646928572
 22
54.4215129992
 32
0.0
 13
144.646928572
 23
54.4215129992
 33
0.0
  0
SOLID
  5
2A0
330
29C
100
AcDbEntity
  8
SLD-0
 62
     7
100
AcDbTrace
 10
198.646928572
 20
54.1715129992
 30
0.0
 11
196.646928572
 21
54.4215129992
 31
0.0
 12
196.646928572
 22
53.9215129992
 32
0.0
 13
196.646928572
 23
53.9215129992
 33
0.0
  0
LINE
  5
2A1
330
29C
100
AcDbEntity
  8
SLD-0
 62
     7
100
AcDbLine
 10
142.646928572
 20
69.5059096597
 30
0.0
 11
142.646928572
 21
53.1715129992
 31
0.0
  0
LINE
  5
2A2
330
29C
100
AcDbEntity
  8
SLD-0
 62
     7
100
AcDbLine
 10
198.646928572
 20
67.5059096597
 30
0.0
 11
198.646928572
 21
53.1715129992
 31
0.0
  0
LINE
  5
2A3
330
29C
100
AcDbEntity
  8
SLD-0
 62
     7
100
AcDbLine
 10
142.646928572
 20
54.1715129992
 30
0.0
 11
198.646928572
 21
54.1715129992
 31
0.0
  0
MTEXT
  5
2A4
330
29C
100
AcDbEntity
  8
SLD-0
 62
     7
100
AcDbMText
 10
168.7372063472
 20
57.394182174
 30
0.0
 40
2.5
 41
0.0
 71
     1
 72
     1
  1
56
  7
SLDTEXTSTYLE0
 73
     1
 44
1.0
  0
ENDBLK
  5
29E
330
29C
100
AcDbEntity
  8
0
100
AcDbBlockEnd
  0
BLOCK
  5
2A7
330
2A6
100
AcDbEntity
  8
0
100
AcDbBlockBegin
  2
_D_10
 70
     0
 10
0.0
 20
0.0
 30
0.0
  3
_D_10
  1

  0
SOLID
  5
2A9
330
2A6
100
AcDbEntity
  8
SLD-0
 62
     7
100
AcDbTrace
 10
208.2971371092
 20
63.5059096597
 30
0.0
 11
208.5471371092
 21
65.5059096597
 31
0.0
 12
208.0471371092
 22
65.5059096597
 32
0.0
 13
208.0471371092
 23
65.5059096597
 33
0.0
  0
SOLID
  5
2AA
330
2A6
100
AcDbEntity
  8
SLD-0
 62
     7
100
AcDbTrace
 10
208.2971371092
 20
119.5059096597
 30
0.0
 11
208.0471371092
 21
117.5059096597
 31
0.0
 12
208.5471371092
 22
117.5059096597
 32
0.0
 13
208.5471371092
 23
117.5059096597
 33
0.0
  0
LINE
  5
2AB
330
2A6
100
AcDbEntity
  8
SLD-0
 62
     7
100
AcDbLine
 10
194.646928572
 20
63.5059096597
 30
0.0
 11
209.2971371092
 21
63.5059096597
 31
0.0
  0
LINE
  5
2AC
330
2A6
100
AcDbEntity
  8
SLD-0
 62
     7
100
AcDbLine
 10
192.646928572
 20
119.5059096597
 30
0.0
 11
209.2971371092
 21
119.5059096597
 31
0.0
  0
LINE
  5
2AD
330
2A6
100
AcDbEntity
  8
SLD-0
 62
     7
100
AcDbLine
 10
208.2971371092
 20
63.5059096597
 30
0.0
 11
208.2971371092
 21
119.5059096597
 31
0.0
  0
MTEXT
  5
2AE
330
2A6
100
AcDbEntity
  8
SLD-0
 62
     7
100
AcDbMText
 10
205.0744679344
 20
89.5961874349
 30
0.0
 40
2.5
 41
0.0
 71
     1
 72
     1
  1
56
  7
SLDTEXTSTYLE0
 11
-1.608122649676637E-16
 21
1.0
 31
0.0
 73
     1
 44
1.0
  0
ENDBLK
  5
2A8
330
2A6
100
AcDbEntity
  8
0
100
AcDbBlockEnd
  0
BLOCK
  5
2B2
330
2B1
100
AcDbEntity
  8
0
100
AcDbBlockBegin
  2
_D_11
 70
     0
 10
0.0
 20
0.0
 30
0.0
  3
_D_11
  1

  0
SOLID
  5
2B4
330
2B1
100
AcDbEntity
  8
SLD-0
 62
     7
100
AcDbTrace
 10
167.5411000308
 20
103.0970195752
 30
0.0
 11
167.2649433971
 21
105.093575989
 31
0.0
 12
166.781980484
 22
104.9641664665
 32
0.0
 13
166.781980484
 23
104.9641664665
 33
0.0
  0
LINE
  5
2B5
330
2B1
100
AcDbEntity
  8
SLD-0
 62
     7
100
AcDbLine
 10
167.5411000308
 20
103.0970195752
 30
0.0
 11
160.756346179
 21
128.4180656669
 31
0.0
  0
LINE
  5
2B6
330
2B1
100
AcDbEntity
  8
SLD-0
 62
     7
100
AcDbLine
 10
160.756346179
 20
128.4180656669
 30
0.0
 11
138.9933238605
 21
128.4180656669
 31
0.0
  0
MTEXT
  5
2B7
330
2B1
100
AcDbEntity
  8
SLD-0
 62
     7
100
AcDbMText
 10
138.9933238605
 20
135.4844851807
 30
0.0
 40
2.5
 41
0.0
 71
     1
 72
     1
  1
ACCEPTS
  7
SLDTEXTSTYLE0
 73
     1
 44
1.0
  0
MTEXT
  5
2B8
330
2B1
100
AcDbEntity
  8
SLD-0
 62
     7
100
AcDbMText
 10
138.9933238605
 20
131.6407352492
 30
0.0
 40
2.5
 41
0.0
 71
     1
 72
     1
  1
%%c
  7
SLDTEXTSTYLE0
 73
     1
 44
1.0
  0
MTEXT
  5
2B9
330
2B1
100
AcDbEntity
  8
SLD-0
 62
     7
100
AcDbMText
 10
142.6382892167
 20
131.6476797142
 30
0.0
 40
2.5
 41
0.0
 71
     1
 72
     1
  1
1" OPTICS
  7
SLDTEXTSTYLE0
 73
     1
 44
1.0
  0
ENDBLK
  5
2B3
330
2B1
100
AcDbEntity
  8
0
100
AcDbBlockEnd
  0
BLOCK
  5
2BB
330
2BA
100
AcDbEntity
  8
0
100
AcDbBlockBegin
  2
SW_CENTERMARKSYMBOL_2
 70
     0
 10
0.0
 20
0.0
 30
0.0
  3
SW_CENTERMARKSYMBOL_2
  1

  0
LINE
  5
2BD
330
2BA
100
AcDbEntity
  8
SLD-0
 62
     0
100
AcDbLine
 10
0.0
 20
0.0
 30
0.0
 11
0.0
 21
1.0
 31
0.0
  0
LINE
  5
2BE
330
2BA
100
AcDbEntity
  8
SLD-0
 62
     0
100
AcDbLine
 10
0.0
 20
0.0
 30
0.0
 11
-1.0
 21
0.0
 31
0.0
  0
LINE
  5
2BF
330
2BA
100
AcDbEntity
  8
SLD-0
 62
     0
100
AcDbLine
 10
0.0
 20
0.0
 30
0.0
 11
0.0
 21
-1.0
 31
0.0
  0
LINE
  5
2C0
330
2BA
100
AcDbEntity
  8
SLD-0
 62
     0
100
AcDbLine
 10
0.0
 20
0.0
 30
0.0
 11
1.0
 21
0.0
 31
0.0
  0
LINE
  5
2C1
330
2BA
100
AcDbEntity
  8
SLD-0
 62
     0
100
AcDbLine
 10
0.0
 20
2.0
 30
0.0
 11
0.0
 21
14.5
 31
0.0
  0
LINE
  5
2C2
330
2BA
100
AcDbEntity
  8
SLD-0
 62
     0
100
AcDbLine
 10
-2.0
 20
0.0
 30
0.0
 11
-14.5
 21
0.0
 31
0.0
  0
LINE
  5
2C3
330
2BA
100
AcDbEntity
  8
SLD-0
 62
     0
100
AcDbLine
 10
0.0
 20
-2.0
 30
0.0
 11
0.0
 21
-14.5
 31
0.0
  0
LINE
  5
2C4
330
2BA
100
AcDbEntity
  8
SLD-0
 62
     0
100
AcDbLine
 10
2.0
 20
0.0
 30
0.0
 11
14.5
 21
0.0
 31
0.0
  0
ENDBLK
  5
2BC
330
2BA
100
AcDbEntity
  8
0
100
AcDbBlockEnd
  0
ENDSEC
  0
SECTION
  2
ENTITIES
  0
HATCH
  5
82
330
1F
100
AcDbEntity
  8
0
  6
Continuous
 62
     7
100
AcDbHatch
 10
0.0
 20
0.0
 30
0.0
210
0.0
220
0.0
230
1.0
  2
SOLID
 70
     1
 71
     0
 91
        1
 92
        0
 93
       10
 72
     2
 10
192.1405965629367
 20
35.75580880988856
 40
2.989636657769859
 50
50.39692260731407
 51
112.8514693252983
 73
     0
 72
     2
 10
191.815005962812
 20
35.43899828006204
 40
2.577335426817619
 50
108.9134333432861
 51
219.5668234386827
 73
     0
 72
     1
 10
189.8281839389603
 20
37.0807035361501
 11
188.8129900915579
 21
37.97623543696786
 72
     1
 10
188.8129900915579
 20
37.97623543696786
 11
187.5063618366762
 21
36.71464836046036
 72
     2
 10
188.4942467986389
 20
35.54612112772446
 40
1.530154433943661
 50
130.2115225915088
 51
228.5889041080191
 73
     1
 72
     1
 10
187.482115254651
 20
34.39853133629978
 11
191.4913175648466
 21
30.9139274960251
 72
     1
 10
191.4913175648466
 20
30.9139274960251
 11
190.8602656444315
 21
30.29802710555407
 72
     1
 10
190.8602656444315
 20
30.29802710555407
 11
191.852145009157
 21
29.44405283860024
 72
     1
 10
191.852145009157
 20
29.44405283860024
 11
195.0618094435223
 21
32.56063080411572
 72
     1
 10
195.0618094435223
 20
32.56063080411572
 11
194.0463864118641
 21
33.45235653184883
 97
        0
 75
     0
 76
     1
 98
        1
 10
0.0
 20
0.0
  0
HATCH
  5
83
330
1F
100
AcDbEntity
  8
0
  6
Continuous
 62
     1
100
AcDbHatch
 10
0.0
 20
0.0
 30
0.0
210
0.0
220
0.0
230
1.0
  2
SOLID
 70
     1
 71
     0
 91
        1
 92
        0
 93
       10
 72
     2
 10
192.5892455627688
 20
35.6630691563161
 40
2.57756748834625
 50
317.8184992995785
 51
398.0564711573078
 73
     0
 72
     1
 10
194.6188314058163
 20
34.07415900697447
 11
195.6042802987991
 21
33.21546206708498
 72
     1
 10
195.6042802987991
 20
33.21546206708498
 11
196.8459616135929
 21
34.41989500949219
 72
     2
 10
195.9525692879308
 20
35.64784174131312
 40
1.518552937418265
 50
306.0377529468138
 51
403.4396461533871
 73
     1
 72
     1
 10
197.0551891526031
 20
36.69198371335126
 11
192.9284332942598
 21
40.28115998198521
 72
     1
 10
192.9284332942598
 20
40.28115998198521
 11
193.552684596187
 21
40.89021841282256
 72
     1
 10
193.552684596187
 20
40.89021841282256
 11
192.622178086003
 21
41.72041063266705
 72
     1
 10
192.622178086003
 20
41.72041063266705
 11
189.3865926375931
 21
38.59349038605298
 72
     1
 10
189.3865926375931
 20
38.59349038605298
 11
190.4090005149417
 21
37.70169985893218
 72
     2
 10
192.2715892720444
 20
35.12224735083792
 40
3.181636704527876
 50
234.1674444878512
 51
314.4407074583994
 73
     0
 97
        0
 75
     0
 76
     1
 98
        1
 10
0.0
 20
0.0
  0
LINE
  5
84
330
1F
100
AcDbEntity
  8
0
  6
Continuous
 62
     7
370
    18
100
AcDbLine
 10
167.8593775185
 20
17.7745192513
 30
0.0
 11
168.8593775185
 21
17.7745192513
 31
0.0
  0
LINE
  5
85
330
1F
100
AcDbEntity
  8
0
  6
Continuous
 62
     7
370
    18
100
AcDbLine
 10
164.8593775185
 20
17.7745192513
 30
0.0
 11
167.3593775185
 21
17.7745192513
 31
0.0
  0
LINE
  5
86
330
1F
100
AcDbEntity
  8
0
  6
Continuous
 62
     7
370
    18
100
AcDbLine
 10
181.3593775185
 20
15.2745192513
 30
0.0
 11
181.3593775185
 21
20.2745192513
 31
0.0
  0
LINE
  5
87
330
1F
100
AcDbEntity
  8
0
  6
Continuous
 62
     7
370
    18
100
AcDbLine
 10
174.3593775185
 20
16.2745192513
 30
0.0
 11
181.3593775185
 21
15.2745192513
 31
0.0
  0
LINE
  5
88
330
1F
100
AcDbEntity
  8
0
  6
Continuous
 62
     7
370
    18
100
AcDbLine
 10
168.3593775185
 20
16.7745192513
 30
0.0
 11
168.3593775185
 21
14.2745192513
 31
0.0
  0
LINE
  5
89
330
1F
100
AcDbEntity
  8
0
  6
Continuous
 62
     7
370
    18
100
AcDbLine
 10
181.3593775185
 20
20.2745192513
 30
0.0
 11
174.3593775185
 21
19.2745192513
 31
0.0
  0
LINE
  5
8A
330
1F
100
AcDbEntity
  8
0
  6
Continuous
 62
     7
370
    18
100
AcDbLine
 10
173.3593775185
 20
17.7745192513
 30
0.0
 11
182.3593775185
 21
17.7745192513
 31
0.0
  0
LINE
  5
8B
330
1F
100
AcDbEntity
  8
0
  6
Continuous
 62
     7
370
    18
100
AcDbLine
 10
168.3593775185
 20
18.2745192513
 30
0.0
 11
168.3593775185
 21
17.2745192513
 31
0.0
  0
LINE
  5
8C
330
1F
100
AcDbEntity
  8
0
  6
Continuous
 62
     7
370
    18
100
AcDbLine
 10
169.3593775185
 20
17.7745192513
 30
0.0
 11
171.8593775185
 21
17.7745192513
 31
0.0
  0
LINE
  5
8D
330
1F
100
AcDbEntity
  8
0
  6
Continuous
 62
     7
370
    18
100
AcDbLine
 10
168.3593775185
 20
21.2745192513
 30
0.0
 11
168.3593775185
 21
18.7745192513
 31
0.0
  0
LINE
  5
8E
330
1F
100
AcDbEntity
  8
0
  6
Continuous
 62
     7
370
    18
100
AcDbLine
 10
174.3593775185
 20
19.2745192513
 30
0.0
 11
174.3593775185
 21
16.2745192513
 31
0.0
  0
LINE
  5
8F
330
1F
100
AcDbEntity
  8
工作區域參考線
 62
     1
370
    35
100
AcDbLine
 10
190.4090005149
 20
37.7016998589
 30
0.0
 11
189.3865926376
 21
38.5934903861
 31
0.0
  0
LINE
  5
90
330
1F
100
AcDbEntity
  8
工作區域參考線
 62
     1
370
    35
100
AcDbLine
 10
189.3865926376
 20
38.5934903861
 30
0.0
 11
192.622178086
 21
41.7204106327
 31
0.0
  0
LINE
  5
91
330
1F
100
AcDbEntity
  8
工作區域參考線
 62
     1
370
    35
100
AcDbLine
 10
192.622178086
 20
41.7204106327
 30
0.0
 11
193.5526845962
 21
40.8902184128
 31
0.0
  0
LINE
  5
92
330
1F
100
AcDbEntity
  8
工作區域參考線
 62
     1
370
    35
100
AcDbLine
 10
193.5526845962
 20
40.8902184128
 30
0.0
 11
192.9284332943
 21
40.281159982
 31
0.0
  0
LINE
  5
93
330
1F
100
AcDbEntity
  8
工作區域參考線
 62
     1
370
    35
100
AcDbLine
 10
192.9284332943
 20
40.281159982
 30
0.0
 11
197.0551891526
 21
36.6919837134
 31
0.0
  0
LINE
  5
94
330
1F
100
AcDbEntity
  8
工作區域參考線
 62
     1
370
    35
100
AcDbLine
 10
194.6188314058
 20
34.074159007
 30
0.0
 11
195.6042802988
 21
33.2154620671
 31
0.0
  0
LINE
  5
95
330
1F
100
AcDbEntity
  8
工作區域參考線
 62
     1
370
    35
100
AcDbLine
 10
195.6042802988
 20
33.2154620671
 30
0.0
 11
196.8459616136
 21
34.4198950095
 31
0.0
  0
LINE
  5
96
330
1F
100
AcDbEntity
  8
0
  6
Continuous
 62
     7
370
    18
100
AcDbLine
 10
185.6907965209
 20
13.1152464079
 30
0.0
 11
285.6907965209
 21
13.1152464079
 31
0.0
  0
LINE
  5
97
330
1F
100
AcDbEntity
  8
0
  6
Continuous
 62
     7
370
    18
100
AcDbLine
 10
185.6907965209
 20
18.1152464079
 30
0.0
 11
235.6907965209
 21
18.1152464079
 31
0.0
  0
LINE
  5
98
330
1F
100
AcDbEntity
  8
0
  6
Continuous
 62
     7
370
    18
100
AcDbLine
 10
185.6907965209
 20
23.1152464079
 30
0.0
 11
235.6907965209
 21
23.1152464079
 31
0.0
  0
LINE
  5
99
330
1F
100
AcDbEntity
  8
0
  6
Continuous
 62
     7
370
    18
100
AcDbLine
 10
185.6907965209
 20
28.1152464079
 30
0.0
 11
285.6907965209
 21
28.1152464079
 31
0.0
  0
LINE
  5
9A
330
1F
100
AcDbEntity
  8
0
  6
Continuous
 62
     7
370
    18
100
AcDbLine
 10
235.6907965209
 20
33.1152464079
 30
0.0
 11
285.6907965209
 21
33.1152464079
 31
0.0
  0
LINE
  5
9B
330
1F
100
AcDbEntity
  8
0
  6
Continuous
 62
     7
370
    25
100
AcDbLine
 10
235.6907965209
 20
18.1152464079
 30
0.0
 11
285.6907965209
 21
18.1152464079
 31
0.0
  0
LINE
  5
9C
330
1F
100
AcDbEntity
  8
0
  6
Continuous
 62
     7
370
    18
100
AcDbLine
 10
185.6907965209
 20
43.1152464079
 30
0.0
 11
285.6907965209
 21
43.1152464079
 31
0.0
  0
LINE
  5
9D
330
1F
100
AcDbEntity
  8
0
  6
Continuous
 62
     7
370
    18
100
AcDbLine
 10
251.237217675
 20
8.1152464079
 30
0.0
 11
251.237217675
 21
18.1152464079
 31
0.0
  0
LINE
  5
9E
330
1F
100
AcDbEntity
  8
0
  6
Continuous
 62
     7
370
    18
100
AcDbLine
 10
235.6907965209
 20
8.1152464079
 30
0.0
 11
235.6907965209
 21
43.1152464079
 31
0.0
  0
LINE
  5
9F
330
1F
100
AcDbEntity
  8
0
  6
Continuous
 62
     7
370
    18
100
AcDbLine
 10
251.237217675
 20
28.1152464079
 30
0.0
 11
251.237217675
 21
33.1152464079
 31
0.0
  0
LINE
  5
A0
330
1F
100
AcDbEntity
  8
0
  6
Continuous
 62
     7
370
    18
100
AcDbLine
 10
214.4164086353
 20
8.1152464079
 30
0.0
 11
214.4164086353
 21
28.1152464079
 31
0.0
  0
LINE
  5
A1
330
1F
100
AcDbEntity
  8
0
  6
Continuous
 62
     7
370
    18
100
AcDbLine
 10
199.7785887506
 20
8.1152464079
 30
0.0
 11
199.7785887506
 21
28.1152464079
 31
0.0
  0
LINE
  5
A2
330
1F
100
AcDbEntity
  8
0
  6
Continuous
 62
     7
370
    18
100
AcDbLine
 10
185.6907965209
 20
8.1152464079
 30
0.0
 11
185.6907965209
 21
43.1152464079
 31
0.0
  0
LINE
  5
A3
330
1F
100
AcDbEntity
  8
0
  6
Continuous
 62
     7
370
    25
100
AcDbLine
 10
8.6907965209
 20
104.7436369915
 30
0.0
 11
14.6907965209
 21
104.7436369915
 31
0.0
  0
LINE
  5
A4
330
1F
100
AcDbEntity
  8
0
  6
Continuous
 62
     7
370
    25
100
AcDbLine
 10
285.6907965209
 20
104.7436369915
 30
0.0
 11
279.6907965209
 21
104.7436369915
 31
0.0
  0
LINE
  5
A5
330
1F
100
AcDbEntity
  8
0
  6
Continuous
 62
     7
370
    25
100
AcDbLine
 10
147.1907965209
 20
8.1152464079
 30
0.0
 11
147.1907965209
 21
14.1152464079
 31
0.0
  0
LINE
  5
A6
330
1F
100
AcDbEntity
  8
0
  6
Continuous
 62
     7
370
    25
100
AcDbLine
 10
147.1907965209
 20
201.3720275751
 30
0.0
 11
147.1907965209
 21
195.3720275751
 31
0.0
  0
LINE
  5
A7
330
1F
100
AcDbEntity
  8
0
  6
Continuous
 62
     7
370
    25
100
AcDbLine
 10
43.3207965209
 20
201.3720275751
 30
0.0
 11
43.3207965209
 21
202.8720275751
 31
0.0
  0
LINE
  5
A8
330
1F
100
AcDbEntity
  8
0
  6
Continuous
 62
     7
370
    25
100
AcDbLine
 10
77.9507965209
 20
201.3720275751
 30
0.0
 11
77.9507965209
 21
202.8720275751
 31
0.0
  0
LINE
  5
A9
330
1F
100
AcDbEntity
  8
0
  6
Continuous
 62
     7
370
    25
100
AcDbLine
 10
112.5807965209
 20
201.3720275751
 30
0.0
 11
112.5807965209
 21
202.8720275751
 31
0.0
  0
LINE
  5
AA
330
1F
100
AcDbEntity
  8
0
  6
Continuous
 62
     7
370
    25
100
AcDbLine
 10
147.2107965209
 20
201.3720275751
 30
0.0
 11
147.2107965209
 21
202.8720275751
 31
0.0
  0
LINE
  5
AB
330
1F
100
AcDbEntity
  8
0
  6
Continuous
 62
     7
370
    25
100
AcDbLine
 10
181.8407965209
 20
201.3720275751
 30
0.0
 11
181.8407965209
 21
202.8720275751
 31
0.0
  0
LINE
  5
AC
330
1F
100
AcDbEntity
  8
0
  6
Continuous
 62
     7
370
    25
100
AcDbLine
 10
216.4707965209
 20
201.3720275751
 30
0.0
 11
216.4707965209
 21
202.8720275751
 31
0.0
  0
LINE
  5
AD
330
1F
100
AcDbEntity
  8
0
  6
Continuous
 62
     7
370
    25
100
AcDbLine
 10
251.1007965209
 20
201.3720275751
 30
0.0
 11
251.1007965209
 21
202.8720275751
 31
0.0
  0
LINE
  5
AE
330
1F
100
AcDbEntity
  8
0
  6
Continuous
 62
     7
370
    25
100
AcDbLine
 10
43.3157965209
 20
8.1152464079
 30
0.0
 11
43.3157965209
 21
6.6152464079
 31
0.0
  0
LINE
  5
AF
330
1F
100
AcDbEntity
  8
0
  6
Continuous
 62
     7
370
    25
100
AcDbLine
 10
77.9407965209
 20
8.1152464079
 30
0.0
 11
77.9407965209
 21
6.6152464079
 31
0.0
  0
LINE
  5
B0
330
1F
100
AcDbEntity
  8
0
  6
Continuous
 62
     7
370
    25
100
AcDbLine
 10
112.5657965209
 20
8.1152464079
 30
0.0
 11
112.5657965209
 21
6.6152464079
 31
0.0
  0
LINE
  5
B1
330
1F
100
AcDbEntity
  8
0
  6
Continuous
 62
     7
370
    25
100
AcDbLine
 10
147.1907965209
 20
8.1152464079
 30
0.0
 11
147.1907965209
 21
6.6152464079
 31
0.0
  0
LINE
  5
B2
330
1F
100
AcDbEntity
  8
0
  6
Continuous
 62
     7
370
    25
100
AcDbLine
 10
181.8157965209
 20
8.1152464079
 30
0.0
 11
181.8157965209
 21
6.6152464079
 31
0.0
  0
LINE
  5
B3
330
1F
100
AcDbEntity
  8
0
  6
Continuous
 62
     7
370
    25
100
AcDbLine
 10
216.4407965209
 20
8.1152464079
 30
0.0
 11
216.4407965209
 21
6.6152464079
 31
0.0
  0
LINE
  5
B4
330
1F
100
AcDbEntity
  8
0
  6
Continuous
 62
     7
370
    18
100
AcDbLine
 10
285.6907965209
 20
201.3720275751
 30
0.0
 11
8.6907965209
 21
201.3720275751
 31
0.0
  0
LINE
  5
B5
330
1F
100
AcDbEntity
  8
0
  6
Continuous
 62
     7
370
    18
100
AcDbLine
 10
285.6907965209
 20
8.1152464079
 30
0.0
 11
285.6907965209
 21
201.3720275751
 31
0.0
  0
LINE
  5
B6
330
1F
100
AcDbEntity
  8
0
  6
Continuous
 62
     7
370
    18
100
AcDbLine
 10
8.6907965209
 20
201.3720275751
 30
0.0
 11
8.6907965209
 21
8.1152464079
 31
0.0
  0
LINE
  5
B7
330
1F
100
AcDbEntity
  8
0
  6
Continuous
 62
     7
370
    18
100
AcDbLine
 10
8.6907965209
 20
8.1152464079
 30
0.0
 11
285.6907965209
 21
8.1152464079
 31
0.0
  0
LINE
  5
B8
330
1F
100
AcDbEntity
  8
0
  6
Continuous
 62
     7
370
    25
100
AcDbLine
 10
251.0657965209
 20
8.1152464079
 30
0.0
 11
251.0657965209
 21
6.6152464079
 31
0.0
  0
LINE
  5
B9
330
1F
100
AcDbEntity
  8
0
  6
Continuous
 62
     7
370
    25
100
AcDbLine
 10
8.6907965209
 20
40.3252464079
 30
0.0
 11
7.1907965209
 21
40.3252464079
 31
0.0
  0
LINE
  5
BA
330
1F
100
AcDbEntity
  8
0
  6
Continuous
 62
     7
370
    25
100
AcDbLine
 10
8.6907965209
 20
72.5352464079
 30
0.0
 11
7.1907965209
 21
72.5352464079
 31
0.0
  0
LINE
  5
BB
330
1F
100
AcDbEntity
  8
0
  6
Continuous
 62
     7
370
    25
100
AcDbLine
 10
8.6907965209
 20
104.7452464079
 30
0.0
 11
7.1907965209
 21
104.7452464079
 31
0.0
  0
LINE
  5
BC
330
1F
100
AcDbEntity
  8
0
  6
Continuous
 62
     7
370
    25
100
AcDbLine
 10
8.6907965209
 20
136.9552464079
 30
0.0
 11
7.1907965209
 21
136.9552464079
 31
0.0
  0
LINE
  5
BD
330
1F
100
AcDbEntity
  8
0
  6
Continuous
 62
     7
370
    25
100
AcDbLine
 10
8.6907965209
 20
169.1652464079
 30
0.0
 11
7.1907965209
 21
169.1652464079
 31
0.0
  0
LINE
  5
BE
330
1F
100
AcDbEntity
  8
0
  6
Continuous
 62
     7
370
    25
100
AcDbLine
 10
285.6907965209
 20
40.3252464079
 30
0.0
 11
287.1907965209
 21
40.3252464079
 31
0.0
  0
LINE
  5
BF
330
1F
100
AcDbEntity
  8
0
  6
Continuous
 62
     7
370
    25
100
AcDbLine
 10
285.6907965209
 20
72.5352464079
 30
0.0
 11
287.1907965209
 21
72.5352464079
 31
0.0
  0
LINE
  5
C0
330
1F
100
AcDbEntity
  8
0
  6
Continuous
 62
     7
370
    25
100
AcDbLine
 10
285.6907965209
 20
104.7452464079
 30
0.0
 11
287.1907965209
 21
104.7452464079
 31
0.0
  0
LINE
  5
C1
330
1F
100
AcDbEntity
  8
0
  6
Continuous
 62
     7
370
    25
100
AcDbLine
 10
285.6907965209
 20
136.9552464079
 30
0.0
 11
287.1907965209
 21
136.9552464079
 31
0.0
  0
LINE
  5
C2
330
1F
100
AcDbEntity
  8
0
  6
Continuous
 62
     7
370
    25
100
AcDbLine
 10
285.6907965209
 20
169.1652464079
 30
0.0
 11
287.1907965209
 21
169.1652464079
 31
0.0
  0
CIRCLE
  5
C3
330
1F
100
AcDbEntity
  8
0
  6
Continuous
 62
     7
370
    18
100
AcDbCircle
 10
168.3593775185
 20
17.7745192513
 30
0.0
 40
1.5
  0
CIRCLE
  5
C4
330
1F
100
AcDbEntity
  8
0
  6
Continuous
 62
     7
370
    18
100
AcDbCircle
 10
168.3593775185
 20
17.7745192513
 30
0.0
 40
2.5
  0
ARC
  5
C5
330
1F
100
AcDbEntity
  8
工作區域參考線
 62
     1
370
    35
100
AcDbCircle
 10
195.9525692879
 20
35.6478417413
 30
0.0
 40
1.518552937418275
100
AcDbArc
 50
306.0377529468
 51
43.4396461534
  0
ARC
  5
C6
330
1F
100
AcDbEntity
  8
工作區域參考線
 62
     1
370
    35
100
AcDbCircle
 10
192.271589272
 20
35.1222473508
 30
0.0
 40
3.181636704527891
100
AcDbArc
 50
45.5592925416
 51
125.8325555121
  0
ARC
  5
C7
330
1F
100
AcDbEntity
  8
工作區域參考線
 62
     1
370
    35
100
AcDbCircle
 10
192.5892455628
 20
35.6630691563
 30
0.0
 40
2.577567488346266
100
AcDbArc
 50
321.9435288427
 51
42.1815007004
  0
INSERT
  5
C8
330
1F
100
AcDbEntity
  8
0
  6
Continuous
 62
     7
100
AcDbBlockReference
  2
圖塊6
 10
186.9640923647
 20
29.4440528386
 30
0.0
  0
MTEXT
  5
CA
330
1F
100
AcDbEntity
  8
0
  6
Continuous
 62
     7
370
     0
100
AcDbMText
 10
165.5426850804
 20
13.2208440369
 30
0.0
 40
2.6458333333
 41
0.0
 71
     1
 72
     1
  1
UNIT:m/m
  7
SLDTEXTSTYLE0
 73
     1
 44
1.0
  0
INSERT
  5
D1
330
1F
100
AcDbEntity
  8
0
  6
Continuous
 62
     7
370
     0
100
AcDbBlockReference
  2
SW_NOTE_0
 10
12.2315076053
 20
193.8904304251
 30
0.0
  0
MTEXT
  5
D2
330
1F
100
AcDbEntity
  8
0
  6
Continuous
 62
     7
370
     0
100
AcDbMText
 10
198.7251893935
 20
40.4406774139
 30
0.0
 40
2.38125
 41
0.0
 71
     1
 72
     1
  1
Unice E-O Services Inc.
  7
SLDTEXTSTYLE0
 73
     1
 44
1.0
  0
MTEXT
  5
D3
330
1F
100
AcDbEntity
  8
0
  6
Continuous
 62
     7
370
     0
100
AcDbMText
 10
217.5590538149
 20
21.5867148511
 30
0.0
 40
1.8520833333
 41
0.0
 71
     1
 72
     1
  1
2015/4/20
  7
SLDTEXTSTYLE0
 73
     1
 44
1.0
  0
MTEXT
  5
D4
330
1F
100
AcDbEntity
  8
0
  6
Continuous
 62
     7
370
     0
100
AcDbMText
 10
252.6088982507
 20
16.87117774
 30
0.0
 40
2.5
 41
0.0
 71
     1
 72
     1
  1
1:1
  7
SLDTEXTSTYLE0
 73
     1
 44
1.0
  0
MTEXT
  5
D5
330
1F
100
AcDbEntity
  8
0
  6
Continuous
 62
     7
370
     0
100
AcDbMText
 10
252.3075599985
 20
32.1519195438
 30
0.0
 40
2.5
 41
0.0
 71
     1
 72
     1
  1
04UPM-1(M)-H
  7
SLDTEXTSTYLE0
 73
     1
 44
1.0
  0
MTEXT
  5
D6
330
1F
100
AcDbEntity
  8
0
  6
Continuous
 62
     7
370
     0
100
AcDbMText
 10
252.3075599985
 20
38.1082117879
 30
0.0
 40
2.5
 41
0.0
 71
     1
 72
     1
  1
04UPM-1(M)-H
  7
SLDTEXTSTYLE0
 73
     1
 44
1.0
  0
MTEXT
  5
D7
330
1F
100
AcDbEntity
  8
0
  6
Continuous
 62
     7
370
     0
100
AcDbMText
 10
236.3921866786
 20
16.5064795728
 30
0.0
 40
2.1166666667
 41
0.0
 71
     1
 72
     1
  1
SCALE:
  7
SLDTEXTSTYLE0
 73
     1
 44
1.0
  0
MTEXT
  5
D8
330
1F
100
AcDbEntity
  8
0
  6
Continuous
 62
     7
370
     0
100
AcDbMText
 10
186.3336086789
 20
21.5867148511
 30
0.0
 40
1.8520833333
 41
0.0
 71
     1
 72
     1
  1
DRAWN
  7
SLDTEXTSTYLE0
 73
     1
 44
1.0
  0
MTEXT
  5
D9
330
1F
100
AcDbEntity
  8
0
  6
Continuous
 62
     7
370
     0
100
AcDbMText
 10
203.2228367937
 20
26.683208308
 30
0.0
 40
1.8520833333
 41
0.0
 71
     1
 72
     1
  1
NAME
  7
SLDTEXTSTYLE0
 73
     1
 44
1.0
  0
MTEXT
  5
DA
330
1F
100
AcDbEntity
  8
0
  6
Continuous
 62
     7
370
     0
100
AcDbMText
 10
220.8710155758
 20
26.683208308
 30
0.0
 40
1.8520833333
 41
0.0
 71
     1
 72
     1
  1
DATE
  7
SLDTEXTSTYLE0
 73
     1
 44
1.0
  0
MTEXT
  5
DB
330
1F
100
AcDbEntity
  8
0
  6
Continuous
 62
     7
370
     0
100
AcDbMText
 10
236.2756316645
 20
31.7872213766
 30
0.0
 40
2.1166666667
 41
0.0
 71
     1
 72
     1
  1
DWG. NO.
  7
SLDTEXTSTYLE0
 73
     1
 44
1.0
  0
MTEXT
  5
DC
330
1F
100
AcDbEntity
  8
0
  6
Continuous
 62
     7
370
     0
100
AcDbMText
 10
236.3629907088
 20
41.8840658243
 30
0.0
 40
2.1166666667
 41
0.0
 71
     1
 72
     1
  1
TITLE:
  7
SLDTEXTSTYLE0
 73
     1
 44
1.0
  0
INSERT
  5
E2
330
1F
100
AcDbEntity
  8
0
  6
Continuous
 62
     7
370
     0
100
AcDbBlockReference
  2
SW_NOTE_0_1
 10
198.7251893935
 20
32.888523669
 30
0.0
  0
MTEXT
  5
E3
330
1F
100
AcDbEntity
  8
0
  6
Continuous
 62
     7
370
     0
100
AcDbMText
 10
203.0314209802
 20
16.2403789724
 30
0.0
 40
1.8520833333
 41
0.0
 71
     1
 72
     1
  1
Johnny
  7
SLDTEXTSTYLE0
 73
     1
 44
1.0
  0
MTEXT
  5
E4
330
1F
100
AcDbEntity
  8
0
  6
Continuous
 62
     7
370
     0
100
AcDbMText
 10
217.5590538149
 20
16.2403789724
 30
0.0
 40
1.8520833333
 41
0.0
 71
     1
 72
     1
  1
2015/4/20
  7
SLDTEXTSTYLE0
 73
     1
 44
1.0
  0
MTEXT
  5
E5
330
1F
100
AcDbEntity
  8
0
  6
Continuous
 62
     7
370
     0
100
AcDbMText
 10
186.3336086789
 20
16.2403789724
 30
0.0
 40
1.8520833333
 41
0.0
 71
     1
 72
     1
  1
ENG APPR.
  7
SLDTEXTSTYLE0
 73
     1
 44
1.0
  0
MTEXT
  5
E6
330
1F
100
AcDbEntity
  8
0
  6
Continuous
 62
     7
370
     0
100
AcDbMText
 10
236.3921866786
 20
11.6853389288
 30
0.0
 40
2.1166666667
 41
0.0
 71
     1
 72
     1
  1
REV
  7
SLDTEXTSTYLE0
 73
     1
 44
1.0
  0
MTEXT
  5
E7
330
1F
100
AcDbEntity
  8
0
  6
Continuous
 62
     7
370
     0
100
AcDbMText
 10
236.3629907088
 20
26.9493089085
 30
0.0
 40
2.1166666667
 41
0.0
 71
     1
 72
     1
  1
MATERIAL:
  7
SLDTEXTSTYLE0
 73
     1
 44
1.0
  0
MTEXT
  5
E8
330
1F
100
AcDbEntity
  8
0
  6
Continuous
 62
     7
370
     0
100
AcDbMText
 10
252.6088982507
 20
22.2175136187
 30
0.0
 40
2.5
 41
0.0
 71
     1
 72
     1
  1
N/A
  7
SLDTEXTSTYLE0
 73
     1
 44
1.0
  0
MTEXT
  5
E9
330
1F
100
AcDbEntity
  8
0
  6
Continuous
 62
     7
370
     0
100
AcDbMText
 10
26.6029931533
 20
204.453351657
 30
0.0
 40
2.1166666667
 41
0.0
 71
     1
 72
     1
  1
1
  7
SLDTEXTSTYLE0
 73
     1
 44
1.0
  0
MTEXT
  5
EA
330
1F
100
AcDbEntity
  8
0
  6
Continuous
 62
     7
370
     0
100
AcDbMText
 10
60.7170995724
 20
204.453351657
 30
0.0
 40
2.1166666667
 41
0.0
 71
     1
 72
     1
  1
2
  7
SLDTEXTSTYLE0
 73
     1
 44
1.0
  0
MTEXT
  5
EB
330
1F
100
AcDbEntity
  8
0
  6
Continuous
 62
     7
370
     0
100
AcDbMText
 10
94.9009943906
 20
204.453351657
 30
0.0
 40
2.1166666667
 41
0.0
 71
     1
 72
     1
  1
3
  7
SLDTEXTSTYLE0
 73
     1
 44
1.0
  0
MTEXT
  5
EC
330
1F
100
AcDbEntity
  8
0
  6
Continuous
 62
     7
370
     0
100
AcDbMText
 10
129.2533362851
 20
204.2992584364
 30
0.0
 40
2.1166666667
 41
0.0
 71
     1
 72
     1
  1
4
  7
SLDTEXTSTYLE0
 73
     1
 44
1.0
  0
MTEXT
  5
ED
330
1F
100
AcDbEntity
  8
0
  6
Continuous
 62
     7
370
     0
100
AcDbMText
 10
163.702323464
 20
204.453351657
 30
0.0
 40
2.1166666667
 41
0.0
 71
     1
 72
     1
  1
5
  7
SLDTEXTSTYLE0
 73
     1
 44
1.0
  0
MTEXT
  5
EE
330
1F
100
AcDbEntity
  8
0
  6
Continuous
 62
     7
370
     0
100
AcDbMText
 10
198.6382170415
 20
204.453351657
 30
0.0
 40
2.1166666667
 41
0.0
 71
     1
 72
     1
  1
6
  7
SLDTEXTSTYLE0
 73
     1
 44
1.0
  0
MTEXT
  5
EF
330
1F
100
AcDbEntity
  8
0
  6
Continuous
 62
     7
370
     0
100
AcDbMText
 10
234.3630657407
 20
204.453351657
 30
0.0
 40
2.1166666667
 41
0.0
 71
     1
 72
     1
  1
7
  7
SLDTEXTSTYLE0
 73
     1
 44
1.0
  0
MTEXT
  5
F0
330
1F
100
AcDbEntity
  8
0
  6
Continuous
 62
     7
370
     0
100
AcDbMText
 10
266.2787820494
 20
204.453351657
 30
0.0
 40
2.1166666667
 41
0.0
 71
     1
 72
     1
  1
8
  7
SLDTEXTSTYLE0
 73
     1
 44
1.0
  0
MTEXT
  5
F1
330
1F
100
AcDbEntity
  8
0
  6
Continuous
 62
     7
370
     0
100
AcDbMText
 10
5.3568236555
 20
185.8113022879
 30
0.0
 40
2.1166666667
 41
0.0
 71
     1
 72
     1
  1
A
  7
SLDTEXTSTYLE0
 73
     1
 44
1.0
  0
MTEXT
  5
F2
330
1F
100
AcDbEntity
  8
0
  6
Continuous
 62
     7
370
     0
100
AcDbMText
 10
5.5910431831
 20
154.2993048238
 30
0.0
 40
2.1166666667
 41
0.0
 71
     1
 72
     1
  1
B
  7
SLDTEXTSTYLE0
 73
     1
 44
1.0
  0
MTEXT
  5
F3
330
1F
100
AcDbEntity
  8
0
  6
Continuous
 62
     7
370
     0
100
AcDbMText
 10
5.5910431831
 20
121.274351423
 30
0.0
 40
2.1166666667
 41
0.0
 71
     1
 72
     1
  1
C
  7
SLDTEXTSTYLE0
 73
     1
 44
1.0
  0
MTEXT
  5
F4
330
1F
100
AcDbEntity
  8
0
  6
Continuous
 62
     7
370
     0
100
AcDbMText
 10
5.5910431831
 20
88.7453220221
 30
0.0
 40
2.1166666667
 41
0.0
 71
     1
 72
     1
  1
D
  7
SLDTEXTSTYLE0
 73
     1
 44
1.0
  0
MTEXT
  5
F5
330
1F
100
AcDbEntity
  8
0
  6
Continuous
 62
     7
370
     0
100
AcDbMText
 10
5.5910431831
 20
57.5558849197
 30
0.0
 40
2.1166666667
 41
0.0
 71
     1
 72
     1
  1
E
  7
SLDTEXTSTYLE0
 73
     1
 44
1.0
  0
MTEXT
  5
F6
330
1F
100
AcDbEntity
  8
0
  6
Continuous
 62
     7
370
     0
100
AcDbMText
 10
5.5910431831
 20
25.5694212252
 30
0.0
 40
2.1166666667
 41
0.0
 71
     1
 72
     1
  1
F
  7
SLDTEXTSTYLE0
 73
     1
 44
1.0
  0
MTEXT
  5
F7
330
1F
100
AcDbEntity
  8
0
  6
Continuous
 62
     7
370
     0
100
AcDbMText
 10
266.1858616964
 20
6.6236223963
 30
0.0
 40
2.1166666667
 41
0.0
 71
     1
 72
     1
  1
8
  7
SLDTEXTSTYLE0
 73
     1
 44
1.0
  0
MTEXT
  5
F8
330
1F
100
AcDbEntity
  8
0
  6
Continuous
 62
     7
370
     0
100
AcDbMText
 10
234.2701453876
 20
6.6236223963
 30
0.0
 40
2.1166666667
 41
0.0
 71
     1
 72
     1
  1
7
  7
SLDTEXTSTYLE0
 73
     1
 44
1.0
  0
MTEXT
  5
F9
330
1F
100
AcDbEntity
  8
0
  6
Continuous
 62
     7
370
     0
100
AcDbMText
 10
198.5452966885
 20
6.6236223963
 30
0.0
 40
2.1166666667
 41
0.0
 71
     1
 72
     1
  1
6
  7
SLDTEXTSTYLE0
 73
     1
 44
1.0
  0
MTEXT
  5
FA
330
1F
100
AcDbEntity
  8
0
  6
Continuous
 62
     7
370
     0
100
AcDbMText
 10
163.6094031109
 20
6.6236223963
 30
0.0
 40
2.1166666667
 41
0.0
 71
     1
 72
     1
  1
5
  7
SLDTEXTSTYLE0
 73
     1
 44
1.0
  0
MTEXT
  5
FB
330
1F
100
AcDbEntity
  8
0
  6
Continuous
 62
     7
370
     0
100
AcDbMText
 10
129.1604159321
 20
6.4695291758
 30
0.0
 40
2.1166666667
 41
0.0
 71
     1
 72
     1
  1
4
  7
SLDTEXTSTYLE0
 73
     1
 44
1.0
  0
MTEXT
  5
FC
330
1F
100
AcDbEntity
  8
0
  6
Continuous
 62
     7
370
     0
100
AcDbMText
 10
94.8080740376
 20
6.6236223963
 30
0.0
 40
2.1166666667
 41
0.0
 71
     1
 72
     1
  1
3
  7
SLDTEXTSTYLE0
 73
     1
 44
1.0
  0
MTEXT
  5
FD
330
1F
100
AcDbEntity
  8
0
  6
Continuous
 62
     7
370
     0
100
AcDbMText
 10
60.6241792194
 20
6.6236223963
 30
0.0
 40
2.1166666667
 41
0.0
 71
     1
 72
     1
  1
2
  7
SLDTEXTSTYLE0
 73
     1
 44
1.0
  0
MTEXT
  5
FE
330
1F
100
AcDbEntity
  8
0
  6
Continuous
 62
     7
370
     0
100
AcDbMText
 10
26.5100728003
 20
6.6236223963
 30
0.0
 40
2.1166666667
 41
0.0
 71
     1
 72
     1
  1
1
  7
SLDTEXTSTYLE0
 73
     1
 44
1.0
  0
MTEXT
  5
FF
330
1F
100
AcDbEntity
  8
0
  6
Continuous
 62
     7
370
     0
100
AcDbMText
 10
287.1023846145
 20
186.6424909092
 30
0.0
 40
2.1166666667
 41
0.0
 71
     1
 72
     1
  1
A
  7
SLDTEXTSTYLE0
 73
     1
 44
1.0
  0
MTEXT
  5
100
330
1F
100
AcDbEntity
  8
0
  6
Continuous
 62
     7
370
     0
100
AcDbMText
 10
287.3366041421
 20
155.1304934451
 30
0.0
 40
2.1166666667
 41
0.0
 71
     1
 72
     1
  1
B
  7
SLDTEXTSTYLE0
 73
     1
 44
1.0
  0
MTEXT
  5
101
330
1F
100
AcDbEntity
  8
0
  6
Continuous
 62
     7
370
     0
100
AcDbMText
 10
287.3366041421
 20
122.1055400442
 30
0.0
 40
2.1166666667
 41
0.0
 71
     1
 72
     1
  1
C
  7
SLDTEXTSTYLE0
 73
     1
 44
1.0
  0
MTEXT
  5
102
330
1F
100
AcDbEntity
  8
0
  6
Continuous
 62
     7
370
     0
100
AcDbMText
 10
287.3366041421
 20
89.5765106433
 30
0.0
 40
2.1166666667
 41
0.0
 71
     1
 72
     1
  1
D
  7
SLDTEXTSTYLE0
 73
     1
 44
1.0
  0
MTEXT
  5
103
330
1F
100
AcDbEntity
  8
0
  6
Continuous
 62
     7
370
     0
100
AcDbMText
 10
287.3366041421
 20
58.3870735409
 30
0.0
 40
2.1166666667
 41
0.0
 71
     1
 72
     1
  1
E
  7
SLDTEXTSTYLE0
 73
     1
 44
1.0
  0
MTEXT
  5
104
330
1F
100
AcDbEntity
  8
0
  6
Continuous
 62
     7
370
     0
100
AcDbMText
 10
287.3366041421
 20
26.4006098464
 30
0.0
 40
2.1166666667
 41
0.0
 71
     1
 72
     1
  1
F
  7
SLDTEXTSTYLE0
 73
     1
 44
1.0
  0
MTEXT
  5
105
330
1F
100
AcDbEntity
  8
0
  6
Continuous
 62
     7
370
     0
100
AcDbMText
 10
203.1553128802
 20
21.5867148511
 30
0.0
 40
1.8520833333
 41
0.0
 71
     1
 72
     1
  1
John
  7
SLDTEXTSTYLE0
 73
     1
 44
1.0
  0
MTEXT
  5
106
330
1F
100
AcDbEntity
  8
0
  6
Continuous
 62
     7
370
     0
100
AcDbMText
 10
252.8482239645
 20
12.0500370959
 30
0.0
 40
2.5
 41
0.0
 71
     1
 72
     1
  1
0
  7
SLDTEXTSTYLE0
 73
     1
 44
1.0
  0
LINE
  5
107
330
1F
100
AcDbEntity
  8
0
  6
Continuous
 62
     7
370
    35
100
AcDbLine
 10
35.3168612786
 20
97.1422067939
 30
0.0
 11
35.4260696152
 21
97.3365942921
 31
0.0
  0
LINE
  5
108
330
1F
100
AcDbEntity
  8
0
  6
Continuous
 62
     7
370
    35
100
AcDbLine
 10
36.9860038228
 20
100.1132294599
 30
0.0
 11
37.7526131114
 21
101.4777705414
 31
0.0
  0
LINE
  5
109
330
1F
100
AcDbEntity
  8
0
  6
Continuous
 62
     7
370
    35
100
AcDbLine
 10
37.0551463671
 20
101.8696125255
 30
0.0
 11
36.9867219998
 21
101.747819245
 31
0.0
  0
LINE
  5
10A
330
1F
100
AcDbEntity
  8
0
  6
Continuous
 62
     7
370
    35
100
AcDbLine
 10
35.4260696152
 20
98.9699057441
 30
0.0
 11
34.6193945342
 21
97.534048778
 31
0.0
  0
LINE
  5
10B
330
1F
100
AcDbEntity
  8
0
  6
Continuous
 62
     7
370
    35
100
AcDbLine
 10
34.8701840985
 20
96.950304359
 30
0.0
 11
35.3064854538
 21
96.8401175751
 31
0.0
  0
LINE
  5
10C
330
1F
100
AcDbEntity
  8
0
  6
Continuous
 62
     7
370
    35
100
AcDbLine
 10
35.3064854538
 20
96.8401175751
 30
0.0
 11
35.4260696152
 21
96.809916903
 31
0.0
  0
LINE
  5
10D
330
1F
100
AcDbEntity
  8
0
  6
Continuous
 62
     7
370
    35
100
AcDbLine
 10
33.4222679303
 20
99.9976046018
 30
0.0
 11
33.3120811463
 21
99.5613032465
 31
0.0
  0
LINE
  5
10E
330
1F
100
AcDbEntity
  8
0
  6
Continuous
 62
     7
370
    35
100
AcDbLine
 10
38.0538202788
 20
98.7763481207
 30
0.0
 11
37.5227361268
 21
98.9104720559
 31
0.0
  0
LINE
  5
10F
330
1F
100
AcDbEntity
  8
0
  6
Continuous
 62
     7
370
    35
100
AcDbLine
 10
34.3130984044
 20
99.7210577988
 30
0.0
 11
34.1965200703
 21
99.7504993569
 31
0.0
  0
LINE
  5
110
330
1F
100
AcDbEntity
  8
0
  6
Continuous
 62
     7
370
    35
100
AcDbLine
 10
34.2693516884
 20
98.9069881524
 30
0.0
 11
34.3769069682
 21
98.8798253434
 31
0.0
  0
LINE
  5
111
330
1F
100
AcDbEntity
  8
0
  6
Continuous
 62
     7
370
    35
100
AcDbLine
 10
34.9069060017
 20
98.745975452
 30
0.0
 11
35.2513878019
 21
98.6589774603
 31
0.0
  0
LINE
  5
112
330
1F
100
AcDbEntity
  8
0
  6
Continuous
 62
     7
370
    35
100
AcDbLine
 10
36.9860038228
 20
98.2209046504
 30
0.0
 11
37.5750161887
 21
98.0721510939
 31
0.0
  0
LINE
  5
113
330
1F
100
AcDbEntity
  8
0
  6
Continuous
 62
     7
370
    35
100
AcDbLine
 10
64.5503089219
 20
68.178165689
 30
0.0
 11
64.8078303733
 21
69.745975452
 31
0.0
  0
LINE
  5
114
330
1F
100
AcDbEntity
  8
0
  6
Continuous
 62
     7
370
    35
100
AcDbLine
 10
65.0640582209
 20
71.3059096597
 30
0.0
 11
65.2958934886
 21
72.7173400252
 31
0.0
  0
LINE
  5
115
330
1F
100
AcDbEntity
  8
0
  6
Continuous
 62
     7
370
    35
100
AcDbLine
 10
64.506471865
 20
72.8470069063
 30
0.0
 11
64.2533380927
 21
71.3059096597
 31
0.0
  0
LINE
  5
116
330
1F
100
AcDbEntity
  8
0
  6
Continuous
 62
     7
370
    35
100
AcDbLine
 10
63.997110245
 20
69.745975452
 30
0.0
 11
63.7608872983
 21
68.3078325702
 31
0.0
  0
LINE
  5
117
330
1F
100
AcDbEntity
  8
0
  6
Continuous
 62
     7
370
    35
100
AcDbLine
 10
64.0907646695
 20
67.8482883178
 30
0.0
 11
64.5348143328
 21
67.7753506971
 31
0.0
  0
LINE
  5
118
330
1F
100
AcDbEntity
  8
0
  6
Continuous
 62
     7
370
    35
100
AcDbLine
 10
64.664481214
 20
68.5647723208
 30
0.0
 11
64.6151423625
 21
68.5728765009
 31
0.0
  0
LINE
  5
119
330
1F
100
AcDbEntity
  8
0
  6
Continuous
 62
     7
370
    35
100
AcDbLine
 10
64.8618366199
 20
68.5323556005
 30
0.0
 11
64.664481214
 21
68.5647723208
 31
0.0
  0
LINE
  5
11A
330
1F
100
AcDbEntity
  8
0
  6
Continuous
 62
     7
370
    35
100
AcDbLine
 10
64.5348143328
 20
67.7753506971
 30
0.0
 11
64.7321697388
 21
67.7429339768
 31
0.0
  0
LINE
  5
11B
330
1F
100
AcDbEntity
  8
0
  6
Continuous
 62
     7
370
    35
100
AcDbLine
 10
64.3860038228
 20
73.9132546672
 30
0.0
 11
64.3860038228
 21
73.1692857927
 31
0.0
  0
LINE
  5
11C
330
1F
100
AcDbEntity
  8
0
  6
Continuous
 62
     7
370
    35
100
AcDbLine
 10
64.3860038228
 20
72.3265428631
 30
0.0
 11
64.3860038228
 21
72.1135884994
 31
0.0
  0
LINE
  5
11D
330
1F
100
AcDbEntity
  8
0
  6
Continuous
 62
     7
370
    35
100
AcDbLine
 10
64.3860038228
 20
67.799793649
 30
0.0
 11
64.3860038228
 21
67.5059096597
 31
0.0
  0
LINE
  5
11E
330
1F
100
AcDbEntity
  8
0
  6
Continuous
 62
     7
370
    35
100
AcDbLine
 10
39.5933488303
 20
100.3059096597
 30
0.0
 11
38.8640795509
 21
100.3059096597
 31
0.0
  0
LINE
  5
11F
330
1F
100
AcDbEntity
  8
0
  6
Continuous
 62
     7
370
    35
100
AcDbLine
 10
37.9997322905
 20
100.3059096597
 30
0.0
 11
37.0942529865
 21
100.3059096597
 31
0.0
  0
LINE
  5
120
330
1F
100
AcDbEntity
  8
0
  6
Continuous
 62
     7
370
    35
100
AcDbLine
 10
35.4260696152
 20
100.3059096597
 30
0.0
 11
34.3693773803
 21
100.3059096597
 31
0.0
  0
LINE
  5
121
330
1F
100
AcDbEntity
  8
0
  6
Continuous
 62
     7
370
    35
100
AcDbLine
 10
33.5163992921
 20
100.3059096597
 30
0.0
 11
33.1860038228
 21
100.3059096597
 31
0.0
  0
LINE
  5
122
330
1F
100
AcDbEntity
  8
0
  6
Continuous
 62
     7
370
    35
100
AcDbLine
 10
70.1860038228
 20
71.3059096597
 30
0.0
 11
60.1860038228
 21
71.3059096597
 31
0.0
  0
LINE
  5
123
330
1F
100
AcDbEntity
  8
0
  6
Continuous
 62
     7
370
    35
100
AcDbLine
 10
36.9860038228
 20
94.5059096597
 30
0.0
 11
36.9860038228
 21
104.5059096597
 31
0.0
  0
CIRCLE
  5
124
330
1F
100
AcDbEntity
  8
0
  6
Continuous
 62
     7
370
    35
100
AcDbCircle
 10
78.1860038228
 20
70.5059096597
 30
0.0
 40
4.249999999999995
  0
CIRCLE
  5
125
330
1F
100
AcDbEntity
  8
0
  6
Continuous
 62
     7
370
    35
100
AcDbCircle
 10
36.1860038228
 20
112.5059096597
 30
0.0
 40
4.25
  0
LINE
  5
126
330
1F
100
AcDbEntity
  8
0
  6
Continuous
 62
     7
370
    35
100
AcDbLine
 10
35.6002523787
 20
113.5010119555
 30
0.0
 11
35.0313442333
 21
112.4961851767
 31
0.0
  0
LINE
  5
127
330
1F
100
AcDbEntity
  8
0
  6
Continuous
 62
     7
370
    35
100
AcDbLine
 10
35.0313442333
 20
112.4961851767
 30
0.0
 11
35.6170956774
 21
111.5010828809
 31
0.0
  0
LINE
  5
128
330
1F
100
AcDbEntity
  8
0
  6
Continuous
 62
     7
370
    35
100
AcDbLine
 10
35.6170956774
 20
111.5010828809
 30
0.0
 11
36.771755267
 21
111.5108073639
 31
0.0
  0
LINE
  5
129
330
1F
100
AcDbEntity
  8
0
  6
Continuous
 62
     7
370
    35
100
AcDbLine
 10
36.771755267
 20
111.5108073639
 30
0.0
 11
37.3406634124
 21
112.5156341428
 31
0.0
  0
LINE
  5
12A
330
1F
100
AcDbEntity
  8
0
  6
Continuous
 62
     7
370
    35
100
AcDbLine
 10
37.3406634124
 20
112.5156341428
 30
0.0
 11
36.7549119683
 21
113.5107364385
 31
0.0
  0
LINE
  5
12B
330
1F
100
AcDbEntity
  8
0
  6
Continuous
 62
     7
370
    35
100
AcDbLine
 10
36.7549119683
 20
113.5107364385
 30
0.0
 11
35.6002523787
 21
113.5010119555
 31
0.0
  0
CIRCLE
  5
12C
330
1F
100
AcDbEntity
  8
0
  6
Continuous
 62
     7
370
    35
100
AcDbCircle
 10
36.1860038228
 20
112.5059096597
 30
0.0
 40
3.000000000000002
  0
LINE
  5
12D
330
1F
100
AcDbEntity
  8
0
  6
Continuous
 62
     7
370
    35
100
AcDbLine
 10
77.6386780468
 20
71.5226533974
 30
0.0
 11
77.0318150288
 21
70.5402835023
 31
0.0
  0
LINE
  5
12E
330
1F
100
AcDbEntity
  8
0
  6
Continuous
 62
     7
370
    35
100
AcDbLine
 10
77.0318150288
 20
70.5402835023
 30
0.0
 11
77.5791408049
 21
69.5235397646
 31
0.0
  0
LINE
  5
12F
330
1F
100
AcDbEntity
  8
0
  6
Continuous
 62
     7
370
    35
100
AcDbLine
 10
77.5791408049
 20
69.5235397646
 30
0.0
 11
78.7333295989
 21
69.489165922
 31
0.0
  0
LINE
  5
130
330
1F
100
AcDbEntity
  8
0
  6
Continuous
 62
     7
370
    35
100
AcDbLine
 10
78.7333295989
 20
69.489165922
 30
0.0
 11
79.3401926169
 21
70.4715358171
 31
0.0
  0
LINE
  5
131
330
1F
100
AcDbEntity
  8
0
  6
Continuous
 62
     7
370
    35
100
AcDbLine
 10
79.3401926169
 20
70.4715358171
 30
0.0
 11
78.7928668408
 21
71.4882795548
 31
0.0
  0
LINE
  5
132
330
1F
100
AcDbEntity
  8
0
  6
Continuous
 62
     7
370
    35
100
AcDbLine
 10
78.7928668408
 20
71.4882795548
 30
0.0
 11
77.6386780468
 21
71.5226533974
 31
0.0
  0
CIRCLE
  5
133
330
1F
100
AcDbEntity
  8
0
  6
Continuous
 62
     7
370
    35
100
AcDbCircle
 10
78.1860038228
 20
70.5059096597
 30
0.0
 40
2.999999999999997
  0
ARC
  5
134
330
1F
100
AcDbEntity
  8
0
  6
Continuous
 62
     7
370
    35
100
AcDbCircle
 10
37.4038797393
 20
101.6736915335
 30
0.0
 40
0.400000000000013
100
AcDbArc
 50
330.6724000063
 51
45.5183319562
  0
ARC
  5
135
330
1F
100
AcDbEntity
  8
0
  6
Continuous
 62
     7
370
    35
100
AcDbCircle
 10
37.4038797393
 20
101.6736915335
 30
0.0
 40
0.400000000000013
100
AcDbArc
 50
45.5183319562
 51
150.6724000063
  0
ARC
  5
136
330
1F
100
AcDbEntity
  8
0
  6
Continuous
 62
     7
370
    35
100
AcDbCircle
 10
34.9681279064
 20
97.3381277859
 30
0.0
 40
0.4000000000000052
100
AcDbArc
 50
255.8264680565
 51
330.6724000063
  0
ARC
  5
137
330
1F
100
AcDbEntity
  8
0
  6
Continuous
 62
     7
370
    35
100
AcDbCircle
 10
34.9681279064
 20
97.3381277859
 30
0.0
 40
0.4000000000000045
100
AcDbArc
 50
150.6724000063
 51
255.8264680565
  0
SPLINE
  5
138
330
1F
100
AcDbEntity
  8
0
  6
Continuous
 62
     7
370
    35
100
AcDbSpline
210
0.0
220
0.0
230
1.0
 70
     8
 71
     3
 72
    17
 73
    13
 74
     0
 42
0.00000001
 43
0.00000001
 40
0.0
 40
0.0
 40
0.0
 40
0.0
 40
0.0687607592242851
 40
0.1830664866085581
 40
0.301421948371942
 40
0.4197774101353258
 40
0.5340831375196001
 40
0.6483888649038735
 40
0.7667443266672572
 40
0.8850997884306409
 40
0.999405515814914
 40
1.0
 40
1.0
 40
1.0
 40
1.0
 10
34.5808295342413
 20
97.23880666292595
 30
0.0
 10
34.46156582946485
 20
97.32056705272042
 30
0.0
 10
34.14404188616267
 20
97.53824334763453
 30
0.0
 10
33.75930700130473
 20
98.05503102831577
 30
0.0
 10
33.45925501962898
 20
98.73206062248174
 30
0.0
 10
33.35429757754918
 20
99.46970978117736
 30
0.0
 10
33.4410313407449
 20
100.1993064053289
 30
0.0
 10
33.71115657658977
 20
100.8816104995092
 30
0.0
 10
34.15309917339027
 20
101.4841782168505
 30
0.0
 10
34.74127504089839
 20
101.9258000990331
 30
0.0
 10
35.1867522145464
 20
102.1648813045915
 30
0.0
 10
35.42483778014562
 20
102.2001345707925
 30
0.0
 10
35.42606961515718
 20
102.2003169682742
 30
0.0
  0
LINE
  5
139
330
1F
100
AcDbEntity
  8
0
  6
Continuous
 62
     7
370
    35
100
AcDbLine
 10
36.9860038228
 20
102.1749096805
 30
0.0
 11
37.2850023553
 21
102.0552929381
 31
0.0
  0
SPLINE
  5
13A
330
1F
100
AcDbEntity
  8
0
  6
Continuous
 62
     7
370
    35
100
AcDbSpline
210
0.0
220
0.0
230
1.0
 70
     8
 71
     3
 72
    16
 73
    12
 74
     0
 42
0.00000001
 43
0.00000001
 40
0.0
 40
0.0
 40
0.0
 40
0.0
 40
0.0708294249896962
 40
0.1857315511040072
 40
0.3047045413911492
 40
0.423677531678291
 40
0.5385796577926016
 40
0.6534817839069126
 40
0.7724547741940542
 40
0.891427764481196
 40
1.0
 40
1.0
 40
1.0
 40
1.0
 10
37.78261962801704
 20
101.7794162154301
 30
0.0
 10
37.9048920976719
 20
101.6957006061855
 30
0.0
 10
38.22551951275565
 20
101.4761784237187
 30
0.0
 10
38.61279402178148
 20
100.9568842769244
 30
0.0
 10
38.91271976160689
 20
100.2797636679628
 30
0.0
 10
39.017745899423
 20
99.54199400845904
 30
0.0
 10
38.93086898256055
 20
98.8129520632585
 30
0.0
 10
38.66125213188592
 20
98.12853663576757
 30
0.0
 10
38.21735409483318
 20
97.53413091907251
 30
0.0
 10
37.6468638945961
 20
97.07064285195
 30
0.0
 10
37.19947400398413
 20
96.90613249686771
 30
0.0
 10
36.9860038228357
 20
96.82763708148815
 30
0.0
  0
SPLINE
  5
13B
330
1F
100
AcDbEntity
  8
0
  6
Continuous
 62
     7
370
    35
100
AcDbSpline
210
0.0
220
0.0
230
1.0
 70
     8
 71
     3
 72
    16
 73
    12
 74
     0
 42
0.00000001
 43
0.00000001
 40
0.0
 40
0.0
 40
0.0
 40
0.0
 40
0.0279496491772328
 40
0.1543955538430484
 40
0.2853397812951003
 40
0.4162840087471523
 40
0.5427299134129682
 40
0.6691758180787838
 40
0.8001200455308359
 40
0.9310642729828877
 40
1.0
 40
1.0
 40
1.0
 40
1.0
 10
34.88313853834594
 20
98.0035050368238
 30
0.0
 10
34.85235795524783
 20
98.02556266999483
 30
0.0
 10
34.68232415106984
 20
98.14741037077677
 30
0.0
 10
34.45489486788338
 20
98.47222327686521
 30
0.0
 10
34.23772299970493
 20
98.9524167999469
 30
0.0
 10
34.16347517404066
 20
99.48031822125014
 30
0.0
 10
34.22541082638185
 20
100.0006926913499
 30
0.0
 10
34.41772966001545
 20
100.4903229060124
 30
0.0
 10
34.73609763013587
 20
100.9122852107583
 30
0.0
 10
35.08533898625655
 20
101.2075456792277
 30
0.0
 10
35.33869184950603
 20
101.3046831873061
 30
0.0
 10
35.42606961515718
 20
101.3381845194322
 30
0.0
  0
SPLINE
  5
13C
330
1F
100
AcDbEntity
  8
0
  6
Continuous
 62
     7
370
    35
100
AcDbSpline
210
0.0
220
0.0
230
1.0
 70
     8
 71
     3
 72
    16
 73
    12
 74
     0
 42
0.00000001
 43
0.00000001
 40
0.0
 40
0.0
 40
0.0
 40
0.0
 40
0.0282531704792873
 40
0.1560722238869378
 40
0.2884384499529542
 40
0.4208046760189706
 40
0.5486237294266204
 40
0.6764427828342705
 40
0.8088090089002863
 40
0.9411752349663027
 40
1.0
 40
1.0
 40
1.0
 40
1.0
 10
37.48886910732477
 20
101.0083142825883
 30
0.0
 10
37.51964968764798
 20
100.9862566547422
 30
0.0
 10
37.68968347649641
 20
100.8644089833758
 30
0.0
 10
37.91711320085899
 20
100.5395952307299
 30
0.0
 10
38.13428306808451
 20
100.0594055472081
 30
0.0
 10
38.20853825167688
 20
99.53149000702876
 30
0.0
 10
38.14657607694961
 20
99.01116642982693
 30
0.0
 10
37.95435665078929
 20
98.52134546556991
 30
0.0
 10
37.63560475662324
 20
98.1001198595208
 30
0.0
 10
37.29888028507811
 20
97.81219102361487
 30
0.0
 10
37.05961872079502
 20
97.7193640582693
 30
0.0
 10
36.98600382283571
 20
97.69080348439584
 30
0.0
  0
ARC
  5
13D
330
1F
100
AcDbEntity
  8
0
  6
Continuous
 62
     7
370
    35
100
AcDbCircle
 10
33.6999045733
 20
99.4633594386
 30
0.0
 40
0.4000000000000028
100
AcDbArc
 50
165.8264680565
 51
226.5530444465
  0
ARC
  5
13E
330
1F
100
AcDbEntity
  8
0
  6
Continuous
 62
     7
370
    35
100
AcDbCircle
 10
38.1598739831
 20
98.3370056472
 30
0.0
 40
0.4000000000000073
100
AcDbArc
 50
114.3935155335
 51
183.6245412661
  0
ARC
  5
13F
330
1F
100
AcDbEntity
  8
0
  6
Continuous
 62
     7
370
    35
100
AcDbCircle
 10
64.9011826768
 20
72.7821734658
 30
0.0
 40
0.4000000000000079
100
AcDbArc
 50
350.6721433596
 51
170.6721433596
  0
ARC
  5
140
330
1F
100
AcDbEntity
  8
0
  6
Continuous
 62
     7
370
    35
100
AcDbCircle
 10
64.1555981101
 20
68.2429991296
 30
0.0
 40
0.4000000000000056
100
AcDbArc
 50
170.6721433596
 51
350.6721433596
  0
LINE
  5
141
330
1F
100
AcDbEntity
  8
0
  6
Continuous
 62
     7
370
    35
100
AcDbLine
 10
64.7970031793
 20
68.1376447887
 30
0.0
 11
64.8618366199
 21
68.5323556005
 31
0.0
  0
LINE
  5
142
330
1F
100
AcDbEntity
  8
0
  6
Continuous
 62
     7
370
    35
100
AcDbLine
 10
64.7321697388
 20
67.7429339768
 30
0.0
 11
64.7970031793
 21
68.1376447887
 31
0.0
  0
SPLINE
  5
143
330
1F
100
AcDbEntity
  8
0
  6
Continuous
 62
     7
370
    35
100
AcDbSpline
210
0.0
220
0.0
230
1.0
 70
     8
 71
     3
 72
    13
 73
     9
 74
     0
 42
0.00000001
 43
0.00000001
 40
0.0
 40
0.0
 40
0.0
 40
0.0
 40
0.1766569755987624
 40
0.3595727261842489
 40
0.5424884767697354
 40
0.7191454523684975
 40
0.8958024279672605
 40
1.0
 40
1.0
 40
1.0
 40
1.0
 10
64.73216973875667
 20
67.74293397683633
 30
0.0
 10
64.97201727124228
 20
67.72174291967099
 30
0.0
 10
65.46020988765106
 20
67.678610027976
 30
0.0
 10
66.18620632263784
 20
67.85745808375611
 30
0.0
 10
66.8425275853609
 20
68.20670464023907
 30
0.0
 10
67.37070410515572
 20
68.71341359037278
 30
0.0
 10
67.7239142468673
 20
69.2388495337678
 30
0.0
 10
67.8199920680741
 20
69.60874392751687
 30
0.0
 10
67.85563712271313
 20
69.74597545202737
 30
0.0
  0
SPLINE
  5
144
330
1F
100
AcDbEntity
  8
0
  6
Continuous
 62
     7
370
    35
100
AcDbSpline
210
0.0
220
0.0
230
1.0
 70
     8
 71
     3
 72
    18
 73
    14
 74
     0
 42
0.00000001
 43
0.00000001
 40
0.0
 40
0.0
 40
0.0
 40
0.0
 40
0.0271157312326993
 40
0.1276907396253303
 40
0.2318290171426809
 40
0.3359672946600314
 40
0.4365423030526628
 40
0.5371173114452938
 40
0.6412555889626441
 40
0.7453938664799947
 40
0.845968874872626
 40
0.9465438832652568
 40
1.0
 40
1.0
 40
1.0
 40
1.0
 10
67.85028712055541
 20
71.3059096597059
 30
0.0
 10
67.83691854555272
 20
71.36919861019908
 30
0.0
 10
67.77396456451564
 20
71.66723272291514
 30
0.0
 10
67.48037011049904
 20
72.15152630603794
 30
0.0
 10
66.98408001770184
 20
72.69820703242235
 30
0.0
 10
66.34806293212922
 20
73.08825119934606
 30
0.0
 10
65.6450655536511
 20
73.29955446777574
 30
0.0
 10
64.91033187445737
 20
73.3246698338663
 30
0.0
 10
64.18623798262836
 20
73.15667109623416
 30
0.0
 10
63.52922918760184
 20
72.8045727660814
 30
0.0
 10
63.00186451478468
 20
72.298357498513
 30
0.0
 10
62.65444578797538
 20
71.7854106929389
 30
0.0
 10
62.5610136152064
 20
71.42944623466295
 30
0.0
 10
62.52858821332617
 20
71.3059096597059
 30
0.0
  0
SPLINE
  5
145
330
1F
100
AcDbEntity
  8
0
  6
Continuous
 62
     7
370
    35
100
AcDbSpline
210
0.0
220
0.0
230
1.0
 70
     8
 71
     3
 72
    11
 73
     7
 74
     0
 42
0.00000001
 43
0.00000001
 40
0.0
 40
0.0
 40
0.0
 40
0.0
 40
0.1099145650133182
 40
0.4461212526340635
 40
0.7942393974713599
 40
1.0
 40
1.0
 40
1.0
 40
1.0
 10
62.51224724402236
 20
69.74597545202737
 30
0.0
 10
62.52814122146304
 20
69.6690805355894
 30
0.0
 10
62.59265169943576
 20
69.3569794374471
 30
0.0
 10
62.89375267318786
 20
68.86477604374458
 30
0.0
 10
63.31046172330872
 20
68.37428208541283
 30
0.0
 10
63.65679028984253
 20
68.1809148392083
 30
0.0
 10
63.78544800574475
 20
68.10908077574662
 30
0.0
  0
SPLINE
  5
146
330
1F
100
AcDbEntity
  8
0
  6
Continuous
 62
     7
370
    35
100
AcDbSpline
210
0.0
220
0.0
230
1.0
 70
     8
 71
     3
 72
    13
 73
     9
 74
     0
 42
0.00000001
 43
0.00000001
 40
0.0
 40
0.0
 40
0.0
 40
0.0
 40
0.1916260431361933
 40
0.3900691974991515
 40
0.5885123518621097
 40
0.7801383949983035
 40
0.9717644381344971
 40
0.9999999999999999
 40
0.9999999999999999
 40
0.9999999999999999
 40
0.9999999999999999
 10
64.86183661992209
 20
68.53235560051333
 30
0.0
 10
65.03318602746823
 20
68.51721124088684
 30
0.0
 10
65.38198061091624
 20
68.48638375987504
 30
0.0
 10
65.90013184627972
 20
68.6142807812997
 30
0.0
 10
66.37031061720744
 20
68.86316034105538
 30
0.0
 10
66.74251903589793
 20
69.22711211060049
 30
0.0
 10
66.96522841937836
 20
69.5330284891018
 30
0.0
 10
67.01968167255096
 20
69.72174028150253
 30
0.0
 10
67.02667479078423
 20
69.74597545202737
 30
0.0
  0
SPLINE
  5
147
330
1F
100
AcDbEntity
  8
0
  6
Continuous
 62
     7
370
    35
100
AcDbSpline
210
0.0
220
0.0
230
1.0
 70
     8
 71
     3
 72
    12
 73
     8
 74
     0
 42
0.00000001
 43
0.00000001
 40
0.0
 40
0.0
 40
0.0
 40
0.0
 40
0.181975856559909
 40
0.419766343478391
 40
0.6575568303968734
 40
0.8871785084532208
 40
1.0
 40
1.0
 40
1.0
 40
1.0
 10
67.00718882877436
 20
71.3059096597059
 30
0.0
 10
66.94900552756486
 20
71.42897173649992
 30
0.0
 10
66.81479326412551
 20
71.71284081107513
 30
0.0
 10
66.46622898048915
 20
72.07149389754703
 30
0.0
 10
66.01701488065933
 20
72.3462876760032
 30
0.0
 10
65.59839594472678
 20
72.48886180225428
 30
0.0
 10
65.34253289213156
 20
72.48827314707421
 30
0.0
 10
65.25823612762326
 20
72.48807920845512
 30
0.0
  0
SPLINE
  5
148
330
1F
100
AcDbEntity
  8
0
  6
Continuous
 62
     7
370
    35
100
AcDbSpline
210
0.0
220
0.0
230
1.0
 70
     8
 71
     3
 72
    11
 73
     7
 74
     0
 42
0.00000001
 43
0.00000001
 40
0.0
 40
0.0
 40
0.0
 40
0.0
 40
0.3063913008154038
 40
0.6421686006446183
 40
0.9779459004738352
 40
0.9999999999999999
 40
0.9999999999999999
 40
0.9999999999999999
 40
0.9999999999999999
 10
64.42437698617363
 20
72.34720717392385
 30
0.0
 10
64.28188075985786
 20
72.2804820501262
 30
0.0
 10
63.9832214898107
 20
72.1406321938707
 30
0.0
 10
63.63155716747
 20
71.78230660700126
 30
0.0
 10
63.41263801595143
 20
71.49146556751795
 30
0.0
 10
63.36074862616356
 20
71.31668203314632
 30
0.0
 10
63.35755054525507
 20
71.3059096597059
 30
0.0
  0
SPLINE
  5
149
330
1F
100
AcDbEntity
  8
0
  6
Continuous
 62
     7
370
    35
100
AcDbSpline
210
0.0
220
0.0
230
1.0
 70
     8
 71
     3
 72
     9
 73
     5
 74
     0
 42
0.00000001
 43
0.00000001
 40
0.0
 40
0.0
 40
0.0
 40
0.0
 40
0.4912177822428009
 40
1.0
 40
1.0
 40
1.0
 40
1.0
 10
63.3434783052855
 20
69.74597545202737
 30
0.0
 10
63.40645374827091
 20
69.60737515395024
 30
0.0
 10
63.53465644219187
 20
69.32521863786421
 30
0.0
 10
63.76049583182903
 20
69.1129740040474
 30
0.0
 10
63.87539889734555
 20
69.00498770854702
 30
0.0
  0
LINE
  5
14A
330
1F
100
AcDbEntity
  8
0
  6
Continuous
 62
     7
370
    35
100
AcDbLine
 10
64.6203830032
 20
68.6047819117
 30
0.0
 11
64.8618366199
 21
68.5323556005
 31
0.0
  0
LINE
  5
14B
330
1F
100
AcDbEntity
  8
0
  6
Continuous
 62
     7
370
    35
100
AcDbLine
 10
65.9459380305
 20
73.9224137209
 30
0.0
 11
65.9459380305
 21
73.1770676962
 31
0.0
  0
LINE
  5
14C
330
1F
100
AcDbEntity
  8
0
  6
Continuous
 62
     7
370
    35
100
AcDbLine
 10
65.9459380305
 20
72.3487512569
 30
0.0
 11
65.9459380305
 21
71.3059096597
 31
0.0
  0
LINE
  5
14D
330
1F
100
AcDbEntity
  8
0
  6
Continuous
 62
     7
370
    35
100
AcDbLine
 10
65.9459380305
 20
69.745975452
 30
0.0
 11
65.9459380305
 21
68.6637006488
 31
0.0
  0
LINE
  5
14E
330
1F
100
AcDbEntity
  8
0
  6
Continuous
 62
     7
370
    35
100
AcDbLine
 10
65.9459380305
 20
67.833253109
 30
0.0
 11
65.9459380305
 21
67.5059096597
 31
0.0
  0
LINE
  5
14F
330
1F
100
AcDbEntity
  8
0
  6
Continuous
 62
     7
370
    35
100
AcDbLine
 10
64.3860038228
 20
67.5059096597
 30
0.0
 11
65.9459380305
 21
67.5059096597
 31
0.0
  0
LINE
  5
150
330
1F
100
AcDbEntity
  8
0
  6
Continuous
 62
     7
370
    35
100
AcDbLine
 10
39.602507884
 20
98.745975452
 30
0.0
 11
38.8714252656
 21
98.745975452
 31
0.0
  0
LINE
  5
151
330
1F
100
AcDbEntity
  8
0
  6
Continuous
 62
     7
370
    35
100
AcDbLine
 10
34.9897190035
 20
98.745975452
 30
0.0
 11
34.3548898221
 21
98.745975452
 31
0.0
  0
LINE
  5
152
330
1F
100
AcDbEntity
  8
0
  6
Continuous
 62
     7
370
    35
100
AcDbLine
 10
33.4916137384
 20
98.745975452
 30
0.0
 11
33.1860038228
 21
98.745975452
 31
0.0
  0
LINE
  5
153
330
1F
100
AcDbEntity
  8
0
  6
Continuous
 62
     7
370
    35
100
AcDbLine
 10
33.1860038228
 20
100.3059096597
 30
0.0
 11
33.1860038228
 21
98.745975452
 31
0.0
  0
LINE
  5
154
330
1F
100
AcDbEntity
  8
0
  6
Continuous
 62
     7
370
    35
100
AcDbLine
 10
70.1860038228
 20
69.745975452
 30
0.0
 11
60.1860038228
 21
69.745975452
 31
0.0
  0
LINE
  5
155
330
1F
100
AcDbEntity
  8
0
  6
Continuous
 62
     7
370
    35
100
AcDbLine
 10
60.1860038228
 20
71.3059096597
 30
0.0
 11
60.1860038228
 21
69.745975452
 31
0.0
  0
LINE
  5
156
330
1F
100
AcDbEntity
  8
0
  6
Continuous
 62
     7
370
    35
100
AcDbLine
 10
70.1860038228
 20
71.3059096597
 30
0.0
 11
70.1860038228
 21
69.745975452
 31
0.0
  0
LINE
  5
157
330
1F
100
AcDbEntity
  8
0
  6
Continuous
 62
     7
370
    35
100
AcDbLine
 10
35.4260696152
 20
94.5059096597
 30
0.0
 11
35.4260696152
 21
104.5059096597
 31
0.0
  0
LINE
  5
158
330
1F
100
AcDbEntity
  8
0
  6
Continuous
 62
     7
370
    35
100
AcDbLine
 10
36.9860038228
 20
104.5059096597
 30
0.0
 11
35.4260696152
 21
104.5059096597
 31
0.0
  0
LINE
  5
159
330
1F
100
AcDbEntity
  8
0
  6
Continuous
 62
     7
370
    35
100
AcDbLine
 10
36.9860038228
 20
94.5059096597
 30
0.0
 11
35.4260696152
 21
94.5059096597
 31
0.0
  0
LINE
  5
15A
330
1F
100
AcDbEntity
  8
0
  6
Continuous
 62
     7
370
    35
100
AcDbLine
 10
57.1860038228
 20
77.5059096597
 30
0.0
 11
80.1860038228
 21
77.5059096597
 31
0.0
  0
ARC
  5
15B
330
1F
100
AcDbEntity
  8
0
  6
Continuous
 62
     7
370
    35
100
AcDbCircle
 10
80.1860038228
 20
72.5059096597
 30
0.0
 40
5.000000000000014
100
AcDbArc
 50
0.0
 51
90.0
  0
LINE
  5
15C
330
1F
100
AcDbEntity
  8
0
  6
Continuous
 62
     7
370
    35
100
AcDbLine
 10
85.1860038228
 20
72.5059096597
 30
0.0
 11
85.1860038228
 21
68.5059096597
 31
0.0
  0
ARC
  5
15D
330
1F
100
AcDbEntity
  8
0
  6
Continuous
 62
     7
370
    35
100
AcDbCircle
 10
80.1860038228
 20
68.5059096597
 30
0.0
 40
5.000000000000007
100
AcDbArc
 50
270.0
 51
0.0
  0
LINE
  5
15E
330
1F
100
AcDbEntity
  8
0
  6
Continuous
 62
     7
370
    35
100
AcDbLine
 10
80.1860038228
 20
63.5059096597
 30
0.0
 11
34.1860038228
 21
63.5059096597
 31
0.0
  0
LINE
  5
15F
330
1F
100
AcDbEntity
  8
0
  6
Continuous
 62
     7
370
    35
100
AcDbLine
 10
29.1860038228
 20
68.5059096597
 30
0.0
 11
29.1860038228
 21
114.5059096597
 31
0.0
  0
ARC
  5
160
330
1F
100
AcDbEntity
  8
0
  6
Continuous
 62
     7
370
    35
100
AcDbCircle
 10
34.1860038228
 20
114.5059096597
 30
0.0
 40
5.0
100
AcDbArc
 50
90.0
 51
180.0
  0
LINE
  5
161
330
1F
100
AcDbEntity
  8
0
  6
Continuous
 62
     7
370
    35
100
AcDbLine
 10
34.1860038228
 20
119.5059096597
 30
0.0
 11
38.1860038228
 21
119.5059096597
 31
0.0
  0
ARC
  5
162
330
1F
100
AcDbEntity
  8
0
  6
Continuous
 62
     7
370
    35
100
AcDbCircle
 10
38.1860038228
 20
114.5059096597
 30
0.0
 40
5.0
100
AcDbArc
 50
0.0
 51
90.0
  0
LINE
  5
163
330
1F
100
AcDbEntity
  8
0
  6
Continuous
 62
     7
370
    35
100
AcDbLine
 10
43.1860038228
 20
114.5059096597
 30
0.0
 11
43.1860038228
 21
91.5059096597
 31
0.0
  0
ARC
  5
164
330
1F
100
AcDbEntity
  8
0
  6
Continuous
 62
     7
370
    35
100
AcDbCircle
 10
57.1860038228
 20
91.5059096597
 30
0.0
 40
14.0
100
AcDbArc
 50
180.0
 51
270.0
  0
CIRCLE
  5
165
330
1F
100
AcDbEntity
  8
0
  6
Continuous
 62
     7
370
    35
100
AcDbCircle
 10
36.1860038228
 20
112.5059096597
 30
0.0
 40
4.750000000000004
  0
LINE
  5
166
330
1F
100
AcDbEntity
  8
0
  6
Continuous
 62
     7
370
    35
100
AcDbLine
 10
37.1860038228
 20
102.860011626
 30
0.0
 11
37.1860038228
 21
104.5059096597
 31
0.0
  0
ARC
  5
167
330
1F
100
AcDbEntity
  8
0
  6
Continuous
 62
     7
370
    35
100
AcDbCircle
 10
36.1860038228
 20
104.5059096597
 30
0.0
 40
1.0
100
AcDbArc
 50
0.0
 51
180.0
  0
LINE
  5
168
330
1F
100
AcDbEntity
  8
0
  6
Continuous
 62
     7
370
    35
100
AcDbLine
 10
35.1860038228
 20
104.5059096597
 30
0.0
 11
35.1860038228
 21
102.860011626
 31
0.0
  0
ARC
  5
169
330
1F
100
AcDbEntity
  8
0
  6
Continuous
 62
     7
370
    35
100
AcDbCircle
 10
36.1860038228
 20
99.5059096597
 30
0.0
 40
3.500000000000002
100
AcDbArc
 50
106.601549599
 51
253.398450401
  0
LINE
  5
16A
330
1F
100
AcDbEntity
  8
0
  6
Continuous
 62
     7
370
    35
100
AcDbLine
 10
35.1860038228
 20
96.1518076935
 30
0.0
 11
35.1860038228
 21
94.5059096597
 31
0.0
  0
ARC
  5
16B
330
1F
100
AcDbEntity
  8
0
  6
Continuous
 62
     7
370
    35
100
AcDbCircle
 10
36.1860038228
 20
94.5059096597
 30
0.0
 40
1.0
100
AcDbArc
 50
180.0
 51
0.0
  0
LINE
  5
16C
330
1F
100
AcDbEntity
  8
0
  6
Continuous
 62
     7
370
    35
100
AcDbLine
 10
37.1860038228
 20
94.5059096597
 30
0.0
 11
37.1860038228
 21
96.1518076935
 31
0.0
  0
ARC
  5
16D
330
1F
100
AcDbEntity
  8
0
  6
Continuous
 62
     7
370
    35
100
AcDbCircle
 10
36.1860038228
 20
99.5059096597
 30
0.0
 40
3.500000000000002
100
AcDbArc
 50
286.601549599
 51
73.398450401
  0
CIRCLE
  5
16E
330
1F
100
AcDbEntity
  8
0
  6
Continuous
 62
     7
370
    35
100
AcDbCircle
 10
78.1860038228
 20
70.5059096597
 30
0.0
 40
4.75
  0
LINE
  5
16F
330
1F
100
AcDbEntity
  8
0
  6
Continuous
 62
     7
370
    35
100
AcDbLine
 10
61.8319018566
 20
71.5059096597
 30
0.0
 11
60.1860038228
 21
71.5059096597
 31
0.0
  0
ARC
  5
170
330
1F
100
AcDbEntity
  8
0
  6
Continuous
 62
     7
370
    35
100
AcDbCircle
 10
60.1860038228
 20
70.5059096597
 30
0.0
 40
1.0
100
AcDbArc
 50
90.0
 51
270.0
  0
LINE
  5
171
330
1F
100
AcDbEntity
  8
0
  6
Continuous
 62
     7
370
    35
100
AcDbLine
 10
60.1860038228
 20
69.5059096597
 30
0.0
 11
61.8319018566
 21
69.5059096597
 31
0.0
  0
ARC
  5
172
330
1F
100
AcDbEntity
  8
0
  6
Continuous
 62
     7
370
    35
100
AcDbCircle
 10
65.1860038228
 20
70.5059096597
 30
0.0
 40
3.500000000000002
100
AcDbArc
 50
196.601549599
 51
343.398450401
  0
LINE
  5
173
330
1F
100
AcDbEntity
  8
0
  6
Continuous
 62
     7
370
    35
100
AcDbLine
 10
68.5401057891
 20
69.5059096597
 30
0.0
 11
70.1860038228
 21
69.5059096597
 31
0.0
  0
ARC
  5
174
330
1F
100
AcDbEntity
  8
0
  6
Continuous
 62
     7
370
    35
100
AcDbCircle
 10
70.1860038228
 20
70.5059096597
 30
0.0
 40
1.000000000000014
100
AcDbArc
 50
270.0
 51
90.0
  0
LINE
  5
175
330
1F
100
AcDbEntity
  8
0
  6
Continuous
 62
     7
370
    35
100
AcDbLine
 10
70.1860038228
 20
71.5059096597
 30
0.0
 11
68.5401057891
 21
71.5059096597
 31
0.0
  0
ARC
  5
176
330
1F
100
AcDbEntity
  8
0
  6
Continuous
 62
     7
370
    35
100
AcDbCircle
 10
65.1860038228
 20
70.5059096597
 30
0.0
 40
3.500000000000006
100
AcDbArc
 50
16.601549599
 51
163.398450401
  0
ARC
  5
177
330
1F
100
AcDbEntity
  8
0
  6
Continuous
 62
     7
370
    35
100
AcDbCircle
 10
34.1860038228
 20
68.5059096597
 30
0.0
 40
5.000000000000007
100
AcDbArc
 50
180.0
 51
270.0
  0
LINE
  5
178
330
1F
100
AcDbEntity
  8
0
  6
Continuous
 62
     7
370
    35
100
AcDbLine
 10
37.1860038228
 20
96.1518076935
 30
0.0
 11
36.9860038228
 21
96.0985646522
 31
0.0
  0
LINE
  5
179
330
1F
100
AcDbEntity
  8
0
  6
Continuous
 62
     7
370
    35
100
AcDbLine
 10
35.4260696152
 20
96.0894055985
 30
0.0
 11
35.1860038228
 21
96.1518076935
 31
0.0
  0
LINE
  5
17A
330
1F
100
AcDbEntity
  8
0
  6
Continuous
 62
     7
370
    35
100
AcDbLine
 10
35.1860038228
 20
102.860011626
 30
0.0
 11
35.4260696152
 21
102.9224137209
 31
0.0
  0
LINE
  5
17B
330
1F
100
AcDbEntity
  8
0
  6
Continuous
 62
     7
370
    35
100
AcDbLine
 10
36.9860038228
 20
102.9132546672
 30
0.0
 11
37.1860038228
 21
102.860011626
 31
0.0
  0
LINE
  5
17C
330
1F
100
AcDbEntity
  8
0
  6
Continuous
 62
     7
370
    35
100
AcDbLine
 10
61.8319018566
 20
69.5059096597
 30
0.0
 11
61.7694997617
 21
69.745975452
 31
0.0
  0
LINE
  5
17D
330
1F
100
AcDbEntity
  8
0
  6
Continuous
 62
     7
370
    35
100
AcDbLine
 10
61.7786588154
 20
71.3059096597
 30
0.0
 11
61.8319018566
 21
71.5059096597
 31
0.0
  0
LINE
  5
17E
330
1F
100
AcDbEntity
  8
0
  6
Continuous
 62
     7
370
    35
100
AcDbLine
 10
68.5401057891
 20
71.5059096597
 30
0.0
 11
68.5933488303
 21
71.3059096597
 31
0.0
  0
LINE
  5
17F
330
1F
100
AcDbEntity
  8
0
  6
Continuous
 62
     7
370
    35
100
AcDbLine
 10
68.602507884
 20
69.745975452
 30
0.0
 11
68.5401057891
 21
69.5059096597
 31
0.0
  0
LINE
  5
180
330
1F
100
AcDbEntity
  8
0
  6
Continuous
 62
     7
370
    35
100
AcDbLine
 10
85.1860038228
 20
72.5059096597
 30
0.0
 11
85.1860038228
 21
114.5059096597
 31
0.0
  0
LINE
  5
181
330
1F
100
AcDbEntity
  8
0
  6
Continuous
 62
     7
370
    35
100
AcDbLine
 10
80.1860038228
 20
119.5059096597
 30
0.0
 11
38.1860038228
 21
119.5059096597
 31
0.0
  0
ARC
  5
182
330
1F
100
AcDbEntity
  8
0
  6
Continuous
 62
     7
370
    35
100
AcDbCircle
 10
80.1860038228
 20
114.5059096597
 30
0.0
 40
5.0
100
AcDbArc
 50
0.0
 51
90.0
  0
CIRCLE
  5
183
330
1F
100
AcDbEntity
  8
0
  6
Continuous
 62
     7
370
    35
100
AcDbCircle
 10
57.1860038228
 20
91.5059096597
 30
0.0
 40
11.99999999999999
  0
LINE
  5
184
330
1F
100
AcDbEntity
  8
0
  6
Continuous
 62
     8
370
    35
100
AcDbLine
 10
35.3064854538
 20
96.8401175751
 30
0.0
 11
35.4260696152
 21
97.3136292779
 31
0.0
  0
SPLINE
  5
185
330
1F
100
AcDbEntity
  8
0
  6
Continuous
 62
     8
370
    35
100
AcDbSpline
210
0.0
220
0.0
230
1.0
 70
     8
 71
     3
 72
    16
 73
    12
 74
     0
 42
0.00000001
 43
0.00000001
 40
0.0
 40
0.0
 40
0.0
 40
0.0
 40
0.0191126484670282
 40
0.1628130073804528
 40
0.2874438429711086
 40
0.4120746785617643
 40
0.5324346610054558
 40
0.6527946434491555
 40
0.7774254790398122
 40
0.9020563146304685
 40
1.0
 40
1.0
 40
1.0
 40
1.0
 10
34.68477917575391
 20
97.6504314396549
 30
0.0
 10
34.65691957325854
 20
97.66743373048828
 30
0.0
 10
34.41959476322394
 20
97.81226944531429
 30
0.0
 10
34.12608954372808
 20
98.23186864895985
 30
0.0
 10
33.84782220244674
 20
98.84102040711491
 30
0.0
 10
33.75904762358406
 20
99.47538119857535
 30
0.0
 10
33.83321646064527
 20
100.0997203638007
 30
0.0
 10
34.06430039643014
 20
100.6867360893074
 30
0.0
 10
34.44519374703571
 20
101.1953219262504
 30
0.0
 10
34.91136793340888
 20
101.5782827061705
 30
0.0
 10
35.26878750580808
 20
101.7112538902708
 30
0.0
 10
35.42606961515717
 20
101.7697677208861
 30
0.0
  0
SPLINE
  5
186
330
1F
100
AcDbEntity
  8
0
  6
Continuous
 62
     8
370
    35
100
AcDbSpline
210
0.0
220
0.0
230
1.0
 70
     8
 71
     3
 72
    16
 73
    12
 74
     0
 42
0.00000001
 43
0.00000001
 40
0.0
 40
0.0
 40
0.0
 40
0.0
 40
0.042745655429849
 40
0.1641492678648372
 40
0.2898607656093199
 40
0.4155722633538019
 40
0.5369758757887871
 40
0.6583794882237757
 40
0.7840909859682595
 40
0.9098024837127433
 40
1.0
 40
1.0
 40
1.0
 40
1.0
 10
37.68483795797288
 20
101.357132841628
 30
0.0
 10
37.74408830618089
 20
101.3154446545932
 30
0.0
 10
37.97161789208336
 20
101.155356212585
 30
0.0
 10
38.26444716952962
 20
100.7476626601261
 30
0.0
 10
38.52363972027953
 20
100.1697411401118
 30
0.0
 10
38.61310441422498
 20
99.53670354075571
 30
0.0
 10
38.53873971227149
 20
98.91205470098686
 30
0.0
 10
38.30777240103939
 20
98.32499796934326
 30
0.0
 10
37.92659830243855
 20
97.81690060755582
 30
0.0
 10
37.47278004980085
 20
97.4415950431298
 30
0.0
 10
37.1294375699504
 20
97.31295892871765
 30
0.0
 10
36.98600382283569
 20
97.259220282942
 30
0.0
  0
LINE
  5
187
330
1F
100
AcDbEntity
  8
0
  6
Continuous
 62
     8
370
    35
100
AcDbLine
 10
64.5348143328
 20
67.7753506971
 30
0.0
 11
64.664481214
 21
68.5647723208
 31
0.0
  0
SPLINE
  5
188
330
1F
100
AcDbEntity
  8
0
  6
Continuous
 62
     8
370
    35
100
AcDbSpline
210
0.0
220
0.0
230
1.0
 70
     8
 71
     3
 72
    11
 73
     7
 74
     0
 42
0.00000001
 43
0.00000001
 40
0.0
 40
0.0
 40
0.0
 40
0.0
 40
0.0596100682023652
 40
0.4686528302077579
 40
0.8922100639826104
 40
1.0
 40
1.0
 40
1.0
 40
1.0
 10
62.9198812149864
 20
69.74597545202738
 30
0.0
 10
62.92633018470538
 20
69.71671662385367
 30
0.0
 10
62.97703181954435
 20
69.48668446576895
 30
0.0
 10
63.22627741438964
 20
69.10320185705172
 30
0.0
 10
63.52517052512344
 20
68.72629499367088
 30
0.0
 10
63.75614250768157
 20
68.59154114412559
 30
0.0
 10
63.80299785318286
 20
68.5642047628548
 30
0.0
  0
SPLINE
  5
189
330
1F
100
AcDbEntity
  8
0
  6
Continuous
 62
     8
370
    35
100
AcDbSpline
210
0.0
220
0.0
230
1.0
 70
     8
 71
     3
 72
    13
 73
     9
 74
     0
 42
0.00000001
 43
0.00000001
 40
0.0
 40
0.0
 40
0.0
 40
0.0
 40
0.1826002751897574
 40
0.3716799378311937
 40
0.5607596004726298
 40
0.7433598756623864
 40
0.9259601508521439
 40
0.9999999999999999
 40
0.9999999999999999
 40
0.9999999999999999
 40
0.9999999999999999
 10
64.79700317933938
 20
68.13764478867482
 30
0.0
 10
65.00259894751285
 20
68.11947795324507
 30
0.0
 10
65.42108584329469
 20
68.0824996504681
 30
0.0
 10
66.04319972836929
 20
68.23585730652474
 30
0.0
 10
66.60630794770073
 20
68.53497766524958
 30
0.0
 10
67.05701643684884
 20
68.97010527216668
 30
0.0
 10
67.34425217172081
 20
69.38606494888843
 30
0.0
 10
67.41945902255064
 20
69.66539083398033
 30
0.0
 10
67.44115595674867
 20
69.74597545202737
 30
0.0
  0
SPLINE
  5
18A
330
1F
100
AcDbEntity
  8
0
  6
Continuous
 62
     8
370
    35
100
AcDbSpline
210
0.0
220
0.0
230
1.0
 70
     8
 71
     3
 72
    13
 73
     9
 74
     0
 42
0.00000001
 43
0.00000001
 40
0.0
 40
0.0
 40
0.0
 40
0.0
 40
0.0170484979718105
 40
0.2332380261993859
 40
0.45709882280225
 40
0.680959619405114
 40
0.8971491476326888
 40
0.9999999999999999
 40
0.9999999999999999
 40
0.9999999999999999
 40
0.9999999999999999
 10
67.44265314959138
 20
71.3059096597059
 30
0.0
 10
67.439060134112
 20
71.321700812373
 30
0.0
 10
67.38990461085719
 20
71.53773727995946
 30
0.0
 10
67.14962853537118
 20
71.91510432682958
 30
0.0
 10
66.7280725607101
 20
72.38680685258359
 30
0.0
 10
66.1816482197562
 20
72.71366318653894
 30
0.0
 10
65.68417552690606
 20
72.8848674549741
 30
0.0
 10
65.3802537253302
 20
72.88435139093436
 30
0.0
 10
65.28227673481007
 20
72.88418502445037
 30
0.0
  0
SPLINE
  5
18B
330
1F
100
AcDbEntity
  8
0
  6
Continuous
 62
     8
370
    35
100
AcDbSpline
210
0.0
220
0.0
230
1.0
 70
     8
 71
     3
 72
    12
 73
     8
 74
     0
 42
0.00000001
 43
0.00000001
 40
0.0
 40
0.0
 40
0.0
 40
0.0
 40
0.0820550478333755
 40
0.3638643516894116
 40
0.6360166060158334
 40
0.9081688603422531
 40
1.0
 40
1.0
 40
1.0
 40
1.0
 10
64.51955730571154
 20
72.79326647076334
 30
0.0
 10
64.4588192743821
 20
72.78086570754202
 30
0.0
 10
64.1894829571642
 20
72.72587584659966
 30
0.0
 10
63.7672501750981
 20
72.4690129839829
 30
0.0
 10
63.31522577850323
 20
72.04358396327642
 30
0.0
 10
63.03400589398191
 20
71.63811819068677
 30
0.0
 10
62.96138999691965
 20
71.37283839003894
 30
0.0
 10
62.94306937929063
 20
71.3059096597059
 30
0.0
  0
SPLINE
  5
18C
330
1F
100
AcDbEntity
  8
0
  6
Continuous
 62
     8
370
    35
100
AcDbSpline
210
0.0
220
0.0
230
1.0
 70
     8
 71
     3
 72
    11
 73
     7
 74
     0
 42
0.00000001
 43
0.00000001
 40
0.0
 40
0.0
 40
0.0
 40
0.0
 40
0.0594643872060759
 40
0.4675074899443487
 40
0.9719521311543826
 40
1.0
 40
1.0
 40
1.0
 40
1.0
 10
62.91988121498641
 20
69.74597545202737
 30
0.0
 10
62.92632701289131
 20
69.7167041243768
 30
0.0
 10
62.9770037110092
 20
69.48657369572504
 30
0.0
 10
63.25036198767134
 20
69.07240795686424
 30
0.0
 10
63.54945343679018
 20
68.68082743503737
 30
0.0
 10
63.78862737306002
 20
68.55978896145783
 30
0.0
 10
63.80122533278547
 20
68.55341352674631
 30
0.0
  0
LINE
  5
18D
330
1F
100
AcDbEntity
  8
0
  6
HIDDEN
 62
     7
370
    18
100
AcDbLine
 10
36.1860038228
 20
87.5059096597
 30
0.0
 11
36.1860038228
 21
95.5059096597
 31
0.0
  0
LINE
  5
18E
330
1F
100
AcDbEntity
  8
0
  6
HIDDEN
 62
     7
370
    18
100
AcDbLine
 10
43.1860038228
 20
91.5059096597
 30
0.0
 11
43.1860038228
 21
95.4965847365
 31
0.0
  0
SPLINE
  5
18F
330
1F
100
AcDbEntity
  8
0
  6
HIDDEN
 62
     7
370
    18
100
AcDbSpline
210
0.0
220
0.0
230
1.0
 70
    11
 71
     3
 72
    26
 73
    22
 74
     0
 42
0.00000001
 43
0.00000001
 40
0.0
 40
0.0
 40
0.0
 40
0.0
 40
0.0522331241869968
 40
0.104471800151932
 40
0.1566442125743935
 40
0.20882487210606
 40
0.2622435046503723
 40
0.3156610359194071
 40
0.3701556743480208
 40
0.4246389028286585
 40
0.4777203757227964
 40
0.5307986958967778
 40
0.5821515784126389
 40
0.6335127230857829
 40
0.6855254176514537
 40
0.7375444351691631
 40
0.7915303812939389
 40
0.8455110177247659
 40
0.8997949006499861
 40
0.9540688218496347
 40
0.9999999999999999
 40
0.9999999999999999
 40
0.9999999999999999
 40
0.9999999999999999
 10
43.1860038228357
 20
91.50590965970584
 30
0.0
 10
43.18913727045829
 20
91.2859957323814
 30
0.0
 10
43.19540449875277
 20
90.8461445034215
 30
0.0
 10
43.24205499544122
 20
90.2055253882558
 30
0.0
 10
43.3119904533922
 20
89.60303800249417
 30
0.0
 10
43.39992823215546
 20
89.04814340756154
 30
0.0
 10
43.49732849247415
 20
88.55807332857974
 30
0.0
 10
43.59446122274024
 20
88.14161349516976
 30
0.0
 10
43.67907715266823
 20
87.81918241401078
 30
0.0
 10
43.74140935595566
 20
87.60088240090482
 30
0.0
 10
43.77174472903002
 20
87.49795015629833
 30
0.0
 10
43.76973006475428
 20
87.50566285429731
 30
0.0
 10
43.73459969775841
 20
87.62348705608355
 30
0.0
 10
43.6736835870716
 20
87.83969734396202
 30
0.0
 10
43.59145503433553
 20
88.15426372037638
 30
0.0
 10
43.49654030958775
 20
88.56126502105458
 30
0.0
 10
43.39868498996081
 20
89.05589635561721
 30
0.0
 10
43.30797930670898
 20
89.62698401059583
 30
0.0
 10
43.2374861191583
 20
90.25641828427435
 30
0.0
 10
43.19342379514934
 20
90.89070655144343
 30
0.0
 10
43.18833594786331
 20
91.3125490236777
 30
0.0
 10
43.18600382283562
 20
91.50590965970584
 30
0.0
  0
LINE
  5
190
330
1F
100
AcDbEntity
  8
0
  6
HIDDEN
 62
     7
370
    18
100
AcDbLine
 10
61.1860038228
 20
70.5059096597
 30
0.0
 11
53.1860038228
 21
70.5059096597
 31
0.0
  0
LINE
  5
191
330
1F
100
AcDbEntity
  8
0
  6
HIDDEN
 62
     7
370
    18
100
AcDbLine
 10
57.1860038228
 20
77.5059096597
 30
0.0
 11
61.1766788996
 21
77.5059096597
 31
0.0
  0
SPLINE
  5
192
330
1F
100
AcDbEntity
  8
0
  6
HIDDEN
 62
     7
370
    18
100
AcDbSpline
210
0.0
220
0.0
230
1.0
 70
    11
 71
     3
 72
    26
 73
    22
 74
     0
 42
0.00000001
 43
0.00000001
 40
0.0
 40
0.0
 40
0.0
 40
0.0
 40
0.0522331241869965
 40
0.1044718001519316
 40
0.1566442125743931
 40
0.2088248721060597
 40
0.2622435046503717
 40
0.3156610359194065
 40
0.3701556743480204
 40
0.4246389028286583
 40
0.477720375722796
 40
0.5307986958967775
 40
0.5821515784126388
 40
0.6335127230857825
 40
0.6855254176514535
 40
0.737544435169163
 40
0.7915303812939388
 40
0.8455110177247659
 40
0.899794900649986
 40
0.9540688218496347
 40
1.0
 40
1.0
 40
1.0
 40
1.0
 10
57.1860038228357
 20
77.50590965970585
 30
0.0
 10
56.96608989551127
 20
77.50904310732844
 30
0.0
 10
56.52623866655137
 20
77.51531033562291
 30
0.0
 10
55.88561955138566
 20
77.56196083231136
 30
0.0
 10
55.28313216562402
 20
77.63189629026235
 30
0.0
 10
54.7282375706914
 20
77.71983406902561
 30
0.0
 10
54.23816749170958
 20
77.81723432934432
 30
0.0
 10
53.82170765829961
 20
77.91436705961041
 30
0.0
 10
53.49927657714061
 20
77.9989829895384
 30
0.0
 10
53.28097656403467
 20
78.06131519282584
 30
0.0
 10
53.17804431942815
 20
78.0916505659002
 30
0.0
 10
53.18575701742712
 20
78.08963590162446
 30
0.0
 10
53.30358121921334
 20
78.0545055346286
 30
0.0
 10
53.51979150709181
 20
77.9935894239418
 30
0.0
 10
53.83435788350617
 20
77.91136087120573
 30
0.0
 10
54.24135918418436
 20
77.81644614645795
 30
0.0
 10
54.73599051874699
 20
77.71859082683102
 30
0.0
 10
55.30707817372561
 20
77.62788514357919
 30
0.0
 10
55.93651244740411
 20
77.55739195602851
 30
0.0
 10
56.57080071457321
 20
77.51332963201956
 30
0.0
 10
56.99264318680748
 20
77.50824178473353
 30
0.0
 10
57.18600382283562
 20
77.50590965970585
 30
0.0
  0
LINE
  5
193
330
1F
100
AcDbEntity
  8
0
  6
HIDDEN
 62
     7
370
    18
100
AcDbLine
 10
36.1860038228
 20
89.25817526
 30
0.0
 11
36.1860038228
 21
93.7536440594
 31
0.0
  0
LINE
  5
194
330
1F
100
AcDbEntity
  8
0
  6
HIDDEN
 62
     7
370
    18
100
AcDbLine
 10
29.1860038228
 20
93.7559096597
 30
0.0
 11
29.1860038228
 21
89.2649674982
 31
0.0
  0
LINE
  5
195
330
1F
100
AcDbEntity
  8
0
  6
HIDDEN
 62
     7
370
    18
100
AcDbLine
 10
59.4337382226
 20
70.5059096597
 30
0.0
 11
54.9382694231
 21
70.5059096597
 31
0.0
  0
LINE
  5
196
330
1F
100
AcDbEntity
  8
0
  6
HIDDEN
 62
     7
370
    18
100
AcDbLine
 10
54.9360038228
 20
63.5059096597
 30
0.0
 11
59.4269459843
 21
63.5059096597
 31
0.0
  0
LINE
  5
197
330
1F
100
AcDbEntity
  8
0
  6
HIDDEN
 62
     7
370
    18
100
AcDbLine
 10
36.1860038228
 20
87.5059096597
 30
0.0
 11
43.7653770231
 21
87.5059096597
 31
0.0
  0
LINE
  5
198
330
1F
100
AcDbEntity
  8
0
  6
HIDDEN
 62
     7
370
    18
100
AcDbLine
 10
43.1860038228
 20
95.5059096597
 30
0.0
 11
36.1860038228
 21
95.5059096597
 31
0.0
  0
LINE
  5
199
330
1F
100
AcDbEntity
  8
0
  6
HIDDEN
 62
     7
370
    18
100
AcDbLine
 10
61.1860038228
 20
70.5059096597
 30
0.0
 11
61.1860038228
 21
77.5059096597
 31
0.0
  0
LINE
  5
19A
330
1F
100
AcDbEntity
  8
0
  6
HIDDEN
 62
     7
370
    18
100
AcDbLine
 10
53.1860038228
 20
78.08528286
 30
0.0
 11
53.1860038228
 21
70.5059096597
 31
0.0
  0
LINE
  5
19B
330
1F
100
AcDbEntity
  8
0
  6
HIDDEN
 62
     7
370
    18
100
AcDbLine
 10
29.1860038228
 20
89.2559096597
 30
0.0
 11
36.1860038228
 21
89.2559096597
 31
0.0
  0
LINE
  5
19C
330
1F
100
AcDbEntity
  8
0
  6
HIDDEN
 62
     7
370
    18
100
AcDbLine
 10
36.1860038228
 20
93.7559096597
 30
0.0
 11
29.1860038228
 21
93.7559096597
 31
0.0
  0
LINE
  5
19D
330
1F
100
AcDbEntity
  8
0
  6
HIDDEN
 62
     7
370
    18
100
AcDbLine
 10
59.4360038228
 20
63.5059096597
 30
0.0
 11
59.4360038228
 21
70.5059096597
 31
0.0
  0
LINE
  5
19E
330
1F
100
AcDbEntity
  8
0
  6
HIDDEN
 62
     7
370
    18
100
AcDbLine
 10
54.9360038228
 20
70.5059096597
 30
0.0
 11
54.9360038228
 21
63.5059096597
 31
0.0
  0
DIMENSION
  5
19F
330
1F
100
AcDbEntity
  8
SLD-0
 62
     7
100
AcDbDimension
  2
_D
 10
29.1860038228
 20
53.2214805641
 30
0.0
 11
43.1860038228
 21
53.2214805641
 31
0.0
 70
   160
  1
<>
 71
     2
 42
-1.0
  3
SLDDIMSTYLE0
100
AcDbAlignedDimension
 13
57.1860038228
 23
78.5059096597
 33
0.0
 14
29.1860038228
 24
68.5059096597
 34
0.0
 50
0.0
100
AcDbRotatedDimension
  0
DIMENSION
  5
1AA
330
1F
100
AcDbEntity
  8
SLD-0
 62
     7
100
AcDbDimension
  2
_D_1
 10
22.1860038228
 20
91.5059096597
 30
0.0
 11
22.1860038228
 21
77.5059096597
 31
0.0
 70
   160
  1
<>
 71
     2
 42
-1.0
  3
SLDDIMSTYLE0
100
AcDbAlignedDimension
 13
34.1860038228
 23
63.5059096597
 33
0.0
 14
44.1860038228
 24
91.5059096597
 34
0.0
 50
90.0
100
AcDbRotatedDimension
  0
DIMENSION
  5
1B4
330
1F
100
AcDbEntity
  8
SLD-0
100
AcDbDimension
  2
_D_2
 10
83.8344131602
 20
57.9033872469
 30
0.0
 11
80.2048509937
 21
55.9495488745
 31
0.0
 70
   160
  1
<>
 71
     2
 42
-1.0
  3
SLDDIMSTYLE1
100
AcDbAlignedDimension
 13
79.3401926169
 23
70.4715358171
 33
0.0
 14
77.5791408049
 24
69.5235397646
 34
0.0
 50
28.2941316468
100
AcDbRotatedDimension
  0
INSERT
  5
1CC
330
1F
100
AcDbEntity
  8
SLD-0
 62
     7
100
AcDbBlockReference
  2
SW_CENTERMARKSYMBOL_0
 10
57.1860038228
 20
91.5059096597
 30
0.0
  0
ARC
  5
1CD
330
1F
100
AcDbEntity
  8
0
  6
Continuous
 62
     7
370
    35
100
AcDbCircle
 10
118.7865064188
 20
70.5059096597
 30
0.0
 40
1.999999999999992
100
AcDbArc
 50
272.1816403297
 51
300.0
  0
ARC
  5
1CE
330
1F
100
AcDbEntity
  8
0
  6
Continuous
 62
     7
370
    35
100
AcDbCircle
 10
118.7865064188
 20
70.5059096597
 30
0.0
 40
2.000000000000002
100
AcDbArc
 50
60.0
 51
87.1459219108
  0
LWPOLYLINE
  5
1CF
330
1F
100
AcDbEntity
  8
0
  6
Continuous
 62
     7
370
    35
100
AcDbPolyline
 90
        3
 70
   128
 43
0.0
 10
119.3905574365
 20
110.5083904876
 10
119.4810845995
 20
110.5149658146
 10
119.7865064188
 20
110.5682703362
  0
LWPOLYLINE
  5
1D0
330
1F
100
AcDbEntity
  8
0
  6
Continuous
 62
     7
370
    35
100
AcDbPolyline
 90
        3
 70
   128
 43
0.0
 10
119.7865064188
 20
114.4435489832
 10
119.6694750016
 20
114.4697670542
 10
119.3905574365
 20
114.5034288318
  0
LINE
  5
1D1
330
1F
100
AcDbEntity
  8
0
  6
Continuous
 62
     7
370
    35
100
AcDbLine
 10
117.8905574365
 20
115.5059096597
 30
0.0
 11
116.7865064188
 21
115.5059096597
 31
0.0
  0
LINE
  5
1D2
330
1F
100
AcDbEntity
  8
0
  6
Continuous
 62
     7
370
    35
100
AcDbLine
 10
104.7865064188
 20
115.5059096597
 30
0.0
 11
95.2905574365
 21
115.5059096597
 31
0.0
  0
LINE
  5
1D3
330
1F
100
AcDbEntity
  8
0
  6
Continuous
 62
     7
370
    35
100
AcDbLine
 10
95.2905574365
 20
109.5059096597
 30
0.0
 11
104.7865064188
 21
109.5059096597
 31
0.0
  0
LINE
  5
1D4
330
1F
100
AcDbEntity
  8
0
  6
Continuous
 62
     7
370
    35
100
AcDbLine
 10
116.7865064188
 20
109.5059096597
 30
0.0
 11
117.8905574365
 21
109.5059096597
 31
0.0
  0
LINE
  5
1D5
330
1F
100
AcDbEntity
  8
0
  6
Continuous
 62
     7
370
    35
100
AcDbLine
 10
117.8905574365
 20
109.5059096597
 30
0.0
 11
119.3905574365
 21
110.4059096597
 31
0.0
  0
LINE
  5
1D6
330
1F
100
AcDbEntity
  8
0
  6
Continuous
 62
     7
370
    35
100
AcDbLine
 10
119.3905574365
 20
114.6059096597
 30
0.0
 11
117.8905574365
 21
115.5059096597
 31
0.0
  0
LINE
  5
1D7
330
1F
100
AcDbEntity
  8
0
  6
Continuous
 62
     7
370
    35
100
AcDbLine
 10
117.3860913424
 20
73.5059096597
 30
0.0
 11
116.7865064188
 21
73.5059096597
 31
0.0
  0
LINE
  5
1D8
330
1F
100
AcDbEntity
  8
0
  6
Continuous
 62
     7
370
    35
100
AcDbLine
 10
104.7865064188
 20
73.5059096597
 30
0.0
 11
94.7860913424
 21
73.5059096597
 31
0.0
  0
LINE
  5
1D9
330
1F
100
AcDbEntity
  8
0
  6
Continuous
 62
     7
370
    35
100
AcDbLine
 10
94.7860913424
 20
67.5059096597
 30
0.0
 11
104.7865064188
 21
67.5059096597
 31
0.0
  0
LINE
  5
1DA
330
1F
100
AcDbEntity
  8
0
  6
Continuous
 62
     7
370
    35
100
AcDbLine
 10
116.7865064188
 20
67.5059096597
 30
0.0
 11
117.3860913424
 21
67.5059096597
 31
0.0
  0
LINE
  5
1DB
330
1F
100
AcDbEntity
  8
0
  6
Continuous
 62
     7
370
    35
100
AcDbLine
 10
117.3860913424
 20
67.5059096597
 30
0.0
 11
118.8860913424
 21
68.4059096597
 31
0.0
  0
LINE
  5
1DC
330
1F
100
AcDbEntity
  8
0
  6
Continuous
 62
     7
370
    35
100
AcDbLine
 10
118.8860913424
 20
72.6059096597
 30
0.0
 11
117.3860913424
 21
73.5059096597
 31
0.0
  0
SPLINE
  5
1DD
330
1F
100
AcDbEntity
  8
0
  6
Continuous
 62
     7
370
    35
100
AcDbSpline
210
0.0
220
0.0
230
1.0
 70
     8
 71
     3
 72
     9
 73
     5
 74
     0
 42
0.00000001
 43
0.00000001
 40
0.0
 40
0.0
 40
0.0
 40
0.0
 40
0.4599221760138278
 40
1.0
 40
1.0
 40
1.0
 40
1.0
 10
119.7865064188247
 20
100.5064097670469
 30
0.0
 10
119.7768896760608
 20
100.3583301866903
 30
0.0
 10
119.7559801760075
 20
100.0363635843404
 30
0.0
 10
119.7364112092793
 20
99.6917452004767
 30
0.0
 10
119.7258424443111
 20
99.50562445361393
 30
0.0
  0
SPLINE
  5
1DE
330
1F
100
AcDbEntity
  8
0
  6
Continuous
 62
     7
370
    35
100
AcDbSpline
210
0.0
220
0.0
230
1.0
 70
     8
 71
     3
 72
    17
 73
    13
 74
     0
 42
0.00000001
 43
0.00000001
 40
0.0
 40
0.0
 40
0.0
 40
0.0
 40
0.022164422372357
 40
0.0447557595381514
 40
0.0905185321405578
 40
0.1904043696337973
 40
0.3067833276864568
 40
0.4360228545242043
 40
0.57625354200957
 40
0.7233113798806926
 40
0.8661770517750957
 40
1.0
 40
1.0
 40
1.0
 40
1.0
 10
119.5283370243331
 20
102.305908137724
 30
0.0
 10
119.5009490866935
 20
102.3042354342025
 30
0.0
 10
119.4456456851136
 20
102.3008578087751
 30
0.0
 10
119.346882993307
 20
102.2687737243553
 30
0.0
 10
119.2057823480228
 20
102.1699398646235
 30
0.0
 10
119.14373943037
 20
102.0324419812276
 30
0.0
 10
119.0936871951325
 20
101.8343545552921
 30
0.0
 10
119.0558260686025
 20
101.5354531835702
 30
0.0
 10
119.027505280262
 20
101.1401402900608
 30
0.0
 10
118.9948828838895
 20
100.6372963745712
 30
0.0
 10
118.9581268946481
 20
100.0732126971032
 30
0.0
 10
118.9363668744589
 20
99.69065293509595
 30
0.0
 10
118.9258424443111
 20
99.50562445361393
 30
0.0
  0
SPLINE
  5
1DF
330
1F
100
AcDbEntity
  8
0
  6
Continuous
 62
     7
370
    35
100
AcDbSpline
210
0.0
220
0.0
230
1.0
 70
     8
 71
     3
 72
    17
 73
    13
 74
     0
 42
0.00000001
 43
0.00000001
 40
0.0
 40
0.0
 40
0.0
 40
0.0
 40
0.0221644223723581
 40
0.0447557595381502
 40
0.0905185321405585
 40
0.1904043696337972
 40
0.3067833276864561
 40
0.4360228545242035
 40
0.5762535420095714
 40
0.7233113798806939
 40
0.8661770517750945
 40
1.0
 40
1.0
 40
1.0
 40
1.0
 10
118.7283370243331
 20
102.305908137724
 30
0.0
 10
118.7009490866935
 20
102.3042354342025
 30
0.0
 10
118.6456456851136
 20
102.3008578087751
 30
0.0
 10
118.546882993307
 20
102.2687737243553
 30
0.0
 10
118.4057823480229
 20
102.1699398646235
 30
0.0
 10
118.34373943037
 20
102.0324419812276
 30
0.0
 10
118.2936871951325
 20
101.8343545552921
 30
0.0
 10
118.2558260686025
 20
101.5354531835702
 30
0.0
 10
118.227505280262
 20
101.1401402900608
 30
0.0
 10
118.1948828838895
 20
100.6372963745712
 30
0.0
 10
118.1581268946481
 20
100.0732126971032
 30
0.0
 10
118.1363668744589
 20
99.69065293509595
 30
0.0
 10
118.1258424443111
 20
99.50562445361393
 30
0.0
  0
SPLINE
  5
1E0
330
1F
100
AcDbEntity
  8
0
  6
Continuous
 62
     7
370
    35
100
AcDbSpline
210
0.0
220
0.0
230
1.0
 70
     8
 71
     3
 72
    17
 73
    13
 74
     0
 42
0.00000001
 43
0.00000001
 40
0.0
 40
0.0
 40
0.0
 40
0.0
 40
0.0221644223723581
 40
0.0447557595381503
 40
0.0905185321405604
 40
0.1904043696337984
 40
0.3067833276864537
 40
0.4360228545242053
 40
0.5762535420095685
 40
0.7233113798806929
 40
0.8661770517750931
 40
1.0
 40
1.0
 40
1.0
 40
1.0
 10
117.9283370243331
 20
102.305908137724
 30
0.0
 10
117.9009490866935
 20
102.3042354342025
 30
0.0
 10
117.8456456851136
 20
102.3008578087751
 30
0.0
 10
117.746882993307
 20
102.2687737243553
 30
0.0
 10
117.6057823480229
 20
102.1699398646235
 30
0.0
 10
117.54373943037
 20
102.0324419812276
 30
0.0
 10
117.4936871951325
 20
101.8343545552921
 30
0.0
 10
117.4558260686025
 20
101.5354531835703
 30
0.0
 10
117.427505280262
 20
101.1401402900608
 30
0.0
 10
117.3948828838895
 20
100.6372963745712
 30
0.0
 10
117.3581268946481
 20
100.0732126971032
 30
0.0
 10
117.3363668744589
 20
99.69065293509595
 30
0.0
 10
117.3258424443111
 20
99.50562445361393
 30
0.0
  0
SPLINE
  5
1E1
330
1F
100
AcDbEntity
  8
0
  6
Continuous
 62
     7
370
    35
100
AcDbSpline
210
0.0
220
0.0
230
1.0
 70
     8
 71
     3
 72
    11
 73
     7
 74
     0
 42
0.00000001
 43
0.00000001
 40
0.0
 40
0.0
 40
0.0
 40
0.0
 40
0.1399555709139992
 40
0.2826068630448316
 40
0.5715724340206885
 40
1.0
 40
1.0
 40
1.0
 40
1.0
 10
117.1283370243331
 20
102.305908137724
 30
0.0
 10
117.1009280884574
 20
102.3042350822671
 30
0.0
 10
117.0455822859527
 20
102.3008567461903
 30
0.0
 10
116.9472533288379
 20
102.2687799312657
 30
0.0
 10
116.8289439716071
 20
102.1886980020623
 30
0.0
 10
116.8023740125921
 20
102.1277711590815
 30
0.0
 10
116.7865064188244
 20
102.0913856157909
 30
0.0
  0
SPLINE
  5
1E2
330
1F
100
AcDbEntity
  8
0
  6
Continuous
 62
     7
370
    35
100
AcDbSpline
210
0.0
220
0.0
230
1.0
 70
     8
 71
     3
 72
    11
 73
     7
 74
     0
 42
0.00000001
 43
0.00000001
 40
0.0
 40
0.0
 40
0.0
 40
0.0
 40
0.2557773970627253
 40
0.7531281864084867
 40
0.9809898297370399
 40
1.0
 40
1.0
 40
1.0
 40
1.0
 10
119.5281567629979
 20
97.06487564955059
 30
0.0
 10
119.5353163892825
 20
97.03347623982843
 30
0.0
 10
119.5563976748887
 20
96.94102170408796
 30
0.0
 10
119.6092590939817
 20
96.84641648668338
 30
0.0
 10
119.7280178035469
 20
96.750109683366
 30
0.0
 10
119.7823245689725
 20
96.7339969208356
 30
0.0
 10
119.7865064188247
 20
96.73275617020208
 30
0.0
  0
SPLINE
  5
1E3
330
1F
100
AcDbEntity
  8
0
  6
Continuous
 62
     7
370
    35
100
AcDbSpline
210
0.0
220
0.0
230
1.0
 70
     8
 71
     3
 72
    12
 73
     8
 74
     0
 42
0.00000001
 43
0.00000001
 40
0.0
 40
0.0
 40
0.0
 40
0.0
 40
0.2124683991897139
 40
0.6256062575835226
 40
0.8148856823908708
 40
0.9083257224321714
 40
1.0
 40
1.0
 40
1.0
 40
1.0
 10
118.7281567629979
 20
97.06487564955059
 30
0.0
 10
118.7354366371081
 20
97.03362920790988
 30
0.0
 10
118.756871988507
 20
96.94162508168596
 30
0.0
 10
118.8061207235179
 20
96.84242414415047
 30
0.0
 10
118.9468561386835
 20
96.74300236666669
 30
0.0
 10
119.0456502824597
 20
96.71096891107057
 30
0.0
 10
119.100950609366
 20
96.70758633628361
 30
0.0
 10
119.1283370243331
 20
96.70591118168768
 30
0.0
  0
SPLINE
  5
1E4
330
1F
100
AcDbEntity
  8
0
  6
Continuous
 62
     7
370
    35
100
AcDbSpline
210
0.0
220
0.0
230
1.0
 70
     8
 71
     3
 72
    12
 73
     8
 74
     0
 42
0.00000001
 43
0.00000001
 40
0.0
 40
0.0
 40
0.0
 40
0.0
 40
0.2124683991897136
 40
0.6256062575835193
 40
0.81488568239087
 40
0.9083257224321729
 40
1.0
 40
1.0
 40
1.0
 40
1.0
 10
117.9281567629979
 20
97.06487564955059
 30
0.0
 10
117.9354366371082
 20
97.03362920790988
 30
0.0
 10
117.956871988507
 20
96.94162508168597
 30
0.0
 10
118.0061207235179
 20
96.84242414415046
 30
0.0
 10
118.1468561386835
 20
96.7430023666667
 30
0.0
 10
118.2456502824596
 20
96.71096891107057
 30
0.0
 10
118.300950609366
 20
96.70758633628361
 30
0.0
 10
118.3283370243331
 20
96.70591118168768
 30
0.0
  0
SPLINE
  5
1E5
330
1F
100
AcDbEntity
  8
0
  6
Continuous
 62
     7
370
    35
100
AcDbSpline
210
0.0
220
0.0
230
1.0
 70
     8
 71
     3
 72
    12
 73
     8
 74
     0
 42
0.00000001
 43
0.00000001
 40
0.0
 40
0.0
 40
0.0
 40
0.0
 40
0.2124683991897195
 40
0.6256062575835251
 40
0.8148856823908733
 40
0.9083257224321836
 40
1.0
 40
1.0
 40
1.0
 40
1.0
 10
117.1281567629979
 20
97.06487564955059
 30
0.0
 10
117.1354366371082
 20
97.03362920790988
 30
0.0
 10
117.156871988507
 20
96.94162508168597
 30
0.0
 10
117.2061207235179
 20
96.84242414415046
 30
0.0
 10
117.3468561386835
 20
96.74300236666669
 30
0.0
 10
117.4456502824597
 20
96.71096891107057
 30
0.0
 10
117.500950609366
 20
96.70758633628361
 30
0.0
 10
117.5283370243331
 20
96.70591118168768
 30
0.0
  0
SPLINE
  5
1E6
330
1F
100
AcDbEntity
  8
0
  6
Continuous
 62
     7
370
    35
100
AcDbSpline
210
0.0
220
0.0
230
1.0
 70
     8
 71
     3
 72
    10
 73
     6
 74
     0
 42
0.00000001
 43
0.00000001
 40
0.0
 40
0.0
 40
0.0
 40
0.0
 40
0.100744813304675
 40
0.5784463854311568
 40
1.0
 40
1.0
 40
1.0
 40
1.0
 10
119.7865064188247
 20
102.1526109204087
 30
0.0
 10
119.7809089866641
 20
102.1627965997778
 30
0.0
 10
119.7487702164903
 20
102.2212797039787
 30
0.0
 10
119.6658236702511
 20
102.2839568714466
 30
0.0
 10
119.5722177075071
 20
102.2989021004878
 30
0.0
 10
119.5283370243331
 20
102.305908137724
 30
0.0
  0
SPLINE
  5
1E7
330
1F
100
AcDbEntity
  8
0
  6
Continuous
 62
     7
370
    35
100
AcDbSpline
210
0.0
220
0.0
230
1.0
 70
     8
 71
     3
 72
    11
 73
     7
 74
     0
 42
0.00000001
 43
0.00000001
 40
0.0
 40
0.0
 40
0.0
 40
0.0
 40
0.2347080188285647
 40
0.5165854659141031
 40
0.7733845217752775
 40
1.0
 40
1.0
 40
1.0
 40
1.0
 10
119.1096400757663
 20
101.8619984366856
 30
0.0
 10
119.0943134928224
 20
101.9192082919466
 30
0.0
 10
119.0605801332618
 20
102.0451255055227
 30
0.0
 10
118.9772545433087
 20
102.1852844679548
 30
0.0
 10
118.8672039036871
 20
102.2859164192647
 30
0.0
 10
118.7726582272805
 20
102.2995275161156
 30
0.0
 10
118.7283370243331
 20
102.305908137724
 30
0.0
  0
SPLINE
  5
1E8
330
1F
100
AcDbEntity
  8
0
  6
Continuous
 62
     7
370
    35
100
AcDbSpline
210
0.0
220
0.0
230
1.0
 70
     8
 71
     3
 72
    11
 73
     7
 74
     0
 42
0.00000001
 43
0.00000001
 40
0.0
 40
0.0
 40
0.0
 40
0.0
 40
0.2347080188285561
 40
0.5165854659141029
 40
0.7733845217752775
 40
1.0
 40
1.0
 40
1.0
 40
1.0
 10
118.3096400757663
 20
101.8619984366856
 30
0.0
 10
118.2943134928224
 20
101.9192082919466
 30
0.0
 10
118.2605801332618
 20
102.0451255055227
 30
0.0
 10
118.1772545433087
 20
102.1852844679548
 30
0.0
 10
118.0672039036871
 20
102.2859164192647
 30
0.0
 10
117.9726582272805
 20
102.2995275161156
 30
0.0
 10
117.9283370243331
 20
102.305908137724
 30
0.0
  0
SPLINE
  5
1E9
330
1F
100
AcDbEntity
  8
0
  6
Continuous
 62
     7
370
    35
100
AcDbSpline
210
0.0
220
0.0
230
1.0
 70
     8
 71
     3
 72
    11
 73
     7
 74
     0
 42
0.00000001
 43
0.00000001
 40
0.0
 40
0.0
 40
0.0
 40
0.0
 40
0.2347080188285578
 40
0.5165854659140982
 40
0.773384521775271
 40
1.0
 40
1.0
 40
1.0
 40
1.0
 10
117.5096400757663
 20
101.8619984366856
 30
0.0
 10
117.4943134928224
 20
101.9192082919466
 30
0.0
 10
117.4605801332618
 20
102.0451255055227
 30
0.0
 10
117.3772545433087
 20
102.1852844679548
 30
0.0
 10
117.2672039036871
 20
102.2859164192647
 30
0.0
 10
117.1726582272805
 20
102.2995275161156
 30
0.0
 10
117.1283370243331
 20
102.305908137724
 30
0.0
  0
SPLINE
  5
1EA
330
1F
100
AcDbEntity
  8
0
  6
Continuous
 62
     7
370
    35
100
AcDbSpline
210
0.0
220
0.0
230
1.0
 70
     8
 71
     3
 72
    16
 73
    12
 74
     0
 42
0.00000001
 43
0.00000001
 40
0.0
 40
0.0
 40
0.0
 40
0.0
 40
0.0364593350836995
 40
0.07495736244299
 40
0.1572095962251225
 40
0.2518237536201685
 40
0.366606839227871
 40
0.5021795620420084
 40
0.6557564340277682
 40
0.821525481813634
 40
1.0
 40
1.0
 40
1.0
 40
1.0
 10
119.1283370243331
 20
96.70591118168768
 30
0.0
 10
119.1709452833547
 20
96.7101636060598
 30
0.0
 10
119.2585443223173
 20
96.71890623710858
 30
0.0
 10
119.3985827131959
 20
96.79670327977811
 30
0.0
 10
119.4993164209107
 20
96.93571051892451
 30
0.0
 10
119.5352091151446
 20
97.08004743546987
 30
0.0
 10
119.5710707267592
 20
97.29942020020962
 30
0.0
 10
119.6099830984357
 20
97.65185895847578
 30
0.0
 10
119.6504621044651
 20
98.14858856665631
 30
0.0
 10
119.689212891086
 20
98.78546784590587
 30
0.0
 10
119.7133358139469
 20
99.25973741148819
 30
0.0
 10
119.7258424443111
 20
99.50562445361402
 30
0.0
  0
SPLINE
  5
1EB
330
1F
100
AcDbEntity
  8
0
  6
Continuous
 62
     7
370
    35
100
AcDbSpline
210
0.0
220
0.0
230
1.0
 70
     8
 71
     3
 72
    16
 73
    12
 74
     0
 42
0.00000001
 43
0.00000001
 40
0.0
 40
0.0
 40
0.0
 40
0.0
 40
0.0364593350836999
 40
0.0749573624429892
 40
0.1572095962251225
 40
0.2518237536201685
 40
0.36660683922787
 40
0.5021795620420086
 40
0.6557564340277691
 40
0.821525481813635
 40
1.0
 40
1.0
 40
1.0
 40
1.0
 10
118.3283370243331
 20
96.70591118168768
 30
0.0
 10
118.3709452833547
 20
96.7101636060598
 30
0.0
 10
118.4585443223173
 20
96.71890623710858
 30
0.0
 10
118.5985827131959
 20
96.79670327977811
 30
0.0
 10
118.6993164209107
 20
96.93571051892451
 30
0.0
 10
118.7352091151446
 20
97.08004743546987
 30
0.0
 10
118.7710707267593
 20
97.29942020020962
 30
0.0
 10
118.8099830984357
 20
97.65185895847578
 30
0.0
 10
118.8504621044651
 20
98.14858856665631
 30
0.0
 10
118.889212891086
 20
98.78546784590587
 30
0.0
 10
118.9133358139469
 20
99.25973741148819
 30
0.0
 10
118.9258424443111
 20
99.50562445361402
 30
0.0
  0
SPLINE
  5
1EC
330
1F
100
AcDbEntity
  8
0
  6
Continuous
 62
     7
370
    35
100
AcDbSpline
210
0.0
220
0.0
230
1.0
 70
     8
 71
     3
 72
    16
 73
    12
 74
     0
 42
0.00000001
 43
0.00000001
 40
0.0
 40
0.0
 40
0.0
 40
0.0
 40
0.0364593350836992
 40
0.0749573624429928
 40
0.157209596225122
 40
0.251823753620168
 40
0.3666068392278743
 40
0.5021795620420108
 40
0.655756434027769
 40
0.8215254818136369
 40
1.0
 40
1.0
 40
1.0
 40
1.0
 10
117.5283370243331
 20
96.70591118168768
 30
0.0
 10
117.5709452833547
 20
96.7101636060598
 30
0.0
 10
117.6585443223173
 20
96.71890623710858
 30
0.0
 10
117.7985827131958
 20
96.7967032797781
 30
0.0
 10
117.8993164209107
 20
96.93571051892451
 30
0.0
 10
117.9352091151446
 20
97.08004743546987
 30
0.0
 10
117.9710707267593
 20
97.29942020020964
 30
0.0
 10
118.0099830984357
 20
97.6518589584758
 30
0.0
 10
118.0504621044651
 20
98.14858856665631
 30
0.0
 10
118.089212891086
 20
98.78546784590587
 30
0.0
 10
118.1133358139469
 20
99.25973741148819
 30
0.0
 10
118.1258424443111
 20
99.50562445361402
 30
0.0
  0
SPLINE
  5
1ED
330
1F
100
AcDbEntity
  8
0
  6
Continuous
 62
     7
370
    35
100
AcDbSpline
210
0.0
220
0.0
230
1.0
 70
     8
 71
     3
 72
    16
 73
    12
 74
     0
 42
0.00000001
 43
0.00000001
 40
0.0
 40
0.0
 40
0.0
 40
0.0
 40
0.0195396530429369
 40
0.0587137020854175
 40
0.1424102772362202
 40
0.2386858501978038
 40
0.3554845158249599
 40
0.4934378827021224
 40
0.6497115498906458
 40
0.8183914863217565
 40
1.0
 40
1.0
 40
1.0
 40
1.0
 10
116.7865064188244
 20
96.71512418302679
 30
0.0
 10
116.808682600789
 20
96.71772428845082
 30
0.0
 10
116.8753186735176
 20
96.72553721199262
 30
0.0
 10
116.9975028433313
 20
96.79817312763484
 30
0.0
 10
117.099748026243
 20
96.93512304612479
 30
0.0
 10
117.1350582996473
 20
97.08025271560851
 30
0.0
 10
117.1711229857277
 20
97.29934906873785
 30
0.0
 10
117.2099659599798
 20
97.65188228621513
 30
0.0
 10
117.2504673264458
 20
98.14858145883956
 30
0.0
 10
117.2892114235982
 20
98.78546984335382
 30
0.0
 10
117.3133353128945
 20
99.25973809348785
 30
0.0
 10
117.3258424443111
 20
99.50562445361402
 30
0.0
  0
SPLINE
  5
1EE
330
1F
100
AcDbEntity
  8
0
  6
Continuous
 62
     7
370
    35
100
AcDbSpline
210
0.0
220
0.0
230
1.0
 70
     8
 71
     3
 72
    11
 73
     7
 74
     0
 42
0.00000001
 43
0.00000001
 40
0.0
 40
0.0
 40
0.0
 40
0.0
 40
0.1731426149433037
 40
0.4454300875128332
 40
0.7233922255166475
 40
1.0
 40
1.0
 40
1.0
 40
1.0
 10
118.1628052039292
 20
67.97193797662031
 30
0.0
 10
118.176097650116
 20
67.94090080621537
 30
0.0
 10
118.2102940579166
 20
67.86105397281652
 30
0.0
 10
118.3056170945017
 20
67.77257746488502
 30
0.0
 10
118.428892735318
 20
67.71386035405484
 30
0.0
 10
118.5123698943123
 20
67.71782357435424
 30
0.0
 10
118.5540065403865
 20
67.7198003450411
 30
0.0
  0
SPLINE
  5
1EF
330
1F
100
AcDbEntity
  8
0
  6
Continuous
 62
     7
370
    35
100
AcDbSpline
210
0.0
220
0.0
230
1.0
 70
     8
 71
     3
 72
    11
 73
     7
 74
     0
 42
0.00000001
 43
0.00000001
 40
0.0
 40
0.0
 40
0.0
 40
0.0
 40
0.2387687790743959
 40
0.4894452910494722
 40
0.7453460806024624
 40
1.0
 40
1.0
 40
1.0
 40
1.0
 10
118.9411065072473
 20
68.01639128608788
 30
0.0
 10
118.9605787180067
 20
67.96944588445491
 30
0.0
 10
119.0004942459056
 20
67.87321384836224
 30
0.0
 10
119.1051825405181
 20
67.77212750865617
 30
0.0
 10
119.2290016836738
 20
67.71397316395452
 30
0.0
 10
119.3124061512556
 20
67.7178611163814
 30
0.0
 10
119.3540065403865
 20
67.7198003450411
 30
0.0
  0
LINE
  5
1F0
330
1F
100
AcDbEntity
  8
0
  6
Continuous
 62
     7
370
    35
100
AcDbLine
 10
119.7411065072
 20
68.0163912861
 30
0.0
 11
119.7865064188
 21
67.9233821829
 31
0.0
  0
SPLINE
  5
1F1
330
1F
100
AcDbEntity
  8
0
  6
Continuous
 62
     7
370
    35
100
AcDbSpline
210
0.0
220
0.0
230
1.0
 70
     8
 71
     3
 72
    10
 73
     6
 74
     0
 42
0.00000001
 43
0.00000001
 40
0.0
 40
0.0
 40
0.0
 40
0.0
 40
0.3925593519810123
 40
0.8079616170487401
 40
1.0
 40
1.0
 40
1.0
 40
1.0
 10
118.1410047031174
 20
73.30589813862542
 30
0.0
 10
118.0992624825548
 20
73.30153968352057
 30
0.0
 10
118.0133490739077
 20
73.2925691560918
 30
0.0
 10
117.9222615878668
 20
73.24821199915893
 30
0.0
 10
117.8969676347038
 20
73.21475804381933
 30
0.0
 10
117.8889711170528
 20
73.20418179491716
 30
0.0
  0
SPLINE
  5
1F2
330
1F
100
AcDbEntity
  8
0
  6
Continuous
 62
     7
370
    35
100
AcDbSpline
210
0.0
220
0.0
230
1.0
 70
     8
 71
     3
 72
    12
 73
     8
 74
     0
 42
0.00000001
 43
0.00000001
 40
0.0
 40
0.0
 40
0.0
 40
0.0
 40
0.1164399601983562
 40
0.239655527390166
 40
0.5039980376649136
 40
0.8215889269535085
 40
1.0
 40
1.0
 40
1.0
 40
1.0
 10
118.9410047031174
 20
73.30589813862542
 30
0.0
 10
118.8985869426485
 20
73.30162505036463
 30
0.0
 10
118.8112831447208
 20
73.29283022409554
 30
0.0
 10
118.6716421536948
 20
73.2155486802869
 30
0.0
 10
118.5702138243164
 20
73.07270492205217
 30
0.0
 10
118.5420885399658
 20
72.96645265426068
 30
0.0
 10
118.525896487516
 20
72.8628035381287
 30
0.0
 10
118.5200722334369
 20
72.82552112508668
 30
0.0
  0
SPLINE
  5
1F3
330
1F
100
AcDbEntity
  8
0
  6
Continuous
 62
     7
370
    35
100
AcDbSpline
210
0.0
220
0.0
230
1.0
 70
     8
 71
     3
 72
    13
 73
     9
 74
     0
 42
0.00000001
 43
0.00000001
 40
0.0
 40
0.0
 40
0.0
 40
0.0
 40
0.0762126719190624
 40
0.1568601367731668
 40
0.329878480093716
 40
0.5377491304151527
 40
0.7903016076080229
 40
1.0
 40
1.0
 40
1.0
 40
1.0
 10
119.7410047031174
 20
73.30589813862542
 30
0.0
 10
119.6985864019521
 20
73.30163517729329
 30
0.0
 10
119.6112814911685
 20
73.2928611941645
 30
0.0
 10
119.4716526104313
 20
73.2153528317171
 30
0.0
 10
119.3701140384245
 20
73.07457385354896
 30
0.0
 10
119.3349011346469
 20
72.92836001775203
 30
0.0
 10
119.3007827404795
 20
72.73263709857115
 30
0.0
 10
119.2800311258455
 20
72.53235647355412
 30
0.0
 10
119.2706172328392
 20
72.44149991090222
 30
0.0
  0
SPLINE
  5
1F4
330
1F
100
AcDbEntity
  8
0
  6
Continuous
 62
     7
370
    35
100
AcDbSpline
210
0.0
220
0.0
230
1.0
 70
     8
 71
     3
 72
    11
 73
     7
 74
     0
 42
0.00000001
 43
0.00000001
 40
0.0
 40
0.0
 40
0.0
 40
0.0
 40
0.2586717665633749
 40
0.5341141003790427
 40
0.8313498431133531
 40
1.0
 40
1.0
 40
1.0
 40
1.0
 10
117.7540065403865
 20
67.7198003450411
 30
0.0
 10
117.7962218888136
 20
67.72543470840841
 30
0.0
 10
117.883389549772
 20
67.73706873001477
 30
0.0
 10
117.9852392474975
 20
67.80112685557974
 30
0.0
 10
118.0495631907126
 20
67.86700924348753
 30
0.0
 10
118.0712364457873
 20
67.90716705600741
 30
0.0
 10
118.0790821390602
 20
67.92170413769891
 30
0.0
  0
SPLINE
  5
1F5
330
1F
100
AcDbEntity
  8
0
  6
Continuous
 62
     7
370
    35
100
AcDbSpline
210
0.0
220
0.0
230
1.0
 70
     8
 71
     3
 72
    14
 73
    10
 74
     0
 42
0.00000001
 43
0.00000001
 40
0.0
 40
0.0
 40
0.0
 40
0.0
 40
0.0790889254811616
 40
0.1633054540297837
 40
0.2541853201232956
 40
0.3547624029519933
 40
0.5971750093947584
 40
0.8816808104673963
 40
1.0
 40
1.0
 40
1.0
 40
1.0
 10
118.5540065403865
 20
67.7198003450411
 30
0.0
 10
118.5961710102078
 20
67.72542642809861
 30
0.0
 10
118.6832336153221
 20
67.73704335224484
 30
0.0
 10
118.7859327159815
 20
67.8012397150772
 30
0.0
 10
118.8605189626407
 20
67.88077472681044
 30
0.0
 10
118.929555689131
 20
68.00547513209894
 30
0.0
 10
118.9613742299617
 20
68.15608645994106
 30
0.0
 10
118.9912950456519
 20
68.34145224094252
 30
0.0
 10
119.0067525733918
 20
68.50317389970037
 30
0.0
 10
119.0112928134389
 20
68.55067536073274
 30
0.0
  0
SPLINE
  5
1F6
330
1F
100
AcDbEntity
  8
0
  6
Continuous
 62
     7
370
    35
100
AcDbSpline
210
0.0
220
0.0
230
1.0
 70
     8
 71
     3
 72
    13
 73
     9
 74
     0
 42
0.00000001
 43
0.00000001
 40
0.0
 40
0.0
 40
0.0
 40
0.0
 40
0.0986748618330392
 40
0.2037471493630315
 40
0.3171329132436796
 40
0.4426173561200401
 40
0.7450621080471069
 40
1.0
 40
1.0
 40
1.0
 40
1.0
 10
119.3540065403865
 20
67.7198003450411
 30
0.0
 10
119.3961711437676
 20
67.72542460681822
 30
0.0
 10
119.4832340246608
 20
67.73703777032387
 30
0.0
 10
119.5859308955791
 20
67.8012645388816
 30
0.0
 10
119.6605267154403
 20
67.88066900624132
 30
0.0
 10
119.7295039209948
 20
68.00618106505925
 30
0.0
 10
119.7577817675891
 20
68.13039726018899
 30
0.0
 10
119.7774915020398
 20
68.2732749426162
 30
0.0
 10
119.7865064188245
 20
68.33862490563543
 30
0.0
  0
SPLINE
  5
1F7
330
1F
100
AcDbEntity
  8
0
  6
Continuous
 62
     7
370
    35
100
AcDbSpline
210
0.0
220
0.0
230
1.0
 70
     8
 71
     3
 72
    12
 73
     8
 74
     0
 42
0.00000001
 43
0.00000001
 40
0.0
 40
0.0
 40
0.0
 40
0.0
 40
0.3133807820018475
 40
0.7045748563503523
 40
0.8616410155225807
 40
0.9329321778005315
 40
1.0
 40
1.0
 40
1.0
 40
1.0
 10
118.5389744496078
 20
72.93636614159199
 30
0.0
 10
118.5251943635093
 20
72.98704300959541
 30
0.0
 10
118.4942125588135
 20
73.10097994843929
 30
0.0
 10
118.4225950175174
 20
73.20874730537044
 30
0.0
 10
118.2895706535416
 20
73.28167914037532
 30
0.0
 10
118.206895466599
 20
73.3027706751709
 30
0.0
 10
118.1625167447115
 20
73.3048770831639
 30
0.0
 10
118.1410047031174
 20
73.30589813862542
 30
0.0
  0
SPLINE
  5
1F8
330
1F
100
AcDbEntity
  8
0
  6
Continuous
 62
     7
370
    35
100
AcDbSpline
210
0.0
220
0.0
230
1.0
 70
     8
 71
     3
 72
    12
 73
     8
 74
     0
 42
0.00000001
 43
0.00000001
 40
0.0
 40
0.0
 40
0.0
 40
0.0
 40
0.3133807820018625
 40
0.7045748563503664
 40
0.8616410155225928
 40
0.9329321778005326
 40
1.0
 40
1.0
 40
1.0
 40
1.0
 10
119.3389744496078
 20
72.93636614159199
 30
0.0
 10
119.3251943635093
 20
72.98704300959541
 30
0.0
 10
119.2942125588135
 20
73.1009799484393
 30
0.0
 10
119.2225950175173
 20
73.20874730537047
 30
0.0
 10
119.0895706535416
 20
73.2816791403753
 30
0.0
 10
119.006895466599
 20
73.3027706751709
 30
0.0
 10
118.9625167447115
 20
73.3048770831639
 30
0.0
 10
118.9410047031174
 20
73.30589813862542
 30
0.0
  0
LINE
  5
1F9
330
1F
100
AcDbEntity
  8
0
  6
Continuous
 62
     7
370
    35
100
AcDbLine
 10
119.7865064188
 20
73.302378411
 30
0.0
 11
119.7410047031
 21
73.3058981386
 31
0.0
  0
ARC
  5
1FA
330
1F
100
AcDbEntity
  8
0
  6
Continuous
 62
     7
370
    35
100
AcDbCircle
 10
118.2865064188
 20
70.5059096597
 30
0.0
 40
3.99999999999999
100
AcDbArc
 50
247.975687163
 51
292.024312837
  0
ARC
  5
1FB
330
1F
100
AcDbEntity
  8
0
  6
Continuous
 62
     7
370
    35
100
AcDbCircle
 10
118.2865064188
 20
70.5059096597
 30
0.0
 40
4.000000000000004
100
AcDbArc
 50
67.975687163
 51
112.024312837
  0
LINE
  5
1FC
330
1F
100
AcDbEntity
  8
0
  6
Continuous
 62
     7
370
    35
100
AcDbLine
 10
95.2905574365
 20
115.5059096597
 30
0.0
 11
95.2905574365
 21
109.5059096597
 31
0.0
  0
LINE
  5
1FD
330
1F
100
AcDbEntity
  8
0
  6
Continuous
 62
     7
370
    35
100
AcDbLine
 10
117.8905574365
 20
115.5059096597
 30
0.0
 11
117.8905574365
 21
109.5059096597
 31
0.0
  0
LINE
  5
1FE
330
1F
100
AcDbEntity
  8
0
  6
Continuous
 62
     7
370
    35
100
AcDbLine
 10
119.3905574365
 20
114.6059096597
 30
0.0
 11
119.3905574365
 21
110.4059096597
 31
0.0
  0
LINE
  5
1FF
330
1F
100
AcDbEntity
  8
0
  6
Continuous
 62
     7
370
    35
100
AcDbLine
 10
94.7860913424
 20
73.5059096597
 30
0.0
 11
94.7860913424
 21
67.5059096597
 31
0.0
  0
LINE
  5
200
330
1F
100
AcDbEntity
  8
0
  6
Continuous
 62
     7
370
    35
100
AcDbLine
 10
117.3860913424
 20
73.5059096597
 30
0.0
 11
117.3860913424
 21
67.5059096597
 31
0.0
  0
LINE
  5
201
330
1F
100
AcDbEntity
  8
0
  6
Continuous
 62
     7
370
    35
100
AcDbLine
 10
118.8860913424
 20
72.6059096597
 30
0.0
 11
118.8860913424
 21
68.4059096597
 31
0.0
  0
LINE
  5
202
330
1F
100
AcDbEntity
  8
0
  6
Continuous
 62
     7
370
    35
100
AcDbLine
 10
104.7865064188
 20
72.5059096597
 30
0.0
 11
116.7865064188
 21
72.5059096597
 31
0.0
  0
LINE
  5
203
330
1F
100
AcDbEntity
  8
0
  6
Continuous
 62
     7
370
    35
100
AcDbLine
 10
104.7865064188
 20
77.5059096597
 30
0.0
 11
116.7865064188
 21
77.5059096597
 31
0.0
  0
LINE
  5
204
330
1F
100
AcDbEntity
  8
0
  6
Continuous
 62
     7
370
    35
100
AcDbLine
 10
116.7865064188
 20
77.5059096597
 30
0.0
 11
116.7865064188
 21
72.5059096597
 31
0.0
  0
LINE
  5
205
330
1F
100
AcDbEntity
  8
0
  6
Continuous
 62
     7
370
    35
100
AcDbLine
 10
104.7865064188
 20
77.5059096597
 30
0.0
 11
104.7865064188
 21
72.5059096597
 31
0.0
  0
LINE
  5
206
330
1F
100
AcDbEntity
  8
0
  6
Continuous
 62
     7
370
    35
100
AcDbLine
 10
104.7865064188
 20
68.5059096597
 30
0.0
 11
116.7865064188
 21
68.5059096597
 31
0.0
  0
LINE
  5
207
330
1F
100
AcDbEntity
  8
0
  6
Continuous
 62
     7
370
    35
100
AcDbLine
 10
116.7865064188
 20
72.5059096597
 30
0.0
 11
116.7865064188
 21
68.5059096597
 31
0.0
  0
LINE
  5
208
330
1F
100
AcDbEntity
  8
0
  6
Continuous
 62
     7
370
    35
100
AcDbLine
 10
104.7865064188
 20
72.5059096597
 30
0.0
 11
104.7865064188
 21
68.5059096597
 31
0.0
  0
LINE
  5
209
330
1F
100
AcDbEntity
  8
0
  6
Continuous
 62
     7
370
    35
100
AcDbLine
 10
104.7865064188
 20
63.5059096597
 30
0.0
 11
116.7865064188
 21
63.5059096597
 31
0.0
  0
LINE
  5
20A
330
1F
100
AcDbEntity
  8
0
  6
Continuous
 62
     7
370
    35
100
AcDbLine
 10
116.7865064188
 20
68.5059096597
 30
0.0
 11
116.7865064188
 21
63.5059096597
 31
0.0
  0
LINE
  5
20B
330
1F
100
AcDbEntity
  8
0
  6
Continuous
 62
     7
370
    35
100
AcDbLine
 10
104.7865064188
 20
68.5059096597
 30
0.0
 11
104.7865064188
 21
63.5059096597
 31
0.0
  0
SPLINE
  5
20C
330
1F
100
AcDbEntity
  8
0
  6
Continuous
 62
     7
370
    35
100
AcDbSpline
210
0.0
220
0.0
230
1.0
 70
     8
 71
     3
 72
    26
 73
    22
 74
     0
 42
0.00000001
 43
0.00000001
 40
0.0
 40
0.0
 40
0.0
 40
0.0
 40
0.0514719884099276
 40
0.1044727520307372
 40
0.155935022371226
 40
0.2088253997235733
 40
0.2615097862346905
 40
0.3156607404057024
 40
0.3693329861173281
 40
0.4246392950363551
 40
0.4769104262405945
 40
0.5308008188315098
 40
0.5814397804429292
 40
0.6335151543734022
 40
0.6848385185517543
 40
0.7375459596521241
 40
0.790767661590485
 40
0.8455120682661106
 40
0.898964983085393
 40
0.9540710568586473
 40
1.0
 40
1.0
 40
1.0
 40
1.0
 10
106.7865064188244
 20
77.50590965970585
 30
0.0
 10
106.796725977448
 20
77.50884699556663
 30
0.0
 10
106.8174686269342
 20
77.51480890942494
 30
0.0
 10
106.9839593129709
 20
77.56154773758003
 30
0.0
 10
107.2461956196812
 20
77.63130280498291
 30
0.0
 10
107.6038804007802
 20
77.7190439754786
 30
0.0
 10
108.0535232739169
 20
77.81676768999473
 30
0.0
 10
108.5819451494404
 20
77.91341183060669
 30
0.0
 10
109.1834697807223
 20
77.99889457887504
 30
0.0
 10
109.8269711514459
 20
78.06064497656486
 30
0.0
 10
110.5004266549683
 20
78.09206285732535
 30
0.0
 10
111.1634377268852
 20
78.0896177302729
 30
0.0
 10
111.8138204759137
 20
78.05509494755844
 30
0.0
 10
112.4249928395577
 20
77.99411807228005
 30
0.0
 10
112.9987086625407
 20
77.91189881011718
 30
0.0
 10
113.5165761018727
 20
77.81732307217892
 30
0.0
 10
113.9699899706944
 20
77.71894162370275
 30
0.0
 10
114.3368556191339
 20
77.62879817087033
 30
0.0
 10
114.6043805509378
 20
77.55736093389856
 30
0.0
 10
114.7602305119705
 20
77.51344917999536
 30
0.0
 10
114.77829471419
 20
77.50826589859979
 30
0.0
 10
114.7865064188244
 20
77.50590965970585
 30
0.0
  0
LINE
  5
20D
330
1F
100
AcDbEntity
  8
0
  6
Continuous
 62
     7
370
    35
100
AcDbLine
 10
114.7865064188
 20
91.5059096597
 30
0.0
 11
116.7865064188
 21
91.5059096597
 31
0.0
  0
LINE
  5
20E
330
1F
100
AcDbEntity
  8
0
  6
Continuous
 62
     7
370
    35
100
AcDbLine
 10
104.7865064188
 20
91.5059096597
 30
0.0
 11
106.7865064188
 21
91.5059096597
 31
0.0
  0
SPLINE
  5
20F
330
1F
100
AcDbEntity
  8
0
  6
Continuous
 62
     7
370
    35
100
AcDbSpline
210
0.0
220
0.0
230
1.0
 70
     8
 71
     3
 72
    26
 73
    22
 74
     0
 42
0.00000001
 43
0.00000001
 40
0.0
 40
0.0
 40
0.0
 40
0.0
 40
0.0522331241869968
 40
0.104471800151932
 40
0.1566442125743935
 40
0.20882487210606
 40
0.2622435046503723
 40
0.3156610359194071
 40
0.3701556743480208
 40
0.4246389028286585
 40
0.4777203757227964
 40
0.5307986958967778
 40
0.5821515784126389
 40
0.6335127230857829
 40
0.6855254176514537
 40
0.7375444351691631
 40
0.7915303812939389
 40
0.8455110177247659
 40
0.8997949006499861
 40
0.9540688218496347
 40
0.9999999999999999
 40
0.9999999999999999
 40
0.9999999999999999
 40
0.9999999999999999
 10
106.7865064188244
 20
91.50590965970584
 30
0.0
 10
106.7972439840785
 20
91.2859957323814
 30
0.0
 10
106.8187202558662
 20
90.8461445034215
 30
0.0
 10
106.9856656838011
 20
90.2055253882558
 30
0.0
 10
107.2482333636697
 20
89.60303800249417
 30
0.0
 10
107.6072758658381
 20
89.04814340756154
 30
0.0
 10
108.0562934376058
 20
88.55807332857974
 30
0.0
 10
108.5871299267811
 20
88.14161349516976
 30
0.0
 10
109.1870816035937
 20
87.81918241401078
 30
0.0
 10
109.8335072617399
 20
87.60088240090482
 30
0.0
 10
110.5040088597778
 20
87.49795015629833
 30
0.0
 10
111.1698451679343
 20
87.50566285429731
 30
0.0
 10
111.816591162131
 20
87.62348705608355
 30
0.0
 10
112.4304782375127
 20
87.83969734396202
 30
0.0
 10
113.0007994002513
 20
88.15426372037638
 30
0.0
 10
113.5212504290941
 20
88.56126502105458
 30
0.0
 10
113.9714153802609
 20
89.05589635561721
 30
0.0
 10
114.3403171514303
 20
89.62698401059583
 30
0.0
 10
114.6047160248717
 20
90.25641828427435
 30
0.0
 10
114.760560713979
 20
90.89070655144343
 30
0.0
 10
114.7783515868287
 20
91.3125490236777
 30
0.0
 10
114.7865064188244
 20
91.50590965970584
 30
0.0
  0
LINE
  5
210
330
1F
100
AcDbEntity
  8
0
  6
Continuous
 62
     7
370
    35
100
AcDbLine
 10
116.7865064188
 20
91.5059096597
 30
0.0
 11
116.7865064188
 21
77.5059096597
 31
0.0
  0
LINE
  5
211
330
1F
100
AcDbEntity
  8
0
  6
Continuous
 62
     7
370
    35
100
AcDbLine
 10
104.7865064188
 20
91.5059096597
 30
0.0
 11
104.7865064188
 21
77.5059096597
 31
0.0
  0
LINE
  5
212
330
1F
100
AcDbEntity
  8
0
  6
Continuous
 62
     7
370
    35
100
AcDbLine
 10
104.7865064188
 20
114.5059096597
 30
0.0
 11
116.7865064188
 21
114.5059096597
 31
0.0
  0
LINE
  5
213
330
1F
100
AcDbEntity
  8
0
  6
Continuous
 62
     7
370
    35
100
AcDbLine
 10
104.7865064188
 20
119.5059096597
 30
0.0
 11
116.7865064188
 21
119.5059096597
 31
0.0
  0
LINE
  5
214
330
1F
100
AcDbEntity
  8
0
  6
Continuous
 62
     7
370
    35
100
AcDbLine
 10
116.7865064188
 20
119.5059096597
 30
0.0
 11
116.7865064188
 21
114.5059096597
 31
0.0
  0
LINE
  5
215
330
1F
100
AcDbEntity
  8
0
  6
Continuous
 62
     7
370
    35
100
AcDbLine
 10
104.7865064188
 20
119.5059096597
 30
0.0
 11
104.7865064188
 21
114.5059096597
 31
0.0
  0
ARC
  5
216
330
1F
100
AcDbEntity
  8
0
  6
Continuous
 62
     7
370
    35
100
AcDbCircle
 10
110.7865064188
 20
91.5059096597
 30
0.0
 40
4.0
100
AcDbArc
 50
0.0
 51
180.0
  0
LINE
  5
217
330
1F
100
AcDbEntity
  8
0
  6
Continuous
 62
     7
370
    35
100
AcDbLine
 10
116.7865064188
 20
114.5059096597
 30
0.0
 11
116.7865064188
 21
91.5059096597
 31
0.0
  0
LINE
  5
218
330
1F
100
AcDbEntity
  8
0
  6
Continuous
 62
     7
370
    35
100
AcDbLine
 10
104.7865064188
 20
114.5059096597
 30
0.0
 11
104.7865064188
 21
91.5059096597
 31
0.0
  0
CIRCLE
  5
219
330
1F
100
AcDbEntity
  8
0
  6
Continuous
 62
     7
370
    35
100
AcDbCircle
 10
110.7865064188
 20
91.5059096597
 30
0.0
 40
2.25
  0
LINE
  5
21A
330
1F
100
AcDbEntity
  8
0
  6
Continuous
 62
     7
370
    35
100
AcDbLine
 10
127.7865064188
 20
119.5059096597
 30
0.0
 11
119.7865064188
 21
119.5059096597
 31
0.0
  0
LINE
  5
21B
330
1F
100
AcDbEntity
  8
0
  6
Continuous
 62
     7
370
    35
100
AcDbLine
 10
127.7865064188
 20
114.5059096597
 30
0.0
 11
127.7865064188
 21
119.5059096597
 31
0.0
  0
LINE
  5
21C
330
1F
100
AcDbEntity
  8
0
  6
Continuous
 62
     7
370
    35
100
AcDbLine
 10
127.7865064188
 20
114.5059096597
 30
0.0
 11
119.7865064188
 21
114.5059096597
 31
0.0
  0
LINE
  5
21D
330
1F
100
AcDbEntity
  8
0
  6
Continuous
 62
     7
370
    35
100
AcDbLine
 10
119.7865064188
 20
114.5059096597
 30
0.0
 11
119.7865064188
 21
119.5059096597
 31
0.0
  0
LINE
  5
21E
330
1F
100
AcDbEntity
  8
0
  6
Continuous
 62
     7
370
    35
100
AcDbLine
 10
127.7865064188
 20
70.5059096597
 30
0.0
 11
127.7865064188
 21
114.5059096597
 31
0.0
  0
LINE
  5
21F
330
1F
100
AcDbEntity
  8
0
  6
Continuous
 62
     7
370
    35
100
AcDbLine
 10
127.7865064188
 20
70.5059096597
 30
0.0
 11
119.7865064188
 21
70.5059096597
 31
0.0
  0
LINE
  5
220
330
1F
100
AcDbEntity
  8
0
  6
Continuous
 62
     7
370
    35
100
AcDbLine
 10
119.7865064188
 20
70.5059096597
 30
0.0
 11
119.7865064188
 21
114.5059096597
 31
0.0
  0
LINE
  5
221
330
1F
100
AcDbEntity
  8
0
  6
Continuous
 62
     7
370
    35
100
AcDbLine
 10
127.7865064188
 20
65.5059096597
 30
0.0
 11
119.7865064188
 21
65.5059096597
 31
0.0
  0
LINE
  5
222
330
1F
100
AcDbEntity
  8
0
  6
Continuous
 62
     7
370
    35
100
AcDbLine
 10
127.7865064188
 20
65.5059096597
 30
0.0
 11
127.7865064188
 21
70.5059096597
 31
0.0
  0
LINE
  5
223
330
1F
100
AcDbEntity
  8
0
  6
Continuous
 62
     7
370
    35
100
AcDbLine
 10
119.7865064188
 20
65.5059096597
 30
0.0
 11
119.7865064188
 21
70.5059096597
 31
0.0
  0
SPLINE
  5
224
330
1F
100
AcDbEntity
  8
0
  6
Continuous
 62
     8
370
    35
100
AcDbSpline
210
0.0
220
0.0
230
1.0
 70
     8
 71
     3
 72
    13
 73
     9
 74
     0
 42
0.00000001
 43
0.00000001
 40
0.0
 40
0.0
 40
0.0
 40
0.0
 40
0.1742948100311197
 40
0.3500784199535197
 40
0.5320995348038741
 40
0.7141206496542295
 40
0.8899042595766298
 40
1.0
 40
1.0
 40
1.0
 40
1.0
 10
119.7268569980136
 20
99.52439777296269
 30
0.0
 10
119.7163727771016
 20
99.32020134439567
 30
0.0
 10
119.6953147806493
 20
98.91006427226985
 30
0.0
 10
119.6642274721089
 20
98.32615760027453
 30
0.0
 10
119.6288904800566
 20
97.8124563228635
 30
0.0
 10
119.5935367060466
 20
97.42362482395397
 30
0.0
 10
119.5662427958998
 20
97.18892844091235
 30
0.0
 10
119.5490639865576
 20
97.1537325644151
 30
0.0
 10
119.5424482105953
 20
97.14017818884328
 30
0.0
  0
SPLINE
  5
225
330
1F
100
AcDbEntity
  8
0
  6
Continuous
 62
     8
370
    35
100
AcDbSpline
210
0.0
220
0.0
230
1.0
 70
     8
 71
     3
 72
    13
 73
     9
 74
     0
 42
0.00000001
 43
0.00000001
 40
0.0
 40
0.0
 40
0.0
 40
0.0
 40
0.1742948100311204
 40
0.3500784199535211
 40
0.5320995348038762
 40
0.7141206496542324
 40
0.8899042595766333
 40
1.0
 40
1.0
 40
1.0
 40
1.0
 10
118.9268569980136
 20
99.52439777296269
 30
0.0
 10
118.9163727771016
 20
99.32020134439567
 30
0.0
 10
118.8953147806493
 20
98.91006427226985
 30
0.0
 10
118.8642274721089
 20
98.32615760027453
 30
0.0
 10
118.8288904800566
 20
97.8124563228635
 30
0.0
 10
118.7935367060466
 20
97.42362482395397
 30
0.0
 10
118.7662427958998
 20
97.18892844091235
 30
0.0
 10
118.7490639865576
 20
97.15373256441511
 30
0.0
 10
118.7424482105953
 20
97.14017818884328
 30
0.0
  0
SPLINE
  5
226
330
1F
100
AcDbEntity
  8
0
  6
Continuous
 62
     8
370
    35
100
AcDbSpline
210
0.0
220
0.0
230
1.0
 70
     8
 71
     3
 72
    13
 73
     9
 74
     0
 42
0.00000001
 43
0.00000001
 40
0.0
 40
0.0
 40
0.0
 40
0.0
 40
0.1742948100311188
 40
0.3500784199535194
 40
0.5320995348038744
 40
0.7141206496542306
 40
0.8899042595766313
 40
1.0
 40
1.0
 40
1.0
 40
1.0
 10
118.1268569980136
 20
99.52439777296269
 30
0.0
 10
118.1163727771016
 20
99.32020134439567
 30
0.0
 10
118.0953147806493
 20
98.91006427226985
 30
0.0
 10
118.0642274721089
 20
98.32615760027453
 30
0.0
 10
118.0288904800566
 20
97.8124563228635
 30
0.0
 10
117.9935367060466
 20
97.42362482395397
 30
0.0
 10
117.9662427958998
 20
97.18892844091235
 30
0.0
 10
117.9490639865576
 20
97.15373256441511
 30
0.0
 10
117.9424482105953
 20
97.14017818884328
 30
0.0
  0
SPLINE
  5
227
330
1F
100
AcDbEntity
  8
0
  6
Continuous
 62
     8
370
    35
100
AcDbSpline
210
0.0
220
0.0
230
1.0
 70
     8
 71
     3
 72
    13
 73
     9
 74
     0
 42
0.00000001
 43
0.00000001
 40
0.0
 40
0.0
 40
0.0
 40
0.0
 40
0.1742948100311179
 40
0.3500784199535176
 40
0.5320995348038717
 40
0.714120649654227
 40
0.8899042595766268
 40
0.9999999999999999
 40
0.9999999999999999
 40
0.9999999999999999
 40
0.9999999999999999
 10
117.3268569980136
 20
99.52439777296269
 30
0.0
 10
117.3163727771016
 20
99.32020134439567
 30
0.0
 10
117.2953147806493
 20
98.91006427226985
 30
0.0
 10
117.2642274721089
 20
98.32615760027451
 30
0.0
 10
117.2288904800566
 20
97.8124563228635
 30
0.0
 10
117.1935367060466
 20
97.42362482395397
 30
0.0
 10
117.1662427958998
 20
97.18892844091235
 30
0.0
 10
117.1490639865576
 20
97.1537325644151
 30
0.0
 10
117.1424482105953
 20
97.14017818884328
 30
0.0
  0
SPLINE
  5
228
330
1F
100
AcDbEntity
  8
0
  6
Continuous
 62
     8
370
    35
100
AcDbSpline
210
0.0
220
0.0
230
1.0
 70
     8
 71
     3
 72
    20
 73
    16
 74
     0
 42
0.00000001
 43
0.00000001
 40
0.0
 40
0.0
 40
0.0
 40
0.0
 40
0.079079431226158
 40
0.1638632766374284
 40
0.2457460978928243
 40
0.3276289191482207
 40
0.4124127645594911
 40
0.4971966099707616
 40
0.5790794312261576
 40
0.6609622524815539
 40
0.7457460978928241
 40
0.8305299433040945
 40
0.9124127645594909
 40
0.9942955858148868
 40
1.0
 40
1.0
 40
1.0
 40
1.0
 10
119.5282895562281
 20
102.2997040225707
 30
0.0
 10
119.5174272408144
 20
102.2857638664044
 30
0.0
 10
119.4949190541979
 20
102.2568779774847
 30
0.0
 10
119.4602085738173
 20
101.9739506062025
 30
0.0
 10
119.4288992316277
 20
101.537139710625
 30
0.0
 10
119.3975195835465
 20
100.9608277887644
 30
0.0
 10
119.3622218008388
 20
100.2786827182707
 30
0.0
 10
119.3269191734639
 20
99.54230032230579
 30
0.0
 10
119.2955535639913
 20
98.81277216813682
 30
0.0
 10
119.2641925284288
 20
98.12896264940595
 30
0.0
 10
119.2288756912853
 20
97.53255131362701
 30
0.0
 10
119.1936297924753
 20
97.06796056913714
 30
0.0
 10
119.1620631957374
 20
96.79522029050769
 30
0.0
 10
119.1411930832389
 20
96.67892707030087
 30
0.0
 10
119.1290785557025
 20
96.71008596848192
 30
0.0
 10
119.1282895562281
 20
96.71211529684103
 30
0.0
  0
SPLINE
  5
229
330
1F
100
AcDbEntity
  8
0
  6
Continuous
 62
     8
370
    35
100
AcDbSpline
210
0.0
220
0.0
230
1.0
 70
     8
 71
     3
 72
    20
 73
    16
 74
     0
 42
0.00000001
 43
0.00000001
 40
0.0
 40
0.0
 40
0.0
 40
0.0
 40
0.0790794312261583
 40
0.1638632766374287
 40
0.2457460978928246
 40
0.3276289191482209
 40
0.4124127645594913
 40
0.4971966099707617
 40
0.5790794312261577
 40
0.660962252481554
 40
0.7457460978928242
 40
0.8305299433040945
 40
0.9124127645594908
 40
0.9942955858148866
 40
0.9999999999999999
 40
0.9999999999999999
 40
0.9999999999999999
 40
0.9999999999999999
 10
118.7282895562281
 20
102.2997040225707
 30
0.0
 10
118.7174272408144
 20
102.2857638664044
 30
0.0
 10
118.6949190541979
 20
102.2568779774847
 30
0.0
 10
118.6602085738173
 20
101.9739506062025
 30
0.0
 10
118.6288992316277
 20
101.537139710625
 30
0.0
 10
118.5975195835464
 20
100.9608277887644
 30
0.0
 10
118.5622218008388
 20
100.2786827182707
 30
0.0
 10
118.5269191734639
 20
99.54230032230579
 30
0.0
 10
118.4955535639913
 20
98.81277216813682
 30
0.0
 10
118.4641925284288
 20
98.12896264940595
 30
0.0
 10
118.4288756912853
 20
97.53255131362701
 30
0.0
 10
118.3936297924753
 20
97.06796056913714
 30
0.0
 10
118.3620631957374
 20
96.79522029050769
 30
0.0
 10
118.3411930832389
 20
96.67892707030087
 30
0.0
 10
118.3290785557025
 20
96.71008596848192
 30
0.0
 10
118.3282895562281
 20
96.71211529684103
 30
0.0
  0
SPLINE
  5
22A
330
1F
100
AcDbEntity
  8
0
  6
Continuous
 62
     8
370
    35
100
AcDbSpline
210
0.0
220
0.0
230
1.0
 70
     8
 71
     3
 72
    20
 73
    16
 74
     0
 42
0.00000001
 43
0.00000001
 40
0.0
 40
0.0
 40
0.0
 40
0.0
 40
0.0790794312261583
 40
0.1638632766374287
 40
0.2457460978928246
 40
0.3276289191482209
 40
0.4124127645594913
 40
0.4971966099707617
 40
0.5790794312261577
 40
0.660962252481554
 40
0.7457460978928242
 40
0.8305299433040945
 40
0.9124127645594908
 40
0.9942955858148866
 40
0.9999999999999999
 40
0.9999999999999999
 40
0.9999999999999999
 40
0.9999999999999999
 10
117.9282895562281
 20
102.2997040225707
 30
0.0
 10
117.9174272408144
 20
102.2857638664044
 30
0.0
 10
117.8949190541979
 20
102.2568779774847
 30
0.0
 10
117.8602085738173
 20
101.9739506062025
 30
0.0
 10
117.8288992316277
 20
101.537139710625
 30
0.0
 10
117.7975195835464
 20
100.9608277887644
 30
0.0
 10
117.7622218008388
 20
100.2786827182707
 30
0.0
 10
117.7269191734639
 20
99.54230032230579
 30
0.0
 10
117.6955535639913
 20
98.81277216813682
 30
0.0
 10
117.6641925284288
 20
98.12896264940595
 30
0.0
 10
117.6288756912853
 20
97.53255131362701
 30
0.0
 10
117.5936297924753
 20
97.06796056913714
 30
0.0
 10
117.5620631957375
 20
96.79522029050769
 30
0.0
 10
117.541193083239
 20
96.67892707030087
 30
0.0
 10
117.5290785557025
 20
96.71008596848192
 30
0.0
 10
117.5282895562281
 20
96.71211529684103
 30
0.0
  0
SPLINE
  5
22B
330
1F
100
AcDbEntity
  8
0
  6
Continuous
 62
     8
370
    35
100
AcDbSpline
210
0.0
220
0.0
230
1.0
 70
     8
 71
     3
 72
    18
 73
    14
 74
     0
 42
0.00000001
 43
0.00000001
 40
0.0
 40
0.0
 40
0.0
 40
0.0
 40
0.093097714529734
 40
0.1929110555521034
 40
0.2893091125427115
 40
0.3857071695333201
 40
0.4855205105556895
 40
0.585333851578059
 40
0.6817319085686672
 40
0.7781299655592758
 40
0.8779433065816449
 40
0.9777566476040143
 40
1.0
 40
1.0
 40
1.0
 40
1.0
 10
117.1282895562281
 20
102.2997040225707
 30
0.0
 10
117.1174272417333
 20
102.2857639261763
 30
0.0
 10
117.094919057021
 20
102.2568781611119
 30
0.0
 10
117.060208561744
 20
101.9739498209026
 30
0.0
 10
117.0288992750779
 20
101.5371425368066
 30
0.0
 10
116.99751941874
 20
100.9608170690806
 30
0.0
 10
116.9622224402765
 20
100.2787243099055
 30
0.0
 10
116.9269168242786
 20
99.54214752170822
 30
0.0
 10
116.8955619973095
 20
98.81332070556543
 30
0.0
 10
116.8641605467737
 20
98.12688243205498
 30
0.0
 10
116.8289997762304
 20
97.54062230481374
 30
0.0
 10
116.802148362828
 20
97.16413945432205
 30
0.0
 10
116.7889175703294
 20
97.05040773051388
 30
0.0
 10
116.7865064188244
 20
97.0296815028862
 30
0.0
  0
SPLINE
  5
22C
330
1F
100
AcDbEntity
  8
0
  6
Continuous
 62
     8
370
    35
100
AcDbSpline
210
0.0
220
0.0
230
1.0
 70
     8
 71
     3
 72
     9
 73
     5
 74
     0
 42
0.00000001
 43
0.00000001
 40
0.0
 40
0.0
 40
0.0
 40
0.0
 40
0.4089693709298222
 40
1.0
 40
1.0
 40
1.0
 40
1.0
 10
119.7865064188247
 20
100.5650436159635
 30
0.0
 10
119.7784112739093
 20
100.4323561224227
 30
0.0
 10
119.7586172612259
 20
100.1079125259768
 30
0.0
 10
119.7388232485424
 20
99.74441411641267
 30
0.0
 10
119.7271243807742
 20
99.52957542274198
 30
0.0
  0
SPLINE
  5
22D
330
1F
100
AcDbEntity
  8
0
  6
Continuous
 62
     8
370
    35
100
AcDbSpline
210
0.0
220
0.0
230
1.0
 70
     8
 71
     3
 72
    13
 73
     9
 74
     0
 42
0.00000001
 43
0.00000001
 40
0.0
 40
0.0
 40
0.0
 40
0.0
 40
0.0375788799571027
 40
0.2327381940159307
 40
0.4212097829491367
 40
0.6096813718823441
 40
0.8048406859411719
 40
1.0
 40
1.0
 40
1.0
 40
1.0
 10
119.1023123399478
 20
101.8468348639425
 30
0.0
 10
119.1000632289238
 20
101.8429438560371
 30
0.0
 10
119.0861337547491
 20
101.818845581851
 30
0.0
 10
119.0601821284142
 20
101.6147622006222
 30
0.0
 10
119.0288961351897
 20
101.2487147050019
 30
0.0
 10
118.9975586331752
 20
100.7524641931896
 30
0.0
 10
118.9620581736811
 20
100.1684766297611
 30
0.0
 10
118.9387689784099
 20
99.74254249174834
 30
0.0
 10
118.9271243807742
 20
99.52957542274198
 30
0.0
  0
SPLINE
  5
22E
330
1F
100
AcDbEntity
  8
0
  6
Continuous
 62
     8
370
    35
100
AcDbSpline
210
0.0
220
0.0
230
1.0
 70
     8
 71
     3
 72
    13
 73
     9
 74
     0
 42
0.00000001
 43
0.00000001
 40
0.0
 40
0.0
 40
0.0
 40
0.0
 40
0.0375788799570945
 40
0.2327381940159241
 40
0.4212097829491319
 40
0.6096813718823408
 40
0.8048406859411702
 40
1.0
 40
1.0
 40
1.0
 40
1.0
 10
118.3023123399478
 20
101.8468348639425
 30
0.0
 10
118.3000632289237
 20
101.8429438560371
 30
0.0
 10
118.2861337547491
 20
101.818845581851
 30
0.0
 10
118.2601821284142
 20
101.6147622006222
 30
0.0
 10
118.2288961351897
 20
101.2487147050019
 30
0.0
 10
118.1975586331752
 20
100.7524641931896
 30
0.0
 10
118.1620581736812
 20
100.1684766297611
 30
0.0
 10
118.1387689784099
 20
99.74254249174834
 30
0.0
 10
118.1271243807742
 20
99.52957542274198
 30
0.0
  0
SPLINE
  5
22F
330
1F
100
AcDbEntity
  8
0
  6
Continuous
 62
     8
370
    35
100
AcDbSpline
210
0.0
220
0.0
230
1.0
 70
     8
 71
     3
 72
    13
 73
     9
 74
     0
 42
0.00000001
 43
0.00000001
 40
0.0
 40
0.0
 40
0.0
 40
0.0
 40
0.0375788799570996
 40
0.2327381940159282
 40
0.4212097829491349
 40
0.6096813718823428
 40
0.8048406859411712
 40
1.0
 40
1.0
 40
1.0
 40
1.0
 10
117.5023123399478
 20
101.8468348639425
 30
0.0
 10
117.5000632289238
 20
101.8429438560371
 30
0.0
 10
117.4861337547491
 20
101.818845581851
 30
0.0
 10
117.4601821284142
 20
101.6147622006222
 30
0.0
 10
117.4288961351897
 20
101.2487147050019
 30
0.0
 10
117.3975586331752
 20
100.7524641931896
 30
0.0
 10
117.3620581736811
 20
100.1684766297611
 30
0.0
 10
117.3387689784099
 20
99.74254249174834
 30
0.0
 10
117.3271243807743
 20
99.52957542274198
 30
0.0
  0
SPLINE
  5
230
330
1F
100
AcDbEntity
  8
0
  6
Continuous
 62
     8
370
    35
100
AcDbSpline
210
0.0
220
0.0
230
1.0
 70
     8
 71
     3
 72
    10
 73
     6
 74
     0
 42
0.00000001
 43
0.00000001
 40
0.0
 40
0.0
 40
0.0
 40
0.0
 40
0.0579207100461475
 40
0.5379756484147905
 40
1.0
 40
1.0
 40
1.0
 40
1.0
 10
118.949390877692
 20
68.11923188612597
 30
0.0
 10
118.9506997417595
 20
68.11804961051045
 30
0.0
 10
118.9628566541114
 20
68.10706846938899
 30
0.0
 10
118.9882818996525
 20
68.23386017350586
 30
0.0
 10
119.0110459291992
 20
68.44683565289628
 30
0.0
 10
119.0222101020061
 20
68.55128530890529
 30
0.0
  0
SPLINE
  5
231
330
1F
100
AcDbEntity
  8
0
  6
Continuous
 62
     8
370
    35
100
AcDbSpline
210
0.0
220
0.0
230
1.0
 70
     8
 71
     3
 72
     9
 73
     5
 74
     0
 42
0.00000001
 43
0.00000001
 40
0.0
 40
0.0
 40
0.0
 40
0.0
 40
0.1132056836691602
 40
0.9999999999999999
 40
0.9999999999999999
 40
0.9999999999999999
 40
0.9999999999999999
 10
119.749390877692
 20
68.11923188612597
 30
0.0
 10
119.7507001417949
 20
68.11797857636908
 30
0.0
 10
119.7622654984129
 20
68.10690749127629
 30
0.0
 10
119.775113173542
 20
68.18409360255036
 30
0.0
 10
119.7865064188245
 20
68.25254180732787
 30
0.0
  0
SPLINE
  5
232
330
1F
100
AcDbEntity
  8
0
  6
Continuous
 62
     8
370
    35
100
AcDbSpline
210
0.0
220
0.0
230
1.0
 70
     8
 71
     3
 72
     9
 73
     5
 74
     0
 42
0.00000001
 43
0.00000001
 40
0.0
 40
0.0
 40
0.0
 40
0.0
 40
0.5942344502122571
 40
1.0
 40
1.0
 40
1.0
 40
1.0
 10
118.093127859351
 20
73.08168774953825
 30
0.0
 10
118.1026735863092
 20
73.16042140814203
 30
0.0
 10
118.1187374933324
 20
73.29291735915204
 30
0.0
 10
118.1348014003556
 20
73.28663857443232
 30
0.0
 10
118.1413195804206
 20
73.28409085989854
 30
0.0
  0
SPLINE
  5
233
330
1F
100
AcDbEntity
  8
0
  6
Continuous
 62
     8
370
    35
100
AcDbSpline
210
0.0
220
0.0
230
1.0
 70
     8
 71
     3
 72
    10
 73
     6
 74
     0
 42
0.00000001
 43
0.00000001
 40
0.0
 40
0.0
 40
0.0
 40
0.0
 40
0.4905907274205369
 40
0.990205915188127
 40
1.0
 40
1.0
 40
1.0
 40
1.0
 10
118.5539690472961
 20
67.72141619184511
 30
0.0
 10
118.5653473348061
 20
67.7663897777434
 30
0.0
 10
118.5883132144434
 20
67.8571642426785
 30
0.0
 10
118.6128548758031
 20
68.07163981257338
 30
0.0
 10
118.6239556842844
 20
68.24541525295176
 30
0.0
 10
118.6241691123973
 20
68.2487563217012
 30
0.0
  0
SPLINE
  5
234
330
1F
100
AcDbEntity
  8
0
  6
Continuous
 62
     8
370
    35
100
AcDbSpline
210
0.0
220
0.0
230
1.0
 70
     8
 71
     3
 72
    11
 73
     7
 74
     0
 42
0.00000001
 43
0.00000001
 40
0.0
 40
0.0
 40
0.0
 40
0.0
 40
0.0316400783066045
 40
0.4093169135516812
 40
0.7740708904757513
 40
1.0
 40
1.0
 40
1.0
 40
1.0
 10
118.8521581368983
 20
72.62626958300986
 30
0.0
 10
118.8531373964307
 20
72.64159470254957
 30
0.0
 10
118.8658057433762
 20
72.83985055289925
 30
0.0
 10
118.8905411776662
 20
73.07387712272336
 30
0.0
 10
118.9176588080885
 20
73.28968773720005
 30
0.0
 10
118.934773441078
 20
73.28563932747113
 30
0.0
 10
118.9413195804206
 20
73.28409085989854
 30
0.0
  0
SPLINE
  5
235
330
1F
100
AcDbEntity
  8
0
  6
Continuous
 62
     8
370
    35
100
AcDbSpline
210
0.0
220
0.0
230
1.0
 70
     8
 71
     3
 72
    10
 73
     6
 74
     0
 42
0.00000001
 43
0.00000001
 40
0.0
 40
0.0
 40
0.0
 40
0.0
 40
0.352622832042977
 40
0.711732192647081
 40
1.0
 40
1.0
 40
1.0
 40
1.0
 10
119.353969047296
 20
67.72141619184511
 30
0.0
 10
119.3653983722301
 20
67.76403927682593
 30
0.0
 10
119.3884672655536
 20
67.85006950225127
 30
0.0
 10
119.4218794748425
 20
68.18215787775996
 30
0.0
 10
119.4411759480822
 20
68.50462750259312
 30
0.0
 10
119.4497683920326
 20
68.64821862117076
 30
0.0
  0
SPLINE
  5
236
330
1F
100
AcDbEntity
  8
0
  6
Continuous
 62
     8
370
    35
100
AcDbSpline
210
0.0
220
0.0
230
1.0
 70
     8
 71
     3
 72
    11
 73
     7
 74
     0
 42
0.00000001
 43
0.00000001
 40
0.0
 40
0.0
 40
0.0
 40
0.0
 40
0.2192304358427526
 40
0.5237438419024802
 40
0.8178378013980475
 40
1.0
 40
1.0
 40
1.0
 40
1.0
 10
119.6298310339741
 20
72.28052982763528
 30
0.0
 10
119.6382172981648
 20
72.41750630490134
 30
0.0
 10
119.6582521724722
 20
72.74474456530899
 30
0.0
 10
119.6905044713477
 20
73.08052519374866
 30
0.0
 10
119.7176639670462
 20
73.28875337171344
 30
0.0
 10
119.734774868388
 20
73.28538081998937
 30
0.0
 10
119.7413195804206
 20
73.28409085989854
 30
0.0
  0
SPLINE
  5
237
330
1F
100
AcDbEntity
  8
0
  6
Continuous
 62
     8
370
    35
100
AcDbSpline
210
0.0
220
0.0
230
1.0
 70
     8
 71
     3
 72
     9
 73
     5
 74
     0
 42
0.00000001
 43
0.00000001
 40
0.0
 40
0.0
 40
0.0
 40
0.0
 40
0.52882050397713
 40
1.0
 40
1.0
 40
1.0
 40
1.0
 10
118.5137578142686
 20
72.82930977658765
 30
0.0
 10
118.5164268895876
 20
72.84774855145656
 30
0.0
 10
118.5214741131708
 20
72.88261628962147
 30
0.0
 10
118.5265213367541
 20
72.8801104236516
 30
0.0
 10
118.5288994850184
 20
72.87892971098681
 30
0.0
  0
SPLINE
  5
238
330
1F
100
AcDbEntity
  8
0
  6
Continuous
 62
     8
370
    35
100
AcDbSpline
210
0.0
220
0.0
230
1.0
 70
     8
 71
     3
 72
    10
 73
     6
 74
     0
 42
0.00000001
 43
0.00000001
 40
0.0
 40
0.0
 40
0.0
 40
0.0
 40
0.391245424069352
 40
0.8877875957770989
 40
0.9999999999999999
 40
0.9999999999999999
 40
0.9999999999999999
 40
0.9999999999999999
 10
119.2634886089498
 20
72.4424483567141
 30
0.0
 10
119.2725425349573
 20
72.53281468107892
 30
0.0
 10
119.2930870901342
 20
72.7378678188578
 30
0.0
 10
119.3135871133033
 20
72.87452923374518
 30
0.0
 10
119.3265162440492
 20
72.87824481397405
 30
0.0
 10
119.3288994850184
 20
72.87892971098681
 30
0.0
  0
DIMENSION
  5
239
330
1F
100
AcDbEntity
  8
SLD-0
 62
     7
100
AcDbDimension
  2
_D_3
 10
110.7865064188
 20
54.5181412397
 30
0.0
 11
107.7865064188
 21
54.5181412397
 31
0.0
 70
   160
  1
<>
 71
     2
 42
-1.0
  3
SLDDIMSTYLE0
100
AcDbAlignedDimension
 13
104.7865064188
 23
63.5059096597
 33
0.0
 14
110.7865064188
 24
86.5059096597
 34
0.0
 50
0.0
100
AcDbRotatedDimension
  0
DIMENSION
  5
243
330
1F
100
AcDbEntity
  8
SLD-0
 62
     7
100
AcDbDimension
  2
_D_4
 10
116.7865064188
 20
48.2145410575
 30
0.0
 11
110.7865064188
 21
48.2145410575
 31
0.0
 70
   160
  1
<>
 71
     2
 42
-1.0
  3
SLDDIMSTYLE0
100
AcDbAlignedDimension
 13
104.7865064188
 23
63.5059096597
 33
0.0
 14
116.7865064188
 24
63.5059096597
 34
0.0
 50
0.0
100
AcDbRotatedDimension
  0
DIMENSION
  5
24D
330
1F
100
AcDbEntity
  8
SLD-0
 62
     7
100
AcDbDimension
  2
_D_5
 10
127.7865064188
 20
48.2145410575
 30
0.0
 11
123.7865064188
 21
48.2145410575
 31
0.0
 70
   160
  1
<>
 71
     2
 42
-1.0
  3
SLDDIMSTYLE0
100
AcDbAlignedDimension
 13
119.7865064188
 23
65.5059096597
 33
0.0
 14
127.7865064188
 24
65.5059096597
 34
0.0
 50
0.0
100
AcDbRotatedDimension
  0
DIMENSION
  5
257
330
1F
100
AcDbEntity
  8
SLD-0
 62
     7
100
AcDbDimension
  2
_D_6
 10
127.7865064188
 20
42.5059096597
 30
0.0
 11
116.2865064188
 21
42.5059096597
 31
0.0
 70
   160
  1
<>
 71
     2
 42
-1.0
  3
SLDDIMSTYLE0
100
AcDbAlignedDimension
 13
104.7865064188
 23
63.5059096597
 33
0.0
 14
127.7865064188
 24
65.5059096597
 34
0.0
 50
0.0
100
AcDbRotatedDimension
  0
DIMENSION
  5
261
330
1F
100
AcDbEntity
  8
SLD-0
 62
     7
100
AcDbDimension
  2
_D_7
 10
111.2767103857
 20
87.5360607872
 30
0.0
 11
89.0473827702
 21
132.1753085121
 31
0.0
 70
   163
  1
2 HOLES for both of \P M4 and 8-32 CLR
 71
     1
 42
-1.0
  3
SLDDIMSTYLE2
100
AcDbDiametricDimension
 15
110.2963024519
 25
95.4757585322
 35
0.0
 40
0.0
  0
DIMENSION
  5
26B
330
1F
100
AcDbEntity
  8
SLD-0
100
AcDbDimension
  2
_D_8
 10
127.7865064188
 20
30.1819729127
 30
0.0
 11
111.2862988806
 21
30.1819729127
 31
0.0
 70
   160
  1
<>\PNOMINAL
 71
     2
 42
-1.0
  3
SLDDIMSTYLE3
100
AcDbAlignedDimension
 13
94.7860913424
 23
67.5059096597
 33
0.0
 14
127.7865064188
 24
65.5059096597
 34
0.0
 50
0.0
100
AcDbRotatedDimension
  0
INSERT
  5
282
330
1F
100
AcDbEntity
  8
SLD-0
 62
     7
100
AcDbBlockReference
  2
SW_CENTERMARKSYMBOL_1
 10
110.7865064188
 20
91.5059096597
 30
0.0
  0
LINE
  5
283
330
1F
100
AcDbEntity
  8
0
  6
Continuous
 62
     7
370
    35
100
AcDbLine
 10
193.646928572
 20
119.5059096597
 30
0.0
 11
191.646928572
 21
119.5059096597
 31
0.0
  0
ARC
  5
284
330
1F
100
AcDbEntity
  8
0
  6
Continuous
 62
     7
370
    35
100
AcDbCircle
 10
193.646928572
 20
114.5059096597
 30
0.0
 40
5.0
100
AcDbArc
 50
0.0
 51
90.0
  0
LINE
  5
285
330
1F
100
AcDbEntity
  8
0
  6
Continuous
 62
     7
370
    35
100
AcDbLine
 10
198.646928572
 20
68.5059096597
 30
0.0
 11
198.646928572
 21
114.5059096597
 31
0.0
  0
LINE
  5
286
330
1F
100
AcDbEntity
  8
0
  6
Continuous
 62
     7
370
    35
100
AcDbLine
 10
147.646928572
 20
63.5059096597
 30
0.0
 11
193.646928572
 21
63.5059096597
 31
0.0
  0
ARC
  5
287
330
1F
100
AcDbEntity
  8
0
  6
Continuous
 62
     7
370
    35
100
AcDbCircle
 10
147.646928572
 20
68.5059096597
 30
0.0
 40
5.000000000000007
100
AcDbArc
 50
180.0
 51
270.0
  0
ARC
  5
288
330
1F
100
AcDbEntity
  8
0
  6
Continuous
 62
     7
370
    35
100
AcDbCircle
 10
193.646928572
 20
68.5059096597
 30
0.0
 40
5.000000000000007
100
AcDbArc
 50
270.0
 51
0.0
  0
LINE
  5
289
330
1F
100
AcDbEntity
  8
0
  6
Continuous
 62
     7
370
    35
100
AcDbLine
 10
142.646928572
 20
70.5059096597
 30
0.0
 11
142.646928572
 21
68.5059096597
 31
0.0
  0
ARC
  5
28A
330
1F
100
AcDbEntity
  8
0
  6
Continuous
 62
     7
370
    35
100
AcDbCircle
 10
177.141701533
 20
82.0154974355
 30
0.0
 40
2.000000000000017
100
AcDbArc
 50
304.3858259347
 51
343.0809978007
  0
ARC
  5
28B
330
1F
100
AcDbEntity
  8
0
  6
Continuous
 62
     7
370
    35
100
AcDbCircle
 10
181.446928572
 20
80.7059096597
 30
0.0
 40
2.500000000000005
100
AcDbArc
 50
106.9190021993
 51
163.0809978007
  0
ARC
  5
28C
330
1F
100
AcDbEntity
  8
0
  6
Continuous
 62
     7
370
    35
100
AcDbCircle
 10
161.1565163478
 20
85.0111366987
 30
0.0
 40
2.000000000000009
100
AcDbArc
 50
214.3858259347
 51
253.0809978007
  0
ARC
  5
28D
330
1F
100
AcDbEntity
  8
0
  6
Continuous
 62
     7
370
    35
100
AcDbCircle
 10
159.846928572
 20
80.7059096597
 30
0.0
 40
2.500000000000005
100
AcDbArc
 50
16.9190021993
 51
73.0809978007
  0
ARC
  5
28E
330
1F
100
AcDbEntity
  8
0
  6
Continuous
 62
     7
370
    35
100
AcDbCircle
 10
164.152155611
 20
82.0154974355
 30
0.0
 40
2.000000000000006
100
AcDbArc
 50
196.9190021993
 51
235.6141740653
  0
LINE
  5
28F
330
1F
100
AcDbEntity
  8
0
  6
Continuous
 62
     7
370
    35
100
AcDbLine
 10
147.646928572
 20
119.5059096597
 30
0.0
 11
191.646928572
 21
119.5059096597
 31
0.0
  0
ARC
  5
290
330
1F
100
AcDbEntity
  8
0
  6
Continuous
 62
     7
370
    35
100
AcDbCircle
 10
191.646928572
 20
114.5059096597
 30
0.0
 40
5.0
100
AcDbArc
 50
0.0
 51
90.0
  0
ARC
  5
291
330
1F
100
AcDbEntity
  8
0
  6
Continuous
 62
     7
370
    35
100
AcDbCircle
 10
170.646928572
 20
91.5059096597
 30
0.0
 40
13.49999999999999
100
AcDbArc
 50
235.6141740653
 51
304.3858259347
  0
ARC
  5
292
330
1F
100
AcDbEntity
  8
0
  6
Continuous
 62
     7
370
    35
100
AcDbCircle
 10
191.646928572
 20
70.5059096597
 30
0.0
 40
5.0
100
AcDbArc
 50
270.0
 51
0.0
  0
LINE
  5
293
330
1F
100
AcDbEntity
  8
0
  6
Continuous
 62
     7
370
    35
100
AcDbLine
 10
191.646928572
 20
65.5059096597
 30
0.0
 11
147.646928572
 21
65.5059096597
 31
0.0
  0
ARC
  5
294
330
1F
100
AcDbEntity
  8
0
  6
Continuous
 62
     7
370
    35
100
AcDbCircle
 10
147.646928572
 20
70.5059096597
 30
0.0
 40
4.999999999999986
100
AcDbArc
 50
180.0
 51
270.0
  0
LINE
  5
295
330
1F
100
AcDbEntity
  8
0
  6
Continuous
 62
     7
370
    35
100
AcDbLine
 10
142.646928572
 20
70.5059096597
 30
0.0
 11
142.646928572
 21
114.5059096597
 31
0.0
  0
ARC
  5
296
330
1F
100
AcDbEntity
  8
0
  6
Continuous
 62
     7
370
    35
100
AcDbCircle
 10
147.646928572
 20
114.5059096597
 30
0.0
 40
5.0
100
AcDbArc
 50
90.0
 51
180.0
  0
LINE
  5
297
330
1F
100
AcDbEntity
  8
0
  6
Continuous
 62
     7
370
    35
100
AcDbLine
 10
196.646928572
 20
114.5059096597
 30
0.0
 11
196.646928572
 21
70.5059096597
 31
0.0
  0
ARC
  5
298
330
1F
100
AcDbEntity
  8
0
  6
Continuous
 62
     7
370
    35
100
AcDbCircle
 10
170.646928572
 20
91.5059096597
 30
0.0
 40
13.50000000000001
100
AcDbArc
 50
325.6141740653
 51
214.3858259347
  0
ARC
  5
299
330
1F
100
AcDbEntity
  8
0
  6
Continuous
 62
     7
370
    35
100
AcDbCircle
 10
180.1373407962
 20
85.0111366987
 30
0.0
 40
1.999999999999998
100
AcDbArc
 50
286.9190021993
 51
325.6141740653
  0
CIRCLE
  5
29A
330
1F
100
AcDbEntity
  8
0
  6
Continuous
 62
     7
370
    35
100
AcDbCircle
 10
170.646928572
 20
91.5059096597
 30
0.0
 40
12.00000000000001
  0
DIMENSION
  5
29B
330
1F
100
AcDbEntity
  8
SLD-0
 62
     7
100
AcDbDimension
  2
_D_9
 10
198.646928572
 20
54.1715129992
 30
0.0
 11
170.646928572
 21
54.1715129992
 31
0.0
 70
   160
  1
<>
 71
     2
 42
-1.0
  3
SLDDIMSTYLE0
100
AcDbAlignedDimension
 13
142.646928572
 23
70.5059096597
 33
0.0
 14
198.646928572
 24
68.5059096597
 34
0.0
 50
0.0
100
AcDbRotatedDimension
  0
DIMENSION
  5
2A5
330
1F
100
AcDbEntity
  8
SLD-0
 62
     7
100
AcDbDimension
  2
_D_10
 10
208.2971371092
 20
119.5059096597
 30
0.0
 11
208.2971371092
 21
91.5059096597
 31
0.0
 70
   160
  1
<>
 71
     2
 42
-1.0
  3
SLDDIMSTYLE0
100
AcDbAlignedDimension
 13
193.646928572
 23
63.5059096597
 33
0.0
 14
191.646928572
 24
119.5059096597
 34
0.0
 50
90.0
100
AcDbRotatedDimension
  0
DIMENSION
  5
2AF
330
1F
100
AcDbEntity
  8
SLD-0
 62
     7
100
AcDbDimension
  2
_D_11
 10
173.7527571132
 20
79.9147997442
 30
0.0
 11
149.2498350197
 21
132.2583435697
 31
0.0
 70
   163
  1
ACCEPTS\P%%c1" OPTICS
 71
     1
 42
-1.0
  3
SLDDIMSTYLE4
100
AcDbDiametricDimension
 15
167.5411000308
 25
103.0970195752
 35
0.0
 40
0.0
  0
INSERT
  5
2C5
330
1F
100
AcDbEntity
  8
SLD-0
 62
     7
100
AcDbBlockReference
  2
SW_CENTERMARKSYMBOL_2
 10
170.646928572
 20
91.5059096597
 30
0.0
  0
LINE
  5
2C6
330
1F
100
AcDbEntity
  8
0
  6
Continuous
 62
     7
370
    35
100
AcDbLine
 10
259.4146189605
 20
154.5422822359
 30
0.0
 11
259.5002834971
 21
154.5917353202
 31
0.0
  0
LINE
  5
2C7
330
1F
100
AcDbEntity
  8
0
  6
Continuous
 62
     7
370
    35
100
AcDbLine
 10
271.3999696649
 20
161.4612779225
 30
0.0
 11
274.7002147906
 21
163.3664688805
 31
0.0
  0
LINE
  5
2C8
330
1F
100
AcDbEntity
  8
0
  6
Continuous
 62
     7
370
    35
100
AcDbLine
 10
271.7004585927
 20
168.5627620547
 30
0.0
 11
268.4003858681
 21
166.6576706219
 31
0.0
  0
LINE
  5
2C9
330
1F
100
AcDbEntity
  8
0
  6
Continuous
 62
     7
370
    35
100
AcDbLine
 10
240.4563499393
 20
150.5203486514
 30
0.0
 11
238.7375101475
 21
149.5280835606
 31
0.0
  0
LINE
  5
2CA
330
1F
100
AcDbEntity
  8
0
  6
Continuous
 62
     7
370
    35
100
AcDbLine
 10
259.4146189605
 20
144.1858368916
 30
0.0
 11
259.5105865513
 21
144.213590447
 31
0.0
  0
LINE
  5
2CB
330
1F
100
AcDbEntity
  8
0
  6
Continuous
 62
     7
370
    35
100
AcDbLine
 10
259.7723406705
 20
144.4522576191
 30
0.0
 11
260.0762719763
 21
144.5401536917
 31
0.0
  0
LINE
  5
2CC
330
1F
100
AcDbEntity
  8
0
  6
Continuous
 62
     7
370
    35
100
AcDbLine
 10
260.3380260954
 20
144.7788208639
 30
0.0
 11
260.4333655958
 21
144.8063927773
 31
0.0
  0
SPLINE
  5
2CD
330
1F
100
AcDbEntity
  8
0
  6
Continuous
 62
     7
370
    35
100
AcDbSpline
210
0.0
220
0.0
230
1.0
 70
     8
 71
     3
 72
    14
 73
    10
 74
     0
 42
0.00000001
 43
0.00000001
 40
0.0
 40
0.0
 40
0.0
 40
0.0
 40
0.2583354078330637
 40
0.5757476375949809
 40
0.6550222929058046
 40
0.6671455364183135
 40
0.6891099118589583
 40
0.9747784710341444
 40
1.0
 40
1.0
 40
1.0
 40
1.0
 10
259.4146189605214
 20
144.372444453187
 30
0.0
 10
259.506933844413
 20
144.5440499053331
 30
0.0
 10
259.7126744231488
 20
144.9265039967032
 30
0.0
 10
259.7345014194508
 20
145.5164998947879
 30
0.0
 10
259.6916400807504
 20
145.8894289748934
 30
0.0
 10
259.6754636185866
 20
145.9933294755407
 30
0.0
 10
259.6269901989458
 20
146.277074381649
 30
0.0
 10
259.5581127014772
 20
146.5927675949141
 30
0.0
 10
259.425386608409
 20
146.8652977641032
 30
0.0
 10
259.4146189605214
 20
146.8874072742435
 30
0.0
  0
LINE
  5
2CE
330
1F
100
AcDbEntity
  8
0
  6
Continuous
 62
     7
370
    35
100
AcDbLine
 10
259.5105865513
 20
144.213590447
 30
0.0
 11
259.6137169051
 21
144.3076246115
 31
0.0
  0
SPLINE
  5
2CF
330
1F
100
AcDbEntity
  8
0
  6
Continuous
 62
     7
370
    35
100
AcDbSpline
210
0.0
220
0.0
230
1.0
 70
     8
 71
     3
 72
    14
 73
    10
 74
     0
 42
0.00000001
 43
0.00000001
 40
0.0
 40
0.0
 40
0.0
 40
0.0
 40
0.0680980462752026
 40
0.4038391330539216
 40
0.754516526215401
 40
0.8420992557435972
 40
0.8554930289917638
 40
0.8797592960090271
 40
1.0
 40
1.0
 40
1.0
 40
1.0
 10
259.8414293147211
 20
144.5152525832864
 30
0.0
 10
259.8745959135245
 20
144.5435466374806
 30
0.0
 10
260.0712824741491
 20
144.7113377407696
 30
0.0
 10
260.2521337838047
 20
145.238497677848
 30
0.0
 10
260.3016147633398
 20
145.8413452507776
 30
0.0
 10
260.257406335931
 20
146.2160136457591
 30
0.0
 10
260.2410878746954
 20
146.3198901011996
 30
0.0
 10
260.2208615585218
 20
146.4467036720797
 30
0.0
 10
260.1814155741723
 20
146.5664257061053
 30
0.0
 10
260.1485935387042
 20
146.6660434723213
 30
0.0
  0
LINE
  5
2D0
330
1F
100
AcDbEntity
  8
0
  6
Continuous
 62
     7
370
    35
100
AcDbLine
 10
260.0762719763
 20
144.5401536917
 30
0.0
 11
260.1794023301
 21
144.6341878562
 31
0.0
  0
SPLINE
  5
2D1
330
1F
100
AcDbEntity
  8
0
  6
Continuous
 62
     7
370
    35
100
AcDbSpline
210
0.0
220
0.0
230
1.0
 70
     8
 71
     3
 72
     9
 73
     5
 74
     0
 42
0.00000001
 43
0.00000001
 40
0.0
 40
0.0
 40
0.0
 40
0.0
 40
0.4688419868502071
 40
1.0
 40
1.0
 40
1.0
 40
1.0
 10
260.4071147396703
 20
144.8418158280155
 30
0.0
 10
260.4424244133339
 20
144.8679713454937
 30
0.0
 10
260.5177369379242
 20
144.923758835121
 30
0.0
 10
260.5508791117853
 20
145.0235266400024
 30
0.0
 10
260.5684828430048
 20
145.0765191090196
 30
0.0
  0
ARC
  5
2D2
330
1F
100
AcDbEntity
  8
0
  6
Continuous
 62
     7
370
    35
100
AcDbCircle
 10
256.9397452264
 20
122.2828617243
 30
0.0
 40
3.99999999999999
100
AcDbArc
 50
307.6798102787
 51
327.3387277299
  0
LINE
  5
2D3
330
1F
100
AcDbEntity
  8
0
  6
Continuous
 62
     7
370
    35
100
AcDbLine
 10
262.5716763784
 20
168.8680646258
 30
0.0
 11
254.0863950042
 21
163.9696159548
 31
0.0
  0
LINE
  5
2D4
330
1F
100
AcDbEntity
  8
0
  6
Continuous
 62
     7
370
    35
100
AcDbLine
 10
261.9144157921
 20
116.1154337606
 30
0.0
 11
270.3996971664
 21
121.0138824316
 31
0.0
  0
LINE
  5
2D5
330
1F
100
AcDbEntity
  8
0
  6
Continuous
 62
     7
370
    35
100
AcDbLine
 10
232.8731915686
 20
151.7179208748
 30
0.0
 11
232.5683363891
 21
151.5419317258
 31
0.0
  0
LINE
  5
2D6
330
1F
100
AcDbEntity
  8
0
  6
Continuous
 62
     7
370
    35
100
AcDbLine
 10
252.7220276367
 20
114.0746788812
 30
0.0
 11
258.3788818862
 21
117.3403113285
 31
0.0
  0
LINE
  5
2D7
330
1F
100
AcDbEntity
  8
0
  6
Continuous
 62
     7
370
    35
100
AcDbLine
 10
222.2665898508
 20
179.8895741354
 30
0.0
 11
216.6097356013
 21
176.6239416881
 31
0.0
  0
LINE
  5
2D8
330
1F
100
AcDbEntity
  8
0
  6
Continuous
 62
     7
370
    35
100
AcDbLine
 10
243.9438641907
 20
134.3232514692
 30
0.0
 11
241.7598432212
 21
133.0624430006
 31
0.0
  0
ARC
  5
2D9
330
1F
100
AcDbEntity
  8
0
  6
Continuous
 62
     7
370
    35
100
AcDbCircle
 10
259.8133956475
 20
154.9401112727
 30
0.0
 40
1.873458075941527
100
AcDbArc
 50
257.7102294308
 51
295.416488797
  0
ARC
  5
2DA
330
1F
100
AcDbEntity
  8
0
  6
Continuous
 62
     7
370
    35
100
AcDbCircle
 10
255.3000404043
 20
155.5444676892
 30
0.0
 40
5.706270001713336
100
AcDbArc
 50
359.1017791967
 51
75.4673898406
  0
ARC
  5
2DB
330
1F
100
AcDbEntity
  8
0
  6
Continuous
 62
     7
370
    35
100
AcDbCircle
 10
259.1392684771
 20
155.1780285122
 30
0.0
 40
1.886782736128885
100
AcDbArc
 50
278.3915140342
 51
8.4417251973
  0
LWPOLYLINE
  5
2DC
330
1F
100
AcDbEntity
  8
0
  6
Continuous
 62
     7
370
    35
100
AcDbPolyline
 90
       14
 70
   128
 43
0.0
 10
275.3215818074
 20
164.7194168667
 10
275.284307969
 20
165.2192116748
 10
275.1669482832
 20
165.7476519327
 10
274.9740128168
 20
166.2844299775
 10
274.7129159716
 20
166.80891773
 10
274.3936915529
 20
167.3009594201
 10
274.0286071761
 20
167.7416461615
 10
273.6316928292
 20
168.1140426099
 10
273.2182017077
 20
168.4038377787
 10
272.8040240437
 20
168.599895002
 10
272.4050764525
 20
168.6946799106
 10
272.0366902664
 20
168.6845499738
 10
271.7130223597
 20
168.5698944792
 10
271.7004585927
 20
168.5627620547
  0
ARC
  5
2DD
330
1F
100
AcDbEntity
  8
0
  6
Continuous
 62
     7
370
    35
100
AcDbCircle
 10
273.8312187029
 20
164.5847330968
 30
0.0
 40
1.496436400647857
100
AcDbArc
 50
305.5005195368
 51
5.163779855
  0
SPLINE
  5
2DE
330
1F
100
AcDbEntity
  8
0
  6
Continuous
 62
     7
370
    35
100
AcDbSpline
210
0.0
220
0.0
230
1.0
 70
     8
 71
     3
 72
    14
 73
    10
 74
     0
 42
0.00000001
 43
0.00000001
 40
0.0
 40
0.0
 40
0.0
 40
0.0
 40
0.1430265377146835
 40
0.2961226246283276
 40
0.4492187115419725
 40
0.5970763542195517
 40
0.7449339968971298
 40
0.8980300838107753
 40
1.0
 40
1.0
 40
1.0
 40
1.0
 10
259.5025696910155
 20
144.2123809528971
 30
0.0
 10
259.6187362010551
 20
144.2958872244461
 30
0.0
 10
259.859247734065
 20
144.4687788898607
 30
0.0
 10
260.0852727371641
 20
144.9249715045124
 30
0.0
 10
260.1866245747711
 20
145.4943564929567
 30
0.0
 10
260.1474910312006
 20
146.1398461669158
 30
0.0
 10
259.9764777910493
 20
146.8182469208336
 30
0.0
 10
259.7293166955468
 20
147.4329392084674
 30
0.0
 10
259.5044970370161
 20
147.7757119750181
 30
0.0
 10
259.4146189605214
 20
147.912745173688
 30
0.0
  0
SPLINE
  5
2DF
330
1F
100
AcDbEntity
  8
0
  6
Continuous
 62
     7
370
    35
100
AcDbSpline
210
0.0
220
0.0
230
1.0
 70
     8
 71
     3
 72
     9
 73
     5
 74
     0
 42
0.00000001
 43
0.00000001
 40
0.0
 40
0.0
 40
0.0
 40
0.0
 40
0.8083345314374939
 40
1.0
 40
1.0
 40
1.0
 40
1.0
 10
260.0682551159647
 20
144.5389441976263
 30
0.0
 10
260.191912201771
 20
144.6134572461508
 30
0.0
 10
260.3448898131398
 20
144.7056382004792
 30
0.0
 10
260.4308011216108
 20
144.8847488543995
 30
0.0
 10
260.4472673528036
 20
144.9190781818076
 30
0.0
  0
LWPOLYLINE
  5
2E0
330
1F
100
AcDbEntity
  8
0
  6
Continuous
 62
     7
370
    35
100
AcDbPolyline
 90
        9
 70
   128
 43
0.0
 10
256.5861918358
 20
163.7220757024
 10
256.0331124806
 20
163.9910967561
 10
255.4936517747
 20
164.152963895
 10
254.981093031
 20
164.2036914129
 10
254.5080571469
 20
164.14203023
 10
254.0861918358
 20
163.9694986491
 10
253.7258848217
 20
163.6903449706
 10
253.4360080591
 20
163.3114428842
 10
253.345971968
 20
163.143390481
  0
LINE
  5
2E1
330
1F
100
AcDbEntity
  8
0
  6
Continuous
 62
     7
370
    35
100
AcDbLine
 10
259.4146189605
 20
162.0892594787
 30
0.0
 11
256.5861918358
 21
163.7220757024
 31
0.0
  0
ARC
  5
2E2
330
1F
100
AcDbEntity
  8
0
  6
Continuous
 62
     7
370
    35
100
AcDbCircle
 10
255.3288547702
 20
155.647859518
 30
0.0
 40
7.627915997973661
100
AcDbArc
 50
2.3868561234
 51
57.6131440222
  0
LINE
  5
2E3
330
1F
100
AcDbEntity
  8
0
  6
Continuous
 62
     7
370
    35
100
AcDbLine
 10
262.9501528665
 20
118.404657793
 30
0.0
 11
262.9501528665
 21
155.9655351397
 31
0.0
  0
LWPOLYLINE
  5
2E4
330
1F
100
AcDbEntity
  8
0
  6
Continuous
 62
     7
370
    35
100
AcDbPolyline
 90
       11
 70
   128
 43
0.0
 10
259.4146189605
 20
116.3629740131
 10
259.9676983157
 20
116.0939529594
 10
260.5071590216
 20
115.9320858205
 10
261.0197177653
 20
115.8813583026
 10
261.4927536494
 20
115.9430194855
 10
261.9146189605
 20
116.1155510663
 10
262.2749259746
 20
116.3947047449
 10
262.5648027372
 20
116.7736068312
 10
262.7771115203
 20
117.2429274984
 10
262.9066245772
 20
117.791110514
 10
262.9501528665
 20
118.404657793
  0
LINE
  5
2E5
330
1F
100
AcDbEntity
  8
0
  6
Continuous
 62
     7
370
    35
100
AcDbLine
 10
258.0502597611
 20
117.1506018138
 30
0.0
 11
259.4146189605
 21
116.3629740131
 31
0.0
  0
LINE
  5
2E6
330
1F
100
AcDbEntity
  8
0
  6
Continuous
 62
     7
370
    35
100
AcDbLine
 10
243.1511629932
 20
137.1832386655
 30
0.0
 11
237.6394684979
 21
140.3650721704
 31
0.0
  0
LWPOLYLINE
  5
2E7
330
1F
100
AcDbEntity
  8
0
  6
Continuous
 62
     7
370
    35
100
AcDbPolyline
 90
        3
 70
   128
 43
0.0
 10
244.7071657201
 20
136.4270721957
 10
244.0645731505
 20
136.7047032737
 10
243.1511629932
 20
137.1832386655
  0
LWPOLYLINE
  5
2E8
330
1F
100
AcDbEntity
  8
0
  6
Continuous
 62
     7
370
    35
100
AcDbPolyline
 90
       16
 70
   128
 43
0.0
 10
261.3591626088
 20
155.2509126418
 10
261.3197993977
 20
155.8656972996
 10
261.2026324046
 20
156.5115197223
 10
261.0104079245
 20
157.1732423797
 10
260.7476315364
 20
157.8353550535
 10
260.4204624961
 20
158.4823383838
 10
260.0365693685
 20
159.0990276297
 10
259.6049502832
 20
159.6709681181
 10
259.1357220258
 20
160.1847540485
 10
258.6398829089
 20
160.6283427143
 10
258.1290549811
 20
160.9913367731
 10
257.6152116162
 20
161.2652279517
 10
257.110396867
 20
161.4435964732
 10
256.6264431634
 20
161.5222615306
 10
256.1746939701
 20
161.4993792815
 10
256.1708239666
 20
161.498714975
  0
LWPOLYLINE
  5
2E9
330
1F
100
AcDbEntity
  8
0
  6
Continuous
 62
     7
370
    35
100
AcDbPolyline
 90
        9
 70
   128
 43
0.0
 10
259.4146189605
 20
152.85547141
 10
259.6049502832
 20
152.8562276053
 10
260.0365693685
 20
152.9298313052
 10
260.4204624961
 20
153.1032869805
 10
260.7476315364
 20
153.3725289773
 10
261.0104079245
 20
153.7312464914
 10
261.2026324046
 20
154.1710314882
 10
261.3197993977
 20
154.6815757801
 10
261.3591626088
 20
155.2509126418
  0
ARC
  5
2EA
330
1F
100
AcDbEntity
  8
0
  6
Continuous
 62
     7
370
    35
100
AcDbCircle
 10
255.1705797975
 20
144.9127879639
 30
0.0
 40
5.309829270181182
100
AcDbArc
 50
2.5187686009
 51
36.9386187984
  0
ARC
  5
2EB
330
1F
100
AcDbEntity
  8
0
  6
Continuous
 62
     7
370
    35
100
AcDbCircle
 10
258.9105460098
 20
144.9127051634
 30
0.0
 40
1.582049379889004
100
AcDbArc
 50
288.5795032663
 51
8.4849943124
  0
ARC
  5
2EC
330
1F
100
AcDbEntity
  8
0
  6
Continuous
 62
     7
370
    35
100
AcDbCircle
 10
254.9903982355
 20
121.1345543529
 30
0.0
 40
5.637440845488716
100
AcDbArc
 50
2.510687805
 51
38.298518221
  0
ARC
  5
2ED
330
1F
100
AcDbEntity
  8
0
  6
Continuous
 62
     7
370
    35
100
AcDbCircle
 10
258.3132941295
 20
121.2921761224
 30
0.0
 40
2.310860651987966
100
AcDbArc
 50
329.6394758699
 51
2.215424901
  0
LINE
  5
2EE
330
1F
100
AcDbEntity
  8
0
  6
Continuous
 62
     7
370
    35
100
AcDbLine
 10
267.8999003348
 20
166.9877081496
 30
0.0
 11
259.4146189605
 21
162.0892594787
 31
0.0
  0
ARC
  5
2EF
330
1F
100
AcDbEntity
  8
0
  6
Continuous
 62
     7
370
    35
100
AcDbCircle
 10
263.8141361445
 20
160.546308189
 30
0.0
 40
7.627915997973838
100
AcDbArc
 50
2.3868561234
 51
57.6131440222
  0
LINE
  5
2F0
330
1F
100
AcDbEntity
  8
0
  6
Continuous
 62
     7
370
    35
100
AcDbLine
 10
271.4354342407
 20
160.8639838107
 30
0.0
 11
262.9501528665
 21
155.9655351397
 31
0.0
  0
LINE
  5
2F1
330
1F
100
AcDbEntity
  8
0
  6
Continuous
 62
     7
370
    35
100
AcDbLine
 10
271.4354342407
 20
123.3031064639
 30
0.0
 11
271.4354342407
 21
160.8639838107
 31
0.0
  0
LINE
  5
2F2
330
1F
100
AcDbEntity
  8
0
  6
Continuous
 62
     7
370
    35
100
AcDbLine
 10
271.4354342407
 20
123.3031064639
 30
0.0
 11
262.9501528665
 21
118.404657793
 31
0.0
  0
LWPOLYLINE
  5
2F3
330
1F
100
AcDbEntity
  8
0
  6
Continuous
 62
     7
370
    35
100
AcDbPolyline
 90
       29
 70
   128
 43
0.0
 10
267.1927935536
 20
141.4715376286
 10
266.8387649155
 20
141.2210983845
 10
266.5024887517
 20
140.8910914866
 10
266.2008273531
 20
140.4980648587
 10
265.9489072818
 20
140.0617264972
 10
265.7593608623
 20
139.6039562294
 10
265.6416927434
 20
139.147708568
 10
265.6018032959
 20
138.715861676
 10
265.6416927434
 20
138.3300701597
 10
265.7593608623
 20
138.0096792167
 10
265.9489072818
 20
137.7707545866
 10
266.2008273531
 20
137.6252769482
 10
266.5024887517
 20
137.5805411576
 10
266.8387649155
 20
137.6387904542
 10
267.1927935536
 20
137.7971039751
 10
267.5468221916
 20
138.0475432192
 10
267.8830983555
 20
138.3775501171
 10
268.1847597541
 20
138.7705767449
 10
268.4366798253
 20
139.2069151065
 10
268.6262262449
 20
139.6646853743
 10
268.7438943638
 20
140.1209330356
 10
268.7837838112
 20
140.5527799276
 10
268.7438943638
 20
140.9385714439
 10
268.6262262449
 20
141.258962387
 10
268.4366798253
 20
141.497887017
 10
268.1847597541
 20
141.6433646555
 10
267.8830983555
 20
141.688100446
 10
267.5468221916
 20
141.6298511494
 10
267.1927935536
 20
141.4715376286
  0
LINE
  5
2F4
330
1F
100
AcDbEntity
  8
0
  6
Continuous
 62
     7
370
    35
100
AcDbLine
 10
265.07147321
 20
168.6205243733
 30
0.0
 11
256.5861918358
 21
163.7220757024
 31
0.0
  0
LINE
  5
2F5
330
1F
100
AcDbEntity
  8
0
  6
Continuous
 62
     7
370
    35
100
AcDbLine
 10
267.8999003348
 20
166.9877081496
 30
0.0
 11
265.07147321
 21
168.6205243733
 31
0.0
  0
ARC
  5
2F6
330
1F
100
AcDbEntity
  8
0
  6
Continuous
 62
     7
370
    35
100
AcDbCircle
 10
263.6094491439
 20
166.6021336866
 30
0.0
 40
2.492271119693323
100
AcDbArc
 50
54.0822552047
 51
114.6072863662
  0
LINE
  5
2F7
330
1F
100
AcDbEntity
  8
0
  6
Continuous
 62
     7
370
    35
100
AcDbLine
 10
244.5653765556
 20
137.9996467773
 30
0.0
 11
243.1511629932
 21
137.1832386655
 31
0.0
  0
SPLINE
  5
2F8
330
1F
100
AcDbEntity
  8
0
  6
Continuous
 62
     7
370
    35
100
AcDbSpline
210
0.0
220
0.0
230
1.0
 70
     8
 71
     3
 72
     9
 73
     5
 74
     0
 42
0.00000001
 43
0.00000001
 40
0.0
 40
0.0
 40
0.0
 40
0.0
 40
0.3191007040069104
 40
1.0
 40
1.0
 40
1.0
 40
1.0
 10
244.8845385148972
 20
137.8420017946933
 30
0.0
 10
244.8487934233168
 20
137.856917859691
 30
0.0
 10
244.7367752073383
 20
137.9036619276621
 30
0.0
 10
244.6348067835648
 20
137.9607651996203
 30
0.0
 10
244.5653765556039
 20
137.9996467772956
 30
0.0
  0
ARC
  5
2F9
330
1F
100
AcDbEntity
  8
0
  6
Continuous
 62
     7
370
    35
100
AcDbCircle
 10
268.9970682717
 20
123.0274047699
 30
0.0
 40
2.453903018268883
100
AcDbArc
 50
304.8612461169
 51
6.4509342764
  0
LWPOLYLINE
  5
2FA
330
1F
100
AcDbEntity
  8
0
  6
Continuous
 62
     7
370
    35
100
AcDbPolyline
 90
       11
 70
   128
 43
0.0
 10
244.5653765556
 20
137.9996467773
 10
244.1171955032
 20
138.3079884864
 10
243.7685725322
 20
138.6565736833
 10
243.5301003752
 20
139.0348107834
 10
243.409024888
 20
139.4312072436
 10
243.409024888
 20
139.8337187582
 10
243.5301003752
 20
140.2301152185
 10
243.7685725322
 20
140.6083523186
 10
244.1171955032
 20
140.9569375155
 10
244.5653765556
 20
141.2652792246
 10
244.6591911433
 20
141.3176976673
  0
LINE
  5
2FB
330
1F
100
AcDbEntity
  8
0
  6
Continuous
 62
     7
370
    35
100
AcDbLine
 10
242.4904762718
 20
147.3615423332
 30
0.0
 11
235.3729884002
 21
151.4703806224
 31
0.0
  0
ARC
  5
2FC
330
1F
100
AcDbEntity
  8
0
  6
Continuous
 62
     7
370
    35
100
AcDbCircle
 10
233.9109643341
 20
149.4519899356
 30
0.0
 40
2.492271119693271
100
AcDbArc
 50
54.0822552047
 51
114.6072863662
  0
LINE
  5
2FD
330
1F
100
AcDbEntity
  8
0
  6
Continuous
 62
     7
370
    35
100
AcDbLine
 10
253.757764711
 20
152.2916986365
 30
0.0
 11
259.4146189605
 21
155.5573310838
 31
0.0
  0
ARC
  5
2FE
330
1F
100
AcDbEntity
  8
0
  6
Continuous
 62
     7
370
    35
100
AcDbCircle
 10
246.1364666148
 20
151.9740230148
 30
0.0
 40
7.627915997973375
100
AcDbArc
 50
2.3868561234
 51
57.6131440222
  0
LINE
  5
2FF
330
1F
100
AcDbEntity
  8
0
  6
Continuous
 62
     7
370
    35
100
AcDbLine
 10
250.2222308051
 20
158.4154229755
 30
0.0
 11
255.8790850546
 21
161.6810554228
 31
0.0
  0
ARC
  5
300
330
1F
100
AcDbEntity
  8
0
  6
Continuous
 62
     7
370
    35
100
AcDbCircle
 10
251.7933208643
 20
155.2396554621
 30
0.0
 40
7.627915997973434
100
AcDbArc
 50
2.3868561234
 51
57.6131440222
  0
LINE
  5
301
330
1F
100
AcDbEntity
  8
0
  6
Continuous
 62
     7
370
    35
100
AcDbLine
 10
219.1095324329
 20
176.3764014356
 30
0.0
 11
250.2222308051
 21
158.4154229755
 31
0.0
  0
LINE
  5
302
330
1F
100
AcDbEntity
  8
0
  6
Continuous
 62
     7
370
    35
100
AcDbLine
 10
253.757764711
 20
152.2916986365
 30
0.0
 11
253.757764711
 21
116.3639029136
 31
0.0
  0
LWPOLYLINE
  5
303
330
1F
100
AcDbEntity
  8
0
  6
Continuous
 62
     7
370
    35
100
AcDbPolyline
 90
       11
 70
   128
 43
0.0
 10
253.757764711
 20
116.3639029136
 10
253.7142364218
 20
115.7503556346
 10
253.5847233649
 20
115.202172619
 10
253.3724145818
 20
114.7328519518
 10
253.0825378192
 20
114.3539498655
 10
252.7222308051
 20
114.0747961869
 10
252.300365494
 20
113.9022646061
 10
251.8273296099
 20
113.8406034231
 10
251.3147708662
 20
113.891330941
 10
250.7753101603
 20
114.0531980799
 10
250.2222308051
 20
114.3222191337
  0
LINE
  5
304
330
1F
100
AcDbEntity
  8
0
  6
Continuous
 62
     7
370
    35
100
AcDbLine
 10
250.2222308051
 20
114.3222191337
 30
0.0
 11
219.1095324329
 21
132.2831975938
 31
0.0
  0
ARC
  5
305
330
1F
100
AcDbEntity
  8
0
  6
Continuous
 62
     7
370
    35
100
AcDbCircle
 10
223.1952966232
 20
138.7245975545
 30
0.0
 40
7.627915997973604
100
AcDbArc
 50
182.3868561234
 51
237.6131440222
  0
LINE
  5
306
330
1F
100
AcDbEntity
  8
0
  6
Continuous
 62
     7
370
    35
100
AcDbLine
 10
215.573998527
 20
138.4069219328
 30
0.0
 11
215.573998527
 21
174.3347176557
 31
0.0
  0
LWPOLYLINE
  5
307
330
1F
100
AcDbEntity
  8
0
  6
Continuous
 62
     7
370
    35
100
AcDbPolyline
 90
       11
 70
   128
 43
0.0
 10
215.573998527
 20
174.3347176557
 10
215.6175268162
 20
174.9482649347
 10
215.7470398731
 20
175.4964479503
 10
215.9593486562
 20
175.9657686175
 10
216.2492254188
 20
176.3446707038
 10
216.6095324329
 20
176.6238243824
 10
217.031397744
 20
176.7963559632
 10
217.5044336281
 20
176.8580171462
 10
218.0169923718
 20
176.8072896283
 10
218.5564530777
 20
176.6454224893
 10
219.1095324329
 20
176.3764014356
  0
ARC
  5
308
330
1F
100
AcDbEntity
  8
0
  6
Continuous
 62
     7
370
    35
100
AcDbCircle
 10
240.5877318496
 20
132.646633232
 30
0.0
 40
0.7523368173022377
100
AcDbArc
 50
283.5642567497
 51
346.2437464733
  0
ARC
  5
309
330
1F
100
AcDbEntity
  8
0
  6
Continuous
 62
     7
370
    35
100
AcDbCircle
 10
242.2338509667
 20
132.2413255927
 30
0.0
 40
0.9429467761927679
100
AcDbArc
 50
73.903601837
 51
166.1071499177
  0
ARC
  5
30A
330
1F
100
AcDbEntity
  8
0
  6
Continuous
 62
     7
370
    35
100
AcDbCircle
 10
242.7056145874
 20
133.8695490368
 30
0.0
 40
0.7522454629479889
100
AcDbArc
 50
253.7636842298
 51
316.4483945126
  0
LWPOLYLINE
  5
30B
330
1F
100
AcDbEntity
  8
0
  6
Continuous
 62
     7
370
    35
100
AcDbPolyline
 90
       49
 70
   128
 43
0.0
 10
243.2508075602
 20
133.3512461726
 10
243.7056009062
 20
133.9359089633
 10
244.0922610064
 20
134.6038813085
 10
244.4076262581
 20
135.349701401
 10
244.6491180154
 20
136.167270896
 10
244.8147616734
 20
137.0499047755
 10
244.9032028142
 20
137.9903860101
 10
244.9137182813
 20
138.9810245697
 10
244.846222093
 20
140.0137203033
 10
244.701266145
 20
141.080029171
 10
244.4800356984
 20
142.1712322884
 10
244.1843396873
 20
143.2784072185
 10
243.8165959284
 20
144.3925009277
 10
243.3798113508
 20
145.5044038095
 10
242.8775574097
 20
146.6050241711
 10
242.3139408832
 20
147.6853625735
 10
241.6935702928
 20
148.7365854173
 10
241.0215182207
 20
149.7500971719
 10
240.303279833
 20
150.717610659
 10
239.544727947
 20
151.6312148142
 10
238.7520650117
 20
152.4834393733
 10
237.9317723915
 20
153.2673159546
 10
237.0905573704
 20
153.9764350368
 10
236.2352983086
 20
154.6049983683
 10
235.3729884002
 20
155.1478663773
 10
234.5106784917
 20
155.6006001966
 10
233.65541943
 20
155.9594979592
 10
232.8142044089
 20
156.2216250667
 10
231.9939117887
 20
156.3848381854
 10
231.2012488533
 20
156.447802771
 10
230.4426969674
 20
156.4100039813
 10
229.7244585796
 20
156.2717508854
 10
229.0524065075
 20
156.034173937
 10
228.4320359171
 20
155.6992157308
 10
227.8684193907
 20
155.2696151185
 10
227.3661654495
 20
154.748884814
 10
226.929380872
 20
154.1412826711
 10
226.5616371131
 20
153.4517768684
 10
226.265941102
 20
152.6860052857
 10
226.0447106553
 20
151.850229405
 10
225.8997547074
 20
150.9512831124
 10
225.8322585191
 20
149.9965168191
 10
225.8427739862
 20
148.9937373596
 10
225.9312151269
 20
147.9511441574
 10
226.096858785
 20
146.8772621811
 10
226.3383505423
 20
145.780872238
 10
226.653715794
 20
144.6709391763
 10
227.0403758941
 20
143.556538582
 10
227.4951692402
 20
142.4467825708
  0
ARC
  5
30C
330
1F
100
AcDbEntity
  8
0
  6
Continuous
 62
     7
370
    35
100
AcDbCircle
 10
230.5284460175
 20
143.7728219254
 30
0.0
 40
3.310460447940263
100
AcDbArc
 50
203.6132163353
 51
226.5241990092
  0
ARC
  5
30D
330
1F
100
AcDbEntity
  8
0
  6
Continuous
 62
     7
370
    35
100
AcDbCircle
 10
225.4084701315
 20
138.3707306558
 30
0.0
 40
4.132438515965412
100
AcDbArc
 50
13.4548453344
 51
46.5451548112
  0
ARC
  5
30E
330
1F
100
AcDbEntity
  8
0
  6
Continuous
 62
     7
370
    35
100
AcDbCircle
 10
232.6469587803
 20
140.1037783512
 30
0.0
 40
3.310623632434712
100
AcDbArc
 50
193.4762656298
 51
216.3864871635
  0
LWPOLYLINE
  5
30F
330
1F
100
AcDbEntity
  8
0
  6
Continuous
 62
     7
370
    35
100
AcDbPolyline
 90
       14
 70
   128
 43
0.0
 10
229.9817950923
 20
138.1398202681
 10
230.7310854482
 20
137.1720223474
 10
231.5199192446
 20
136.2634517469
 10
232.3415765645
 20
135.4218483976
 10
233.189057874
 20
134.6543817495
 10
234.0551436497
 20
133.9675896972
 10
234.9324558806
 20
133.3673228844
 10
235.8135209197
 20
132.8586948637
 10
236.6908331507
 20
132.4460385354
 10
237.5569189264
 20
132.1328692358
 10
238.4044002359
 20
131.9218547915
 10
239.2260575558
 20
131.8147927922
 10
240.0148913521
 20
131.8125952777
 10
240.764181708
 20
131.915280968
  0
LINE
  5
310
330
1F
100
AcDbEntity
  8
0
  6
Continuous
 62
     7
370
    35
100
AcDbLine
 10
253.757764711
 20
116.3639029136
 30
0.0
 11
259.4146189605
 21
119.6295353608
 31
0.0
  0
LINE
  5
311
330
1F
100
AcDbEntity
  8
0
  6
Continuous
 62
     7
370
    35
100
AcDbLine
 10
259.4146189605
 20
155.5573310838
 30
0.0
 11
259.4146189605
 21
119.6295353608
 31
0.0
  0
LWPOLYLINE
  5
312
330
1F
100
AcDbEntity
  8
0
  6
Continuous
 62
     7
370
    35
100
AcDbPolyline
 90
       18
 70
   128
 43
0.0
 10
255.8790850546
 20
140.5741389359
 10
256.0962060216
 20
140.7463485057
 10
256.284003599
 20
140.989036826
 10
256.4171146831
 20
141.2694274942
 10
256.4775618847
 20
141.549652197
 10
256.457181474
 20
141.7918650354
 10
256.3587259386
 20
141.9633538235
 10
256.195492244
 20
142.0409580502
 10
255.9895260052
 20
142.0141968346
 10
255.768644104
 20
141.8866844272
 10
255.5626778652
 20
141.6756420853
 10
255.3994441706
 20
141.4095722464
 10
255.3009886352
 20
141.1244091167
 10
255.2806082245
 20
140.858665557
 10
255.341055426
 20
140.6482317076
 10
255.4741665102
 20
140.5215278258
 10
255.6619640876
 20
140.4956659731
 10
255.8790850546
 20
140.5741389359
  0
LINE
  5
313
330
1F
100
AcDbEntity
  8
0
  6
Continuous
 62
     7
370
    35
100
AcDbLine
 10
219.1095324329
 20
176.3764014356
 30
0.0
 11
224.7663866824
 21
179.6420338829
 31
0.0
  0
LINE
  5
314
330
1F
100
AcDbEntity
  8
0
  6
Continuous
 62
     7
370
    35
100
AcDbLine
 10
224.7663866824
 20
179.6420338829
 30
0.0
 11
255.8790850546
 21
161.6810554228
 31
0.0
  0
LWPOLYLINE
  5
315
330
1F
100
AcDbEntity
  8
0
  6
Continuous
 62
     7
370
    35
100
AcDbPolyline
 90
       25
 70
   128
 43
0.0
 10
238.5196135765
 20
167.4571428139
 10
238.7818293037
 20
167.6544171437
 10
238.9466650009
 20
167.8841479665
 10
239.0028873875
 20
168.1306795062
 10
238.9466650009
 20
168.3772110459
 10
238.7818293037
 20
168.6069418687
 10
238.5196135765
 20
168.8042161985
 10
238.1778873875
 20
168.9555901157
 10
237.7799388119
 20
169.0507477382
 10
237.3528873875
 20
169.0832042311
 10
236.9258359631
 20
169.0507477382
 10
236.5278873875
 20
168.9555901157
 10
236.1861611985
 20
168.8042161985
 10
235.9239454713
 20
168.6069418687
 10
235.7591097741
 20
168.3772110459
 10
235.7028873875
 20
168.1306795062
 10
235.7591097741
 20
167.8841479665
 10
235.9239454713
 20
167.6544171437
 10
236.1861611985
 20
167.4571428139
 10
236.5278873875
 20
167.3057688967
 10
236.9258359631
 20
167.2106112742
 10
237.3528873875
 20
167.1781547813
 10
237.7799388119
 20
167.2106112742
 10
238.1778873875
 20
167.3057688967
 10
238.5196135765
 20
167.4571428139
  0
LWPOLYLINE
  5
316
330
1F
100
AcDbEntity
  8
0
  6
Continuous
 62
     7
370
    35
100
AcDbPolyline
 90
       14
 70
   128
 43
0.0
 10
230.6268386782
 20
156.4287328017
 10
230.4649147779
 20
156.1823029507
 10
230.097171019
 20
155.4927971479
 10
229.8014750079
 20
154.7270255652
 10
229.5802445612
 20
153.8912496846
 10
229.4352886133
 20
152.992303392
 10
229.367792425
 20
152.0375370986
 10
229.3783078921
 20
151.0347576391
 10
229.4667490329
 20
149.992164437
 10
229.6323926909
 20
148.9182824607
 10
229.8738844482
 20
147.8218925176
 10
230.1892496999
 20
146.7119594558
 10
230.5759098
 20
145.5975588615
 10
231.0307031461
 20
144.4878028504
  0
LINE
  5
317
330
1F
100
AcDbEntity
  8
0
  6
Continuous
 62
     7
370
    35
100
AcDbLine
 10
227.4951692402
 20
142.4467825708
 30
0.0
 11
231.0307031461
 21
144.4878028504
 31
0.0
  0
LWPOLYLINE
  5
318
330
1F
100
AcDbEntity
  8
0
  6
Continuous
 62
     7
370
    35
100
AcDbPolyline
 90
       33
 70
   128
 43
0.0
 10
244.4784492334
 20
135.5582159874
 10
243.8960455594
 20
135.3592050875
 10
243.2102193112
 20
135.2362679349
 10
242.484229277
 20
135.2153748775
 10
241.7248538302
 20
135.2967209881
 10
240.9391830549
 20
135.47954676
 10
240.1345525472
 20
135.7621451983
 10
239.3184749255
 20
136.1418777575
 10
238.4985696867
 20
136.6151989769
 10
237.682492065
 20
137.1776895839
 10
236.8778615574
 20
137.8240977553
 10
236.092190782
 20
138.5483881521
 10
235.3328153352
 20
139.3437982701
 10
234.6068253011
 20
140.2029015792
 10
233.9209990528
 20
141.1176768633
 10
233.2817399653
 20
142.0795831121
 10
232.6950166285
 20
143.0796392662
 10
232.1663071201
 20
144.1085080706
 10
231.7005478582
 20
145.1565832545
 10
231.3020875117
 20
146.2140792224
 10
230.9746463974
 20
147.2711224193
 10
230.7212817449
 20
148.3178435177
 10
230.5443591515
 20
149.3444695647
 10
230.4455304959
 20
150.3414152295
 10
230.4257185146
 20
151.2993722991
 10
230.4851081867
 20
152.2093965864
 10
230.6231450069
 20
153.0629914399
 10
230.8385401625
 20
153.8521870743
 10
231.1292825671
 20
154.5696149827
 10
231.4926576372
 20
155.208576734
 10
231.9252726375
 20
155.7631065145
 10
232.4230883585
 20
156.228026829
 10
232.508184498
 20
156.2935694079
  0
LWPOLYLINE
  5
319
330
1F
100
AcDbEntity
  8
0
  6
Continuous
 62
     7
370
    35
100
AcDbPolyline
 90
       13
 70
   128
 43
0.0
 10
233.5173289983
 20
140.1808405477
 10
234.2666193541
 20
139.2130426269
 10
235.0554531505
 20
138.3044720265
 10
235.8771104704
 20
137.4628686771
 10
236.7245917799
 20
136.6954020291
 10
237.5906775556
 20
136.0086099767
 10
238.4679897866
 20
135.4083431639
 10
239.3490548257
 20
134.8997151433
 10
240.2263670566
 20
134.487058815
 10
241.0924528323
 20
134.1738895154
 10
241.9399341418
 20
133.9628750711
 10
242.7615914617
 20
133.8558130718
 10
243.1101148696
 20
133.8419382312
  0
ARC
  5
31A
330
1F
100
AcDbEntity
  8
0
  6
Continuous
 62
     7
370
    35
100
AcDbCircle
 10
236.1824926862
 20
142.1447986308
 30
0.0
 40
3.31062363243584
100
AcDbArc
 50
193.4762656298
 51
216.3864871635
  0
ARC
  5
31B
330
1F
100
AcDbEntity
  8
0
  6
Continuous
 62
     7
370
    35
100
AcDbCircle
 10
228.9440040375
 20
140.4117509354
 30
0.0
 40
4.132438515965394
100
AcDbArc
 50
13.4548453344
 51
46.5451548112
  0
ARC
  5
31C
330
1F
100
AcDbEntity
  8
0
  6
Continuous
 62
     7
370
    35
100
AcDbCircle
 10
234.0639799234
 20
145.8138422049
 30
0.0
 40
3.310460447941082
100
AcDbArc
 50
203.6132163353
 51
226.5241990092
  0
LWPOLYLINE
  5
31D
330
1F
100
AcDbEntity
  8
0
  6
Continuous
 62
     7
370
    35
100
AcDbPolyline
 90
       22
 70
   128
 43
0.0
 10
241.0298426497
 20
137.5917081215
 10
240.2108948742
 20
138.1102195385
 10
239.3995933934
 20
138.7153756127
 10
238.6035131107
 20
139.401526165
 10
237.8300868132
 20
140.1622647925
 10
237.0865357738
 20
140.9904886837
 10
236.3798023282
 20
141.8784649351
 10
235.7164850562
 20
142.8179027519
 10
235.1027771724
 20
143.8000308562
 10
234.5444087021
 20
144.8156793825
 10
234.0465929811
 20
145.8553654942
 10
233.6139779807
 20
146.9093819223
 10
233.2506029107
 20
147.9678875992
 10
232.9598605061
 20
149.0209995427
 10
232.7444653504
 20
150.0588851303
 10
232.6064285302
 20
151.071853904
 10
232.5470388581
 20
152.0504480472
 10
232.5668508394
 20
152.9855306901
 10
232.665679495
 20
153.8683712179
 10
232.8426020884
 20
154.6907267866
 10
233.095966741
 20
155.4449192838
 10
233.3843609779
 20
156.0540291457
  0
ARC
  5
31E
330
1F
100
AcDbEntity
  8
0
  6
Continuous
 62
     7
370
    35
100
AcDbCircle
 10
245.1458051608
 20
144.2658278917
 30
0.0
 40
7.841238556518179
100
AcDbArc
 50
238.3376609467
 51
266.8078785048
  0
ARC
  5
31F
330
1F
100
AcDbEntity
  8
0
  6
Continuous
 62
     7
370
    35
100
AcDbCircle
 10
256.9762529915
 20
119.3538336668
 30
0.0
 40
2.453903018268611
100
AcDbArc
 50
304.8612461169
 51
6.4509342764
  0
ARC
  5
320
330
1F
100
AcDbEntity
  8
0
  6
Continuous
 62
     7
370
    35
100
AcDbCircle
 10
223.2974571153
 20
177.5539076709
 30
0.0
 40
2.553042332283503
100
AcDbArc
 50
54.8748474707
 51
113.8146941002
  0
LINE
  5
321
330
1F
100
AcDbEntity
  8
0
  6
Continuous
 62
     7
370
    35
100
AcDbLine
 10
233.5173289983
 20
140.1808405477
 30
0.0
 11
229.9817950923
 21
138.1398202681
 31
0.0
  0
LINE
  5
322
330
1F
100
AcDbEntity
  8
0
  6
Continuous
 62
     7
370
    35
100
AcDbLine
 10
229.4274880711
 20
139.3322621894
 30
0.0
 11
232.963021977
 21
141.373282469
 31
0.0
  0
LINE
  5
323
330
1F
100
AcDbEntity
  8
0
  6
Continuous
 62
     7
370
    35
100
AcDbLine
 10
231.7862237342
 20
143.4115568097
 30
0.0
 11
228.2506898283
 21
141.3705365302
 31
0.0
  0
SPLINE
  5
324
330
1F
100
AcDbEntity
  8
0
  6
Continuous
 62
     8
370
    35
100
AcDbSpline
210
0.0
220
0.0
230
1.0
 70
     8
 71
     3
 72
    10
 73
     6
 74
     0
 42
0.00000001
 43
0.00000001
 40
0.0
 40
0.0
 40
0.0
 40
0.0
 40
0.2693237904272506
 40
0.7191650250897708
 40
1.0
 40
1.0
 40
1.0
 40
1.0
 10
259.4146189605214
 20
144.8980875369471
 30
0.0
 10
259.4734336506652
 20
145.0125910201685
 30
0.0
 10
259.630484270092
 20
145.3183452955452
 30
0.0
 10
259.6261342992682
 20
145.9497644162726
 30
0.0
 10
259.4733438720808
 20
146.4212677727485
 30
0.0
 10
259.4146189605214
 20
146.602489812759
 30
0.0
  0
SPLINE
  5
325
330
1F
100
AcDbEntity
  8
0
  6
Continuous
 62
     8
370
    35
100
AcDbSpline
210
0.0
220
0.0
230
1.0
 70
     8
 71
     3
 72
    12
 73
     8
 74
     0
 42
0.00000001
 43
0.00000001
 40
0.0
 40
0.0
 40
0.0
 40
0.0
 40
0.1430414318036492
 40
0.3917771579704704
 40
0.6341468423501444
 40
0.8765165267298171
 40
1.0
 40
1.0
 40
1.0
 40
1.0
 10
259.5904623865384
 20
144.770741129756
 30
0.0
 10
259.6900630386203
 20
144.8260690247901
 30
0.0
 10
259.9628599472687
 20
144.9776069757152
 30
0.0
 10
260.1746645650028
 20
145.5599295941801
 30
0.0
 10
260.1721628972377
 20
146.3684792294935
 30
0.0
 10
259.9804460599187
 20
147.1313340739201
 30
0.0
 10
259.7389199840583
 20
147.532972299654
 30
0.0
 10
259.6573996305806
 20
147.668534019089
 30
0.0
  0
SPLINE
  5
326
330
1F
100
AcDbEntity
  8
0
  6
Continuous
 62
     8
370
    35
100
AcDbSpline
210
0.0
220
0.0
230
1.0
 70
     8
 71
     3
 72
    11
 73
     7
 74
     0
 42
0.00000001
 43
0.00000001
 40
0.0
 40
0.0
 40
0.0
 40
0.0
 40
0.1122665122502336
 40
0.4268989237756604
 40
0.73076564967279
 40
1.0
 40
1.0
 40
1.0
 40
1.0
 10
259.4146189605214
 20
144.4559151555555
 30
0.0
 10
259.4443077015119
 20
144.5077183626197
 30
0.0
 10
259.5572005964909
 20
144.7047026003997
 30
0.0
 10
259.6136669538494
 20
145.1740591151538
 30
0.0
 10
259.5903835826489
 20
145.7871329796791
 30
0.0
 10
259.4707983308261
 20
146.2101451608228
 30
0.0
 10
259.4146189605214
 20
146.4088699835383
 30
0.0
  0
LINE
  5
327
330
1F
100
AcDbEntity
  8
0
  6
Continuous
 62
     8
370
    35
100
AcDbLine
 10
235.3729884002
 20
151.4703806224
 30
0.0
 11
232.7613579709
 21
149.9627184671
 31
0.0
  0
LINE
  5
328
330
1F
100
AcDbEntity
  8
0
  6
Continuous
 62
     8
370
    35
100
AcDbLine
 10
242.4952869721
 20
133.1473056354
 30
0.0
 11
243.6009328059
 21
133.7855813892
 31
0.0
  0
LINE
  5
329
330
1F
100
AcDbEntity
  8
0
  6
Continuous
 62
     8
370
    35
100
AcDbLine
 10
240.764181708
 20
131.915280968
 30
0.0
 11
241.1324408973
 21
132.1278724728
 31
0.0
  0
ENDSEC
  0
SECTION
  2
OBJECTS
  0
DICTIONARY
  5
C
330
0
100
AcDbDictionary
281
     1
  3
ACAD_GROUP
350
D
  3
ACAD_LAYOUT
350
1A
  3
ACAD_MLINESTYLE
350
17
  3
ACAD_PLOTSETTINGS
350
19
  3
ACAD_PLOTSTYLENAME
350
E
  3
ACAD_SCALELIST
350
47
  3
DWGPROPS
350
32A
  0
DICTIONARY
  5
D
102
{ACAD_REACTORS
330
C
102
}
330
C
100
AcDbDictionary
281
     1
  0
DICTIONARY
  5
1A
102
{ACAD_REACTORS
330
C
102
}
330
C
100
AcDbDictionary
281
     1
  3
Layout1
350
1E
  3
Layout2
350
26
  3
Model
350
22
  0
DICTIONARY
  5
17
102
{ACAD_REACTORS
330
C
102
}
330
C
100
AcDbDictionary
281
     1
  3
Standard
350
18
  0
DICTIONARY
  5
19
102
{ACAD_REACTORS
330
C
102
}
330
C
100
AcDbDictionary
281
     1
  0
ACDBDICTIONARYWDFLT
  5
E
102
{ACAD_REACTORS
330
C
102
}
330
C
100
AcDbDictionary
281
     1
  3
Normal
350
F
100
AcDbDictionaryWithDefault
340
F
  0
DICTIONARY
  5
47
102
{ACAD_REACTORS
330
C
102
}
330
C
100
AcDbDictionary
281
     1
  3
A0
350
48
  3
A1
350
49
  3
A2
350
4A
  3
A3
350
4B
  3
A4
350
4C
  3
A5
350
4D
  3
A6
350
4E
  3
A7
350
4F
  3
A8
350
50
  3
A9
350
51
  3
B0
350
52
  3
B1
350
53
  3
B2
350
54
  3
B3
350
55
  3
B4
350
56
  3
B5
350
57
  3
B6
350
58
  3
B7
350
59
  3
B8
350
5A
  3
B9
350
5B
  3
C0
350
5C
  3
C1
350
5D
  3
C2
350
5E
  3
C3
350
5F
  3
C4
350
60
  3
C5
350
61
  3
C6
350
62
  3
C7
350
63
  3
C8
350
64
  3
C9
350
65
  3
D0
350
66
  3
D1
350
67
  3
D2
350
68
  0
XRECORD
  5
32A
102
{ACAD_REACTORS
330
C
102
}
330
C
100
AcDbXrecord
280
     1
  1
DWGPROPS COOKIE
  2

  3

  4

  6

  7

  8
R2591
  9

300
=
301
=
302
=
303
=
304
=
305
=
306
=
307
=
308
=
309
=
 40
0.0
 41
2459781.129930533
 42
2459781.129945046
  1

 90
        0
  0
LAYOUT
  5
1E
102
{ACAD_REACTORS
330
1A
102
}
330
1A
100
AcDbPlotSettings
  1

  2
none_device
  4

  6

 40
0.0
 41
0.0
 42
0.0
 43
0.0
 44
0.0
 45
0.0
 46
0.0
 47
0.0
 48
0.0
 49
0.0
140
0.0
141
0.0
142
1.0
143
1.0
 70
   688
 72
     1
 73
     0
 74
     5
  7

 75
    16
147
1.0
148
0.0
149
0.0
100
AcDbLayout
  1
Layout1
 70
     1
 71
     1
 10
0.0
 20
0.0
 11
420.0
 21
297.0
 12
0.0
 22
0.0
 32
0.0
 14
1.0000000000E+20
 24
1.0000000000E+20
 34
1.0000000000E+20
 15
-1.0000000000E+20
 25
-1.0000000000E+20
 35
-1.0000000000E+20
146
0.0
 13
0.0
 23
0.0
 33
0.0
 16
1.0
 26
0.0
 36
0.0
 17
0.0
 27
1.0
 37
0.0
 76
     0
330
1B
  0
LAYOUT
  5
26
102
{ACAD_REACTORS
330
1A
102
}
330
1A
100
AcDbPlotSettings
  1

  2
none_device
  4

  6

 40
0.0
 41
0.0
 42
0.0
 43
0.0
 44
0.0
 45
0.0
 46
0.0
 47
0.0
 48
0.0
 49
0.0
140
0.0
141
0.0
142
1.0
143
1.0
 70
   688
 72
     1
 73
     0
 74
     5
  7

 75
    16
147
1.0
148
0.0
149
0.0
100
AcDbLayout
  1
Layout2
 70
     1
 71
     2
 10
0.0
 20
0.0
 11
0.0
 21
0.0
 12
0.0
 22
0.0
 32
0.0
 14
0.0
 24
0.0
 34
0.0
 15
0.0
 25
0.0
 35
0.0
146
0.0
 13
0.0
 23
0.0
 33
0.0
 16
1.0
 26
0.0
 36
0.0
 17
0.0
 27
1.0
 37
0.0
 76
     0
330
23
  0
LAYOUT
  5
22
102
{ACAD_REACTORS
330
1A
102
}
330
1A
100
AcDbPlotSettings
  1

  2
none_device
  4
Letter_(8.50_x_11.00_Inches)
  6

 40
6.35
 41
6.35
 42
6.35000508
 43
6.35000508
 44
215.9
 45
279.4
 46
0.0
 47
0.0
 48
0.0
 49
0.0
140
0.0
141
0.0
142
1.0
143
1.0
 70
  1712
 72
     1
 73
     0
 74
     0
  7

 75
     0
147
1.0
148
0.0
149
0.0
100
AcDbLayout
  1
Model
 70
     1
 71
     0
 10
0.0
 20
0.0
 11
297.0
 21
210.0
 12
0.0
 22
0.0
 32
0.0
 14
0.0
 24
0.0
 34
0.0
 15
297.0
 25
210.0
 35
0.0
146
0.0
 13
0.0
 23
0.0
 33
0.0
 16
1.0
 26
0.0
 36
0.0
 17
0.0
 27
1.0
 37
0.0
 76
     0
330
1F
331
29
  0
MLINESTYLE
  5
18
102
{ACAD_REACTORS
330
17
102
}
330
17
100
AcDbMlineStyle
  2
Standard
 70
     0
  3

 62
   256
 51
90.0
 52
90.0
 71
     2
 49
0.5
 62
   256
  6
BYLAYER
 49
-0.5
 62
   256
  6
BYLAYER
  0
ACDBPLACEHOLDER
  5
F
102
{ACAD_REACTORS
330
E
102
}
330
E
  0
SCALE
  5
48
102
{ACAD_REACTORS
330
47
102
}
330
47
100
AcDbScale
 70
     0
300
1:1
140
1.0
141
1.0
290
     1
  0
SCALE
  5
49
102
{ACAD_REACTORS
330
47
102
}
330
47
100
AcDbScale
 70
     0
300
1:2
140
1.0
141
2.0
290
     0
  0
SCALE
  5
4A
102
{ACAD_REACTORS
330
47
102
}
330
47
100
AcDbScale
 70
     0
300
1:4
140
1.0
141
4.0
290
     0
  0
SCALE
  5
4B
102
{ACAD_REACTORS
330
47
102
}
330
47
100
AcDbScale
 70
     0
300
1:5
140
1.0
141
5.0
290
     0
  0
SCALE
  5
4C
102
{ACAD_REACTORS
330
47
102
}
330
47
100
AcDbScale
 70
     0
300
1:8
140
1.0
141
8.0
290
     0
  0
SCALE
  5
4D
102
{ACAD_REACTORS
330
47
102
}
330
47
100
AcDbScale
 70
     0
300
1:10
140
1.0
141
10.0
290
     0
  0
SCALE
  5
4E
102
{ACAD_REACTORS
330
47
102
}
330
47
100
AcDbScale
 70
     0
300
1:16
140
1.0
141
16.0
290
     0
  0
SCALE
  5
4F
102
{ACAD_REACTORS
330
47
102
}
330
47
100
AcDbScale
 70
     0
300
1:20
140
1.0
141
20.0
290
     0
  0
SCALE
  5
50
102
{ACAD_REACTORS
330
47
102
}
330
47
100
AcDbScale
 70
     0
300
1:30
140
1.0
141
30.0
290
     0
  0
SCALE
  5
51
102
{ACAD_REACTORS
330
47
102
}
330
47
100
AcDbScale
 70
     0
300
1:40
140
1.0
141
40.0
290
     0
  0
SCALE
  5
52
102
{ACAD_REACTORS
330
47
102
}
330
47
100
AcDbScale
 70
     0
300
1:50
140
1.0
141
50.0
290
     0
  0
SCALE
  5
53
102
{ACAD_REACTORS
330
47
102
}
330
47
100
AcDbScale
 70
     0
300
1:100
140
1.0
141
100.0
290
     0
  0
SCALE
  5
54
102
{ACAD_REACTORS
330
47
102
}
330
47
100
AcDbScale
 70
     0
300
2:1
140
2.0
141
1.0
290
     0
  0
SCALE
  5
55
102
{ACAD_REACTORS
330
47
102
}
330
47
100
AcDbScale
 70
     0
300
4:1
140
4.0
141
1.0
290
     0
  0
SCALE
  5
56
102
{ACAD_REACTORS
330
47
102
}
330
47
100
AcDbScale
 70
     0
300
8:1
140
8.0
141
1.0
290
     0
  0
SCALE
  5
57
102
{ACAD_REACTORS
330
47
102
}
330
47
100
AcDbScale
 70
     0
300
10:1
140
10.0
141
1.0
290
     0
  0
SCALE
  5
58
102
{ACAD_REACTORS
330
47
102
}
330
47
100
AcDbScale
 70
     0
300
100:1
140
100.0
141
1.0
290
     0
  0
SCALE
  5
59
102
{ACAD_REACTORS
330
47
102
}
330
47
100
AcDbScale
 70
     0
300
1/128" = 1'-0"
140
0.0078125
141
12.0
290
     0
  0
SCALE
  5
5A
102
{ACAD_REACTORS
330
47
102
}
330
47
100
AcDbScale
 70
     0
300
1/64" = 1'-0"
140
0.015625
141
12.0
290
     0
  0
SCALE
  5
5B
102
{ACAD_REACTORS
330
47
102
}
330
47
100
AcDbScale
 70
     0
300
1/32" = 1'-0"
140
0.03125
141
12.0
290
     0
  0
SCALE
  5
5C
102
{ACAD_REACTORS
330
47
102
}
330
47
100
AcDbScale
 70
     0
300
1/16" = 1'-0"
140
0.0625
141
12.0
290
     0
  0
SCALE
  5
5D
102
{ACAD_REACTORS
330
47
102
}
330
47
100
AcDbScale
 70
     0
300
3/32" = 1'-0"
140
0.09375
141
12.0
290
     0
  0
SCALE
  5
5E
102
{ACAD_REACTORS
330
47
102
}
330
47
100
AcDbScale
 70
     0
300
1/8" = 1'-0"
140
0.125
141
12.0
290
     0
  0
SCALE
  5
5F
102
{ACAD_REACTORS
330
47
102
}
330
47
100
AcDbScale
 70
     0
300
3/16" = 1'-0"
140
0.1875
141
12.0
290
     0
  0
SCALE
  5
60
102
{ACAD_REACTORS
330
47
102
}
330
47
100
AcDbScale
 70
     0
300
1/4" = 1'-0"
140
0.25
141
12.0
290
     0
  0
SCALE
  5
61
102
{ACAD_REACTORS
330
47
102
}
330
47
100
AcDbScale
 70
     0
300
3/8" = 1'-0"
140
0.375
141
12.0
290
     0
  0
SCALE
  5
62
102
{ACAD_REACTORS
330
47
102
}
330
47
100
AcDbScale
 70
     0
300
1/2" = 1'-0"
140
0.5
141
12.0
290
     0
  0
SCALE
  5
63
102
{ACAD_REACTORS
330
47
102
}
330
47
100
AcDbScale
 70
     0
300
3/4" = 1'-0"
140
0.75
141
12.0
290
     0
  0
SCALE
  5
64
102
{ACAD_REACTORS
330
47
102
}
330
47
100
AcDbScale
 70
     0
300
1" = 1'-0"
140
1.0
141
12.0
290
     0
  0
SCALE
  5
65
102
{ACAD_REACTORS
330
47
102
}
330
47
100
AcDbScale
 70
     0
300
1-1/2" = 1'-0"
140
1.5
141
12.0
290
     0
  0
SCALE
  5
66
102
{ACAD_REACTORS
330
47
102
}
330
47
100
AcDbScale
 70
     0
300
3" = 1'-0"
140
3.0
141
12.0
290
     0
  0
SCALE
  5
67
102
{ACAD_REACTORS
330
47
102
}
330
47
100
AcDbScale
 70
     0
300
6" = 1'-0"
140
6.0
141
12.0
290
     0
  0
SCALE
  5
68
102
{ACAD_REACTORS
330
47
102
}
330
47
100
AcDbScale
 70
     0
300
1'-0" = 1'-0"
140
12.0
141
12.0
290
     0
  0
ENDSEC
  0
EOF
