  0
SECTION
  2
HEADER
  9
$ACADVER
  1
AC1015
  9
$ACADMAINTVER
 70
     6
  9
$DWGCODEPAGE
  3
ANSI_950
  9
$INSBASE
 10
0.0
 20
0.0
 30
0.0
  9
$EXTMIN
 10
0.0
 20
0.0
 30
0.0
  9
$EXTMAX
 10
148.5
 20
105.0
 30
0.0
  9
$LIMMIN
 10
0.0
 20
0.0
  9
$LIMMAX
 10
148.5
 20
105.0
  9
$ORTHOMODE
 70
     0
  9
$REGENMODE
 70
     1
  9
$FILLMODE
 70
     1
  9
$QTEXTMODE
 70
     0
  9
$MIRRTEXT
 70
     1
  9
$LTSCALE
 40
0.5
  9
$ATTMODE
 70
     1
  9
$TEXTSIZE
 40
1.5875
  9
$TRACEWID
 40
1.0
  9
$TEXTSTYLE
  7
Standard
  9
$CLAYER
  8
0
  9
$CELTYPE
  6
ByLayer
  9
$CECOLOR
 62
   256
  9
$CELTSCALE
 40
1.0
  9
$DISPSILH
 70
     0
  9
$DIMSCALE
 40
1.0
  9
$DIMASZ
 40
1.0
  9
$DIMEXO
 40
0.5
  9
$DIMDLI
 40
3.75
  9
$DIMRND
 40
0.0
  9
$DIMDLE
 40
0.0
  9
$DIMEXE
 40
0.5
  9
$DIMTP
 40
0.0
  9
$DIMTM
 40
0.0
  9
$DIMTXT
 40
1.5875
  9
$DIMCEN
 40
2.5
  9
$DIMTSZ
 40
0.0
  9
$DIMTOL
 70
     0
  9
$DIMLIM
 70
     0
  9
$DIMTIH
 70
     1
  9
$DIMTOH
 70
     1
  9
$DIMSE1
 70
     0
  9
$DIMSE2
 70
     0
  9
$DIMTAD
 70
     1
  9
$DIMZIN
 70
     0
  9
$DIMBLK
  1

  9
$DIMASO
 70
     1
  9
$DIMSHO
 70
     1
  9
$DIMPOST
  1

  9
$DIMAPOST
  1

  9
$DIMALT
 70
     0
  9
$DIMALTD
 70
     3
  9
$DIMALTF
 40
0.0393700787
  9
$DIMLFAC
 40
1.0
  9
$DIMTOFL
 70
     1
  9
$DIMTVP
 40
0.0
  9
$DIMTIX
 70
     0
  9
$DIMSOXD
 70
     0
  9
$DIMSAH
 70
     0
  9
$DIMBLK1
  1

  9
$DIMBLK2
  1

  9
$DIMSTYLE
  2
ISO-25
  9
$DIMCLRD
 70
     0
  9
$DIMCLRE
 70
     0
  9
$DIMCLRT
 70
     0
  9
$DIMTFAC
 40
1.0
  9
$DIMGAP
 40
0.5
  9
$DIMJUST
 70
     0
  9
$DIMSD1
 70
     0
  9
$DIMSD2
 70
     0
  9
$DIMTOLJ
 70
     0
  9
$DIMTZIN
 70
     0
  9
$DIMALTZ
 70
     0
  9
$DIMALTTZ
 70
     0
  9
$DIMUPT
 70
     0
  9
$DIMDEC
 70
     2
  9
$DIMTDEC
 70
     2
  9
$DIMALTU
 70
     2
  9
$DIMALTTD
 70
     3
  9
$DIMTXSTY
  7
Standard
  9
$DIMAUNIT
 70
     0
  9
$DIMADEC
 70
     2
  9
$DIMALTRND
 40
0.0
  9
$DIMAZIN
 70
     0
  9
$DIMDSEP
 70
    44
  9
$DIMATFIT
 70
     3
  9
$DIMFRAC
 70
     0
  9
$DIMLDRBLK
  1

  9
$DIMLUNIT
 70
     2
  9
$DIMLWD
 70
    -2
  9
$DIMLWE
 70
    -2
  9
$DIMTMOVE
 70
     0
  9
$LUNITS
 70
     2
  9
$LUPREC
 70
     2
  9
$SKETCHINC
 40
1.0
  9
$FILLETRAD
 40
10.0
  9
$AUNITS
 70
     0
  9
$AUPREC
 70
     2
  9
$MENU
  1
.
  9
$ELEVATION
 40
0.0
  9
$PELEVATION
 40
0.0
  9
$THICKNESS
 40
0.0
  9
$LIMCHECK
 70
     0
  9
$CHAMFERA
 40
0.0
  9
$CHAMFERB
 40
0.0
  9
$CHAMFERC
 40
0.0
  9
$CHAMFERD
 40
0.0
  9
$SKPOLY
 70
     0
  9
$TDCREATE
 40
2458439.463016759
  9
$TDUCREATE
 40
2458439.129683426
  9
$TDUPDATE
 40
2458439.463021273
  9
$TDUUPDATE
 40
2458439.12968794
  9
$TDINDWG
 40
0.0000000116
  9
$TDUSRTIMER
 40
0.0000000116
  9
$USRTIMER
 70
     1
  9
$ANGBASE
 50
0.0
  9
$ANGDIR
 70
     0
  9
$PDMODE
 70
     0
  9
$PDSIZE
 40
-1.0
  9
$PLINEWID
 40
0.0
  9
$SPLFRAME
 70
     0
  9
$SPLINETYPE
 70
     6
  9
$SPLINESEGS
 70
     8
  9
$HANDSEED
  5
1AA
  9
$SURFTAB1
 70
     6
  9
$SURFTAB2
 70
     6
  9
$SURFTYPE
 70
     6
  9
$SURFU
 70
     6
  9
$SURFV
 70
     6
  9
$UCSBASE
  2

  9
$UCSNAME
  2

  9
$UCSORG
 10
0.0
 20
0.0
 30
0.0
  9
$UCSXDIR
 10
1.0
 20
0.0
 30
0.0
  9
$UCSYDIR
 10
0.0
 20
1.0
 30
0.0
  9
$UCSORTHOREF
  2

  9
$UCSORTHOVIEW
 70
     0
  9
$UCSORGTOP
 10
0.0
 20
0.0
 30
0.0
  9
$UCSORGBOTTOM
 10
0.0
 20
0.0
 30
0.0
  9
$UCSORGLEFT
 10
0.0
 20
0.0
 30
0.0
  9
$UCSORGRIGHT
 10
0.0
 20
0.0
 30
0.0
  9
$UCSORGFRONT
 10
0.0
 20
0.0
 30
0.0
  9
$UCSORGBACK
 10
0.0
 20
0.0
 30
0.0
  9
$PUCSBASE
  2

  9
$PUCSNAME
  2

  9
$PUCSORG
 10
0.0
 20
0.0
 30
0.0
  9
$PUCSXDIR
 10
1.0
 20
0.0
 30
0.0
  9
$PUCSYDIR
 10
0.0
 20
1.0
 30
0.0
  9
$PUCSORTHOREF
  2

  9
$PUCSORTHOVIEW
 70
     0
  9
$PUCSORGTOP
 10
0.0
 20
0.0
 30
0.0
  9
$PUCSORGBOTTOM
 10
0.0
 20
0.0
 30
0.0
  9
$PUCSORGLEFT
 10
0.0
 20
0.0
 30
0.0
  9
$PUCSORGRIGHT
 10
0.0
 20
0.0
 30
0.0
  9
$PUCSORGFRONT
 10
0.0
 20
0.0
 30
0.0
  9
$PUCSORGBACK
 10
0.0
 20
0.0
 30
0.0
  9
$USERI1
 70
     0
  9
$USERI2
 70
     0
  9
$USERI3
 70
     0
  9
$USERI4
 70
     0
  9
$USERI5
 70
     0
  9
$USERR1
 40
0.0
  9
$USERR2
 40
0.0
  9
$USERR3
 40
0.0
  9
$USERR4
 40
0.0
  9
$USERR5
 40
0.0
  9
$WORLDVIEW
 70
     1
  9
$SHADEDGE
 70
     3
  9
$SHADEDIF
 70
    70
  9
$TILEMODE
 70
     1
  9
$MAXACTVP
 70
    64
  9
$PINSBASE
 10
0.0
 20
0.0
 30
0.0
  9
$PLIMCHECK
 70
     0
  9
$PEXTMIN
 10
1.0000000000E+20
 20
1.0000000000E+20
 30
1.0000000000E+20
  9
$PEXTMAX
 10
-1.0000000000E+20
 20
-1.0000000000E+20
 30
-1.0000000000E+20
  9
$PLIMMIN
 10
0.0
 20
0.0
  9
$PLIMMAX
 10
420.0
 20
297.0
  9
$UNITMODE
 70
     0
  9
$VISRETAIN
 70
     1
  9
$PLINEGEN
 70
     0
  9
$PSLTSCALE
 70
     1
  9
$TREEDEPTH
 70
  3020
  9
$CMLSTYLE
  2
Standard
  9
$CMLJUST
 70
     0
  9
$CMLSCALE
 40
20.0
  9
$PROXYGRAPHICS
 70
     1
  9
$MEASUREMENT
 70
     1
  9
$CELWEIGHT
370
    -1
  9
$ENDCAPS
280
     0
  9
$JOINSTYLE
280
     0
  9
$LWDISPLAY
290
     1
  9
$INSUNITS
 70
     4
  9
$HYPERLINKBASE
  1

  9
$STYLESHEET
  1

  9
$XEDIT
290
     1
  9
$CEPSNTYPE
380
     0
  9
$PSTYLEMODE
290
     1
  9
$FINGERPRINTGUID
  2
{F7A43D65-BEA0-47E1-8E0A-0A96E6C36FAE}
  9
$VERSIONGUID
  2
{FAEB1C32-E019-11D5-929B-00C0DF256EC4}
  9
$EXTNAMES
290
     1
  9
$PSVPSCALE
 40
0.0
  9
$OLESTARTUP
290
     0
  0
ENDSEC
  0
SECTION
  2
CLASSES
  0
CLASS
  1
ACDBDICTIONARYWDFLT
  2
AcDbDictionaryWithDefault
  3
ObjectDBX Classes
 90
        0
280
     0
281
     0
  0
CLASS
  1
VISUALSTYLE
  2
AcDbVisualStyle
  3
ObjectDBX Classes
 90
     4095
280
     0
281
     0
  0
CLASS
  1
MATERIAL
  2
AcDbMaterial
  3
ObjectDBX Classes
 90
     1153
280
     0
281
     0
  0
CLASS
  1
SCALE
  2
AcDbScale
  3
ObjectDBX Classes
 90
     1153
280
     0
281
     0
  0
CLASS
  1
TABLESTYLE
  2
AcDbTableStyle
  3
ObjectDBX Classes
 90
     4095
280
     0
281
     0
  0
CLASS
  1
MLEADERSTYLE
  2
AcDbMLeaderStyle
  3
ACDB_MLEADERSTYLE_CLASS
 90
     4095
280
     0
281
     0
  0
CLASS
  1
SUN
  2
AcDbSun
  3
SCENEOE
 90
     1153
280
     0
281
     0
  0
CLASS
  1
ACDBPLACEHOLDER
  2
AcDbPlaceHolder
  3
ObjectDBX Classes
 90
        0
280
     0
281
     0
  0
CLASS
  1
LAYOUT
  2
AcDbLayout
  3
ObjectDBX Classes
 90
        0
280
     0
281
     0
  0
ENDSEC
  0
SECTION
  2
TABLES
  0
TABLE
  2
VPORT
  5
8
330
0
100
AcDbSymbolTable
 70
     1
  0
VPORT
  5
29
330
8
100
AcDbSymbolTableRecord
100
AcDbViewportTableRecord
  2
*Active
 70
     0
 10
0.0
 20
0.0
 11
1.0
 21
1.0
 12
74.25
 22
52.5
 13
0.0
 23
0.0
 14
10.0
 24
10.0
 15
10.0
 25
10.0
 16
0.0
 26
0.0
 36
1.0
 17
0.0
 27
0.0
 37
0.0
 40
105.0
 41
1.4142857143
 42
50.0
 43
0.0
 44
0.0
 50
0.0
 51
0.0
 71
     0
 72
  2000
 73
     1
 74
     3
 75
     0
 76
     0
 77
     0
 78
     0
281
     0
 65
     1
110
0.0
120
0.0
130
0.0
111
1.0
121
0.0
131
0.0
112
0.0
122
1.0
132
0.0
 79
     0
146
0.0
  0
ENDTAB
  0
TABLE
  2
LTYPE
  5
5
330
0
100
AcDbSymbolTable
 70
     6
  0
LTYPE
  5
14
330
5
100
AcDbSymbolTableRecord
100
AcDbLinetypeTableRecord
  2
ByBlock
 70
     0
  3

 72
    65
 73
     0
 40
0.0
  0
LTYPE
  5
15
330
5
100
AcDbSymbolTableRecord
100
AcDbLinetypeTableRecord
  2
ByLayer
 70
     0
  3

 72
    65
 73
     0
 40
0.0
  0
LTYPE
  5
16
330
5
100
AcDbSymbolTableRecord
100
AcDbLinetypeTableRecord
  2
Continuous
 70
     0
  3
Solid line
 72
    65
 73
     0
 40
0.0
  0
LTYPE
  5
6E
330
5
100
AcDbSymbolTableRecord
100
AcDbLinetypeTableRecord
  2
HIDDEN
 70
     0
  3
Hidden __ __ __ __ __ __ __ __ __ __ __ __ __ __
 72
    65
 73
     2
 40
1.905
 49
1.27
 74
     0
 49
-0.635
 74
     0
  0
LTYPE
  5
6F
330
5
100
AcDbSymbolTableRecord
100
AcDbLinetypeTableRecord
  2
PHANTOM
 70
     0
  3
Phantom ______  __  __  ______  __  __  ______
 72
    65
 73
     6
 40
12.7
 49
6.35
 74
     0
 49
-1.27
 74
     0
 49
1.27
 74
     0
 49
-1.27
 74
     0
 49
1.27
 74
     0
 49
-1.27
 74
     0
  0
LTYPE
  5
70
330
5
100
AcDbSymbolTableRecord
100
AcDbLinetypeTableRecord
  2
CENTER
 70
     0
  3
Center ____ _ ____ _ ____ _ ____ _ ____ _ ____
 72
    65
 73
     4
 40
10.16
 49
6.35
 74
     0
 49
-1.27
 74
     0
 49
1.27
 74
     0
 49
-1.27
 74
     0
  0
LTYPE
  5
71
330
5
100
AcDbSymbolTableRecord
100
AcDbLinetypeTableRecord
  2
CENTERX2
 70
     0
  3
Center (2x) ________  __  ________  __  _____
 72
    65
 73
     4
 40
20.32
 49
12.7
 74
     0
 49
-2.54
 74
     0
 49
2.54
 74
     0
 49
-2.54
 74
     0
  0
LTYPE
  5
72
330
5
100
AcDbSymbolTableRecord
100
AcDbLinetypeTableRecord
  2
DOT2
 70
     0
  3
Dot (.5x) ........................................
 72
    65
 73
     2
 40
0.635
 49
0.0
 74
     0
 49
-0.635
 74
     0
  0
ENDTAB
  0
TABLE
  2
LAYER
  5
2
330
0
100
AcDbSymbolTable
 70
    10
  0
LAYER
  5
10
330
2
100
AcDbSymbolTableRecord
100
AcDbLayerTableRecord
  2
0
 70
     0
 62
     7
  6
Continuous
370
    -3
390
F
  0
LAYER
  5
73
330
2
100
AcDbSymbolTableRecord
100
AcDbLayerTableRecord
  2
SLD-0
 70
     0
 62
     7
  6
Continuous
370
    15
390
F
  0
LAYER
  5
74
330
2
100
AcDbSymbolTableRecord
100
AcDbLayerTableRecord
  2
輪廓線
 70
     0
 62
   219
  6
Continuous
370
    15
390
F
  0
LAYER
  5
75
330
2
100
AcDbSymbolTableRecord
100
AcDbLayerTableRecord
  2
DIM
 70
     0
 62
     7
  6
Continuous
370
    -3
390
F
  0
LAYER
  5
76
330
2
100
AcDbSymbolTableRecord
100
AcDbLayerTableRecord
  2
中心線
 70
     0
 62
     7
  6
CENTERX2
370
    -3
390
F
  0
LAYER
  5
77
330
2
100
AcDbSymbolTableRecord
100
AcDbLayerTableRecord
  2
虛線
 70
     0
 62
     7
  6
HIDDEN
370
    -3
390
F
  0
LAYER
  5
78
330
2
100
AcDbSymbolTableRecord
100
AcDbLayerTableRecord
  2
SECTION
 70
     0
 62
     7
  6
PHANTOM
370
    15
390
F
  0
LAYER
  5
79
330
2
100
AcDbSymbolTableRecord
100
AcDbLayerTableRecord
  2
假想線
 70
     0
 62
     7
  6
PHANTOM
370
    -3
390
F
  0
LAYER
  5
7A
330
2
100
AcDbSymbolTableRecord
100
AcDbLayerTableRecord
  2
圖層_1
 70
     0
 62
   179
  6
Continuous
370
    -3
390
F
  0
LAYER
  5
7B
330
2
100
AcDbSymbolTableRecord
100
AcDbLayerTableRecord
  2
工作區域參考線
 70
     0
 62
   179
  6
Continuous
370
    -3
390
F
  0
ENDTAB
  0
TABLE
  2
STYLE
  5
3
330
0
100
AcDbSymbolTable
 70
     3
  0
STYLE
  5
11
330
3
100
AcDbSymbolTableRecord
100
AcDbTextStyleTableRecord
  2
Standard
 70
     0
 40
0.0
 41
1.0
 50
0.0
 71
     0
 42
1.5875
  3
txt
  4

  0
STYLE
  5
CC
330
3
100
AcDbSymbolTableRecord
100
AcDbTextStyleTableRecord
  2
SLDTEXTSTYLE0
 70
     0
 40
0.0
 41
0.605
 50
0.0
 71
     0
 42
1.5875
  3
TXT
  4

  0
STYLE
  5
103
330
3
100
AcDbSymbolTableRecord
100
AcDbTextStyleTableRecord
  2
SLDTEXTSTYLE1
 70
     0
 40
0.0
 41
0.7
 50
0.0
 71
     0
 42
1.5875
  3
TXT
  4

  0
ENDTAB
  0
TABLE
  2
VIEW
  5
6
330
0
100
AcDbSymbolTable
 70
     0
  0
ENDTAB
  0
TABLE
  2
UCS
  5
7
330
0
100
AcDbSymbolTable
 70
     0
  0
ENDTAB
  0
TABLE
  2
APPID
  5
9
330
0
100
AcDbSymbolTable
 70
     1
  0
APPID
  5
12
330
9
100
AcDbSymbolTableRecord
100
AcDbRegAppTableRecord
  2
ACAD
 70
     0
  0
ENDTAB
  0
TABLE
  2
DIMSTYLE
  5
A
330
0
100
AcDbSymbolTable
 70
     3
100
AcDbDimStyleTable
  0
DIMSTYLE
105
27
330
A
100
AcDbSymbolTableRecord
100
AcDbDimStyleTableRecord
  2
ISO-25
 70
     0
 41
2.5
 42
0.625
 43
3.75
 44
1.25
 73
     0
 74
     0
 77
     1
 78
     8
140
2.5
141
2.5
143
0.0393700787
147
0.625
171
     3
172
     1
178
     0
271
     2
272
     2
274
     3
278
    44
283
     0
284
     8
340
11
  0
DIMSTYLE
105
112
102
{ACAD_REACTORS
330
111
102
}
330
A
100
AcDbSymbolTableRecord
100
AcDbDimStyleTableRecord
  2
SLDDIMSTYLE0
 70
     0
 41
1.0
 44
0.0
 45
0.000000001
 78
    12
 79
     3
140
1.2712402344
141
0.0
147
0.3178100586
173
     1
178
     0
271
     2
272
     2
276
     2
284
    12
340
103
  0
DIMSTYLE
105
151
102
{ACAD_REACTORS
330
150
330
15C
330
166
330
170
330
17A
330
184
102
}
330
A
100
AcDbSymbolTableRecord
100
AcDbDimStyleTableRecord
  2
SLDDIMSTYLE1
 70
     0
 41
1.0
 44
0.0
 45
0.000000001
 73
     0
 74
     0
 77
     1
 78
    12
 79
     3
140
1.2712402344
147
0.3178100586
173
     1
178
     0
271
     2
272
     2
276
     2
284
    12
340
103
  0
ENDTAB
  0
TABLE
  2
BLOCK_RECORD
  5
1
330
0
100
AcDbSymbolTable
 70
    12
  0
BLOCK_RECORD
  5
1F
330
1
100
AcDbSymbolTableRecord
100
AcDbBlockTableRecord
  2
*Model_Space
340
22
  0
BLOCK_RECORD
  5
1B
330
1
100
AcDbSymbolTableRecord
100
AcDbBlockTableRecord
  2
*Paper_Space
340
1E
  0
BLOCK_RECORD
  5
23
330
1
100
AcDbSymbolTableRecord
100
AcDbBlockTableRecord
  2
*Paper_Space0
340
26
  0
BLOCK_RECORD
  5
7C
330
1
100
AcDbSymbolTableRecord
100
AcDbBlockTableRecord
  2
圖塊6
340
0
102
{BLKREFS
331
CB
102
}
  0
BLOCK_RECORD
  5
CE
330
1
100
AcDbSymbolTableRecord
100
AcDbBlockTableRecord
  2
SW_NOTE_0
340
0
102
{BLKREFS
331
D4
102
}
  0
BLOCK_RECORD
  5
105
330
1
100
AcDbSymbolTableRecord
100
AcDbBlockTableRecord
  2
SW_NOTE_1
340
0
102
{BLKREFS
331
10A
102
}
  0
BLOCK_RECORD
  5
113
330
1
100
AcDbSymbolTableRecord
100
AcDbBlockTableRecord
  2
_D
340
0
  0
BLOCK_RECORD
  5
11C
330
1
100
AcDbSymbolTableRecord
100
AcDbBlockTableRecord
  2
SW_CENTERMARKSYMBOL_0
340
0
102
{BLKREFS
331
127
102
}
  0
BLOCK_RECORD
  5
152
330
1
100
AcDbSymbolTableRecord
100
AcDbBlockTableRecord
  2
_D_1
340
0
  0
BLOCK_RECORD
  5
15D
330
1
100
AcDbSymbolTableRecord
100
AcDbBlockTableRecord
  2
_D_2
340
0
  0
BLOCK_RECORD
  5
167
330
1
100
AcDbSymbolTableRecord
100
AcDbBlockTableRecord
  2
_D_3
340
0
  0
BLOCK_RECORD
  5
171
330
1
100
AcDbSymbolTableRecord
100
AcDbBlockTableRecord
  2
_D_4
340
0
  0
BLOCK_RECORD
  5
17B
330
1
100
AcDbSymbolTableRecord
100
AcDbBlockTableRecord
  2
_D_5
340
0
  0
BLOCK_RECORD
  5
185
330
1
100
AcDbSymbolTableRecord
100
AcDbBlockTableRecord
  2
_D_6
340
0
  0
ENDTAB
  0
ENDSEC
  0
SECTION
  2
BLOCKS
  0
BLOCK
  5
20
330
1F
100
AcDbEntity
  8
0
100
AcDbBlockBegin
  2
*Model_Space
 70
     0
 10
0.0
 20
0.0
 30
0.0
  3
*Model_Space
  1

  0
ENDBLK
  5
21
330
1F
100
AcDbEntity
  8
0
100
AcDbBlockEnd
  0
BLOCK
  5
1C
330
1B
100
AcDbEntity
 67
     1
  8
0
100
AcDbBlockBegin
  2
*Paper_Space
 70
     0
 10
0.0
 20
0.0
 30
0.0
  3
*Paper_Space
  1

  0
ENDBLK
  5
1D
330
1B
100
AcDbEntity
 67
     1
  8
0
100
AcDbBlockEnd
  0
BLOCK
  5
24
330
23
100
AcDbEntity
  8
0
100
AcDbBlockBegin
  2
*Paper_Space0
 70
     0
 10
0.0
 20
0.0
 30
0.0
  3
*Paper_Space0
  1

  0
ENDBLK
  5
25
330
23
100
AcDbEntity
  8
0
100
AcDbBlockEnd
  0
BLOCK
  5
7D
330
7C
100
AcDbEntity
  8
0
100
AcDbBlockBegin
  2
圖塊6
 70
     0
 10
0.0
 20
0.0
 30
0.0
  3
圖塊6
  1

  0
ARC
  5
7F
330
7C
100
AcDbEntity
  8
圖層_1
 62
     7
370
    30
100
AcDbCircle
 10
0.765077217
 20
3.0510341446
 30
0.0
 40
0.765077216971835
100
AcDbArc
 50
130.2115225915
 51
228.588904108
  0
ARC
  5
80
330
7C
100
AcDbEntity
  8
圖層_1
 62
     7
370
    30
100
AcDbCircle
 10
2.4254567991
 20
2.9974727207
 30
0.0
 40
1.288667713408811
100
AcDbArc
 50
140.4331765613
 51
251.0865666567
  0
ARC
  5
81
330
7C
100
AcDbEntity
  8
圖層_1
 62
     7
370
    30
100
AcDbCircle
 10
2.5882520991
 20
3.1558779856
 30
0.0
 40
1.494818328884931
100
AcDbArc
 50
247.1485306747
 51
309.6030773927
  0
LINE
  5
82
330
7C
100
AcDbEntity
  8
圖層_1
 62
     7
370
    30
100
AcDbLine
 10
0.9244488634
 20
4.2660912992
 30
0.0
 11
0.271134736
 21
3.6352977609
 31
0.0
  0
LINE
  5
83
330
7C
100
AcDbEntity
  8
圖層_1
 62
     7
370
    30
100
AcDbLine
 10
0.259011445
 20
2.4772392488
 30
0.0
 11
2.2636126001
 21
0.7349373287
 31
0.0
  0
LINE
  5
84
330
7C
100
AcDbEntity
  8
圖層_1
 62
     7
370
    30
100
AcDbLine
 10
2.2636126001
 20
0.7349373287
 30
0.0
 11
1.9480866399
 21
0.4269871335
 31
0.0
  0
LINE
  5
85
330
7C
100
AcDbEntity
  8
圖層_1
 62
     7
370
    30
100
AcDbLine
 10
1.9480866399
 20
0.4269871335
 30
0.0
 11
2.4440263222
 21
0.0
 31
0.0
  0
LINE
  5
86
330
7C
100
AcDbEntity
  8
圖層_1
 62
     7
370
    30
100
AcDbLine
 10
4.0488585394
 20
1.5582889828
 30
0.0
 11
3.5411470236
 21
2.0041518466
 31
0.0
  0
LINE
  5
87
330
7C
100
AcDbEntity
  8
圖層_1
 62
     7
370
    30
100
AcDbLine
 10
1.4320457871
 20
3.8183253488
 30
0.0
 11
0.9244488634
 21
4.2660912992
 31
0.0
  0
LINE
  5
88
330
7C
100
AcDbEntity
  8
圖層_1
 62
     7
370
    30
100
AcDbLine
 10
2.4440263222
 20
0.0
 30
0.0
 11
4.0488585394
 21
1.5582889828
 31
0.0
  0
ENDBLK
  5
7E
330
7C
100
AcDbEntity
  8
0
100
AcDbBlockEnd
  0
BLOCK
  5
CF
330
CE
100
AcDbEntity
  8
0
100
AcDbBlockBegin
  2
SW_NOTE_0
 70
     0
 10
0.0
 20
0.0
 30
0.0
  3
SW_NOTE_0
  1

  0
MTEXT
  5
D1
330
CE
100
AcDbEntity
  8
0
  6
Continuous
 62
     0
370
     0
100
AcDbMText
 10
0.0
 20
1.7053291974
 30
0.0
 40
1.3229166667
 41
0.0
 71
     1
 72
     1
  1
PROPRIETARY AND CONFIDENTIAL
  7
SLDTEXTSTYLE0
 73
     1
 44
1.0
  0
MTEXT
  5
D2
330
CE
100
AcDbEntity
  8
0
  6
Continuous
 62
     0
370
     0
100
AcDbMText
 10
0.0
 20
-0.04099174
 30
0.0
 40
0.9260416667
 41
0.0
 71
     1
 72
     1
  1
THE INFORMATION CONTAINED IN THIS DRAWING IS THE SOLE PROPERTY OF UNICE E-O SERVICES INC. ANY REPRODUCTION IN PART OR AS A WHOLE WITHOUT THE WRITTEN PERMISSION OF UNICE E-O SERVICES INC IS
  7
SLDTEXTSTYLE0
 73
     1
 44
1.0
  0
MTEXT
  5
D3
330
CE
100
AcDbEntity
  8
0
  6
Continuous
 62
     0
370
     0
100
AcDbMText
 10
0.0
 20
-1.2757139473
 30
0.0
 40
0.9260416667
 41
0.0
 71
     1
 72
     1
  1
PROHIBITED.
  7
SLDTEXTSTYLE0
 73
     1
 44
1.0
  0
ENDBLK
  5
D0
330
CE
100
AcDbEntity
  8
0
100
AcDbBlockEnd
  0
BLOCK
  5
106
330
105
100
AcDbEntity
  8
0
100
AcDbBlockBegin
  2
SW_NOTE_1
 70
     0
 10
0.0
 20
0.0
 30
0.0
  3
SW_NOTE_1
  1

  0
MTEXT
  5
108
330
105
100
AcDbEntity
  8
SLD-0
 62
     0
100
AcDbMText
 10
0.0
 20
1.0231975184
 30
0.0
 40
0.79375
 41
0.0
 71
     1
 72
     1
  1
No.5, Andong Rd., Chung Li District,
  7
SLDTEXTSTYLE0
 73
     1
 44
1.0
  0
MTEXT
  5
109
330
105
100
AcDbEntity
  8
SLD-0
 62
     0
100
AcDbMText
 10
0.0
 20
-0.0351358021
 30
0.0
 40
0.79375
 41
0.0
 71
     1
 72
     1
  1
Taoyuan City 32063, Taiwan, R.O.C.
  7
SLDTEXTSTYLE0
 73
     1
 44
1.0
  0
ENDBLK
  5
107
330
105
100
AcDbEntity
  8
0
100
AcDbBlockEnd
  0
BLOCK
  5
114
330
113
100
AcDbEntity
  8
0
100
AcDbBlockBegin
  2
_D
 70
     0
 10
0.0
 20
0.0
 30
0.0
  3
_D
  1

  0
SOLID
  5
116
330
113
100
AcDbEntity
  8
DIM
100
AcDbTrace
 10
35.1161683079
 20
60.0458553308
 30
0.0
 11
35.7611506931
 21
60.8202084304
 31
0.0
 12
35.5506950875
 22
60.9551470759
 32
0.0
 13
35.5506950875
 23
60.9551470759
 33
0.0
  0
LINE
  5
117
330
113
100
AcDbEntity
  8
DIM
100
AcDbLine
 10
35.1161683079
 20
60.0458553308
 30
0.0
 11
40.7203382718
 21
68.7863386705
 31
0.0
  0
LINE
  5
118
330
113
100
AcDbEntity
  8
DIM
100
AcDbLine
 10
40.7203382718
 20
68.7863386705
 30
0.0
 11
57.7561174797
 21
68.7863386705
 31
0.0
  0
MTEXT
  5
119
330
113
100
AcDbEntity
  8
DIM
100
AcDbMText
 10
41.3453382718
 20
70.3211350063
 30
0.0
 40
1.190625
 41
0.0
 71
     1
 72
     1
  1
%%c
  7
SLDTEXTSTYLE1
 73
     1
 44
1.0
  0
MTEXT
  5
11A
330
113
100
AcDbEntity
  8
DIM
100
AcDbMText
 10
42.8534632594
 20
70.3211350063
 30
0.0
 40
1.190625
 41
0.0
 71
     1
 72
     1
  1
24
  7
SLDTEXTSTYLE1
 73
     1
 44
1.0
  0
MTEXT
  5
11B
330
113
100
AcDbEntity
  8
DIM
100
AcDbMText
 10
44.7160195427
 20
70.3211350063
 30
0.0
 40
1.190625
 41
0.0
 71
     1
 72
     1
  1
CLEAR APERTURE
  7
SLDTEXTSTYLE1
 73
     1
 44
1.0
  0
ENDBLK
  5
115
330
113
100
AcDbEntity
  8
0
100
AcDbBlockEnd
  0
BLOCK
  5
11D
330
11C
100
AcDbEntity
  8
0
100
AcDbBlockBegin
  2
SW_CENTERMARKSYMBOL_0
 70
     0
 10
0.0
 20
0.0
 30
0.0
  3
SW_CENTERMARKSYMBOL_0
  1

  0
LINE
  5
11F
330
11C
100
AcDbEntity
  8
DIM
 62
     0
100
AcDbLine
 10
0.0
 20
0.0
 30
0.0
 11
0.0
 21
1.0
 31
0.0
  0
LINE
  5
120
330
11C
100
AcDbEntity
  8
DIM
 62
     0
100
AcDbLine
 10
0.0
 20
0.0
 30
0.0
 11
-1.0
 21
0.0
 31
0.0
  0
LINE
  5
121
330
11C
100
AcDbEntity
  8
DIM
 62
     0
100
AcDbLine
 10
0.0
 20
0.0
 30
0.0
 11
0.0
 21
-1.0
 31
0.0
  0
LINE
  5
122
330
11C
100
AcDbEntity
  8
DIM
 62
     0
100
AcDbLine
 10
0.0
 20
0.0
 30
0.0
 11
1.0
 21
0.0
 31
0.0
  0
LINE
  5
123
330
11C
100
AcDbEntity
  8
DIM
 62
     0
100
AcDbLine
 10
0.0
 20
2.0
 30
0.0
 11
0.0
 21
16.5
 31
0.0
  0
LINE
  5
124
330
11C
100
AcDbEntity
  8
DIM
 62
     0
100
AcDbLine
 10
-2.0
 20
0.0
 30
0.0
 11
-16.5
 21
0.0
 31
0.0
  0
LINE
  5
125
330
11C
100
AcDbEntity
  8
DIM
 62
     0
100
AcDbLine
 10
0.0
 20
-2.0
 30
0.0
 11
0.0
 21
-16.5
 31
0.0
  0
LINE
  5
126
330
11C
100
AcDbEntity
  8
DIM
 62
     0
100
AcDbLine
 10
2.0
 20
0.0
 30
0.0
 11
16.5
 21
0.0
 31
0.0
  0
ENDBLK
  5
11E
330
11C
100
AcDbEntity
  8
0
100
AcDbBlockEnd
  0
BLOCK
  5
153
330
152
100
AcDbEntity
  8
0
100
AcDbBlockBegin
  2
_D_1
 70
     0
 10
0.0
 20
0.0
 30
0.0
  3
_D_1
  1

  0
SOLID
  5
155
330
152
100
AcDbEntity
  8
DIM
100
AcDbTrace
 10
86.7289770897
 20
34.443986262
 30
0.0
 11
86.8539770897
 21
35.443986262
 31
0.0
 12
86.6039770897
 22
35.443986262
 32
0.0
 13
86.6039770897
 23
35.443986262
 33
0.0
  0
SOLID
  5
156
330
152
100
AcDbEntity
  8
DIM
100
AcDbTrace
 10
86.7289770897
 20
65.443986262
 30
0.0
 11
86.6039770897
 21
64.443986262
 31
0.0
 12
86.8539770897
 22
64.443986262
 32
0.0
 13
86.8539770897
 23
64.443986262
 33
0.0
  0
LINE
  5
157
330
152
100
AcDbEntity
  8
DIM
100
AcDbLine
 10
79.2289770897
 20
34.443986262
 30
0.0
 11
87.2289770897
 21
34.443986262
 31
0.0
  0
LINE
  5
158
330
152
100
AcDbEntity
  8
DIM
100
AcDbLine
 10
79.2289770897
 20
65.443986262
 30
0.0
 11
87.2289770897
 21
65.443986262
 31
0.0
  0
LINE
  5
159
330
152
100
AcDbEntity
  8
DIM
100
AcDbLine
 10
86.7289770897
 20
34.443986262
 30
0.0
 11
86.7289770897
 21
65.443986262
 31
0.0
  0
MTEXT
  5
15A
330
152
100
AcDbEntity
  8
DIM
100
AcDbMText
 10
85.1941807538
 20
48.4446807828
 30
0.0
 40
1.190625
 41
0.0
 71
     1
 72
     1
  1
%%c
  7
SLDTEXTSTYLE1
 11
6.123233995736766E-17
 21
1.0
 31
0.0
 73
     1
 44
1.0
  0
MTEXT
  5
15B
330
152
100
AcDbEntity
  8
DIM
100
AcDbMText
 10
85.1941807538
 20
49.9528057704
 30
0.0
 40
1.190625
 41
0.0
 71
     1
 72
     1
  1
31
  7
SLDTEXTSTYLE1
 11
6.123233995736766E-17
 21
1.0
 31
0.0
 73
     1
 44
1.0
  0
ENDBLK
  5
154
330
152
100
AcDbEntity
  8
0
100
AcDbBlockEnd
  0
BLOCK
  5
15E
330
15D
100
AcDbEntity
  8
0
100
AcDbBlockBegin
  2
_D_2
 70
     0
 10
0.0
 20
0.0
 30
0.0
  3
_D_2
  1

  0
SOLID
  5
160
330
15D
100
AcDbEntity
  8
DIM
100
AcDbTrace
 10
68.2289770897
 20
63.088486262
 30
0.0
 11
68.1039770897
 21
62.088486262
 31
0.0
 12
68.3539770897
 22
62.088486262
 32
0.0
 13
68.3539770897
 23
62.088486262
 33
0.0
  0
SOLID
  5
161
330
15D
100
AcDbEntity
  8
DIM
100
AcDbTrace
 10
68.2289770897
 20
36.799486262
 30
0.0
 11
68.3539770897
 21
37.799486262
 31
0.0
 12
68.1039770897
 22
37.799486262
 32
0.0
 13
68.1039770897
 23
37.799486262
 33
0.0
  0
LINE
  5
162
330
15D
100
AcDbEntity
  8
DIM
100
AcDbLine
 10
71.4289770897
 20
63.088486262
 30
0.0
 11
67.7289770897
 21
63.088486262
 31
0.0
  0
LINE
  5
163
330
15D
100
AcDbEntity
  8
DIM
100
AcDbLine
 10
71.4289770897
 20
36.799486262
 30
0.0
 11
67.7289770897
 21
36.799486262
 31
0.0
  0
LINE
  5
164
330
15D
100
AcDbEntity
  8
DIM
100
AcDbLine
 10
68.2289770897
 20
63.088486262
 30
0.0
 11
68.2289770897
 21
36.799486262
 31
0.0
  0
MTEXT
  5
165
330
15D
100
AcDbEntity
  8
DIM
100
AcDbMText
 10
66.6941808702
 20
47.2727971215
 30
0.0
 40
1.190625
 41
0.0
 71
     1
 72
     1
  1
1.035-40
  7
SLDTEXTSTYLE1
 11
-7.044195017643634E-15
 21
1.0
 31
0.0
 73
     1
 44
1.0
  0
ENDBLK
  5
15F
330
15D
100
AcDbEntity
  8
0
100
AcDbBlockEnd
  0
BLOCK
  5
168
330
167
100
AcDbEntity
  8
0
100
AcDbBlockBegin
  2
_D_3
 70
     0
 10
0.0
 20
0.0
 30
0.0
  3
_D_3
  1

  0
SOLID
  5
16A
330
167
100
AcDbEntity
  8
DIM
100
AcDbTrace
 10
84.2289770897
 20
62.590986262
 30
0.0
 11
84.1039770897
 21
61.590986262
 31
0.0
 12
84.3539770897
 22
61.590986262
 32
0.0
 13
84.3539770897
 23
61.590986262
 33
0.0
  0
SOLID
  5
16B
330
167
100
AcDbEntity
  8
DIM
100
AcDbTrace
 10
84.2289770897
 20
37.296986262
 30
0.0
 11
84.3539770897
 21
38.296986262
 31
0.0
 12
84.1039770897
 22
38.296986262
 32
0.0
 13
84.1039770897
 23
38.296986262
 33
0.0
  0
LINE
  5
16C
330
167
100
AcDbEntity
  8
DIM
100
AcDbLine
 10
81.0289770897
 20
62.590986262
 30
0.0
 11
84.7289770897
 21
62.590986262
 31
0.0
  0
LINE
  5
16D
330
167
100
AcDbEntity
  8
DIM
100
AcDbLine
 10
81.0289770897
 20
37.296986262
 30
0.0
 11
84.7289770897
 21
37.296986262
 31
0.0
  0
LINE
  5
16E
330
167
100
AcDbEntity
  8
DIM
100
AcDbLine
 10
84.2289770897
 20
62.590986262
 30
0.0
 11
84.2289770897
 21
37.296986262
 31
0.0
  0
MTEXT
  5
16F
330
167
100
AcDbEntity
  8
DIM
100
AcDbMText
 10
82.6941808702
 20
44.4968770322
 30
0.0
 40
1.190625
 41
0.0
 71
     1
 72
     1
  1
M6x0.706(36TPI)
  7
SLDTEXTSTYLE1
 11
-7.044195017643634E-15
 21
1.0
 31
0.0
 73
     1
 44
1.0
  0
ENDBLK
  5
169
330
167
100
AcDbEntity
  8
0
100
AcDbBlockEnd
  0
BLOCK
  5
172
330
171
100
AcDbEntity
  8
0
100
AcDbBlockBegin
  2
_D_4
 70
     0
 10
0.0
 20
0.0
 30
0.0
  3
_D_4
  1

  0
SOLID
  5
174
330
171
100
AcDbEntity
  8
DIM
100
AcDbTrace
 10
75.4289770897
 20
30.943986262
 30
0.0
 11
76.4289770897
 21
30.818986262
 31
0.0
 12
76.4289770897
 22
31.068986262
 32
0.0
 13
76.4289770897
 23
31.068986262
 33
0.0
  0
SOLID
  5
175
330
171
100
AcDbEntity
  8
DIM
100
AcDbTrace
 10
80.7289770897
 20
30.943986262
 30
0.0
 11
79.7289770897
 21
31.068986262
 31
0.0
 12
79.7289770897
 22
30.818986262
 32
0.0
 13
79.7289770897
 23
30.818986262
 33
0.0
  0
LINE
  5
176
330
171
100
AcDbEntity
  8
DIM
100
AcDbLine
 10
75.4289770897
 20
36.189986262
 30
0.0
 11
75.4289770897
 21
30.443986262
 31
0.0
  0
LINE
  5
177
330
171
100
AcDbEntity
  8
DIM
100
AcDbLine
 10
80.7289770897
 20
34.393986262
 30
0.0
 11
80.7289770897
 21
30.443986262
 31
0.0
  0
LINE
  5
178
330
171
100
AcDbEntity
  8
DIM
100
AcDbLine
 10
75.4289770897
 20
30.943986262
 30
0.0
 11
80.7289770897
 21
30.943986262
 31
0.0
  0
MTEXT
  5
179
330
171
100
AcDbEntity
  8
DIM
100
AcDbMText
 10
77.147423256
 20
32.4787824815
 30
0.0
 40
1.190625
 41
0.0
 71
     1
 72
     1
  1
5.3
  7
SLDTEXTSTYLE1
 73
     1
 44
1.0
  0
ENDBLK
  5
173
330
171
100
AcDbEntity
  8
0
100
AcDbBlockEnd
  0
BLOCK
  5
17C
330
17B
100
AcDbEntity
  8
0
100
AcDbBlockBegin
  2
_D_5
 70
     0
 10
0.0
 20
0.0
 30
0.0
  3
_D_5
  1

  0
SOLID
  5
17E
330
17B
100
AcDbEntity
  8
DIM
100
AcDbTrace
 10
71.7289770897
 20
71.443986262
 30
0.0
 11
72.7289770897
 21
71.318986262
 31
0.0
 12
72.7289770897
 22
71.568986262
 32
0.0
 13
72.7289770897
 23
71.568986262
 33
0.0
  0
SOLID
  5
17F
330
17B
100
AcDbEntity
  8
DIM
100
AcDbTrace
 10
80.7289770897
 20
71.443986262
 30
0.0
 11
79.7289770897
 21
71.568986262
 31
0.0
 12
79.7289770897
 22
71.318986262
 32
0.0
 13
79.7289770897
 23
71.318986262
 33
0.0
  0
LINE
  5
180
330
17B
100
AcDbEntity
  8
DIM
100
AcDbLine
 10
71.7289770897
 20
63.388486262
 30
0.0
 11
71.7289770897
 21
71.943986262
 31
0.0
  0
LINE
  5
181
330
17B
100
AcDbEntity
  8
DIM
100
AcDbLine
 10
80.7289770897
 20
65.493986262
 30
0.0
 11
80.7289770897
 21
71.943986262
 31
0.0
  0
LINE
  5
182
330
17B
100
AcDbEntity
  8
DIM
100
AcDbLine
 10
71.7289770897
 20
71.443986262
 30
0.0
 11
80.7289770897
 21
71.443986262
 31
0.0
  0
MTEXT
  5
183
330
17B
100
AcDbEntity
  8
DIM
100
AcDbMText
 10
75.8563555678
 20
72.9787824815
 30
0.0
 40
1.190625
 41
0.0
 71
     1
 72
     1
  1
9
  7
SLDTEXTSTYLE1
 73
     1
 44
1.0
  0
ENDBLK
  5
17D
330
17B
100
AcDbEntity
  8
0
100
AcDbBlockEnd
  0
BLOCK
  5
186
330
185
100
AcDbEntity
  8
0
100
AcDbBlockBegin
  2
_D_6
 70
     0
 10
0.0
 20
0.0
 30
0.0
  3
_D_6
  1

  0
SOLID
  5
188
330
185
100
AcDbEntity
  8
DIM
100
AcDbTrace
 10
71.7289770897
 20
68.943986262
 30
0.0
 11
72.7289770897
 21
68.818986262
 31
0.0
 12
72.7289770897
 22
69.068986262
 32
0.0
 13
72.7289770897
 23
69.068986262
 33
0.0
  0
SOLID
  5
189
330
185
100
AcDbEntity
  8
DIM
100
AcDbTrace
 10
74.7289770897
 20
68.943986262
 30
0.0
 11
73.7289770897
 21
69.068986262
 31
0.0
 12
73.7289770897
 22
68.818986262
 32
0.0
 13
73.7289770897
 23
68.818986262
 33
0.0
  0
LINE
  5
18A
330
185
100
AcDbEntity
  8
DIM
100
AcDbLine
 10
71.7289770897
 20
63.388486262
 30
0.0
 11
71.7289770897
 21
69.443986262
 31
0.0
  0
LINE
  5
18B
330
185
100
AcDbEntity
  8
DIM
100
AcDbLine
 10
74.7289770897
 20
65.743986262
 30
0.0
 11
74.7289770897
 21
69.443986262
 31
0.0
  0
LINE
  5
18C
330
185
100
AcDbEntity
  8
DIM
100
AcDbLine
 10
71.7289770897
 20
68.943986262
 30
0.0
 11
74.7289770897
 21
68.943986262
 31
0.0
  0
MTEXT
  5
18D
330
185
100
AcDbEntity
  8
DIM
100
AcDbMText
 10
72.8563555678
 20
70.4787824815
 30
0.0
 40
1.190625
 41
0.0
 71
     1
 72
     1
  1
3
  7
SLDTEXTSTYLE1
 73
     1
 44
1.0
  0
ENDBLK
  5
187
330
185
100
AcDbEntity
  8
0
100
AcDbBlockEnd
  0
ENDSEC
  0
SECTION
  2
ENTITIES
  0
HATCH
  5
89
330
1F
100
AcDbEntity
  8
0
  6
Continuous
 62
     7
100
AcDbHatch
 10
0.0
 20
0.0
 30
0.0
210
0.0
220
0.0
230
1.0
  2
SOLID
 70
     1
 71
     0
 91
        1
 92
        0
 93
       10
 72
     2
 10
96.07029828146834
 20
17.87790440494428
 40
1.494818328884929
 50
50.39692260731407
 51
112.8514693252983
 73
     0
 72
     2
 10
95.907502981406
 20
17.71949914003102
 40
1.288667713408809
 50
108.9134333432861
 51
219.5668234386827
 73
     0
 72
     1
 10
94.91409196948017
 20
18.54035176807505
 11
94.40649504577894
 21
18.98811771848393
 72
     1
 10
94.40649504577894
 20
18.98811771848393
 11
93.75318091833812
 21
18.35732418023018
 72
     2
 10
94.24712339931945
 20
17.77306056386223
 40
0.7650772169718307
 50
130.2115225915088
 51
228.5889041080191
 73
     1
 72
     1
 10
93.7410576273255
 20
17.19926566814989
 11
95.7456587824233
 21
15.45696374801255
 72
     1
 10
95.7456587824233
 20
15.45696374801255
 11
95.43013282221574
 21
15.14901355277703
 72
     1
 10
95.43013282221574
 20
15.14901355277703
 11
95.92607250457851
 21
14.72202641930012
 72
     1
 10
95.92607250457851
 20
14.72202641930012
 11
97.53090472176115
 21
16.28031540205786
 72
     1
 10
97.53090472176115
 20
16.28031540205786
 11
97.02319320593206
 21
16.72617826592441
 97
        0
 75
     0
 76
     1
 98
        1
 10
0.0
 20
0.0
  0
HATCH
  5
8A
330
1F
100
AcDbEntity
  8
0
  6
Continuous
 62
     1
100
AcDbHatch
 10
0.0
 20
0.0
 30
0.0
210
0.0
220
0.0
230
1.0
  2
SOLID
 70
     1
 71
     0
 91
        1
 92
        0
 93
       10
 72
     2
 10
96.29462278138442
 20
17.83153457815805
 40
1.288783744173125
 50
317.8184992995785
 51
398.0564711573078
 73
     0
 72
     1
 10
97.30941570290815
 20
17.03707950348723
 11
97.80214014939956
 21
16.60773103354249
 72
     1
 10
97.80214014939956
 20
16.60773103354249
 11
98.42298080679645
 21
17.2099475047461
 72
     2
 10
97.97628464396539
 20
17.82392087065656
 40
0.7592764687091326
 50
306.0377529468138
 51
403.4396461533871
 73
     1
 72
     1
 10
98.52759457630154
 20
18.34599185667563
 11
96.46421664712989
 21
20.14057999099261
 72
     1
 10
96.46421664712989
 20
20.14057999099261
 11
96.77634229809352
 21
20.44510920641128
 72
     1
 10
96.77634229809352
 20
20.44510920641128
 11
96.3110890430015
 21
20.86020531633353
 72
     1
 10
96.3110890430015
 20
20.86020531633353
 11
94.69329631879657
 21
19.29674519302649
 72
     1
 10
94.69329631879657
 20
19.29674519302649
 11
95.20450025747084
 21
18.85084992946609
 72
     2
 10
96.13579463602218
 20
17.56112367541896
 40
1.590818352263938
 50
234.1674444878512
 51
314.4407074583994
 73
     0
 97
        0
 75
     0
 76
     1
 98
        1
 10
0.0
 20
0.0
  0
LINE
  5
8B
330
1F
100
AcDbEntity
  8
0
  6
Continuous
 62
     7
370
     0
100
AcDbLine
 10
83.9296887592
 20
8.8872596256
 30
0.0
 11
84.4296887592
 21
8.8872596256
 31
0.0
  0
LINE
  5
8C
330
1F
100
AcDbEntity
  8
0
  6
Continuous
 62
     7
370
     0
100
AcDbLine
 10
82.4296887592
 20
8.8872596256
 30
0.0
 11
83.6796887592
 21
8.8872596256
 31
0.0
  0
LINE
  5
8D
330
1F
100
AcDbEntity
  8
0
  6
Continuous
 62
     7
370
     0
100
AcDbLine
 10
90.6796887592
 20
7.6372596256
 30
0.0
 11
90.6796887592
 21
10.1372596256
 31
0.0
  0
LINE
  5
8E
330
1F
100
AcDbEntity
  8
0
  6
Continuous
 62
     7
370
     0
100
AcDbLine
 10
87.1796887592
 20
8.1372596256
 30
0.0
 11
90.6796887592
 21
7.6372596256
 31
0.0
  0
LINE
  5
8F
330
1F
100
AcDbEntity
  8
0
  6
Continuous
 62
     7
370
     0
100
AcDbLine
 10
84.1796887592
 20
8.3872596256
 30
0.0
 11
84.1796887592
 21
7.1372596256
 31
0.0
  0
LINE
  5
90
330
1F
100
AcDbEntity
  8
0
  6
Continuous
 62
     7
370
     0
100
AcDbLine
 10
90.6796887592
 20
10.1372596256
 30
0.0
 11
87.1796887592
 21
9.6372596256
 31
0.0
  0
LINE
  5
91
330
1F
100
AcDbEntity
  8
0
  6
Continuous
 62
     7
370
     0
100
AcDbLine
 10
86.6796887592
 20
8.8872596256
 30
0.0
 11
91.1796887592
 21
8.8872596256
 31
0.0
  0
LINE
  5
92
330
1F
100
AcDbEntity
  8
0
  6
Continuous
 62
     7
370
     0
100
AcDbLine
 10
84.1796887592
 20
9.1372596256
 30
0.0
 11
84.1796887592
 21
8.6372596256
 31
0.0
  0
LINE
  5
93
330
1F
100
AcDbEntity
  8
0
  6
Continuous
 62
     7
370
     0
100
AcDbLine
 10
84.6796887592
 20
8.8872596256
 30
0.0
 11
85.9296887592
 21
8.8872596256
 31
0.0
  0
LINE
  5
94
330
1F
100
AcDbEntity
  8
0
  6
Continuous
 62
     7
370
     0
100
AcDbLine
 10
84.1796887592
 20
10.6372596256
 30
0.0
 11
84.1796887592
 21
9.3872596256
 31
0.0
  0
LINE
  5
95
330
1F
100
AcDbEntity
  8
0
  6
Continuous
 62
     7
370
     0
100
AcDbLine
 10
87.1796887592
 20
9.6372596256
 30
0.0
 11
87.1796887592
 21
8.1372596256
 31
0.0
  0
LINE
  5
96
330
1F
100
AcDbEntity
  8
工作區域參考線
 62
     1
370
    30
100
AcDbLine
 10
95.2045002575
 20
18.8508499295
 30
0.0
 11
94.6932963188
 21
19.296745193
 31
0.0
  0
LINE
  5
97
330
1F
100
AcDbEntity
  8
工作區域參考線
 62
     1
370
    30
100
AcDbLine
 10
94.6932963188
 20
19.296745193
 30
0.0
 11
96.311089043
 21
20.8602053163
 31
0.0
  0
LINE
  5
98
330
1F
100
AcDbEntity
  8
工作區域參考線
 62
     1
370
    30
100
AcDbLine
 10
96.311089043
 20
20.8602053163
 30
0.0
 11
96.7763422981
 21
20.4451092064
 31
0.0
  0
LINE
  5
99
330
1F
100
AcDbEntity
  8
工作區域參考線
 62
     1
370
    30
100
AcDbLine
 10
96.7763422981
 20
20.4451092064
 30
0.0
 11
96.4642166471
 21
20.140579991
 31
0.0
  0
LINE
  5
9A
330
1F
100
AcDbEntity
  8
工作區域參考線
 62
     1
370
    30
100
AcDbLine
 10
96.4642166471
 20
20.140579991
 30
0.0
 11
98.5275945763
 21
18.3459918567
 31
0.0
  0
LINE
  5
9B
330
1F
100
AcDbEntity
  8
工作區域參考線
 62
     1
370
    30
100
AcDbLine
 10
97.3094157029
 20
17.0370795035
 30
0.0
 11
97.8021401494
 21
16.6077310335
 31
0.0
  0
LINE
  5
9C
330
1F
100
AcDbEntity
  8
工作區域參考線
 62
     1
370
    30
100
AcDbLine
 10
97.8021401494
 20
16.6077310335
 30
0.0
 11
98.4229808068
 21
17.2099475047
 31
0.0
  0
LINE
  5
9D
330
1F
100
AcDbEntity
  8
0
  6
Continuous
 62
     7
370
     0
100
AcDbLine
 10
92.8453982605
 20
6.557623204
 30
0.0
 11
142.8453982605
 21
6.557623204
 31
0.0
  0
LINE
  5
9E
330
1F
100
AcDbEntity
  8
0
  6
Continuous
 62
     7
370
     0
100
AcDbLine
 10
92.8453982605
 20
9.057623204
 30
0.0
 11
117.8453982605
 21
9.057623204
 31
0.0
  0
LINE
  5
9F
330
1F
100
AcDbEntity
  8
0
  6
Continuous
 62
     7
370
     0
100
AcDbLine
 10
92.8453982605
 20
11.557623204
 30
0.0
 11
117.8453982605
 21
11.557623204
 31
0.0
  0
LINE
  5
A0
330
1F
100
AcDbEntity
  8
0
  6
Continuous
 62
     7
370
     0
100
AcDbLine
 10
92.8453982605
 20
14.057623204
 30
0.0
 11
142.8453982605
 21
14.057623204
 31
0.0
  0
LINE
  5
A1
330
1F
100
AcDbEntity
  8
0
  6
Continuous
 62
     7
370
     0
100
AcDbLine
 10
117.8453982605
 20
16.557623204
 30
0.0
 11
142.8453982605
 21
16.557623204
 31
0.0
  0
LINE
  5
A2
330
1F
100
AcDbEntity
  8
0
  6
Continuous
 62
     7
370
    15
100
AcDbLine
 10
117.8453982605
 20
9.057623204
 30
0.0
 11
142.8453982605
 21
9.057623204
 31
0.0
  0
LINE
  5
A3
330
1F
100
AcDbEntity
  8
0
  6
Continuous
 62
     7
370
     0
100
AcDbLine
 10
92.8453982605
 20
21.557623204
 30
0.0
 11
142.8453982605
 21
21.557623204
 31
0.0
  0
LINE
  5
A4
330
1F
100
AcDbEntity
  8
0
  6
Continuous
 62
     7
370
     0
100
AcDbLine
 10
125.6186088375
 20
4.057623204
 30
0.0
 11
125.6186088375
 21
9.057623204
 31
0.0
  0
LINE
  5
A5
330
1F
100
AcDbEntity
  8
0
  6
Continuous
 62
     7
370
     0
100
AcDbLine
 10
117.8453982605
 20
4.057623204
 30
0.0
 11
117.8453982605
 21
21.557623204
 31
0.0
  0
LINE
  5
A6
330
1F
100
AcDbEntity
  8
0
  6
Continuous
 62
     7
370
     0
100
AcDbLine
 10
125.6186088375
 20
14.057623204
 30
0.0
 11
125.6186088375
 21
16.557623204
 31
0.0
  0
LINE
  5
A7
330
1F
100
AcDbEntity
  8
0
  6
Continuous
 62
     7
370
     0
100
AcDbLine
 10
107.2082043177
 20
4.057623204
 30
0.0
 11
107.2082043177
 21
14.057623204
 31
0.0
  0
LINE
  5
A8
330
1F
100
AcDbEntity
  8
0
  6
Continuous
 62
     7
370
     0
100
AcDbLine
 10
99.8892943753
 20
4.057623204
 30
0.0
 11
99.8892943753
 21
14.057623204
 31
0.0
  0
LINE
  5
A9
330
1F
100
AcDbEntity
  8
0
  6
Continuous
 62
     7
370
     0
100
AcDbLine
 10
92.8453982605
 20
4.057623204
 30
0.0
 11
92.8453982605
 21
21.557623204
 31
0.0
  0
LINE
  5
AA
330
1F
100
AcDbEntity
  8
0
  6
Continuous
 62
     7
370
    15
100
AcDbLine
 10
21.6603982605
 20
100.6860137875
 30
0.0
 11
21.6603982605
 21
101.4360137875
 31
0.0
  0
LINE
  5
AB
330
1F
100
AcDbEntity
  8
0
  6
Continuous
 62
     7
370
    15
100
AcDbLine
 10
38.9753982605
 20
100.6860137875
 30
0.0
 11
38.9753982605
 21
101.4360137875
 31
0.0
  0
LINE
  5
AC
330
1F
100
AcDbEntity
  8
0
  6
Continuous
 62
     7
370
    15
100
AcDbLine
 10
56.2903982605
 20
100.6860137875
 30
0.0
 11
56.2903982605
 21
101.4360137875
 31
0.0
  0
LINE
  5
AD
330
1F
100
AcDbEntity
  8
0
  6
Continuous
 62
     7
370
    15
100
AcDbLine
 10
73.6053982605
 20
100.6860137875
 30
0.0
 11
73.6053982605
 21
101.4360137875
 31
0.0
  0
LINE
  5
AE
330
1F
100
AcDbEntity
  8
0
  6
Continuous
 62
     7
370
    15
100
AcDbLine
 10
90.9203982605
 20
100.6860137875
 30
0.0
 11
90.9203982605
 21
101.4360137875
 31
0.0
  0
LINE
  5
AF
330
1F
100
AcDbEntity
  8
0
  6
Continuous
 62
     7
370
    15
100
AcDbLine
 10
108.2353982605
 20
100.6860137875
 30
0.0
 11
108.2353982605
 21
101.4360137875
 31
0.0
  0
LINE
  5
B0
330
1F
100
AcDbEntity
  8
0
  6
Continuous
 62
     7
370
    15
100
AcDbLine
 10
125.5503982605
 20
100.6860137875
 30
0.0
 11
125.5503982605
 21
101.4360137875
 31
0.0
  0
LINE
  5
B1
330
1F
100
AcDbEntity
  8
0
  6
Continuous
 62
     7
370
    15
100
AcDbLine
 10
21.6578982605
 20
4.057623204
 30
0.0
 11
21.6578982605
 21
3.307623204
 31
0.0
  0
LINE
  5
B2
330
1F
100
AcDbEntity
  8
0
  6
Continuous
 62
     7
370
    15
100
AcDbLine
 10
38.9703982605
 20
4.057623204
 30
0.0
 11
38.9703982605
 21
3.307623204
 31
0.0
  0
LINE
  5
B3
330
1F
100
AcDbEntity
  8
0
  6
Continuous
 62
     7
370
    15
100
AcDbLine
 10
56.2828982605
 20
4.057623204
 30
0.0
 11
56.2828982605
 21
3.307623204
 31
0.0
  0
LINE
  5
B4
330
1F
100
AcDbEntity
  8
0
  6
Continuous
 62
     7
370
    15
100
AcDbLine
 10
73.5953982605
 20
4.057623204
 30
0.0
 11
73.5953982605
 21
3.307623204
 31
0.0
  0
LINE
  5
B5
330
1F
100
AcDbEntity
  8
0
  6
Continuous
 62
     7
370
    15
100
AcDbLine
 10
90.9078982605
 20
4.057623204
 30
0.0
 11
90.9078982605
 21
3.307623204
 31
0.0
  0
LINE
  5
B6
330
1F
100
AcDbEntity
  8
0
  6
Continuous
 62
     7
370
    15
100
AcDbLine
 10
108.2203982605
 20
4.057623204
 30
0.0
 11
108.2203982605
 21
3.307623204
 31
0.0
  0
LINE
  5
B7
330
1F
100
AcDbEntity
  8
0
  6
Continuous
 62
     7
370
     0
100
AcDbLine
 10
142.8453982605
 20
100.6860137875
 30
0.0
 11
4.3453982605
 21
100.6860137875
 31
0.0
  0
LINE
  5
B8
330
1F
100
AcDbEntity
  8
0
  6
Continuous
 62
     7
370
     0
100
AcDbLine
 10
142.8453982605
 20
4.057623204
 30
0.0
 11
142.8453982605
 21
100.6860137875
 31
0.0
  0
LINE
  5
B9
330
1F
100
AcDbEntity
  8
0
  6
Continuous
 62
     7
370
     0
100
AcDbLine
 10
4.3453982605
 20
100.6860137875
 30
0.0
 11
4.3453982605
 21
4.057623204
 31
0.0
  0
LINE
  5
BA
330
1F
100
AcDbEntity
  8
0
  6
Continuous
 62
     7
370
     0
100
AcDbLine
 10
4.3453982605
 20
4.057623204
 30
0.0
 11
142.8453982605
 21
4.057623204
 31
0.0
  0
LINE
  5
BB
330
1F
100
AcDbEntity
  8
0
  6
Continuous
 62
     7
370
    15
100
AcDbLine
 10
125.5328982605
 20
4.057623204
 30
0.0
 11
125.5328982605
 21
3.307623204
 31
0.0
  0
LINE
  5
BC
330
1F
100
AcDbEntity
  8
0
  6
Continuous
 62
     7
370
    15
100
AcDbLine
 10
4.3453982605
 20
20.162623204
 30
0.0
 11
3.5953982605
 21
20.162623204
 31
0.0
  0
LINE
  5
BD
330
1F
100
AcDbEntity
  8
0
  6
Continuous
 62
     7
370
    15
100
AcDbLine
 10
4.3453982605
 20
36.267623204
 30
0.0
 11
3.5953982605
 21
36.267623204
 31
0.0
  0
LINE
  5
BE
330
1F
100
AcDbEntity
  8
0
  6
Continuous
 62
     7
370
    15
100
AcDbLine
 10
4.3453982605
 20
52.372623204
 30
0.0
 11
3.5953982605
 21
52.372623204
 31
0.0
  0
LINE
  5
BF
330
1F
100
AcDbEntity
  8
0
  6
Continuous
 62
     7
370
    15
100
AcDbLine
 10
4.3453982605
 20
68.477623204
 30
0.0
 11
3.5953982605
 21
68.477623204
 31
0.0
  0
LINE
  5
C0
330
1F
100
AcDbEntity
  8
0
  6
Continuous
 62
     7
370
    15
100
AcDbLine
 10
4.3453982605
 20
84.582623204
 30
0.0
 11
3.5953982605
 21
84.582623204
 31
0.0
  0
LINE
  5
C1
330
1F
100
AcDbEntity
  8
0
  6
Continuous
 62
     7
370
    15
100
AcDbLine
 10
142.8453982605
 20
20.162623204
 30
0.0
 11
143.5953982605
 21
20.162623204
 31
0.0
  0
LINE
  5
C2
330
1F
100
AcDbEntity
  8
0
  6
Continuous
 62
     7
370
    15
100
AcDbLine
 10
142.8453982605
 20
36.267623204
 30
0.0
 11
143.5953982605
 21
36.267623204
 31
0.0
  0
LINE
  5
C3
330
1F
100
AcDbEntity
  8
0
  6
Continuous
 62
     7
370
    15
100
AcDbLine
 10
142.8453982605
 20
52.372623204
 30
0.0
 11
143.5953982605
 21
52.372623204
 31
0.0
  0
LINE
  5
C4
330
1F
100
AcDbEntity
  8
0
  6
Continuous
 62
     7
370
    15
100
AcDbLine
 10
142.8453982605
 20
68.477623204
 30
0.0
 11
143.5953982605
 21
68.477623204
 31
0.0
  0
LINE
  5
C5
330
1F
100
AcDbEntity
  8
0
  6
Continuous
 62
     7
370
    15
100
AcDbLine
 10
142.8453982605
 20
84.582623204
 30
0.0
 11
143.5953982605
 21
84.582623204
 31
0.0
  0
CIRCLE
  5
C6
330
1F
100
AcDbEntity
  8
0
  6
Continuous
 62
     7
370
     0
100
AcDbCircle
 10
84.1796887592
 20
8.8872596256
 30
0.0
 40
0.75
  0
CIRCLE
  5
C7
330
1F
100
AcDbEntity
  8
0
  6
Continuous
 62
     7
370
     0
100
AcDbCircle
 10
84.1796887592
 20
8.8872596256
 30
0.0
 40
1.25
  0
ARC
  5
C8
330
1F
100
AcDbEntity
  8
工作區域參考線
 62
     1
370
    30
100
AcDbCircle
 10
97.976284644
 20
17.8239208707
 30
0.0
 40
0.7592764687091375
100
AcDbArc
 50
306.0377529468
 51
43.4396461534
  0
ARC
  5
C9
330
1F
100
AcDbEntity
  8
工作區域參考線
 62
     1
370
    30
100
AcDbCircle
 10
96.135794636
 20
17.5611236754
 30
0.0
 40
1.590818352263945
100
AcDbArc
 50
45.5592925416
 51
125.8325555121
  0
ARC
  5
CA
330
1F
100
AcDbEntity
  8
工作區域參考線
 62
     1
370
    30
100
AcDbCircle
 10
96.2946227814
 20
17.8315345782
 30
0.0
 40
1.288783744173133
100
AcDbArc
 50
321.9435288427
 51
42.1815007004
  0
INSERT
  5
CB
330
1F
100
AcDbEntity
  8
0
  6
Continuous
 62
     7
100
AcDbBlockReference
  2
圖塊6
 10
93.4820461823
 20
14.7220264193
 30
0.0
  0
MTEXT
  5
CD
330
1F
100
AcDbEntity
  8
0
  6
Continuous
 62
     7
370
     0
100
AcDbMText
 10
82.7713425402
 20
6.6104220185
 30
0.0
 40
1.3229166667
 41
0.0
 71
     1
 72
     1
  1
UNIT:m/m
  7
SLDTEXTSTYLE0
 73
     1
 44
1.0
  0
INSERT
  5
D4
330
1F
100
AcDbEntity
  8
0
  6
Continuous
 62
     7
370
     0
100
AcDbBlockReference
  2
SW_NOTE_0
 10
6.1157538027
 20
96.9452152126
 30
0.0
  0
MTEXT
  5
D5
330
1F
100
AcDbEntity
  8
0
  6
Continuous
 62
     7
370
     0
100
AcDbMText
 10
99.3625946967
 20
20.2203387069
 30
0.0
 40
1.190625
 41
0.0
 71
     1
 72
     1
  1
Unice E-O Services Inc.
  7
SLDTEXTSTYLE0
 73
     1
 44
1.0
  0
MTEXT
  5
D6
330
1F
100
AcDbEntity
  8
0
  6
Continuous
 62
     7
370
     0
100
AcDbMText
 10
108.7795269075
 20
10.7933574255
 30
0.0
 40
0.9260416667
 41
0.0
 71
     1
 72
     1
  1
2018/11/16
  7
SLDTEXTSTYLE0
 73
     1
 44
1.0
  0
MTEXT
  5
D7
330
1F
100
AcDbEntity
  8
0
  6
Continuous
 62
     7
370
     0
100
AcDbMText
 10
126.3044491253
 20
8.43558887
 30
0.0
 40
1.25
 41
0.0
 71
     1
 72
     1
  1
2:1
  7
SLDTEXTSTYLE0
 73
     1
 44
1.0
  0
MTEXT
  5
D8
330
1F
100
AcDbEntity
  8
0
  6
Continuous
 62
     7
370
     0
100
AcDbMText
 10
126.1537799992
 20
16.0759597719
 30
0.0
 40
1.25
 41
0.0
 71
     1
 72
     1
  1
04TAS1-M26-09L
  7
SLDTEXTSTYLE0
 73
     1
 44
1.0
  0
MTEXT
  5
D9
330
1F
100
AcDbEntity
  8
0
  6
Continuous
 62
     7
370
     0
100
AcDbMText
 10
126.1537799992
 20
19.0541058939
 30
0.0
 40
1.25
 41
0.0
 71
     1
 72
     1
  1
04TAS1-M26-09L
  7
SLDTEXTSTYLE0
 73
     1
 44
1.0
  0
MTEXT
  5
DA
330
1F
100
AcDbEntity
  8
0
  6
Continuous
 62
     7
370
     0
100
AcDbMText
 10
118.1960933393
 20
8.2532397864
 30
0.0
 40
1.0583333333
 41
0.0
 71
     1
 72
     1
  1
SCALE:
  7
SLDTEXTSTYLE0
 73
     1
 44
1.0
  0
MTEXT
  5
DB
330
1F
100
AcDbEntity
  8
0
  6
Continuous
 62
     7
370
     0
100
AcDbMText
 10
93.1668043395
 20
10.7933574255
 30
0.0
 40
0.9260416667
 41
0.0
 71
     1
 72
     1
  1
DRAWN
  7
SLDTEXTSTYLE0
 73
     1
 44
1.0
  0
MTEXT
  5
DC
330
1F
100
AcDbEntity
  8
0
  6
Continuous
 62
     7
370
     0
100
AcDbMText
 10
101.6114183968
 20
13.341604154
 30
0.0
 40
0.9260416667
 41
0.0
 71
     1
 72
     1
  1
NAME
  7
SLDTEXTSTYLE0
 73
     1
 44
1.0
  0
MTEXT
  5
DD
330
1F
100
AcDbEntity
  8
0
  6
Continuous
 62
     7
370
     0
100
AcDbMText
 10
110.4355077879
 20
13.341604154
 30
0.0
 40
0.9260416667
 41
0.0
 71
     1
 72
     1
  1
DATE
  7
SLDTEXTSTYLE0
 73
     1
 44
1.0
  0
MTEXT
  5
DE
330
1F
100
AcDbEntity
  8
0
  6
Continuous
 62
     7
370
     0
100
AcDbMText
 10
118.1378158323
 20
15.8936106883
 30
0.0
 40
1.0583333333
 41
0.0
 71
     1
 72
     1
  1
DWG. NO.
  7
SLDTEXTSTYLE0
 73
     1
 44
1.0
  0
MTEXT
  5
DF
330
1F
100
AcDbEntity
  8
0
  6
Continuous
 62
     7
370
     0
100
AcDbMText
 10
118.1814953544
 20
20.9420329122
 30
0.0
 40
1.0583333333
 41
0.0
 71
     1
 72
     1
  1
TITLE:
  7
SLDTEXTSTYLE0
 73
     1
 44
1.0
  0
MTEXT
  5
E0
330
1F
100
AcDbEntity
  8
0
  6
Continuous
 62
     7
370
     0
100
AcDbMText
 10
101.5157104901
 20
8.1201894862
 30
0.0
 40
0.9260416667
 41
0.0
 71
     1
 72
     1
  1
Johnny
  7
SLDTEXTSTYLE0
 73
     1
 44
1.0
  0
MTEXT
  5
E1
330
1F
100
AcDbEntity
  8
0
  6
Continuous
 62
     7
370
     0
100
AcDbMText
 10
108.7795269075
 20
8.1201894862
 30
0.0
 40
0.9260416667
 41
0.0
 71
     1
 72
     1
  1
2018/11/16
  7
SLDTEXTSTYLE0
 73
     1
 44
1.0
  0
MTEXT
  5
E2
330
1F
100
AcDbEntity
  8
0
  6
Continuous
 62
     7
370
     0
100
AcDbMText
 10
93.1668043395
 20
8.1201894862
 30
0.0
 40
0.9260416667
 41
0.0
 71
     1
 72
     1
  1
ENG APPR.
  7
SLDTEXTSTYLE0
 73
     1
 44
1.0
  0
MTEXT
  5
E3
330
1F
100
AcDbEntity
  8
0
  6
Continuous
 62
     7
370
     0
100
AcDbMText
 10
118.1960933393
 20
5.8426694644
 30
0.0
 40
1.0583333333
 41
0.0
 71
     1
 72
     1
  1
REV
  7
SLDTEXTSTYLE0
 73
     1
 44
1.0
  0
MTEXT
  5
E4
330
1F
100
AcDbEntity
  8
0
  6
Continuous
 62
     7
370
     0
100
AcDbMText
 10
118.1814953544
 20
13.4746544542
 30
0.0
 40
1.0583333333
 41
0.0
 71
     1
 72
     1
  1
MATERIAL:
  7
SLDTEXTSTYLE0
 73
     1
 44
1.0
  0
MTEXT
  5
E5
330
1F
100
AcDbEntity
  8
0
  6
Continuous
 62
     7
370
     0
100
AcDbMText
 10
126.3044491253
 20
11.1087568093
 30
0.0
 40
1.25
 41
0.0
 71
     1
 72
     1
  1
N/A
  7
SLDTEXTSTYLE0
 73
     1
 44
1.0
  0
MTEXT
  5
E6
330
1F
100
AcDbEntity
  8
0
  6
Continuous
 62
     7
370
     0
100
AcDbMText
 10
13.3014965767
 20
102.2266758285
 30
0.0
 40
1.0583333333
 41
0.0
 71
     1
 72
     1
  1
1
  7
SLDTEXTSTYLE0
 73
     1
 44
1.0
  0
MTEXT
  5
E7
330
1F
100
AcDbEntity
  8
0
  6
Continuous
 62
     7
370
     0
100
AcDbMText
 10
30.3585497862
 20
102.2266758285
 30
0.0
 40
1.0583333333
 41
0.0
 71
     1
 72
     1
  1
2
  7
SLDTEXTSTYLE0
 73
     1
 44
1.0
  0
MTEXT
  5
E8
330
1F
100
AcDbEntity
  8
0
  6
Continuous
 62
     7
370
     0
100
AcDbMText
 10
47.4504971953
 20
102.2266758285
 30
0.0
 40
1.0583333333
 41
0.0
 71
     1
 72
     1
  1
3
  7
SLDTEXTSTYLE0
 73
     1
 44
1.0
  0
MTEXT
  5
E9
330
1F
100
AcDbEntity
  8
0
  6
Continuous
 62
     7
370
     0
100
AcDbMText
 10
64.6266681426
 20
102.1496292182
 30
0.0
 40
1.0583333333
 41
0.0
 71
     1
 72
     1
  1
4
  7
SLDTEXTSTYLE0
 73
     1
 44
1.0
  0
MTEXT
  5
EA
330
1F
100
AcDbEntity
  8
0
  6
Continuous
 62
     7
370
     0
100
AcDbMText
 10
81.851161732
 20
102.2266758285
 30
0.0
 40
1.0583333333
 41
0.0
 71
     1
 72
     1
  1
5
  7
SLDTEXTSTYLE0
 73
     1
 44
1.0
  0
MTEXT
  5
EB
330
1F
100
AcDbEntity
  8
0
  6
Continuous
 62
     7
370
     0
100
AcDbMText
 10
99.3191085208
 20
102.2266758285
 30
0.0
 40
1.0583333333
 41
0.0
 71
     1
 72
     1
  1
6
  7
SLDTEXTSTYLE0
 73
     1
 44
1.0
  0
MTEXT
  5
EC
330
1F
100
AcDbEntity
  8
0
  6
Continuous
 62
     7
370
     0
100
AcDbMText
 10
117.1815328703
 20
102.2266758285
 30
0.0
 40
1.0583333333
 41
0.0
 71
     1
 72
     1
  1
7
  7
SLDTEXTSTYLE0
 73
     1
 44
1.0
  0
MTEXT
  5
ED
330
1F
100
AcDbEntity
  8
0
  6
Continuous
 62
     7
370
     0
100
AcDbMText
 10
133.1393910247
 20
102.2266758285
 30
0.0
 40
1.0583333333
 41
0.0
 71
     1
 72
     1
  1
8
  7
SLDTEXTSTYLE0
 73
     1
 44
1.0
  0
MTEXT
  5
EE
330
1F
100
AcDbEntity
  8
0
  6
Continuous
 62
     7
370
     0
100
AcDbMText
 10
2.6784118277
 20
92.905651144
 30
0.0
 40
1.0583333333
 41
0.0
 71
     1
 72
     1
  1
A
  7
SLDTEXTSTYLE0
 73
     1
 44
1.0
  0
MTEXT
  5
EF
330
1F
100
AcDbEntity
  8
0
  6
Continuous
 62
     7
370
     0
100
AcDbMText
 10
2.7955215916
 20
77.1496524119
 30
0.0
 40
1.0583333333
 41
0.0
 71
     1
 72
     1
  1
B
  7
SLDTEXTSTYLE0
 73
     1
 44
1.0
  0
MTEXT
  5
F0
330
1F
100
AcDbEntity
  8
0
  6
Continuous
 62
     7
370
     0
100
AcDbMText
 10
2.7955215916
 20
60.6371757115
 30
0.0
 40
1.0583333333
 41
0.0
 71
     1
 72
     1
  1
C
  7
SLDTEXTSTYLE0
 73
     1
 44
1.0
  0
MTEXT
  5
F1
330
1F
100
AcDbEntity
  8
0
  6
Continuous
 62
     7
370
     0
100
AcDbMText
 10
2.7955215916
 20
44.372661011
 30
0.0
 40
1.0583333333
 41
0.0
 71
     1
 72
     1
  1
D
  7
SLDTEXTSTYLE0
 73
     1
 44
1.0
  0
MTEXT
  5
F2
330
1F
100
AcDbEntity
  8
0
  6
Continuous
 62
     7
370
     0
100
AcDbMText
 10
2.7955215916
 20
28.7779424599
 30
0.0
 40
1.0583333333
 41
0.0
 71
     1
 72
     1
  1
E
  7
SLDTEXTSTYLE0
 73
     1
 44
1.0
  0
MTEXT
  5
F3
330
1F
100
AcDbEntity
  8
0
  6
Continuous
 62
     7
370
     0
100
AcDbMText
 10
2.7955215916
 20
12.7847106126
 30
0.0
 40
1.0583333333
 41
0.0
 71
     1
 72
     1
  1
F
  7
SLDTEXTSTYLE0
 73
     1
 44
1.0
  0
MTEXT
  5
F4
330
1F
100
AcDbEntity
  8
0
  6
Continuous
 62
     7
370
     0
100
AcDbMText
 10
133.0929308482
 20
3.3118111982
 30
0.0
 40
1.0583333333
 41
0.0
 71
     1
 72
     1
  1
8
  7
SLDTEXTSTYLE0
 73
     1
 44
1.0
  0
MTEXT
  5
F5
330
1F
100
AcDbEntity
  8
0
  6
Continuous
 62
     7
370
     0
100
AcDbMText
 10
117.1350726938
 20
3.3118111982
 30
0.0
 40
1.0583333333
 41
0.0
 71
     1
 72
     1
  1
7
  7
SLDTEXTSTYLE0
 73
     1
 44
1.0
  0
MTEXT
  5
F6
330
1F
100
AcDbEntity
  8
0
  6
Continuous
 62
     7
370
     0
100
AcDbMText
 10
99.2726483442
 20
3.3118111982
 30
0.0
 40
1.0583333333
 41
0.0
 71
     1
 72
     1
  1
6
  7
SLDTEXTSTYLE0
 73
     1
 44
1.0
  0
MTEXT
  5
F7
330
1F
100
AcDbEntity
  8
0
  6
Continuous
 62
     7
370
     0
100
AcDbMText
 10
81.8047015555
 20
3.3118111982
 30
0.0
 40
1.0583333333
 41
0.0
 71
     1
 72
     1
  1
5
  7
SLDTEXTSTYLE0
 73
     1
 44
1.0
  0
MTEXT
  5
F8
330
1F
100
AcDbEntity
  8
0
  6
Continuous
 62
     7
370
     0
100
AcDbMText
 10
64.580207966
 20
3.2347645879
 30
0.0
 40
1.0583333333
 41
0.0
 71
     1
 72
     1
  1
4
  7
SLDTEXTSTYLE0
 73
     1
 44
1.0
  0
MTEXT
  5
F9
330
1F
100
AcDbEntity
  8
0
  6
Continuous
 62
     7
370
     0
100
AcDbMText
 10
47.4040370188
 20
3.3118111982
 30
0.0
 40
1.0583333333
 41
0.0
 71
     1
 72
     1
  1
3
  7
SLDTEXTSTYLE0
 73
     1
 44
1.0
  0
MTEXT
  5
FA
330
1F
100
AcDbEntity
  8
0
  6
Continuous
 62
     7
370
     0
100
AcDbMText
 10
30.3120896097
 20
3.3118111982
 30
0.0
 40
1.0583333333
 41
0.0
 71
     1
 72
     1
  1
2
  7
SLDTEXTSTYLE0
 73
     1
 44
1.0
  0
MTEXT
  5
FB
330
1F
100
AcDbEntity
  8
0
  6
Continuous
 62
     7
370
     0
100
AcDbMText
 10
13.2550364001
 20
3.3118111982
 30
0.0
 40
1.0583333333
 41
0.0
 71
     1
 72
     1
  1
1
  7
SLDTEXTSTYLE0
 73
     1
 44
1.0
  0
MTEXT
  5
FC
330
1F
100
AcDbEntity
  8
0
  6
Continuous
 62
     7
370
     0
100
AcDbMText
 10
143.5511923072
 20
93.3212454546
 30
0.0
 40
1.0583333333
 41
0.0
 71
     1
 72
     1
  1
A
  7
SLDTEXTSTYLE0
 73
     1
 44
1.0
  0
MTEXT
  5
FD
330
1F
100
AcDbEntity
  8
0
  6
Continuous
 62
     7
370
     0
100
AcDbMText
 10
143.6683020711
 20
77.5652467225
 30
0.0
 40
1.0583333333
 41
0.0
 71
     1
 72
     1
  1
B
  7
SLDTEXTSTYLE0
 73
     1
 44
1.0
  0
MTEXT
  5
FE
330
1F
100
AcDbEntity
  8
0
  6
Continuous
 62
     7
370
     0
100
AcDbMText
 10
143.6683020711
 20
61.0527700221
 30
0.0
 40
1.0583333333
 41
0.0
 71
     1
 72
     1
  1
C
  7
SLDTEXTSTYLE0
 73
     1
 44
1.0
  0
MTEXT
  5
FF
330
1F
100
AcDbEntity
  8
0
  6
Continuous
 62
     7
370
     0
100
AcDbMText
 10
143.6683020711
 20
44.7882553217
 30
0.0
 40
1.0583333333
 41
0.0
 71
     1
 72
     1
  1
D
  7
SLDTEXTSTYLE0
 73
     1
 44
1.0
  0
MTEXT
  5
100
330
1F
100
AcDbEntity
  8
0
  6
Continuous
 62
     7
370
     0
100
AcDbMText
 10
143.6683020711
 20
29.1935367705
 30
0.0
 40
1.0583333333
 41
0.0
 71
     1
 72
     1
  1
E
  7
SLDTEXTSTYLE0
 73
     1
 44
1.0
  0
MTEXT
  5
101
330
1F
100
AcDbEntity
  8
0
  6
Continuous
 62
     7
370
     0
100
AcDbMText
 10
143.6683020711
 20
13.2003049232
 30
0.0
 40
1.0583333333
 41
0.0
 71
     1
 72
     1
  1
F
  7
SLDTEXTSTYLE0
 73
     1
 44
1.0
  0
MTEXT
  5
102
330
1F
100
AcDbEntity
  8
0
  6
Continuous
 62
     7
370
     0
100
AcDbMText
 10
101.5776564401
 20
10.7933574255
 30
0.0
 40
0.9260416667
 41
0.0
 71
     1
 72
     1
  1
Sky
  7
SLDTEXTSTYLE0
 73
     1
 44
1.0
  0
MTEXT
  5
104
330
1F
100
AcDbEntity
  8
0
  6
Continuous
 62
     7
370
     0
100
AcDbMText
 10
126.4241119823
 20
6.1109801659
 30
0.0
 40
1.190625
 41
0.0
 71
     1
 72
     1
  1
0
  7
SLDTEXTSTYLE1
 73
     1
 44
1.0
  0
INSERT
  5
10A
330
1F
100
AcDbEntity
  8
SLD-0
 62
     7
100
AcDbBlockReference
  2
SW_NOTE_1
 10
99.3625946967
 20
16.7739872606
 30
0.0
  0
CIRCLE
  5
10B
330
1F
100
AcDbEntity
  8
0
  6
Continuous
 62
     7
370
    30
100
AcDbCircle
 10
28.6391133199
 20
49.943986262
 30
0.0
 40
12.94450000000005
  0
CIRCLE
  5
10C
330
1F
100
AcDbEntity
  8
0
  6
Continuous
 62
     7
370
    30
100
AcDbCircle
 10
28.6391133199
 20
49.943986262
 30
0.0
 40
12.20000000000002
  0
CIRCLE
  5
10D
330
1F
100
AcDbEntity
  8
0
  6
Continuous
 62
     7
370
    30
100
AcDbCircle
 10
28.6391133199
 20
49.943986262
 30
0.0
 40
13.1445
  0
CIRCLE
  5
10E
330
1F
100
AcDbEntity
  8
0
  6
Continuous
 62
     7
370
    30
100
AcDbCircle
 10
28.6391133199
 20
49.943986262
 30
0.0
 40
12.0
  0
CIRCLE
  5
10F
330
1F
100
AcDbEntity
  8
0
  6
Continuous
 62
     7
370
    30
100
AcDbCircle
 10
28.6391133199
 20
49.943986262
 30
0.0
 40
15.30000000000001
  0
CIRCLE
  5
110
330
1F
100
AcDbEntity
  8
0
  6
Continuous
 62
     7
370
    30
100
AcDbCircle
 10
28.6391133199
 20
49.943986262
 30
0.0
 40
15.5
  0
DIMENSION
  5
111
330
1F
100
AcDbEntity
  8
DIM
100
AcDbDimension
  2
_D
 10
22.1620583318
 20
39.8421171933
 30
0.0
 11
49.5507278757
 21
69.7377362524
 31
0.0
 70
   163
  1
<> CLEAR APERTURE
 71
     1
 42
-1.0
  3
SLDDIMSTYLE0
100
AcDbDiametricDimension
 15
35.1161683079
 25
60.0458553308
 35
0.0
 40
0.0
  0
INSERT
  5
127
330
1F
100
AcDbEntity
  8
DIM
100
AcDbBlockReference
  2
SW_CENTERMARKSYMBOL_0
 10
28.6391133199
 20
49.943986262
 30
0.0
  0
LINE
  5
128
330
1F
100
AcDbEntity
  8
0
  6
Continuous
 62
     7
370
    30
100
AcDbLine
 10
74.9289770088
 20
34.4439865153
 30
0.0
 11
78.7289773057
 21
34.4439865153
 31
0.0
  0
LINE
  5
129
330
1F
100
AcDbEntity
  8
0
  6
Continuous
 62
     7
370
    30
100
AcDbLine
 10
78.7289773057
 20
65.4439860087
 30
0.0
 11
74.9289770088
 21
65.4439860087
 31
0.0
  0
LINE
  5
12A
330
1F
100
AcDbEntity
  8
0
  6
Continuous
 62
     7
370
    30
100
AcDbLine
 10
74.9289770088
 20
65.4439860087
 30
0.0
 11
74.7289771157
 21
65.2439863485
 31
0.0
  0
LINE
  5
12B
330
1F
100
AcDbEntity
  8
0
  6
Continuous
 62
     7
370
    30
100
AcDbLine
 10
74.7289771157
 20
34.6439861756
 30
0.0
 11
74.9289770088
 21
34.4439865153
 31
0.0
  0
LINE
  5
12C
330
1F
100
AcDbEntity
  8
0
  6
Continuous
 62
     7
370
    30
100
AcDbLine
 10
78.7289773057
 20
34.6939860907
 30
0.0
 11
80.528977042
 21
34.6939860907
 31
0.0
  0
LINE
  5
12D
330
1F
100
AcDbEntity
  8
0
  6
Continuous
 62
     7
370
    30
100
AcDbLine
 10
80.528977042
 20
65.1939864334
 30
0.0
 11
78.7289773057
 21
65.1939864334
 31
0.0
  0
LINE
  5
12E
330
1F
100
AcDbEntity
  8
0
  6
Continuous
 62
     7
370
    30
100
AcDbLine
 10
80.528977042
 20
34.6939860907
 30
0.0
 11
80.7289767022
 21
34.8939866822
 31
0.0
  0
LINE
  5
12F
330
1F
100
AcDbEntity
  8
0
  6
Continuous
 62
     7
370
    30
100
AcDbLine
 10
80.7289767022
 20
64.9939858418
 30
0.0
 11
80.528977042
 21
65.1939864334
 31
0.0
  0
LINE
  5
130
330
1F
100
AcDbEntity
  8
0
  6
Continuous
 62
     7
370
    30
100
AcDbLine
 10
71.9289770846
 20
36.7994866397
 30
0.0
 11
74.2289770338
 21
36.7994866397
 31
0.0
  0
LINE
  5
131
330
1F
100
AcDbEntity
  8
0
  6
Continuous
 62
     7
370
    30
100
AcDbLine
 10
74.2289770338
 20
63.0884858843
 30
0.0
 11
71.9289770846
 21
63.0884858843
 31
0.0
  0
LINE
  5
132
330
1F
100
AcDbEntity
  8
0
  6
Continuous
 62
     7
370
    30
100
AcDbLine
 10
71.9289770846
 20
63.0884858843
 30
0.0
 11
71.7289770897
 21
62.8884862241
 31
0.0
  0
LINE
  5
133
330
1F
100
AcDbEntity
  8
0
  6
Continuous
 62
     7
370
    30
100
AcDbLine
 10
71.7289770897
 20
36.9994863
 30
0.0
 11
71.9289770846
 21
36.7994866397
 31
0.0
  0
LINE
  5
134
330
1F
100
AcDbEntity
  8
0
  6
Continuous
 62
     7
370
    30
100
AcDbLine
 10
74.2289770338
 20
37.0534862455
 30
0.0
 11
74.7289771157
 21
37.0534862455
 31
0.0
  0
LINE
  5
135
330
1F
100
AcDbEntity
  8
0
  6
Continuous
 62
     7
370
    30
100
AcDbLine
 10
74.7289771157
 20
62.8344862785
 30
0.0
 11
74.2289770338
 21
62.8344862785
 31
0.0
  0
LINE
  5
136
330
1F
100
AcDbEntity
  8
0
  6
Continuous
 62
     7
370
    30
100
AcDbLine
 10
78.7289773057
 20
49.943986262
 30
0.0
 11
78.7289773057
 21
65.4439860087
 31
0.0
  0
LINE
  5
137
330
1F
100
AcDbEntity
  8
0
  6
Continuous
 62
     7
370
    30
100
AcDbLine
 10
78.7289773057
 20
34.4439865153
 30
0.0
 11
78.7289773057
 21
49.943986262
 31
0.0
  0
LINE
  5
138
330
1F
100
AcDbEntity
  8
0
  6
Continuous
 62
     7
370
    30
100
AcDbLine
 10
74.9289770088
 20
65.4439860087
 30
0.0
 11
74.9289770088
 21
34.4439865153
 31
0.0
  0
LINE
  5
139
330
1F
100
AcDbEntity
  8
0
  6
Continuous
 62
     7
370
    30
100
AcDbLine
 10
74.7289771157
 20
34.6439861756
 30
0.0
 11
74.7289771157
 21
65.2439863485
 31
0.0
  0
LINE
  5
13A
330
1F
100
AcDbEntity
  8
0
  6
Continuous
 62
     7
370
    30
100
AcDbLine
 10
80.528977042
 20
49.943986262
 30
0.0
 11
80.528977042
 21
65.1939864334
 31
0.0
  0
LINE
  5
13B
330
1F
100
AcDbEntity
  8
0
  6
Continuous
 62
     7
370
    30
100
AcDbLine
 10
80.528977042
 20
34.6939860907
 30
0.0
 11
80.528977042
 21
49.943986262
 31
0.0
  0
LINE
  5
13C
330
1F
100
AcDbEntity
  8
0
  6
Continuous
 62
     7
370
    30
100
AcDbLine
 10
80.7289767022
 20
49.943986262
 30
0.0
 11
80.7289767022
 21
34.8939866822
 31
0.0
  0
LINE
  5
13D
330
1F
100
AcDbEntity
  8
0
  6
Continuous
 62
     7
370
    30
100
AcDbLine
 10
80.7289767022
 20
64.9939858418
 30
0.0
 11
80.7289767022
 21
49.943986262
 31
0.0
  0
LINE
  5
13E
330
1F
100
AcDbEntity
  8
0
  6
Continuous
 62
     7
370
    30
100
AcDbLine
 10
74.2289770338
 20
49.943986262
 30
0.0
 11
74.2289770338
 21
63.0884858843
 31
0.0
  0
LINE
  5
13F
330
1F
100
AcDbEntity
  8
0
  6
Continuous
 62
     7
370
    30
100
AcDbLine
 10
74.2289770338
 20
36.7994866397
 30
0.0
 11
74.2289770338
 21
49.943986262
 31
0.0
  0
LINE
  5
140
330
1F
100
AcDbEntity
  8
0
  6
Continuous
 62
     7
370
    30
100
AcDbLine
 10
71.9289770846
 20
63.0884858843
 30
0.0
 11
71.9289770846
 21
36.7994866397
 31
0.0
  0
LINE
  5
141
330
1F
100
AcDbEntity
  8
0
  6
Continuous
 62
     7
370
    30
100
AcDbLine
 10
71.7289770897
 20
36.9994863
 30
0.0
 11
71.7289770897
 21
62.8884862241
 31
0.0
  0
LINE
  5
142
330
1F
100
AcDbEntity
  8
0
  6
HIDDEN
 62
     7
370
    15
100
AcDbLine
 10
75.4289770908
 20
49.943986262
 30
0.0
 11
75.4289770908
 21
63.197986136
 31
0.0
  0
LINE
  5
143
330
1F
100
AcDbEntity
  8
0
  6
HIDDEN
 62
     7
370
    15
100
AcDbLine
 10
75.4289770908
 20
36.689986388
 30
0.0
 11
75.4289770908
 21
49.943986262
 31
0.0
  0
LINE
  5
144
330
1F
100
AcDbEntity
  8
0
  6
HIDDEN
 62
     7
370
    15
100
AcDbLine
 10
75.9289769399
 20
49.943986262
 30
0.0
 11
75.9289769399
 21
63.197986136
 31
0.0
  0
LINE
  5
145
330
1F
100
AcDbEntity
  8
0
  6
HIDDEN
 62
     7
370
    15
100
AcDbLine
 10
75.9289769399
 20
36.689986388
 30
0.0
 11
75.9289769399
 21
49.943986262
 31
0.0
  0
LINE
  5
146
330
1F
100
AcDbEntity
  8
0
  6
HIDDEN
 62
     7
370
    15
100
AcDbLine
 10
75.4289770908
 20
36.689986388
 30
0.0
 11
75.9289769399
 21
36.689986388
 31
0.0
  0
LINE
  5
147
330
1F
100
AcDbEntity
  8
0
  6
HIDDEN
 62
     7
370
    15
100
AcDbLine
 10
75.9289769399
 20
63.197986136
 30
0.0
 11
75.4289770908
 21
63.197986136
 31
0.0
  0
LINE
  5
148
330
1F
100
AcDbEntity
  8
0
  6
HIDDEN
 62
     7
370
    15
100
AcDbLine
 10
80.7289767022
 20
62.7909860637
 30
0.0
 11
80.528977042
 21
62.5909864035
 31
0.0
  0
LINE
  5
149
330
1F
100
AcDbEntity
  8
0
  6
HIDDEN
 62
     7
370
    15
100
AcDbLine
 10
80.528977042
 20
37.2969861206
 30
0.0
 11
80.7289767022
 21
37.0969864603
 31
0.0
  0
LINE
  5
14A
330
1F
100
AcDbEntity
  8
0
  6
HIDDEN
 62
     7
370
    15
100
AcDbLine
 10
75.9289769399
 20
37.2969861206
 30
0.0
 11
80.528977042
 21
37.2969861206
 31
0.0
  0
LINE
  5
14B
330
1F
100
AcDbEntity
  8
0
  6
HIDDEN
 62
     7
370
    15
100
AcDbLine
 10
80.528977042
 20
62.5909864035
 30
0.0
 11
75.9289769399
 21
62.5909864035
 31
0.0
  0
LINE
  5
14C
330
1F
100
AcDbEntity
  8
0
  6
HIDDEN
 62
     7
370
    15
100
AcDbLine
 10
71.7289770897
 20
37.7439864975
 30
0.0
 11
71.9289770846
 21
37.9439861577
 31
0.0
  0
LINE
  5
14D
330
1F
100
AcDbEntity
  8
0
  6
HIDDEN
 62
     7
370
    15
100
AcDbLine
 10
71.9289770846
 20
61.9439863663
 30
0.0
 11
71.7289770897
 21
62.1439860266
 31
0.0
  0
LINE
  5
14E
330
1F
100
AcDbEntity
  8
0
  6
HIDDEN
 62
     7
370
    15
100
AcDbLine
 10
71.9289770846
 20
37.9439861577
 30
0.0
 11
75.4289770908
 21
37.9439861577
 31
0.0
  0
LINE
  5
14F
330
1F
100
AcDbEntity
  8
0
  6
HIDDEN
 62
     7
370
    15
100
AcDbLine
 10
75.4289770908
 20
61.9439863663
 30
0.0
 11
71.9289770846
 21
61.9439863663
 31
0.0
  0
DIMENSION
  5
150
330
1F
100
AcDbEntity
  8
DIM
100
AcDbDimension
  2
_D_1
 10
86.7289770897
 20
65.443986262
 30
0.0
 11
86.7289770897
 21
49.943986262
 31
0.0
 70
   160
  1
%%c<>
 71
     2
 42
-1.0
  3
SLDDIMSTYLE1
100
AcDbAlignedDimension
 13
78.7289770897
 23
34.443986262
 33
0.0
 14
78.7289770897
 24
65.443986262
 34
0.0
 50
90.0
100
AcDbRotatedDimension
  0
DIMENSION
  5
15C
330
1F
100
AcDbEntity
  8
DIM
100
AcDbDimension
  2
_D_2
 10
68.2289770897
 20
36.799486262
 30
0.0
 11
68.2289770897
 21
49.943986262
 31
0.0
 70
   160
  1
1.035-40
 71
     2
 42
-1.0
  3
SLDDIMSTYLE1
100
AcDbAlignedDimension
 13
71.9289770897
 23
63.088486262
 33
0.0
 14
71.9289770897
 24
36.799486262
 34
0.0
 50
90.0
100
AcDbRotatedDimension
  0
DIMENSION
  5
166
330
1F
100
AcDbEntity
  8
DIM
100
AcDbDimension
  2
_D_3
 10
84.2289770897
 20
37.296986262
 30
0.0
 11
84.2289770897
 21
49.943986262
 31
0.0
 70
   160
  1
M6x0.706(36TPI)
 71
     2
 42
-1.0
  3
SLDDIMSTYLE1
100
AcDbAlignedDimension
 13
80.5289770897
 23
62.590986262
 33
0.0
 14
80.5289770897
 24
37.296986262
 34
0.0
 50
90.0
100
AcDbRotatedDimension
  0
DIMENSION
  5
170
330
1F
100
AcDbEntity
  8
DIM
100
AcDbDimension
  2
_D_4
 10
80.7289770897
 20
30.943986262
 30
0.0
 11
78.0789770897
 21
30.943986262
 31
0.0
 70
   160
  1
<>
 71
     2
 42
-1.0
  3
SLDDIMSTYLE1
100
AcDbAlignedDimension
 13
75.4289770897
 23
36.689986262
 33
0.0
 14
80.7289770897
 24
34.893986262
 34
0.0
100
AcDbRotatedDimension
  0
DIMENSION
  5
17A
330
1F
100
AcDbEntity
  8
DIM
100
AcDbDimension
  2
_D_5
 10
80.7289770897
 20
71.443986262
 30
0.0
 11
76.2289770897
 21
71.443986262
 31
0.0
 70
   160
  1
<>
 71
     2
 42
-1.0
  3
SLDDIMSTYLE1
100
AcDbAlignedDimension
 13
71.7289770897
 23
62.888486262
 33
0.0
 14
80.7289770897
 24
64.993986262
 34
0.0
100
AcDbRotatedDimension
  0
DIMENSION
  5
184
330
1F
100
AcDbEntity
  8
DIM
100
AcDbDimension
  2
_D_6
 10
74.7289770897
 20
68.943986262
 30
0.0
 11
73.2289770897
 21
68.943986262
 31
0.0
 70
   160
  1
<>
 71
     2
 42
-1.0
  3
SLDDIMSTYLE1
100
AcDbAlignedDimension
 13
71.7289770897
 23
62.888486262
 33
0.0
 14
74.7289770897
 24
65.243986262
 34
0.0
100
AcDbRotatedDimension
  0
LINE
  5
18E
330
1F
100
AcDbEntity
  8
0
  6
Continuous
 62
     7
370
    30
100
AcDbLine
 10
126.5011507174
 20
59.7814573248
 30
0.0
 11
129.1881564859
 21
61.3326327372
 31
0.0
  0
LINE
  5
18F
330
1F
100
AcDbEntity
  8
0
  6
Continuous
 62
     7
370
    30
100
AcDbLine
 10
113.68941613
 20
88.180147471
 30
0.0
 11
111.0024103615
 21
86.6289720586
 31
0.0
  0
LINE
  5
190
330
1F
100
AcDbEntity
  8
0
  6
Continuous
 62
     7
370
    30
100
AcDbLine
 10
107.3358951106
 20
77.3462407369
 30
0.0
 11
107.3358951106
 21
77.1829591145
 31
0.0
  0
LINE
  5
191
330
1F
100
AcDbEntity
  8
0
  6
Continuous
 62
     7
370
    30
100
AcDbLine
 10
116.4875511964
 20
61.3301081111
 30
0.0
 11
116.6289495677
 21
61.248454031
 31
0.0
  0
LINE
  5
192
330
1F
100
AcDbEntity
  8
0
  6
Continuous
 62
     7
370
    30
100
AcDbLine
 10
123.2021760865
 20
60.5968232524
 30
0.0
 11
124.8285216832
 21
61.535692581
 31
0.0
  0
LINE
  5
193
330
1F
100
AcDbEntity
  8
0
  6
Continuous
 62
     7
370
    30
100
AcDbLine
 10
111.6850899021
 20
84.3032511241
 30
0.0
 11
110.0587443053
 21
83.3643817955
 31
0.0
  0
LINE
  5
194
330
1F
100
AcDbEntity
  8
0
  6
Continuous
 62
     7
370
    30
100
AcDbLine
 10
133.4949569272
 20
69.2660455521
 30
0.0
 11
133.4949569272
 21
69.4293271745
 31
0.0
  0
LINE
  5
195
330
1F
100
AcDbEntity
  8
0
  6
Continuous
 62
     7
370
    30
100
AcDbLine
 10
122.8547294877
 20
87.8607387857
 30
0.0
 11
122.7133311164
 21
87.9423928658
 31
0.0
  0
LWPOLYLINE
  5
196
330
1F
100
AcDbEntity
  8
0
  6
Continuous
 62
     7
370
    30
100
AcDbPolyline
 90
       78
 70
   128
 43
0.0
 10
119.6553544935
 20
60.0856524898
 10
120.2077080486
 20
59.8452913422
 10
120.838787018
 20
59.6119507899
 10
121.4620385534
 20
59.4260703065
 10
122.075273461
 20
59.288302804
 10
122.6763377308
 20
59.1991321957
 10
123.2631201027
 20
59.1588716967
 10
123.8335594822
 20
59.1676627235
 10
124.3856521801
 20
59.2254743971
 10
124.9174589507
 20
59.3321036521
 10
125.4271118034
 20
59.4871759492
 10
125.9128205639
 20
59.6901465915
 10
126.3728791624
 20
59.940302637
 10
126.8056716264
 20
60.2367654035
 10
127.2096777566
 20
60.5784935549
 10
127.5834784666
 20
60.9642867584
 10
127.9257607679
 20
61.3927899014
 10
128.2353223814
 20
61.8624978509
 10
128.5110759606
 20
62.3717607408
 10
128.7520529111
 20
62.9187897664
 10
128.9574067924
 20
63.5016634684
 10
129.1264162917
 20
64.1183344816
 10
129.2584877568
 20
64.7666367267
 10
129.3531572819
 20
65.4442930183
 10
129.4100923369
 20
66.148923064
 10
129.4290929354
 20
66.878051825
 10
129.4100923369
 20
67.6291182101
 10
129.3531572819
 20
68.3994840711
 10
129.2584877568
 20
69.1864434699
 10
129.1264162917
 20
69.9872321828
 10
128.9574067924
 20
70.7990374103
 10
128.7520529111
 20
71.619007657
 10
128.5110759606
 20
72.4442627473
 10
128.2353223814
 20
73.2719039428
 10
127.9257607679
 20
74.0990241236
 10
127.5834784666
 20
74.9227179998
 10
127.2096777566
 20
75.7400923167
 10
126.8056716264
 20
76.5482760171
 10
126.3728791624
 20
77.3444303264
 10
125.9128205639
 20
78.1257587234
 10
125.4271118034
 20
78.8895167638
 10
124.9174589507
 20
79.6330217195
 10
124.3856521801
 20
80.3536620023
 10
123.8335594822
 20
81.0489063368
 10
123.2631201027
 20
81.716312652
 10
122.6763377308
 20
82.353536659
 10
122.075273461
 20
82.958340085
 10
121.4620385534
 20
83.528598536
 10
120.838787018
 20
84.0623089585
 10
120.2077080486
 20
84.557596675
 10
119.571018333
 20
85.0127219695
 10
118.9309542671
 20
85.4260861977
 10
118.2897640993
 20
85.7962374027
 10
117.6497000334
 20
86.1218754148
 10
117.0130103179
 20
86.4018564188
 10
116.3819313484
 20
86.6351969711
 10
115.758679813
 20
86.8210774545
 10
115.1454449054
 20
86.958844957
 10
114.5443806356
 20
87.0480155652
 10
113.9575982637
 20
87.0882760642
 10
113.3871588843
 20
87.0794850375
 10
112.8350661864
 20
87.0216733638
 10
112.3032594157
 20
86.9150441089
 10
111.7936065631
 20
86.7599718117
 10
111.3078978026
 20
86.5570011695
 10
110.847839204
 20
86.306845124
 10
110.41504674
 20
86.0103823574
 10
110.0110406099
 20
85.6686542061
 10
109.6372398998
 20
85.2828610026
 10
109.2949575985
 20
84.8543578596
 10
108.985395985
 20
84.38464991
 10
108.7096424058
 20
83.8753870202
 10
108.4686654554
 20
83.3283579946
 10
108.263311574
 20
82.7454842926
 10
108.0943020748
 20
82.1288132794
 10
107.9622306097
 20
81.4805110343
 10
107.8675610845
 20
80.8028547427
 10
107.8423823993
 20
80.5485375416
  0
LWPOLYLINE
  5
197
330
1F
100
AcDbEntity
  8
0
  6
Continuous
 62
     7
370
    30
100
AcDbPolyline
 90
       79
 70
   128
 43
0.0
 10
107.8249713172
 20
80.4996494237
 10
107.8671241604
 20
80.9717784369
 10
107.9612535925
 20
81.6525389521
 10
108.0925802064
 20
82.3041797907
 10
108.260651292
 20
82.9244546117
 10
108.4648874735
 20
83.5112251991
 10
108.7045847065
 20
84.0624688334
 10
108.9789167048
 20
84.5762852634
 10
109.2869377894
 20
85.0509032575
 10
109.6275861477
 20
85.4846867091
 10
109.9996874942
 20
85.8761402769
 10
110.4019591186
 20
86.2239145393
 10
110.8330143071
 20
86.5268106463
 10
111.2913671233
 20
86.7837844523
 10
111.7754375301
 20
86.9939501154
 10
112.2835568365
 20
87.156583151
 10
112.8139734499
 20
87.2711229294
 10
113.3648589144
 20
87.3371746081
 10
113.9343142138
 20
87.3545104934
 10
114.5203763176
 20
87.3230708249
 10
115.1210249483
 20
87.2429639816
 10
115.7341895457
 20
87.1144661084
 10
116.3577564043
 20
86.9380201641
 10
116.9895759601
 20
86.7142343945
 10
117.6274702002
 20
86.4438802354
 10
118.2692401709
 20
86.1278896536
 10
118.9126735582
 20
85.7673519342
 10
119.555552314
 20
85.3635099253
 10
120.1956603019
 20
84.917755754
 10
120.8307909372
 20
84.4316260272
 10
121.458754793
 20
83.9067965349
 10
122.0773871477
 20
83.3450764731
 10
122.6845554475
 20
82.7484022071
 10
123.2781666575
 20
82.1188305967
 10
123.8561744768
 20
81.4585319058
 10
124.4165863928
 20
80.7697823206
 10
124.9574705495
 20
80.0549561038
 10
125.4769624072
 20
79.3165174093
 10
125.9732711697
 20
78.5570117883
 10
126.444685958
 20
77.779057414
 10
126.8895817077
 20
76.9853360563
 10
127.3064247709
 20
76.1785838372
 10
127.6937782033
 20
75.3615817987
 10
128.0503067173
 20
74.5371463161
 10
128.3747812852
 20
73.7081193892
 10
128.6660833761
 20
72.8773588456
 10
128.9232088112
 20
72.0477284891
 10
129.1452712259
 20
71.2220882273
 10
129.3315051251
 20
70.4032842132
 10
129.481268522
 20
69.594139034
 10
129.594045151
 20
68.7974419806
 10
129.6694462479
 20
68.0159394329
 10
129.7072118893
 20
67.252325392
 10
129.7072118893
 20
66.5092321937
 10
129.6694462479
 20
65.7892214343
 10
129.594045151
 20
65.0947751399
 10
129.481268522
 20
64.4282872108
 10
129.3315051251
 20
63.792055169
 10
129.1452712259
 20
63.1882722381
 10
128.9232088112
 20
62.619019783
 10
128.6660833761
 20
62.0862601348
 10
128.3747812852
 20
61.5918298263
 10
128.0503067173
 20
61.1374332614
 10
127.6937782033
 20
60.724636839
 10
127.3064247709
 20
60.3548635539
 10
126.8895817077
 20
60.0293880913
 10
126.444685958
 20
59.7493324326
 10
125.9732711697
 20
59.5156619875
 10
125.4769624072
 20
59.3291822666
 10
124.9574705495
 20
59.190536104
 10
124.4165863928
 20
59.1002014417
 10
123.8561744768
 20
59.0584896822
 10
123.2781666575
 20
59.0655446145
 10
122.6845554475
 20
59.1213419186
 10
122.0773871477
 20
59.2256892499
 10
121.458754793
 20
59.3782269014
 10
120.8307909372
 20
59.5784290442
 10
120.1956603019
 20
59.8256055401
 10
119.6043114795
 20
60.0950228991
  0
LWPOLYLINE
  5
198
330
1F
100
AcDbEntity
  8
0
  6
Continuous
 62
     7
370
    30
100
AcDbPolyline
 90
       42
 70
   128
 43
0.0
 10
132.3989414164
 20
68.4292272375
 10
132.3800504538
 20
69.1829056878
 10
132.3234426871
 20
69.9557970935
 10
132.2293132549
 20
70.7452371378
 10
132.097986641
 20
71.5485044573
 10
131.9299155554
 20
72.3628300232
 10
131.7256793739
 20
73.1854066866
 10
131.485982141
 20
74.0133988552
 10
131.2116501426
 20
74.8439522686
 10
130.903629058
 20
75.6742038371
 10
130.5629806998
 20
76.5012915115
 10
130.1908793532
 20
77.3223641493
 10
129.7886077289
 20
78.1345913429
 10
129.3575525403
 20
78.9351731771
 10
128.8991997241
 20
79.7213498803
 10
128.4151293173
 20
80.4904113387
 10
127.907010011
 20
81.2397064379
 10
127.3765933976
 20
81.9666522027
 10
126.825707933
 20
82.6687427004
 10
126.2562526336
 20
83.3435576795
 10
125.6701905299
 20
83.988770913
 10
125.0695418992
 20
84.6021582173
 10
124.4563773018
 20
85.1816051192
 10
123.8328104431
 20
85.7251141453
 10
123.2009908873
 20
86.2308117073
 10
122.5630966472
 20
86.696954561
 10
121.9213266765
 20
87.1219358154
 10
121.2778932892
 20
87.5042904721
 10
120.6350145334
 20
87.8427004753
 10
119.9949065455
 20
88.1359992557
 10
119.3597759102
 20
88.3831757516
 10
118.7318120545
 20
88.5833778944
 10
118.1131796997
 20
88.7359155459
 10
117.5060113999
 20
88.8402628772
 10
116.91240019
 20
88.8960601813
 10
116.3343923706
 20
88.9031151136
 10
115.7739804546
 20
88.8614033541
 10
115.2330962979
 20
88.7710686918
 10
114.7136044403
 20
88.6324225292
 10
114.2172956777
 20
88.4459428083
 10
113.7458808894
 20
88.2122723632
 10
113.68941613
 20
88.180147471
  0
ARC
  5
199
330
1F
100
AcDbEntity
  8
0
  6
Continuous
 62
     7
370
    30
100
AcDbCircle
 10
124.6857676201
 20
67.6443360486
 30
0.0
 40
7.753006138884767
100
AcDbArc
 50
305.5017727227
 51
5.8104076707
  0
LWPOLYLINE
  5
19A
330
1F
100
AcDbEntity
  8
0
  6
Continuous
 62
     7
370
    30
100
AcDbPolyline
 90
       33
 70
   128
 43
0.0
 10
127.7253191461
 20
67.8616194978
 10
127.7062034912
 20
68.5539761583
 10
127.6489367043
 20
69.2654992997
 10
127.5537589821
 20
69.9932045467
 10
127.4210695331
 20
70.7340396506
 10
127.251424903
 20
71.4848972915
 10
127.0455366402
 20
72.2426281114
 10
126.8042683118
 20
73.0040539241
 10
126.5286318809
 20
73.765981045
 10
126.2197834625
 20
74.5252136869
 10
125.8790184742
 20
75.2785673645
 10
125.5077662028
 20
76.0228822504
 10
125.1075838094
 20
76.7550364295
 10
124.6801497979
 20
77.4719589926
 10
124.2272569752
 20
78.1706429174
 10
123.7508049311
 20
78.8481576806
 10
123.2527920711
 20
79.50166155
 10
122.7353072343
 20
80.1284135031
 10
122.2005209318
 20
80.7257847245
 10
121.6506762433
 20
81.2912696317
 10
121.0880794084
 20
81.8224963844
 10
120.5150901538
 20
82.3172368331
 10
119.9341117956
 20
82.7734158643
 10
119.3475811589
 20
83.1891201046
 10
118.757958357
 20
83.5626059461
 10
118.1677164729
 20
83.8923068593
 10
117.5793311862
 20
84.1768399639
 10
116.9952703892
 20
84.4150118294
 10
116.4179838359
 20
84.60582348
 10
115.8498928667
 20
84.7484745854
 10
115.2933802525
 20
84.8423668173
 10
114.7507802007
 20
84.8871063591
 10
114.7004448514
 20
84.8887798464
  0
ARC
  5
19B
330
1F
100
AcDbEntity
  8
0
  6
Continuous
 62
     7
370
    30
100
AcDbCircle
 10
119.1353397594
 20
67.6510037968
 30
0.0
 40
8.592561017391192
100
AcDbArc
 50
333.7760329806
 51
1.4045404426
  0
LWPOLYLINE
  5
19C
330
1F
100
AcDbEntity
  8
0
  6
Continuous
 62
     7
370
    30
100
AcDbPolyline
 90
       98
 70
   128
 43
0.0
 10
107.3358951106
 20
77.1829591145
 10
107.3550908435
 20
76.4877020808
 10
107.4125975285
 20
75.7731982754
 10
107.5081739627
 20
75.0424445754
 10
107.6414192652
 20
74.2985060158
 10
107.8117745591
 20
73.5445029335
 10
108.0185253148
 20
72.7835978795
 10
108.260804348
 20
72.018982354
 10
108.5375954562
 20
71.2538634202
 10
108.8477376812
 20
70.4914502528
 10
109.1899301789
 20
69.7349406776
 10
109.5627376749
 20
68.9875077587
 10
109.964596485
 20
68.2522864895
 10
110.3938210738
 20
67.5323606435
 10
110.8486111241
 20
66.8307498398
 10
111.3270590884
 20
66.1503968781
 10
111.8271581898
 20
65.4941553951
 10
112.3468108387
 20
64.8647778956
 10
112.8838374313
 20
64.2649042075
 10
113.4359854916
 20
63.6970504097
 10
114.0009391186
 20
63.1635982783
 10
114.5763287005
 20
62.6667852968
 10
115.1597408535
 20
62.2086952716
 10
115.7487285442
 20
61.7912495915
 10
116.3408213535
 20
61.4161991687
 10
116.9335358385
 20
61.0851170951
 10
117.5243859486
 20
60.7993920438
 10
118.1108934531
 20
60.5602224451
 10
118.6905983357
 20
60.3686114594
 10
119.2610691127
 20
60.2253627697
 10
119.8199130314
 20
60.1310772109
 10
120.3647861062
 20
60.0861502493
 10
120.89340295
 20
60.0907703242
 10
121.4035463601
 20
60.1449180574
 10
121.8930766178
 20
60.2483663346
 10
122.359940463
 20
60.4006812576
 10
122.8021797065
 20
60.6012239648
 10
123.2179394432
 20
60.8491533103
 10
123.6054758323
 20
61.1434293924
 10
123.9631634116
 20
61.4828179148
 10
124.2895019149
 20
61.8658953642
 10
124.5831225653
 20
62.2910549806
 10
124.8427938156
 20
62.7565134968
 10
125.0674265144
 20
63.260318618
 10
125.2560784742
 20
63.8003572105
 10
125.4079584229
 20
64.3743641648
 10
125.5224293233
 20
64.9799318962
 10
125.5990110448
 20
65.6145204431
 10
125.6373823768
 20
66.2754681208
 10
125.6373823768
 20
66.9600026848
 10
125.5990110448
 20
67.6652529595
 10
125.5224293233
 20
68.3882608799
 10
125.4079584229
 20
69.1259938998
 10
125.2560784742
 20
69.8753577103
 10
125.0674265144
 20
70.6332092192
 10
124.8427938156
 20
71.396369734
 10
124.5831225653
 20
72.1616382942
 10
124.2895019149
 20
72.9258050975
 10
123.9631634116
 20
73.6856649628
 10
123.6054758323
 20
74.4380307738
 10
123.2179394432
 20
75.1797468467
 10
122.8021797065
 20
75.9077021666
 10
122.359940463
 20
76.6188434359
 10
121.8930766178
 20
77.310187881
 10
121.4035463601
 20
77.9788357631
 10
120.89340295
 20
78.6219825404
 10
120.3647861062
 20
79.236930632
 10
119.8199130314
 20
79.8211007318
 10
119.2610691127
 20
80.3720426274
 10
118.6905983357
 20
80.8874454771
 10
118.1108934531
 20
81.3651475021
 10
117.5243859486
 20
81.8031450542
 10
116.9335358385
 20
82.1996010195
 10
116.3408213535
 20
82.5528525237
 10
115.7487285442
 20
82.8614179074
 10
115.1597408535
 20
83.1240029401
 10
114.5763287005
 20
83.3395062489
 10
114.0009391186
 20
83.5070239381
 10
113.4359854916
 20
83.6258533802
 10
112.8838374313
 20
83.6954961632
 10
112.3468108387
 20
83.7156601812
 10
111.8271581898
 20
83.6862608592
 10
111.3270590884
 20
83.6074215083
 10
110.8486111241
 20
83.4794728079
 10
110.3938210738
 20
83.3029514195
 10
109.964596485
 20
83.0785977351
 10
109.5627376749
 20
82.8073527721
 10
109.1899301789
 20
82.490354226
 10
108.8477376812
 20
82.1289316989
 10
108.5375954562
 20
81.7246011226
 10
108.260804348
 20
81.2790583999
 10
108.0185253148
 20
80.7941722919
 10
107.8117745591
 20
80.2719765794
 10
107.6414192652
 20
79.7146615327
 10
107.5081739627
 20
79.1245647249
 10
107.4125975285
 20
78.5041612269
 10
107.3550908435
 20
77.8560532267
 10
107.3358951106
 20
77.1829591145
  0
LWPOLYLINE
  5
19D
330
1F
100
AcDbEntity
  8
0
  6
Continuous
 62
     7
370
    30
100
AcDbPolyline
 90
       75
 70
   128
 43
0.0
 10
107.3358951106
 20
77.3462407369
 10
107.3549917914
 20
78.0228834551
 10
107.4122033615
 20
78.674697145
 10
107.5072947262
 20
79.2990033641
 10
107.6398751347
 20
79.8932367044
 10
107.8093997857
 20
80.4549553337
 10
108.0151720661
 20
80.9818510294
 10
108.2563464134
 20
81.4717586643
 10
108.5319317904
 20
81.9226651028
 10
108.8407957578
 20
82.3327174736
 10
109.1816691272
 20
82.7002307835
 10
109.5531511769
 20
83.0236948416
 10
109.9537154074
 20
83.3017804646
 10
110.3817158145
 20
83.533344939
 10
110.8353936525
 20
83.7174367168
 10
111.312884662
 20
83.8532993254
 10
111.81222673
 20
83.9403744761
 10
112.3313679528
 20
83.9783043585
 10
112.8681750678
 20
83.9669331106
 10
113.4204422194
 20
83.9063074592
 10
113.9859000234
 20
83.7966765282
 10
114.5622248924
 20
83.6384908146
 10
115.1470485839
 20
83.4324003374
 10
115.7379679319
 20
83.1792519665
 10
116.3325547221
 20
82.880085943
 10
116.9283656697
 20
82.5361316042
 10
117.5229524599
 20
82.1488023323
 10
118.1138718079
 20
81.7196897462
 10
118.6986954994
 20
81.2505571618
 10
119.2750203684
 20
80.7433323453
 10
119.8404781724
 20
80.2000995924
 10
120.392745324
 20
79.623091163
 10
120.929552439
 20
79.0146781084
 10
121.4486936618
 20
78.3773605285
 10
121.9480357298
 20
77.7137572978
 10
122.4255267393
 20
77.0265953044
 10
122.8792045774
 20
76.3186982443
 10
123.3072049844
 20
75.5929750183
 10
123.7077692149
 20
74.852407779
 10
124.0792512646
 20
74.1000396758
 10
124.420124634
 20
73.3389623508
 10
124.7289886014
 20
72.5723032339
 10
125.0045739785
 20
71.8032126918
 10
125.2457483257
 20
71.0348510826
 10
125.4515206061
 20
70.2703757689
 10
125.6210452571
 20
69.5129281439
 10
125.7536256656
 20
68.7656207221
 10
125.8487170303
 20
68.0315243502
 10
125.9059286004
 20
67.3136555876
 10
125.9250252812
 20
66.614964311
 10
125.9059286004
 20
65.9383215928
 10
125.8487170303
 20
65.2865079029
 10
125.7536256656
 20
64.6622016837
 10
125.6210452571
 20
64.0679683434
 10
125.4515206061
 20
63.5062497142
 10
125.2457483257
 20
62.9793540184
 10
125.0045739785
 20
62.4894463835
 10
124.7289886014
 20
62.038539945
 10
124.420124634
 20
61.6284875743
 10
124.0792512646
 20
61.2609742643
 10
123.7077692149
 20
60.9375102063
 10
123.3072049844
 20
60.6594245833
 10
122.8792045774
 20
60.4278601088
 10
122.4255267393
 20
60.243768331
 10
121.9480357298
 20
60.1079057225
 10
121.4486936618
 20
60.0208305718
 10
120.929552439
 20
59.9829006893
 10
120.392745324
 20
59.9942719373
 10
119.8404781724
 20
60.0548975886
 10
119.2750203684
 20
60.1645285197
 10
118.6986954994
 20
60.3227142333
 10
118.1138718079
 20
60.5288047105
 10
117.5229524599
 20
60.7819530813
 10
116.9283656697
 20
61.0811191049
 10
116.6289495677
 20
61.248454031
  0
LWPOLYLINE
  5
19E
330
1F
100
AcDbEntity
  8
0
  6
Continuous
 62
     7
370
    30
100
AcDbPolyline
 90
       38
 70
   128
 43
0.0
 10
127.5513708779
 20
67.5538336396
 10
127.5322741971
 20
68.2525249162
 10
127.4750626271
 20
68.9703936788
 10
127.3799712624
 20
69.7044900507
 10
127.2473908538
 20
70.4517974725
 10
127.0778662028
 20
71.2092450975
 10
126.8720939225
 20
71.9737204112
 10
126.6309195752
 20
72.7420820204
 10
126.3553341982
 20
73.5111725625
 10
126.0464702308
 20
74.2778316794
 10
125.7055968613
 20
75.0389090044
 10
125.3341148116
 20
75.7912771076
 10
124.9335505811
 20
76.5318443469
 10
124.5055501741
 20
77.2575675729
 10
124.051872336
 20
77.965464633
 10
123.5743813265
 20
78.6526266264
 10
123.0750392585
 20
79.3162298571
 10
122.5558980357
 20
79.953547437
 10
122.0190909207
 20
80.5619604916
 10
121.4668237691
 20
81.138968921
 10
120.9013659651
 20
81.6822016739
 10
120.3250410961
 20
82.1894264904
 10
119.7402174046
 20
82.6585590748
 10
119.1492980566
 20
83.0876716609
 10
118.5547112665
 20
83.4750009328
 10
117.9589003188
 20
83.8189552716
 10
117.3643135287
 20
84.1181212951
 10
116.7733941806
 20
84.371269666
 10
116.1885704891
 20
84.5773601432
 10
115.6122456201
 20
84.7355458568
 10
115.0467878161
 20
84.8451767878
 10
114.4945206645
 20
84.9058024392
 10
113.9577135495
 20
84.9171736871
 10
113.4385723267
 20
84.8792438047
 10
112.9392302587
 20
84.792168654
 10
112.4617392492
 20
84.6563060454
 10
112.0080614112
 20
84.4722142676
 10
111.6850899021
 20
84.3032511241
  0
ARC
  5
19F
330
1F
100
AcDbEntity
  8
0
  6
Continuous
 62
     7
370
    30
100
AcDbCircle
 10
120.9991095681
 20
66.8933065267
 30
0.0
 40
6.585470699868675
100
AcDbArc
 50
305.5556958364
 51
5.756484557
  0
LWPOLYLINE
  5
1A0
330
1F
100
AcDbEntity
  8
0
  6
Continuous
 62
     7
370
    30
100
AcDbPolyline
 90
       95
 70
   128
 43
0.0
 10
107.8623361092
 20
76.8790511949
 10
107.8816005835
 20
77.5333047695
 10
107.9393079665
 20
78.1623940003
 10
108.0352005231
 20
78.763509222
 10
108.1688499738
 20
79.3339657081
 10
108.3396594077
 20
79.8712156616
 10
108.5468659485
 20
80.3728595936
 10
108.7895441614
 20
80.8366570406
 10
109.0666101866
 20
81.2605365706
 10
109.37682658
 20
81.6426050347
 10
109.7188078398
 20
81.9811560224
 10
110.0910265948
 20
82.2746774829
 10
110.4918204256
 20
82.521858478
 10
110.9193992898
 20
82.7215950374
 10
111.3718535162
 20
82.8729950891
 10
111.8471623344
 20
82.9753824438
 10
112.3432029
 20
83.0282998147
 10
112.8577597753
 20
83.0315108599
 10
113.3885348244
 20
82.9850012381
 10
113.9331574771
 20
82.8889786727
 10
114.4891953164
 20
82.7438720236
 10
115.0541649423
 20
82.5503293725
 10
115.6255430634
 20
82.3092151277
 10
116.2007777663
 20
82.021606164
 10
116.7772999131
 20
81.688787013
 10
117.3525346159
 20
81.3122441256
 10
117.923912737
 20
80.8936592338
 10
118.488882363
 20
80.4349018394
 10
119.0449202023
 20
79.9380208643
 10
119.589542855
 20
79.4052354995
 10
120.1203179041
 20
78.8389252938
 10
120.6348747794
 20
78.2416195261
 10
121.1309153449
 20
77.6159859088
 10
121.6062241632
 20
76.9648186736
 10
122.0586783896
 20
76.2910260916
 10
122.4862572537
 20
75.5976174838
 10
122.8870510845
 20
74.8876897814
 10
123.2592698395
 20
74.164413694
 10
123.6012510994
 20
73.4310195481
 10
123.9114674928
 20
72.69078286
 10
124.188533518
 20
71.9470097064
 10
124.4312117309
 20
71.2030219589
 10
124.6384182716
 20
70.4621424472
 10
124.8092277056
 20
69.7276801191
 10
124.9428771563
 20
69.0029152617
 10
125.0387697128
 20
68.2910848508
 10
125.0964770959
 20
67.5953680938
 10
125.1157415701
 20
66.9188722306
 10
125.0964770959
 20
66.264618656
 10
125.0387697128
 20
65.6355294252
 10
124.9428771563
 20
65.0344142035
 10
124.8092277056
 20
64.4639577174
 10
124.6384182716
 20
63.9267077639
 10
124.4312117309
 20
63.4250638319
 10
124.188533518
 20
62.961266385
 10
123.9114674928
 20
62.537386855
 10
123.6012510994
 20
62.1553183908
 10
123.2592698395
 20
61.8167674031
 10
122.8870510845
 20
61.5232459426
 10
122.4862572537
 20
61.2760649475
 10
122.0586783896
 20
61.0763283881
 10
121.6062241632
 20
60.9249283364
 10
121.1309153449
 20
60.8225409817
 10
120.6348747794
 20
60.7696236108
 10
120.1203179041
 20
60.7664125656
 10
119.589542855
 20
60.8129221874
 10
119.0449202023
 20
60.9089447528
 10
118.488882363
 20
61.0540514019
 10
117.923912737
 20
61.247594053
 10
117.3525346159
 20
61.4887082978
 10
116.7772999131
 20
61.7763172615
 10
116.2007777663
 20
62.1091364125
 10
115.6255430634
 20
62.4856792999
 10
115.0541649423
 20
62.9042641917
 10
114.4891953164
 20
63.3630215861
 10
113.9331574771
 20
63.8599025612
 10
113.3885348244
 20
64.392687926
 10
112.8577597753
 20
64.9589981317
 10
112.3432029
 20
65.5563038995
 10
111.8471623344
 20
66.1819375167
 10
111.3718535162
 20
66.8331047519
 10
110.9193992898
 20
67.5068973339
 10
110.4918204256
 20
68.2003059417
 10
110.0910265948
 20
68.9102336441
 10
109.7188078398
 20
69.6335097315
 10
109.37682658
 20
70.3669038774
 10
109.0666101866
 20
71.1071405655
 10
108.7895441614
 20
71.8509137191
 10
108.5468659485
 20
72.5949014666
 10
108.3396594077
 20
73.3357809783
 10
108.1688499738
 20
74.0702433064
 10
108.0352005231
 20
74.7950081638
 10
107.9393079665
 20
75.5068385747
 10
107.8816005835
 20
76.2025553317
 10
107.8623361092
 20
76.8790511949
  0
LWPOLYLINE
  5
1A1
330
1F
100
AcDbEntity
  8
0
  6
Continuous
 62
     7
370
    30
100
AcDbPolyline
 90
       48
 70
   128
 43
0.0
 10
108.1451788217
 20
76.8790511949
 10
108.1641274849
 20
76.2136454278
 10
108.2208888452
 20
75.5293338635
 10
108.3152093927
 20
74.8291728036
 10
108.4466678688
 20
74.1162893374
 10
108.6146771481
 20
73.3938673753
 10
108.8184868603
 20
72.6651334294
 10
109.0571867418
 20
71.9333422023
 10
109.329710701
 20
71.2017620512
 10
109.6348415798
 20
70.4736603908
 10
109.9712165895
 20
69.7522890997
 10
110.3373333977
 20
69.0408699974
 10
110.7315568378
 20
68.3425804541
 10
111.1521262124
 20
67.6605392005
 10
111.5971631564
 20
66.9977923985
 10
112.0646800268
 20
66.357300036
 10
112.5525887798
 20
65.7419227076
 10
113.0587102965
 20
65.1544088376
 10
113.5807841153
 20
64.5973824058
 10
114.1164785278
 20
64.0733312273
 10
114.6634009927
 20
63.584595842
 10
115.2191088215
 20
63.1333590606
 10
115.7811200881
 20
62.7216362162
 10
116.3469247139
 20
62.3512661631
 10
116.9139956779
 20
62.0239030637
 10
117.4798003037
 20
61.741009001
 10
118.0418115703
 20
61.5038474488
 10
118.5975193991
 20
61.313477628
 10
119.144441864
 20
61.1707497765
 10
119.6801362765
 20
61.0763013514
 10
120.2022100953
 20
61.0305541825
 10
120.708331612
 20
61.0337125876
 10
121.196240365
 20
61.0857624606
 10
121.6637572354
 20
61.1864713341
 10
122.1087941794
 20
61.3353894177
 10
122.529363554
 20
61.5318516073
 10
122.9235869941
 20
61.7749804549
 10
123.2897038023
 20
62.0636900882
 10
123.626078812
 20
62.3966910597
 10
123.9312096908
 20
62.7724961064
 10
124.20373365
 20
63.1894267917
 10
124.4424335315
 20
63.6456210018
 10
124.6462432437
 20
64.1390412628
 10
124.814252523
 20
64.6674838399
 10
124.9457109991
 20
65.2285885804
 10
125.0400315466
 20
65.8198494542
 10
125.0967929069
 20
66.4386257468
 10
125.1154494623
 20
67.0010190423
  0
LWPOLYLINE
  5
1A2
330
1F
100
AcDbEntity
  8
0
  6
Continuous
 62
     7
370
    30
100
AcDbPolyline
 90
       25
 70
   128
 43
0.0
 10
116.5614322148
 20
81.8186170411
 10
116.3469247139
 20
81.9373019842
 10
115.7811200881
 20
82.2201960468
 10
115.2191088215
 20
82.4573575991
 10
114.6634009927
 20
82.6477274199
 10
114.1164785278
 20
82.7904552714
 10
113.5807841153
 20
82.8849036964
 10
113.0587102965
 20
82.9306508654
 10
112.5525887798
 20
82.9274924602
 10
112.0646800268
 20
82.8754425873
 10
111.5971631564
 20
82.7747337138
 10
111.1521262124
 20
82.6258156301
 10
110.7315568378
 20
82.4293534406
 10
110.3373333977
 20
82.1862245929
 10
109.9712165895
 20
81.8975149597
 10
109.6348415798
 20
81.5645139881
 10
109.329710701
 20
81.1887089414
 10
109.0571867418
 20
80.7717782562
 10
108.8184868603
 20
80.315584046
 10
108.6146771481
 20
79.8221637851
 10
108.4466678688
 20
79.2937212079
 10
108.3152093927
 20
78.7326164675
 10
108.2208888452
 20
78.1413555936
 10
108.1641274849
 20
77.5225793011
 10
108.1451788217
 20
76.8790511949
  0
LWPOLYLINE
  5
1A3
330
1F
100
AcDbEntity
  8
0
  6
Continuous
 62
     7
370
    30
100
AcDbPolyline
 90
       43
 70
   128
 43
0.0
 10
111.9973437118
 20
82.8641581484
 10
111.8045844352
 20
82.6174231371
 10
111.532060476
 20
82.2004924519
 10
111.2933605945
 20
81.7442982417
 10
111.0895508822
 20
81.2508779808
 10
110.9215416029
 20
80.7224354036
 10
110.7900831268
 20
80.1613306631
 10
110.6957625794
 20
79.5700697893
 10
110.639001219
 20
78.9512934968
 10
110.6200525558
 20
78.3077653906
 10
110.639001219
 20
77.6423596235
 10
110.6957625794
 20
76.9580480592
 10
110.7900831268
 20
76.2578869993
 10
110.9215416029
 20
75.545003533
 10
111.0895508822
 20
74.822581571
 10
111.2933605945
 20
74.0938476251
 10
111.532060476
 20
73.362056398
 10
111.8045844352
 20
72.6304762469
 10
112.1097153139
 20
71.9023745865
 10
112.4460903236
 20
71.1810032954
 10
112.8122071318
 20
70.4695841931
 10
113.206430572
 20
69.7712946498
 10
113.6269999465
 20
69.0892533962
 10
114.0720368905
 20
68.4265065942
 10
114.539553761
 20
67.7860142317
 10
115.027462514
 20
67.1706369033
 10
115.5335840307
 20
66.5831230333
 10
116.0556578494
 20
66.0260966015
 10
116.5913522619
 20
65.502045423
 10
117.1382747268
 20
65.0133100376
 10
117.6939825556
 20
64.5620732563
 10
118.2559938223
 20
64.1503504119
 10
118.821798448
 20
63.7799803588
 10
119.3888694121
 20
63.4526172593
 10
119.9546740378
 20
63.1697231967
 10
120.5166853045
 20
62.9325616445
 10
121.0723931333
 20
62.7421918237
 10
121.6193155982
 20
62.5994639722
 10
122.1550100107
 20
62.5050155471
 10
122.6770838295
 20
62.4592683782
 10
123.1832053461
 20
62.4624267833
 10
123.6711140992
 20
62.5144766563
 10
123.7384504142
 20
62.5257610952
  0
LWPOLYLINE
  5
1A4
330
1F
100
AcDbEntity
  8
0
  6
Continuous
 62
     7
370
    30
100
AcDbPolyline
 90
       41
 70
   128
 43
0.0
 10
133.4949569272
 20
69.2660455521
 10
133.4760184222
 20
70.0146574719
 10
133.4192694295
 20
70.7825057974
 10
133.3249092819
 20
71.5668934334
 10
133.1932694228
 20
72.3650651898
 10
133.0248122422
 20
73.174217459
 10
132.820129452
 20
73.9915080643
 10
132.5799400079
 20
74.8140662426
 10
132.3050875842
 20
75.6390027284
 10
131.99653761
 20
76.463419902
 10
131.6553738783
 20
77.2844219681
 10
131.2827947392
 20
78.0991251271
 10
130.8801088905
 20
78.9046677043
 10
130.448730781
 20
79.6982202021
 10
129.9901756419
 20
80.4769952384
 10
129.5060541649
 20
81.2382573375
 10
128.9980668445
 20
81.9793325384
 10
128.4679980045
 20
82.6976177876
 10
127.917709531
 20
83.3905900818
 10
127.3491343326
 20
84.0558153307
 10
126.7642695501
 20
84.6909569062
 10
126.1651695426
 20
85.2937838504
 10
125.5539386707
 20
85.8621787118
 10
124.932723905
 20
86.3941449825
 10
124.3037072851
 20
86.8878141117
 10
123.6690982549
 20
87.3414520686
 10
123.0311259017
 20
87.7534654333
 10
122.3920311266
 20
88.1224069939
 10
121.7540587733
 20
88.4469808295
 10
121.1194497431
 20
88.7260468629
 10
120.4904331232
 20
88.9586248643
 10
119.8692183576
 20
89.1438978952
 10
119.2579874856
 20
89.2812151771
 10
118.6588874781
 20
89.3700943781
 10
118.0740226957
 20
89.4102233069
 10
117.5054474972
 20
89.401461009
 10
116.9551590238
 20
89.3438382624
 10
116.4250901838
 20
89.237557469
 10
115.9171028633
 20
89.0829919441
 10
115.4329813863
 20
88.8806846046
 10
115.2068324904
 20
88.7653321877
  0
ARC
  5
1A5
330
1F
100
AcDbEntity
  8
0
  6
Continuous
 62
     7
370
    30
100
AcDbCircle
 10
125.7330682771
 20
68.5561457041
 30
0.0
 40
7.794284650411914
100
AcDbArc
 50
307.2762633933
 51
5.2257151751
  0
ARC
  5
1A6
330
1F
100
AcDbEntity
  8
0
  6
Continuous
 62
     7
370
    30
100
AcDbCircle
 10
131.4529654523
 20
80.5374526707
 30
0.0
 40
21.15593970257875
100
AcDbArc
 50
196.4159966714
 51
223.5786267959
  0
ARC
  5
1A7
330
1F
100
AcDbEntity
  8
0
  6
Continuous
 62
     7
370
    30
100
AcDbCircle
 10
110.4415052348
 20
68.4077948742
 30
0.0
 40
23.0760733916358
100
AcDbArc
 50
2.5372003992
 51
57.4574230681
  0
LWPOLYLINE
  5
1A8
330
1F
100
AcDbEntity
  8
0
  6
Continuous
 62
     7
370
    30
100
AcDbPolyline
 90
       33
 70
   128
 43
0.0
 10
124.6945979781
 20
64.2766824185
 10
124.456228239
 20
64.3556273146
 10
123.8788454651
 20
64.5788640234
 10
123.2964642749
 20
64.8488288478
 10
122.7115785141
 20
65.1643657569
 10
122.1266927533
 20
65.5241235732
 10
121.5443115631
 20
65.9265617585
 10
120.9669287892
 20
66.3699570108
 10
120.3970168733
 20
66.8524106435
 10
119.8370162656
 20
67.371856716
 10
119.2893249748
 20
67.9260708806
 10
118.7562882991
 20
68.5126799071
 10
118.2401887833
 20
69.1291718456
 10
117.7432364448
 20
69.772906783
 10
117.2675593097
 20
70.4411281475
 10
116.8151943007
 20
71.1309745125
 10
116.3880785141
 20
71.83949185
 10
115.9880409253
 20
72.5636461801
 10
115.6167945567
 20
73.3003365626
 10
115.2759291422
 20
74.0464083764
 10
114.9669043199
 20
74.7986668273
 10
114.6910433814
 20
75.5538906291
 10
114.4495276057
 20
76.3088457977
 10
114.2433912004
 20
77.060299499
 10
114.0735168733
 20
77.805033893
 10
113.9406320522
 20
78.5398599126
 10
113.8453057704
 20
79.26163092
 10
113.7879462297
 20
79.967256181
 10
113.7687990524
 20
80.6537140999
 10
113.7879462297
 20
81.3180651584
 10
113.8453057704
 20
81.9574645033
 10
113.9406320522
 20
82.5691741286
 10
113.9917553819
 20
82.8165584147
  0
ARC
  5
1A9
330
1F
100
AcDbEntity
  8
0
  6
Continuous
 62
     7
370
    30
100
AcDbCircle
 10
133.4786941137
 20
81.706880935
 30
0.0
 40
19.7335711261019
100
AcDbArc
 50
182.8233311213
 51
237.171292346
  0
ENDSEC
  0
SECTION
  2
OBJECTS
  0
DICTIONARY
  5
C
330
0
100
AcDbDictionary
281
     1
  3
ACAD_GROUP
350
D
  3
ACAD_LAYOUT
350
1A
  3
ACAD_MLINESTYLE
350
17
  3
ACAD_PLOTSETTINGS
350
19
  3
ACAD_PLOTSTYLENAME
350
E
  3
ACAD_SCALELIST
350
47
  0
DICTIONARY
  5
D
102
{ACAD_REACTORS
330
C
102
}
330
C
100
AcDbDictionary
281
     1
  0
DICTIONARY
  5
1A
102
{ACAD_REACTORS
330
C
102
}
330
C
100
AcDbDictionary
281
     1
  3
Layout1
350
1E
  3
Layout2
350
26
  3
Model
350
22
  0
DICTIONARY
  5
17
102
{ACAD_REACTORS
330
C
102
}
330
C
100
AcDbDictionary
281
     1
  3
Standard
350
18
  0
DICTIONARY
  5
19
102
{ACAD_REACTORS
330
C
102
}
330
C
100
AcDbDictionary
281
     1
  0
ACDBDICTIONARYWDFLT
  5
E
102
{ACAD_REACTORS
330
C
102
}
330
C
100
AcDbDictionary
281
     1
  3
Normal
350
F
100
AcDbDictionaryWithDefault
340
F
  0
DICTIONARY
  5
47
102
{ACAD_REACTORS
330
C
102
}
330
C
100
AcDbDictionary
281
     1
  3
A0
350
48
  3
A1
350
49
  3
A2
350
4A
  3
A3
350
4B
  3
A4
350
4C
  3
A5
350
4D
  3
A6
350
4E
  3
A7
350
4F
  3
A8
350
50
  3
A9
350
51
  3
B0
350
52
  3
B1
350
53
  3
B2
350
54
  3
B3
350
55
  3
B4
350
56
  3
B5
350
57
  3
B6
350
58
  3
B7
350
59
  3
B8
350
5A
  3
B9
350
5B
  3
C0
350
5C
  3
C1
350
5D
  3
C2
350
5E
  3
C3
350
5F
  3
C4
350
60
  3
C5
350
61
  3
C6
350
62
  3
C7
350
63
  3
C8
350
64
  3
C9
350
65
  3
D0
350
66
  3
D1
350
67
  3
D2
350
68
  0
LAYOUT
  5
1E
102
{ACAD_REACTORS
330
1A
102
}
330
1A
100
AcDbPlotSettings
  1

  2
none_device
  4

  6

 40
0.0
 41
0.0
 42
0.0
 43
0.0
 44
0.0
 45
0.0
 46
0.0
 47
0.0
 48
0.0
 49
0.0
140
0.0
141
0.0
142
1.0
143
1.0
 70
   688
 72
     1
 73
     0
 74
     5
  7

 75
    16
147
1.0
148
0.0
149
0.0
100
AcDbLayout
  1
Layout1
 70
     1
 71
     1
 10
0.0
 20
0.0
 11
420.0
 21
297.0
 12
0.0
 22
0.0
 32
0.0
 14
1.0000000000E+20
 24
1.0000000000E+20
 34
1.0000000000E+20
 15
-1.0000000000E+20
 25
-1.0000000000E+20
 35
-1.0000000000E+20
146
0.0
 13
0.0
 23
0.0
 33
0.0
 16
1.0
 26
0.0
 36
0.0
 17
0.0
 27
1.0
 37
0.0
 76
     0
330
1B
  0
LAYOUT
  5
26
102
{ACAD_REACTORS
330
1A
102
}
330
1A
100
AcDbPlotSettings
  1

  2
none_device
  4

  6

 40
0.0
 41
0.0
 42
0.0
 43
0.0
 44
0.0
 45
0.0
 46
0.0
 47
0.0
 48
0.0
 49
0.0
140
0.0
141
0.0
142
1.0
143
1.0
 70
   688
 72
     1
 73
     0
 74
     5
  7

 75
    16
147
1.0
148
0.0
149
0.0
100
AcDbLayout
  1
Layout2
 70
     1
 71
     2
 10
0.0
 20
0.0
 11
0.0
 21
0.0
 12
0.0
 22
0.0
 32
0.0
 14
0.0
 24
0.0
 34
0.0
 15
0.0
 25
0.0
 35
0.0
146
0.0
 13
0.0
 23
0.0
 33
0.0
 16
1.0
 26
0.0
 36
0.0
 17
0.0
 27
1.0
 37
0.0
 76
     0
330
23
  0
LAYOUT
  5
22
102
{ACAD_REACTORS
330
1A
102
}
330
1A
100
AcDbPlotSettings
  1

  2
none_device
  4
Letter_(8.50_x_11.00_Inches)
  6

 40
6.35
 41
6.35
 42
6.35000508
 43
6.35000508
 44
215.9
 45
279.4
 46
0.0
 47
0.0
 48
0.0
 49
0.0
140
0.0
141
0.0
142
1.0
143
1.0
 70
  1712
 72
     1
 73
     0
 74
     0
  7

 75
     0
147
1.0
148
0.0
149
0.0
100
AcDbLayout
  1
Model
 70
     1
 71
     0
 10
0.0
 20
0.0
 11
148.5
 21
105.0
 12
0.0
 22
0.0
 32
0.0
 14
0.0
 24
0.0
 34
0.0
 15
148.5
 25
105.0
 35
0.0
146
0.0
 13
0.0
 23
0.0
 33
0.0
 16
1.0
 26
0.0
 36
0.0
 17
0.0
 27
1.0
 37
0.0
 76
     0
330
1F
331
29
  0
MLINESTYLE
  5
18
102
{ACAD_REACTORS
330
17
102
}
330
17
100
AcDbMlineStyle
  2
Standard
 70
     0
  3

 62
   256
 51
90.0
 52
90.0
 71
     2
 49
0.5
 62
   256
  6
BYLAYER
 49
-0.5
 62
   256
  6
BYLAYER
  0
ACDBPLACEHOLDER
  5
F
102
{ACAD_REACTORS
330
E
102
}
330
E
  0
SCALE
  5
48
102
{ACAD_REACTORS
330
47
102
}
330
47
100
AcDbScale
 70
     0
300
1:1
140
1.0
141
1.0
290
     1
  0
SCALE
  5
49
102
{ACAD_REACTORS
330
47
102
}
330
47
100
AcDbScale
 70
     0
300
1:2
140
1.0
141
2.0
290
     0
  0
SCALE
  5
4A
102
{ACAD_REACTORS
330
47
102
}
330
47
100
AcDbScale
 70
     0
300
1:4
140
1.0
141
4.0
290
     0
  0
SCALE
  5
4B
102
{ACAD_REACTORS
330
47
102
}
330
47
100
AcDbScale
 70
     0
300
1:5
140
1.0
141
5.0
290
     0
  0
SCALE
  5
4C
102
{ACAD_REACTORS
330
47
102
}
330
47
100
AcDbScale
 70
     0
300
1:8
140
1.0
141
8.0
290
     0
  0
SCALE
  5
4D
102
{ACAD_REACTORS
330
47
102
}
330
47
100
AcDbScale
 70
     0
300
1:10
140
1.0
141
10.0
290
     0
  0
SCALE
  5
4E
102
{ACAD_REACTORS
330
47
102
}
330
47
100
AcDbScale
 70
     0
300
1:16
140
1.0
141
16.0
290
     0
  0
SCALE
  5
4F
102
{ACAD_REACTORS
330
47
102
}
330
47
100
AcDbScale
 70
     0
300
1:20
140
1.0
141
20.0
290
     0
  0
SCALE
  5
50
102
{ACAD_REACTORS
330
47
102
}
330
47
100
AcDbScale
 70
     0
300
1:30
140
1.0
141
30.0
290
     0
  0
SCALE
  5
51
102
{ACAD_REACTORS
330
47
102
}
330
47
100
AcDbScale
 70
     0
300
1:40
140
1.0
141
40.0
290
     0
  0
SCALE
  5
52
102
{ACAD_REACTORS
330
47
102
}
330
47
100
AcDbScale
 70
     0
300
1:50
140
1.0
141
50.0
290
     0
  0
SCALE
  5
53
102
{ACAD_REACTORS
330
47
102
}
330
47
100
AcDbScale
 70
     0
300
1:100
140
1.0
141
100.0
290
     0
  0
SCALE
  5
54
102
{ACAD_REACTORS
330
47
102
}
330
47
100
AcDbScale
 70
     0
300
2:1
140
2.0
141
1.0
290
     0
  0
SCALE
  5
55
102
{ACAD_REACTORS
330
47
102
}
330
47
100
AcDbScale
 70
     0
300
4:1
140
4.0
141
1.0
290
     0
  0
SCALE
  5
56
102
{ACAD_REACTORS
330
47
102
}
330
47
100
AcDbScale
 70
     0
300
8:1
140
8.0
141
1.0
290
     0
  0
SCALE
  5
57
102
{ACAD_REACTORS
330
47
102
}
330
47
100
AcDbScale
 70
     0
300
10:1
140
10.0
141
1.0
290
     0
  0
SCALE
  5
58
102
{ACAD_REACTORS
330
47
102
}
330
47
100
AcDbScale
 70
     0
300
100:1
140
100.0
141
1.0
290
     0
  0
SCALE
  5
59
102
{ACAD_REACTORS
330
47
102
}
330
47
100
AcDbScale
 70
     0
300
1/128" = 1'-0"
140
0.0078125
141
12.0
290
     0
  0
SCALE
  5
5A
102
{ACAD_REACTORS
330
47
102
}
330
47
100
AcDbScale
 70
     0
300
1/64" = 1'-0"
140
0.015625
141
12.0
290
     0
  0
SCALE
  5
5B
102
{ACAD_REACTORS
330
47
102
}
330
47
100
AcDbScale
 70
     0
300
1/32" = 1'-0"
140
0.03125
141
12.0
290
     0
  0
SCALE
  5
5C
102
{ACAD_REACTORS
330
47
102
}
330
47
100
AcDbScale
 70
     0
300
1/16" = 1'-0"
140
0.0625
141
12.0
290
     0
  0
SCALE
  5
5D
102
{ACAD_REACTORS
330
47
102
}
330
47
100
AcDbScale
 70
     0
300
3/32" = 1'-0"
140
0.09375
141
12.0
290
     0
  0
SCALE
  5
5E
102
{ACAD_REACTORS
330
47
102
}
330
47
100
AcDbScale
 70
     0
300
1/8" = 1'-0"
140
0.125
141
12.0
290
     0
  0
SCALE
  5
5F
102
{ACAD_REACTORS
330
47
102
}
330
47
100
AcDbScale
 70
     0
300
3/16" = 1'-0"
140
0.1875
141
12.0
290
     0
  0
SCALE
  5
60
102
{ACAD_REACTORS
330
47
102
}
330
47
100
AcDbScale
 70
     0
300
1/4" = 1'-0"
140
0.25
141
12.0
290
     0
  0
SCALE
  5
61
102
{ACAD_REACTORS
330
47
102
}
330
47
100
AcDbScale
 70
     0
300
3/8" = 1'-0"
140
0.375
141
12.0
290
     0
  0
SCALE
  5
62
102
{ACAD_REACTORS
330
47
102
}
330
47
100
AcDbScale
 70
     0
300
1/2" = 1'-0"
140
0.5
141
12.0
290
     0
  0
SCALE
  5
63
102
{ACAD_REACTORS
330
47
102
}
330
47
100
AcDbScale
 70
     0
300
3/4" = 1'-0"
140
0.75
141
12.0
290
     0
  0
SCALE
  5
64
102
{ACAD_REACTORS
330
47
102
}
330
47
100
AcDbScale
 70
     0
300
1" = 1'-0"
140
1.0
141
12.0
290
     0
  0
SCALE
  5
65
102
{ACAD_REACTORS
330
47
102
}
330
47
100
AcDbScale
 70
     0
300
1-1/2" = 1'-0"
140
1.5
141
12.0
290
     0
  0
SCALE
  5
66
102
{ACAD_REACTORS
330
47
102
}
330
47
100
AcDbScale
 70
     0
300
3" = 1'-0"
140
3.0
141
12.0
290
     0
  0
SCALE
  5
67
102
{ACAD_REACTORS
330
47
102
}
330
47
100
AcDbScale
 70
     0
300
6" = 1'-0"
140
6.0
141
12.0
290
     0
  0
SCALE
  5
68
102
{ACAD_REACTORS
330
47
102
}
330
47
100
AcDbScale
 70
     0
300
1'-0" = 1'-0"
140
12.0
141
12.0
290
     0
  0
ENDSEC
  0
EOF
