  0
SECTION
  2
HEADER
  9
$ACADVER
  1
AC1015
  9
$ACADMAINTVER
 70
     6
  9
$DWGCODEPAGE
  3
ANSI_950
  9
$INSBASE
 10
0.0
 20
0.0
 30
0.0
  9
$EXTMIN
 10
0.0
 20
0.0
 30
0.0
  9
$EXTMAX
 10
148.5
 20
105.0
 30
0.0
  9
$LIMMIN
 10
0.0
 20
0.0
  9
$LIMMAX
 10
148.5
 20
105.0
  9
$ORTHOMODE
 70
     0
  9
$REGENMODE
 70
     1
  9
$FILLMODE
 70
     1
  9
$QTEXTMODE
 70
     0
  9
$MIRRTEXT
 70
     1
  9
$LTSCALE
 40
0.5
  9
$ATTMODE
 70
     1
  9
$TEXTSIZE
 40
1.5875
  9
$TRACEWID
 40
1.0
  9
$TEXTSTYLE
  7
Standard
  9
$CLAYER
  8
0
  9
$CELTYPE
  6
ByLayer
  9
$CECOLOR
 62
   256
  9
$CELTSCALE
 40
1.0
  9
$DISPSILH
 70
     0
  9
$DIMSCALE
 40
1.0
  9
$DIMASZ
 40
1.0
  9
$DIMEXO
 40
0.5
  9
$DIMDLI
 40
3.75
  9
$DIMRND
 40
0.0
  9
$DIMDLE
 40
0.0
  9
$DIMEXE
 40
0.5
  9
$DIMTP
 40
0.0
  9
$DIMTM
 40
0.0
  9
$DIMTXT
 40
1.5875
  9
$DIMCEN
 40
2.5
  9
$DIMTSZ
 40
0.0
  9
$DIMTOL
 70
     0
  9
$DIMLIM
 70
     0
  9
$DIMTIH
 70
     1
  9
$DIMTOH
 70
     1
  9
$DIMSE1
 70
     0
  9
$DIMSE2
 70
     0
  9
$DIMTAD
 70
     1
  9
$DIMZIN
 70
     0
  9
$DIMBLK
  1

  9
$DIMASO
 70
     1
  9
$DIMSHO
 70
     1
  9
$DIMPOST
  1

  9
$DIMAPOST
  1

  9
$DIMALT
 70
     0
  9
$DIMALTD
 70
     3
  9
$DIMALTF
 40
0.0393700787
  9
$DIMLFAC
 40
1.0
  9
$DIMTOFL
 70
     1
  9
$DIMTVP
 40
0.0
  9
$DIMTIX
 70
     0
  9
$DIMSOXD
 70
     0
  9
$DIMSAH
 70
     0
  9
$DIMBLK1
  1

  9
$DIMBLK2
  1

  9
$DIMSTYLE
  2
ISO-25
  9
$DIMCLRD
 70
     0
  9
$DIMCLRE
 70
     0
  9
$DIMCLRT
 70
     0
  9
$DIMTFAC
 40
1.0
  9
$DIMGAP
 40
0.5
  9
$DIMJUST
 70
     0
  9
$DIMSD1
 70
     0
  9
$DIMSD2
 70
     0
  9
$DIMTOLJ
 70
     0
  9
$DIMTZIN
 70
     0
  9
$DIMALTZ
 70
     0
  9
$DIMALTTZ
 70
     0
  9
$DIMUPT
 70
     0
  9
$DIMDEC
 70
     2
  9
$DIMTDEC
 70
     2
  9
$DIMALTU
 70
     2
  9
$DIMALTTD
 70
     3
  9
$DIMTXSTY
  7
Standard
  9
$DIMAUNIT
 70
     0
  9
$DIMADEC
 70
     2
  9
$DIMALTRND
 40
0.0
  9
$DIMAZIN
 70
     0
  9
$DIMDSEP
 70
    44
  9
$DIMATFIT
 70
     3
  9
$DIMFRAC
 70
     0
  9
$DIMLDRBLK
  1

  9
$DIMLUNIT
 70
     2
  9
$DIMLWD
 70
    -2
  9
$DIMLWE
 70
    -2
  9
$DIMTMOVE
 70
     0
  9
$LUNITS
 70
     2
  9
$LUPREC
 70
     2
  9
$SKETCHINC
 40
1.0
  9
$FILLETRAD
 40
10.0
  9
$AUNITS
 70
     0
  9
$AUPREC
 70
     2
  9
$MENU
  1
.
  9
$ELEVATION
 40
0.0
  9
$PELEVATION
 40
0.0
  9
$THICKNESS
 40
0.0
  9
$LIMCHECK
 70
     0
  9
$CHAMFERA
 40
0.0
  9
$CHAMFERB
 40
0.0
  9
$CHAMFERC
 40
0.0
  9
$CHAMFERD
 40
0.0
  9
$SKPOLY
 70
     0
  9
$TDCREATE
 40
2458439.471790162
  9
$TDUCREATE
 40
2458439.138456829
  9
$TDUPDATE
 40
2458439.471794676
  9
$TDUUPDATE
 40
2458439.138461343
  9
$TDINDWG
 40
0.0000000116
  9
$TDUSRTIMER
 40
0.0000000116
  9
$USRTIMER
 70
     1
  9
$ANGBASE
 50
0.0
  9
$ANGDIR
 70
     0
  9
$PDMODE
 70
     0
  9
$PDSIZE
 40
-1.0
  9
$PLINEWID
 40
0.0
  9
$SPLFRAME
 70
     0
  9
$SPLINETYPE
 70
     6
  9
$SPLINESEGS
 70
     8
  9
$HANDSEED
  5
1BA
  9
$SURFTAB1
 70
     6
  9
$SURFTAB2
 70
     6
  9
$SURFTYPE
 70
     6
  9
$SURFU
 70
     6
  9
$SURFV
 70
     6
  9
$UCSBASE
  2

  9
$UCSNAME
  2

  9
$UCSORG
 10
0.0
 20
0.0
 30
0.0
  9
$UCSXDIR
 10
1.0
 20
0.0
 30
0.0
  9
$UCSYDIR
 10
0.0
 20
1.0
 30
0.0
  9
$UCSORTHOREF
  2

  9
$UCSORTHOVIEW
 70
     0
  9
$UCSORGTOP
 10
0.0
 20
0.0
 30
0.0
  9
$UCSORGBOTTOM
 10
0.0
 20
0.0
 30
0.0
  9
$UCSORGLEFT
 10
0.0
 20
0.0
 30
0.0
  9
$UCSORGRIGHT
 10
0.0
 20
0.0
 30
0.0
  9
$UCSORGFRONT
 10
0.0
 20
0.0
 30
0.0
  9
$UCSORGBACK
 10
0.0
 20
0.0
 30
0.0
  9
$PUCSBASE
  2

  9
$PUCSNAME
  2

  9
$PUCSORG
 10
0.0
 20
0.0
 30
0.0
  9
$PUCSXDIR
 10
1.0
 20
0.0
 30
0.0
  9
$PUCSYDIR
 10
0.0
 20
1.0
 30
0.0
  9
$PUCSORTHOREF
  2

  9
$PUCSORTHOVIEW
 70
     0
  9
$PUCSORGTOP
 10
0.0
 20
0.0
 30
0.0
  9
$PUCSORGBOTTOM
 10
0.0
 20
0.0
 30
0.0
  9
$PUCSORGLEFT
 10
0.0
 20
0.0
 30
0.0
  9
$PUCSORGRIGHT
 10
0.0
 20
0.0
 30
0.0
  9
$PUCSORGFRONT
 10
0.0
 20
0.0
 30
0.0
  9
$PUCSORGBACK
 10
0.0
 20
0.0
 30
0.0
  9
$USERI1
 70
     0
  9
$USERI2
 70
     0
  9
$USERI3
 70
     0
  9
$USERI4
 70
     0
  9
$USERI5
 70
     0
  9
$USERR1
 40
0.0
  9
$USERR2
 40
0.0
  9
$USERR3
 40
0.0
  9
$USERR4
 40
0.0
  9
$USERR5
 40
0.0
  9
$WORLDVIEW
 70
     1
  9
$SHADEDGE
 70
     3
  9
$SHADEDIF
 70
    70
  9
$TILEMODE
 70
     1
  9
$MAXACTVP
 70
    64
  9
$PINSBASE
 10
0.0
 20
0.0
 30
0.0
  9
$PLIMCHECK
 70
     0
  9
$PEXTMIN
 10
1.0000000000E+20
 20
1.0000000000E+20
 30
1.0000000000E+20
  9
$PEXTMAX
 10
-1.0000000000E+20
 20
-1.0000000000E+20
 30
-1.0000000000E+20
  9
$PLIMMIN
 10
0.0
 20
0.0
  9
$PLIMMAX
 10
420.0
 20
297.0
  9
$UNITMODE
 70
     0
  9
$VISRETAIN
 70
     1
  9
$PLINEGEN
 70
     0
  9
$PSLTSCALE
 70
     1
  9
$TREEDEPTH
 70
  3020
  9
$CMLSTYLE
  2
Standard
  9
$CMLJUST
 70
     0
  9
$CMLSCALE
 40
20.0
  9
$PROXYGRAPHICS
 70
     1
  9
$MEASUREMENT
 70
     1
  9
$CELWEIGHT
370
    -1
  9
$ENDCAPS
280
     0
  9
$JOINSTYLE
280
     0
  9
$LWDISPLAY
290
     1
  9
$INSUNITS
 70
     4
  9
$HYPERLINKBASE
  1

  9
$STYLESHEET
  1

  9
$XEDIT
290
     1
  9
$CEPSNTYPE
380
     0
  9
$PSTYLEMODE
290
     1
  9
$FINGERPRINTGUID
  2
{83C78CD8-B0D4-4F96-8E19-F45C2B6993A7}
  9
$VERSIONGUID
  2
{FAEB1C32-E019-11D5-929B-00C0DF256EC4}
  9
$EXTNAMES
290
     1
  9
$PSVPSCALE
 40
0.0
  9
$OLESTARTUP
290
     0
  0
ENDSEC
  0
SECTION
  2
CLASSES
  0
CLASS
  1
ACDBDICTIONARYWDFLT
  2
AcDbDictionaryWithDefault
  3
ObjectDBX Classes
 90
        0
280
     0
281
     0
  0
CLASS
  1
VISUALSTYLE
  2
AcDbVisualStyle
  3
ObjectDBX Classes
 90
     4095
280
     0
281
     0
  0
CLASS
  1
MATERIAL
  2
AcDbMaterial
  3
ObjectDBX Classes
 90
     1153
280
     0
281
     0
  0
CLASS
  1
SCALE
  2
AcDbScale
  3
ObjectDBX Classes
 90
     1153
280
     0
281
     0
  0
CLASS
  1
TABLESTYLE
  2
AcDbTableStyle
  3
ObjectDBX Classes
 90
     4095
280
     0
281
     0
  0
CLASS
  1
MLEADERSTYLE
  2
AcDbMLeaderStyle
  3
ACDB_MLEADERSTYLE_CLASS
 90
     4095
280
     0
281
     0
  0
CLASS
  1
SUN
  2
AcDbSun
  3
SCENEOE
 90
     1153
280
     0
281
     0
  0
CLASS
  1
ACDBPLACEHOLDER
  2
AcDbPlaceHolder
  3
ObjectDBX Classes
 90
        0
280
     0
281
     0
  0
CLASS
  1
LAYOUT
  2
AcDbLayout
  3
ObjectDBX Classes
 90
        0
280
     0
281
     0
  0
ENDSEC
  0
SECTION
  2
TABLES
  0
TABLE
  2
VPORT
  5
8
330
0
100
AcDbSymbolTable
 70
     1
  0
VPORT
  5
29
330
8
100
AcDbSymbolTableRecord
100
AcDbViewportTableRecord
  2
*Active
 70
     0
 10
0.0
 20
0.0
 11
1.0
 21
1.0
 12
74.25
 22
52.5
 13
0.0
 23
0.0
 14
10.0
 24
10.0
 15
10.0
 25
10.0
 16
0.0
 26
0.0
 36
1.0
 17
0.0
 27
0.0
 37
0.0
 40
105.0
 41
1.4142857143
 42
50.0
 43
0.0
 44
0.0
 50
0.0
 51
0.0
 71
     0
 72
  2000
 73
     1
 74
     3
 75
     0
 76
     0
 77
     0
 78
     0
281
     0
 65
     1
110
0.0
120
0.0
130
0.0
111
1.0
121
0.0
131
0.0
112
0.0
122
1.0
132
0.0
 79
     0
146
0.0
  0
ENDTAB
  0
TABLE
  2
LTYPE
  5
5
330
0
100
AcDbSymbolTable
 70
     6
  0
LTYPE
  5
14
330
5
100
AcDbSymbolTableRecord
100
AcDbLinetypeTableRecord
  2
ByBlock
 70
     0
  3

 72
    65
 73
     0
 40
0.0
  0
LTYPE
  5
15
330
5
100
AcDbSymbolTableRecord
100
AcDbLinetypeTableRecord
  2
ByLayer
 70
     0
  3

 72
    65
 73
     0
 40
0.0
  0
LTYPE
  5
16
330
5
100
AcDbSymbolTableRecord
100
AcDbLinetypeTableRecord
  2
Continuous
 70
     0
  3
Solid line
 72
    65
 73
     0
 40
0.0
  0
LTYPE
  5
6E
330
5
100
AcDbSymbolTableRecord
100
AcDbLinetypeTableRecord
  2
HIDDEN
 70
     0
  3
Hidden __ __ __ __ __ __ __ __ __ __ __ __ __ __
 72
    65
 73
     2
 40
1.905
 49
1.27
 74
     0
 49
-0.635
 74
     0
  0
LTYPE
  5
6F
330
5
100
AcDbSymbolTableRecord
100
AcDbLinetypeTableRecord
  2
PHANTOM
 70
     0
  3
Phantom ______  __  __  ______  __  __  ______
 72
    65
 73
     6
 40
12.7
 49
6.35
 74
     0
 49
-1.27
 74
     0
 49
1.27
 74
     0
 49
-1.27
 74
     0
 49
1.27
 74
     0
 49
-1.27
 74
     0
  0
LTYPE
  5
70
330
5
100
AcDbSymbolTableRecord
100
AcDbLinetypeTableRecord
  2
CENTER
 70
     0
  3
Center ____ _ ____ _ ____ _ ____ _ ____ _ ____
 72
    65
 73
     4
 40
10.16
 49
6.35
 74
     0
 49
-1.27
 74
     0
 49
1.27
 74
     0
 49
-1.27
 74
     0
  0
LTYPE
  5
71
330
5
100
AcDbSymbolTableRecord
100
AcDbLinetypeTableRecord
  2
CENTERX2
 70
     0
  3
Center (2x) ________  __  ________  __  _____
 72
    65
 73
     4
 40
20.32
 49
12.7
 74
     0
 49
-2.54
 74
     0
 49
2.54
 74
     0
 49
-2.54
 74
     0
  0
LTYPE
  5
72
330
5
100
AcDbSymbolTableRecord
100
AcDbLinetypeTableRecord
  2
DOT2
 70
     0
  3
Dot (.5x) ........................................
 72
    65
 73
     2
 40
0.635
 49
0.0
 74
     0
 49
-0.635
 74
     0
  0
ENDTAB
  0
TABLE
  2
LAYER
  5
2
330
0
100
AcDbSymbolTable
 70
    10
  0
LAYER
  5
10
330
2
100
AcDbSymbolTableRecord
100
AcDbLayerTableRecord
  2
0
 70
     0
 62
     7
  6
Continuous
370
    -3
390
F
  0
LAYER
  5
73
330
2
100
AcDbSymbolTableRecord
100
AcDbLayerTableRecord
  2
SLD-0
 70
     0
 62
     7
  6
Continuous
370
    15
390
F
  0
LAYER
  5
74
330
2
100
AcDbSymbolTableRecord
100
AcDbLayerTableRecord
  2
輪廓線
 70
     0
 62
   219
  6
Continuous
370
    15
390
F
  0
LAYER
  5
75
330
2
100
AcDbSymbolTableRecord
100
AcDbLayerTableRecord
  2
DIM
 70
     0
 62
     7
  6
Continuous
370
    -3
390
F
  0
LAYER
  5
76
330
2
100
AcDbSymbolTableRecord
100
AcDbLayerTableRecord
  2
中心線
 70
     0
 62
     7
  6
CENTERX2
370
    -3
390
F
  0
LAYER
  5
77
330
2
100
AcDbSymbolTableRecord
100
AcDbLayerTableRecord
  2
虛線
 70
     0
 62
     7
  6
HIDDEN
370
    -3
390
F
  0
LAYER
  5
78
330
2
100
AcDbSymbolTableRecord
100
AcDbLayerTableRecord
  2
SECTION
 70
     0
 62
     7
  6
PHANTOM
370
    15
390
F
  0
LAYER
  5
79
330
2
100
AcDbSymbolTableRecord
100
AcDbLayerTableRecord
  2
假想線
 70
     0
 62
     7
  6
PHANTOM
370
    -3
390
F
  0
LAYER
  5
7A
330
2
100
AcDbSymbolTableRecord
100
AcDbLayerTableRecord
  2
圖層_1
 70
     0
 62
   179
  6
Continuous
370
    -3
390
F
  0
LAYER
  5
7B
330
2
100
AcDbSymbolTableRecord
100
AcDbLayerTableRecord
  2
工作區域參考線
 70
     0
 62
   179
  6
Continuous
370
    -3
390
F
  0
ENDTAB
  0
TABLE
  2
STYLE
  5
3
330
0
100
AcDbSymbolTable
 70
     3
  0
STYLE
  5
11
330
3
100
AcDbSymbolTableRecord
100
AcDbTextStyleTableRecord
  2
Standard
 70
     0
 40
0.0
 41
1.0
 50
0.0
 71
     0
 42
1.5875
  3
txt
  4

  0
STYLE
  5
CC
330
3
100
AcDbSymbolTableRecord
100
AcDbTextStyleTableRecord
  2
SLDTEXTSTYLE0
 70
     0
 40
0.0
 41
0.605
 50
0.0
 71
     0
 42
1.5875
  3
TXT
  4

  0
STYLE
  5
103
330
3
100
AcDbSymbolTableRecord
100
AcDbTextStyleTableRecord
  2
SLDTEXTSTYLE1
 70
     0
 40
0.0
 41
0.7
 50
0.0
 71
     0
 42
1.5875
  3
TXT
  4

  0
ENDTAB
  0
TABLE
  2
VIEW
  5
6
330
0
100
AcDbSymbolTable
 70
     0
  0
ENDTAB
  0
TABLE
  2
UCS
  5
7
330
0
100
AcDbSymbolTable
 70
     0
  0
ENDTAB
  0
TABLE
  2
APPID
  5
9
330
0
100
AcDbSymbolTable
 70
     1
  0
APPID
  5
12
330
9
100
AcDbSymbolTableRecord
100
AcDbRegAppTableRecord
  2
ACAD
 70
     0
  0
ENDTAB
  0
TABLE
  2
DIMSTYLE
  5
A
330
0
100
AcDbSymbolTable
 70
     4
100
AcDbDimStyleTable
  0
DIMSTYLE
105
27
330
A
100
AcDbSymbolTableRecord
100
AcDbDimStyleTableRecord
  2
ISO-25
 70
     0
 41
2.5
 42
0.625
 43
3.75
 44
1.25
 73
     0
 74
     0
 77
     1
 78
     8
140
2.5
141
2.5
143
0.0393700787
147
0.625
171
     3
172
     1
178
     0
271
     2
272
     2
274
     3
278
    44
283
     0
284
     8
340
11
  0
DIMSTYLE
105
112
102
{ACAD_REACTORS
330
111
102
}
330
A
100
AcDbSymbolTableRecord
100
AcDbDimStyleTableRecord
  2
SLDDIMSTYLE0
 70
     0
 41
1.0
 44
0.0
 45
0.000000001
 78
    12
 79
     3
140
1.2712402344
141
0.0
147
0.3178100586
173
     1
178
     0
271
     2
272
     2
276
     2
284
    12
340
103
  0
DIMSTYLE
105
159
102
{ACAD_REACTORS
330
158
330
170
330
17A
330
184
330
18E
102
}
330
A
100
AcDbSymbolTableRecord
100
AcDbDimStyleTableRecord
  2
SLDDIMSTYLE1
 70
     0
 41
1.0
 44
0.0
 45
0.000000001
 73
     0
 74
     0
 77
     1
 78
    12
 79
     3
140
1.2712402344
147
0.3178100586
173
     1
178
     0
271
     2
272
     2
276
     2
284
    12
340
103
  0
DIMSTYLE
105
164
102
{ACAD_REACTORS
330
163
102
}
330
A
100
AcDbSymbolTableRecord
100
AcDbDimStyleTableRecord
  2
SLDDIMSTYLE2
 70
     0
 41
1.0
 44
0.0
 45
0.000000001
 73
     0
 74
     0
 77
     1
 78
    12
 79
     3
140
1.2712402344
147
0.3178100586
172
     1
173
     1
178
     0
271
     2
272
     2
276
     2
284
    12
289
     0
340
103
  0
ENDTAB
  0
TABLE
  2
BLOCK_RECORD
  5
1
330
0
100
AcDbSymbolTable
 70
    12
  0
BLOCK_RECORD
  5
1F
330
1
100
AcDbSymbolTableRecord
100
AcDbBlockTableRecord
  2
*Model_Space
340
22
  0
BLOCK_RECORD
  5
1B
330
1
100
AcDbSymbolTableRecord
100
AcDbBlockTableRecord
  2
*Paper_Space
340
1E
  0
BLOCK_RECORD
  5
23
330
1
100
AcDbSymbolTableRecord
100
AcDbBlockTableRecord
  2
*Paper_Space0
340
26
  0
BLOCK_RECORD
  5
7C
330
1
100
AcDbSymbolTableRecord
100
AcDbBlockTableRecord
  2
圖塊6
340
0
102
{BLKREFS
331
CB
102
}
  0
BLOCK_RECORD
  5
CE
330
1
100
AcDbSymbolTableRecord
100
AcDbBlockTableRecord
  2
SW_NOTE_0
340
0
102
{BLKREFS
331
D4
102
}
  0
BLOCK_RECORD
  5
105
330
1
100
AcDbSymbolTableRecord
100
AcDbBlockTableRecord
  2
SW_NOTE_1
340
0
102
{BLKREFS
331
10A
102
}
  0
BLOCK_RECORD
  5
113
330
1
100
AcDbSymbolTableRecord
100
AcDbBlockTableRecord
  2
_D
340
0
  0
BLOCK_RECORD
  5
11C
330
1
100
AcDbSymbolTableRecord
100
AcDbBlockTableRecord
  2
SW_CENTERMARKSYMBOL_0
340
0
102
{BLKREFS
331
127
102
}
  0
BLOCK_RECORD
  5
15A
330
1
100
AcDbSymbolTableRecord
100
AcDbBlockTableRecord
  2
_D_1
340
0
  0
BLOCK_RECORD
  5
165
330
1
100
AcDbSymbolTableRecord
100
AcDbBlockTableRecord
  2
_D_2
340
0
  0
BLOCK_RECORD
  5
171
330
1
100
AcDbSymbolTableRecord
100
AcDbBlockTableRecord
  2
_D_3
340
0
  0
BLOCK_RECORD
  5
17B
330
1
100
AcDbSymbolTableRecord
100
AcDbBlockTableRecord
  2
_D_4
340
0
  0
BLOCK_RECORD
  5
185
330
1
100
AcDbSymbolTableRecord
100
AcDbBlockTableRecord
  2
_D_5
340
0
  0
BLOCK_RECORD
  5
18F
330
1
100
AcDbSymbolTableRecord
100
AcDbBlockTableRecord
  2
_D_6
340
0
  0
ENDTAB
  0
ENDSEC
  0
SECTION
  2
BLOCKS
  0
BLOCK
  5
20
330
1F
100
AcDbEntity
  8
0
100
AcDbBlockBegin
  2
*Model_Space
 70
     0
 10
0.0
 20
0.0
 30
0.0
  3
*Model_Space
  1

  0
ENDBLK
  5
21
330
1F
100
AcDbEntity
  8
0
100
AcDbBlockEnd
  0
BLOCK
  5
1C
330
1B
100
AcDbEntity
 67
     1
  8
0
100
AcDbBlockBegin
  2
*Paper_Space
 70
     0
 10
0.0
 20
0.0
 30
0.0
  3
*Paper_Space
  1

  0
ENDBLK
  5
1D
330
1B
100
AcDbEntity
 67
     1
  8
0
100
AcDbBlockEnd
  0
BLOCK
  5
24
330
23
100
AcDbEntity
  8
0
100
AcDbBlockBegin
  2
*Paper_Space0
 70
     0
 10
0.0
 20
0.0
 30
0.0
  3
*Paper_Space0
  1

  0
ENDBLK
  5
25
330
23
100
AcDbEntity
  8
0
100
AcDbBlockEnd
  0
BLOCK
  5
7D
330
7C
100
AcDbEntity
  8
0
100
AcDbBlockBegin
  2
圖塊6
 70
     0
 10
0.0
 20
0.0
 30
0.0
  3
圖塊6
  1

  0
ARC
  5
7F
330
7C
100
AcDbEntity
  8
圖層_1
 62
     7
370
    30
100
AcDbCircle
 10
0.765077217
 20
3.0510341446
 30
0.0
 40
0.765077216971835
100
AcDbArc
 50
130.2115225915
 51
228.588904108
  0
ARC
  5
80
330
7C
100
AcDbEntity
  8
圖層_1
 62
     7
370
    30
100
AcDbCircle
 10
2.4254567991
 20
2.9974727207
 30
0.0
 40
1.288667713408811
100
AcDbArc
 50
140.4331765613
 51
251.0865666567
  0
ARC
  5
81
330
7C
100
AcDbEntity
  8
圖層_1
 62
     7
370
    30
100
AcDbCircle
 10
2.5882520991
 20
3.1558779856
 30
0.0
 40
1.494818328884931
100
AcDbArc
 50
247.1485306747
 51
309.6030773927
  0
LINE
  5
82
330
7C
100
AcDbEntity
  8
圖層_1
 62
     7
370
    30
100
AcDbLine
 10
0.9244488634
 20
4.2660912992
 30
0.0
 11
0.271134736
 21
3.6352977609
 31
0.0
  0
LINE
  5
83
330
7C
100
AcDbEntity
  8
圖層_1
 62
     7
370
    30
100
AcDbLine
 10
0.259011445
 20
2.4772392488
 30
0.0
 11
2.2636126001
 21
0.7349373287
 31
0.0
  0
LINE
  5
84
330
7C
100
AcDbEntity
  8
圖層_1
 62
     7
370
    30
100
AcDbLine
 10
2.2636126001
 20
0.7349373287
 30
0.0
 11
1.9480866399
 21
0.4269871335
 31
0.0
  0
LINE
  5
85
330
7C
100
AcDbEntity
  8
圖層_1
 62
     7
370
    30
100
AcDbLine
 10
1.9480866399
 20
0.4269871335
 30
0.0
 11
2.4440263222
 21
0.0
 31
0.0
  0
LINE
  5
86
330
7C
100
AcDbEntity
  8
圖層_1
 62
     7
370
    30
100
AcDbLine
 10
4.0488585394
 20
1.5582889828
 30
0.0
 11
3.5411470236
 21
2.0041518466
 31
0.0
  0
LINE
  5
87
330
7C
100
AcDbEntity
  8
圖層_1
 62
     7
370
    30
100
AcDbLine
 10
1.4320457871
 20
3.8183253488
 30
0.0
 11
0.9244488634
 21
4.2660912992
 31
0.0
  0
LINE
  5
88
330
7C
100
AcDbEntity
  8
圖層_1
 62
     7
370
    30
100
AcDbLine
 10
2.4440263222
 20
0.0
 30
0.0
 11
4.0488585394
 21
1.5582889828
 31
0.0
  0
ENDBLK
  5
7E
330
7C
100
AcDbEntity
  8
0
100
AcDbBlockEnd
  0
BLOCK
  5
CF
330
CE
100
AcDbEntity
  8
0
100
AcDbBlockBegin
  2
SW_NOTE_0
 70
     0
 10
0.0
 20
0.0
 30
0.0
  3
SW_NOTE_0
  1

  0
MTEXT
  5
D1
330
CE
100
AcDbEntity
  8
0
  6
Continuous
 62
     0
370
     0
100
AcDbMText
 10
0.0
 20
1.7053291974
 30
0.0
 40
1.3229166667
 41
0.0
 71
     1
 72
     1
  1
PROPRIETARY AND CONFIDENTIAL
  7
SLDTEXTSTYLE0
 73
     1
 44
1.0
  0
MTEXT
  5
D2
330
CE
100
AcDbEntity
  8
0
  6
Continuous
 62
     0
370
     0
100
AcDbMText
 10
0.0
 20
-0.04099174
 30
0.0
 40
0.9260416667
 41
0.0
 71
     1
 72
     1
  1
THE INFORMATION CONTAINED IN THIS DRAWING IS THE SOLE PROPERTY OF UNICE E-O SERVICES INC. ANY REPRODUCTION IN PART OR AS A WHOLE WITHOUT THE WRITTEN PERMISSION OF UNICE E-O SERVICES INC IS
  7
SLDTEXTSTYLE0
 73
     1
 44
1.0
  0
MTEXT
  5
D3
330
CE
100
AcDbEntity
  8
0
  6
Continuous
 62
     0
370
     0
100
AcDbMText
 10
0.0
 20
-1.2757139473
 30
0.0
 40
0.9260416667
 41
0.0
 71
     1
 72
     1
  1
PROHIBITED.
  7
SLDTEXTSTYLE0
 73
     1
 44
1.0
  0
ENDBLK
  5
D0
330
CE
100
AcDbEntity
  8
0
100
AcDbBlockEnd
  0
BLOCK
  5
106
330
105
100
AcDbEntity
  8
0
100
AcDbBlockBegin
  2
SW_NOTE_1
 70
     0
 10
0.0
 20
0.0
 30
0.0
  3
SW_NOTE_1
  1

  0
MTEXT
  5
108
330
105
100
AcDbEntity
  8
SLD-0
 62
     0
100
AcDbMText
 10
0.0
 20
1.0231975184
 30
0.0
 40
0.79375
 41
0.0
 71
     1
 72
     1
  1
No.5, Andong Rd., Chung Li District,
  7
SLDTEXTSTYLE0
 73
     1
 44
1.0
  0
MTEXT
  5
109
330
105
100
AcDbEntity
  8
SLD-0
 62
     0
100
AcDbMText
 10
0.0
 20
-0.0351358021
 30
0.0
 40
0.79375
 41
0.0
 71
     1
 72
     1
  1
Taoyuan City 32063, Taiwan, R.O.C.
  7
SLDTEXTSTYLE0
 73
     1
 44
1.0
  0
ENDBLK
  5
107
330
105
100
AcDbEntity
  8
0
100
AcDbBlockEnd
  0
BLOCK
  5
114
330
113
100
AcDbEntity
  8
0
100
AcDbBlockBegin
  2
_D
 70
     0
 10
0.0
 20
0.0
 30
0.0
  3
_D
  1

  0
SOLID
  5
116
330
113
100
AcDbEntity
  8
DIM
100
AcDbTrace
 10
41.4430735955
 20
60.1882607197
 30
0.0
 11
42.1029841091
 21
60.9499319835
 31
0.0
 12
41.8951908591
 22
61.0889354557
 32
0.0
 13
41.8951908591
 23
61.0889354557
 33
0.0
  0
LINE
  5
117
330
113
100
AcDbEntity
  8
DIM
100
AcDbLine
 10
41.4430735955
 20
60.1882607197
 30
0.0
 11
47.5758428913
 21
69.3560033928
 31
0.0
  0
LINE
  5
118
330
113
100
AcDbEntity
  8
DIM
100
AcDbLine
 10
47.5758428913
 20
69.3560033928
 30
0.0
 11
64.6116220993
 21
69.3560033928
 31
0.0
  0
MTEXT
  5
119
330
113
100
AcDbEntity
  8
DIM
100
AcDbMText
 10
48.2008428913
 20
70.8907997287
 30
0.0
 40
1.190625
 41
0.0
 71
     1
 72
     1
  1
%%c
  7
SLDTEXTSTYLE1
 73
     1
 44
1.0
  0
MTEXT
  5
11A
330
113
100
AcDbEntity
  8
DIM
100
AcDbMText
 10
49.7089678789
 20
70.8907997287
 30
0.0
 40
1.190625
 41
0.0
 71
     1
 72
     1
  1
23
  7
SLDTEXTSTYLE1
 73
     1
 44
1.0
  0
MTEXT
  5
11B
330
113
100
AcDbEntity
  8
DIM
100
AcDbMText
 10
51.5715241623
 20
70.8907997287
 30
0.0
 40
1.190625
 41
0.0
 71
     1
 72
     1
  1
CLEAR APERTURE
  7
SLDTEXTSTYLE1
 73
     1
 44
1.0
  0
ENDBLK
  5
115
330
113
100
AcDbEntity
  8
0
100
AcDbBlockEnd
  0
BLOCK
  5
11D
330
11C
100
AcDbEntity
  8
0
100
AcDbBlockBegin
  2
SW_CENTERMARKSYMBOL_0
 70
     0
 10
0.0
 20
0.0
 30
0.0
  3
SW_CENTERMARKSYMBOL_0
  1

  0
LINE
  5
11F
330
11C
100
AcDbEntity
  8
DIM
 62
     0
100
AcDbLine
 10
0.0
 20
0.0
 30
0.0
 11
0.0
 21
1.0
 31
0.0
  0
LINE
  5
120
330
11C
100
AcDbEntity
  8
DIM
 62
     0
100
AcDbLine
 10
0.0
 20
0.0
 30
0.0
 11
-1.0
 21
0.0
 31
0.0
  0
LINE
  5
121
330
11C
100
AcDbEntity
  8
DIM
 62
     0
100
AcDbLine
 10
0.0
 20
0.0
 30
0.0
 11
0.0
 21
-1.0
 31
0.0
  0
LINE
  5
122
330
11C
100
AcDbEntity
  8
DIM
 62
     0
100
AcDbLine
 10
0.0
 20
0.0
 30
0.0
 11
1.0
 21
0.0
 31
0.0
  0
LINE
  5
123
330
11C
100
AcDbEntity
  8
DIM
 62
     0
100
AcDbLine
 10
0.0
 20
2.0
 30
0.0
 11
0.0
 21
16.35
 31
0.0
  0
LINE
  5
124
330
11C
100
AcDbEntity
  8
DIM
 62
     0
100
AcDbLine
 10
-2.0
 20
0.0
 30
0.0
 11
-16.35
 21
0.0
 31
0.0
  0
LINE
  5
125
330
11C
100
AcDbEntity
  8
DIM
 62
     0
100
AcDbLine
 10
0.0
 20
-2.0
 30
0.0
 11
0.0
 21
-16.35
 31
0.0
  0
LINE
  5
126
330
11C
100
AcDbEntity
  8
DIM
 62
     0
100
AcDbLine
 10
2.0
 20
0.0
 30
0.0
 11
16.35
 21
0.0
 31
0.0
  0
ENDBLK
  5
11E
330
11C
100
AcDbEntity
  8
0
100
AcDbBlockEnd
  0
BLOCK
  5
15B
330
15A
100
AcDbEntity
  8
0
100
AcDbBlockBegin
  2
_D_1
 70
     0
 10
0.0
 20
0.0
 30
0.0
  3
_D_1
  1

  0
SOLID
  5
15D
330
15A
100
AcDbEntity
  8
DIM
100
AcDbTrace
 10
76.5050534218
 20
71.9797712212
 30
0.0
 11
77.5050534218
 21
71.8547712212
 31
0.0
 12
77.5050534218
 22
72.1047712212
 32
0.0
 13
77.5050534218
 23
72.1047712212
 33
0.0
  0
SOLID
  5
15E
330
15A
100
AcDbEntity
  8
DIM
100
AcDbTrace
 10
84.0050534218
 20
71.9797712212
 30
0.0
 11
83.0050534218
 21
72.1047712212
 31
0.0
 12
83.0050534218
 22
71.8547712212
 32
0.0
 13
83.0050534218
 23
71.8547712212
 33
0.0
  0
LINE
  5
15F
330
15A
100
AcDbEntity
  8
DIM
100
AcDbLine
 10
76.5050534218
 20
63.6297712212
 30
0.0
 11
76.5050534218
 21
72.4797712212
 31
0.0
  0
LINE
  5
160
330
15A
100
AcDbEntity
  8
DIM
100
AcDbLine
 10
84.0050534218
 20
66.0297712212
 30
0.0
 11
84.0050534218
 21
72.4797712212
 31
0.0
  0
LINE
  5
161
330
15A
100
AcDbEntity
  8
DIM
100
AcDbLine
 10
76.5050534218
 20
71.9797712212
 30
0.0
 11
84.0050534218
 21
71.9797712212
 31
0.0
  0
MTEXT
  5
162
330
15A
100
AcDbEntity
  8
DIM
100
AcDbMText
 10
79.3234995881
 20
73.5145674407
 30
0.0
 40
1.190625
 41
0.0
 71
     1
 72
     1
  1
7.5
  7
SLDTEXTSTYLE1
 73
     1
 44
1.0
  0
ENDBLK
  5
15C
330
15A
100
AcDbEntity
  8
0
100
AcDbBlockEnd
  0
BLOCK
  5
166
330
165
100
AcDbEntity
  8
0
100
AcDbBlockBegin
  2
_D_2
 70
     0
 10
0.0
 20
0.0
 30
0.0
  3
_D_2
  1

  0
SOLID
  5
168
330
165
100
AcDbEntity
  8
DIM
100
AcDbTrace
 10
76.5050534218
 20
69.4797712212
 30
0.0
 11
75.5050534218
 21
69.6047712212
 31
0.0
 12
75.5050534218
 22
69.3547712212
 32
0.0
 13
75.5050534218
 23
69.3547712212
 33
0.0
  0
SOLID
  5
169
330
165
100
AcDbEntity
  8
DIM
100
AcDbTrace
 10
79.5050534218
 20
69.4797712212
 30
0.0
 11
80.5050534218
 21
69.3547712212
 31
0.0
 12
80.5050534218
 22
69.6047712212
 32
0.0
 13
80.5050534218
 23
69.6047712212
 33
0.0
  0
LINE
  5
16A
330
165
100
AcDbEntity
  8
DIM
100
AcDbLine
 10
76.5050534218
 20
63.6297712212
 30
0.0
 11
76.5050534218
 21
69.9797712212
 31
0.0
  0
LINE
  5
16B
330
165
100
AcDbEntity
  8
DIM
100
AcDbLine
 10
79.5050534218
 20
66.2797712212
 30
0.0
 11
79.5050534218
 21
69.9797712212
 31
0.0
  0
LINE
  5
16C
330
165
100
AcDbEntity
  8
DIM
100
AcDbLine
 10
76.5050534218
 20
69.4797712212
 30
0.0
 11
75.0050534218
 21
69.4797712212
 31
0.0
  0
LINE
  5
16D
330
165
100
AcDbEntity
  8
DIM
100
AcDbLine
 10
76.5050534218
 20
69.4797712212
 30
0.0
 11
79.5050534218
 21
69.4797712212
 31
0.0
  0
LINE
  5
16E
330
165
100
AcDbEntity
  8
DIM
100
AcDbLine
 10
79.5050534218
 20
69.4797712212
 30
0.0
 11
81.0050534218
 21
69.4797712212
 31
0.0
  0
MTEXT
  5
16F
330
165
100
AcDbEntity
  8
DIM
100
AcDbMText
 10
77.6324318999
 20
71.0145674407
 30
0.0
 40
1.190625
 41
0.0
 71
     1
 72
     1
  1
3
  7
SLDTEXTSTYLE1
 73
     1
 44
1.0
  0
ENDBLK
  5
167
330
165
100
AcDbEntity
  8
0
100
AcDbBlockEnd
  0
BLOCK
  5
172
330
171
100
AcDbEntity
  8
0
100
AcDbBlockBegin
  2
_D_3
 70
     0
 10
0.0
 20
0.0
 30
0.0
  3
_D_3
  1

  0
SOLID
  5
174
330
171
100
AcDbEntity
  8
DIM
100
AcDbTrace
 10
73.0050534218
 20
63.3297712212
 30
0.0
 11
72.8800534218
 21
62.3297712212
 31
0.0
 12
73.1300534218
 22
62.3297712212
 32
0.0
 13
73.1300534218
 23
62.3297712212
 33
0.0
  0
SOLID
  5
175
330
171
100
AcDbEntity
  8
DIM
100
AcDbTrace
 10
73.0050534218
 20
37.9297712212
 30
0.0
 11
73.1300534218
 21
38.9297712212
 31
0.0
 12
72.8800534218
 22
38.9297712212
 32
0.0
 13
72.8800534218
 23
38.9297712212
 33
0.0
  0
LINE
  5
176
330
171
100
AcDbEntity
  8
DIM
100
AcDbLine
 10
76.2050534218
 20
63.3297712212
 30
0.0
 11
72.5050534218
 21
63.3297712212
 31
0.0
  0
LINE
  5
177
330
171
100
AcDbEntity
  8
DIM
100
AcDbLine
 10
76.2050534218
 20
37.9297712212
 30
0.0
 11
72.5050534218
 21
37.9297712212
 31
0.0
  0
LINE
  5
178
330
171
100
AcDbEntity
  8
DIM
100
AcDbLine
 10
73.0050534218
 20
63.3297712212
 30
0.0
 11
73.0050534218
 21
37.9297712212
 31
0.0
  0
MTEXT
  5
179
330
171
100
AcDbEntity
  8
DIM
100
AcDbMText
 10
71.4702572023
 20
46.3225752113
 30
0.0
 40
1.190625
 41
0.0
 71
     1
 72
     1
  1
1-32 C-Mount
  7
SLDTEXTSTYLE1
 11
-7.044195017643634E-15
 21
1.0
 31
0.0
 73
     1
 44
1.0
  0
ENDBLK
  5
173
330
171
100
AcDbEntity
  8
0
100
AcDbBlockEnd
  0
BLOCK
  5
17C
330
17B
100
AcDbEntity
  8
0
100
AcDbBlockBegin
  2
_D_4
 70
     0
 10
0.0
 20
0.0
 30
0.0
  3
_D_4
  1

  0
SOLID
  5
17E
330
17B
100
AcDbEntity
  8
DIM
100
AcDbTrace
 10
80.7050534218
 20
31.7797712212
 30
0.0
 11
81.7050534218
 21
31.6547712212
 31
0.0
 12
81.7050534218
 22
31.9047712212
 32
0.0
 13
81.7050534218
 23
31.9047712212
 33
0.0
  0
SOLID
  5
17F
330
17B
100
AcDbEntity
  8
DIM
100
AcDbTrace
 10
84.0050534218
 20
31.7797712212
 30
0.0
 11
83.0050534218
 21
31.9047712212
 31
0.0
 12
83.0050534218
 22
31.6547712212
 32
0.0
 13
83.0050534218
 23
31.6547712212
 33
0.0
  0
LINE
  5
180
330
17B
100
AcDbEntity
  8
DIM
100
AcDbLine
 10
80.7050534218
 20
36.4797712212
 30
0.0
 11
80.7050534218
 21
31.2797712212
 31
0.0
  0
LINE
  5
181
330
17B
100
AcDbEntity
  8
DIM
100
AcDbLine
 10
84.0050534218
 20
35.2297712212
 30
0.0
 11
84.0050534218
 21
31.2797712212
 31
0.0
  0
LINE
  5
182
330
17B
100
AcDbEntity
  8
DIM
100
AcDbLine
 10
80.7050534218
 20
31.7797712212
 30
0.0
 11
84.0050534218
 21
31.7797712212
 31
0.0
  0
MTEXT
  5
183
330
17B
100
AcDbEntity
  8
DIM
100
AcDbMText
 10
81.4234995881
 20
33.3145674407
 30
0.0
 40
1.190625
 41
0.0
 71
     1
 72
     1
  1
3.3
  7
SLDTEXTSTYLE1
 73
     1
 44
1.0
  0
ENDBLK
  5
17D
330
17B
100
AcDbEntity
  8
0
100
AcDbBlockEnd
  0
BLOCK
  5
186
330
185
100
AcDbEntity
  8
0
100
AcDbBlockBegin
  2
_D_5
 70
     0
 10
0.0
 20
0.0
 30
0.0
  3
_D_5
  1

  0
SOLID
  5
188
330
185
100
AcDbEntity
  8
DIM
100
AcDbTrace
 10
87.5050534218
 20
63.4567712212
 30
0.0
 11
87.3800534218
 21
62.4567712212
 31
0.0
 12
87.6300534218
 22
62.4567712212
 32
0.0
 13
87.6300534218
 23
62.4567712212
 33
0.0
  0
SOLID
  5
189
330
185
100
AcDbEntity
  8
DIM
100
AcDbTrace
 10
87.5050534218
 20
37.8027712212
 30
0.0
 11
87.6300534218
 21
38.8027712212
 31
0.0
 12
87.3800534218
 22
38.8027712212
 32
0.0
 13
87.3800534218
 23
38.8027712212
 33
0.0
  0
LINE
  5
18A
330
185
100
AcDbEntity
  8
DIM
100
AcDbLine
 10
84.3050534218
 20
63.4567712212
 30
0.0
 11
88.0050534218
 21
63.4567712212
 31
0.0
  0
LINE
  5
18B
330
185
100
AcDbEntity
  8
DIM
100
AcDbLine
 10
84.3050534218
 20
37.8027712212
 30
0.0
 11
88.0050534218
 21
37.8027712212
 31
0.0
  0
LINE
  5
18C
330
185
100
AcDbEntity
  8
DIM
100
AcDbLine
 10
87.5050534218
 20
63.4567712212
 30
0.0
 11
87.5050534218
 21
37.8027712212
 31
0.0
  0
MTEXT
  5
18D
330
185
100
AcDbEntity
  8
DIM
100
AcDbMText
 10
85.9702572023
 20
47.9585820807
 30
0.0
 40
1.190625
 41
0.0
 71
     1
 72
     1
  1
1.035-40
  7
SLDTEXTSTYLE1
 11
-7.044195017643634E-15
 21
1.0
 31
0.0
 73
     1
 44
1.0
  0
ENDBLK
  5
187
330
185
100
AcDbEntity
  8
0
100
AcDbBlockEnd
  0
BLOCK
  5
190
330
18F
100
AcDbEntity
  8
0
100
AcDbBlockBegin
  2
_D_6
 70
     0
 10
0.0
 20
0.0
 30
0.0
  3
_D_6
  1

  0
SOLID
  5
192
330
18F
100
AcDbEntity
  8
DIM
100
AcDbTrace
 10
90.0050534218
 20
65.9797712212
 30
0.0
 11
89.8800534218
 21
64.9797712212
 31
0.0
 12
90.1300534218
 22
64.9797712212
 32
0.0
 13
90.1300534218
 23
64.9797712212
 33
0.0
  0
SOLID
  5
193
330
18F
100
AcDbEntity
  8
DIM
100
AcDbTrace
 10
90.0050534218
 20
35.2797712212
 30
0.0
 11
90.1300534218
 21
36.2797712212
 31
0.0
 12
89.8800534218
 22
36.2797712212
 32
0.0
 13
89.8800534218
 23
36.2797712212
 33
0.0
  0
LINE
  5
194
330
18F
100
AcDbEntity
  8
DIM
100
AcDbLine
 10
82.5050534218
 20
65.9797712212
 30
0.0
 11
90.5050534218
 21
65.9797712212
 31
0.0
  0
LINE
  5
195
330
18F
100
AcDbEntity
  8
DIM
100
AcDbLine
 10
82.5050534218
 20
35.2797712212
 30
0.0
 11
90.5050534218
 21
35.2797712212
 31
0.0
  0
LINE
  5
196
330
18F
100
AcDbEntity
  8
DIM
100
AcDbLine
 10
90.0050534218
 20
65.9797712212
 30
0.0
 11
90.0050534218
 21
35.2797712212
 31
0.0
  0
MTEXT
  5
197
330
18F
100
AcDbEntity
  8
DIM
100
AcDbMText
 10
88.4702570859
 20
48.5715334302
 30
0.0
 40
1.190625
 41
0.0
 71
     1
 72
     1
  1
%%c
  7
SLDTEXTSTYLE1
 11
-7.044195017643634E-15
 21
1.0
 31
0.0
 73
     1
 44
1.0
  0
MTEXT
  5
198
330
18F
100
AcDbEntity
  8
DIM
100
AcDbMText
 10
88.4702570859
 20
50.0796584178
 30
0.0
 40
1.190625
 41
0.0
 71
     1
 72
     1
  1
30.7
  7
SLDTEXTSTYLE1
 11
-7.044195017643634E-15
 21
1.0
 31
0.0
 73
     1
 44
1.0
  0
ENDBLK
  5
191
330
18F
100
AcDbEntity
  8
0
100
AcDbBlockEnd
  0
ENDSEC
  0
SECTION
  2
ENTITIES
  0
HATCH
  5
89
330
1F
100
AcDbEntity
  8
0
  6
Continuous
 62
     7
100
AcDbHatch
 10
0.0
 20
0.0
 30
0.0
210
0.0
220
0.0
230
1.0
  2
SOLID
 70
     1
 71
     0
 91
        1
 92
        0
 93
       10
 72
     2
 10
96.07029828146834
 20
17.87790440494428
 40
1.494818328884929
 50
50.39692260731407
 51
112.8514693252983
 73
     0
 72
     2
 10
95.907502981406
 20
17.71949914003102
 40
1.288667713408809
 50
108.9134333432861
 51
219.5668234386827
 73
     0
 72
     1
 10
94.91409196948017
 20
18.54035176807505
 11
94.40649504577894
 21
18.98811771848393
 72
     1
 10
94.40649504577894
 20
18.98811771848393
 11
93.75318091833812
 21
18.35732418023018
 72
     2
 10
94.24712339931945
 20
17.77306056386223
 40
0.7650772169718307
 50
130.2115225915088
 51
228.5889041080191
 73
     1
 72
     1
 10
93.7410576273255
 20
17.19926566814989
 11
95.7456587824233
 21
15.45696374801255
 72
     1
 10
95.7456587824233
 20
15.45696374801255
 11
95.43013282221574
 21
15.14901355277703
 72
     1
 10
95.43013282221574
 20
15.14901355277703
 11
95.92607250457851
 21
14.72202641930012
 72
     1
 10
95.92607250457851
 20
14.72202641930012
 11
97.53090472176115
 21
16.28031540205786
 72
     1
 10
97.53090472176115
 20
16.28031540205786
 11
97.02319320593206
 21
16.72617826592441
 97
        0
 75
     0
 76
     1
 98
        1
 10
0.0
 20
0.0
  0
HATCH
  5
8A
330
1F
100
AcDbEntity
  8
0
  6
Continuous
 62
     1
100
AcDbHatch
 10
0.0
 20
0.0
 30
0.0
210
0.0
220
0.0
230
1.0
  2
SOLID
 70
     1
 71
     0
 91
        1
 92
        0
 93
       10
 72
     2
 10
96.29462278138442
 20
17.83153457815805
 40
1.288783744173125
 50
317.8184992995785
 51
398.0564711573078
 73
     0
 72
     1
 10
97.30941570290815
 20
17.03707950348723
 11
97.80214014939956
 21
16.60773103354249
 72
     1
 10
97.80214014939956
 20
16.60773103354249
 11
98.42298080679645
 21
17.2099475047461
 72
     2
 10
97.97628464396539
 20
17.82392087065656
 40
0.7592764687091326
 50
306.0377529468138
 51
403.4396461533871
 73
     1
 72
     1
 10
98.52759457630154
 20
18.34599185667563
 11
96.46421664712989
 21
20.14057999099261
 72
     1
 10
96.46421664712989
 20
20.14057999099261
 11
96.77634229809352
 21
20.44510920641128
 72
     1
 10
96.77634229809352
 20
20.44510920641128
 11
96.3110890430015
 21
20.86020531633353
 72
     1
 10
96.3110890430015
 20
20.86020531633353
 11
94.69329631879657
 21
19.29674519302649
 72
     1
 10
94.69329631879657
 20
19.29674519302649
 11
95.20450025747084
 21
18.85084992946609
 72
     2
 10
96.13579463602218
 20
17.56112367541896
 40
1.590818352263938
 50
234.1674444878512
 51
314.4407074583994
 73
     0
 97
        0
 75
     0
 76
     1
 98
        1
 10
0.0
 20
0.0
  0
LINE
  5
8B
330
1F
100
AcDbEntity
  8
0
  6
Continuous
 62
     7
370
     0
100
AcDbLine
 10
83.9296887592
 20
8.8872596256
 30
0.0
 11
84.4296887592
 21
8.8872596256
 31
0.0
  0
LINE
  5
8C
330
1F
100
AcDbEntity
  8
0
  6
Continuous
 62
     7
370
     0
100
AcDbLine
 10
82.4296887592
 20
8.8872596256
 30
0.0
 11
83.6796887592
 21
8.8872596256
 31
0.0
  0
LINE
  5
8D
330
1F
100
AcDbEntity
  8
0
  6
Continuous
 62
     7
370
     0
100
AcDbLine
 10
90.6796887592
 20
7.6372596256
 30
0.0
 11
90.6796887592
 21
10.1372596256
 31
0.0
  0
LINE
  5
8E
330
1F
100
AcDbEntity
  8
0
  6
Continuous
 62
     7
370
     0
100
AcDbLine
 10
87.1796887592
 20
8.1372596256
 30
0.0
 11
90.6796887592
 21
7.6372596256
 31
0.0
  0
LINE
  5
8F
330
1F
100
AcDbEntity
  8
0
  6
Continuous
 62
     7
370
     0
100
AcDbLine
 10
84.1796887592
 20
8.3872596256
 30
0.0
 11
84.1796887592
 21
7.1372596256
 31
0.0
  0
LINE
  5
90
330
1F
100
AcDbEntity
  8
0
  6
Continuous
 62
     7
370
     0
100
AcDbLine
 10
90.6796887592
 20
10.1372596256
 30
0.0
 11
87.1796887592
 21
9.6372596256
 31
0.0
  0
LINE
  5
91
330
1F
100
AcDbEntity
  8
0
  6
Continuous
 62
     7
370
     0
100
AcDbLine
 10
86.6796887592
 20
8.8872596256
 30
0.0
 11
91.1796887592
 21
8.8872596256
 31
0.0
  0
LINE
  5
92
330
1F
100
AcDbEntity
  8
0
  6
Continuous
 62
     7
370
     0
100
AcDbLine
 10
84.1796887592
 20
9.1372596256
 30
0.0
 11
84.1796887592
 21
8.6372596256
 31
0.0
  0
LINE
  5
93
330
1F
100
AcDbEntity
  8
0
  6
Continuous
 62
     7
370
     0
100
AcDbLine
 10
84.6796887592
 20
8.8872596256
 30
0.0
 11
85.9296887592
 21
8.8872596256
 31
0.0
  0
LINE
  5
94
330
1F
100
AcDbEntity
  8
0
  6
Continuous
 62
     7
370
     0
100
AcDbLine
 10
84.1796887592
 20
10.6372596256
 30
0.0
 11
84.1796887592
 21
9.3872596256
 31
0.0
  0
LINE
  5
95
330
1F
100
AcDbEntity
  8
0
  6
Continuous
 62
     7
370
     0
100
AcDbLine
 10
87.1796887592
 20
9.6372596256
 30
0.0
 11
87.1796887592
 21
8.1372596256
 31
0.0
  0
LINE
  5
96
330
1F
100
AcDbEntity
  8
工作區域參考線
 62
     1
370
    30
100
AcDbLine
 10
95.2045002575
 20
18.8508499295
 30
0.0
 11
94.6932963188
 21
19.296745193
 31
0.0
  0
LINE
  5
97
330
1F
100
AcDbEntity
  8
工作區域參考線
 62
     1
370
    30
100
AcDbLine
 10
94.6932963188
 20
19.296745193
 30
0.0
 11
96.311089043
 21
20.8602053163
 31
0.0
  0
LINE
  5
98
330
1F
100
AcDbEntity
  8
工作區域參考線
 62
     1
370
    30
100
AcDbLine
 10
96.311089043
 20
20.8602053163
 30
0.0
 11
96.7763422981
 21
20.4451092064
 31
0.0
  0
LINE
  5
99
330
1F
100
AcDbEntity
  8
工作區域參考線
 62
     1
370
    30
100
AcDbLine
 10
96.7763422981
 20
20.4451092064
 30
0.0
 11
96.4642166471
 21
20.140579991
 31
0.0
  0
LINE
  5
9A
330
1F
100
AcDbEntity
  8
工作區域參考線
 62
     1
370
    30
100
AcDbLine
 10
96.4642166471
 20
20.140579991
 30
0.0
 11
98.5275945763
 21
18.3459918567
 31
0.0
  0
LINE
  5
9B
330
1F
100
AcDbEntity
  8
工作區域參考線
 62
     1
370
    30
100
AcDbLine
 10
97.3094157029
 20
17.0370795035
 30
0.0
 11
97.8021401494
 21
16.6077310335
 31
0.0
  0
LINE
  5
9C
330
1F
100
AcDbEntity
  8
工作區域參考線
 62
     1
370
    30
100
AcDbLine
 10
97.8021401494
 20
16.6077310335
 30
0.0
 11
98.4229808068
 21
17.2099475047
 31
0.0
  0
LINE
  5
9D
330
1F
100
AcDbEntity
  8
0
  6
Continuous
 62
     7
370
     0
100
AcDbLine
 10
92.8453982605
 20
6.557623204
 30
0.0
 11
142.8453982605
 21
6.557623204
 31
0.0
  0
LINE
  5
9E
330
1F
100
AcDbEntity
  8
0
  6
Continuous
 62
     7
370
     0
100
AcDbLine
 10
92.8453982605
 20
9.057623204
 30
0.0
 11
117.8453982605
 21
9.057623204
 31
0.0
  0
LINE
  5
9F
330
1F
100
AcDbEntity
  8
0
  6
Continuous
 62
     7
370
     0
100
AcDbLine
 10
92.8453982605
 20
11.557623204
 30
0.0
 11
117.8453982605
 21
11.557623204
 31
0.0
  0
LINE
  5
A0
330
1F
100
AcDbEntity
  8
0
  6
Continuous
 62
     7
370
     0
100
AcDbLine
 10
92.8453982605
 20
14.057623204
 30
0.0
 11
142.8453982605
 21
14.057623204
 31
0.0
  0
LINE
  5
A1
330
1F
100
AcDbEntity
  8
0
  6
Continuous
 62
     7
370
     0
100
AcDbLine
 10
117.8453982605
 20
16.557623204
 30
0.0
 11
142.8453982605
 21
16.557623204
 31
0.0
  0
LINE
  5
A2
330
1F
100
AcDbEntity
  8
0
  6
Continuous
 62
     7
370
    15
100
AcDbLine
 10
117.8453982605
 20
9.057623204
 30
0.0
 11
142.8453982605
 21
9.057623204
 31
0.0
  0
LINE
  5
A3
330
1F
100
AcDbEntity
  8
0
  6
Continuous
 62
     7
370
     0
100
AcDbLine
 10
92.8453982605
 20
21.557623204
 30
0.0
 11
142.8453982605
 21
21.557623204
 31
0.0
  0
LINE
  5
A4
330
1F
100
AcDbEntity
  8
0
  6
Continuous
 62
     7
370
     0
100
AcDbLine
 10
125.6186088375
 20
4.057623204
 30
0.0
 11
125.6186088375
 21
9.057623204
 31
0.0
  0
LINE
  5
A5
330
1F
100
AcDbEntity
  8
0
  6
Continuous
 62
     7
370
     0
100
AcDbLine
 10
117.8453982605
 20
4.057623204
 30
0.0
 11
117.8453982605
 21
21.557623204
 31
0.0
  0
LINE
  5
A6
330
1F
100
AcDbEntity
  8
0
  6
Continuous
 62
     7
370
     0
100
AcDbLine
 10
125.6186088375
 20
14.057623204
 30
0.0
 11
125.6186088375
 21
16.557623204
 31
0.0
  0
LINE
  5
A7
330
1F
100
AcDbEntity
  8
0
  6
Continuous
 62
     7
370
     0
100
AcDbLine
 10
107.2082043177
 20
4.057623204
 30
0.0
 11
107.2082043177
 21
14.057623204
 31
0.0
  0
LINE
  5
A8
330
1F
100
AcDbEntity
  8
0
  6
Continuous
 62
     7
370
     0
100
AcDbLine
 10
99.8892943753
 20
4.057623204
 30
0.0
 11
99.8892943753
 21
14.057623204
 31
0.0
  0
LINE
  5
A9
330
1F
100
AcDbEntity
  8
0
  6
Continuous
 62
     7
370
     0
100
AcDbLine
 10
92.8453982605
 20
4.057623204
 30
0.0
 11
92.8453982605
 21
21.557623204
 31
0.0
  0
LINE
  5
AA
330
1F
100
AcDbEntity
  8
0
  6
Continuous
 62
     7
370
    15
100
AcDbLine
 10
21.6603982605
 20
100.6860137875
 30
0.0
 11
21.6603982605
 21
101.4360137875
 31
0.0
  0
LINE
  5
AB
330
1F
100
AcDbEntity
  8
0
  6
Continuous
 62
     7
370
    15
100
AcDbLine
 10
38.9753982605
 20
100.6860137875
 30
0.0
 11
38.9753982605
 21
101.4360137875
 31
0.0
  0
LINE
  5
AC
330
1F
100
AcDbEntity
  8
0
  6
Continuous
 62
     7
370
    15
100
AcDbLine
 10
56.2903982605
 20
100.6860137875
 30
0.0
 11
56.2903982605
 21
101.4360137875
 31
0.0
  0
LINE
  5
AD
330
1F
100
AcDbEntity
  8
0
  6
Continuous
 62
     7
370
    15
100
AcDbLine
 10
73.6053982605
 20
100.6860137875
 30
0.0
 11
73.6053982605
 21
101.4360137875
 31
0.0
  0
LINE
  5
AE
330
1F
100
AcDbEntity
  8
0
  6
Continuous
 62
     7
370
    15
100
AcDbLine
 10
90.9203982605
 20
100.6860137875
 30
0.0
 11
90.9203982605
 21
101.4360137875
 31
0.0
  0
LINE
  5
AF
330
1F
100
AcDbEntity
  8
0
  6
Continuous
 62
     7
370
    15
100
AcDbLine
 10
108.2353982605
 20
100.6860137875
 30
0.0
 11
108.2353982605
 21
101.4360137875
 31
0.0
  0
LINE
  5
B0
330
1F
100
AcDbEntity
  8
0
  6
Continuous
 62
     7
370
    15
100
AcDbLine
 10
125.5503982605
 20
100.6860137875
 30
0.0
 11
125.5503982605
 21
101.4360137875
 31
0.0
  0
LINE
  5
B1
330
1F
100
AcDbEntity
  8
0
  6
Continuous
 62
     7
370
    15
100
AcDbLine
 10
21.6578982605
 20
4.057623204
 30
0.0
 11
21.6578982605
 21
3.307623204
 31
0.0
  0
LINE
  5
B2
330
1F
100
AcDbEntity
  8
0
  6
Continuous
 62
     7
370
    15
100
AcDbLine
 10
38.9703982605
 20
4.057623204
 30
0.0
 11
38.9703982605
 21
3.307623204
 31
0.0
  0
LINE
  5
B3
330
1F
100
AcDbEntity
  8
0
  6
Continuous
 62
     7
370
    15
100
AcDbLine
 10
56.2828982605
 20
4.057623204
 30
0.0
 11
56.2828982605
 21
3.307623204
 31
0.0
  0
LINE
  5
B4
330
1F
100
AcDbEntity
  8
0
  6
Continuous
 62
     7
370
    15
100
AcDbLine
 10
73.5953982605
 20
4.057623204
 30
0.0
 11
73.5953982605
 21
3.307623204
 31
0.0
  0
LINE
  5
B5
330
1F
100
AcDbEntity
  8
0
  6
Continuous
 62
     7
370
    15
100
AcDbLine
 10
90.9078982605
 20
4.057623204
 30
0.0
 11
90.9078982605
 21
3.307623204
 31
0.0
  0
LINE
  5
B6
330
1F
100
AcDbEntity
  8
0
  6
Continuous
 62
     7
370
    15
100
AcDbLine
 10
108.2203982605
 20
4.057623204
 30
0.0
 11
108.2203982605
 21
3.307623204
 31
0.0
  0
LINE
  5
B7
330
1F
100
AcDbEntity
  8
0
  6
Continuous
 62
     7
370
     0
100
AcDbLine
 10
142.8453982605
 20
100.6860137875
 30
0.0
 11
4.3453982605
 21
100.6860137875
 31
0.0
  0
LINE
  5
B8
330
1F
100
AcDbEntity
  8
0
  6
Continuous
 62
     7
370
     0
100
AcDbLine
 10
142.8453982605
 20
4.057623204
 30
0.0
 11
142.8453982605
 21
100.6860137875
 31
0.0
  0
LINE
  5
B9
330
1F
100
AcDbEntity
  8
0
  6
Continuous
 62
     7
370
     0
100
AcDbLine
 10
4.3453982605
 20
100.6860137875
 30
0.0
 11
4.3453982605
 21
4.057623204
 31
0.0
  0
LINE
  5
BA
330
1F
100
AcDbEntity
  8
0
  6
Continuous
 62
     7
370
     0
100
AcDbLine
 10
4.3453982605
 20
4.057623204
 30
0.0
 11
142.8453982605
 21
4.057623204
 31
0.0
  0
LINE
  5
BB
330
1F
100
AcDbEntity
  8
0
  6
Continuous
 62
     7
370
    15
100
AcDbLine
 10
125.5328982605
 20
4.057623204
 30
0.0
 11
125.5328982605
 21
3.307623204
 31
0.0
  0
LINE
  5
BC
330
1F
100
AcDbEntity
  8
0
  6
Continuous
 62
     7
370
    15
100
AcDbLine
 10
4.3453982605
 20
20.162623204
 30
0.0
 11
3.5953982605
 21
20.162623204
 31
0.0
  0
LINE
  5
BD
330
1F
100
AcDbEntity
  8
0
  6
Continuous
 62
     7
370
    15
100
AcDbLine
 10
4.3453982605
 20
36.267623204
 30
0.0
 11
3.5953982605
 21
36.267623204
 31
0.0
  0
LINE
  5
BE
330
1F
100
AcDbEntity
  8
0
  6
Continuous
 62
     7
370
    15
100
AcDbLine
 10
4.3453982605
 20
52.372623204
 30
0.0
 11
3.5953982605
 21
52.372623204
 31
0.0
  0
LINE
  5
BF
330
1F
100
AcDbEntity
  8
0
  6
Continuous
 62
     7
370
    15
100
AcDbLine
 10
4.3453982605
 20
68.477623204
 30
0.0
 11
3.5953982605
 21
68.477623204
 31
0.0
  0
LINE
  5
C0
330
1F
100
AcDbEntity
  8
0
  6
Continuous
 62
     7
370
    15
100
AcDbLine
 10
4.3453982605
 20
84.582623204
 30
0.0
 11
3.5953982605
 21
84.582623204
 31
0.0
  0
LINE
  5
C1
330
1F
100
AcDbEntity
  8
0
  6
Continuous
 62
     7
370
    15
100
AcDbLine
 10
142.8453982605
 20
20.162623204
 30
0.0
 11
143.5953982605
 21
20.162623204
 31
0.0
  0
LINE
  5
C2
330
1F
100
AcDbEntity
  8
0
  6
Continuous
 62
     7
370
    15
100
AcDbLine
 10
142.8453982605
 20
36.267623204
 30
0.0
 11
143.5953982605
 21
36.267623204
 31
0.0
  0
LINE
  5
C3
330
1F
100
AcDbEntity
  8
0
  6
Continuous
 62
     7
370
    15
100
AcDbLine
 10
142.8453982605
 20
52.372623204
 30
0.0
 11
143.5953982605
 21
52.372623204
 31
0.0
  0
LINE
  5
C4
330
1F
100
AcDbEntity
  8
0
  6
Continuous
 62
     7
370
    15
100
AcDbLine
 10
142.8453982605
 20
68.477623204
 30
0.0
 11
143.5953982605
 21
68.477623204
 31
0.0
  0
LINE
  5
C5
330
1F
100
AcDbEntity
  8
0
  6
Continuous
 62
     7
370
    15
100
AcDbLine
 10
142.8453982605
 20
84.582623204
 30
0.0
 11
143.5953982605
 21
84.582623204
 31
0.0
  0
CIRCLE
  5
C6
330
1F
100
AcDbEntity
  8
0
  6
Continuous
 62
     7
370
     0
100
AcDbCircle
 10
84.1796887592
 20
8.8872596256
 30
0.0
 40
0.75
  0
CIRCLE
  5
C7
330
1F
100
AcDbEntity
  8
0
  6
Continuous
 62
     7
370
     0
100
AcDbCircle
 10
84.1796887592
 20
8.8872596256
 30
0.0
 40
1.25
  0
ARC
  5
C8
330
1F
100
AcDbEntity
  8
工作區域參考線
 62
     1
370
    30
100
AcDbCircle
 10
97.976284644
 20
17.8239208707
 30
0.0
 40
0.7592764687091375
100
AcDbArc
 50
306.0377529468
 51
43.4396461534
  0
ARC
  5
C9
330
1F
100
AcDbEntity
  8
工作區域參考線
 62
     1
370
    30
100
AcDbCircle
 10
96.135794636
 20
17.5611236754
 30
0.0
 40
1.590818352263945
100
AcDbArc
 50
45.5592925416
 51
125.8325555121
  0
ARC
  5
CA
330
1F
100
AcDbEntity
  8
工作區域參考線
 62
     1
370
    30
100
AcDbCircle
 10
96.2946227814
 20
17.8315345782
 30
0.0
 40
1.288783744173133
100
AcDbArc
 50
321.9435288427
 51
42.1815007004
  0
INSERT
  5
CB
330
1F
100
AcDbEntity
  8
0
  6
Continuous
 62
     7
100
AcDbBlockReference
  2
圖塊6
 10
93.4820461823
 20
14.7220264193
 30
0.0
  0
MTEXT
  5
CD
330
1F
100
AcDbEntity
  8
0
  6
Continuous
 62
     7
370
     0
100
AcDbMText
 10
82.7713425402
 20
6.6104220185
 30
0.0
 40
1.3229166667
 41
0.0
 71
     1
 72
     1
  1
UNIT:m/m
  7
SLDTEXTSTYLE0
 73
     1
 44
1.0
  0
INSERT
  5
D4
330
1F
100
AcDbEntity
  8
0
  6
Continuous
 62
     7
370
     0
100
AcDbBlockReference
  2
SW_NOTE_0
 10
6.1157538027
 20
96.9452152126
 30
0.0
  0
MTEXT
  5
D5
330
1F
100
AcDbEntity
  8
0
  6
Continuous
 62
     7
370
     0
100
AcDbMText
 10
99.3625946967
 20
20.2203387069
 30
0.0
 40
1.190625
 41
0.0
 71
     1
 72
     1
  1
Unice E-O Services Inc.
  7
SLDTEXTSTYLE0
 73
     1
 44
1.0
  0
MTEXT
  5
D6
330
1F
100
AcDbEntity
  8
0
  6
Continuous
 62
     7
370
     0
100
AcDbMText
 10
108.7795269075
 20
10.7933574255
 30
0.0
 40
0.9260416667
 41
0.0
 71
     1
 72
     1
  1
2018/11/16
  7
SLDTEXTSTYLE0
 73
     1
 44
1.0
  0
MTEXT
  5
D7
330
1F
100
AcDbEntity
  8
0
  6
Continuous
 62
     7
370
     0
100
AcDbMText
 10
126.3044491253
 20
8.43558887
 30
0.0
 40
1.25
 41
0.0
 71
     1
 72
     1
  1
2:1
  7
SLDTEXTSTYLE0
 73
     1
 44
1.0
  0
MTEXT
  5
D8
330
1F
100
AcDbEntity
  8
0
  6
Continuous
 62
     7
370
     0
100
AcDbMText
 10
126.1537799992
 20
16.0759597719
 30
0.0
 40
1.25
 41
0.0
 71
     1
 72
     1
  1
04TAC-S1-07L
  7
SLDTEXTSTYLE0
 73
     1
 44
1.0
  0
MTEXT
  5
D9
330
1F
100
AcDbEntity
  8
0
  6
Continuous
 62
     7
370
     0
100
AcDbMText
 10
126.1537799992
 20
19.0541058939
 30
0.0
 40
1.25
 41
0.0
 71
     1
 72
     1
  1
04TAC-S1-07L
  7
SLDTEXTSTYLE0
 73
     1
 44
1.0
  0
MTEXT
  5
DA
330
1F
100
AcDbEntity
  8
0
  6
Continuous
 62
     7
370
     0
100
AcDbMText
 10
118.1960933393
 20
8.2532397864
 30
0.0
 40
1.0583333333
 41
0.0
 71
     1
 72
     1
  1
SCALE:
  7
SLDTEXTSTYLE0
 73
     1
 44
1.0
  0
MTEXT
  5
DB
330
1F
100
AcDbEntity
  8
0
  6
Continuous
 62
     7
370
     0
100
AcDbMText
 10
93.1668043395
 20
10.7933574255
 30
0.0
 40
0.9260416667
 41
0.0
 71
     1
 72
     1
  1
DRAWN
  7
SLDTEXTSTYLE0
 73
     1
 44
1.0
  0
MTEXT
  5
DC
330
1F
100
AcDbEntity
  8
0
  6
Continuous
 62
     7
370
     0
100
AcDbMText
 10
101.6114183968
 20
13.341604154
 30
0.0
 40
0.9260416667
 41
0.0
 71
     1
 72
     1
  1
NAME
  7
SLDTEXTSTYLE0
 73
     1
 44
1.0
  0
MTEXT
  5
DD
330
1F
100
AcDbEntity
  8
0
  6
Continuous
 62
     7
370
     0
100
AcDbMText
 10
110.4355077879
 20
13.341604154
 30
0.0
 40
0.9260416667
 41
0.0
 71
     1
 72
     1
  1
DATE
  7
SLDTEXTSTYLE0
 73
     1
 44
1.0
  0
MTEXT
  5
DE
330
1F
100
AcDbEntity
  8
0
  6
Continuous
 62
     7
370
     0
100
AcDbMText
 10
118.1378158323
 20
15.8936106883
 30
0.0
 40
1.0583333333
 41
0.0
 71
     1
 72
     1
  1
DWG. NO.
  7
SLDTEXTSTYLE0
 73
     1
 44
1.0
  0
MTEXT
  5
DF
330
1F
100
AcDbEntity
  8
0
  6
Continuous
 62
     7
370
     0
100
AcDbMText
 10
118.1814953544
 20
20.9420329122
 30
0.0
 40
1.0583333333
 41
0.0
 71
     1
 72
     1
  1
TITLE:
  7
SLDTEXTSTYLE0
 73
     1
 44
1.0
  0
MTEXT
  5
E0
330
1F
100
AcDbEntity
  8
0
  6
Continuous
 62
     7
370
     0
100
AcDbMText
 10
101.5157104901
 20
8.1201894862
 30
0.0
 40
0.9260416667
 41
0.0
 71
     1
 72
     1
  1
Johnny
  7
SLDTEXTSTYLE0
 73
     1
 44
1.0
  0
MTEXT
  5
E1
330
1F
100
AcDbEntity
  8
0
  6
Continuous
 62
     7
370
     0
100
AcDbMText
 10
108.7795269075
 20
8.1201894862
 30
0.0
 40
0.9260416667
 41
0.0
 71
     1
 72
     1
  1
2018/11/16
  7
SLDTEXTSTYLE0
 73
     1
 44
1.0
  0
MTEXT
  5
E2
330
1F
100
AcDbEntity
  8
0
  6
Continuous
 62
     7
370
     0
100
AcDbMText
 10
93.1668043395
 20
8.1201894862
 30
0.0
 40
0.9260416667
 41
0.0
 71
     1
 72
     1
  1
ENG APPR.
  7
SLDTEXTSTYLE0
 73
     1
 44
1.0
  0
MTEXT
  5
E3
330
1F
100
AcDbEntity
  8
0
  6
Continuous
 62
     7
370
     0
100
AcDbMText
 10
118.1960933393
 20
5.8426694644
 30
0.0
 40
1.0583333333
 41
0.0
 71
     1
 72
     1
  1
REV
  7
SLDTEXTSTYLE0
 73
     1
 44
1.0
  0
MTEXT
  5
E4
330
1F
100
AcDbEntity
  8
0
  6
Continuous
 62
     7
370
     0
100
AcDbMText
 10
118.1814953544
 20
13.4746544542
 30
0.0
 40
1.0583333333
 41
0.0
 71
     1
 72
     1
  1
MATERIAL:
  7
SLDTEXTSTYLE0
 73
     1
 44
1.0
  0
MTEXT
  5
E5
330
1F
100
AcDbEntity
  8
0
  6
Continuous
 62
     7
370
     0
100
AcDbMText
 10
126.3044491253
 20
11.1087568093
 30
0.0
 40
1.25
 41
0.0
 71
     1
 72
     1
  1
N/A
  7
SLDTEXTSTYLE0
 73
     1
 44
1.0
  0
MTEXT
  5
E6
330
1F
100
AcDbEntity
  8
0
  6
Continuous
 62
     7
370
     0
100
AcDbMText
 10
13.3014965767
 20
102.2266758285
 30
0.0
 40
1.0583333333
 41
0.0
 71
     1
 72
     1
  1
1
  7
SLDTEXTSTYLE0
 73
     1
 44
1.0
  0
MTEXT
  5
E7
330
1F
100
AcDbEntity
  8
0
  6
Continuous
 62
     7
370
     0
100
AcDbMText
 10
30.3585497862
 20
102.2266758285
 30
0.0
 40
1.0583333333
 41
0.0
 71
     1
 72
     1
  1
2
  7
SLDTEXTSTYLE0
 73
     1
 44
1.0
  0
MTEXT
  5
E8
330
1F
100
AcDbEntity
  8
0
  6
Continuous
 62
     7
370
     0
100
AcDbMText
 10
47.4504971953
 20
102.2266758285
 30
0.0
 40
1.0583333333
 41
0.0
 71
     1
 72
     1
  1
3
  7
SLDTEXTSTYLE0
 73
     1
 44
1.0
  0
MTEXT
  5
E9
330
1F
100
AcDbEntity
  8
0
  6
Continuous
 62
     7
370
     0
100
AcDbMText
 10
64.6266681426
 20
102.1496292182
 30
0.0
 40
1.0583333333
 41
0.0
 71
     1
 72
     1
  1
4
  7
SLDTEXTSTYLE0
 73
     1
 44
1.0
  0
MTEXT
  5
EA
330
1F
100
AcDbEntity
  8
0
  6
Continuous
 62
     7
370
     0
100
AcDbMText
 10
81.851161732
 20
102.2266758285
 30
0.0
 40
1.0583333333
 41
0.0
 71
     1
 72
     1
  1
5
  7
SLDTEXTSTYLE0
 73
     1
 44
1.0
  0
MTEXT
  5
EB
330
1F
100
AcDbEntity
  8
0
  6
Continuous
 62
     7
370
     0
100
AcDbMText
 10
99.3191085208
 20
102.2266758285
 30
0.0
 40
1.0583333333
 41
0.0
 71
     1
 72
     1
  1
6
  7
SLDTEXTSTYLE0
 73
     1
 44
1.0
  0
MTEXT
  5
EC
330
1F
100
AcDbEntity
  8
0
  6
Continuous
 62
     7
370
     0
100
AcDbMText
 10
117.1815328703
 20
102.2266758285
 30
0.0
 40
1.0583333333
 41
0.0
 71
     1
 72
     1
  1
7
  7
SLDTEXTSTYLE0
 73
     1
 44
1.0
  0
MTEXT
  5
ED
330
1F
100
AcDbEntity
  8
0
  6
Continuous
 62
     7
370
     0
100
AcDbMText
 10
133.1393910247
 20
102.2266758285
 30
0.0
 40
1.0583333333
 41
0.0
 71
     1
 72
     1
  1
8
  7
SLDTEXTSTYLE0
 73
     1
 44
1.0
  0
MTEXT
  5
EE
330
1F
100
AcDbEntity
  8
0
  6
Continuous
 62
     7
370
     0
100
AcDbMText
 10
2.6784118277
 20
92.905651144
 30
0.0
 40
1.0583333333
 41
0.0
 71
     1
 72
     1
  1
A
  7
SLDTEXTSTYLE0
 73
     1
 44
1.0
  0
MTEXT
  5
EF
330
1F
100
AcDbEntity
  8
0
  6
Continuous
 62
     7
370
     0
100
AcDbMText
 10
2.7955215916
 20
77.1496524119
 30
0.0
 40
1.0583333333
 41
0.0
 71
     1
 72
     1
  1
B
  7
SLDTEXTSTYLE0
 73
     1
 44
1.0
  0
MTEXT
  5
F0
330
1F
100
AcDbEntity
  8
0
  6
Continuous
 62
     7
370
     0
100
AcDbMText
 10
2.7955215916
 20
60.6371757115
 30
0.0
 40
1.0583333333
 41
0.0
 71
     1
 72
     1
  1
C
  7
SLDTEXTSTYLE0
 73
     1
 44
1.0
  0
MTEXT
  5
F1
330
1F
100
AcDbEntity
  8
0
  6
Continuous
 62
     7
370
     0
100
AcDbMText
 10
2.7955215916
 20
44.372661011
 30
0.0
 40
1.0583333333
 41
0.0
 71
     1
 72
     1
  1
D
  7
SLDTEXTSTYLE0
 73
     1
 44
1.0
  0
MTEXT
  5
F2
330
1F
100
AcDbEntity
  8
0
  6
Continuous
 62
     7
370
     0
100
AcDbMText
 10
2.7955215916
 20
28.7779424599
 30
0.0
 40
1.0583333333
 41
0.0
 71
     1
 72
     1
  1
E
  7
SLDTEXTSTYLE0
 73
     1
 44
1.0
  0
MTEXT
  5
F3
330
1F
100
AcDbEntity
  8
0
  6
Continuous
 62
     7
370
     0
100
AcDbMText
 10
2.7955215916
 20
12.7847106126
 30
0.0
 40
1.0583333333
 41
0.0
 71
     1
 72
     1
  1
F
  7
SLDTEXTSTYLE0
 73
     1
 44
1.0
  0
MTEXT
  5
F4
330
1F
100
AcDbEntity
  8
0
  6
Continuous
 62
     7
370
     0
100
AcDbMText
 10
133.0929308482
 20
3.3118111982
 30
0.0
 40
1.0583333333
 41
0.0
 71
     1
 72
     1
  1
8
  7
SLDTEXTSTYLE0
 73
     1
 44
1.0
  0
MTEXT
  5
F5
330
1F
100
AcDbEntity
  8
0
  6
Continuous
 62
     7
370
     0
100
AcDbMText
 10
117.1350726938
 20
3.3118111982
 30
0.0
 40
1.0583333333
 41
0.0
 71
     1
 72
     1
  1
7
  7
SLDTEXTSTYLE0
 73
     1
 44
1.0
  0
MTEXT
  5
F6
330
1F
100
AcDbEntity
  8
0
  6
Continuous
 62
     7
370
     0
100
AcDbMText
 10
99.2726483442
 20
3.3118111982
 30
0.0
 40
1.0583333333
 41
0.0
 71
     1
 72
     1
  1
6
  7
SLDTEXTSTYLE0
 73
     1
 44
1.0
  0
MTEXT
  5
F7
330
1F
100
AcDbEntity
  8
0
  6
Continuous
 62
     7
370
     0
100
AcDbMText
 10
81.8047015555
 20
3.3118111982
 30
0.0
 40
1.0583333333
 41
0.0
 71
     1
 72
     1
  1
5
  7
SLDTEXTSTYLE0
 73
     1
 44
1.0
  0
MTEXT
  5
F8
330
1F
100
AcDbEntity
  8
0
  6
Continuous
 62
     7
370
     0
100
AcDbMText
 10
64.580207966
 20
3.2347645879
 30
0.0
 40
1.0583333333
 41
0.0
 71
     1
 72
     1
  1
4
  7
SLDTEXTSTYLE0
 73
     1
 44
1.0
  0
MTEXT
  5
F9
330
1F
100
AcDbEntity
  8
0
  6
Continuous
 62
     7
370
     0
100
AcDbMText
 10
47.4040370188
 20
3.3118111982
 30
0.0
 40
1.0583333333
 41
0.0
 71
     1
 72
     1
  1
3
  7
SLDTEXTSTYLE0
 73
     1
 44
1.0
  0
MTEXT
  5
FA
330
1F
100
AcDbEntity
  8
0
  6
Continuous
 62
     7
370
     0
100
AcDbMText
 10
30.3120896097
 20
3.3118111982
 30
0.0
 40
1.0583333333
 41
0.0
 71
     1
 72
     1
  1
2
  7
SLDTEXTSTYLE0
 73
     1
 44
1.0
  0
MTEXT
  5
FB
330
1F
100
AcDbEntity
  8
0
  6
Continuous
 62
     7
370
     0
100
AcDbMText
 10
13.2550364001
 20
3.3118111982
 30
0.0
 40
1.0583333333
 41
0.0
 71
     1
 72
     1
  1
1
  7
SLDTEXTSTYLE0
 73
     1
 44
1.0
  0
MTEXT
  5
FC
330
1F
100
AcDbEntity
  8
0
  6
Continuous
 62
     7
370
     0
100
AcDbMText
 10
143.5511923072
 20
93.3212454546
 30
0.0
 40
1.0583333333
 41
0.0
 71
     1
 72
     1
  1
A
  7
SLDTEXTSTYLE0
 73
     1
 44
1.0
  0
MTEXT
  5
FD
330
1F
100
AcDbEntity
  8
0
  6
Continuous
 62
     7
370
     0
100
AcDbMText
 10
143.6683020711
 20
77.5652467225
 30
0.0
 40
1.0583333333
 41
0.0
 71
     1
 72
     1
  1
B
  7
SLDTEXTSTYLE0
 73
     1
 44
1.0
  0
MTEXT
  5
FE
330
1F
100
AcDbEntity
  8
0
  6
Continuous
 62
     7
370
     0
100
AcDbMText
 10
143.6683020711
 20
61.0527700221
 30
0.0
 40
1.0583333333
 41
0.0
 71
     1
 72
     1
  1
C
  7
SLDTEXTSTYLE0
 73
     1
 44
1.0
  0
MTEXT
  5
FF
330
1F
100
AcDbEntity
  8
0
  6
Continuous
 62
     7
370
     0
100
AcDbMText
 10
143.6683020711
 20
44.7882553217
 30
0.0
 40
1.0583333333
 41
0.0
 71
     1
 72
     1
  1
D
  7
SLDTEXTSTYLE0
 73
     1
 44
1.0
  0
MTEXT
  5
100
330
1F
100
AcDbEntity
  8
0
  6
Continuous
 62
     7
370
     0
100
AcDbMText
 10
143.6683020711
 20
29.1935367705
 30
0.0
 40
1.0583333333
 41
0.0
 71
     1
 72
     1
  1
E
  7
SLDTEXTSTYLE0
 73
     1
 44
1.0
  0
MTEXT
  5
101
330
1F
100
AcDbEntity
  8
0
  6
Continuous
 62
     7
370
     0
100
AcDbMText
 10
143.6683020711
 20
13.2003049232
 30
0.0
 40
1.0583333333
 41
0.0
 71
     1
 72
     1
  1
F
  7
SLDTEXTSTYLE0
 73
     1
 44
1.0
  0
MTEXT
  5
102
330
1F
100
AcDbEntity
  8
0
  6
Continuous
 62
     7
370
     0
100
AcDbMText
 10
101.5776564401
 20
10.7933574255
 30
0.0
 40
0.9260416667
 41
0.0
 71
     1
 72
     1
  1
Sky
  7
SLDTEXTSTYLE0
 73
     1
 44
1.0
  0
MTEXT
  5
104
330
1F
100
AcDbEntity
  8
0
  6
Continuous
 62
     7
370
     0
100
AcDbMText
 10
126.4241119823
 20
6.1109801659
 30
0.0
 40
1.190625
 41
0.0
 71
     1
 72
     1
  1
0
  7
SLDTEXTSTYLE1
 73
     1
 44
1.0
  0
INSERT
  5
10A
330
1F
100
AcDbEntity
  8
SLD-0
 62
     7
100
AcDbBlockReference
  2
SW_NOTE_1
 10
99.3625946967
 20
16.7739872606
 30
0.0
  0
CIRCLE
  5
10B
330
1F
100
AcDbEntity
  8
0
  6
Continuous
 62
     7
370
    30
100
AcDbCircle
 10
35.0489138769
 20
50.6297712212
 30
0.0
 40
12.50000000000001
  0
CIRCLE
  5
10C
330
1F
100
AcDbEntity
  8
0
  6
Continuous
 62
     7
370
    30
100
AcDbCircle
 10
35.0489138769
 20
50.6297712212
 30
0.0
 40
12.7
  0
CIRCLE
  5
10D
330
1F
100
AcDbEntity
  8
0
  6
Continuous
 62
     7
370
    30
100
AcDbCircle
 10
35.0489138769
 20
50.6297712212
 30
0.0
 40
11.5
  0
CIRCLE
  5
10E
330
1F
100
AcDbEntity
  8
0
  6
Continuous
 62
     7
370
    30
100
AcDbCircle
 10
35.0489138769
 20
50.6297712212
 30
0.0
 40
11.69999999999999
  0
CIRCLE
  5
10F
330
1F
100
AcDbEntity
  8
0
  6
Continuous
 62
     7
370
    30
100
AcDbCircle
 10
35.0489138769
 20
50.6297712212
 30
0.0
 40
15.14999999999998
  0
CIRCLE
  5
110
330
1F
100
AcDbEntity
  8
0
  6
Continuous
 62
     7
370
    30
100
AcDbCircle
 10
35.0489138769
 20
50.6297712212
 30
0.0
 40
15.35
  0
DIMENSION
  5
111
330
1F
100
AcDbEntity
  8
DIM
100
AcDbDimension
  2
_D
 10
28.6547541583
 20
41.0712817227
 30
0.0
 11
56.4062324953
 21
70.3074009748
 31
0.0
 70
   163
  1
<> CLEAR APERTURE
 71
     1
 42
-1.0
  3
SLDDIMSTYLE0
100
AcDbDiametricDimension
 15
41.4430735955
 25
60.1882607197
 35
0.0
 40
0.0
  0
INSERT
  5
127
330
1F
100
AcDbEntity
  8
DIM
100
AcDbBlockReference
  2
SW_CENTERMARKSYMBOL_0
 10
35.0489138769
 20
50.6297712212
 30
0.0
  0
LINE
  5
128
330
1F
100
AcDbEntity
  8
0
  6
Continuous
 62
     7
370
    30
100
AcDbLine
 10
82.0050533268
 20
35.2797712198
 30
0.0
 11
82.2050534527
 21
35.47977088
 31
0.0
  0
LINE
  5
129
330
1F
100
AcDbEntity
  8
0
  6
Continuous
 62
     7
370
    30
100
AcDbLine
 10
82.2050534527
 20
65.7797715625
 30
0.0
 11
82.0050533268
 21
65.9797712227
 31
0.0
  0
LINE
  5
12A
330
1F
100
AcDbEntity
  8
0
  6
Continuous
 62
     7
370
    30
100
AcDbLine
 10
79.7050532757
 20
65.9797712227
 30
0.0
 11
79.5050536155
 21
65.7797715625
 31
0.0
  0
LINE
  5
12B
330
1F
100
AcDbEntity
  8
0
  6
Continuous
 62
     7
370
    30
100
AcDbLine
 10
79.5050536155
 20
35.47977088
 30
0.0
 11
79.7050532757
 21
35.2797712198
 31
0.0
  0
LINE
  5
12C
330
1F
100
AcDbEntity
  8
0
  6
Continuous
 62
     7
370
    30
100
AcDbLine
 10
79.7050532757
 20
35.2797712198
 30
0.0
 11
82.0050533268
 21
35.2797712198
 31
0.0
  0
LINE
  5
12D
330
1F
100
AcDbEntity
  8
0
  6
Continuous
 62
     7
370
    30
100
AcDbLine
 10
82.0050533268
 20
65.9797712227
 30
0.0
 11
79.7050532757
 21
65.9797712227
 31
0.0
  0
LINE
  5
12E
330
1F
100
AcDbEntity
  8
0
  6
Continuous
 62
     7
370
    30
100
AcDbLine
 10
83.8050534268
 20
35.5297707951
 30
0.0
 11
84.0050534218
 21
35.7297713866
 31
0.0
  0
LINE
  5
12F
330
1F
100
AcDbEntity
  8
0
  6
Continuous
 62
     7
370
    30
100
AcDbLine
 10
84.0050534218
 20
65.5297710558
 30
0.0
 11
83.8050534268
 21
65.7297716474
 31
0.0
  0
LINE
  5
130
330
1F
100
AcDbEntity
  8
0
  6
Continuous
 62
     7
370
    30
100
AcDbLine
 10
82.2050534527
 20
35.5297707951
 30
0.0
 11
83.8050534268
 21
35.5297707951
 31
0.0
  0
LINE
  5
131
330
1F
100
AcDbEntity
  8
0
  6
Continuous
 62
     7
370
    30
100
AcDbLine
 10
83.8050534268
 20
65.7297716474
 30
0.0
 11
82.2050534527
 21
65.7297716474
 31
0.0
  0
LINE
  5
132
330
1F
100
AcDbEntity
  8
0
  6
Continuous
 62
     7
370
    30
100
AcDbLine
 10
76.7050532497
 20
63.3297710678
 30
0.0
 11
76.5050535894
 21
63.1297714075
 31
0.0
  0
LINE
  5
133
330
1F
100
AcDbEntity
  8
0
  6
Continuous
 62
     7
370
    30
100
AcDbLine
 10
76.5050535894
 20
38.129771035
 30
0.0
 11
76.7050532497
 21
37.9297713747
 31
0.0
  0
LINE
  5
134
330
1F
100
AcDbEntity
  8
0
  6
Continuous
 62
     7
370
    30
100
AcDbLine
 10
76.7050532497
 20
37.9297713747
 30
0.0
 11
79.0050535335
 21
37.9297713747
 31
0.0
  0
LINE
  5
135
330
1F
100
AcDbEntity
  8
0
  6
Continuous
 62
     7
370
    30
100
AcDbLine
 10
79.0050535335
 20
63.3297710678
 30
0.0
 11
76.7050532497
 21
63.3297710678
 31
0.0
  0
LINE
  5
136
330
1F
100
AcDbEntity
  8
0
  6
Continuous
 62
     7
370
    30
100
AcDbLine
 10
79.0050535335
 20
38.1847712209
 30
0.0
 11
79.5050536155
 21
38.1847712209
 31
0.0
  0
LINE
  5
137
330
1F
100
AcDbEntity
  8
0
  6
Continuous
 62
     7
370
    30
100
AcDbLine
 10
79.5050536155
 20
63.0747712215
 30
0.0
 11
79.0050535335
 21
63.0747712215
 31
0.0
  0
LINE
  5
138
330
1F
100
AcDbEntity
  8
0
  6
Continuous
 62
     7
370
    30
100
AcDbLine
 10
82.0050533268
 20
50.6297712212
 30
0.0
 11
82.0050533268
 21
65.9797712227
 31
0.0
  0
LINE
  5
139
330
1F
100
AcDbEntity
  8
0
  6
Continuous
 62
     7
370
    30
100
AcDbLine
 10
82.0050533268
 20
35.2797712198
 30
0.0
 11
82.0050533268
 21
50.6297712212
 31
0.0
  0
LINE
  5
13A
330
1F
100
AcDbEntity
  8
0
  6
Continuous
 62
     7
370
    30
100
AcDbLine
 10
82.2050534527
 20
50.6297712212
 30
0.0
 11
82.2050534527
 21
35.47977088
 31
0.0
  0
LINE
  5
13B
330
1F
100
AcDbEntity
  8
0
  6
Continuous
 62
     7
370
    30
100
AcDbLine
 10
82.2050534527
 20
65.7797715625
 30
0.0
 11
82.2050534527
 21
50.6297712212
 31
0.0
  0
LINE
  5
13C
330
1F
100
AcDbEntity
  8
0
  6
Continuous
 62
     7
370
    30
100
AcDbLine
 10
79.5050536155
 20
35.47977088
 30
0.0
 11
79.5050536155
 21
65.7797715625
 31
0.0
  0
LINE
  5
13D
330
1F
100
AcDbEntity
  8
0
  6
Continuous
 62
     7
370
    30
100
AcDbLine
 10
79.7050532757
 20
65.9797712227
 30
0.0
 11
79.7050532757
 21
35.2797712198
 31
0.0
  0
LINE
  5
13E
330
1F
100
AcDbEntity
  8
0
  6
Continuous
 62
     7
370
    30
100
AcDbLine
 10
83.8050534268
 20
50.6297712212
 30
0.0
 11
83.8050534268
 21
65.7297716474
 31
0.0
  0
LINE
  5
13F
330
1F
100
AcDbEntity
  8
0
  6
Continuous
 62
     7
370
    30
100
AcDbLine
 10
83.8050534268
 20
35.5297707951
 30
0.0
 11
83.8050534268
 21
50.6297712212
 31
0.0
  0
LINE
  5
140
330
1F
100
AcDbEntity
  8
0
  6
Continuous
 62
     7
370
    30
100
AcDbLine
 10
84.0050534218
 20
50.6297712212
 30
0.0
 11
84.0050534218
 21
35.7297713866
 31
0.0
  0
LINE
  5
141
330
1F
100
AcDbEntity
  8
0
  6
Continuous
 62
     7
370
    30
100
AcDbLine
 10
84.0050534218
 20
65.5297710558
 30
0.0
 11
84.0050534218
 21
50.6297712212
 31
0.0
  0
LINE
  5
142
330
1F
100
AcDbEntity
  8
0
  6
Continuous
 62
     7
370
    30
100
AcDbLine
 10
76.5050535894
 20
38.129771035
 30
0.0
 11
76.5050535894
 21
63.1297714075
 31
0.0
  0
LINE
  5
143
330
1F
100
AcDbEntity
  8
0
  6
Continuous
 62
     7
370
    30
100
AcDbLine
 10
76.7050532497
 20
63.3297710678
 30
0.0
 11
76.7050532497
 21
37.9297713747
 31
0.0
  0
LINE
  5
144
330
1F
100
AcDbEntity
  8
0
  6
Continuous
 62
     7
370
    30
100
AcDbLine
 10
79.0050535335
 20
50.6297712212
 30
0.0
 11
79.0050535335
 21
63.3297710678
 31
0.0
  0
LINE
  5
145
330
1F
100
AcDbEntity
  8
0
  6
Continuous
 62
     7
370
    30
100
AcDbLine
 10
79.0050535335
 20
37.9297713747
 30
0.0
 11
79.0050535335
 21
50.6297712212
 31
0.0
  0
LINE
  5
146
330
1F
100
AcDbEntity
  8
0
  6
HIDDEN
 62
     7
370
    15
100
AcDbLine
 10
81.4550533297
 20
50.6297712212
 30
0.0
 11
81.4550533297
 21
64.2797713166
 31
0.0
  0
LINE
  5
147
330
1F
100
AcDbEntity
  8
0
  6
HIDDEN
 62
     7
370
    15
100
AcDbLine
 10
81.4550533297
 20
36.9797711259
 30
0.0
 11
81.4550533297
 21
50.6297712212
 31
0.0
  0
LINE
  5
148
330
1F
100
AcDbEntity
  8
0
  6
HIDDEN
 62
     7
370
    15
100
AcDbLine
 10
80.7050534396
 20
50.6297712212
 30
0.0
 11
80.7050534396
 21
64.2797713166
 31
0.0
  0
LINE
  5
149
330
1F
100
AcDbEntity
  8
0
  6
HIDDEN
 62
     7
370
    15
100
AcDbLine
 10
80.7050534396
 20
36.9797711259
 30
0.0
 11
80.7050534396
 21
50.6297712212
 31
0.0
  0
LINE
  5
14A
330
1F
100
AcDbEntity
  8
0
  6
HIDDEN
 62
     7
370
    15
100
AcDbLine
 10
80.5050533137
 20
50.6297712212
 30
0.0
 11
80.5050533137
 21
39.1297711989
 31
0.0
  0
LINE
  5
14B
330
1F
100
AcDbEntity
  8
0
  6
HIDDEN
 62
     7
370
    15
100
AcDbLine
 10
80.5050533137
 20
62.1297712436
 30
0.0
 11
80.5050533137
 21
50.6297712212
 31
0.0
  0
LINE
  5
14C
330
1F
100
AcDbEntity
  8
0
  6
HIDDEN
 62
     7
370
    15
100
AcDbLine
 10
80.7050534396
 20
36.9797711259
 30
0.0
 11
81.4550533297
 21
36.9797711259
 31
0.0
  0
LINE
  5
14D
330
1F
100
AcDbEntity
  8
0
  6
HIDDEN
 62
     7
370
    15
100
AcDbLine
 10
81.4550533297
 20
64.2797713166
 30
0.0
 11
80.7050534396
 21
64.2797713166
 31
0.0
  0
LINE
  5
14E
330
1F
100
AcDbEntity
  8
0
  6
HIDDEN
 62
     7
370
    15
100
AcDbLine
 10
84.0050534218
 20
63.6567714622
 30
0.0
 11
83.8050534268
 21
63.4567708707
 31
0.0
  0
LINE
  5
14F
330
1F
100
AcDbEntity
  8
0
  6
HIDDEN
 62
     7
370
    15
100
AcDbLine
 10
83.8050534268
 20
37.8027715718
 30
0.0
 11
84.0050534218
 21
37.6027709803
 31
0.0
  0
LINE
  5
150
330
1F
100
AcDbEntity
  8
0
  6
HIDDEN
 62
     7
370
    15
100
AcDbLine
 10
81.4550533297
 20
37.8027715718
 30
0.0
 11
83.8050534268
 21
37.8027715718
 31
0.0
  0
LINE
  5
151
330
1F
100
AcDbEntity
  8
0
  6
HIDDEN
 62
     7
370
    15
100
AcDbLine
 10
83.8050534268
 20
63.4567708707
 30
0.0
 11
81.4550533297
 21
63.4567708707
 31
0.0
  0
LINE
  5
152
330
1F
100
AcDbEntity
  8
0
  6
HIDDEN
 62
     7
370
    15
100
AcDbLine
 10
76.5050535894
 20
38.9297715386
 30
0.0
 11
76.7050532497
 21
39.1297711989
 31
0.0
  0
LINE
  5
153
330
1F
100
AcDbEntity
  8
0
  6
HIDDEN
 62
     7
370
    15
100
AcDbLine
 10
76.7050532497
 20
62.1297712436
 30
0.0
 11
76.5050535894
 21
62.3297709039
 31
0.0
  0
LINE
  5
154
330
1F
100
AcDbEntity
  8
0
  6
HIDDEN
 62
     7
370
    15
100
AcDbLine
 10
80.7050534396
 20
62.3297709039
 30
0.0
 11
80.5050533137
 21
62.1297712436
 31
0.0
  0
LINE
  5
155
330
1F
100
AcDbEntity
  8
0
  6
HIDDEN
 62
     7
370
    15
100
AcDbLine
 10
80.5050533137
 20
39.1297711989
 30
0.0
 11
80.7050534396
 21
38.9297715386
 31
0.0
  0
LINE
  5
156
330
1F
100
AcDbEntity
  8
0
  6
HIDDEN
 62
     7
370
    15
100
AcDbLine
 10
76.7050532497
 20
39.1297711989
 30
0.0
 11
80.5050533137
 21
39.1297711989
 31
0.0
  0
LINE
  5
157
330
1F
100
AcDbEntity
  8
0
  6
HIDDEN
 62
     7
370
    15
100
AcDbLine
 10
80.5050533137
 20
62.1297712436
 30
0.0
 11
76.7050532497
 21
62.1297712436
 31
0.0
  0
DIMENSION
  5
158
330
1F
100
AcDbEntity
  8
DIM
100
AcDbDimension
  2
_D_1
 10
84.0050534218
 20
71.9797712212
 30
0.0
 11
80.2550534218
 21
71.9797712212
 31
0.0
 70
   160
  1
<>
 71
     2
 42
-1.0
  3
SLDDIMSTYLE1
100
AcDbAlignedDimension
 13
76.5050534218
 23
63.1297712212
 33
0.0
 14
84.0050534218
 24
65.5297712212
 34
0.0
100
AcDbRotatedDimension
  0
DIMENSION
  5
163
330
1F
100
AcDbEntity
  8
DIM
100
AcDbDimension
  2
_D_2
 10
79.5050534218
 20
69.4797712212
 30
0.0
 11
78.0050534218
 21
69.4797712212
 31
0.0
 70
   160
  1
<>
 71
     2
 42
-1.0
  3
SLDDIMSTYLE2
100
AcDbAlignedDimension
 13
76.5050534218
 23
63.1297712212
 33
0.0
 14
79.5050534218
 24
65.7797712212
 34
0.0
100
AcDbRotatedDimension
  0
DIMENSION
  5
170
330
1F
100
AcDbEntity
  8
DIM
100
AcDbDimension
  2
_D_3
 10
73.0050534218
 20
37.9297712212
 30
0.0
 11
73.0050534218
 21
50.6297712212
 31
0.0
 70
   160
  1
1-32 C-Mount
 71
     2
 42
-1.0
  3
SLDDIMSTYLE1
100
AcDbAlignedDimension
 13
76.7050534218
 23
63.3297712212
 33
0.0
 14
76.7050534218
 24
37.9297712212
 34
0.0
 50
90.0
100
AcDbRotatedDimension
  0
DIMENSION
  5
17A
330
1F
100
AcDbEntity
  8
DIM
100
AcDbDimension
  2
_D_4
 10
84.0050534218
 20
31.7797712212
 30
0.0
 11
82.3550534218
 21
31.7797712212
 31
0.0
 70
   160
  1
<>
 71
     2
 42
-1.0
  3
SLDDIMSTYLE1
100
AcDbAlignedDimension
 13
80.7050534218
 23
36.9797712212
 33
0.0
 14
84.0050534218
 24
35.7297712212
 34
0.0
100
AcDbRotatedDimension
  0
DIMENSION
  5
184
330
1F
100
AcDbEntity
  8
DIM
100
AcDbDimension
  2
_D_5
 10
87.5050534218
 20
37.8027712212
 30
0.0
 11
87.5050534218
 21
50.6297712212
 31
0.0
 70
   160
  1
1.035-40
 71
     2
 42
-1.0
  3
SLDDIMSTYLE1
100
AcDbAlignedDimension
 13
83.8050534218
 23
63.4567712212
 33
0.0
 14
83.8050534218
 24
37.8027712212
 34
0.0
 50
90.0
100
AcDbRotatedDimension
  0
DIMENSION
  5
18E
330
1F
100
AcDbEntity
  8
DIM
100
AcDbDimension
  2
_D_6
 10
90.0050534218
 20
35.2797712212
 30
0.0
 11
90.0050534218
 21
50.6297712212
 31
0.0
 70
   160
  1
%%c<>
 71
     2
 42
-1.0
  3
SLDDIMSTYLE1
100
AcDbAlignedDimension
 13
82.0050534218
 23
65.9797712212
 33
0.0
 14
82.0050534218
 24
35.2797712212
 34
0.0
 50
90.0
100
AcDbRotatedDimension
  0
LINE
  5
199
330
1F
100
AcDbEntity
  8
0
  6
Continuous
 62
     7
370
    30
100
AcDbLine
 10
109.3085483879
 20
78.5730569087
 30
0.0
 11
109.3085483879
 21
78.5416070217
 31
0.0
  0
LINE
  5
19A
330
1F
100
AcDbEntity
  8
0
  6
Continuous
 62
     7
370
    30
100
AcDbLine
 10
120.133638459
 20
59.7899692431
 30
0.0
 11
120.1608733844
 21
59.7742417438
 31
0.0
  0
LINE
  5
19B
330
1F
100
AcDbEntity
  8
0
  6
Continuous
 62
     7
370
    30
100
AcDbLine
 10
127.8370137521
 20
59.0132746129
 30
0.0
 11
129.4633593488
 21
59.9521439415
 31
0.0
  0
LINE
  5
19C
330
1F
100
AcDbEntity
  8
0
  6
Continuous
 62
     7
370
    30
100
AcDbLine
 10
114.1146068029
 20
86.5398440166
 30
0.0
 11
112.4882612061
 21
85.600974688
 31
0.0
  0
LINE
  5
19D
330
1F
100
AcDbEntity
  8
0
  6
Continuous
 62
     7
370
    30
100
AcDbLine
 10
109.0610610145
 20
76.2667039928
 30
0.0
 11
109.0610610145
 21
76.1034223705
 31
0.0
  0
LINE
  5
19E
330
1F
100
AcDbEntity
  8
0
  6
Continuous
 62
     7
370
    30
100
AcDbLine
 10
117.8984592201
 20
60.7949409658
 30
0.0
 11
118.0398575914
 21
60.7132868857
 31
0.0
  0
LINE
  5
19F
330
1F
100
AcDbEntity
  8
0
  6
Continuous
 62
     7
370
    30
100
AcDbLine
 10
124.3908010878
 20
60.0836919305
 30
0.0
 11
126.0171466845
 21
61.0225612591
 31
0.0
  0
LINE
  5
1A0
330
1F
100
AcDbEntity
  8
0
  6
Continuous
 62
     7
370
    30
100
AcDbLine
 10
113.31817878
 20
83.0202023636
 30
0.0
 11
111.6918331833
 21
82.081333035
 31
0.0
  0
LINE
  5
1A1
330
1F
100
AcDbEntity
  8
0
  6
Continuous
 62
     7
370
    30
100
AcDbLine
 10
132.643072167
 20
66.9800617208
 30
0.0
 11
132.643072167
 21
67.1433433432
 31
0.0
  0
LINE
  5
1A2
330
1F
100
AcDbEntity
  8
0
  6
Continuous
 62
     7
370
    30
100
AcDbLine
 10
121.9321455419
 20
85.6972228057
 30
0.0
 11
121.7907471706
 21
85.7788768858
 31
0.0
  0
LINE
  5
1A3
330
1F
100
AcDbEntity
  8
0
  6
Continuous
 62
     7
370
    30
100
AcDbLine
 10
133.7390876779
 20
67.8168800355
 30
0.0
 11
133.7390876779
 21
67.9801616578
 31
0.0
  0
LINE
  5
1A4
330
1F
100
AcDbEntity
  8
0
  6
Continuous
 62
     7
370
    30
100
AcDbLine
 10
123.2049090168
 20
86.2278714922
 30
0.0
 11
123.0635106455
 21
86.3095255723
 31
0.0
  0
LWPOLYLINE
  5
1A5
330
1F
100
AcDbEntity
  8
0
  6
Continuous
 62
     7
370
    30
100
AcDbPolyline
 90
       82
 70
   128
 43
0.0
 10
120.1362934446
 20
59.7891715838
 10
120.1784760735
 20
59.7654392861
 10
120.8068382122
 20
59.4346707991
 10
121.4324921488
 20
59.1479948944
 10
122.0532811246
 20
58.9063998033
 10
122.6670651513
 20
58.710718354
 10
123.2717283883
 20
58.5616251011
 10
123.8651864362
 20
58.4596339999
 10
124.4453935221
 20
58.4050966348
 10
125.010349552
 20
58.3982010075
 10
125.5581070053
 20
58.4389708886
 10
126.0867776488
 20
58.5272657358
 10
126.5945390452
 20
58.6627811786
 10
127.0796408357
 20
58.8450500672
 10
127.5404107739
 20
59.0734440828
 10
127.9752604906
 20
59.3471759042
 10
128.3826909685
 20
59.6653019208
 10
128.7612977104
 20
60.0267254865
 10
129.1097755805
 20
60.4302006994
 10
129.4269233034
 20
60.8743366967
 10
129.7116476051
 20
61.3576024498
 10
129.962966982
 20
61.8783320415
 10
130.1800150842
 20
62.4347304089
 10
130.3620437018
 20
63.0248795317
 10
130.5084253445
 20
63.6467450435
 10
130.6186554045
 20
64.2981832451
 10
130.6923538959
 20
64.9769484942
 10
130.7292667648
 20
65.6807009461
 10
130.7292667648
 20
66.4070146206
 10
130.6923538959
 20
67.1533857638
 10
130.6186554045
 20
67.9172414798
 10
130.5084253445
 20
68.6959485997
 10
130.3620437018
 20
69.4868227588
 10
130.1800150842
 20
70.2871376499
 10
129.962966982
 20
71.0941344219
 10
129.7116476051
 20
71.9050311898
 10
129.4269233034
 20
72.7170326243
 10
129.1097755805
 20
73.5273395883
 10
128.7612977104
 20
74.3331587859
 10
128.3826909685
 20
75.1317123913
 10
127.9752604906
 20
75.9202476248
 10
127.5404107739
 20
76.6960462421
 10
127.0796408357
 20
77.4564339047
 10
126.5945390452
 20
78.1987893988
 10
126.0867776488
 20
78.9205536711
 10
125.5581070053
 20
79.6192386508
 10
125.010349552
 20
80.292435826
 10
124.4453935221
 20
80.9378245465
 10
123.8651864362
 20
81.5531800237
 10
123.2717283883
 20
82.1363809998
 10
122.6670651513
 20
82.6854170603
 10
122.0532811246
 20
83.1983955641
 10
121.4324921488
 20
83.673548168
 10
120.8068382122
 20
84.1092369225
 10
120.1784760735
 20
84.5039599183
 10
119.5495718272
 20
84.8563564634
 10
118.9222934364
 20
85.165211774
 10
118.2988032599
 20
85.4294611618
 10
117.6812505972
 20
85.6481937043
 10
117.0717642805
 20
85.8206553854
 10
116.4724453354
 20
85.9462516936
 10
115.8853597382
 20
86.0245496727
 10
115.3125312949
 20
86.0552794132
 10
114.7559346636
 20
86.0383349834
 10
114.2174885482
 20
85.9737747942
 10
113.6990490841
 20
85.861821398
 10
113.2024034395
 20
85.7028607212
 10
112.7292636548
 20
85.4974407344
 10
112.2812607409
 20
85.2462695627
 10
111.8599390566
 20
84.9502130452
 10
111.4667509851
 20
84.6102917501
 10
111.103051927
 20
84.2276774564
 10
110.7700956284
 20
83.8036891149
 10
110.4690298587
 20
83.3397883013
 10
110.2008924538
 20
82.8375741778
 10
109.9666077391
 20
82.2987779805
 10
109.7669833423
 20
81.7252570514
 10
109.6027074102
 20
81.1189884361
 10
109.474346236
 20
80.4820620681
 10
109.3823423072
 20
79.8166735645
 10
109.3270127804
 20
79.1251166572
 10
109.3091853407
 20
78.5443050765
  0
LWPOLYLINE
  5
1A6
330
1F
100
AcDbEntity
  8
0
  6
Continuous
 62
     7
370
    30
100
AcDbPolyline
 90
       83
 70
   128
 43
0.0
 10
109.3085483879
 20
78.5730569087
 10
109.3269117887
 20
79.2912374992
 10
109.3819398554
 20
79.9857860625
 10
109.4734463902
 20
80.6543524663
 10
109.6011217641
 20
81.2946744933
 10
109.764533964
 20
81.9045854967
 10
109.9631300547
 20
82.4820217305
 10
110.19623805
 20
83.0250293334
 10
110.4630691862
 20
83.5317709396
 10
110.7627205912
 20
84.0005318957
 10
111.0941783394
 20
84.4297260633
 10
111.4563208828
 20
84.8179011849
 10
111.8479228457
 20
85.163743799
 10
112.2676591709
 20
85.4660836835
 10
112.7141096036
 20
85.723897816
 10
113.1857634968
 20
85.9363138351
 10
113.6810249232
 20
86.1026129923
 10
114.1982180747
 20
86.2222325837
 10
114.7355929335
 20
86.2947678546
 10
115.2913311931
 20
86.3199733686
 10
115.8635524113
 20
86.2977638382
 10
116.4503203725
 20
86.2282144134
 10
117.0496496396
 20
86.1115604275
 10
117.6595122722
 20
85.9481966006
 10
118.2778446882
 20
85.7386757042
 10
118.9025546463
 20
85.4837066907
 10
119.5315283259
 20
85.1841522945
 10
120.1626374791
 20
84.8410261129
 10
120.7937466323
 20
84.4554891763
 10
121.4227203119
 20
84.0288460196
 10
122.04743027
 20
83.5625402682
 10
122.665762686
 20
83.0581497531
 10
123.2756253186
 20
82.5173811723
 10
123.8749545858
 20
81.9420643154
 10
124.4617225469
 20
81.3341458725
 10
125.0339437651
 20
80.6956828472
 10
125.5896820247
 20
80.0288355964
 10
126.1270568835
 20
79.3358605199
 10
126.644250035
 20
78.6191024262
 10
127.1395114614
 20
77.8809865977
 10
127.6111653546
 20
77.1240105847
 10
128.0576157873
 20
76.3507357544
 10
128.4773521125
 20
75.5637786242
 10
128.8689540754
 20
74.7658020078
 10
129.2310966188
 20
73.9595060055
 10
129.562554367
 20
73.1476188677
 10
129.862205772
 20
72.3328877635
 10
130.1290369082
 20
71.5180694852
 10
130.3621449035
 20
70.7059211197
 10
130.5607409942
 20
69.8991907201
 10
130.7241531941
 20
69.1006080068
 10
130.851828568
 20
68.3128751307
 10
130.9433351028
 20
67.5386575307
 10
130.9983631695
 20
66.780574914
 10
131.0167265703
 20
66.0411923923
 10
130.9983631695
 20
65.3230118018
 10
130.9433351028
 20
64.6284632385
 10
130.851828568
 20
63.9598968347
 10
130.7241531941
 20
63.3195748076
 10
130.5607409942
 20
62.7096638043
 10
130.3621449035
 20
62.1322275705
 10
130.1290369082
 20
61.5892199676
 10
129.862205772
 20
61.0824783614
 10
129.562554367
 20
60.6137174052
 10
129.2310966188
 20
60.1845232377
 10
128.8689540754
 20
59.7963481161
 10
128.4773521125
 20
59.450505502
 10
128.0576157873
 20
59.1481656175
 10
127.6111653546
 20
58.890351485
 10
127.1395114614
 20
58.6779354659
 10
126.644250035
 20
58.5116363087
 10
126.1270568835
 20
58.3920167173
 10
125.5896820247
 20
58.3194814464
 10
125.0339437651
 20
58.2942759324
 10
124.4617225469
 20
58.3164854628
 10
123.8749545858
 20
58.3860348875
 10
123.2756253186
 20
58.5026888735
 10
122.665762686
 20
58.6660527004
 10
122.04743027
 20
58.8755735968
 10
121.4227203119
 20
59.1305426103
 10
120.7937466323
 20
59.4300970064
 10
120.1626374791
 20
59.773223188
 10
120.1608733844
 20
59.7742417438
  0
LWPOLYLINE
  5
1A7
330
1F
100
AcDbEntity
  8
0
  6
Continuous
 62
     7
370
    30
100
AcDbPolyline
 90
       42
 70
   128
 43
0.0
 10
132.643072167
 20
66.9800617208
 10
132.6247087662
 20
67.7194442426
 10
132.5696806996
 20
68.4775268593
 10
132.4781741647
 20
69.2517444593
 10
132.3504987909
 20
70.0394773354
 10
132.187086591
 20
70.8380600487
 10
131.9884905002
 20
71.6447904483
 10
131.7553825049
 20
72.4569388138
 10
131.4885513687
 20
73.2717570921
 10
131.1888999638
 20
74.0864881963
 10
130.8574422155
 20
74.8983753341
 10
130.4952996721
 20
75.7046713364
 10
130.1036977093
 20
76.5026479528
 10
129.6839613841
 20
77.289605083
 10
129.2375109514
 20
78.0628799133
 10
128.7658570581
 20
78.8198559263
 10
128.2705956318
 20
79.5579717548
 10
127.7534024802
 20
80.2747298485
 10
127.2160276214
 20
80.967704925
 10
126.6602893618
 20
81.6345521758
 10
126.0880681436
 20
82.2730152011
 10
125.5013001825
 20
82.880933644
 10
124.9019709153
 20
83.4562505009
 10
124.2921082827
 20
83.9970190817
 10
123.6737758668
 20
84.5014095968
 10
123.0490659086
 20
84.9677153482
 10
122.420092229
 20
85.3943585049
 10
121.7889830758
 20
85.7798954415
 10
121.1578739226
 20
86.1230216231
 10
120.5289002431
 20
86.4225760193
 10
119.9041902849
 20
86.6775450328
 10
119.2858578689
 20
86.8870659292
 10
118.6759952363
 20
87.0504297561
 10
118.0766659692
 20
87.167083742
 10
117.489898008
 20
87.2366331668
 10
116.9176767899
 20
87.2588426972
 10
116.3619385302
 20
87.2336371832
 10
115.8245636714
 20
87.1611019123
 10
115.3073705199
 20
87.0414823209
 10
114.8121090936
 20
86.8751831637
 10
114.3404552003
 20
86.6627671446
 10
114.1146068029
 20
86.5398440166
  0
ARC
  5
1A8
330
1F
100
AcDbEntity
  8
0
  6
Continuous
 62
     7
370
    30
100
AcDbCircle
 10
124.9920458937
 20
66.2084199891
 30
0.0
 40
7.689839660089005
100
AcDbArc
 50
305.5531072145
 51
5.7590731789
  0
LWPOLYLINE
  5
1A9
330
1F
100
AcDbEntity
  8
0
  6
Continuous
 62
     7
370
    30
100
AcDbPolyline
 90
       33
 70
   128
 43
0.0
 10
128.8211600147
 20
67.1453843635
 10
128.8027050033
 20
67.8138129458
 10
128.7474173757
 20
68.500745609
 10
128.6555290275
 20
69.2033011188
 10
128.5274253703
 20
69.9185327132
 10
128.3636437155
 20
70.6434404624
 10
128.1648710201
 20
71.3749838512
 10
127.9319410059
 20
72.1100945326
 10
127.6658306624
 20
72.8456891969
 10
127.3676561489
 20
73.5786825043
 10
127.0386681128
 20
74.3060000263
 10
126.6802464443
 20
75.0245911403
 10
126.2938944885
 20
75.7314418256
 10
125.8812327397
 20
76.4235873047
 10
125.4439920447
 20
77.0981244789
 10
124.984006343
 20
77.7522241048
 10
124.5032049744
 20
78.3831426615
 10
124.0036045869
 20
78.9882338571
 10
123.4873006782
 20
79.5649597289
 10
122.9564588064
 20
80.1109012881
 10
122.4133055067
 20
80.6237686663
 10
121.8601189528
 20
81.1014107192
 10
121.2992194013
 20
81.5418240502
 10
120.73295946
 20
81.9431614127
 10
120.1637142198
 20
82.3037394583
 10
119.593871293
 20
82.6220457974
 10
119.025820799
 20
82.8967453426
 10
118.4619453388
 20
83.1266859086
 10
117.9046100023
 20
83.3109030446
 10
117.3561524473
 20
83.44862408
 10
116.8188730956
 20
83.5392713649
 10
116.2950254835
 20
83.5824646932
 10
116.2513941217
 20
83.5839345137
  0
ARC
  5
1AA
330
1F
100
AcDbEntity
  8
0
  6
Continuous
 62
     7
370
    30
100
AcDbCircle
 10
120.5250840733
 20
66.942306249
 30
0.0
 40
8.298561125039814
100
AcDbArc
 50
333.8177568785
 51
1.4022527925
  0
LWPOLYLINE
  5
1AB
330
1F
100
AcDbEntity
  8
0
  6
Continuous
 62
     7
370
    30
100
AcDbPolyline
 90
       98
 70
   128
 43
0.0
 10
109.0610610145
 20
76.1034223705
 10
109.0795975868
 20
75.4320397044
 10
109.1351295551
 20
74.7420711797
 10
109.2274239988
 20
74.0364107641
 10
109.3560938032
 20
73.3180182426
 10
109.5205992821
 20
72.5899068031
 10
109.7202504426
 20
71.855130398
 10
109.9542098783
 20
71.116770935
 10
110.221496282
 20
70.3779253502
 10
110.5209885615
 20
69.6416926187
 10
110.8514305423
 20
68.9111607566
 10
111.2114362359
 20
68.1893938682
 10
111.5994956531
 20
67.4794192948
 10
112.013981138
 20
66.7842149165
 10
112.4531541945
 20
66.106696662
 10
112.915172778
 20
65.4497062783
 10
113.3980990221
 20
64.8159994115
 10
113.8999073663
 20
64.2082340483
 10
114.4184930519
 20
63.6289593679
 10
114.9516809505
 20
63.0806050496
 10
115.4972346867
 20
62.565471082
 10
116.0528660185
 20
62.085718116
 10
116.6162444349
 20
61.6433584023
 10
117.1850069312
 20
61.2402473512
 10
117.7567679198
 20
60.8780757505
 10
118.3291292364
 20
60.5583626739
 10
118.8996901987
 20
60.282449109
 10
119.4660576757
 20
60.0514923332
 10
120.0258561254
 20
59.8664610596
 10
120.5767375587
 20
59.7281313736
 10
121.1163913872
 20
59.6370834779
 10
121.6425541154
 20
59.5936992591
 10
122.1530188338
 20
59.5981606857
 10
122.6456444761
 20
59.6504490449
 10
123.1183647991
 20
59.7503450211
 10
123.5691970494
 20
59.8974296159
 10
123.99625028
 20
60.0910859054
 10
124.3977332812
 20
60.3305016279
 10
124.7719620938
 20
60.6146725905
 10
125.117367072
 20
60.9424068816
 10
125.4324994674
 20
61.3123298695
 10
125.7160375052
 20
61.7228899687
 10
125.9667919282
 20
62.1723651476
 10
126.1837109854
 20
62.6588701509
 10
126.3658848427
 20
63.1803644077
 10
126.5125493998
 20
63.7346605897
 10
126.6230894945
 20
64.3194337862
 10
126.6970414832
 20
64.9322312552
 10
126.7340951856
 20
65.570482711
 10
126.7340951856
 20
66.2315111054
 10
126.6970414832
 20
66.9125438554
 10
126.6230894945
 20
67.6107244731
 10
126.5125493998
 20
68.3231245464
 10
126.3658848427
 20
69.0467560216
 10
126.1837109854
 20
69.778583737
 10
125.9667919282
 20
70.5155381527
 10
125.7160375052
 20
71.2545282259
 10
125.4324994674
 20
71.9924543754
 10
125.117367072
 20
72.7262214823
 10
124.7719620938
 20
73.4527518726
 10
124.3977332812
 20
74.1689982253
 10
123.99625028
 20
74.8719563541
 10
123.5691970494
 20
75.5586778085
 10
123.1183647991
 20
76.2262822401
 10
122.6456444761
 20
76.8719694837
 10
122.1530188338
 20
77.4930313028
 10
121.6425541154
 20
78.0868627481
 10
121.1163913872
 20
78.6509730844
 10
120.5767375587
 20
79.1829962367
 10
120.0258561254
 20
79.6807007151
 10
119.4660576757
 20
80.1419989741
 10
118.8996901987
 20
80.5649561684
 10
118.3291292364
 20
80.9477982685
 10
117.7567679198
 20
81.2889195017
 10
117.1850069312
 20
81.586889087
 10
116.6162444349
 20
81.8404572363
 10
116.0528660185
 20
82.0485603967
 10
115.4972346867
 20
82.2103257112
 10
114.9516809505
 20
82.32507468
 10
114.4184930519
 20
82.3923260059
 10
113.8999073663
 20
82.4117976135
 10
113.3980990221
 20
82.3834078322
 10
112.915172778
 20
82.3072757385
 10
112.4531541945
 20
82.1837206568
 10
112.013981138
 20
82.0132608202
 10
111.5994956531
 20
81.7966111965
 10
111.2114362359
 20
81.5346804894
 10
110.8514305423
 20
81.2285673273
 10
110.5209885615
 20
80.8795556553
 10
110.221496282
 20
80.4891093496
 10
109.9542098783
 20
80.0588660776
 10
109.7202504426
 20
79.5906304293
 10
109.5205992821
 20
79.0863663475
 10
109.3560938032
 20
78.5481888912
 10
109.2274239988
 20
77.9783553636
 10
109.1351295551
 20
77.3792558446
 10
109.0795975868
 20
76.7534031656
 10
109.0610610145
 20
76.1034223705
  0
LWPOLYLINE
  5
1AC
330
1F
100
AcDbEntity
  8
0
  6
Continuous
 62
     7
370
    30
100
AcDbPolyline
 90
       75
 70
   128
 43
0.0
 10
109.0610610145
 20
76.2667039928
 10
109.0795119138
 20
76.9204650733
 10
109.1347887931
 20
77.5502367543
 10
109.2266645078
 20
78.1534311689
 10
109.3547615209
 20
78.727569662
 10
109.5185534542
 20
79.2702929752
 10
109.7173672517
 20
79.7793709422
 10
109.9503859447
 20
80.2527116522
 10
110.2166520094
 20
80.6883700469
 10
110.5150713016
 20
81.0845559124
 10
110.8444175523
 20
81.439641236
 10
111.203337407
 20
81.752166896
 10
111.5903559873
 20
82.0208486573
 10
112.0038829506
 20
82.244582449
 10
112.442219026
 20
82.422448901
 10
112.9035629965
 20
82.5537171218
 10
113.3860191009
 20
82.6378477023
 10
113.8876048234
 20
82.6744949316
 10
114.4062590408
 20
82.6635082187
 10
114.9398504916
 20
82.6049327101
 10
115.4861865341
 20
82.4990091053
 10
116.0430221563
 20
82.346172667
 10
116.6080692012
 20
82.1470514329
 10
117.1790057694
 20
81.902463635
 10
117.7534857599
 20
81.6134143369
 10
118.3291485112
 20
81.2810913043
 10
118.9036285017
 20
80.9068601236
 10
119.4745650698
 20
80.4922585912
 10
120.0396121148
 20
80.0389903937
 10
120.596447737
 20
79.5489181073
 10
121.1427837795
 20
79.0240555441
 10
121.6763752303
 20
78.466559477
 10
122.1950294477
 20
77.8787207769
 10
122.6966151702
 20
77.2629549992
 10
123.1790712746
 20
76.6217924575
 10
123.6404152451
 20
75.9578678262
 10
124.0787513205
 20
75.273909314
 10
124.4922782838
 20
74.5727274532
 10
124.8792968641
 20
73.8572035504
 10
125.2382167188
 20
73.1302778469
 10
125.5675629695
 20
72.3949374362
 10
125.8659822617
 20
71.6542039899
 10
126.1322483264
 20
70.9111213406
 10
126.3652670194
 20
70.1687429742
 10
126.5640808169
 20
69.4301194828
 10
126.7278727502
 20
68.6982860286
 10
126.8559697633
 20
67.9762498723
 10
126.947845478
 20
67.2669780154
 10
127.0031223573
 20
66.573385008
 10
127.0215732566
 20
65.8983209727
 10
127.0031223573
 20
65.2445598922
 10
126.947845478
 20
64.6147882112
 10
126.8559697633
 20
64.0115937966
 10
126.7278727502
 20
63.4374553035
 10
126.5640808169
 20
62.8947319903
 10
126.3652670194
 20
62.3856540233
 10
126.1322483264
 20
61.9123133133
 10
125.8659822617
 20
61.4766549186
 10
125.5675629695
 20
61.0804690531
 10
125.2382167188
 20
60.7253837295
 10
124.8792968641
 20
60.4128580696
 10
124.4922782838
 20
60.1441763082
 10
124.0787513205
 20
59.9204425165
 10
123.6404152451
 20
59.7425760645
 10
123.1790712746
 20
59.6113078437
 10
122.6966151702
 20
59.5271772633
 10
122.1950294477
 20
59.4905300339
 10
121.6763752303
 20
59.5015167469
 10
121.1427837795
 20
59.5600922554
 10
120.596447737
 20
59.6660158603
 10
120.0396121148
 20
59.8188522985
 10
119.4745650698
 20
60.0179735326
 10
118.9036285017
 20
60.2625613305
 10
118.3291485112
 20
60.5516106286
 10
118.0398575914
 20
60.7132868857
  0
LWPOLYLINE
  5
1AD
330
1F
100
AcDbEntity
  8
0
  6
Continuous
 62
     7
370
    30
100
AcDbPolyline
 90
       38
 70
   128
 43
0.0
 10
128.6479188533
 20
66.8371903013
 10
128.629467954
 20
67.5122543366
 10
128.5741910747
 20
68.205847344
 10
128.48231536
 20
68.9151192009
 10
128.354218347
 20
69.6371553572
 10
128.1904264136
 20
70.3689888114
 10
127.9916126162
 20
71.1076123028
 10
127.7585939231
 20
71.8499906692
 10
127.4923278584
 20
72.5930733185
 10
127.1939085662
 20
73.3338067648
 10
126.8645623156
 20
74.0691471755
 10
126.5056424608
 20
74.796072879
 10
126.1186238806
 20
75.5115967818
 10
125.7050969172
 20
76.2127786426
 10
125.2667608418
 20
76.8967371548
 10
124.8054168713
 20
77.5606617861
 10
124.322960767
 20
78.2018243278
 10
123.8213750444
 20
78.8175901055
 10
123.3027208271
 20
79.4054288056
 10
122.7691293762
 20
79.9629248727
 10
122.2227933337
 20
80.4877874359
 10
121.6659577115
 20
80.9778597223
 10
121.1009106666
 20
81.4311279198
 10
120.5299740984
 20
81.8457294522
 10
119.955494108
 20
82.2199606329
 10
119.3798313566
 20
82.5522836655
 10
118.8053513661
 20
82.8413329636
 10
118.234414798
 20
83.0859207615
 10
117.669367753
 20
83.2850419956
 10
117.1125321308
 20
83.4378784338
 10
116.5661960883
 20
83.5438020387
 10
116.0326046375
 20
83.6023775473
 10
115.5139504201
 20
83.6133642602
 10
115.0123646976
 20
83.5767170309
 10
114.5299085932
 20
83.4925864504
 10
114.0685646227
 20
83.3613182296
 10
113.6302285473
 20
83.1834517776
 10
113.31817878
 20
83.0202023636
  0
ARC
  5
1AE
330
1F
100
AcDbEntity
  8
0
  6
Continuous
 62
     7
370
    30
100
AcDbCircle
 10
122.3172315975
 20
66.1989998541
 30
0.0
 40
6.362773623061542
100
AcDbArc
 50
305.5556958364
 51
5.756484557
  0
ARC
  5
1AF
330
1F
100
AcDbEntity
  8
0
  6
Continuous
 62
     7
370
    30
100
AcDbCircle
 10
109.4220285048
 20
66.1067030693
 30
0.0
 40
23.24417113643907
100
AcDbArc
 50
2.5561169308
 51
57.4385065365
  0
LWPOLYLINE
  5
1B0
330
1F
100
AcDbEntity
  8
0
  6
Continuous
 62
     7
370
    30
100
AcDbPolyline
 90
       95
 70
   128
 43
0.0
 10
109.6267464394
 20
75.7768591257
 10
109.6452213861
 20
76.4042990293
 10
109.7005637124
 20
77.0076059145
 10
109.7925262462
 20
77.5840852665
 10
109.9206982604
 20
78.1311623885
 10
110.0845073077
 20
78.6463939012
 10
110.2832217771
 20
79.1274786556
 10
110.5159541616
 20
79.5722680105
 10
110.7816650218
 20
79.9787754286
 10
111.0791676286
 20
80.3451853492
 10
111.407133263
 20
80.6698612964
 10
111.764097151
 20
80.9513531888
 10
112.1484650052
 20
81.1884038153
 10
112.5585201454
 20
81.3799544501
 10
112.9924311658
 20
81.5251495817
 10
113.4482601144
 20
81.6233407333
 10
113.9239711486
 20
81.6740893595
 10
114.4174396274
 20
81.6771688045
 10
114.9264616007
 20
81.6325653148
 10
115.4487636529
 20
81.5404781003
 10
115.9820130562
 20
81.4013184451
 10
116.5238281892
 20
81.2157078698
 10
117.0717891742
 20
80.9844753564
 10
117.6234486843
 20
80.7086536453
 10
118.1763428743
 20
80.3894746234
 10
118.7280023844
 20
80.0283638216
 10
119.2759633694
 20
79.6269340483
 10
119.8177785025
 20
79.1869781865
 10
120.3510279057
 20
78.7104611858
 10
120.8733299579
 20
78.1995112868
 10
121.3823519312
 20
77.6564105157
 10
121.87582041
 20
77.0835844925
 10
122.3515314442
 20
76.4835915973
 10
122.8073603928
 20
75.8591115439
 10
123.2412714132
 20
75.2129334119
 10
123.6513265534
 20
74.5479431897
 10
124.0356944076
 20
73.867110885
 10
124.3926582956
 20
73.1734772602
 10
124.72062393
 20
72.4701402514
 10
125.0181265368
 20
71.7602411325
 10
125.283837397
 20
71.0469504852
 10
125.5165697815
 20
70.3334540387
 10
125.715284251
 20
69.6229384415
 10
125.8790932982
 20
68.9185770285
 10
126.0072653124
 20
68.2235156489
 10
126.0992278462
 20
67.5408586155
 10
126.1545701725
 20
66.8736548403
 10
126.1730451192
 20
66.2248842174
 10
126.1545701725
 20
65.5974443139
 10
126.0992278462
 20
64.9941374286
 10
126.0072653124
 20
64.4176580766
 10
125.8790932982
 20
63.8705809547
 10
125.715284251
 20
63.355349442
 10
125.5165697815
 20
62.8742646875
 10
125.283837397
 20
62.4294753326
 10
125.0181265368
 20
62.0229679145
 10
124.72062393
 20
61.656557994
 10
124.3926582956
 20
61.3318820467
 10
124.0356944076
 20
61.0503901543
 10
123.6513265534
 20
60.8133395279
 10
123.2412714132
 20
60.621788893
 10
122.8073603928
 20
60.4765937615
 10
122.3515314442
 20
60.3784026098
 10
121.87582041
 20
60.3276539837
 10
121.3823519312
 20
60.3245745387
 10
120.8733299579
 20
60.3691780284
 10
120.3510279057
 20
60.4612652428
 10
119.8177785025
 20
60.600424898
 10
119.2759633694
 20
60.7860354733
 10
118.7280023844
 20
61.0172679868
 10
118.1763428743
 20
61.2930896978
 10
117.6234486843
 20
61.6122687197
 10
117.0717891742
 20
61.9733795216
 10
116.5238281892
 20
62.3748092948
 10
115.9820130562
 20
62.8147651566
 10
115.4487636529
 20
63.2912821574
 10
114.9264616007
 20
63.8022320564
 10
114.4174396274
 20
64.3453328274
 10
113.9239711486
 20
64.9181588506
 10
113.4482601144
 20
65.5181517459
 10
112.9924311658
 20
66.1426317992
 10
112.5585201454
 20
66.7888099312
 10
112.1484650052
 20
67.4538001535
 10
111.764097151
 20
68.1346324582
 10
111.407133263
 20
68.828266083
 10
111.0791676286
 20
69.5316030918
 10
110.7816650218
 20
70.2415022107
 10
110.5159541616
 20
70.954792858
 10
110.2832217771
 20
71.6682893044
 10
110.0845073077
 20
72.3788049017
 10
109.9206982604
 20
73.0831663147
 10
109.7925262462
 20
73.7782276943
 10
109.7005637124
 20
74.4608847277
 10
109.6452213861
 20
75.1280885028
 10
109.6267464394
 20
75.7768591257
  0
LWPOLYLINE
  5
1B1
330
1F
100
AcDbEntity
  8
0
  6
Continuous
 62
     7
370
    30
100
AcDbPolyline
 90
       41
 70
   128
 43
0.0
 10
133.7390876779
 20
67.8168800355
 10
133.720684224
 20
68.5511087193
 10
133.6655373029
 20
69.3040545403
 10
133.5738370174
 20
70.0731219383
 10
133.4458994774
 20
70.8556597786
 10
133.2821657101
 20
71.6489704912
 10
133.0832001398
 20
72.4503193697
 10
132.8496886419
 20
73.2569439985
 10
132.5824361789
 20
74.0660637754
 10
132.2823640256
 20
74.874889497
 10
131.9505065927
 20
75.6806329734
 10
131.5880078615
 20
76.4805166398
 10
131.1961174404
 20
77.2717831317
 10
130.7761862567
 20
78.0517047895
 10
130.3296619003
 20
78.8175930617
 10
129.858083633
 20
79.5668077727
 10
129.363077083
 20
80.2967662243
 10
128.8463486402
 20
81.0049520984
 10
128.3096795747
 20
81.6889241315
 10
127.754919896
 20
82.3463245305
 10
127.1839819756
 20
82.9748871
 10
126.5988339547
 20
83.5724450545
 10
126.0014929598
 20
84.136938488
 10
125.3940181491
 20
84.6664214747
 10
124.7785036141
 20
85.159068777
 10
124.1570711609
 20
85.6131821377
 10
123.5318629958
 20
86.0271961339
 10
122.9050343411
 20
86.3996835736
 10
122.2787460048
 20
86.7293604155
 10
121.6551569327
 20
87.0150901951
 10
121.0364167654
 20
87.2558879427
 10
120.4246584285
 20
87.4509235786
 10
119.8219907798
 20
87.5995247746
 10
119.2304913393
 20
87.7011792715
 10
118.6521991283
 20
87.7555366453
 10
118.0891076398
 20
87.7624095147
 10
117.5431579668
 20
87.7217741877
 10
117.0162321109
 20
87.6337707426
 10
116.5101464947
 20
87.4987025455
 10
116.0266457002
 20
87.3170352044
 10
115.6245532266
 20
87.1209544133
  0
ARC
  5
1B2
330
1F
100
AcDbEntity
  8
0
  6
Continuous
 62
     7
370
    30
100
AcDbCircle
 10
126.1738693194
 20
67.0617514776
 30
0.0
 40
7.602811844968143
100
AcDbArc
 50
306.7393320189
 51
5.7001453223
  0
LWPOLYLINE
  5
1B3
330
1F
100
AcDbEntity
  8
0
  6
Continuous
 62
     7
370
    30
100
AcDbPolyline
 90
       48
 70
   128
 43
0.0
 10
109.9095891519
 20
75.7768591257
 10
109.9281407567
 20
75.1322181819
 10
109.9837109246
 20
74.4690993597
 10
110.0760461014
 20
73.7905283184
 10
110.2047249831
 20
73.0996012219
 10
110.3691604374
 20
72.3994706122
 10
110.568602183
 20
71.6933310246
 10
110.802140213
 20
70.984404412
 10
111.0687089469
 20
70.2759254441
 10
111.3670920927
 20
69.5711267479
 10
111.6959281966
 20
68.8732241581
 10
112.0537168549
 20
68.1854020442
 10
112.4388255599
 20
67.5107987807
 10
112.849497149
 20
66.8524924277
 10
113.2838578219
 20
66.213486686
 10
113.7399256904
 20
65.5966971922
 10
114.2156198216
 20
65.0049382154
 10
114.7087697321
 20
64.440909816
 10
115.2171252921
 20
63.9071855262
 10
115.7383669917
 20
63.4062006077
 10
116.2701165246
 20
62.9402409395
 10
116.8099476397
 20
62.5114325889
 10
117.3553972114
 20
62.12173211
 10
117.9039764783
 20
61.7729176167
 10
118.4531823991
 20
61.4665806695
 10
119.0005090733
 20
61.2041190137
 10
119.5434591746
 20
60.9867302016
 10
120.0795553463
 20
60.8154061284
 10
120.6063515045
 20
60.6909285067
 10
121.1214439993
 20
60.6138652992
 10
121.6224825816
 20
60.5845681278
 10
122.1071811274
 20
60.6031706686
 10
122.5733280683
 20
60.6695880426
 10
123.0187964828
 20
60.7835172025
 10
123.4415538007
 20
60.9444383156
 10
123.8396710772
 20
61.151617136
 10
124.2113317947
 20
61.404108354
 10
124.5548401504
 20
61.7007599103
 10
124.8686287945
 20
62.0402182517
 10
125.1512659815
 20
62.4209345078
 10
125.4014621026
 20
62.8411715575
 10
125.6180755703
 20
63.2990119557
 10
125.8001180271
 20
63.7923666815
 10
125.946758855
 20
64.3189846706
 10
126.0573289655
 20
64.8764630857
 10
126.1313238526
 20
65.4622582809
 10
126.1684058946
 20
66.0736974069
 10
126.1727404195
 20
66.307052841
  0
LWPOLYLINE
  5
1B4
330
1F
100
AcDbEntity
  8
0
  6
Continuous
 62
     7
370
    30
100
AcDbPolyline
 90
       25
 70
   128
 43
0.0
 10
117.972244284
 20
80.5122679596
 10
117.9039764783
 20
80.5506774964
 10
117.3553972114
 20
80.8352391429
 10
116.8099476397
 20
81.0753013345
 10
116.2701165246
 20
81.2697687226
 10
115.7383669917
 20
81.417753997
 10
115.2171252921
 20
81.5185819348
 10
114.7087697321
 20
81.5717924814
 10
114.2156198216
 20
81.5771428492
 10
113.7399256904
 20
81.5346086256
 10
113.2838578219
 20
81.4443838846
 10
112.849497149
 20
81.306880301
 10
112.4388255599
 20
81.1227252722
 10
112.0537168549
 20
80.8927590552
 10
111.6959281966
 20
80.6180309331
 10
111.3670920927
 20
80.2997944275
 10
111.0687089469
 20
79.9395015784
 10
110.802140213
 20
79.5387963195
 10
110.568602183
 20
79.099506977
 10
110.3691604374
 20
78.6236379274
 10
110.2047249831
 20
78.113360452
 10
110.0760461014
 20
77.57100283
 10
109.9837109246
 20
76.9990397146
 10
109.9281407567
 20
76.4000808426
 10
109.9095891519
 20
75.7768591257
  0
ARC
  5
1B5
330
1F
100
AcDbEntity
  8
0
  6
Continuous
 62
     7
370
    30
100
AcDbCircle
 10
110.9080288633
 20
66.9645528164
 30
0.0
 40
22.85363664523547
100
AcDbArc
 50
2.5470462903
 51
57.447577177
  0
LWPOLYLINE
  5
1B6
330
1F
100
AcDbEntity
  8
0
  6
Continuous
 62
     7
370
    30
100
AcDbPolyline
 90
       41
 70
   128
 43
0.0
 10
124.9752326204
 20
62.1741722557
 10
124.554020218
 20
62.1390575288
 10
124.0608703075
 20
62.1444078966
 10
123.5525147475
 20
62.1976184431
 10
123.0312730479
 20
62.298446381
 10
122.4995235149
 20
62.4464316554
 10
121.9596923999
 20
62.6408990434
 10
121.4142428282
 20
62.8809612351
 10
120.8656635613
 20
63.1655228816
 10
120.3164576405
 20
63.4932855934
 10
119.7691309663
 20
63.8627538645
 10
119.226180865
 20
64.2722418959
 10
118.6900846933
 20
64.7198812876
 10
118.1632885351
 20
65.2036295637
 10
117.6481960403
 20
65.7212794919
 10
117.147157458
 20
66.2704691541
 10
116.6624589122
 20
66.848692724
 10
116.1963119713
 20
67.4533119001
 10
115.7508435568
 20
68.0815679436
 10
115.3280862389
 20
68.7305942663
 10
114.9299689624
 20
69.3974295101
 10
114.5583082449
 20
70.0790310587
 10
114.2147998892
 20
70.7722889204
 10
113.9010112451
 20
71.4740399188
 10
113.6183740581
 20
72.1810821248
 10
113.368177937
 20
72.8901894672
 10
113.1515644693
 20
73.5981264518
 10
112.9695220125
 20
74.3016629244
 10
112.8228811846
 20
74.9975888095
 10
112.7123110741
 20
75.682728757
 10
112.638316187
 20
76.3539566303
 10
112.601234145
 20
77.0082097707
 10
112.601234145
 20
77.6425029711
 10
112.638316187
 20
78.2539420971
 10
112.7123110741
 20
78.8397372922
 10
112.8228811846
 20
79.3972157074
 10
112.9695220125
 20
79.9238336965
 10
113.1515644693
 20
80.4171884223
 10
113.368177937
 20
80.8750288205
 10
113.6183740581
 20
81.2952658702
 10
113.7944074192
 20
81.5420281223
  0
LWPOLYLINE
  5
1B7
330
1F
100
AcDbEntity
  8
0
  6
Continuous
 62
     7
370
    30
100
AcDbPolyline
 90
       34
 70
   128
 43
0.0
 10
125.2382370845
 20
62.556565088
 10
125.080053211
 20
62.6044644937
 10
124.5093556956
 20
62.8055769401
 10
123.9327097618
 20
63.0526106159
 10
123.3524849714
 20
63.344550407
 10
122.7710655925
 20
63.68019667
 10
122.1908408021
 20
64.0581701624
 10
121.6141948683
 20
64.4769177102
 10
121.043497353
 20
64.9347185897
 10
120.4810933745
 20
65.429691599
 10
119.9292939716
 20
65.9598027878
 10
119.3903666062
 20
66.5228738156
 10
118.8665258467
 20
67.1165909026
 10
118.3599242669
 20
67.7385143381
 10
117.8726436016
 20
68.3860885052
 10
117.4066861913
 20
69.0566523829
 10
116.9639667552
 20
69.7474504802
 10
116.5463045222
 20
70.4556441596
 10
116.1554157562
 20
71.1783233014
 10
115.7929067028
 20
71.9125182619
 10
115.4602669897
 20
72.6552120767
 10
115.1588635046
 20
73.4033528575
 10
114.8899347792
 20
74.1538663333
 10
114.6545858993
 20
74.9036684833
 10
114.4537839638
 20
75.6496782097
 10
114.2883541111
 20
76.3888299984
 10
114.1589761279
 20
77.1180865163
 10
114.0661816561
 20
77.8344510918
 10
114.010352008
 20
78.5349800292
 10
113.9917165997
 20
79.2167947049
 10
114.010352008
 20
79.8770933961
 10
114.0661816561
 20
80.513162794
 10
114.1589761279
 20
81.1223891528
 10
114.2570749881
 20
81.5785568376
  0
ARC
  5
1B8
330
1F
100
AcDbEntity
  8
0
  6
Continuous
 62
     7
370
    30
100
AcDbCircle
 10
130.580966104
 20
78.3214977461
 30
0.0
 40
18.00719384591099
100
AcDbArc
 50
182.9041841555
 51
237.0904393116
  0
ARC
  5
1B9
330
1F
100
AcDbEntity
  8
0
  6
Continuous
 62
     7
370
    30
100
AcDbCircle
 10
133.9355645416
 20
80.2580662031
 30
0.0
 40
19.96667135595251
100
AcDbArc
 50
182.756150247
 51
237.2384732206
  0
ENDSEC
  0
SECTION
  2
OBJECTS
  0
DICTIONARY
  5
C
330
0
100
AcDbDictionary
281
     1
  3
ACAD_GROUP
350
D
  3
ACAD_LAYOUT
350
1A
  3
ACAD_MLINESTYLE
350
17
  3
ACAD_PLOTSETTINGS
350
19
  3
ACAD_PLOTSTYLENAME
350
E
  3
ACAD_SCALELIST
350
47
  0
DICTIONARY
  5
D
102
{ACAD_REACTORS
330
C
102
}
330
C
100
AcDbDictionary
281
     1
  0
DICTIONARY
  5
1A
102
{ACAD_REACTORS
330
C
102
}
330
C
100
AcDbDictionary
281
     1
  3
Layout1
350
1E
  3
Layout2
350
26
  3
Model
350
22
  0
DICTIONARY
  5
17
102
{ACAD_REACTORS
330
C
102
}
330
C
100
AcDbDictionary
281
     1
  3
Standard
350
18
  0
DICTIONARY
  5
19
102
{ACAD_REACTORS
330
C
102
}
330
C
100
AcDbDictionary
281
     1
  0
ACDBDICTIONARYWDFLT
  5
E
102
{ACAD_REACTORS
330
C
102
}
330
C
100
AcDbDictionary
281
     1
  3
Normal
350
F
100
AcDbDictionaryWithDefault
340
F
  0
DICTIONARY
  5
47
102
{ACAD_REACTORS
330
C
102
}
330
C
100
AcDbDictionary
281
     1
  3
A0
350
48
  3
A1
350
49
  3
A2
350
4A
  3
A3
350
4B
  3
A4
350
4C
  3
A5
350
4D
  3
A6
350
4E
  3
A7
350
4F
  3
A8
350
50
  3
A9
350
51
  3
B0
350
52
  3
B1
350
53
  3
B2
350
54
  3
B3
350
55
  3
B4
350
56
  3
B5
350
57
  3
B6
350
58
  3
B7
350
59
  3
B8
350
5A
  3
B9
350
5B
  3
C0
350
5C
  3
C1
350
5D
  3
C2
350
5E
  3
C3
350
5F
  3
C4
350
60
  3
C5
350
61
  3
C6
350
62
  3
C7
350
63
  3
C8
350
64
  3
C9
350
65
  3
D0
350
66
  3
D1
350
67
  3
D2
350
68
  0
LAYOUT
  5
1E
102
{ACAD_REACTORS
330
1A
102
}
330
1A
100
AcDbPlotSettings
  1

  2
none_device
  4

  6

 40
0.0
 41
0.0
 42
0.0
 43
0.0
 44
0.0
 45
0.0
 46
0.0
 47
0.0
 48
0.0
 49
0.0
140
0.0
141
0.0
142
1.0
143
1.0
 70
   688
 72
     1
 73
     0
 74
     5
  7

 75
    16
147
1.0
148
0.0
149
0.0
100
AcDbLayout
  1
Layout1
 70
     1
 71
     1
 10
0.0
 20
0.0
 11
420.0
 21
297.0
 12
0.0
 22
0.0
 32
0.0
 14
1.0000000000E+20
 24
1.0000000000E+20
 34
1.0000000000E+20
 15
-1.0000000000E+20
 25
-1.0000000000E+20
 35
-1.0000000000E+20
146
0.0
 13
0.0
 23
0.0
 33
0.0
 16
1.0
 26
0.0
 36
0.0
 17
0.0
 27
1.0
 37
0.0
 76
     0
330
1B
  0
LAYOUT
  5
26
102
{ACAD_REACTORS
330
1A
102
}
330
1A
100
AcDbPlotSettings
  1

  2
none_device
  4

  6

 40
0.0
 41
0.0
 42
0.0
 43
0.0
 44
0.0
 45
0.0
 46
0.0
 47
0.0
 48
0.0
 49
0.0
140
0.0
141
0.0
142
1.0
143
1.0
 70
   688
 72
     1
 73
     0
 74
     5
  7

 75
    16
147
1.0
148
0.0
149
0.0
100
AcDbLayout
  1
Layout2
 70
     1
 71
     2
 10
0.0
 20
0.0
 11
0.0
 21
0.0
 12
0.0
 22
0.0
 32
0.0
 14
0.0
 24
0.0
 34
0.0
 15
0.0
 25
0.0
 35
0.0
146
0.0
 13
0.0
 23
0.0
 33
0.0
 16
1.0
 26
0.0
 36
0.0
 17
0.0
 27
1.0
 37
0.0
 76
     0
330
23
  0
LAYOUT
  5
22
102
{ACAD_REACTORS
330
1A
102
}
330
1A
100
AcDbPlotSettings
  1

  2
none_device
  4
Letter_(8.50_x_11.00_Inches)
  6

 40
6.35
 41
6.35
 42
6.35000508
 43
6.35000508
 44
215.9
 45
279.4
 46
0.0
 47
0.0
 48
0.0
 49
0.0
140
0.0
141
0.0
142
1.0
143
1.0
 70
  1712
 72
     1
 73
     0
 74
     0
  7

 75
     0
147
1.0
148
0.0
149
0.0
100
AcDbLayout
  1
Model
 70
     1
 71
     0
 10
0.0
 20
0.0
 11
148.5
 21
105.0
 12
0.0
 22
0.0
 32
0.0
 14
0.0
 24
0.0
 34
0.0
 15
148.5
 25
105.0
 35
0.0
146
0.0
 13
0.0
 23
0.0
 33
0.0
 16
1.0
 26
0.0
 36
0.0
 17
0.0
 27
1.0
 37
0.0
 76
     0
330
1F
331
29
  0
MLINESTYLE
  5
18
102
{ACAD_REACTORS
330
17
102
}
330
17
100
AcDbMlineStyle
  2
Standard
 70
     0
  3

 62
   256
 51
90.0
 52
90.0
 71
     2
 49
0.5
 62
   256
  6
BYLAYER
 49
-0.5
 62
   256
  6
BYLAYER
  0
ACDBPLACEHOLDER
  5
F
102
{ACAD_REACTORS
330
E
102
}
330
E
  0
SCALE
  5
48
102
{ACAD_REACTORS
330
47
102
}
330
47
100
AcDbScale
 70
     0
300
1:1
140
1.0
141
1.0
290
     1
  0
SCALE
  5
49
102
{ACAD_REACTORS
330
47
102
}
330
47
100
AcDbScale
 70
     0
300
1:2
140
1.0
141
2.0
290
     0
  0
SCALE
  5
4A
102
{ACAD_REACTORS
330
47
102
}
330
47
100
AcDbScale
 70
     0
300
1:4
140
1.0
141
4.0
290
     0
  0
SCALE
  5
4B
102
{ACAD_REACTORS
330
47
102
}
330
47
100
AcDbScale
 70
     0
300
1:5
140
1.0
141
5.0
290
     0
  0
SCALE
  5
4C
102
{ACAD_REACTORS
330
47
102
}
330
47
100
AcDbScale
 70
     0
300
1:8
140
1.0
141
8.0
290
     0
  0
SCALE
  5
4D
102
{ACAD_REACTORS
330
47
102
}
330
47
100
AcDbScale
 70
     0
300
1:10
140
1.0
141
10.0
290
     0
  0
SCALE
  5
4E
102
{ACAD_REACTORS
330
47
102
}
330
47
100
AcDbScale
 70
     0
300
1:16
140
1.0
141
16.0
290
     0
  0
SCALE
  5
4F
102
{ACAD_REACTORS
330
47
102
}
330
47
100
AcDbScale
 70
     0
300
1:20
140
1.0
141
20.0
290
     0
  0
SCALE
  5
50
102
{ACAD_REACTORS
330
47
102
}
330
47
100
AcDbScale
 70
     0
300
1:30
140
1.0
141
30.0
290
     0
  0
SCALE
  5
51
102
{ACAD_REACTORS
330
47
102
}
330
47
100
AcDbScale
 70
     0
300
1:40
140
1.0
141
40.0
290
     0
  0
SCALE
  5
52
102
{ACAD_REACTORS
330
47
102
}
330
47
100
AcDbScale
 70
     0
300
1:50
140
1.0
141
50.0
290
     0
  0
SCALE
  5
53
102
{ACAD_REACTORS
330
47
102
}
330
47
100
AcDbScale
 70
     0
300
1:100
140
1.0
141
100.0
290
     0
  0
SCALE
  5
54
102
{ACAD_REACTORS
330
47
102
}
330
47
100
AcDbScale
 70
     0
300
2:1
140
2.0
141
1.0
290
     0
  0
SCALE
  5
55
102
{ACAD_REACTORS
330
47
102
}
330
47
100
AcDbScale
 70
     0
300
4:1
140
4.0
141
1.0
290
     0
  0
SCALE
  5
56
102
{ACAD_REACTORS
330
47
102
}
330
47
100
AcDbScale
 70
     0
300
8:1
140
8.0
141
1.0
290
     0
  0
SCALE
  5
57
102
{ACAD_REACTORS
330
47
102
}
330
47
100
AcDbScale
 70
     0
300
10:1
140
10.0
141
1.0
290
     0
  0
SCALE
  5
58
102
{ACAD_REACTORS
330
47
102
}
330
47
100
AcDbScale
 70
     0
300
100:1
140
100.0
141
1.0
290
     0
  0
SCALE
  5
59
102
{ACAD_REACTORS
330
47
102
}
330
47
100
AcDbScale
 70
     0
300
1/128" = 1'-0"
140
0.0078125
141
12.0
290
     0
  0
SCALE
  5
5A
102
{ACAD_REACTORS
330
47
102
}
330
47
100
AcDbScale
 70
     0
300
1/64" = 1'-0"
140
0.015625
141
12.0
290
     0
  0
SCALE
  5
5B
102
{ACAD_REACTORS
330
47
102
}
330
47
100
AcDbScale
 70
     0
300
1/32" = 1'-0"
140
0.03125
141
12.0
290
     0
  0
SCALE
  5
5C
102
{ACAD_REACTORS
330
47
102
}
330
47
100
AcDbScale
 70
     0
300
1/16" = 1'-0"
140
0.0625
141
12.0
290
     0
  0
SCALE
  5
5D
102
{ACAD_REACTORS
330
47
102
}
330
47
100
AcDbScale
 70
     0
300
3/32" = 1'-0"
140
0.09375
141
12.0
290
     0
  0
SCALE
  5
5E
102
{ACAD_REACTORS
330
47
102
}
330
47
100
AcDbScale
 70
     0
300
1/8" = 1'-0"
140
0.125
141
12.0
290
     0
  0
SCALE
  5
5F
102
{ACAD_REACTORS
330
47
102
}
330
47
100
AcDbScale
 70
     0
300
3/16" = 1'-0"
140
0.1875
141
12.0
290
     0
  0
SCALE
  5
60
102
{ACAD_REACTORS
330
47
102
}
330
47
100
AcDbScale
 70
     0
300
1/4" = 1'-0"
140
0.25
141
12.0
290
     0
  0
SCALE
  5
61
102
{ACAD_REACTORS
330
47
102
}
330
47
100
AcDbScale
 70
     0
300
3/8" = 1'-0"
140
0.375
141
12.0
290
     0
  0
SCALE
  5
62
102
{ACAD_REACTORS
330
47
102
}
330
47
100
AcDbScale
 70
     0
300
1/2" = 1'-0"
140
0.5
141
12.0
290
     0
  0
SCALE
  5
63
102
{ACAD_REACTORS
330
47
102
}
330
47
100
AcDbScale
 70
     0
300
3/4" = 1'-0"
140
0.75
141
12.0
290
     0
  0
SCALE
  5
64
102
{ACAD_REACTORS
330
47
102
}
330
47
100
AcDbScale
 70
     0
300
1" = 1'-0"
140
1.0
141
12.0
290
     0
  0
SCALE
  5
65
102
{ACAD_REACTORS
330
47
102
}
330
47
100
AcDbScale
 70
     0
300
1-1/2" = 1'-0"
140
1.5
141
12.0
290
     0
  0
SCALE
  5
66
102
{ACAD_REACTORS
330
47
102
}
330
47
100
AcDbScale
 70
     0
300
3" = 1'-0"
140
3.0
141
12.0
290
     0
  0
SCALE
  5
67
102
{ACAD_REACTORS
330
47
102
}
330
47
100
AcDbScale
 70
     0
300
6" = 1'-0"
140
6.0
141
12.0
290
     0
  0
SCALE
  5
68
102
{ACAD_REACTORS
330
47
102
}
330
47
100
AcDbScale
 70
     0
300
1'-0" = 1'-0"
140
12.0
141
12.0
290
     0
  0
ENDSEC
  0
EOF
