  0
SECTION
  2
HEADER
  9
$ACADVER
  1
AC1015
  9
$ACADMAINTVER
 70
     6
  9
$DWGCODEPAGE
  3
ANSI_950
  9
$INSBASE
 10
0.0
 20
0.0
 30
0.0
  9
$EXTMIN
 10
0.0
 20
0.0
 30
0.0
  9
$EXTMAX
 10
297.0
 20
210.0
 30
0.0
  9
$LIMMIN
 10
0.0
 20
0.0
  9
$LIMMAX
 10
297.0
 20
210.0
  9
$ORTHOMODE
 70
     0
  9
$REGENMODE
 70
     1
  9
$FILLMODE
 70
     1
  9
$QTEXTMODE
 70
     0
  9
$MIRRTEXT
 70
     1
  9
$LTSCALE
 40
1.0
  9
$ATTMODE
 70
     1
  9
$TEXTSIZE
 40
3.5277777778
  9
$TRACEWID
 40
1.0
  9
$TEXTSTYLE
  7
Standard
  9
$CLAYER
  8
0
  9
$CELTYPE
  6
ByLayer
  9
$CECOLOR
 62
   256
  9
$CELTSCALE
 40
1.0
  9
$DISPSILH
 70
     0
  9
$DIMSCALE
 40
1.0
  9
$DIMASZ
 40
2.0
  9
$DIMEXO
 40
1.0
  9
$DIMDLI
 40
3.75
  9
$DIMRND
 40
0.0
  9
$DIMDLE
 40
0.0
  9
$DIMEXE
 40
1.0
  9
$DIMTP
 40
0.0
  9
$DIMTM
 40
0.0
  9
$DIMTXT
 40
2.5
  9
$DIMCEN
 40
2.5
  9
$DIMTSZ
 40
0.0
  9
$DIMTOL
 70
     0
  9
$DIMLIM
 70
     0
  9
$DIMTIH
 70
     1
  9
$DIMTOH
 70
     1
  9
$DIMSE1
 70
     0
  9
$DIMSE2
 70
     0
  9
$DIMTAD
 70
     1
  9
$DIMZIN
 70
     0
  9
$DIMBLK
  1

  9
$DIMASO
 70
     1
  9
$DIMSHO
 70
     1
  9
$DIMPOST
  1

  9
$DIMAPOST
  1

  9
$DIMALT
 70
     0
  9
$DIMALTD
 70
     3
  9
$DIMALTF
 40
0.0393700787
  9
$DIMLFAC
 40
1.0
  9
$DIMTOFL
 70
     1
  9
$DIMTVP
 40
0.0
  9
$DIMTIX
 70
     0
  9
$DIMSOXD
 70
     0
  9
$DIMSAH
 70
     0
  9
$DIMBLK1
  1

  9
$DIMBLK2
  1

  9
$DIMSTYLE
  2
ISO-25
  9
$DIMCLRD
 70
     0
  9
$DIMCLRE
 70
     0
  9
$DIMCLRT
 70
     0
  9
$DIMTFAC
 40
1.0
  9
$DIMGAP
 40
1.0
  9
$DIMJUST
 70
     0
  9
$DIMSD1
 70
     0
  9
$DIMSD2
 70
     0
  9
$DIMTOLJ
 70
     0
  9
$DIMTZIN
 70
     0
  9
$DIMALTZ
 70
     0
  9
$DIMALTTZ
 70
     0
  9
$DIMUPT
 70
     0
  9
$DIMDEC
 70
     2
  9
$DIMTDEC
 70
     2
  9
$DIMALTU
 70
     2
  9
$DIMALTTD
 70
     3
  9
$DIMTXSTY
  7
Standard
  9
$DIMAUNIT
 70
     0
  9
$DIMADEC
 70
     1
  9
$DIMALTRND
 40
0.0
  9
$DIMAZIN
 70
     0
  9
$DIMDSEP
 70
    44
  9
$DIMATFIT
 70
     3
  9
$DIMFRAC
 70
     0
  9
$DIMLDRBLK
  1

  9
$DIMLUNIT
 70
     2
  9
$DIMLWD
 70
    -2
  9
$DIMLWE
 70
    -2
  9
$DIMTMOVE
 70
     0
  9
$LUNITS
 70
     2
  9
$LUPREC
 70
     2
  9
$SKETCHINC
 40
1.0
  9
$FILLETRAD
 40
10.0
  9
$AUNITS
 70
     0
  9
$AUPREC
 70
     1
  9
$MENU
  1
.
  9
$ELEVATION
 40
0.0
  9
$PELEVATION
 40
0.0
  9
$THICKNESS
 40
0.0
  9
$LIMCHECK
 70
     0
  9
$CHAMFERA
 40
0.0
  9
$CHAMFERB
 40
0.0
  9
$CHAMFERC
 40
0.0
  9
$CHAMFERD
 40
0.0
  9
$SKPOLY
 70
     0
  9
$TDCREATE
 40
2457493.703744907
  9
$TDUCREATE
 40
2457493.370411574
  9
$TDUPDATE
 40
2457493.703749838
  9
$TDUUPDATE
 40
2457493.370416505
  9
$TDINDWG
 40
0.0000000116
  9
$TDUSRTIMER
 40
0.0000000116
  9
$USRTIMER
 70
     1
  9
$ANGBASE
 50
0.0
  9
$ANGDIR
 70
     0
  9
$PDMODE
 70
     0
  9
$PDSIZE
 40
-1.0
  9
$PLINEWID
 40
0.0
  9
$SPLFRAME
 70
     0
  9
$SPLINETYPE
 70
     6
  9
$SPLINESEGS
 70
     8
  9
$HANDSEED
  5
2B5
  9
$SURFTAB1
 70
     6
  9
$SURFTAB2
 70
     6
  9
$SURFTYPE
 70
     6
  9
$SURFU
 70
     6
  9
$SURFV
 70
     6
  9
$UCSBASE
  2

  9
$UCSNAME
  2

  9
$UCSORG
 10
0.0
 20
0.0
 30
0.0
  9
$UCSXDIR
 10
1.0
 20
0.0
 30
0.0
  9
$UCSYDIR
 10
0.0
 20
1.0
 30
0.0
  9
$UCSORTHOREF
  2

  9
$UCSORTHOVIEW
 70
     0
  9
$UCSORGTOP
 10
0.0
 20
0.0
 30
0.0
  9
$UCSORGBOTTOM
 10
0.0
 20
0.0
 30
0.0
  9
$UCSORGLEFT
 10
0.0
 20
0.0
 30
0.0
  9
$UCSORGRIGHT
 10
0.0
 20
0.0
 30
0.0
  9
$UCSORGFRONT
 10
0.0
 20
0.0
 30
0.0
  9
$UCSORGBACK
 10
0.0
 20
0.0
 30
0.0
  9
$PUCSBASE
  2

  9
$PUCSNAME
  2

  9
$PUCSORG
 10
0.0
 20
0.0
 30
0.0
  9
$PUCSXDIR
 10
1.0
 20
0.0
 30
0.0
  9
$PUCSYDIR
 10
0.0
 20
1.0
 30
0.0
  9
$PUCSORTHOREF
  2

  9
$PUCSORTHOVIEW
 70
     0
  9
$PUCSORGTOP
 10
0.0
 20
0.0
 30
0.0
  9
$PUCSORGBOTTOM
 10
0.0
 20
0.0
 30
0.0
  9
$PUCSORGLEFT
 10
0.0
 20
0.0
 30
0.0
  9
$PUCSORGRIGHT
 10
0.0
 20
0.0
 30
0.0
  9
$PUCSORGFRONT
 10
0.0
 20
0.0
 30
0.0
  9
$PUCSORGBACK
 10
0.0
 20
0.0
 30
0.0
  9
$USERI1
 70
     0
  9
$USERI2
 70
     0
  9
$USERI3
 70
     0
  9
$USERI4
 70
     0
  9
$USERI5
 70
     0
  9
$USERR1
 40
0.0
  9
$USERR2
 40
0.0
  9
$USERR3
 40
0.0
  9
$USERR4
 40
0.0
  9
$USERR5
 40
0.0
  9
$WORLDVIEW
 70
     1
  9
$SHADEDGE
 70
     3
  9
$SHADEDIF
 70
    70
  9
$TILEMODE
 70
     1
  9
$MAXACTVP
 70
    64
  9
$PINSBASE
 10
0.0
 20
0.0
 30
0.0
  9
$PLIMCHECK
 70
     0
  9
$PEXTMIN
 10
1.0000000000E+20
 20
1.0000000000E+20
 30
1.0000000000E+20
  9
$PEXTMAX
 10
-1.0000000000E+20
 20
-1.0000000000E+20
 30
-1.0000000000E+20
  9
$PLIMMIN
 10
0.0
 20
0.0
  9
$PLIMMAX
 10
420.0
 20
297.0
  9
$UNITMODE
 70
     0
  9
$VISRETAIN
 70
     1
  9
$PLINEGEN
 70
     0
  9
$PSLTSCALE
 70
     1
  9
$TREEDEPTH
 70
  3020
  9
$CMLSTYLE
  2
Standard
  9
$CMLJUST
 70
     0
  9
$CMLSCALE
 40
20.0
  9
$PROXYGRAPHICS
 70
     1
  9
$MEASUREMENT
 70
     1
  9
$CELWEIGHT
370
    -1
  9
$ENDCAPS
280
     0
  9
$JOINSTYLE
280
     0
  9
$LWDISPLAY
290
     1
  9
$INSUNITS
 70
     4
  9
$HYPERLINKBASE
  1

  9
$STYLESHEET
  1

  9
$XEDIT
290
     1
  9
$CEPSNTYPE
380
     0
  9
$PSTYLEMODE
290
     1
  9
$FINGERPRINTGUID
  2
{57CD353A-6816-4324-BA08-DCD7D159AAEC}
  9
$VERSIONGUID
  2
{FAEB1C32-E019-11D5-929B-00C0DF256EC4}
  9
$EXTNAMES
290
     1
  9
$PSVPSCALE
 40
0.0
  9
$OLESTARTUP
290
     0
  0
ENDSEC
  0
SECTION
  2
CLASSES
  0
CLASS
  1
ACDBDICTIONARYWDFLT
  2
AcDbDictionaryWithDefault
  3
ObjectDBX Classes
 90
        0
280
     0
281
     0
  0
CLASS
  1
VISUALSTYLE
  2
AcDbVisualStyle
  3
ObjectDBX Classes
 90
     4095
280
     0
281
     0
  0
CLASS
  1
MATERIAL
  2
AcDbMaterial
  3
ObjectDBX Classes
 90
     1153
280
     0
281
     0
  0
CLASS
  1
SCALE
  2
AcDbScale
  3
ObjectDBX Classes
 90
     1153
280
     0
281
     0
  0
CLASS
  1
TABLESTYLE
  2
AcDbTableStyle
  3
ObjectDBX Classes
 90
     4095
280
     0
281
     0
  0
CLASS
  1
MLEADERSTYLE
  2
AcDbMLeaderStyle
  3
ACDB_MLEADERSTYLE_CLASS
 90
     4095
280
     0
281
     0
  0
CLASS
  1
SUN
  2
AcDbSun
  3
SCENEOE
 90
     1153
280
     0
281
     0
  0
CLASS
  1
ACDBPLACEHOLDER
  2
AcDbPlaceHolder
  3
ObjectDBX Classes
 90
        0
280
     0
281
     0
  0
CLASS
  1
LAYOUT
  2
AcDbLayout
  3
ObjectDBX Classes
 90
        0
280
     0
281
     0
  0
ENDSEC
  0
SECTION
  2
TABLES
  0
TABLE
  2
VPORT
  5
8
330
0
100
AcDbSymbolTable
 70
     1
  0
VPORT
  5
29
330
8
100
AcDbSymbolTableRecord
100
AcDbViewportTableRecord
  2
*Active
 70
     0
 10
0.0
 20
0.0
 11
1.0
 21
1.0
 12
148.5
 22
105.0
 13
0.0
 23
0.0
 14
10.0
 24
10.0
 15
10.0
 25
10.0
 16
0.0
 26
0.0
 36
1.0
 17
0.0
 27
0.0
 37
0.0
 40
210.0
 41
1.4142857143
 42
50.0
 43
0.0
 44
0.0
 50
0.0
 51
0.0
 71
     0
 72
  2000
 73
     1
 74
     3
 75
     0
 76
     0
 77
     0
 78
     0
281
     0
 65
     1
110
0.0
120
0.0
130
0.0
111
1.0
121
0.0
131
0.0
112
0.0
122
1.0
132
0.0
 79
     0
146
0.0
  0
ENDTAB
  0
TABLE
  2
LTYPE
  5
5
330
0
100
AcDbSymbolTable
 70
     6
  0
LTYPE
  5
14
330
5
100
AcDbSymbolTableRecord
100
AcDbLinetypeTableRecord
  2
ByBlock
 70
     0
  3

 72
    65
 73
     0
 40
0.0
  0
LTYPE
  5
15
330
5
100
AcDbSymbolTableRecord
100
AcDbLinetypeTableRecord
  2
ByLayer
 70
     0
  3

 72
    65
 73
     0
 40
0.0
  0
LTYPE
  5
16
330
5
100
AcDbSymbolTableRecord
100
AcDbLinetypeTableRecord
  2
Continuous
 70
     0
  3
Solid line
 72
    65
 73
     0
 40
0.0
  0
LTYPE
  5
6E
330
5
100
AcDbSymbolTableRecord
100
AcDbLinetypeTableRecord
  2
HIDDEN
 70
     0
  3
Hidden __ __ __ __ __ __ __ __ __ __ __ __ __ __
 72
    65
 73
     2
 40
1.905
 49
1.27
 74
     0
 49
-0.635
 74
     0
  0
LTYPE
  5
6F
330
5
100
AcDbSymbolTableRecord
100
AcDbLinetypeTableRecord
  2
PHANTOM
 70
     0
  3
Phantom ______  __  __  ______  __  __  ______
 72
    65
 73
     6
 40
12.7
 49
6.35
 74
     0
 49
-1.27
 74
     0
 49
1.27
 74
     0
 49
-1.27
 74
     0
 49
1.27
 74
     0
 49
-1.27
 74
     0
  0
LTYPE
  5
70
330
5
100
AcDbSymbolTableRecord
100
AcDbLinetypeTableRecord
  2
CENTER
 70
     0
  3
Center ____ _ ____ _ ____ _ ____ _ ____ _ ____
 72
    65
 73
     4
 40
10.16
 49
6.35
 74
     0
 49
-1.27
 74
     0
 49
1.27
 74
     0
 49
-1.27
 74
     0
  0
LTYPE
  5
71
330
5
100
AcDbSymbolTableRecord
100
AcDbLinetypeTableRecord
  2
CENTERX2
 70
     0
  3
Center (2x) ________  __  ________  __  _____
 72
    65
 73
     4
 40
20.32
 49
12.7
 74
     0
 49
-2.54
 74
     0
 49
2.54
 74
     0
 49
-2.54
 74
     0
  0
LTYPE
  5
72
330
5
100
AcDbSymbolTableRecord
100
AcDbLinetypeTableRecord
  2
DOT2
 70
     0
  3
Dot (.5x) ........................................
 72
    65
 73
     2
 40
0.635
 49
0.0
 74
     0
 49
-0.635
 74
     0
  0
ENDTAB
  0
TABLE
  2
LAYER
  5
2
330
0
100
AcDbSymbolTable
 70
    10
  0
LAYER
  5
10
330
2
100
AcDbSymbolTableRecord
100
AcDbLayerTableRecord
  2
0
 70
     0
 62
     7
  6
Continuous
370
    -3
390
F
  0
LAYER
  5
73
330
2
100
AcDbSymbolTableRecord
100
AcDbLayerTableRecord
  2
SLD-0
 70
     0
 62
   179
  6
Continuous
370
    15
390
F
  0
LAYER
  5
74
330
2
100
AcDbSymbolTableRecord
100
AcDbLayerTableRecord
  2
輪廓線
 70
     0
 62
   219
  6
Continuous
370
    15
390
F
  0
LAYER
  5
75
330
2
100
AcDbSymbolTableRecord
100
AcDbLayerTableRecord
  2
DIM
 70
     0
 62
     7
  6
Continuous
370
    -3
390
F
  0
LAYER
  5
76
330
2
100
AcDbSymbolTableRecord
100
AcDbLayerTableRecord
  2
中心線
 70
     0
 62
     1
  6
CENTERX2
370
    -3
390
F
  0
LAYER
  5
77
330
2
100
AcDbSymbolTableRecord
100
AcDbLayerTableRecord
  2
虛線
 70
     0
 62
     6
  6
HIDDEN
370
    -3
390
F
  0
LAYER
  5
78
330
2
100
AcDbSymbolTableRecord
100
AcDbLayerTableRecord
  2
SECTION
 70
     0
 62
     5
  6
PHANTOM
370
    15
390
F
  0
LAYER
  5
79
330
2
100
AcDbSymbolTableRecord
100
AcDbLayerTableRecord
  2
假想線
 70
     0
 62
     5
  6
PHANTOM
370
    -3
390
F
  0
LAYER
  5
7A
330
2
100
AcDbSymbolTableRecord
100
AcDbLayerTableRecord
  2
工作區域參考線
 70
     0
 62
   179
  6
Continuous
370
    -3
390
F
  0
LAYER
  5
7B
330
2
100
AcDbSymbolTableRecord
100
AcDbLayerTableRecord
  2
圖層_1
 70
     0
 62
   179
  6
Continuous
370
    -3
390
F
  0
ENDTAB
  0
TABLE
  2
STYLE
  5
3
330
0
100
AcDbSymbolTable
 70
     3
  0
STYLE
  5
11
330
3
100
AcDbSymbolTableRecord
100
AcDbTextStyleTableRecord
  2
Standard
 70
     0
 40
0.0
 41
1.0
 50
0.0
 71
     0
 42
3.5277777778
  3
txt
  4

  0
STYLE
  5
CC
330
3
100
AcDbSymbolTableRecord
100
AcDbTextStyleTableRecord
  2
SLDTEXTSTYLE0
 70
     0
 40
0.0
 41
0.605
 50
0.0
 71
     0
 42
3.5277777778
  3
TXT
  4

  0
STYLE
  5
D5
330
3
100
AcDbSymbolTableRecord
100
AcDbTextStyleTableRecord
  2
SLDTEXTSTYLE1
 70
     0
 40
0.0
 41
0.7
 50
0.0
 71
     0
 42
3.5277777778
  3
TXT
  4

  0
ENDTAB
  0
TABLE
  2
VIEW
  5
6
330
0
100
AcDbSymbolTable
 70
     0
  0
ENDTAB
  0
TABLE
  2
UCS
  5
7
330
0
100
AcDbSymbolTable
 70
     0
  0
ENDTAB
  0
TABLE
  2
APPID
  5
9
330
0
100
AcDbSymbolTable
 70
     1
  0
APPID
  5
12
330
9
100
AcDbSymbolTableRecord
100
AcDbRegAppTableRecord
  2
ACAD
 70
     0
  0
ENDTAB
  0
TABLE
  2
DIMSTYLE
  5
A
330
0
100
AcDbSymbolTable
 70
     4
100
AcDbDimStyleTable
  0
DIMSTYLE
105
27
330
A
100
AcDbSymbolTableRecord
100
AcDbDimStyleTableRecord
  2
ISO-25
 70
     0
 41
2.5
 42
0.625
 43
3.75
 44
1.25
 73
     0
 74
     0
 77
     1
 78
     8
140
2.5
141
2.5
143
0.0393700787
147
0.625
171
     3
172
     1
178
     0
271
     2
272
     2
274
     3
278
    44
283
     0
284
     8
340
11
  0
DIMSTYLE
105
130
102
{ACAD_REACTORS
330
12F
330
13A
330
144
330
14E
330
1C3
330
1CD
330
1D7
330
1E1
102
}
330
A
100
AcDbSymbolTableRecord
100
AcDbDimStyleTableRecord
  2
SLDDIMSTYLE0
 70
     0
 41
2.0
 44
0.0
 45
0.000000001
 73
     0
 74
     0
 77
     1
 78
    12
 79
     3
140
2.5
147
0.625
173
     1
178
     0
271
     2
272
     2
276
     2
284
    12
340
CC
  0
DIMSTYLE
105
15E
330
A
100
AcDbSymbolTableRecord
100
AcDbDimStyleTableRecord
  2
SLDDIMSTYLE1
 70
     0
 41
2.0
 44
0.0
 45
0.000000001
146
2.0
147
0.0
173
     1
178
     0
271
     0
272
     0
276
     2
340
11
  0
DIMSTYLE
105
1EC
102
{ACAD_REACTORS
330
1EB
330
1F3
102
}
330
A
100
AcDbSymbolTableRecord
100
AcDbDimStyleTableRecord
  2
SLDDIMSTYLE2
 70
     0
 41
2.0
 44
0.0
 45
0.000000001
 73
     0
 74
     0
 77
     1
 78
    12
 79
     3
140
2.5
141
0.0
147
0.625
173
     1
178
     0
271
     2
272
     2
276
     2
284
    12
340
CC
  0
ENDTAB
  0
TABLE
  2
BLOCK_RECORD
  5
1
330
0
100
AcDbSymbolTable
 70
    15
  0
BLOCK_RECORD
  5
1F
330
1
100
AcDbSymbolTableRecord
100
AcDbBlockTableRecord
  2
*Model_Space
340
22
  0
BLOCK_RECORD
  5
1B
330
1
100
AcDbSymbolTableRecord
100
AcDbBlockTableRecord
  2
*Paper_Space
340
1E
  0
BLOCK_RECORD
  5
23
330
1
100
AcDbSymbolTableRecord
100
AcDbBlockTableRecord
  2
*Paper_Space0
340
26
  0
BLOCK_RECORD
  5
CE
330
1
100
AcDbSymbolTableRecord
100
AcDbBlockTableRecord
  2
SW_NOTE_0
340
0
102
{BLKREFS
331
D4
102
}
  0
BLOCK_RECORD
  5
105
330
1
100
AcDbSymbolTableRecord
100
AcDbBlockTableRecord
  2
SW_NOTE_1
340
0
102
{BLKREFS
331
10A
102
}
  0
BLOCK_RECORD
  5
131
330
1
100
AcDbSymbolTableRecord
100
AcDbBlockTableRecord
  2
_D
340
0
  0
BLOCK_RECORD
  5
13B
330
1
100
AcDbSymbolTableRecord
100
AcDbBlockTableRecord
  2
_D_1
340
0
  0
BLOCK_RECORD
  5
145
330
1
100
AcDbSymbolTableRecord
100
AcDbBlockTableRecord
  2
_D_2
340
0
  0
BLOCK_RECORD
  5
14F
330
1
100
AcDbSymbolTableRecord
100
AcDbBlockTableRecord
  2
_D_3
340
0
  0
BLOCK_RECORD
  5
158
330
1
100
AcDbSymbolTableRecord
100
AcDbBlockTableRecord
  2
SW_NOTE_2
340
0
102
{BLKREFS
331
15D
102
}
  0
BLOCK_RECORD
  5
1C4
330
1
100
AcDbSymbolTableRecord
100
AcDbBlockTableRecord
  2
_D_4
340
0
  0
BLOCK_RECORD
  5
1CE
330
1
100
AcDbSymbolTableRecord
100
AcDbBlockTableRecord
  2
_D_5
340
0
  0
BLOCK_RECORD
  5
1D8
330
1
100
AcDbSymbolTableRecord
100
AcDbBlockTableRecord
  2
_D_6
340
0
  0
BLOCK_RECORD
  5
1E2
330
1
100
AcDbSymbolTableRecord
100
AcDbBlockTableRecord
  2
_D_7
340
0
  0
BLOCK_RECORD
  5
1ED
330
1
100
AcDbSymbolTableRecord
100
AcDbBlockTableRecord
  2
_D_8
340
0
  0
BLOCK_RECORD
  5
1F4
330
1
100
AcDbSymbolTableRecord
100
AcDbBlockTableRecord
  2
_D_9
340
0
  0
BLOCK_RECORD
  5
1FA
330
1
100
AcDbSymbolTableRecord
100
AcDbBlockTableRecord
  2
SW_CENTERMARKSYMBOL_0
340
0
102
{BLKREFS
331
205
102
}
  0
ENDTAB
  0
ENDSEC
  0
SECTION
  2
BLOCKS
  0
BLOCK
  5
20
330
1F
100
AcDbEntity
  8
0
100
AcDbBlockBegin
  2
*Model_Space
 70
     0
 10
0.0
 20
0.0
 30
0.0
  3
*Model_Space
  1

  0
ENDBLK
  5
21
330
1F
100
AcDbEntity
  8
0
100
AcDbBlockEnd
  0
BLOCK
  5
1C
330
1B
100
AcDbEntity
 67
     1
  8
0
100
AcDbBlockBegin
  2
*Paper_Space
 70
     0
 10
0.0
 20
0.0
 30
0.0
  3
*Paper_Space
  1

  0
ENDBLK
  5
1D
330
1B
100
AcDbEntity
 67
     1
  8
0
100
AcDbBlockEnd
  0
BLOCK
  5
24
330
23
100
AcDbEntity
  8
0
100
AcDbBlockBegin
  2
*Paper_Space0
 70
     0
 10
0.0
 20
0.0
 30
0.0
  3
*Paper_Space0
  1

  0
ENDBLK
  5
25
330
23
100
AcDbEntity
  8
0
100
AcDbBlockEnd
  0
BLOCK
  5
CF
330
CE
100
AcDbEntity
  8
0
100
AcDbBlockBegin
  2
SW_NOTE_0
 70
     0
 10
0.0
 20
0.0
 30
0.0
  3
SW_NOTE_0
  1

  0
MTEXT
  5
D1
330
CE
100
AcDbEntity
  8
0
  6
Continuous
 62
     0
370
     0
100
AcDbMText
 10
0.0
 20
3.4106583948
 30
0.0
 40
2.6458333333
 41
0.0
 71
     1
 72
     1
  1
PROPRIETARY AND CONFIDENTIAL
  7
SLDTEXTSTYLE0
 73
     1
 44
1.0
  0
MTEXT
  5
D2
330
CE
100
AcDbEntity
  8
0
  6
Continuous
 62
     0
370
     0
100
AcDbMText
 10
0.0
 20
-0.08198348
 30
0.0
 40
1.8520833333
 41
0.0
 71
     1
 72
     1
  1
THE INFORMATION CONTAINED IN THIS DRAWING IS THE SOLE PROPERTY OF UNICE E-O SERVICES INC. ANY REPRODUCTION IN PART OR AS A WHOLE WITHOUT THE WRITTEN PERMISSION OF UNICE E-O SERVICES INC IS
  7
SLDTEXTSTYLE0
 73
     1
 44
1.0
  0
MTEXT
  5
D3
330
CE
100
AcDbEntity
  8
0
  6
Continuous
 62
     0
370
     0
100
AcDbMText
 10
0.0
 20
-2.5514278946
 30
0.0
 40
1.8520833333
 41
0.0
 71
     1
 72
     1
  1
PROHIBITED.
  7
SLDTEXTSTYLE0
 73
     1
 44
1.0
  0
ENDBLK
  5
D0
330
CE
100
AcDbEntity
  8
0
100
AcDbBlockEnd
  0
BLOCK
  5
106
330
105
100
AcDbEntity
  8
0
100
AcDbBlockBegin
  2
SW_NOTE_1
 70
     0
 10
0.0
 20
0.0
 30
0.0
  3
SW_NOTE_1
  1

  0
MTEXT
  5
108
330
105
100
AcDbEntity
  8
DIM
 62
     0
100
AcDbMText
 10
0.0
 20
2.3874608764
 30
0.0
 40
1.8520833333
 41
0.0
 71
     1
 72
     1
  1
No.5, Andong Rd., Chung Li District,
  7
SLDTEXTSTYLE1
 73
     1
 44
1.0
  0
MTEXT
  5
109
330
105
100
AcDbEntity
  8
DIM
 62
     0
100
AcDbMText
 10
0.0
 20
-0.0819835382
 30
0.0
 40
1.8520833333
 41
0.0
 71
     1
 72
     1
  1
Taoyuan City 32063, Taiwan, R.O.C.
  7
SLDTEXTSTYLE1
 73
     1
 44
1.0
  0
ENDBLK
  5
107
330
105
100
AcDbEntity
  8
0
100
AcDbBlockEnd
  0
BLOCK
  5
132
330
131
100
AcDbEntity
  8
0
100
AcDbBlockBegin
  2
_D
 70
     0
 10
0.0
 20
0.0
 30
0.0
  3
_D
  1

  0
SOLID
  5
134
330
131
100
AcDbEntity
  8
DIM
100
AcDbTrace
 10
138.0788459093
 20
55.7099504651
 30
0.0
 11
136.0788459093
 21
55.9599504651
 31
0.0
 12
136.0788459093
 22
55.4599504651
 32
0.0
 13
136.0788459093
 23
55.4599504651
 33
0.0
  0
SOLID
  5
135
330
131
100
AcDbEntity
  8
DIM
100
AcDbTrace
 10
131.5788459093
 20
55.7099504651
 30
0.0
 11
133.5788459093
 21
55.4599504651
 31
0.0
 12
133.5788459093
 22
55.9599504651
 32
0.0
 13
133.5788459093
 23
55.9599504651
 33
0.0
  0
LINE
  5
136
330
131
100
AcDbEntity
  8
DIM
100
AcDbLine
 10
138.0788459093
 20
74.1533261381
 30
0.0
 11
138.0788459093
 21
54.7099504651
 31
0.0
  0
LINE
  5
137
330
131
100
AcDbEntity
  8
DIM
100
AcDbLine
 10
131.5788459093
 20
62.7099504651
 30
0.0
 11
131.5788459093
 21
54.7099504651
 31
0.0
  0
LINE
  5
138
330
131
100
AcDbEntity
  8
DIM
100
AcDbLine
 10
138.0788459093
 20
55.7099504651
 30
0.0
 11
131.5788459093
 21
55.7099504651
 31
0.0
  0
MTEXT
  5
139
330
131
100
AcDbEntity
  8
DIM
100
AcDbMText
 10
132.4416931574
 20
58.9326196399
 30
0.0
 40
2.5
 41
0.0
 71
     1
 72
     1
  1
6.5
  7
SLDTEXTSTYLE0
 73
     1
 44
1.0
  0
ENDBLK
  5
133
330
131
100
AcDbEntity
  8
0
100
AcDbBlockEnd
  0
BLOCK
  5
13C
330
13B
100
AcDbEntity
  8
0
100
AcDbBlockBegin
  2
_D_1
 70
     0
 10
0.0
 20
0.0
 30
0.0
  3
_D_1
  1

  0
SOLID
  5
13E
330
13B
100
AcDbEntity
  8
DIM
100
AcDbTrace
 10
144.0788459093
 20
48.5006608496
 30
0.0
 11
142.0788459093
 21
48.7506608496
 31
0.0
 12
142.0788459093
 22
48.2506608496
 32
0.0
 13
142.0788459093
 23
48.2506608496
 33
0.0
  0
SOLID
  5
13F
330
13B
100
AcDbEntity
  8
DIM
100
AcDbTrace
 10
131.5788459093
 20
48.5006608496
 30
0.0
 11
133.5788459093
 21
48.2506608496
 31
0.0
 12
133.5788459093
 22
48.7506608496
 32
0.0
 13
133.5788459093
 23
48.7506608496
 33
0.0
  0
LINE
  5
140
330
13B
100
AcDbEntity
  8
DIM
100
AcDbLine
 10
144.0788459093
 20
62.7099504651
 30
0.0
 11
144.0788459093
 21
47.5006608496
 31
0.0
  0
LINE
  5
141
330
13B
100
AcDbEntity
  8
DIM
100
AcDbLine
 10
131.5788459093
 20
62.7099504651
 30
0.0
 11
131.5788459093
 21
47.5006608496
 31
0.0
  0
LINE
  5
142
330
13B
100
AcDbEntity
  8
DIM
100
AcDbLine
 10
144.0788459093
 20
48.5006608496
 30
0.0
 11
131.5788459093
 21
48.5006608496
 31
0.0
  0
MTEXT
  5
143
330
13B
100
AcDbEntity
  8
DIM
100
AcDbMText
 10
134.4868321032
 20
51.7233300244
 30
0.0
 40
2.5
 41
0.0
 71
     1
 72
     1
  1
12.5
  7
SLDTEXTSTYLE0
 73
     1
 44
1.0
  0
ENDBLK
  5
13D
330
13B
100
AcDbEntity
  8
0
100
AcDbBlockEnd
  0
BLOCK
  5
146
330
145
100
AcDbEntity
  8
0
100
AcDbBlockBegin
  2
_D_2
 70
     0
 10
0.0
 20
0.0
 30
0.0
  3
_D_2
  1

  0
SOLID
  5
148
330
145
100
AcDbEntity
  8
DIM
100
AcDbTrace
 10
152.0788459093
 20
128.7099504651
 30
0.0
 11
151.8288459093
 21
126.7099504651
 31
0.0
 12
152.3288459093
 22
126.7099504651
 32
0.0
 13
152.3288459093
 23
126.7099504651
 33
0.0
  0
SOLID
  5
149
330
145
100
AcDbEntity
  8
DIM
100
AcDbTrace
 10
152.0788459093
 20
63.7099504651
 30
0.0
 11
152.3288459093
 21
65.7099504651
 31
0.0
 12
151.8288459093
 22
65.7099504651
 32
0.0
 13
151.8288459093
 23
65.7099504651
 33
0.0
  0
LINE
  5
14A
330
145
100
AcDbEntity
  8
DIM
100
AcDbLine
 10
145.0788459093
 20
128.7099504651
 30
0.0
 11
153.0788459093
 21
128.7099504651
 31
0.0
  0
LINE
  5
14B
330
145
100
AcDbEntity
  8
DIM
100
AcDbLine
 10
145.0788459093
 20
63.7099504651
 30
0.0
 11
153.0788459093
 21
63.7099504651
 31
0.0
  0
LINE
  5
14C
330
145
100
AcDbEntity
  8
DIM
100
AcDbLine
 10
152.0788459093
 20
128.7099504651
 30
0.0
 11
152.0788459093
 21
63.7099504651
 31
0.0
  0
MTEXT
  5
14D
330
145
100
AcDbEntity
  8
DIM
100
AcDbMText
 10
148.8561767345
 20
94.3002282403
 30
0.0
 40
2.5
 41
0.0
 71
     1
 72
     1
  1
65
  7
SLDTEXTSTYLE0
 11
-1.414962237524464E-14
 21
1.0
 31
0.0
 73
     1
 44
1.0
  0
ENDBLK
  5
147
330
145
100
AcDbEntity
  8
0
100
AcDbBlockEnd
  0
BLOCK
  5
150
330
14F
100
AcDbEntity
  8
0
100
AcDbBlockBegin
  2
_D_3
 70
     0
 10
0.0
 20
0.0
 30
0.0
  3
_D_3
  1

  0
SOLID
  5
152
330
14F
100
AcDbEntity
  8
DIM
 62
     7
100
AcDbTrace
 10
131.5788459093
 20
138.9610288211
 30
0.0
 11
133.5788459093
 21
138.7110288211
 31
0.0
 12
133.5788459093
 22
139.2110288211
 32
0.0
 13
133.5788459093
 23
139.2110288211
 33
0.0
  0
SOLID
  5
153
330
14F
100
AcDbEntity
  8
DIM
 62
     7
100
AcDbTrace
 10
139.0788459093
 20
138.9610288211
 30
0.0
 11
137.0788459093
 21
139.2110288211
 31
0.0
 12
137.0788459093
 22
138.7110288211
 32
0.0
 13
137.0788459093
 23
138.7110288211
 33
0.0
  0
LINE
  5
154
330
14F
100
AcDbEntity
  8
DIM
 62
     7
100
AcDbLine
 10
131.5788459093
 20
91.6467857759
 30
0.0
 11
131.5788459093
 21
139.9610288211
 31
0.0
  0
LINE
  5
155
330
14F
100
AcDbEntity
  8
DIM
 62
     7
100
AcDbLine
 10
139.0788459093
 20
129.7099504651
 30
0.0
 11
139.0788459093
 21
139.9610288211
 31
0.0
  0
LINE
  5
156
330
14F
100
AcDbEntity
  8
DIM
 62
     7
100
AcDbLine
 10
131.5788459093
 20
138.9610288211
 30
0.0
 11
139.0788459093
 21
138.9610288211
 31
0.0
  0
MTEXT
  5
157
330
14F
100
AcDbEntity
  8
DIM
 62
     7
100
AcDbMText
 10
132.9416931573
 20
142.1836979959
 30
0.0
 40
2.5
 41
0.0
 71
     1
 72
     1
  1
7.5
  7
SLDTEXTSTYLE0
 73
     1
 44
1.0
  0
ENDBLK
  5
151
330
14F
100
AcDbEntity
  8
0
100
AcDbBlockEnd
  0
BLOCK
  5
159
330
158
100
AcDbEntity
  8
0
100
AcDbBlockBegin
  2
SW_NOTE_2
 70
     0
 10
0.0
 20
0.0
 30
0.0
  3
SW_NOTE_2
  1

  0
MTEXT
  5
15B
330
158
100
AcDbEntity
  8
DIM
 62
     0
100
AcDbMText
 10
0.6210526579
 20
1.2099928566
 30
0.0
 40
2.6458333333
 41
0.0
 71
     1
 72
     1
  1
1 HOLE,
  7
SLDTEXTSTYLE0
 73
     1
 44
1.0
  0
MTEXT
  5
15C
330
158
100
AcDbEntity
  8
DIM
 62
     0
100
AcDbMText
 10
1.6132401579
 20
-2.3177848785
 30
0.0
 40
2.6458333333
 41
0.0
 71
     1
 72
     1
  1
1/4"-20
  7
SLDTEXTSTYLE0
 73
     1
 44
1.0
  0
ENDBLK
  5
15A
330
158
100
AcDbEntity
  8
0
100
AcDbBlockEnd
  0
BLOCK
  5
1C5
330
1C4
100
AcDbEntity
  8
0
100
AcDbBlockBegin
  2
_D_4
 70
     0
 10
0.0
 20
0.0
 30
0.0
  3
_D_4
  1

  0
SOLID
  5
1C7
330
1C4
100
AcDbEntity
  8
DIM
100
AcDbTrace
 10
106.0645264943
 20
134.6428601512
 30
0.0
 11
105.8145264943
 21
132.6428601512
 31
0.0
 12
106.3145264943
 22
132.6428601512
 32
0.0
 13
106.3145264943
 23
132.6428601512
 33
0.0
  0
SOLID
  5
1C8
330
1C4
100
AcDbEntity
  8
DIM
100
AcDbTrace
 10
106.0645264943
 20
63.7099504651
 30
0.0
 11
106.3145264943
 21
65.7099504651
 31
0.0
 12
105.8145264943
 22
65.7099504651
 32
0.0
 13
105.8145264943
 23
65.7099504651
 33
0.0
  0
LINE
  5
1C9
330
1C4
100
AcDbEntity
  8
DIM
100
AcDbLine
 10
90.1094631088
 20
134.6428601512
 30
0.0
 11
107.0645264943
 21
134.6428601512
 31
0.0
  0
LINE
  5
1CA
330
1C4
100
AcDbEntity
  8
DIM
100
AcDbLine
 10
92.1094631088
 20
63.7099504651
 30
0.0
 11
107.0645264943
 21
63.7099504651
 31
0.0
  0
LINE
  5
1CB
330
1C4
100
AcDbEntity
  8
DIM
100
AcDbLine
 10
106.0645264943
 20
134.6428601512
 30
0.0
 11
106.0645264943
 21
63.7099504651
 31
0.0
  0
MTEXT
  5
1CC
330
1C4
100
AcDbEntity
  8
DIM
100
AcDbMText
 10
102.8418573195
 20
97.2666830833
 30
0.0
 40
2.5
 41
0.0
 71
     1
 72
     1
  1
71
  7
SLDTEXTSTYLE0
 11
-7.044195017643634E-15
 21
1.0
 31
0.0
 73
     1
 44
1.0
  0
ENDBLK
  5
1C6
330
1C4
100
AcDbEntity
  8
0
100
AcDbBlockEnd
  0
BLOCK
  5
1CF
330
1CE
100
AcDbEntity
  8
0
100
AcDbBlockBegin
  2
_D_5
 70
     0
 10
0.0
 20
0.0
 30
0.0
  3
_D_5
  1

  0
SOLID
  5
1D1
330
1CE
100
AcDbEntity
  8
DIM
 62
     7
100
AcDbTrace
 10
39.1094631088
 20
146.9046882352
 30
0.0
 11
41.1094631088
 21
146.6546882352
 31
0.0
 12
41.1094631088
 22
147.1546882352
 32
0.0
 13
41.1094631088
 23
147.1546882352
 33
0.0
  0
SOLID
  5
1D2
330
1CE
100
AcDbEntity
  8
DIM
 62
     7
100
AcDbTrace
 10
91.1094631088
 20
146.9046882352
 30
0.0
 11
89.1094631088
 21
147.1546882352
 31
0.0
 12
89.1094631088
 22
146.6546882352
 32
0.0
 13
89.1094631088
 23
146.6546882352
 33
0.0
  0
LINE
  5
1D3
330
1CE
100
AcDbEntity
  8
DIM
 62
     7
100
AcDbLine
 10
39.1094631088
 20
129.7099504651
 30
0.0
 11
39.1094631088
 21
147.9046882352
 31
0.0
  0
LINE
  5
1D4
330
1CE
100
AcDbEntity
  8
DIM
 62
     7
100
AcDbLine
 10
91.1094631088
 20
133.7587452456
 30
0.0
 11
91.1094631088
 21
147.9046882352
 31
0.0
  0
LINE
  5
1D5
330
1CE
100
AcDbEntity
  8
DIM
 62
     7
100
AcDbLine
 10
39.1094631088
 20
146.9046882352
 30
0.0
 11
91.1094631088
 21
146.9046882352
 31
0.0
  0
MTEXT
  5
1D6
330
1CE
100
AcDbEntity
  8
DIM
 62
     7
100
AcDbMText
 10
63.199740884
 20
150.12735741
 30
0.0
 40
2.5
 41
0.0
 71
     1
 72
     1
  1
52
  7
SLDTEXTSTYLE0
 73
     1
 44
1.0
  0
ENDBLK
  5
1D0
330
1CE
100
AcDbEntity
  8
0
100
AcDbBlockEnd
  0
BLOCK
  5
1D9
330
1D8
100
AcDbEntity
  8
0
100
AcDbBlockBegin
  2
_D_6
 70
     0
 10
0.0
 20
0.0
 30
0.0
  3
_D_6
  1

  0
SOLID
  5
1DB
330
1D8
100
AcDbEntity
  8
DIM
 62
     7
100
AcDbTrace
 10
47.1094631088
 20
140.8131491098
 30
0.0
 11
49.1094631088
 21
140.5631491098
 31
0.0
 12
49.1094631088
 22
141.0631491098
 32
0.0
 13
49.1094631088
 23
141.0631491098
 33
0.0
  0
SOLID
  5
1DC
330
1D8
100
AcDbEntity
  8
DIM
 62
     7
100
AcDbTrace
 10
85.1094631088
 20
140.8131491098
 30
0.0
 11
83.1094631088
 21
141.0631491098
 31
0.0
 12
83.1094631088
 22
140.5631491098
 32
0.0
 13
83.1094631088
 23
140.5631491098
 33
0.0
  0
LINE
  5
1DD
330
1D8
100
AcDbEntity
  8
DIM
 62
     7
100
AcDbLine
 10
47.1094631088
 20
129.7099504651
 30
0.0
 11
47.1094631088
 21
141.8131491098
 31
0.0
  0
LINE
  5
1DE
330
1D8
100
AcDbEntity
  8
DIM
 62
     7
100
AcDbLine
 10
85.1094631088
 20
133.7587452456
 30
0.0
 11
85.1094631088
 21
141.8131491098
 31
0.0
  0
LINE
  5
1DF
330
1D8
100
AcDbEntity
  8
DIM
 62
     7
100
AcDbLine
 10
47.1094631088
 20
140.8131491098
 30
0.0
 11
85.1094631088
 21
140.8131491098
 31
0.0
  0
MTEXT
  5
1E0
330
1D8
100
AcDbEntity
  8
DIM
 62
     7
100
AcDbMText
 10
64.199740884
 20
144.0358182846
 30
0.0
 40
2.5
 41
0.0
 71
     1
 72
     1
  1
38
  7
SLDTEXTSTYLE0
 73
     1
 44
1.0
  0
ENDBLK
  5
1DA
330
1D8
100
AcDbEntity
  8
0
100
AcDbBlockEnd
  0
BLOCK
  5
1E3
330
1E2
100
AcDbEntity
  8
0
100
AcDbBlockBegin
  2
_D_7
 70
     0
 10
0.0
 20
0.0
 30
0.0
  3
_D_7
  1

  0
SOLID
  5
1E5
330
1E2
100
AcDbEntity
  8
DIM
 62
     7
100
AcDbTrace
 10
98.2076107658
 20
88.7099504651
 30
0.0
 11
98.4576107658
 21
90.7099504651
 31
0.0
 12
97.9576107658
 22
90.7099504651
 32
0.0
 13
97.9576107658
 23
90.7099504651
 33
0.0
  0
SOLID
  5
1E6
330
1E2
100
AcDbEntity
  8
DIM
 62
     7
100
AcDbTrace
 10
98.2076107658
 20
128.7099504651
 30
0.0
 11
97.9576107658
 21
126.7099504651
 31
0.0
 12
98.4576107658
 22
126.7099504651
 32
0.0
 13
98.4576107658
 23
126.7099504651
 33
0.0
  0
LINE
  5
1E7
330
1E2
100
AcDbEntity
  8
DIM
 62
     7
100
AcDbLine
 10
83.1094631088
 20
88.7099504651
 30
0.0
 11
99.2076107658
 21
88.7099504651
 31
0.0
  0
LINE
  5
1E8
330
1E2
100
AcDbEntity
  8
DIM
 62
     7
100
AcDbLine
 10
48.1094631088
 20
128.7099504651
 30
0.0
 11
99.2076107658
 21
128.7099504651
 31
0.0
  0
LINE
  5
1E9
330
1E2
100
AcDbEntity
  8
DIM
 62
     7
100
AcDbLine
 10
98.2076107658
 20
88.7099504651
 30
0.0
 11
98.2076107658
 21
128.7099504651
 31
0.0
  0
MTEXT
  5
1EA
330
1E2
100
AcDbEntity
  8
DIM
 62
     7
100
AcDbMText
 10
94.984941591
 20
106.8002282403
 30
0.0
 40
2.5
 41
0.0
 71
     1
 72
     1
  1
40
  7
SLDTEXTSTYLE0
 11
6.123233995736766E-17
 21
1.0
 31
0.0
 73
     1
 44
1.0
  0
ENDBLK
  5
1E4
330
1E2
100
AcDbEntity
  8
0
100
AcDbBlockEnd
  0
BLOCK
  5
1EE
330
1ED
100
AcDbEntity
  8
0
100
AcDbBlockBegin
  2
_D_8
 70
     0
 10
0.0
 20
0.0
 30
0.0
  3
_D_8
  1

  0
SOLID
  5
1F0
330
1ED
100
AcDbEntity
  8
DIM
 62
     7
100
AcDbTrace
 10
61.4337566535
 20
86.7278398584
 30
0.0
 11
62.1946977959
 21
88.5942451139
 31
0.0
 12
61.7118613901
 22
88.7241258488
 32
0.0
 13
61.7118613901
 23
88.7241258488
 33
0.0
  0
LINE
  5
1F1
330
1ED
100
AcDbEntity
  8
DIM
 62
     7
100
AcDbLine
 10
61.4337566535
 20
86.7278398584
 30
0.0
 11
66.1094631088
 21
104.1099504651
 31
0.0
  0
MTEXT
  5
1F2
330
1ED
100
AcDbEntity
  8
DIM
 62
     7
100
AcDbMText
 10
59.9335681822
 20
93.3948304353
 30
0.0
 40
2.5
 41
0.0
 71
     1
 72
     1
  1
R18
  7
SLDTEXTSTYLE0
 11
0.2597614697366661
 21
0.9656728114844318
 31
0.0
 73
     1
 44
1.0
  0
ENDBLK
  5
1EF
330
1ED
100
AcDbEntity
  8
0
100
AcDbBlockEnd
  0
BLOCK
  5
1F5
330
1F4
100
AcDbEntity
  8
0
100
AcDbBlockBegin
  2
_D_9
 70
     0
 10
0.0
 20
0.0
 30
0.0
  3
_D_9
  1

  0
SOLID
  5
1F7
330
1F4
100
AcDbEntity
  8
DIM
 62
     7
100
AcDbTrace
 10
74.5480283742
 20
80.1526840045
 30
0.0
 11
74.119374283
 21
82.1221396832
 31
0.0
 12
73.6477745495
 22
81.9560261937
 32
0.0
 13
73.6477745495
 23
81.9560261937
 33
0.0
  0
LINE
  5
1F8
330
1F4
100
AcDbEntity
  8
DIM
 62
     7
100
AcDbLine
 10
74.5480283742
 20
80.1526840045
 30
0.0
 11
66.1094631088
 21
104.1099504651
 31
0.0
  0
MTEXT
  5
1F9
330
1F4
100
AcDbEntity
  8
DIM
 62
     7
100
AcDbMText
 10
71.7786097321
 20
97.6505529914
 30
0.0
 40
2.5
 41
0.0
 71
     1
 72
     1
  1
R25.4
  7
SLDTEXTSTYLE0
 11
0.3322269789514637
 21
-0.9431994669510706
 31
0.0
 73
     1
 44
1.0
  0
ENDBLK
  5
1F6
330
1F4
100
AcDbEntity
  8
0
100
AcDbBlockEnd
  0
BLOCK
  5
1FB
330
1FA
100
AcDbEntity
  8
0
100
AcDbBlockBegin
  2
SW_CENTERMARKSYMBOL_0
 70
     0
 10
0.0
 20
0.0
 30
0.0
  3
SW_CENTERMARKSYMBOL_0
  1

  0
LINE
  5
1FD
330
1FA
100
AcDbEntity
  8
DIM
 62
     0
100
AcDbLine
 10
0.0
 20
0.0
 30
0.0
 11
0.0
 21
1.0
 31
0.0
  0
LINE
  5
1FE
330
1FA
100
AcDbEntity
  8
DIM
 62
     0
100
AcDbLine
 10
0.0
 20
0.0
 30
0.0
 11
-1.0
 21
0.0
 31
0.0
  0
LINE
  5
1FF
330
1FA
100
AcDbEntity
  8
DIM
 62
     0
100
AcDbLine
 10
0.0
 20
0.0
 30
0.0
 11
0.0
 21
-1.0
 31
0.0
  0
LINE
  5
200
330
1FA
100
AcDbEntity
  8
DIM
 62
     0
100
AcDbLine
 10
0.0
 20
0.0
 30
0.0
 11
1.0
 21
0.0
 31
0.0
  0
LINE
  5
201
330
1FA
100
AcDbEntity
  8
DIM
 62
     0
100
AcDbLine
 10
0.0
 20
2.0
 30
0.0
 11
0.0
 21
19.0
 31
0.0
  0
LINE
  5
202
330
1FA
100
AcDbEntity
  8
DIM
 62
     0
100
AcDbLine
 10
-2.0
 20
0.0
 30
0.0
 11
-19.0
 21
0.0
 31
0.0
  0
LINE
  5
203
330
1FA
100
AcDbEntity
  8
DIM
 62
     0
100
AcDbLine
 10
0.0
 20
-2.0
 30
0.0
 11
0.0
 21
-19.0
 31
0.0
  0
LINE
  5
204
330
1FA
100
AcDbEntity
  8
DIM
 62
     0
100
AcDbLine
 10
2.0
 20
0.0
 30
0.0
 11
19.0
 21
0.0
 31
0.0
  0
ENDBLK
  5
1FC
330
1FA
100
AcDbEntity
  8
0
100
AcDbBlockEnd
  0
ENDSEC
  0
SECTION
  2
ENTITIES
  0
HATCH
  5
7C
330
1F
100
AcDbEntity
  8
DIM
 62
     1
100
AcDbHatch
 10
0.0
 20
0.0
 30
0.0
210
0.0
220
0.0
230
1.0
  2
SOLID
 70
     1
 71
     0
 91
        1
 92
        0
 93
       10
 72
     2
 10
195.9181335739884
 20
36.39317862024703
 40
1.518552937418269
 50
316.5603538466151
 51
413.9622470531883
 73
     0
 72
     1
 10
196.8115258996505
 20
35.16523188842609
 11
195.5698445848568
 21
33.96079894601887
 72
     1
 10
195.5698445848568
 20
33.96079894601887
 11
194.584395691874
 21
34.81949588590836
 72
     2
 10
192.5548098488265
 20
36.40840603525001
 40
2.577567488346249
 50
321.9435288426934
 51
402.1815007004193
 73
     1
 72
     2
 10
192.237153558102
 20
35.86758422977183
 40
3.181636704527865
 50
45.55929254159835
 51
125.83255551215
 73
     1
 72
     1
 10
190.3745648009993
 20
38.44703673786606
 11
189.3521569236508
 21
39.33882726498687
 72
     1
 10
189.3521569236508
 20
39.33882726498687
 11
192.5877423720606
 21
42.46574751160097
 72
     1
 10
192.5877423720606
 20
42.46574751160097
 11
193.5182488822447
 21
41.63555529175644
 72
     1
 10
193.5182488822447
 20
41.63555529175644
 11
192.8939975803174
 21
41.02649686091912
 72
     1
 10
192.8939975803174
 20
41.02649686091912
 11
197.0207534386607
 21
37.43732059228515
 97
        0
 75
     0
 76
     1
 98
        1
 10
0.0
 20
0.0
  0
HATCH
  5
7D
330
1F
100
AcDbEntity
  8
DIM
 62
     7
100
AcDbHatch
 10
0.0
 20
0.0
 30
0.0
210
0.0
220
0.0
230
1.0
  2
SOLID
 70
     1
 71
     0
 91
        1
 92
        0
 93
       10
 72
     2
 10
192.1039881191382
 20
36.62178386847388
 40
3.045751395731241
 50
51.07786460466387
 51
110.7887790856593
 73
     0
 72
     2
 10
191.7725909108416
 20
36.23314211922645
 40
2.57054436971128
 50
106.9547474925999
 51
219.8569537219352
 73
     0
 72
     1
 10
189.799320607469
 20
37.88053480662123
 11
188.7841267600665
 21
38.77606670743901
 72
     1
 10
188.7841267600665
 20
38.77606670743901
 11
187.4774985051848
 21
37.51447963093149
 72
     2
 10
188.4681933527003
 20
36.34592298253147
 40
1.531992467805808
 50
130.291064792488
 51
228.5093619070323
 73
     1
 72
     1
 10
187.4532519231594
 20
35.19836260677113
 11
191.4624542333552
 21
31.71375876649628
 72
     1
 10
191.4624542333552
 20
31.71375876649628
 11
190.8314023129401
 21
31.09785837602526
 72
     1
 10
190.8314023129401
 20
31.09785837602526
 11
191.7722027684341
 21
30.28786130591526
 72
     1
 10
191.7722027684341
 20
30.28786130591526
 11
194.9823427415898
 21
33.40490101867766
 72
     1
 10
194.9823427415898
 20
33.40490101867766
 11
194.0175230803727
 21
34.25218780231999
 97
        0
 75
     0
 76
     1
 98
        1
 10
0.0
 20
0.0
  0
LINE
  5
7E
330
1F
100
AcDbEntity
  8
0
  6
Continuous
 62
     7
370
     0
100
AcDbLine
 10
167.8593775185
 20
17.7745192513
 30
0.0
 11
168.8593775185
 21
17.7745192513
 31
0.0
  0
LINE
  5
7F
330
1F
100
AcDbEntity
  8
0
  6
Continuous
 62
     7
370
     0
100
AcDbLine
 10
164.8593775185
 20
17.7745192513
 30
0.0
 11
167.3593775185
 21
17.7745192513
 31
0.0
  0
LINE
  5
80
330
1F
100
AcDbEntity
  8
0
  6
Continuous
 62
     7
370
     0
100
AcDbLine
 10
181.3593775185
 20
15.2745192513
 30
0.0
 11
181.3593775185
 21
20.2745192513
 31
0.0
  0
LINE
  5
81
330
1F
100
AcDbEntity
  8
0
  6
Continuous
 62
     7
370
     0
100
AcDbLine
 10
174.3593775185
 20
16.2745192513
 30
0.0
 11
181.3593775185
 21
15.2745192513
 31
0.0
  0
LINE
  5
82
330
1F
100
AcDbEntity
  8
0
  6
Continuous
 62
     7
370
     0
100
AcDbLine
 10
168.3593775185
 20
16.7745192513
 30
0.0
 11
168.3593775185
 21
14.2745192513
 31
0.0
  0
LINE
  5
83
330
1F
100
AcDbEntity
  8
0
  6
Continuous
 62
     7
370
     0
100
AcDbLine
 10
181.3593775185
 20
20.2745192513
 30
0.0
 11
174.3593775185
 21
19.2745192513
 31
0.0
  0
LINE
  5
84
330
1F
100
AcDbEntity
  8
0
  6
Continuous
 62
     7
370
     0
100
AcDbLine
 10
173.3593775185
 20
17.7745192513
 30
0.0
 11
182.3593775185
 21
17.7745192513
 31
0.0
  0
LINE
  5
85
330
1F
100
AcDbEntity
  8
0
  6
Continuous
 62
     7
370
     0
100
AcDbLine
 10
168.3593775185
 20
18.2745192513
 30
0.0
 11
168.3593775185
 21
17.2745192513
 31
0.0
  0
LINE
  5
86
330
1F
100
AcDbEntity
  8
0
  6
Continuous
 62
     7
370
     0
100
AcDbLine
 10
169.3593775185
 20
17.7745192513
 30
0.0
 11
171.8593775185
 21
17.7745192513
 31
0.0
  0
LINE
  5
87
330
1F
100
AcDbEntity
  8
0
  6
Continuous
 62
     7
370
     0
100
AcDbLine
 10
168.3593775185
 20
21.2745192513
 30
0.0
 11
168.3593775185
 21
18.7745192513
 31
0.0
  0
LINE
  5
88
330
1F
100
AcDbEntity
  8
0
  6
Continuous
 62
     7
370
     0
100
AcDbLine
 10
174.3593775185
 20
19.2745192513
 30
0.0
 11
174.3593775185
 21
16.2745192513
 31
0.0
  0
LINE
  5
89
330
1F
100
AcDbEntity
  8
0
  6
Continuous
 62
     7
370
     0
100
AcDbLine
 10
185.6907965209
 20
13.1152464079
 30
0.0
 11
285.6907965209
 21
13.1152464079
 31
0.0
  0
LINE
  5
8A
330
1F
100
AcDbEntity
  8
0
  6
Continuous
 62
     7
370
     0
100
AcDbLine
 10
185.6907965209
 20
18.1152464079
 30
0.0
 11
235.6907965209
 21
18.1152464079
 31
0.0
  0
LINE
  5
8B
330
1F
100
AcDbEntity
  8
0
  6
Continuous
 62
     7
370
     0
100
AcDbLine
 10
185.6907965209
 20
23.1152464079
 30
0.0
 11
235.6907965209
 21
23.1152464079
 31
0.0
  0
LINE
  5
8C
330
1F
100
AcDbEntity
  8
0
  6
Continuous
 62
     7
370
     0
100
AcDbLine
 10
185.6907965209
 20
28.1152464079
 30
0.0
 11
285.6907965209
 21
28.1152464079
 31
0.0
  0
LINE
  5
8D
330
1F
100
AcDbEntity
  8
0
  6
Continuous
 62
     7
370
     0
100
AcDbLine
 10
235.6907965209
 20
33.1152464079
 30
0.0
 11
285.6907965209
 21
33.1152464079
 31
0.0
  0
LINE
  5
8E
330
1F
100
AcDbEntity
  8
0
  6
Continuous
 62
     7
370
    15
100
AcDbLine
 10
235.6907965209
 20
18.1152464079
 30
0.0
 11
285.6907965209
 21
18.1152464079
 31
0.0
  0
LINE
  5
8F
330
1F
100
AcDbEntity
  8
0
  6
Continuous
 62
     7
370
     0
100
AcDbLine
 10
185.6907965209
 20
43.1152464079
 30
0.0
 11
285.6907965209
 21
43.1152464079
 31
0.0
  0
LINE
  5
90
330
1F
100
AcDbEntity
  8
0
  6
Continuous
 62
     7
370
     0
100
AcDbLine
 10
251.237217675
 20
8.1152464079
 30
0.0
 11
251.237217675
 21
18.1152464079
 31
0.0
  0
LINE
  5
91
330
1F
100
AcDbEntity
  8
0
  6
Continuous
 62
     7
370
     0
100
AcDbLine
 10
235.6907965209
 20
8.1152464079
 30
0.0
 11
235.6907965209
 21
43.1152464079
 31
0.0
  0
LINE
  5
92
330
1F
100
AcDbEntity
  8
0
  6
Continuous
 62
     7
370
     0
100
AcDbLine
 10
251.237217675
 20
28.1152464079
 30
0.0
 11
251.237217675
 21
33.1152464079
 31
0.0
  0
LINE
  5
93
330
1F
100
AcDbEntity
  8
0
  6
Continuous
 62
     7
370
     0
100
AcDbLine
 10
214.4164086353
 20
8.1152464079
 30
0.0
 11
214.4164086353
 21
28.1152464079
 31
0.0
  0
LINE
  5
94
330
1F
100
AcDbEntity
  8
0
  6
Continuous
 62
     7
370
     0
100
AcDbLine
 10
199.7785887506
 20
8.1152464079
 30
0.0
 11
199.7785887506
 21
28.1152464079
 31
0.0
  0
LINE
  5
95
330
1F
100
AcDbEntity
  8
0
  6
Continuous
 62
     7
370
     0
100
AcDbLine
 10
185.6907965209
 20
8.1152464079
 30
0.0
 11
185.6907965209
 21
43.1152464079
 31
0.0
  0
LINE
  5
96
330
1F
100
AcDbEntity
  8
0
  6
Continuous
 62
     7
370
    15
100
AcDbLine
 10
8.6907965209
 20
104.7436369915
 30
0.0
 11
14.6907965209
 21
104.7436369915
 31
0.0
  0
LINE
  5
97
330
1F
100
AcDbEntity
  8
0
  6
Continuous
 62
     7
370
    15
100
AcDbLine
 10
285.6907965209
 20
104.7436369915
 30
0.0
 11
279.6907965209
 21
104.7436369915
 31
0.0
  0
LINE
  5
98
330
1F
100
AcDbEntity
  8
0
  6
Continuous
 62
     7
370
    15
100
AcDbLine
 10
147.1907965209
 20
8.1152464079
 30
0.0
 11
147.1907965209
 21
14.1152464079
 31
0.0
  0
LINE
  5
99
330
1F
100
AcDbEntity
  8
0
  6
Continuous
 62
     7
370
    15
100
AcDbLine
 10
147.1907965209
 20
201.3720275751
 30
0.0
 11
147.1907965209
 21
195.3720275751
 31
0.0
  0
LINE
  5
9A
330
1F
100
AcDbEntity
  8
工作區域參考線
 62
     1
370
     0
100
AcDbLine
 10
190.374564801
 20
38.4470367379
 30
0.0
 11
189.3521569237
 21
39.338827265
 31
0.0
  0
LINE
  5
9B
330
1F
100
AcDbEntity
  8
0
  6
Continuous
 62
     7
370
    15
100
AcDbLine
 10
43.3207965209
 20
201.3720275751
 30
0.0
 11
43.3207965209
 21
202.8720275751
 31
0.0
  0
LINE
  5
9C
330
1F
100
AcDbEntity
  8
0
  6
Continuous
 62
     7
370
    15
100
AcDbLine
 10
77.9507965209
 20
201.3720275751
 30
0.0
 11
77.9507965209
 21
202.8720275751
 31
0.0
  0
LINE
  5
9D
330
1F
100
AcDbEntity
  8
0
  6
Continuous
 62
     7
370
    15
100
AcDbLine
 10
112.5807965209
 20
201.3720275751
 30
0.0
 11
112.5807965209
 21
202.8720275751
 31
0.0
  0
LINE
  5
9E
330
1F
100
AcDbEntity
  8
0
  6
Continuous
 62
     7
370
    15
100
AcDbLine
 10
147.2107965209
 20
201.3720275751
 30
0.0
 11
147.2107965209
 21
202.8720275751
 31
0.0
  0
LINE
  5
9F
330
1F
100
AcDbEntity
  8
0
  6
Continuous
 62
     7
370
    15
100
AcDbLine
 10
181.8407965209
 20
201.3720275751
 30
0.0
 11
181.8407965209
 21
202.8720275751
 31
0.0
  0
LINE
  5
A0
330
1F
100
AcDbEntity
  8
0
  6
Continuous
 62
     7
370
    15
100
AcDbLine
 10
216.4707965209
 20
201.3720275751
 30
0.0
 11
216.4707965209
 21
202.8720275751
 31
0.0
  0
LINE
  5
A1
330
1F
100
AcDbEntity
  8
0
  6
Continuous
 62
     7
370
    15
100
AcDbLine
 10
251.1007965209
 20
201.3720275751
 30
0.0
 11
251.1007965209
 21
202.8720275751
 31
0.0
  0
LINE
  5
A2
330
1F
100
AcDbEntity
  8
0
  6
Continuous
 62
     7
370
    15
100
AcDbLine
 10
43.3157965209
 20
8.1152464079
 30
0.0
 11
43.3157965209
 21
6.6152464079
 31
0.0
  0
LINE
  5
A3
330
1F
100
AcDbEntity
  8
0
  6
Continuous
 62
     7
370
    15
100
AcDbLine
 10
77.9407965209
 20
8.1152464079
 30
0.0
 11
77.9407965209
 21
6.6152464079
 31
0.0
  0
LINE
  5
A4
330
1F
100
AcDbEntity
  8
0
  6
Continuous
 62
     7
370
    15
100
AcDbLine
 10
112.5657965209
 20
8.1152464079
 30
0.0
 11
112.5657965209
 21
6.6152464079
 31
0.0
  0
LINE
  5
A5
330
1F
100
AcDbEntity
  8
0
  6
Continuous
 62
     7
370
    15
100
AcDbLine
 10
147.1907965209
 20
8.1152464079
 30
0.0
 11
147.1907965209
 21
6.6152464079
 31
0.0
  0
LINE
  5
A6
330
1F
100
AcDbEntity
  8
0
  6
Continuous
 62
     7
370
    15
100
AcDbLine
 10
181.8157965209
 20
8.1152464079
 30
0.0
 11
181.8157965209
 21
6.6152464079
 31
0.0
  0
LINE
  5
A7
330
1F
100
AcDbEntity
  8
0
  6
Continuous
 62
     7
370
    15
100
AcDbLine
 10
216.4407965209
 20
8.1152464079
 30
0.0
 11
216.4407965209
 21
6.6152464079
 31
0.0
  0
LINE
  5
A8
330
1F
100
AcDbEntity
  8
0
  6
Continuous
 62
     7
370
     0
100
AcDbLine
 10
285.6907965209
 20
201.3720275751
 30
0.0
 11
8.6907965209
 21
201.3720275751
 31
0.0
  0
LINE
  5
A9
330
1F
100
AcDbEntity
  8
0
  6
Continuous
 62
     7
370
     0
100
AcDbLine
 10
285.6907965209
 20
8.1152464079
 30
0.0
 11
285.6907965209
 21
201.3720275751
 31
0.0
  0
LINE
  5
AA
330
1F
100
AcDbEntity
  8
0
  6
Continuous
 62
     7
370
     0
100
AcDbLine
 10
8.6907965209
 20
201.3720275751
 30
0.0
 11
8.6907965209
 21
8.1152464079
 31
0.0
  0
LINE
  5
AB
330
1F
100
AcDbEntity
  8
0
  6
Continuous
 62
     7
370
     0
100
AcDbLine
 10
8.6907965209
 20
8.1152464079
 30
0.0
 11
285.6907965209
 21
8.1152464079
 31
0.0
  0
LINE
  5
AC
330
1F
100
AcDbEntity
  8
工作區域參考線
 62
     1
370
     0
100
AcDbLine
 10
189.3521569237
 20
39.338827265
 30
0.0
 11
192.5877423721
 21
42.4657475116
 31
0.0
  0
LINE
  5
AD
330
1F
100
AcDbEntity
  8
0
  6
Continuous
 62
     7
370
    15
100
AcDbLine
 10
251.0657965209
 20
8.1152464079
 30
0.0
 11
251.0657965209
 21
6.6152464079
 31
0.0
  0
LINE
  5
AE
330
1F
100
AcDbEntity
  8
0
  6
Continuous
 62
     7
370
    15
100
AcDbLine
 10
8.6907965209
 20
40.3252464079
 30
0.0
 11
7.1907965209
 21
40.3252464079
 31
0.0
  0
LINE
  5
AF
330
1F
100
AcDbEntity
  8
工作區域參考線
 62
     1
370
     0
100
AcDbLine
 10
192.5877423721
 20
42.4657475116
 30
0.0
 11
193.5182488822
 21
41.6355552918
 31
0.0
  0
LINE
  5
B0
330
1F
100
AcDbEntity
  8
0
  6
Continuous
 62
     7
370
    15
100
AcDbLine
 10
8.6907965209
 20
72.5352464079
 30
0.0
 11
7.1907965209
 21
72.5352464079
 31
0.0
  0
LINE
  5
B1
330
1F
100
AcDbEntity
  8
0
  6
Continuous
 62
     7
370
    15
100
AcDbLine
 10
8.6907965209
 20
104.7452464079
 30
0.0
 11
7.1907965209
 21
104.7452464079
 31
0.0
  0
LINE
  5
B2
330
1F
100
AcDbEntity
  8
0
  6
Continuous
 62
     7
370
    15
100
AcDbLine
 10
8.6907965209
 20
136.9552464079
 30
0.0
 11
7.1907965209
 21
136.9552464079
 31
0.0
  0
LINE
  5
B3
330
1F
100
AcDbEntity
  8
0
  6
Continuous
 62
     7
370
    15
100
AcDbLine
 10
8.6907965209
 20
169.1652464079
 30
0.0
 11
7.1907965209
 21
169.1652464079
 31
0.0
  0
LINE
  5
B4
330
1F
100
AcDbEntity
  8
0
  6
Continuous
 62
     7
370
    15
100
AcDbLine
 10
285.6907965209
 20
40.3252464079
 30
0.0
 11
287.1907965209
 21
40.3252464079
 31
0.0
  0
LINE
  5
B5
330
1F
100
AcDbEntity
  8
工作區域參考線
 62
     1
370
     0
100
AcDbLine
 10
193.5182488822
 20
41.6355552918
 30
0.0
 11
192.8939975803
 21
41.0264968609
 31
0.0
  0
LINE
  5
B6
330
1F
100
AcDbEntity
  8
0
  6
Continuous
 62
     7
370
    15
100
AcDbLine
 10
285.6907965209
 20
72.5352464079
 30
0.0
 11
287.1907965209
 21
72.5352464079
 31
0.0
  0
LINE
  5
B7
330
1F
100
AcDbEntity
  8
0
  6
Continuous
 62
     7
370
    15
100
AcDbLine
 10
285.6907965209
 20
104.7452464079
 30
0.0
 11
287.1907965209
 21
104.7452464079
 31
0.0
  0
LINE
  5
B8
330
1F
100
AcDbEntity
  8
0
  6
Continuous
 62
     7
370
    15
100
AcDbLine
 10
285.6907965209
 20
136.9552464079
 30
0.0
 11
287.1907965209
 21
136.9552464079
 31
0.0
  0
LINE
  5
B9
330
1F
100
AcDbEntity
  8
0
  6
Continuous
 62
     7
370
    15
100
AcDbLine
 10
285.6907965209
 20
169.1652464079
 30
0.0
 11
287.1907965209
 21
169.1652464079
 31
0.0
  0
LINE
  5
BA
330
1F
100
AcDbEntity
  8
工作區域參考線
 62
     1
370
     0
100
AcDbLine
 10
192.8939975803
 20
41.0264968609
 30
0.0
 11
197.0207534387
 21
37.4373205923
 31
0.0
  0
LINE
  5
BB
330
1F
100
AcDbEntity
  8
工作區域參考線
 62
     1
370
     0
100
AcDbLine
 10
194.5843956919
 20
34.8194958859
 30
0.0
 11
195.5698445849
 21
33.960798946
 31
0.0
  0
LINE
  5
BC
330
1F
100
AcDbEntity
  8
工作區域參考線
 62
     1
370
     0
100
AcDbLine
 10
195.5698445849
 20
33.960798946
 30
0.0
 11
196.8115258997
 21
35.1652318884
 31
0.0
  0
LINE
  5
BD
330
1F
100
AcDbEntity
  8
圖層_1
370
    30
100
AcDbLine
 10
194.9823427416
 20
33.4049010187
 30
0.0
 11
191.7722027684
 21
30.2878613059
 31
0.0
  0
LINE
  5
BE
330
1F
100
AcDbEntity
  8
圖層_1
370
    30
100
AcDbLine
 10
191.7722027684
 20
30.2878613059
 30
0.0
 11
190.8314023129
 21
31.097858376
 31
0.0
  0
LINE
  5
BF
330
1F
100
AcDbEntity
  8
圖層_1
370
    30
100
AcDbLine
 10
190.8314023129
 20
31.097858376
 30
0.0
 11
191.4624542334
 21
31.7137587665
 31
0.0
  0
LINE
  5
C0
330
1F
100
AcDbEntity
  8
圖層_1
370
    30
100
AcDbLine
 10
187.4532519232
 20
35.1983626068
 30
0.0
 11
191.4624542334
 21
31.7137587665
 31
0.0
  0
LINE
  5
C1
330
1F
100
AcDbEntity
  8
圖層_1
370
    30
100
AcDbLine
 10
188.7841267601
 20
38.7760667074
 30
0.0
 11
187.4774985052
 21
37.5144796309
 31
0.0
  0
LINE
  5
C2
330
1F
100
AcDbEntity
  8
圖層_1
370
    30
100
AcDbLine
 10
188.7841267601
 20
38.7760667074
 30
0.0
 11
189.7993206075
 21
37.8805348066
 31
0.0
  0
LINE
  5
C3
330
1F
100
AcDbEntity
  8
圖層_1
370
    30
100
AcDbLine
 10
194.0175230804
 20
34.2521878023
 30
0.0
 11
194.9823427416
 21
33.4049010187
 31
0.0
  0
CIRCLE
  5
C4
330
1F
100
AcDbEntity
  8
0
  6
Continuous
 62
     7
370
     0
100
AcDbCircle
 10
168.3593775185
 20
17.7745192513
 30
0.0
 40
1.5
  0
CIRCLE
  5
C5
330
1F
100
AcDbEntity
  8
0
  6
Continuous
 62
     7
370
     0
100
AcDbCircle
 10
168.3593775185
 20
17.7745192513
 30
0.0
 40
2.5
  0
ARC
  5
C6
330
1F
100
AcDbEntity
  8
工作區域參考線
 62
     1
370
     0
100
AcDbCircle
 10
195.918133574
 20
36.3931786202
 30
0.0
 40
1.518552937418286
100
AcDbArc
 50
306.0377529468
 51
43.4396461534
  0
ARC
  5
C7
330
1F
100
AcDbEntity
  8
工作區域參考線
 62
     1
370
     0
100
AcDbCircle
 10
192.2371535581
 20
35.8675842298
 30
0.0
 40
3.181636704527879
100
AcDbArc
 50
45.5592925416
 51
125.8325555121
  0
ARC
  5
C8
330
1F
100
AcDbEntity
  8
工作區域參考線
 62
     1
370
     0
100
AcDbCircle
 10
192.5548098488
 20
36.4084060353
 30
0.0
 40
2.577567488346265
100
AcDbArc
 50
321.9435288427
 51
42.1815007004
  0
ARC
  5
C9
330
1F
100
AcDbEntity
  8
圖層_1
370
    30
100
AcDbCircle
 10
188.4681933527
 20
36.3459229825
 30
0.0
 40
1.531992467805816
100
AcDbArc
 50
130.2910647925
 51
228.509361907
  0
ARC
  5
CA
330
1F
100
AcDbEntity
  8
圖層_1
370
    30
100
AcDbCircle
 10
191.7725909108
 20
36.2331421192
 30
0.0
 40
2.570544369711281
100
AcDbArc
 50
140.1430462781
 51
253.0452525074
  0
ARC
  5
CB
330
1F
100
AcDbEntity
  8
圖層_1
370
    30
100
AcDbCircle
 10
192.1039881191
 20
36.6217838685
 30
0.0
 40
3.045751395731255
100
AcDbArc
 50
249.2112209143
 51
308.9221353953
  0
MTEXT
  5
CD
330
1F
100
AcDbEntity
  8
0
  6
Continuous
 62
     7
370
     0
100
AcDbMText
 10
165.5426850804
 20
13.2208440369
 30
0.0
 40
2.6458333333
 41
0.0
 71
     1
 72
     1
  1
UNIT:m/m
  7
SLDTEXTSTYLE0
 73
     1
 44
1.0
  0
INSERT
  5
D4
330
1F
100
AcDbEntity
  8
0
  6
Continuous
 62
     7
370
     0
100
AcDbBlockReference
  2
SW_NOTE_0
 10
12.2315076053
 20
193.8904304251
 30
0.0
  0
MTEXT
  5
D6
330
1F
100
AcDbEntity
  8
0
  6
Continuous
 62
     7
370
     0
100
AcDbMText
 10
198.7251893935
 20
40.4406774139
 30
0.0
 40
2.38125
 41
0.0
 71
     1
 72
     1
  1
Unice E-O Services Inc.
  7
SLDTEXTSTYLE1
 73
     1
 44
1.0
  0
MTEXT
  5
D7
330
1F
100
AcDbEntity
  8
0
  6
Continuous
 62
     7
370
     0
100
AcDbMText
 10
217.5590538149
 20
21.5867148511
 30
0.0
 40
1.8520833333
 41
0.0
 71
     1
 72
     1
  1
2014/05/15
  7
SLDTEXTSTYLE0
 73
     1
 44
1.0
  0
MTEXT
  5
D8
330
1F
100
AcDbEntity
  8
0
  6
Continuous
 62
     7
370
     0
100
AcDbMText
 10
252.6088982507
 20
16.87117774
 30
0.0
 40
2.5
 41
0.0
 71
     1
 72
     1
  1
1:1
  7
SLDTEXTSTYLE0
 73
     1
 44
1.0
  0
MTEXT
  5
D9
330
1F
100
AcDbEntity
  8
0
  6
Continuous
 62
     7
370
     0
100
AcDbMText
 10
252.3075599985
 20
32.1519195438
 30
0.0
 40
2.5
 41
0.0
 71
     1
 72
     1
  1
04SFH-2
  7
SLDTEXTSTYLE0
 73
     1
 44
1.0
  0
MTEXT
  5
DA
330
1F
100
AcDbEntity
  8
0
  6
Continuous
 62
     7
370
     0
100
AcDbMText
 10
252.3075599985
 20
38.1082117879
 30
0.0
 40
2.5
 41
0.0
 71
     1
 72
     1
  1
04SFH-2
  7
SLDTEXTSTYLE0
 73
     1
 44
1.0
  0
MTEXT
  5
DB
330
1F
100
AcDbEntity
  8
0
  6
Continuous
 62
     7
370
     0
100
AcDbMText
 10
236.3921866786
 20
16.5064795728
 30
0.0
 40
2.1166666667
 41
0.0
 71
     1
 72
     1
  1
SCALE:
  7
SLDTEXTSTYLE0
 73
     1
 44
1.0
  0
MTEXT
  5
DC
330
1F
100
AcDbEntity
  8
0
  6
Continuous
 62
     7
370
     0
100
AcDbMText
 10
186.3336086789
 20
21.5867148511
 30
0.0
 40
1.8520833333
 41
0.0
 71
     1
 72
     1
  1
DRAWN
  7
SLDTEXTSTYLE0
 73
     1
 44
1.0
  0
MTEXT
  5
DD
330
1F
100
AcDbEntity
  8
0
  6
Continuous
 62
     7
370
     0
100
AcDbMText
 10
203.2228367937
 20
26.683208308
 30
0.0
 40
1.8520833333
 41
0.0
 71
     1
 72
     1
  1
NAME
  7
SLDTEXTSTYLE0
 73
     1
 44
1.0
  0
MTEXT
  5
DE
330
1F
100
AcDbEntity
  8
0
  6
Continuous
 62
     7
370
     0
100
AcDbMText
 10
220.8710155758
 20
26.683208308
 30
0.0
 40
1.8520833333
 41
0.0
 71
     1
 72
     1
  1
DATE
  7
SLDTEXTSTYLE0
 73
     1
 44
1.0
  0
MTEXT
  5
DF
330
1F
100
AcDbEntity
  8
0
  6
Continuous
 62
     7
370
     0
100
AcDbMText
 10
236.2756316645
 20
31.7872213766
 30
0.0
 40
2.1166666667
 41
0.0
 71
     1
 72
     1
  1
DWG. NO.
  7
SLDTEXTSTYLE0
 73
     1
 44
1.0
  0
MTEXT
  5
E0
330
1F
100
AcDbEntity
  8
0
  6
Continuous
 62
     7
370
     0
100
AcDbMText
 10
236.3629907088
 20
41.8840658243
 30
0.0
 40
2.1166666667
 41
0.0
 71
     1
 72
     1
  1
TITLE:
  7
SLDTEXTSTYLE0
 73
     1
 44
1.0
  0
MTEXT
  5
E1
330
1F
100
AcDbEntity
  8
0
  6
Continuous
 62
     7
370
     0
100
AcDbMText
 10
203.0314209802
 20
16.2403789724
 30
0.0
 40
1.8520833333
 41
0.0
 71
     1
 72
     1
  1
Johnny
  7
SLDTEXTSTYLE0
 73
     1
 44
1.0
  0
MTEXT
  5
E2
330
1F
100
AcDbEntity
  8
0
  6
Continuous
 62
     7
370
     0
100
AcDbMText
 10
217.5590538149
 20
16.2403789724
 30
0.0
 40
1.8520833333
 41
0.0
 71
     1
 72
     1
  1
2014/05/15
  7
SLDTEXTSTYLE0
 73
     1
 44
1.0
  0
MTEXT
  5
E3
330
1F
100
AcDbEntity
  8
0
  6
Continuous
 62
     7
370
     0
100
AcDbMText
 10
186.3336086789
 20
16.2403789724
 30
0.0
 40
1.8520833333
 41
0.0
 71
     1
 72
     1
  1
ENG APPR.
  7
SLDTEXTSTYLE0
 73
     1
 44
1.0
  0
MTEXT
  5
E4
330
1F
100
AcDbEntity
  8
0
  6
Continuous
 62
     7
370
     0
100
AcDbMText
 10
236.3921866786
 20
11.6853389288
 30
0.0
 40
2.1166666667
 41
0.0
 71
     1
 72
     1
  1
REV
  7
SLDTEXTSTYLE0
 73
     1
 44
1.0
  0
MTEXT
  5
E5
330
1F
100
AcDbEntity
  8
0
  6
Continuous
 62
     7
370
     0
100
AcDbMText
 10
236.3629907088
 20
26.9493089085
 30
0.0
 40
2.1166666667
 41
0.0
 71
     1
 72
     1
  1
MATERIAL:
  7
SLDTEXTSTYLE0
 73
     1
 44
1.0
  0
MTEXT
  5
E6
330
1F
100
AcDbEntity
  8
0
  6
Continuous
 62
     7
370
     0
100
AcDbMText
 10
252.6088982507
 20
22.2175136187
 30
0.0
 40
2.5
 41
0.0
 71
     1
 72
     1
  1
N/A
  7
SLDTEXTSTYLE0
 73
     1
 44
1.0
  0
MTEXT
  5
E7
330
1F
100
AcDbEntity
  8
0
  6
Continuous
 62
     7
370
     0
100
AcDbMText
 10
26.6029931533
 20
204.453351657
 30
0.0
 40
2.1166666667
 41
0.0
 71
     1
 72
     1
  1
1
  7
SLDTEXTSTYLE0
 73
     1
 44
1.0
  0
MTEXT
  5
E8
330
1F
100
AcDbEntity
  8
0
  6
Continuous
 62
     7
370
     0
100
AcDbMText
 10
60.7170995724
 20
204.453351657
 30
0.0
 40
2.1166666667
 41
0.0
 71
     1
 72
     1
  1
2
  7
SLDTEXTSTYLE0
 73
     1
 44
1.0
  0
MTEXT
  5
E9
330
1F
100
AcDbEntity
  8
0
  6
Continuous
 62
     7
370
     0
100
AcDbMText
 10
94.9009943906
 20
204.453351657
 30
0.0
 40
2.1166666667
 41
0.0
 71
     1
 72
     1
  1
3
  7
SLDTEXTSTYLE0
 73
     1
 44
1.0
  0
MTEXT
  5
EA
330
1F
100
AcDbEntity
  8
0
  6
Continuous
 62
     7
370
     0
100
AcDbMText
 10
129.2533362851
 20
204.2992584364
 30
0.0
 40
2.1166666667
 41
0.0
 71
     1
 72
     1
  1
4
  7
SLDTEXTSTYLE0
 73
     1
 44
1.0
  0
MTEXT
  5
EB
330
1F
100
AcDbEntity
  8
0
  6
Continuous
 62
     7
370
     0
100
AcDbMText
 10
163.702323464
 20
204.453351657
 30
0.0
 40
2.1166666667
 41
0.0
 71
     1
 72
     1
  1
5
  7
SLDTEXTSTYLE0
 73
     1
 44
1.0
  0
MTEXT
  5
EC
330
1F
100
AcDbEntity
  8
0
  6
Continuous
 62
     7
370
     0
100
AcDbMText
 10
198.6382170415
 20
204.453351657
 30
0.0
 40
2.1166666667
 41
0.0
 71
     1
 72
     1
  1
6
  7
SLDTEXTSTYLE0
 73
     1
 44
1.0
  0
MTEXT
  5
ED
330
1F
100
AcDbEntity
  8
0
  6
Continuous
 62
     7
370
     0
100
AcDbMText
 10
234.3630657407
 20
204.453351657
 30
0.0
 40
2.1166666667
 41
0.0
 71
     1
 72
     1
  1
7
  7
SLDTEXTSTYLE0
 73
     1
 44
1.0
  0
MTEXT
  5
EE
330
1F
100
AcDbEntity
  8
0
  6
Continuous
 62
     7
370
     0
100
AcDbMText
 10
266.2787820494
 20
204.453351657
 30
0.0
 40
2.1166666667
 41
0.0
 71
     1
 72
     1
  1
8
  7
SLDTEXTSTYLE0
 73
     1
 44
1.0
  0
MTEXT
  5
EF
330
1F
100
AcDbEntity
  8
0
  6
Continuous
 62
     7
370
     0
100
AcDbMText
 10
5.3568236555
 20
185.8113022879
 30
0.0
 40
2.1166666667
 41
0.0
 71
     1
 72
     1
  1
A
  7
SLDTEXTSTYLE0
 73
     1
 44
1.0
  0
MTEXT
  5
F0
330
1F
100
AcDbEntity
  8
0
  6
Continuous
 62
     7
370
     0
100
AcDbMText
 10
5.5910431831
 20
154.2993048238
 30
0.0
 40
2.1166666667
 41
0.0
 71
     1
 72
     1
  1
B
  7
SLDTEXTSTYLE0
 73
     1
 44
1.0
  0
MTEXT
  5
F1
330
1F
100
AcDbEntity
  8
0
  6
Continuous
 62
     7
370
     0
100
AcDbMText
 10
5.5910431831
 20
121.274351423
 30
0.0
 40
2.1166666667
 41
0.0
 71
     1
 72
     1
  1
C
  7
SLDTEXTSTYLE0
 73
     1
 44
1.0
  0
MTEXT
  5
F2
330
1F
100
AcDbEntity
  8
0
  6
Continuous
 62
     7
370
     0
100
AcDbMText
 10
5.5910431831
 20
88.7453220221
 30
0.0
 40
2.1166666667
 41
0.0
 71
     1
 72
     1
  1
D
  7
SLDTEXTSTYLE0
 73
     1
 44
1.0
  0
MTEXT
  5
F3
330
1F
100
AcDbEntity
  8
0
  6
Continuous
 62
     7
370
     0
100
AcDbMText
 10
5.5910431831
 20
57.5558849197
 30
0.0
 40
2.1166666667
 41
0.0
 71
     1
 72
     1
  1
E
  7
SLDTEXTSTYLE0
 73
     1
 44
1.0
  0
MTEXT
  5
F4
330
1F
100
AcDbEntity
  8
0
  6
Continuous
 62
     7
370
     0
100
AcDbMText
 10
5.5910431831
 20
25.5694212252
 30
0.0
 40
2.1166666667
 41
0.0
 71
     1
 72
     1
  1
F
  7
SLDTEXTSTYLE0
 73
     1
 44
1.0
  0
MTEXT
  5
F5
330
1F
100
AcDbEntity
  8
0
  6
Continuous
 62
     7
370
     0
100
AcDbMText
 10
266.1858616964
 20
6.6236223963
 30
0.0
 40
2.1166666667
 41
0.0
 71
     1
 72
     1
  1
8
  7
SLDTEXTSTYLE0
 73
     1
 44
1.0
  0
MTEXT
  5
F6
330
1F
100
AcDbEntity
  8
0
  6
Continuous
 62
     7
370
     0
100
AcDbMText
 10
234.2701453876
 20
6.6236223963
 30
0.0
 40
2.1166666667
 41
0.0
 71
     1
 72
     1
  1
7
  7
SLDTEXTSTYLE0
 73
     1
 44
1.0
  0
MTEXT
  5
F7
330
1F
100
AcDbEntity
  8
0
  6
Continuous
 62
     7
370
     0
100
AcDbMText
 10
198.5452966885
 20
6.6236223963
 30
0.0
 40
2.1166666667
 41
0.0
 71
     1
 72
     1
  1
6
  7
SLDTEXTSTYLE0
 73
     1
 44
1.0
  0
MTEXT
  5
F8
330
1F
100
AcDbEntity
  8
0
  6
Continuous
 62
     7
370
     0
100
AcDbMText
 10
163.6094031109
 20
6.6236223963
 30
0.0
 40
2.1166666667
 41
0.0
 71
     1
 72
     1
  1
5
  7
SLDTEXTSTYLE0
 73
     1
 44
1.0
  0
MTEXT
  5
F9
330
1F
100
AcDbEntity
  8
0
  6
Continuous
 62
     7
370
     0
100
AcDbMText
 10
129.1604159321
 20
6.4695291758
 30
0.0
 40
2.1166666667
 41
0.0
 71
     1
 72
     1
  1
4
  7
SLDTEXTSTYLE0
 73
     1
 44
1.0
  0
MTEXT
  5
FA
330
1F
100
AcDbEntity
  8
0
  6
Continuous
 62
     7
370
     0
100
AcDbMText
 10
94.8080740376
 20
6.6236223963
 30
0.0
 40
2.1166666667
 41
0.0
 71
     1
 72
     1
  1
3
  7
SLDTEXTSTYLE0
 73
     1
 44
1.0
  0
MTEXT
  5
FB
330
1F
100
AcDbEntity
  8
0
  6
Continuous
 62
     7
370
     0
100
AcDbMText
 10
60.6241792194
 20
6.6236223963
 30
0.0
 40
2.1166666667
 41
0.0
 71
     1
 72
     1
  1
2
  7
SLDTEXTSTYLE0
 73
     1
 44
1.0
  0
MTEXT
  5
FC
330
1F
100
AcDbEntity
  8
0
  6
Continuous
 62
     7
370
     0
100
AcDbMText
 10
26.5100728003
 20
6.6236223963
 30
0.0
 40
2.1166666667
 41
0.0
 71
     1
 72
     1
  1
1
  7
SLDTEXTSTYLE0
 73
     1
 44
1.0
  0
MTEXT
  5
FD
330
1F
100
AcDbEntity
  8
0
  6
Continuous
 62
     7
370
     0
100
AcDbMText
 10
287.1023846145
 20
186.6424909092
 30
0.0
 40
2.1166666667
 41
0.0
 71
     1
 72
     1
  1
A
  7
SLDTEXTSTYLE0
 73
     1
 44
1.0
  0
MTEXT
  5
FE
330
1F
100
AcDbEntity
  8
0
  6
Continuous
 62
     7
370
     0
100
AcDbMText
 10
287.3366041421
 20
155.1304934451
 30
0.0
 40
2.1166666667
 41
0.0
 71
     1
 72
     1
  1
B
  7
SLDTEXTSTYLE0
 73
     1
 44
1.0
  0
MTEXT
  5
FF
330
1F
100
AcDbEntity
  8
0
  6
Continuous
 62
     7
370
     0
100
AcDbMText
 10
287.3366041421
 20
122.1055400442
 30
0.0
 40
2.1166666667
 41
0.0
 71
     1
 72
     1
  1
C
  7
SLDTEXTSTYLE0
 73
     1
 44
1.0
  0
MTEXT
  5
100
330
1F
100
AcDbEntity
  8
0
  6
Continuous
 62
     7
370
     0
100
AcDbMText
 10
287.3366041421
 20
89.5765106433
 30
0.0
 40
2.1166666667
 41
0.0
 71
     1
 72
     1
  1
D
  7
SLDTEXTSTYLE0
 73
     1
 44
1.0
  0
MTEXT
  5
101
330
1F
100
AcDbEntity
  8
0
  6
Continuous
 62
     7
370
     0
100
AcDbMText
 10
287.3366041421
 20
58.3870735409
 30
0.0
 40
2.1166666667
 41
0.0
 71
     1
 72
     1
  1
E
  7
SLDTEXTSTYLE0
 73
     1
 44
1.0
  0
MTEXT
  5
102
330
1F
100
AcDbEntity
  8
0
  6
Continuous
 62
     7
370
     0
100
AcDbMText
 10
287.3366041421
 20
26.4006098464
 30
0.0
 40
2.1166666667
 41
0.0
 71
     1
 72
     1
  1
F
  7
SLDTEXTSTYLE0
 73
     1
 44
1.0
  0
MTEXT
  5
103
330
1F
100
AcDbEntity
  8
0
  6
Continuous
 62
     7
370
     0
100
AcDbMText
 10
203.1553128802
 20
21.5867148511
 30
0.0
 40
1.8520833333
 41
0.0
 71
     1
 72
     1
  1
Yuhan
  7
SLDTEXTSTYLE0
 73
     1
 44
1.0
  0
MTEXT
  5
104
330
1F
100
AcDbEntity
  8
0
  6
Continuous
 62
     7
370
     0
100
AcDbMText
 10
252.8482239645
 20
12.210248456
 30
0.0
 40
2.6458333333
 41
0.0
 71
     1
 72
     1
  1
0
  7
SLDTEXTSTYLE0
 73
     1
 44
1.0
  0
INSERT
  5
10A
330
1F
100
AcDbEntity
  8
DIM
 62
     7
100
AcDbBlockReference
  2
SW_NOTE_1
 10
198.7251893935
 20
32.8005413438
 30
0.0
  0
SPLINE
  5
10B
330
1F
100
AcDbEntity
  8
0
  6
Continuous
 62
     7
370
    15
100
AcDbSpline
210
0.0
220
0.0
230
1.0
 70
     8
 71
     3
 72
    12
 73
     8
 74
     0
 42
0.000000001
 43
0.00000001
 40
0.0
 40
0.0
 40
0.0
 40
0.0
 40
0.2059395864003454
 40
0.4267391977768917
 40
0.645741963418664
 40
0.8575341726196308
 40
1.0
 40
1.0
 40
1.0
 40
1.0
 10
129.5305719606025
 20
82.11744294121202
 30
0.0
 10
129.6129193694161
 20
82.0031392495258
 30
0.0
 10
129.7835561459113
 20
81.76628403122751
 30
0.0
 10
130.1139071640212
 20
81.46964061954495
 30
0.0
 10
130.4850651374375
 20
81.22296162180301
 30
0.0
 10
130.8417156674304
 20
81.05643516827647
 30
0.0
 10
131.0744479467296
 20
80.99021639128686
 30
0.0
 10
131.1680418621943
 20
80.96358633105457
 30
0.0
  0
SPLINE
  5
10C
330
1F
100
AcDbEntity
  8
0
  6
Continuous
 62
     7
370
    15
100
AcDbSpline
210
0.0
220
0.0
230
1.0
 70
     8
 71
     3
 72
    13
 73
     9
 74
     0
 42
0.000000001
 43
0.00000001
 40
0.0
 40
0.0
 40
0.0
 40
0.0
 40
0.1690589751592427
 40
0.352100097484515
 40
0.5522771057052155
 40
0.7636909135030088
 40
0.9826778261812816
 40
1.0
 40
1.0
 40
1.0
 40
1.0
 10
131.1732244582349
 20
86.45839266638913
 30
0.0
 10
131.0614700758267
 20
86.42585022874438
 30
0.0
 10
130.8287185824312
 20
86.3580739071601
 30
0.0
 10
130.4847879918308
 20
86.1937185307222
 30
0.0
 10
130.1395398292537
 20
85.97135919774865
 30
0.0
 10
129.8195403094814
 20
85.67862681175308
 30
0.0
 10
129.6097906991687
 20
85.44805068962998
 30
0.0
 10
129.5290060575156
 20
85.30703416869379
 30
0.0
 10
129.5230842979026
 20
85.29669722937766
 30
0.0
  0
SPLINE
  5
10D
330
1F
100
AcDbEntity
  8
0
  6
Continuous
 62
     7
370
    15
100
AcDbSpline
210
0.0
220
0.0
230
1.0
 70
     8
 71
     3
 72
    12
 73
     8
 74
     0
 42
0.000000001
 43
0.00000001
 40
0.0
 40
0.0
 40
0.0
 40
0.0
 40
0.2100241724742002
 40
0.4285208015780926
 40
0.6452393263926688
 40
0.85482250225234
 40
1.0
 40
1.0
 40
1.0
 40
1.0
 10
129.5226770724915
 20
72.12763948982214
 30
0.0
 10
129.6074873170173
 20
72.00979171756344
 30
0.0
 10
129.7805290842485
 20
71.76934214817541
 30
0.0
 10
130.1138584465857
 20
71.46960801317121
 30
0.0
 10
130.4850631554736
 20
71.22292661103114
 30
0.0
 10
130.8444017505049
 20
71.05534755198514
 30
0.0
 10
131.0799500195542
 20
70.9884196416204
 30
0.0
 10
131.1763426324999
 20
70.96103096164795
 30
0.0
  0
SPLINE
  5
10E
330
1F
100
AcDbEntity
  8
0
  6
Continuous
 62
     7
370
    15
100
AcDbSpline
210
0.0
220
0.0
230
1.0
 70
     8
 71
     3
 72
    13
 73
     9
 74
     0
 42
0.000000001
 43
0.00000001
 40
0.0
 40
0.0
 40
0.0
 40
0.0
 40
0.1682593788524998
 40
0.3520224254696371
 40
0.5529889428622211
 40
0.7652365783897921
 40
0.9850871875415923
 40
1.0
 40
1.0
 40
1.0
 40
1.0
 10
131.1703547472551
 20
76.45747548857568
 30
0.0
 10
131.0595698817476
 20
76.42520254060602
 30
0.0
 10
130.8277922695441
 20
76.35768296755866
 30
0.0
 10
130.4847975261656
 20
76.19370228241768
 30
0.0
 10
130.1395184094528
 20
75.97137601633237
 30
0.0
 10
129.8196210123581
 20
75.6785738089453
 30
0.0
 10
129.6107589339397
 20
75.44944303180421
 30
0.0
 10
129.530722420032
 20
75.3099609367964
 30
0.0
 10
129.5256382825052
 20
75.30110065392144
 30
0.0
  0
SPLINE
  5
10F
330
1F
100
AcDbEntity
  8
0
  6
Continuous
 62
     7
370
    15
100
AcDbSpline
210
0.0
220
0.0
230
1.0
 70
    24
 71
     3
 72
    18
 73
    14
 74
     0
 42
0.000000001
 43
0.00000001
 40
0.0
 40
0.0
 40
0.0
 40
0.0
 40
0.0258975139425144
 40
0.1332540394688367
 40
0.2406105649950701
 40
0.3479670905213741
 40
0.4553236160478638
 40
0.5626801415742834
 40
0.6700366671006256
 40
0.7773931926269437
 40
0.8847497181532611
 40
0.9921062436795834
 40
1.0
 40
1.0
 40
1.0
 40
1.0
 10
129.5288459092581
 20
85.29335549692793
 30
0.0
 10
129.5288459092582
 20
85.29839825864212
 30
0.0
 10
129.5288459092584
 20
85.3243454738839
 30
0.0
 10
129.5288459092567
 20
85.19078500206011
 30
0.0
 10
129.5288459092604
 20
84.89918887895202
 30
0.0
 10
129.5288459092597
 20
84.45898513530291
 30
0.0
 10
129.5288459092586
 20
83.9383191807721
 30
0.0
 10
129.5288459092579
 20
83.39049333180974
 30
0.0
 10
129.5288459092578
 20
82.8803503014779
 30
0.0
 10
129.5288459092578
 20
82.45848564983466
 30
0.0
 10
129.5288459092577
 20
82.19705869907968
 30
0.0
 10
129.5288459092581
 20
82.08440716270397
 30
0.0
 10
129.528845909258
 20
82.11407452464084
 30
0.0
 10
129.528845909258
 20
82.11610651035095
 30
0.0
  0
SPLINE
  5
110
330
1F
100
AcDbEntity
  8
0
  6
Continuous
 62
     7
370
    15
100
AcDbSpline
210
0.0
220
0.0
230
1.0
 70
    24
 71
     3
 72
     9
 73
     5
 74
     0
 42
0.000000001
 43
0.00000001
 40
0.0
 40
0.0
 40
0.0
 40
0.0
 40
0.6444656364738164
 40
1.0
 40
1.0
 40
1.0
 40
1.0
 10
129.5288459092577
 20
72.3243098190511
 30
0.0
 10
129.5288459092586
 20
72.24303779511085
 30
0.0
 10
129.52884590926
 20
72.11693018077018
 30
0.0
 10
129.5288459092596
 20
72.12835420556532
 30
0.0
 10
129.5288459092595
 20
72.13241583894977
 30
0.0
  0
SPLINE
  5
111
330
1F
100
AcDbEntity
  8
0
  6
Continuous
 62
     7
370
    15
100
AcDbSpline
210
0.0
220
0.0
230
1.0
 70
    24
 71
     3
 72
    16
 73
    12
 74
     0
 42
0.000000001
 43
0.00000001
 40
0.0
 40
0.0
 40
0.0
 40
0.0
 40
0.0176686694397923
 40
0.1464840737270042
 40
0.2752994780141317
 40
0.4041148823011655
 40
0.5329302865881708
 40
0.6617456908751755
 40
0.790561095162186
 40
0.919376499449189
 40
1.0
 40
1.0
 40
1.0
 40
1.0
 10
129.5288459092596
 20
75.29924023159327
 30
0.0
 10
129.5288459092596
 20
75.30269815653304
 30
0.0
 10
129.5288459092596
 20
75.33136646874216
 30
0.0
 10
129.5288459092585
 20
75.21132709833175
 30
0.0
 10
129.5288459092579
 20
74.93817160592326
 30
0.0
 10
129.5288459092578
 20
74.50918633493318
 30
0.0
 10
129.5288459092578
 20
73.99490569748455
 30
0.0
 10
129.5288459092577
 20
73.44660602091915
 30
0.0
 10
129.5288459092582
 20
72.93075401078706
 30
0.0
 10
129.5288459092576
 20
72.54812653204803
 30
0.0
 10
129.5288459092577
 20
72.38652017981609
 30
0.0
 10
129.5288459092577
 20
72.3243098190511
 30
0.0
  0
ARC
  5
112
330
1F
100
AcDbEntity
  8
0
  6
Continuous
 62
     7
370
    15
100
AcDbCircle
 10
138.5592290754
 20
120.6862326137
 30
0.0
 40
0.700000000000005
100
AcDbArc
 50
345.6
 51
19.6
  0
LINE
  5
113
330
1F
100
AcDbEntity
  8
0
  6
Continuous
 62
     7
370
    15
100
AcDbLine
 10
131.5882709609
 20
90.721392742
 30
0.0
 11
139.2372372882
 21
120.5121496927
 31
0.0
  0
ARC
  5
114
330
1F
100
AcDbEntity
  8
0
  6
Continuous
 62
     7
370
    15
100
AcDbCircle
 10
131.8788459093
 20
90.6467857759
 30
0.0
 40
0.3000000000000267
100
AcDbArc
 50
165.6
 51
180.0
  0
ARC
  5
115
330
1F
100
AcDbEntity
  8
0
  6
Continuous
 62
     7
370
    15
100
AcDbCircle
 10
131.8788459093
 20
90.6467857759
 30
0.0
 40
0.700000000000017
100
AcDbArc
 50
165.6
 51
180.0
  0
LINE
  5
116
330
1F
100
AcDbEntity
  8
0
  6
Continuous
 62
     7
370
    15
100
AcDbLine
 10
131.2008376965
 20
90.8208686969
 30
0.0
 11
138.8498040237
 21
120.6116256476
 31
0.0
  0
ARC
  5
117
330
1F
100
AcDbEntity
  8
0
  6
Continuous
 62
     7
370
    15
100
AcDbCircle
 10
138.5592290754
 20
120.6862326137
 30
0.0
 40
0.300000000000007
100
AcDbArc
 50
345.6
 51
19.6
  0
LINE
  5
118
330
1F
100
AcDbEntity
  8
0
  6
Continuous
 62
     7
370
    15
100
AcDbLine
 10
138.8418463112
 20
120.7868680847
 30
0.0
 11
134.578852611
 21
132.7587452456
 31
0.0
  0
LINE
  5
119
330
1F
100
AcDbEntity
  8
0
  6
Continuous
 62
     7
370
    15
100
AcDbLine
 10
134.9556755921
 20
132.8929258735
 30
0.0
 11
134.578852611
 21
132.7587452456
 31
0.0
  0
LINE
  5
11A
330
1F
100
AcDbEntity
  8
0
  6
Continuous
 62
     7
370
    15
100
AcDbLine
 10
139.2186692923
 20
120.9210487126
 30
0.0
 11
134.9556755921
 21
132.8929258735
 31
0.0
  0
LINE
  5
11B
330
1F
100
AcDbEntity
  8
0
  6
Continuous
 62
     7
370
    15
100
AcDbLine
 10
131.5788459093
 20
67.7099504651
 30
0.0
 11
131.1788459093
 21
67.7099504651
 31
0.0
  0
LINE
  5
11C
330
1F
100
AcDbEntity
  8
0
  6
Continuous
 62
     7
370
    15
100
AcDbLine
 10
131.1788459093
 20
67.7099504651
 30
0.0
 11
131.1788459093
 21
90.6467857759
 31
0.0
  0
LINE
  5
11D
330
1F
100
AcDbEntity
  8
0
  6
Continuous
 62
     7
370
    15
100
AcDbLine
 10
131.5788459093
 20
67.7099504651
 30
0.0
 11
131.5788459093
 21
90.6467857759
 31
0.0
  0
LINE
  5
11E
330
1F
100
AcDbEntity
  8
0
  6
Continuous
 62
     7
370
    15
100
AcDbLine
 10
133.9079494715
 20
134.6428601512
 30
0.0
 11
134.2847724526
 21
134.7770407791
 31
0.0
  0
LINE
  5
11F
330
1F
100
AcDbEntity
  8
0
  6
Continuous
 62
     7
370
    15
100
AcDbLine
 10
134.578852611
 20
132.7587452456
 30
0.0
 11
133.9079494715
 21
134.6428601512
 31
0.0
  0
LINE
  5
120
330
1F
100
AcDbEntity
  8
0
  6
Continuous
 62
     7
370
    15
100
AcDbLine
 10
134.2847724526
 20
134.7770407791
 30
0.0
 11
134.9556755921
 21
132.8929258735
 31
0.0
  0
LINE
  5
121
330
1F
100
AcDbEntity
  8
0
  6
Continuous
 62
     7
370
    15
100
AcDbLine
 10
144.0788459093
 20
128.7099504651
 30
0.0
 11
139.0788459093
 21
128.7099504651
 31
0.0
  0
LINE
  5
122
330
1F
100
AcDbEntity
  8
0
  6
Continuous
 62
     7
370
    15
100
AcDbLine
 10
144.0788459093
 20
128.7099504651
 30
0.0
 11
144.0788459093
 21
63.7099504651
 31
0.0
  0
LINE
  5
123
330
1F
100
AcDbEntity
  8
0
  6
Continuous
 62
     7
370
    15
100
AcDbLine
 10
144.0788459093
 20
63.7099504651
 30
0.0
 11
131.5788459093
 21
63.7099504651
 31
0.0
  0
LINE
  5
124
330
1F
100
AcDbEntity
  8
0
  6
Continuous
 62
     7
370
    15
100
AcDbLine
 10
131.5788459093
 20
87.2099504651
 30
0.0
 11
131.5788459093
 21
63.7099504651
 31
0.0
  0
LINE
  5
125
330
1F
100
AcDbEntity
  8
0
  6
Continuous
 62
     7
370
    15
100
AcDbLine
 10
131.5788459093
 20
87.2099504651
 30
0.0
 11
139.0788459093
 21
87.2099504651
 31
0.0
  0
LINE
  5
126
330
1F
100
AcDbEntity
  8
0
  6
Continuous
 62
     7
370
    15
100
AcDbLine
 10
139.0788459093
 20
128.7099504651
 30
0.0
 11
139.0788459093
 21
87.2099504651
 31
0.0
  0
LINE
  5
127
330
1F
100
AcDbEntity
  8
0
  6
Continuous
 62
     7
370
    15
100
AcDbLine
 10
131.5788459093
 20
128.7099504651
 30
0.0
 11
136.0205635817
 21
128.7099504651
 31
0.0
  0
LINE
  5
128
330
1F
100
AcDbEntity
  8
0
  6
Continuous
 62
     7
370
    15
100
AcDbLine
 10
136.4451661352
 20
128.7099504651
 30
0.0
 11
139.0788459093
 21
128.7099504651
 31
0.0
  0
LINE
  5
129
330
1F
100
AcDbEntity
  8
0
  6
Continuous
 62
     7
370
    15
100
AcDbLine
 10
131.5788459093
 20
128.7099504651
 30
0.0
 11
131.5788459093
 21
92.2931134828
 31
0.0
  0
LINE
  5
12A
330
1F
100
AcDbEntity
  8
DIM
  6
CENTERX2
100
AcDbLine
 10
140.5788459093
 20
63.7099504651
 30
0.0
 11
140.5788459093
 21
73.7099504651
 31
0.0
  0
LINE
  5
12B
330
1F
100
AcDbEntity
  8
DIM
  6
CENTERX2
100
AcDbLine
 10
135.5788459093
 20
73.7099504651
 30
0.0
 11
135.5788459093
 21
63.7099504651
 31
0.0
  0
LINE
  5
12C
330
1F
100
AcDbEntity
  8
DIM
  6
CENTERX2
100
AcDbLine
 10
140.5788459093
 20
73.7099504651
 30
0.0
 11
135.5788459093
 21
73.7099504651
 31
0.0
  0
LINE
  5
12D
330
1F
100
AcDbEntity
  8
DIM
  6
CENTERX2
100
AcDbLine
 10
138.0788459093
 20
75.1533261381
 30
0.0
 11
135.5788459093
 21
73.7099504651
 31
0.0
  0
LINE
  5
12E
330
1F
100
AcDbEntity
  8
DIM
  6
CENTERX2
100
AcDbLine
 10
140.5788459093
 20
73.7099504651
 30
0.0
 11
138.0788459093
 21
75.1533261381
 31
0.0
  0
DIMENSION
  5
12F
330
1F
100
AcDbEntity
  8
DIM
100
AcDbDimension
  2
_D
 10
131.5788459093
 20
55.7099504651
 30
0.0
 11
134.8288459093
 21
55.7099504651
 31
0.0
 70
   160
  1
<>
 71
     2
 42
-1.0
  3
SLDDIMSTYLE0
100
AcDbAlignedDimension
 13
138.0788459093
 23
75.1533261381
 33
0.0
 14
131.5788459093
 24
63.7099504651
 34
0.0
 50
0.0
100
AcDbRotatedDimension
  0
DIMENSION
  5
13A
330
1F
100
AcDbEntity
  8
DIM
100
AcDbDimension
  2
_D_1
 10
131.5788459093
 20
48.5006608496
 30
0.0
 11
137.8288459093
 21
48.5006608496
 31
0.0
 70
   160
  1
<>
 71
     2
 42
-1.0
  3
SLDDIMSTYLE0
100
AcDbAlignedDimension
 13
144.0788459093
 23
63.7099504651
 33
0.0
 14
131.5788459093
 24
63.7099504651
 34
0.0
 50
0.0
100
AcDbRotatedDimension
  0
DIMENSION
  5
144
330
1F
100
AcDbEntity
  8
DIM
100
AcDbDimension
  2
_D_2
 10
152.0788459093
 20
63.7099504651
 30
0.0
 11
152.0788459093
 21
96.2099504651
 31
0.0
 70
   160
  1
<>
 71
     2
 42
-1.0
  3
SLDDIMSTYLE0
100
AcDbAlignedDimension
 13
144.0788459093
 23
128.7099504651
 33
0.0
 14
144.0788459093
 24
63.7099504651
 34
0.0
 50
90.0
100
AcDbRotatedDimension
  0
DIMENSION
  5
14E
330
1F
100
AcDbEntity
  8
DIM
 62
     7
100
AcDbDimension
  2
_D_3
 10
139.0788459093
 20
138.9610288211
 30
0.0
 11
135.3288459093
 21
138.9610288211
 31
0.0
 70
   160
  1
<>
 71
     2
 42
-1.0
  3
SLDDIMSTYLE0
100
AcDbAlignedDimension
 13
131.5788459093
 23
90.6467857759
 33
0.0
 14
139.0788459093
 24
128.7099504651
 34
0.0
 50
0.0
100
AcDbRotatedDimension
  0
INSERT
  5
15D
102
{ACAD_REACTORS
330
15F
102
}
330
1F
100
AcDbEntity
  8
DIM
 62
     7
100
AcDbBlockReference
  2
SW_NOTE_2
 10
150.7360939431
 20
50.5562422744
 30
0.0
  0
LEADER
  5
15F
330
1F
100
AcDbEntity
  8
DIM
 62
     7
100
AcDbLeader
  3
SLDDIMSTYLE1
 73
     2
 76
     3
 10
139.1305086834
 20
63.7099504651
 30
0.0
 10
149.7360939431
 20
50.5562422744
 30
0.0
 10
150.7360939431
 20
50.5562422744
 30
0.0
340
15D
  0
SPLINE
  5
160
330
1F
100
AcDbEntity
  8
0
  6
Continuous
 62
     7
370
    15
100
AcDbSpline
210
0.0
220
0.0
230
1.0
 70
    11
 71
     3
 72
    26
 73
    22
 74
     0
 42
0.000000001
 43
0.00000001
 40
0.0
 40
0.0
 40
0.0
 40
0.0
 40
0.0331519326811024
 40
0.0868408751676906
 40
0.1405298176542805
 40
0.1942187601408687
 40
0.2479077026274574
 40
0.3015966451140463
 40
0.3552855876006349
 40
0.408974530087224
 40
0.4626634725738122
 40
0.5163524150604001
 40
0.5700413575469891
 40
0.6237303000335779
 40
0.6774192425201666
 40
0.7311081850067557
 40
0.7847971274933443
 40
0.8384860699799334
 40
0.8921750124665216
 40
0.9458639549531102
 40
1.0
 40
1.0
 40
1.0
 40
1.0
 10
86.73446310878703
 20
81.32838060469896
 30
0.0
 10
86.57555738364803
 20
81.43373256478048
 30
0.0
 10
86.15930677247047
 20
81.70970007780959
 30
0.0
 10
85.65397806917913
 20
82.36368780347448
 30
0.0
 10
85.34442302513496
 20
83.24958453880679
 30
0.0
 10
85.34853852338608
 20
84.19152266971678
 30
0.0
 10
85.66340931312638
 20
85.0780582458455
 30
0.0
 10
86.25419291257903
 20
85.81064718542915
 30
0.0
 10
87.0541069671163
 20
86.3063188965917
 30
0.0
 10
87.97301436513926
 20
86.50929105927283
 30
0.0
 10
88.9073027330848
 20
86.39665322670234
 30
0.0
 10
89.75164115484554
 20
85.98111105523544
 30
0.0
 10
90.41083737299607
 20
85.3095142669226
 30
0.0
 10
90.81056702563244
 20
84.45757173221591
 30
0.0
 10
90.90578308723873
 20
83.52136730628571
 30
0.0
 10
90.68567781570295
 20
82.60632432113931
 30
0.0
 10
90.17533836396748
 20
81.81607959582148
 30
0.0
 10
89.43128667438567
 20
81.23796318863842
 30
0.0
 10
88.54119681558826
 20
80.94373683475013
 30
0.0
 10
87.58864623862131
 20
80.9419975660455
 30
0.0
 10
87.0199768256254
 20
81.19923071442818
 30
0.0
 10
86.73446310878703
 20
81.32838060469896
 30
0.0
  0
SPLINE
  5
161
330
1F
100
AcDbEntity
  8
0
  6
Continuous
 62
     7
370
    15
100
AcDbSpline
210
0.0
220
0.0
230
1.0
 70
    11
 71
     3
 72
    26
 73
    22
 74
     0
 42
0.000000001
 43
0.00000001
 40
0.0
 40
0.0
 40
0.0
 40
0.0
 40
0.0536887269337756
 40
0.1073774538675548
 40
0.1610661808014809
 40
0.2147549077353544
 40
0.2684436346692
 40
0.3221323616030395
 40
0.3758210885368777
 40
0.4295098154707224
 40
0.4831985424045631
 40
0.5368872693383607
 40
0.5905759962721926
 40
0.644264723206118
 40
0.6979534501400072
 40
0.7516421770738586
 40
0.8053309040076977
 40
0.8590196309415364
 40
0.9127083578753782
 40
0.966397084809216
 40
1.0
 40
1.0
 40
1.0
 40
1.0
 10
87.30946310878701
 20
82.32430981905107
 30
0.0
 10
87.16249550992703
 20
82.42958852783893
 30
0.0
 10
86.86856031220705
 20
82.6401459454147
 30
0.0
 10
86.59172728382696
 20
83.118453565325
 30
0.0
 10
86.4795318236248
 20
83.6522318485206
 30
0.0
 10
86.55283389211348
 20
84.19552281951447
 30
0.0
 10
86.80116916725095
 20
84.68326390972423
 30
0.0
 10
87.19712923660245
 20
85.06148706579455
 30
0.0
 10
87.69591465177727
 20
85.28727691014964
 30
0.0
 10
88.24133345177245
 20
85.33525063930215
 30
0.0
 10
88.7718825149663
 20
85.19998001034278
 30
0.0
 10
89.22774930556076
 20
84.89672074733281
 30
0.0
 10
89.55753820451888
 20
84.45966265349695
 30
0.0
 10
89.7240655546876
 20
83.93807723961503
 30
0.0
 10
89.70856659904433
 20
83.39078357824381
 30
0.0
 10
89.51275143387426
 20
82.87943125689856
 30
0.0
 10
89.15883596874092
 20
82.46187158171782
 30
0.0
 10
88.68620184062272
 20
82.18443401612619
 30
0.0
 10
88.15007431506965
 20
82.08118621994518
 30
0.0
 10
87.67180072589693
 20
82.14436051271844
 30
0.0
 10
87.4101756676362
 20
82.27429250302285
 30
0.0
 10
87.30946310878701
 20
82.32430981905107
 30
0.0
  0
LINE
  5
162
330
1F
100
AcDbEntity
  8
0
  6
Continuous
 62
     7
370
    15
100
AcDbLine
 10
87.1094631088
 20
84.2873007343
 30
0.0
 11
87.1094631088
 21
83.1326001959
 31
0.0
  0
LINE
  5
163
330
1F
100
AcDbEntity
  8
0
  6
Continuous
 62
     7
370
    15
100
AcDbLine
 10
88.1094631088
 20
84.8646510035
 30
0.0
 11
87.1094631088
 21
84.2873007343
 31
0.0
  0
LINE
  5
164
330
1F
100
AcDbEntity
  8
0
  6
Continuous
 62
     7
370
    15
100
AcDbLine
 10
87.1094631088
 20
83.1326001959
 30
0.0
 11
88.1094631088
 21
82.5552499267
 31
0.0
  0
LINE
  5
165
330
1F
100
AcDbEntity
  8
0
  6
Continuous
 62
     7
370
    15
100
AcDbLine
 10
89.1094631088
 20
83.1326001959
 30
0.0
 11
89.1094631088
 21
84.2873007343
 31
0.0
  0
LINE
  5
166
330
1F
100
AcDbEntity
  8
0
  6
Continuous
 62
     7
370
    15
100
AcDbLine
 10
88.1094631088
 20
82.5552499267
 30
0.0
 11
89.1094631088
 21
83.1326001959
 31
0.0
  0
LINE
  5
167
330
1F
100
AcDbEntity
  8
0
  6
Continuous
 62
     7
370
    15
100
AcDbLine
 10
89.1094631088
 20
84.2873007343
 30
0.0
 11
88.1094631088
 21
84.8646510035
 31
0.0
  0
SPLINE
  5
168
330
1F
100
AcDbEntity
  8
0
  6
Continuous
 62
     7
370
    15
100
AcDbSpline
210
0.0
220
0.0
230
1.0
 70
    11
 71
     3
 72
    26
 73
    22
 74
     0
 42
0.000000001
 43
0.00000001
 40
0.0
 40
0.0
 40
0.0
 40
0.0
 40
0.0331519326811025
 40
0.0868408751676906
 40
0.1405298176542805
 40
0.1942187601408688
 40
0.2479077026274575
 40
0.3015966451140464
 40
0.3552855876006351
 40
0.4089745300872243
 40
0.4626634725738124
 40
0.5163524150604003
 40
0.5700413575469894
 40
0.6237303000335783
 40
0.6774192425201669
 40
0.7311081850067559
 40
0.7847971274933444
 40
0.8384860699799335
 40
0.8921750124665219
 40
0.9458639549531105
 40
1.0
 40
1.0
 40
1.0
 40
1.0
 10
89.48446310878704
 20
71.32838060469896
 30
0.0
 10
89.31377277244846
 20
71.2434401899626
 30
0.0
 10
88.86665258995727
 20
71.02094034285655
 30
0.0
 10
88.04761825412258
 20
70.91030671137727
 30
0.0
 10
87.12563165417302
 20
71.08517254703155
 30
0.0
 10
86.3119470531373
 20
71.55970573852126
 30
0.0
 10
85.7016201177213
 20
72.27565962941037
 30
0.0
 10
85.3625712852367
 20
73.15358770446743
 30
0.0
 10
85.33326401870123
 20
74.09416945212219
 30
0.0
 10
85.61693866856982
 20
74.99145268387608
 30
0.0
 10
86.18163007697584
 20
75.74425122869198
 30
0.0
 10
86.96366936469029
 20
76.2676986655946
 30
0.0
 10
87.87488735354452
 20
76.50278094243515
 30
0.0
 10
88.81255605748319
 20
76.42298570891083
 30
0.0
 10
89.67094090427734
 20
76.03734302414509
 30
0.0
 10
90.35333873920092
 20
75.38920477491503
 30
0.0
 10
90.78254102066514
 20
74.55211548249974
 30
0.0
 10
90.91117867083932
 20
73.61868961400167
 30
0.0
 10
90.72094123837077
 20
72.70073600768806
 30
0.0
 10
90.24617220076948
 20
71.87493337529285
 30
0.0
 10
89.73906705307668
 20
71.51106779147453
 30
0.0
 10
89.48446310878705
 20
71.32838060469896
 30
0.0
  0
SPLINE
  5
169
330
1F
100
AcDbEntity
  8
0
  6
Continuous
 62
     7
370
    15
100
AcDbSpline
210
0.0
220
0.0
230
1.0
 70
    11
 71
     3
 72
    26
 73
    22
 74
     0
 42
0.000000001
 43
0.00000001
 40
0.0
 40
0.0
 40
0.0
 40
0.0
 40
0.0536887269337755
 40
0.1073774538675546
 40
0.1610661808014806
 40
0.2147549077353544
 40
0.2684436346692002
 40
0.3221323616030393
 40
0.3758210885368775
 40
0.4295098154707225
 40
0.4831985424045631
 40
0.5368872693383606
 40
0.5905759962721927
 40
0.6442647232061179
 40
0.6979534501400074
 40
0.7516421770738586
 40
0.8053309040076979
 40
0.8590196309415367
 40
0.9127083578753784
 40
0.966397084809216
 40
1.0
 40
1.0
 40
1.0
 40
1.0
 10
88.90946310878702
 20
72.32430981905105
 30
0.0
 10
88.74480527306912
 20
72.24967149929905
 30
0.0
 10
88.41548960163325
 20
72.10039485979503
 30
0.0
 10
87.86284653777723
 20
72.09980423456643
 30
0.0
 10
87.34448325444033
 20
72.26952925743987
 30
0.0
 10
86.91063050615726
 20
72.60465619639797
 30
0.0
 10
86.61240196913481
 20
73.06359139842769
 30
0.0
 10
86.48283114235414
 20
73.5956144554055
 30
0.0
 10
86.53668410881352
 20
74.14047021816162
 30
0.0
 10
86.76784704065074
 20
74.63680361923531
 30
0.0
 10
87.15026937331238
 20
75.02863727143556
 30
0.0
 10
87.64083299430922
 20
75.27179986132704
 30
0.0
 10
88.18423085597972
 20
75.33887637879293
 30
0.0
 10
88.71920074972925
 20
75.222300587523
 30
0.0
 10
89.18542148598529
 20
74.93523126751819
 30
0.0
 10
89.53035800396938
 20
74.50997419936203
 30
0.0
 10
89.71501755770522
 20
73.994694578174
 30
0.0
 10
89.71896847341257
 20
73.44666263373233
 30
0.0
 10
89.54031992501355
 20
72.93073867884478
 30
0.0
 10
89.24647258801943
 20
72.54812874704866
 30
0.0
 10
89.00313565452119
 20
72.3865207954805
 30
0.0
 10
88.90946310878702
 20
72.32430981905105
 30
0.0
  0
LINE
  5
16A
330
1F
100
AcDbEntity
  8
0
  6
Continuous
 62
     7
370
    15
100
AcDbLine
 10
87.1094631088
 20
73.1326001959
 30
0.0
 11
88.1094631088
 21
72.5552499267
 31
0.0
  0
LINE
  5
16B
330
1F
100
AcDbEntity
  8
0
  6
Continuous
 62
     7
370
    15
100
AcDbLine
 10
88.1094631088
 20
72.5552499267
 30
0.0
 11
89.1094631088
 21
73.1326001959
 31
0.0
  0
LINE
  5
16C
330
1F
100
AcDbEntity
  8
0
  6
Continuous
 62
     7
370
    15
100
AcDbLine
 10
87.1094631088
 20
74.2873007343
 30
0.0
 11
87.1094631088
 21
73.1326001959
 31
0.0
  0
LINE
  5
16D
330
1F
100
AcDbEntity
  8
0
  6
Continuous
 62
     7
370
    15
100
AcDbLine
 10
88.1094631088
 20
74.8646510035
 30
0.0
 11
87.1094631088
 21
74.2873007343
 31
0.0
  0
LINE
  5
16E
330
1F
100
AcDbEntity
  8
0
  6
Continuous
 62
     7
370
    15
100
AcDbLine
 10
89.1094631088
 20
74.2873007343
 30
0.0
 11
88.1094631088
 21
74.8646510035
 31
0.0
  0
LINE
  5
16F
330
1F
100
AcDbEntity
  8
0
  6
Continuous
 62
     7
370
    15
100
AcDbLine
 10
89.1094631088
 20
73.1326001959
 30
0.0
 11
89.1094631088
 21
74.2873007343
 31
0.0
  0
SPLINE
  5
170
330
1F
100
AcDbEntity
  8
0
  6
Continuous
 62
     7
370
    15
100
AcDbSpline
210
0.0
220
0.0
230
1.0
 70
    11
 71
     3
 72
    26
 73
    22
 74
     0
 42
0.000000001
 43
0.00000001
 40
0.0
 40
0.0
 40
0.0
 40
0.0
 40
0.0331519326811024
 40
0.0868408751676906
 40
0.1405298176542804
 40
0.1942187601408688
 40
0.2479077026274575
 40
0.3015966451140464
 40
0.355285587600635
 40
0.4089745300872241
 40
0.4626634725738123
 40
0.5163524150604002
 40
0.5700413575469893
 40
0.623730300033578
 40
0.6774192425201667
 40
0.7311081850067557
 40
0.7847971274933443
 40
0.8384860699799334
 40
0.8921750124665218
 40
0.9458639549531104
 40
1.0
 40
1.0
 40
1.0
 40
1.0
 10
46.35946310878704
 20
83.70995046510617
 30
0.0
 10
46.34767849758745
 20
83.51965809028827
 30
0.0
 10
46.31680892627382
 20
83.02119073015315
 30
0.0
 10
46.00310329373048
 20
82.25656937300896
 30
0.0
 10
45.39067173782509
 20
81.54553847333094
 30
0.0
 10
44.57287163853824
 20
81.07813353391066
 30
0.0
 10
43.64767391338194
 20
80.90755184867106
 30
0.0
 10
42.71784148144467
 20
81.05289098414445
 30
0.0
 10
41.88862016037195
 20
81.49780102063664
 30
0.0
 10
41.25338741221757
 20
82.19211208970943
 30
0.0
 10
40.88379045267803
 20
83.05754846709583
 30
0.0
 10
40.82149131863176
 20
83.99653807546531
 30
0.0
 10
41.07351308933546
 20
84.90321714061874
 30
0.0
 10
41.61145214063777
 20
85.6753644418011
 30
0.0
 10
42.37462092582562
 20
86.22592618296557
 30
0.0
 10
43.27712403228502
 20
86.49283091888186
 30
0.0
 10
44.21666576548466
 20
86.4459863517845
 30
0.0
 10
45.08935510524068
 20
86.09067689046941
 30
0.0
 10
45.78920753156952
 20
85.46694963804411
 30
0.0
 10
46.26698907093518
 20
84.64288627435351
 30
0.0
 10
46.32855333623831
 20
84.02178754215254
 30
0.0
 10
46.35946310878704
 20
83.70995046510617
 30
0.0
  0
SPLINE
  5
171
330
1F
100
AcDbEntity
  8
0
  6
Continuous
 62
     7
370
    15
100
AcDbSpline
210
0.0
220
0.0
230
1.0
 70
    11
 71
     3
 72
    26
 73
    22
 74
     0
 42
0.000000001
 43
0.00000001
 40
0.0
 40
0.0
 40
0.0
 40
0.0
 40
0.0536887269337757
 40
0.1073774538675547
 40
0.1610661808014809
 40
0.2147549077353545
 40
0.2684436346692001
 40
0.3221323616030393
 40
0.3758210885368773
 40
0.4295098154707224
 40
0.483198542404563
 40
0.5368872693383605
 40
0.5905759962721925
 40
0.6442647232061177
 40
0.6979534501400072
 40
0.7516421770738583
 40
0.8053309040076976
 40
0.8590196309415365
 40
0.9127083578753782
 40
0.9663970848092159
 40
0.9999999999999999
 40
0.9999999999999999
 40
0.9999999999999999
 40
0.9999999999999999
 10
45.20946310878704
 20
83.70995046510617
 30
0.0
 10
45.1917728719291
 20
83.5300334365663
 30
0.0
 10
45.15639239821324
 20
83.17019937948652
 30
0.0
 10
44.8805823627373
 20
82.69130113434763
 30
0.0
 10
44.47441453960255
 20
82.32724787402546
 30
0.0
 10
43.96725972283079
 20
82.11908384198969
 30
0.0
 10
43.42069591067088
 20
82.09027795380963
 30
0.0
 10
42.89516501453873
 20
82.24407785471713
 30
0.0
 10
42.45023256582326
 20
82.56314377311816
 30
0.0
 10
42.13597669766533
 20
83.01150344503934
 30
0.0
 10
41.9878499671331
 20
83.53860772619892
 30
0.0
 10
42.02254679753547
 20
84.08502957910041
 30
0.0
 10
42.23615576024788
 20
84.58916419040216
 30
0.0
 10
42.60459830382867
 20
84.99417381301414
 30
0.0
 10
43.08631799572797
 20
85.25439815438054
 30
0.0
 10
43.62706967888215
 20
85.34049340756967
 30
0.0
 10
44.16564469775131
 20
85.24277346156236
 30
0.0
 10
44.64222974157688
 20
84.9721790827123
 30
0.0
 10
44.99970871873091
 20
84.55950292400577
 30
0.0
 10
45.18413497090952
 20
84.1137186994364
 30
0.0
 10
45.202423095672
 20
83.82217875756383
 30
0.0
 10
45.20946310878705
 20
83.70995046510617
 30
0.0
  0
LINE
  5
172
330
1F
100
AcDbEntity
  8
0
  6
Continuous
 62
     7
370
    15
100
AcDbLine
 10
44.6094631088
 20
83.1326001959
 30
0.0
 11
44.6094631088
 21
84.2873007343
 31
0.0
  0
LINE
  5
173
330
1F
100
AcDbEntity
  8
0
  6
Continuous
 62
     7
370
    15
100
AcDbLine
 10
43.6094631088
 20
82.5552499267
 30
0.0
 11
44.6094631088
 21
83.1326001959
 31
0.0
  0
LINE
  5
174
330
1F
100
AcDbEntity
  8
0
  6
Continuous
 62
     7
370
    15
100
AcDbLine
 10
42.6094631088
 20
83.1326001959
 30
0.0
 11
43.6094631088
 21
82.5552499267
 31
0.0
  0
LINE
  5
175
330
1F
100
AcDbEntity
  8
0
  6
Continuous
 62
     7
370
    15
100
AcDbLine
 10
42.6094631088
 20
84.2873007343
 30
0.0
 11
42.6094631088
 21
83.1326001959
 31
0.0
  0
LINE
  5
176
330
1F
100
AcDbEntity
  8
0
  6
Continuous
 62
     7
370
    15
100
AcDbLine
 10
43.6094631088
 20
84.8646510035
 30
0.0
 11
42.6094631088
 21
84.2873007343
 31
0.0
  0
LINE
  5
177
330
1F
100
AcDbEntity
  8
0
  6
Continuous
 62
     7
370
    15
100
AcDbLine
 10
44.6094631088
 20
84.2873007343
 30
0.0
 11
43.6094631088
 21
84.8646510035
 31
0.0
  0
SPLINE
  5
178
330
1F
100
AcDbEntity
  8
0
  6
Continuous
 62
     7
370
    15
100
AcDbSpline
210
0.0
220
0.0
230
1.0
 70
    11
 71
     3
 72
    26
 73
    22
 74
     0
 42
0.000000001
 43
0.00000001
 40
0.0
 40
0.0
 40
0.0
 40
0.0
 40
0.0331519326811023
 40
0.0868408751676905
 40
0.1405298176542803
 40
0.1942187601408687
 40
0.2479077026274574
 40
0.3015966451140464
 40
0.3552855876006349
 40
0.408974530087224
 40
0.4626634725738122
 40
0.5163524150604001
 40
0.5700413575469891
 40
0.623730300033578
 40
0.6774192425201666
 40
0.7311081850067557
 40
0.7847971274933443
 40
0.8384860699799334
 40
0.8921750124665216
 40
0.9458639549531104
 40
1.0
 40
1.0
 40
1.0
 40
1.0
 10
42.23446310878702
 20
71.32838060469895
 30
0.0
 10
42.07555738364803
 20
71.43373256478047
 30
0.0
 10
41.65930677247047
 20
71.70970007780959
 30
0.0
 10
41.15397806917913
 20
72.36368780347446
 30
0.0
 10
40.84442302513495
 20
73.24958453880679
 30
0.0
 10
40.8485385233861
 20
74.19152266971676
 30
0.0
 10
41.16340931312639
 20
75.07805824584548
 30
0.0
 10
41.75419291257904
 20
75.81064718542915
 30
0.0
 10
42.5541069671163
 20
76.3063188965917
 30
0.0
 10
43.47301436513927
 20
76.50929105927281
 30
0.0
 10
44.40730273308481
 20
76.39665322670233
 30
0.0
 10
45.25164115484555
 20
75.98111105523544
 30
0.0
 10
45.91083737299608
 20
75.30951426692259
 30
0.0
 10
46.31056702563245
 20
74.4575717322159
 30
0.0
 10
46.40578308723872
 20
73.5213673062857
 30
0.0
 10
46.18567781570297
 20
72.60632432113931
 30
0.0
 10
45.67533836396746
 20
71.81607959582145
 30
0.0
 10
44.93128667438569
 20
71.23796318863843
 30
0.0
 10
44.04119681558826
 20
70.94373683475011
 30
0.0
 10
43.08864623862132
 20
70.94199756604552
 30
0.0
 10
42.5199768256254
 20
71.19923071442817
 30
0.0
 10
42.23446310878702
 20
71.32838060469895
 30
0.0
  0
SPLINE
  5
179
330
1F
100
AcDbEntity
  8
0
  6
Continuous
 62
     7
370
    15
100
AcDbSpline
210
0.0
220
0.0
230
1.0
 70
    11
 71
     3
 72
    26
 73
    22
 74
     0
 42
0.000000001
 43
0.00000001
 40
0.0
 40
0.0
 40
0.0
 40
0.0
 40
0.0536887269337756
 40
0.1073774538675546
 40
0.1610661808014809
 40
0.2147549077353545
 40
0.2684436346692001
 40
0.3221323616030394
 40
0.3758210885368776
 40
0.4295098154707227
 40
0.4831985424045629
 40
0.5368872693383605
 40
0.5905759962721926
 40
0.6442647232061178
 40
0.6979534501400072
 40
0.7516421770738584
 40
0.8053309040076977
 40
0.8590196309415364
 40
0.9127083578753782
 40
0.9663970848092159
 40
0.9999999999999999
 40
0.9999999999999999
 40
0.9999999999999999
 40
0.9999999999999999
 10
42.80946310878701
 20
72.32430981905105
 30
0.0
 10
42.66249550992701
 20
72.42958852783893
 30
0.0
 10
42.36856031220704
 20
72.64014594541469
 30
0.0
 10
42.09172728382696
 20
73.11845356532498
 30
0.0
 10
41.9795318236248
 20
73.65223184852059
 30
0.0
 10
42.05283389211349
 20
74.19552281951444
 30
0.0
 10
42.30116916725094
 20
74.68326390972423
 30
0.0
 10
42.69712923660244
 20
75.06148706579454
 30
0.0
 10
43.19591465177727
 20
75.28727691014964
 30
0.0
 10
43.74133345177244
 20
75.33525063930213
 30
0.0
 10
44.27188251496631
 20
75.19998001034278
 30
0.0
 10
44.72774930556076
 20
74.8967207473328
 30
0.0
 10
45.05753820451887
 20
74.45966265349693
 30
0.0
 10
45.2240655546876
 20
73.93807723961501
 30
0.0
 10
45.20856659904433
 20
73.3907835782438
 30
0.0
 10
45.01275143387424
 20
72.87943125689856
 30
0.0
 10
44.65883596874093
 20
72.4618715817178
 30
0.0
 10
44.18620184062271
 20
72.18443401612618
 30
0.0
 10
43.65007431506965
 20
72.08118621994518
 30
0.0
 10
43.17180072589694
 20
72.14436051271842
 30
0.0
 10
42.9101756676362
 20
72.27429250302283
 30
0.0
 10
42.80946310878701
 20
72.32430981905105
 30
0.0
  0
LINE
  5
17A
330
1F
100
AcDbEntity
  8
0
  6
Continuous
 62
     7
370
    15
100
AcDbLine
 10
42.6094631088
 20
74.2873007343
 30
0.0
 11
42.6094631088
 21
73.1326001959
 31
0.0
  0
LINE
  5
17B
330
1F
100
AcDbEntity
  8
0
  6
Continuous
 62
     7
370
    15
100
AcDbLine
 10
44.6094631088
 20
74.2873007343
 30
0.0
 11
43.6094631088
 21
74.8646510035
 31
0.0
  0
LINE
  5
17C
330
1F
100
AcDbEntity
  8
0
  6
Continuous
 62
     7
370
    15
100
AcDbLine
 10
43.6094631088
 20
74.8646510035
 30
0.0
 11
42.6094631088
 21
74.2873007343
 31
0.0
  0
LINE
  5
17D
330
1F
100
AcDbEntity
  8
0
  6
Continuous
 62
     7
370
    15
100
AcDbLine
 10
44.6094631088
 20
73.1326001959
 30
0.0
 11
44.6094631088
 21
74.2873007343
 31
0.0
  0
LINE
  5
17E
330
1F
100
AcDbEntity
  8
0
  6
Continuous
 62
     7
370
    15
100
AcDbLine
 10
43.6094631088
 20
72.5552499267
 30
0.0
 11
44.6094631088
 21
73.1326001959
 31
0.0
  0
LINE
  5
17F
330
1F
100
AcDbEntity
  8
0
  6
Continuous
 62
     7
370
    15
100
AcDbLine
 10
42.6094631088
 20
73.1326001959
 30
0.0
 11
43.6094631088
 21
72.5552499267
 31
0.0
  0
LINE
  5
180
330
1F
100
AcDbEntity
  8
0
  6
Continuous
 62
     7
370
    15
100
AcDbLine
 10
46.6094631088
 20
90.6467857759
 30
0.0
 11
40.6094631088
 21
90.6467857759
 31
0.0
  0
LINE
  5
181
330
1F
100
AcDbEntity
  8
0
  6
Continuous
 62
     7
370
    15
100
AcDbLine
 10
46.6094631088
 20
67.7099504651
 30
0.0
 11
40.6094631088
 21
67.7099504651
 31
0.0
  0
LINE
  5
182
330
1F
100
AcDbEntity
  8
0
  6
Continuous
 62
     7
370
    15
100
AcDbLine
 10
40.6094631088
 20
67.7099504651
 30
0.0
 11
40.6094631088
 21
90.6467857759
 31
0.0
  0
LINE
  5
183
330
1F
100
AcDbEntity
  8
0
  6
Continuous
 62
     7
370
    15
100
AcDbLine
 10
46.6094631088
 20
67.7099504651
 30
0.0
 11
46.6094631088
 21
90.6467857759
 31
0.0
  0
LINE
  5
184
330
1F
100
AcDbEntity
  8
0
  6
Continuous
 62
     7
370
    15
100
AcDbLine
 10
46.6094631088
 20
90.8208686969
 30
0.0
 11
40.6094631088
 21
90.8208686969
 31
0.0
  0
LINE
  5
185
330
1F
100
AcDbEntity
  8
0
  6
Continuous
 62
     7
370
    15
100
AcDbLine
 10
40.6094631088
 20
90.6467857759
 30
0.0
 11
40.6094631088
 21
90.8208686969
 31
0.0
  0
LINE
  5
186
330
1F
100
AcDbEntity
  8
0
  6
Continuous
 62
     7
370
    15
100
AcDbLine
 10
46.6094631088
 20
90.6467857759
 30
0.0
 11
46.6094631088
 21
90.8208686969
 31
0.0
  0
LINE
  5
187
330
1F
100
AcDbEntity
  8
0
  6
Continuous
 62
     7
370
    15
100
AcDbLine
 10
46.6094631088
 20
120.6116256476
 30
0.0
 11
40.6094631088
 21
120.6116256476
 31
0.0
  0
LINE
  5
188
330
1F
100
AcDbEntity
  8
0
  6
Continuous
 62
     7
370
    15
100
AcDbLine
 10
40.6094631088
 20
90.8208686969
 30
0.0
 11
40.6094631088
 21
120.6116256476
 31
0.0
  0
LINE
  5
189
330
1F
100
AcDbEntity
  8
0
  6
Continuous
 62
     7
370
    15
100
AcDbLine
 10
46.6094631088
 20
90.8208686969
 30
0.0
 11
46.6094631088
 21
120.6116256476
 31
0.0
  0
LINE
  5
18A
330
1F
100
AcDbEntity
  8
0
  6
Continuous
 62
     7
370
    15
100
AcDbLine
 10
44.6094631088
 20
134.6428601512
 30
0.0
 11
44.6094631088
 21
134.7770407791
 31
0.0
  0
LINE
  5
18B
330
1F
100
AcDbEntity
  8
0
  6
Continuous
 62
     7
370
    15
100
AcDbLine
 10
44.6094631088
 20
134.6428601512
 30
0.0
 11
42.6094631088
 21
134.6428601512
 31
0.0
  0
LINE
  5
18C
330
1F
100
AcDbEntity
  8
0
  6
Continuous
 62
     7
370
    15
100
AcDbLine
 10
42.6094631088
 20
134.7770407791
 30
0.0
 11
42.6094631088
 21
134.6428601512
 31
0.0
  0
LINE
  5
18D
330
1F
100
AcDbEntity
  8
0
  6
Continuous
 62
     7
370
    15
100
AcDbLine
 10
44.6094631088
 20
134.7770407791
 30
0.0
 11
42.6094631088
 21
134.7770407791
 31
0.0
  0
ARC
  5
18E
330
1F
100
AcDbEntity
  8
0
  6
Continuous
 62
     7
370
    15
100
AcDbCircle
 10
42.553199231
 20
132.833201408
 30
0.0
 40
1.944653471554661
100
AcDbArc
 50
88.3420528593
 51
178.2400473726
  0
ARC
  5
18F
330
1F
100
AcDbEntity
  8
0
  6
Continuous
 62
     7
370
    15
100
AcDbCircle
 10
42.553199231
 20
132.6990207801
 30
0.0
 40
1.944653471554597
100
AcDbArc
 50
88.3420528593
 51
178.2400473726
  0
LINE
  5
190
330
1F
100
AcDbEntity
  8
0
  6
Continuous
 62
     7
370
    15
100
AcDbLine
 10
40.6094631088
 20
132.7587452456
 30
0.0
 11
40.6094631088
 21
132.8929258735
 31
0.0
  0
ARC
  5
191
330
1F
100
AcDbEntity
  8
0
  6
Continuous
 62
     7
370
    15
100
AcDbCircle
 10
44.6657269866
 20
132.833201408
 30
0.0
 40
1.944653471554582
100
AcDbArc
 50
1.7599526274
 51
91.6579471407
  0
ARC
  5
192
330
1F
100
AcDbEntity
  8
0
  6
Continuous
 62
     7
370
    15
100
AcDbCircle
 10
44.6657269866
 20
132.6990207801
 30
0.0
 40
1.944653471554633
100
AcDbArc
 50
1.7599526274
 51
91.6579471407
  0
LINE
  5
193
330
1F
100
AcDbEntity
  8
0
  6
Continuous
 62
     7
370
    15
100
AcDbLine
 10
46.6094631088
 20
132.8929258735
 30
0.0
 11
46.6094631088
 21
132.7587452456
 31
0.0
  0
LINE
  5
194
330
1F
100
AcDbEntity
  8
0
  6
Continuous
 62
     7
370
    15
100
AcDbLine
 10
46.6094631088
 20
120.7868680847
 30
0.0
 11
40.6094631088
 21
120.7868680847
 31
0.0
  0
LINE
  5
195
330
1F
100
AcDbEntity
  8
0
  6
Continuous
 62
     7
370
    15
100
AcDbLine
 10
40.6094631088
 20
120.7868680847
 30
0.0
 11
40.6094631088
 21
132.7587452456
 31
0.0
  0
LINE
  5
196
330
1F
100
AcDbEntity
  8
0
  6
Continuous
 62
     7
370
    15
100
AcDbLine
 10
46.6094631088
 20
120.7868680847
 30
0.0
 11
46.6094631088
 21
132.7587452456
 31
0.0
  0
LINE
  5
197
330
1F
100
AcDbEntity
  8
0
  6
Continuous
 62
     7
370
    15
100
AcDbLine
 10
40.6094631088
 20
120.6116256476
 30
0.0
 11
40.6094631088
 21
120.7868680847
 31
0.0
  0
LINE
  5
198
330
1F
100
AcDbEntity
  8
0
  6
Continuous
 62
     7
370
    15
100
AcDbLine
 10
46.6094631088
 20
120.6116256476
 30
0.0
 11
46.6094631088
 21
120.7868680847
 31
0.0
  0
LINE
  5
199
330
1F
100
AcDbEntity
  8
0
  6
Continuous
 62
     7
370
    15
100
AcDbLine
 10
91.1094631088
 20
90.8208686969
 30
0.0
 11
85.1094631088
 21
90.8208686969
 31
0.0
  0
LINE
  5
19A
330
1F
100
AcDbEntity
  8
0
  6
Continuous
 62
     7
370
    15
100
AcDbLine
 10
91.1094631088
 20
90.6467857759
 30
0.0
 11
85.1094631088
 21
90.6467857759
 31
0.0
  0
LINE
  5
19B
330
1F
100
AcDbEntity
  8
0
  6
Continuous
 62
     7
370
    15
100
AcDbLine
 10
85.1094631088
 20
90.6467857759
 30
0.0
 11
85.1094631088
 21
90.8208686969
 31
0.0
  0
LINE
  5
19C
330
1F
100
AcDbEntity
  8
0
  6
Continuous
 62
     7
370
    15
100
AcDbLine
 10
91.1094631088
 20
90.6467857759
 30
0.0
 11
91.1094631088
 21
90.8208686969
 31
0.0
  0
LINE
  5
19D
330
1F
100
AcDbEntity
  8
0
  6
Continuous
 62
     7
370
    15
100
AcDbLine
 10
85.1094631088
 20
67.7099504651
 30
0.0
 11
85.1094631088
 21
90.6467857759
 31
0.0
  0
LINE
  5
19E
330
1F
100
AcDbEntity
  8
0
  6
Continuous
 62
     7
370
    15
100
AcDbLine
 10
91.1094631088
 20
67.7099504651
 30
0.0
 11
85.1094631088
 21
67.7099504651
 31
0.0
  0
LINE
  5
19F
330
1F
100
AcDbEntity
  8
0
  6
Continuous
 62
     7
370
    15
100
AcDbLine
 10
91.1094631088
 20
67.7099504651
 30
0.0
 11
91.1094631088
 21
90.6467857759
 31
0.0
  0
LINE
  5
1A0
330
1F
100
AcDbEntity
  8
0
  6
Continuous
 62
     7
370
    15
100
AcDbLine
 10
91.1094631088
 20
120.6116256476
 30
0.0
 11
85.1094631088
 21
120.6116256476
 31
0.0
  0
LINE
  5
1A1
330
1F
100
AcDbEntity
  8
0
  6
Continuous
 62
     7
370
    15
100
AcDbLine
 10
85.1094631088
 20
90.8208686969
 30
0.0
 11
85.1094631088
 21
120.6116256476
 31
0.0
  0
LINE
  5
1A2
330
1F
100
AcDbEntity
  8
0
  6
Continuous
 62
     7
370
    15
100
AcDbLine
 10
91.1094631088
 20
90.8208686969
 30
0.0
 11
91.1094631088
 21
120.6116256476
 31
0.0
  0
ARC
  5
1A3
330
1F
100
AcDbEntity
  8
0
  6
Continuous
 62
     7
370
    15
100
AcDbCircle
 10
89.1657269866
 20
132.6990207801
 30
0.0
 40
1.944653471554605
100
AcDbArc
 50
1.7599526274
 51
91.6579471407
  0
LINE
  5
1A4
330
1F
100
AcDbEntity
  8
0
  6
Continuous
 62
     7
370
    15
100
AcDbLine
 10
91.1094631088
 20
120.7868680847
 30
0.0
 11
85.1094631088
 21
120.7868680847
 31
0.0
  0
ARC
  5
1A5
330
1F
100
AcDbEntity
  8
0
  6
Continuous
 62
     7
370
    15
100
AcDbCircle
 10
87.053199231
 20
132.6990207801
 30
0.0
 40
1.944653471554606
100
AcDbArc
 50
88.3420528593
 51
178.2400473726
  0
LINE
  5
1A6
330
1F
100
AcDbEntity
  8
0
  6
Continuous
 62
     7
370
    15
100
AcDbLine
 10
89.1094631088
 20
134.6428601512
 30
0.0
 11
87.1094631088
 21
134.6428601512
 31
0.0
  0
LINE
  5
1A7
330
1F
100
AcDbEntity
  8
0
  6
Continuous
 62
     7
370
    15
100
AcDbLine
 10
85.1094631088
 20
120.7868680847
 30
0.0
 11
85.1094631088
 21
132.7587452456
 31
0.0
  0
LINE
  5
1A8
330
1F
100
AcDbEntity
  8
0
  6
Continuous
 62
     7
370
    15
100
AcDbLine
 10
91.1094631088
 20
120.7868680847
 30
0.0
 11
91.1094631088
 21
132.7587452456
 31
0.0
  0
LINE
  5
1A9
330
1F
100
AcDbEntity
  8
0
  6
Continuous
 62
     7
370
    15
100
AcDbLine
 10
89.1094631088
 20
134.6428601512
 30
0.0
 11
89.1094631088
 21
134.7770407791
 31
0.0
  0
ARC
  5
1AA
330
1F
100
AcDbEntity
  8
0
  6
Continuous
 62
     7
370
    15
100
AcDbCircle
 10
89.1657269866
 20
132.833201408
 30
0.0
 40
1.944653471554582
100
AcDbArc
 50
1.7599526274
 51
91.6579471407
  0
LINE
  5
1AB
330
1F
100
AcDbEntity
  8
0
  6
Continuous
 62
     7
370
    15
100
AcDbLine
 10
91.1094631088
 20
132.8929258735
 30
0.0
 11
91.1094631088
 21
132.7587452456
 31
0.0
  0
LINE
  5
1AC
330
1F
100
AcDbEntity
  8
0
  6
Continuous
 62
     7
370
    15
100
AcDbLine
 10
87.1094631088
 20
134.7770407791
 30
0.0
 11
87.1094631088
 21
134.6428601512
 31
0.0
  0
LINE
  5
1AD
330
1F
100
AcDbEntity
  8
0
  6
Continuous
 62
     7
370
    15
100
AcDbLine
 10
89.1094631088
 20
134.7770407791
 30
0.0
 11
87.1094631088
 21
134.7770407791
 31
0.0
  0
ARC
  5
1AE
330
1F
100
AcDbEntity
  8
0
  6
Continuous
 62
     7
370
    15
100
AcDbCircle
 10
87.053199231
 20
132.833201408
 30
0.0
 40
1.944653471554662
100
AcDbArc
 50
88.3420528593
 51
178.2400473726
  0
LINE
  5
1AF
330
1F
100
AcDbEntity
  8
0
  6
Continuous
 62
     7
370
    15
100
AcDbLine
 10
85.1094631088
 20
132.7587452456
 30
0.0
 11
85.1094631088
 21
132.8929258735
 31
0.0
  0
LINE
  5
1B0
330
1F
100
AcDbEntity
  8
0
  6
Continuous
 62
     7
370
    15
100
AcDbLine
 10
85.1094631088
 20
120.6116256476
 30
0.0
 11
85.1094631088
 21
120.7868680847
 31
0.0
  0
LINE
  5
1B1
330
1F
100
AcDbEntity
  8
0
  6
Continuous
 62
     7
370
    15
100
AcDbLine
 10
91.1094631088
 20
120.6116256476
 30
0.0
 11
91.1094631088
 21
120.7868680847
 31
0.0
  0
LINE
  5
1B2
330
1F
100
AcDbEntity
  8
0
  6
Continuous
 62
     7
370
    15
100
AcDbLine
 10
39.1094631088
 20
128.7099504651
 30
0.0
 11
39.1094631088
 21
63.7099504651
 31
0.0
  0
ARC
  5
1B3
330
1F
100
AcDbEntity
  8
0
  6
Continuous
 62
     7
370
    15
100
AcDbCircle
 10
41.6094631088
 20
87.2099504651
 30
0.0
 40
1.500000000000014
100
AcDbArc
 50
180.0
 51
228.1896851042
  0
ARC
  5
1B4
330
1F
100
AcDbEntity
  8
0
  6
Continuous
 62
     7
370
    15
100
AcDbCircle
 10
66.1094631088
 20
104.1099504651
 30
0.0
 40
25.39999999999999
100
AcDbArc
 50
221.7095144213
 51
318.2904855787
  0
LINE
  5
1B5
330
1F
100
AcDbEntity
  8
0
  6
Continuous
 62
     7
370
    15
100
AcDbLine
 10
39.1094631088
 20
63.7099504651
 30
0.0
 11
91.1094631088
 21
63.7099504651
 31
0.0
  0
LINE
  5
1B6
330
1F
100
AcDbEntity
  8
0
  6
Continuous
 62
     7
370
    15
100
AcDbLine
 10
47.1476593971
 20
87.2099504651
 30
0.0
 11
46.6094631088
 21
87.2099504651
 31
0.0
  0
LINE
  5
1B7
330
1F
100
AcDbEntity
  8
0
  6
Continuous
 62
     7
370
    15
100
AcDbLine
 10
91.1094631088
 20
67.7099504651
 30
0.0
 11
91.1094631088
 21
63.7099504651
 31
0.0
  0
LINE
  5
1B8
330
1F
100
AcDbEntity
  8
0
  6
Continuous
 62
     7
370
    15
100
AcDbLine
 10
40.1094631088
 20
128.7099504651
 30
0.0
 11
40.1094631088
 21
87.2099504651
 31
0.0
  0
LINE
  5
1B9
330
1F
100
AcDbEntity
  8
0
  6
Continuous
 62
     7
370
    15
100
AcDbLine
 10
85.0712668205
 20
87.2099504651
 30
0.0
 11
85.1094631088
 21
87.2099504651
 31
0.0
  0
LINE
  5
1BA
330
1F
100
AcDbEntity
  8
0
  6
Continuous
 62
     7
370
    15
100
AcDbLine
 10
39.1094631088
 20
128.7099504651
 30
0.0
 11
40.1094631088
 21
128.7099504651
 31
0.0
  0
LINE
  5
1BB
330
1F
100
AcDbEntity
  8
0
  6
Continuous
 62
     7
370
    15
100
AcDbLine
 10
47.1094631088
 20
128.7099504651
 30
0.0
 11
47.1094631088
 21
91.7099504651
 31
0.0
  0
ARC
  5
1BC
330
1F
100
AcDbEntity
  8
0
  6
Continuous
 62
     7
370
    15
100
AcDbCircle
 10
50.1094631088
 20
91.7099504651
 30
0.0
 40
3.0
100
AcDbArc
 50
180.0
 51
270.0
  0
LINE
  5
1BD
330
1F
100
AcDbEntity
  8
0
  6
Continuous
 62
     7
370
    15
100
AcDbLine
 10
50.1094631088
 20
88.7099504651
 30
0.0
 11
56.790664903
 21
88.7099504651
 31
0.0
  0
ARC
  5
1BE
330
1F
100
AcDbEntity
  8
0
  6
Continuous
 62
     7
370
    15
100
AcDbCircle
 10
66.1094631088
 20
104.1099504651
 30
0.0
 40
17.99999999999999
100
AcDbArc
 50
238.8211644613
 51
301.1788355387
  0
LINE
  5
1BF
330
1F
100
AcDbEntity
  8
0
  6
Continuous
 62
     7
370
    15
100
AcDbLine
 10
75.4282613146
 20
88.7099504651
 30
0.0
 11
82.1094631088
 21
88.7099504651
 31
0.0
  0
ARC
  5
1C0
330
1F
100
AcDbEntity
  8
0
  6
Continuous
 62
     7
370
    15
100
AcDbCircle
 10
82.1094631088
 20
91.7099504651
 30
0.0
 40
3.0
100
AcDbArc
 50
270.0
 51
0.0
  0
LINE
  5
1C1
330
1F
100
AcDbEntity
  8
0
  6
Continuous
 62
     7
370
    15
100
AcDbLine
 10
40.1094631088
 20
128.7099504651
 30
0.0
 11
40.6094631088
 21
128.7099504651
 31
0.0
  0
LINE
  5
1C2
330
1F
100
AcDbEntity
  8
0
  6
Continuous
 62
     7
370
    15
100
AcDbLine
 10
46.6094631088
 20
128.7099504651
 30
0.0
 11
47.1094631088
 21
128.7099504651
 31
0.0
  0
DIMENSION
  5
1C3
330
1F
100
AcDbEntity
  8
DIM
100
AcDbDimension
  2
_D_4
 10
106.0645264943
 20
63.7099504651
 30
0.0
 11
106.0645264943
 21
99.1764053081
 31
0.0
 70
   160
  1
71
 71
     2
 42
-1.0
  3
SLDDIMSTYLE0
100
AcDbAlignedDimension
 13
89.1094631088
 23
134.6428601512
 33
0.0
 14
91.1094631088
 24
63.7099504651
 34
0.0
 50
90.0
100
AcDbRotatedDimension
  0
DIMENSION
  5
1CD
330
1F
100
AcDbEntity
  8
DIM
 62
     7
100
AcDbDimension
  2
_D_5
 10
91.1094631088
 20
146.9046882352
 30
0.0
 11
65.1094631088
 21
146.9046882352
 31
0.0
 70
   160
  1
<>
 71
     2
 42
-1.0
  3
SLDDIMSTYLE0
100
AcDbAlignedDimension
 13
39.1094631088
 23
128.7099504651
 33
0.0
 14
91.1094631088
 24
132.7587452456
 34
0.0
100
AcDbRotatedDimension
  0
DIMENSION
  5
1D7
330
1F
100
AcDbEntity
  8
DIM
 62
     7
100
AcDbDimension
  2
_D_6
 10
85.1094631088
 20
140.8131491098
 30
0.0
 11
66.1094631088
 21
140.8131491098
 31
0.0
 70
   160
  1
<>
 71
     2
 42
-1.0
  3
SLDDIMSTYLE0
100
AcDbAlignedDimension
 13
47.1094631088
 23
128.7099504651
 33
0.0
 14
85.1094631088
 24
132.7587452456
 34
0.0
100
AcDbRotatedDimension
  0
DIMENSION
  5
1E1
330
1F
100
AcDbEntity
  8
DIM
 62
     7
100
AcDbDimension
  2
_D_7
 10
98.2076107658
 20
128.7099504651
 30
0.0
 11
98.2076107658
 21
108.7099504651
 31
0.0
 70
   160
  1
<>
 71
     2
 42
-1.0
  3
SLDDIMSTYLE0
100
AcDbAlignedDimension
 13
82.1094631088
 23
88.7099504651
 33
0.0
 14
47.1094631088
 24
128.7099504651
 34
0.0
 50
90.0
100
AcDbRotatedDimension
  0
DIMENSION
  5
1EB
330
1F
100
AcDbEntity
  8
DIM
 62
     7
100
AcDbDimension
  2
_D_8
 10
66.1094631088
 20
104.1099504651
 30
0.0
 11
63.7716198812
 21
95.4189051617
 31
0.0
 70
   164
  1
<>
 71
     1
 42
-1.0
  3
SLDDIMSTYLE2
100
AcDbRadialDimension
 15
61.4337566535
 25
86.7278398584
 35
0.0
 40
0.0
  0
DIMENSION
  5
1F3
330
1F
100
AcDbEntity
  8
DIM
 62
     7
100
AcDbDimension
  2
_D_9
 10
66.1094631088
 20
104.1099504651
 30
0.0
 11
70.3287557415
 21
92.1313272348
 31
0.0
 70
   164
  1
<>
 71
     1
 42
-1.0
  3
SLDDIMSTYLE2
100
AcDbRadialDimension
 15
74.5480283742
 25
80.1526840045
 35
0.0
 40
0.0
  0
INSERT
  5
205
330
1F
100
AcDbEntity
  8
DIM
 62
     7
100
AcDbBlockReference
  2
SW_CENTERMARKSYMBOL_0
 10
66.1094631088
 20
104.1099504651
 30
0.0
  0
SPLINE
  5
206
330
1F
100
AcDbEntity
  8
0
  6
Continuous
 62
     7
370
    15
100
AcDbSpline
210
0.0
220
0.0
230
1.0
 70
     8
 71
     3
 72
    13
 73
     9
 74
     0
 42
0.000000001
 43
0.00000001
 40
0.0
 40
0.0
 40
0.0
 40
0.0
 40
0.2444104256842468
 40
0.346839980324315
 40
0.5180032821479607
 40
0.6995563522512399
 40
0.8976399701151047
 40
1.0
 40
1.0
 40
1.0
 40
1.0
 10
237.996292903065
 20
111.087886223267
 30
0.0
 10
238.1592791972785
 20
110.9863561423377
 30
0.0
 10
238.3905711436832
 20
110.8422759903831
 30
0.0
 10
238.7706618170911
 20
110.6987219715406
 30
0.0
 10
239.1163849437444
 20
110.6075058715407
 30
0.0
 10
239.5460393521568
 20
110.5640577421476
 30
0.0
 10
239.9267026822884
 20
110.5726274360219
 30
0.0
 10
240.1552567248428
 20
110.6294719951615
 30
0.0
 10
240.2331242344457
 20
110.6488387243832
 30
0.0
  0
SPLINE
  5
207
330
1F
100
AcDbEntity
  8
0
  6
Continuous
 62
     7
370
    15
100
AcDbSpline
210
0.0
220
0.0
230
1.0
 70
     8
 71
     3
 72
    10
 73
     6
 74
     0
 42
0.000000001
 43
0.00000001
 40
0.0
 40
0.0
 40
0.0
 40
0.0
 40
0.209223468624193
 40
0.7013877728077836
 40
1.0
 40
1.0
 40
1.0
 40
1.0
 10
237.4191078748254
 20
111.6360185245278
 30
0.0
 10
237.4533320649981
 20
111.5920302452789
 30
0.0
 10
237.5680631163432
 20
111.4445666676272
 30
0.0
 10
237.7637651771285
 20
111.2611837187131
 30
0.0
 10
237.9325547548789
 20
111.1353887797924
 30
0.0
 10
237.996292903065
 20
111.087886223267
 30
0.0
  0
SPLINE
  5
208
330
1F
100
AcDbEntity
  8
0
  6
Continuous
 62
     7
370
    15
100
AcDbSpline
210
0.0
220
0.0
230
1.0
 70
     8
 71
     3
 72
    15
 73
    11
 74
     0
 42
0.000000001
 43
0.00000001
 40
0.0
 40
0.0
 40
0.0
 40
0.0
 40
0.0334586894586711
 40
0.1944033445780966
 40
0.3594593610976953
 40
0.5295699689990887
 40
0.6824449803099657
 40
0.8336097264511193
 40
0.9796281141994959
 40
0.9999999999999999
 40
0.9999999999999999
 40
0.9999999999999999
 40
0.9999999999999999
 10
237.5412277478264
 20
115.3155313617522
 30
0.0
 10
237.5128511752603
 20
115.288610983094
 30
0.0
 10
237.3479761994689
 20
115.1321968577015
 30
0.0
 10
237.124052770652
 20
114.7690258233038
 30
0.0
 10
236.8921367441218
 20
114.2365934468365
 30
0.0
 10
236.785142780126
 20
113.6714776819311
 30
0.0
 10
236.788434440558
 20
113.1140085230486
 30
0.0
 10
236.8971602420432
 20
112.598409493256
 30
0.0
 10
237.022790154737
 20
112.2445920047688
 30
0.0
 10
237.1250028360152
 20
112.0792219046596
 30
0.0
 10
237.1375171797082
 20
112.058974923136
 30
0.0
  0
LINE
  5
209
330
1F
100
AcDbEntity
  8
0
  6
Continuous
 62
     7
370
    15
100
AcDbLine
 10
237.1826756525
 20
103.8257539658
 30
0.0
 11
237.2955892762
 21
103.652352297
 31
0.0
  0
SPLINE
  5
20A
330
1F
100
AcDbEntity
  8
0
  6
Continuous
 62
     7
370
    15
100
AcDbSpline
210
0.0
220
0.0
230
1.0
 70
     8
 71
     3
 72
    13
 73
     9
 74
     0
 42
0.000000001
 43
0.00000001
 40
0.0
 40
0.0
 40
0.0
 40
0.0
 40
0.1607044980487306
 40
0.3482645949527879
 40
0.5371824496909517
 40
0.729730652083188
 40
0.9026549702616636
 40
1.0
 40
1.0
 40
1.0
 40
1.0
 10
237.4746379848302
 20
103.406817593964
 30
0.0
 10
237.5854277061656
 20
103.2853359915947
 30
0.0
 10
237.8255214054354
 20
103.0220717920415
 30
0.0
 10
238.2905523893031
 20
102.7213327533971
 30
0.0
 10
238.8301965235651
 20
102.4990606491973
 30
0.0
 10
239.3905770222131
 20
102.3999942909712
 30
0.0
 10
239.8666497330178
 20
102.4015429426061
 30
0.0
 10
240.1369093650928
 20
102.4574783895295
 30
0.0
 10
240.2342508954002
 20
102.4776250979378
 30
0.0
  0
SPLINE
  5
20B
330
1F
100
AcDbEntity
  8
0
  6
Continuous
 62
     7
370
    15
100
AcDbSpline
210
0.0
220
0.0
230
1.0
 70
     8
 71
     3
 72
    14
 73
    10
 74
     0
 42
0.000000001
 43
0.00000001
 40
0.0
 40
0.0
 40
0.0
 40
0.0
 40
0.0302990894335552
 40
0.2110900386455535
 40
0.3987940358167491
 40
0.5891669932332521
 40
0.7807404262815629
 40
0.9729504120065033
 40
1.0
 40
1.0
 40
1.0
 40
1.0
 10
237.5390127896486
 20
107.1513874212937
 30
0.0
 10
237.5173975754347
 20
107.1307614359921
 30
0.0
 10
237.3668070300072
 20
106.987062727027
 30
0.0
 10
237.1518939446829
 20
106.6510460707829
 30
0.0
 10
236.9201482530823
 20
106.1506959403097
 30
0.0
 10
236.7933123833828
 20
105.597696151624
 30
0.0
 10
236.7865582071519
 20
105.0316476200263
 30
0.0
 10
236.8356918681775
 20
104.622236248386
 30
0.0
 10
236.9172748174014
 20
104.4219990595508
 30
0.0
 10
236.9273395325989
 20
104.3972962227847
 30
0.0
  0
LINE
  5
20C
330
1F
100
AcDbEntity
  8
0
  6
Continuous
 62
     7
370
    15
100
AcDbLine
 10
237.1269077364
 20
103.9113968615
 30
0.0
 11
237.1826756525
 21
103.8257539658
 31
0.0
  0
SPLINE
  5
20D
330
1F
100
AcDbEntity
  8
0
  6
Continuous
 62
     7
370
    15
100
AcDbSpline
210
0.0
220
0.0
230
1.0
 70
     8
 71
     3
 72
     9
 73
     5
 74
     0
 42
0.000000001
 43
0.00000001
 40
0.0
 40
0.0
 40
0.0
 40
0.0
 40
0.1989808920592178
 40
1.0
 40
1.0
 40
1.0
 40
1.0
 10
206.0706279859131
 20
133.4819498674351
 30
0.0
 10
206.0421638951341
 20
133.4527748768491
 30
0.0
 10
205.8991145275066
 20
133.306152805332
 30
0.0
 10
205.7912368037935
 20
133.1308328911972
 30
0.0
 10
205.7048246857782
 20
132.9903982899727
 30
0.0
  0
LINE
  5
20E
330
1F
100
AcDbEntity
  8
0
  6
Continuous
 62
     7
370
    15
100
AcDbLine
 10
205.7145861592
 20
130.1637686588
 30
0.0
 11
205.7805189569
 21
130.0508174627
 31
0.0
  0
SPLINE
  5
20F
330
1F
100
AcDbEntity
  8
0
  6
Continuous
 62
     7
370
    15
100
AcDbSpline
210
0.0
220
0.0
230
1.0
 70
     8
 71
     3
 72
    13
 73
     9
 74
     0
 42
0.000000001
 43
0.00000001
 40
0.0
 40
0.0
 40
0.0
 40
0.0
 40
0.0713236215488846
 40
0.2610890205438519
 40
0.4535304788116132
 40
0.6487141120594364
 40
0.8474800148909329
 40
1.0
 40
1.0
 40
1.0
 40
1.0
 10
206.0831770579326
 20
129.6615267574747
 30
0.0
 10
206.1283817757001
 20
129.6075783423287
 30
0.0
 10
206.2938592883331
 20
129.4100934339001
 30
0.0
 10
206.6632082571087
 20
129.1478042148527
 30
0.0
 10
207.1738056916119
 20
128.8922005491049
 30
0.0
 10
207.73786200501
 20
128.7508373907301
 30
0.0
 10
208.2810975433979
 20
128.7170759589178
 30
0.0
 10
208.6219538941202
 20
128.7823339388707
 30
0.0
 10
208.7699456220011
 20
128.8106674030727
 30
0.0
  0
SPLINE
  5
210
330
1F
100
AcDbEntity
  8
0
  6
Continuous
 62
     7
370
    15
100
AcDbSpline
210
0.0
220
0.0
230
1.0
 70
     8
 71
     3
 72
    13
 73
     9
 74
     0
 42
0.000000001
 43
0.00000001
 40
0.0
 40
0.0
 40
0.0
 40
0.0
 40
0.249306864382804
 40
0.3541880044462826
 40
0.5312509316071307
 40
0.7217796228322929
 40
0.9302323388947193
 40
1.0
 40
1.0
 40
1.0
 40
1.0
 10
205.7048246857782
 20
132.9903982899727
 30
0.0
 10
205.6163964127649
 20
132.8149037300926
 30
0.0
 10
205.4907671661224
 20
132.5655801981913
 30
0.0
 10
205.3809123977494
 20
132.1622830173526
 30
0.0
 10
205.3215854914895
 20
131.7945010569367
 30
0.0
 10
205.3249345228157
 20
131.3417183714072
 30
0.0
 10
205.3715026954504
 20
130.972240159749
 30
0.0
 10
205.4488409274634
 20
130.7676777221104
 30
0.0
 10
205.4682345736676
 20
130.7163808222595
 30
0.0
  0
LINE
  5
211
330
1F
100
AcDbEntity
  8
0
  6
Continuous
 62
     7
370
    15
100
AcDbLine
 10
205.6530182704
 20
130.2692422156
 30
0.0
 11
205.7145861592
 21
130.1637686588
 31
0.0
  0
SPLINE
  5
212
330
1F
100
AcDbEntity
  8
0
  6
Continuous
 62
     7
370
    15
100
AcDbSpline
210
0.0
220
0.0
230
1.0
 70
     8
 71
     3
 72
    13
 73
     9
 74
     0
 42
0.000000001
 43
0.00000001
 40
0.0
 40
0.0
 40
0.0
 40
0.0
 40
0.2444104256842452
 40
0.3468399803243135
 40
0.5180032821479607
 40
0.6995563522512397
 40
0.897639970115102
 40
1.0
 40
1.0
 40
1.0
 40
1.0
 10
206.5300411402637
 20
121.0875585924648
 30
0.0
 10
206.6930274344772
 20
120.9860285115355
 30
0.0
 10
206.9243193808819
 20
120.8419483595809
 30
0.0
 10
207.3044100542898
 20
120.6983943407384
 30
0.0
 10
207.6501331809431
 20
120.6071782407385
 30
0.0
 10
208.0797875893555
 20
120.5637301113454
 30
0.0
 10
208.4604509194871
 20
120.5722998052197
 30
0.0
 10
208.6890049620415
 20
120.6291443643593
 30
0.0
 10
208.7668724716443
 20
120.648511093581
 30
0.0
  0
SPLINE
  5
213
330
1F
100
AcDbEntity
  8
0
  6
Continuous
 62
     7
370
    15
100
AcDbSpline
210
0.0
220
0.0
230
1.0
 70
     8
 71
     3
 72
    10
 73
     6
 74
     0
 42
0.000000001
 43
0.00000001
 40
0.0
 40
0.0
 40
0.0
 40
0.0
 40
0.2092234686241823
 40
0.7013877728077896
 40
1.0
 40
1.0
 40
1.0
 40
1.0
 10
205.9528561120241
 20
121.6356908937256
 30
0.0
 10
205.9870803021967
 20
121.5917026144767
 30
0.0
 10
206.1018113535419
 20
121.444239036825
 30
0.0
 10
206.2975134143271
 20
121.2608560879109
 30
0.0
 10
206.4663029920776
 20
121.1350611489902
 30
0.0
 10
206.5300411402637
 20
121.0875585924648
 30
0.0
  0
SPLINE
  5
214
330
1F
100
AcDbEntity
  8
0
  6
Continuous
 62
     7
370
    15
100
AcDbSpline
210
0.0
220
0.0
230
1.0
 70
     8
 71
     3
 72
    15
 73
    11
 74
     0
 42
0.000000001
 43
0.00000001
 40
0.0
 40
0.0
 40
0.0
 40
0.0
 40
0.033458689458667
 40
0.1944033445780914
 40
0.3594593610976879
 40
0.5295699689990783
 40
0.6824449803099543
 40
0.8336097264511071
 40
0.9796281141994825
 40
1.0
 40
1.0
 40
1.0
 40
1.0
 10
206.0749759850251
 20
125.31520373095
 30
0.0
 10
206.046599412459
 20
125.2882833522918
 30
0.0
 10
205.8817244366676
 20
125.1318692268993
 30
0.0
 10
205.6578010078507
 20
124.7686981925016
 30
0.0
 10
205.4258849813205
 20
124.2362658160343
 30
0.0
 10
205.3188910173246
 20
123.6711500511289
 30
0.0
 10
205.3221826777567
 20
123.1136808922464
 30
0.0
 10
205.4309084792419
 20
122.5980818624539
 30
0.0
 10
205.5565383919357
 20
122.2442643739666
 30
0.0
 10
205.6587510732139
 20
122.0788942738574
 30
0.0
 10
205.6712654169069
 20
122.0586472923338
 30
0.0
  0
LINE
  5
215
330
1F
100
AcDbEntity
  8
0
  6
Continuous
 62
     7
370
    15
100
AcDbLine
 10
208.2294463833
 20
174.8229601021
 30
0.0
 11
207.962992298
 21
174.559575474
 31
0.0
  0
LINE
  5
216
330
1F
100
AcDbEntity
  8
0
  6
Continuous
 62
     7
370
    15
100
AcDbLine
 10
239.6956981461
 20
156.657879614
 30
0.0
 11
239.4292440608
 21
156.3944949859
 31
0.0
  0
SPLINE
  5
217
330
1F
100
AcDbEntity
  8
0
  6
Continuous
 62
     7
370
    15
100
AcDbSpline
210
0.0
220
0.0
230
1.0
 70
     8
 71
     3
 72
    18
 73
    14
 74
     0
 42
0.000000001
 43
0.00000001
 40
0.0
 40
0.0
 40
0.0
 40
0.0
 40
0.0692164424092892
 40
0.1655156475627919
 40
0.2618148527162955
 40
0.3581140578697973
 40
0.4544132630232988
 40
0.5507124681768022
 40
0.6470116733303061
 40
0.743310878483809
 40
0.8396100836373125
 40
0.9359092887908156
 40
1.0
 40
1.0
 40
1.0
 40
1.0
 10
237.556347531588
 20
115.3000633718395
 30
0.0
 10
237.6477849899368
 20
115.3955672213618
 30
0.0
 10
237.86643722925
 20
115.6239433260588
 30
0.0
 10
238.3958518480987
 20
115.6709422762089
 30
0.0
 10
239.0406446409098
 20
115.4686383559223
 30
0.0
 10
239.7026238224537
 20
114.9933810437164
 30
0.0
 10
240.299283941767
 20
114.3099632762963
 30
0.0
 10
240.765577734088
 20
113.4921871715136
 30
0.0
 10
241.0479198811017
 20
112.6340317065168
 30
0.0
 10
241.1163137316343
 20
111.8283717522573
 30
0.0
 10
240.9567214917915
 20
111.1797610241123
 30
0.0
 10
240.6491956340085
 20
110.7626519012429
 30
0.0
 10
240.3483633843521
 20
110.6973216458675
 30
0.0
 10
240.2281528794003
 20
110.6712161236162
 30
0.0
  0
SPLINE
  5
218
330
1F
100
AcDbEntity
  8
0
  6
Continuous
 62
     7
370
    15
100
AcDbSpline
210
0.0
220
0.0
230
1.0
 70
    11
 71
     3
 72
    26
 73
    22
 74
     0
 42
0.000000001
 43
0.00000001
 40
0.0
 40
0.0
 40
0.0
 40
0.0
 40
0.053688726933777
 40
0.1073774538675561
 40
0.1610661808014818
 40
0.2147549077353554
 40
0.2684436346692003
 40
0.3221323616030399
 40
0.3758210885368781
 40
0.4295098154707224
 40
0.4831985424045628
 40
0.5368872693383614
 40
0.5905759962721939
 40
0.644264723206119
 40
0.6979534501400071
 40
0.7516421770738588
 40
0.8053309040076986
 40
0.8590196309415371
 40
0.9127083578753794
 40
0.9663970848092152
 40
1.0
 40
1.0
 40
1.0
 40
1.0
 10
237.4057685923537
 20
111.6472636022241
 30
0.0
 10
237.3018468065857
 20
111.7932207345146
 30
0.0
 10
237.0940032350497
 20
112.0851349990956
 30
0.0
 10
236.8982527234252
 20
112.588697056383
 30
0.0
 10
236.818918552697
 20
113.0703474510193
 30
0.0
 10
236.8707509424001
 20
113.4840444999009
 30
0.0
 10
237.0463504994576
 20
113.7809335391538
 30
0.0
 10
237.3263365495751
 20
113.9281356757973
 30
0.0
 10
237.6790310990021
 20
113.9088960691187
 30
0.0
 10
238.0647004310661
 20
113.7254264105422
 30
0.0
 10
238.4398552714012
 20
113.3984001418909
 30
0.0
 10
238.7622017703509
 20
112.9646899041864
 30
0.0
 10
238.9953977371637
 20
112.4731929672549
 30
0.0
 10
239.1131503557202
 20
111.9793200501765
 30
0.0
 10
239.1021909390831
 20
111.5387591761362
 30
0.0
 10
238.9637287079321
 20
111.2011516811366
 30
0.0
 10
238.7134726825695
 20
111.0046668932709
 30
0.0
 10
238.3792698855569
 20
110.9710589662751
 30
0.0
 10
238.0001704766579
 20
111.1056023573728
 30
0.0
 10
237.661979978491
 20
111.3524199646194
 30
0.0
 10
237.4769831256666
 20
111.5653111473826
 30
0.0
 10
237.4057685923537
 20
111.6472636022241
 30
0.0
  0
LINE
  5
219
330
1F
100
AcDbEntity
  8
0
  6
Continuous
 62
     7
370
    15
100
AcDbLine
 10
237.2643472361
 20
113.3317666091
 30
0.0
 11
237.2643472361
 21
112.388906494
 31
0.0
  0
LINE
  5
21A
330
1F
100
AcDbEntity
  8
0
  6
Continuous
 62
     7
370
    15
100
AcDbLine
 10
237.2643472361
 20
112.388906494
 30
0.0
 11
237.9714540173
 21
111.5092723805
 31
0.0
  0
LINE
  5
21B
330
1F
100
AcDbEntity
  8
0
  6
Continuous
 62
     7
370
    15
100
AcDbLine
 10
237.9714540173
 20
111.5092723805
 30
0.0
 11
238.6785607985
 21
111.5724983821
 31
0.0
  0
LINE
  5
21C
330
1F
100
AcDbEntity
  8
0
  6
Continuous
 62
     7
370
    15
100
AcDbLine
 10
238.6785607985
 20
111.5724983821
 30
0.0
 11
238.6785607985
 21
112.5153584972
 31
0.0
  0
LINE
  5
21D
330
1F
100
AcDbEntity
  8
0
  6
Continuous
 62
     7
370
    15
100
AcDbLine
 10
238.6785607985
 20
112.5153584972
 30
0.0
 11
237.9714540173
 21
113.3949926107
 31
0.0
  0
LINE
  5
21E
330
1F
100
AcDbEntity
  8
0
  6
Continuous
 62
     7
370
    15
100
AcDbLine
 10
237.9714540173
 20
113.3949926107
 30
0.0
 11
237.2643472361
 21
113.3317666091
 31
0.0
  0
LINE
  5
21F
330
1F
100
AcDbEntity
  8
0
  6
Continuous
 62
     7
370
    15
100
AcDbLine
 10
238.0462148559
 20
113.3019908382
 30
0.0
 11
238.0462148559
 21
112.8402690634
 31
0.0
  0
LINE
  5
220
330
1F
100
AcDbEntity
  8
0
  6
Continuous
 62
     7
370
    15
100
AcDbLine
 10
238.046214856
 20
112.8402690633
 30
0.0
 11
238.6785607985
 21
112.0536367224
 31
0.0
  0
LINE
  5
221
330
1F
100
AcDbEntity
  8
0
  6
Continuous
 62
     7
370
    15
100
AcDbLine
 10
237.9714540173
 20
111.5092723805
 30
0.0
 11
238.6785607985
 21
111.9174764365
 31
0.0
  0
LINE
  5
222
330
1F
100
AcDbEntity
  8
0
  6
Continuous
 62
     7
370
    15
100
AcDbLine
 10
238.046214856
 20
112.8402690633
 30
0.0
 11
237.2643472361
 21
112.388906494
 31
0.0
  0
SPLINE
  5
223
330
1F
100
AcDbEntity
  8
0
  6
Continuous
 62
     7
370
    15
100
AcDbSpline
210
0.0
220
0.0
230
1.0
 70
     8
 71
     3
 72
    18
 73
    14
 74
     0
 42
0.000000001
 43
0.00000001
 40
0.0
 40
0.0
 40
0.0
 40
0.0
 40
0.059246472144745
 40
0.1555375091767986
 40
0.2518285462088543
 40
0.3481195832409105
 40
0.4444106202729656
 40
0.5407016573050212
 40
0.6369926943370764
 40
0.733283731369132
 40
0.8295747684011858
 40
0.9258658054332417
 40
0.9999999999999999
 40
0.9999999999999999
 40
0.9999999999999999
 40
0.9999999999999999
 10
237.5595461499535
 20
107.1303602605304
 30
0.0
 10
237.6344186095889
 20
107.2166378985395
 30
0.0
 10
237.8309784292044
 20
107.4431392990079
 30
0.0
 10
238.3327596422679
 20
107.5097756637051
 30
0.0
 10
238.971029400656
 20
107.3382743075959
 30
0.0
 10
239.6356868292723
 20
106.888074933548
 30
0.0
 10
240.2422131177588
 20
106.2234110819978
 30
0.0
 10
240.724889554943
 20
105.4154040655872
 30
0.0
 10
241.0282316536457
 20
104.5569315485136
 30
0.0
 10
241.1196428878425
 20
103.7414702797754
 30
0.0
 10
240.9834717365588
 20
103.0724143896289
 30
0.0
 10
240.6800554711363
 20
102.6202395270507
 30
0.0
 10
240.3665310093291
 20
102.5365700185139
 30
0.0
 10
240.2301493055461
 20
102.5001741658165
 30
0.0
  0
SPLINE
  5
224
330
1F
100
AcDbEntity
  8
0
  6
Continuous
 62
     7
370
    15
100
AcDbSpline
210
0.0
220
0.0
230
1.0
 70
    11
 71
     3
 72
    26
 73
    22
 74
     0
 42
0.000000001
 43
0.00000001
 40
0.0
 40
0.0
 40
0.0
 40
0.0
 40
0.053688726933777
 40
0.107377453867556
 40
0.161066180801482
 40
0.2147549077353555
 40
0.2684436346692002
 40
0.3221323616030398
 40
0.3758210885368781
 40
0.4295098154707224
 40
0.483198542404563
 40
0.5368872693383615
 40
0.5905759962721936
 40
0.644264723206119
 40
0.6979534501400071
 40
0.7516421770738589
 40
0.8053309040076987
 40
0.8590196309415368
 40
0.912708357875379
 40
0.966397084809215
 40
1.0
 40
1.0
 40
1.0
 40
1.0
 10
238.5371394422522
 20
102.8287289939085
 30
0.0
 10
238.4207087700411
 20
102.8349977560784
 30
0.0
 10
238.1878474256191
 20
102.8475352804182
 30
0.0
 10
237.7970697675902
 20
103.0726441509515
 30
0.0
 10
237.4305315748237
 20
103.422829553619
 30
0.0
 10
237.123751354476
 20
103.873574827958
 30
0.0
 10
236.9128719336041
 20
104.3700522488273
 30
0.0
 10
236.8212515233435
 20
104.8573621247336
 30
0.0
 10
236.8593313211138
 20
105.2802760922834
 30
0.0
 10
237.0227881977757
 20
105.5911909242103
 30
0.0
 10
237.2932016224765
 20
105.7550327454376
 30
0.0
 10
237.6400824854894
 20
105.7533348642359
 30
0.0
 10
238.0243227983584
 20
105.5862883671582
 30
0.0
 10
238.4026036379585
 20
105.272722595489
 30
0.0
 10
238.7322714820944
 20
104.8480055843748
 30
0.0
 10
238.9761784330398
 20
104.3599613470093
 30
0.0
 10
239.1067524556973
 20
103.8638357279785
 30
0.0
 10
239.1095461749858
 20
103.4147324993084
 30
0.0
 10
238.9832225749641
 20
103.0663845963526
 30
0.0
 10
238.7754411303415
 20
102.8739176467877
 30
0.0
 10
238.6033759345518
 20
102.8412892820141
 30
0.0
 10
238.5371394422522
 20
102.8287289939085
 30
0.0
  0
LINE
  5
225
330
1F
100
AcDbEntity
  8
0
  6
Continuous
 62
     7
370
    15
100
AcDbLine
 10
237.2643472361
 20
104.2234983751
 30
0.0
 11
237.9714540173
 21
103.3438642617
 31
0.0
  0
LINE
  5
226
330
1F
100
AcDbEntity
  8
0
  6
Continuous
 62
     7
370
    15
100
AcDbLine
 10
237.9714540173
 20
103.3438642617
 30
0.0
 11
238.6785607985
 21
103.4070902633
 31
0.0
  0
LINE
  5
227
330
1F
100
AcDbEntity
  8
0
  6
Continuous
 62
     7
370
    15
100
AcDbLine
 10
238.6785607985
 20
103.4070902633
 30
0.0
 11
238.6785607985
 21
104.3499503784
 31
0.0
  0
LINE
  5
228
330
1F
100
AcDbEntity
  8
0
  6
Continuous
 62
     7
370
    15
100
AcDbLine
 10
238.6785607985
 20
104.3499503784
 30
0.0
 11
237.9714540173
 21
105.2295844918
 31
0.0
  0
LINE
  5
229
330
1F
100
AcDbEntity
  8
0
  6
Continuous
 62
     7
370
    15
100
AcDbLine
 10
237.9714540173
 20
105.2295844918
 30
0.0
 11
237.2643472361
 21
105.1663584902
 31
0.0
  0
LINE
  5
22A
330
1F
100
AcDbEntity
  8
0
  6
Continuous
 62
     7
370
    15
100
AcDbLine
 10
237.2643472361
 20
105.1663584902
 30
0.0
 11
237.2643472361
 21
104.2234983751
 31
0.0
  0
LINE
  5
22B
330
1F
100
AcDbEntity
  8
0
  6
Continuous
 62
     7
370
    15
100
AcDbLine
 10
238.046214856
 20
104.6748609444
 30
0.0
 11
238.6785607985
 21
103.8882286036
 31
0.0
  0
LINE
  5
22C
330
1F
100
AcDbEntity
  8
0
  6
Continuous
 62
     7
370
    15
100
AcDbLine
 10
238.0462148559
 20
105.1365827193
 30
0.0
 11
238.0462148559
 21
104.6748609446
 31
0.0
  0
LINE
  5
22D
330
1F
100
AcDbEntity
  8
0
  6
Continuous
 62
     7
370
    15
100
AcDbLine
 10
238.6785607985
 20
103.7520683176
 30
0.0
 11
237.9714540173
 21
103.3438642617
 31
0.0
  0
LINE
  5
22E
330
1F
100
AcDbEntity
  8
0
  6
Continuous
 62
     7
370
    15
100
AcDbLine
 10
237.2643472361
 20
104.2234983751
 30
0.0
 11
238.046214856
 21
104.6748609445
 31
0.0
  0
SPLINE
  5
22F
330
1F
100
AcDbEntity
  8
0
  6
Continuous
 62
     7
370
    15
100
AcDbSpline
210
0.0
220
0.0
230
1.0
 70
     8
 71
     3
 72
    11
 73
     7
 74
     0
 42
0.000000001
 43
0.00000001
 40
0.0
 40
0.0
 40
0.0
 40
0.0
 40
0.2154922497426513
 40
0.5644779669262968
 40
0.9134636841099557
 40
1.0
 40
1.0
 40
1.0
 40
1.0
 10
209.6164720917224
 20
130.1681885221596
 30
0.0
 10
209.6083738197076
 20
130.0170502420229
 30
0.0
 10
209.5871605457822
 20
129.6211463095232
 30
0.0
 10
209.3585136163053
 20
129.1413510812077
 30
0.0
 10
209.0550150495348
 20
128.8428774709317
 30
0.0
 10
208.8144926417917
 20
128.833580090605
 30
0.0
 10
208.7667018953439
 20
128.8317327419526
 30
0.0
  0
SPLINE
  5
230
330
1F
100
AcDbEntity
  8
0
  6
Continuous
 62
     7
370
    15
100
AcDbSpline
210
0.0
220
0.0
230
1.0
 70
     8
 71
     3
 72
    15
 73
    11
 74
     0
 42
0.000000001
 43
0.00000001
 40
0.0
 40
0.0
 40
0.0
 40
0.0
 40
0.0680843556960968
 40
0.2010569693130035
 40
0.334029582929911
 40
0.4670021965468183
 40
0.5999748101637257
 40
0.7329474237806308
 40
0.865920037397539
 40
0.9999999999999999
 40
0.9999999999999999
 40
0.9999999999999999
 40
0.9999999999999999
 10
206.0945653778438
 20
133.4592710232448
 30
0.0
 10
206.154055867775
 20
133.5346621484593
 30
0.0
 10
206.3297346633842
 20
133.7572964231581
 30
0.0
 10
206.804557648787
 20
133.8412277818926
 30
0.0
 10
207.4353766037152
 20
133.700887228495
 30
0.0
 10
208.1017015733553
 20
133.2763986757879
 30
0.0
 10
208.7182586795098
 20
132.630765629033
 30
0.0
 10
209.2132702125347
 20
131.8355897494545
 30
0.0
 10
209.5510755736589
 20
130.9677272979497
 30
0.0
 10
209.5946130754431
 20
130.4354371713767
 30
0.0
 10
209.6164720917224
 20
130.1681885221596
 30
0.0
  0
SPLINE
  5
231
330
1F
100
AcDbEntity
  8
0
  6
Continuous
 62
     7
370
    15
100
AcDbSpline
210
0.0
220
0.0
230
1.0
 70
    11
 71
     3
 72
    26
 73
    22
 74
     0
 42
0.000000001
 43
0.00000001
 40
0.0
 40
0.0
 40
0.0
 40
0.0
 40
0.0536887269337773
 40
0.1073774538675562
 40
0.1610661808014821
 40
0.2147549077353557
 40
0.2684436346692005
 40
0.3221323616030399
 40
0.3758210885368783
 40
0.4295098154707226
 40
0.4831985424045632
 40
0.5368872693383616
 40
0.5905759962721938
 40
0.6442647232061195
 40
0.6979534501400072
 40
0.7516421770738589
 40
0.8053309040076988
 40
0.859019630941537
 40
0.9127083578753792
 40
0.9663970848092152
 40
1.0
 40
1.0
 40
1.0
 40
1.0
 10
207.6365731044001
 20
129.9640864942039
 30
0.0
 10
207.6240642179577
 20
129.8243981240837
 30
0.0
 10
207.5990464450728
 20
129.5450213838432
 30
0.0
 10
207.4040192986679
 20
129.2665681970888
 30
0.0
 10
207.1168152766286
 20
129.1351032051195
 30
0.0
 10
206.7582026665777
 20
129.1721514305767
 30
0.0
 10
206.3717236886482
 20
129.3717398121931
 30
0.0
 10
206.0001172282701
 20
129.7118475514559
 30
0.0
 10
205.6855024766133
 20
130.1540011256843
 30
0.0
 10
205.463290021212
 20
130.6483856161881
 30
0.0
 10
205.3585486055762
 20
131.1392537060659
 30
0.0
 10
205.383082969642
 20
131.5712660625703
 30
0.0
 10
205.5341273156977
 20
131.8957165024238
 30
0.0
 10
205.7946555367405
 20
132.0760236478324
 30
0.0
 10
206.1352827975131
 20
132.0918675107583
 30
0.0
 10
206.5176519796094
 20
131.9414307683923
 30
0.0
 10
206.8984820276295
 20
131.6417899372272
 30
0.0
 10
207.2354785439305
 20
131.2262946355529
 30
0.0
 10
207.4882543528082
 20
130.7434033414997
 30
0.0
 10
207.618663406352
 20
130.3041187846879
 30
0.0
 10
207.6315950633868
 20
130.0585992371511
 30
0.0
 10
207.6365731044001
 20
129.9640864942039
 30
0.0
  0
LINE
  5
232
330
1F
100
AcDbEntity
  8
0
  6
Continuous
 62
     7
370
    15
100
AcDbLine
 10
206.5052022545
 20
129.6743528686
 30
0.0
 11
207.2123090357
 21
129.7375788702
 31
0.0
  0
LINE
  5
233
330
1F
100
AcDbEntity
  8
0
  6
Continuous
 62
     7
370
    15
100
AcDbLine
 10
207.2123090357
 20
129.7375788702
 30
0.0
 11
207.2123090357
 21
130.6804389853
 31
0.0
  0
LINE
  5
234
330
1F
100
AcDbEntity
  8
0
  6
Continuous
 62
     7
370
    15
100
AcDbLine
 10
207.2123090357
 20
130.6804389853
 30
0.0
 11
206.5052022545
 21
131.5600730988
 31
0.0
  0
LINE
  5
235
330
1F
100
AcDbEntity
  8
0
  6
Continuous
 62
     7
370
    15
100
AcDbLine
 10
206.5052022545
 20
131.5600730988
 30
0.0
 11
205.7980954733
 21
131.4968470971
 31
0.0
  0
LINE
  5
236
330
1F
100
AcDbEntity
  8
0
  6
Continuous
 62
     7
370
    15
100
AcDbLine
 10
205.7980954733
 20
131.4968470971
 30
0.0
 11
205.7980954733
 21
130.553986982
 31
0.0
  0
LINE
  5
237
330
1F
100
AcDbEntity
  8
0
  6
Continuous
 62
     7
370
    15
100
AcDbLine
 10
205.7980954733
 20
130.553986982
 30
0.0
 11
206.5052022545
 21
129.6743528686
 31
0.0
  0
LINE
  5
238
330
1F
100
AcDbEntity
  8
0
  6
Continuous
 62
     7
370
    15
100
AcDbLine
 10
206.5799630932
 20
131.0053495513
 30
0.0
 11
207.2123090357
 21
130.2187172105
 31
0.0
  0
LINE
  5
239
330
1F
100
AcDbEntity
  8
0
  6
Continuous
 62
     7
370
    15
100
AcDbLine
 10
206.5799630931
 20
131.4670713263
 30
0.0
 11
206.5799630931
 21
131.0053495515
 31
0.0
  0
LINE
  5
23A
330
1F
100
AcDbEntity
  8
0
  6
Continuous
 62
     7
370
    15
100
AcDbLine
 10
206.5052022545
 20
129.6743528686
 30
0.0
 11
207.2123090357
 21
130.0825569245
 31
0.0
  0
LINE
  5
23B
330
1F
100
AcDbEntity
  8
0
  6
Continuous
 62
     7
370
    15
100
AcDbLine
 10
205.7980954733
 20
130.553986982
 30
0.0
 11
206.5799630932
 21
131.0053495514
 31
0.0
  0
SPLINE
  5
23C
330
1F
100
AcDbEntity
  8
0
  6
Continuous
 62
     7
370
    15
100
AcDbSpline
210
0.0
220
0.0
230
1.0
 70
     8
 71
     3
 72
    18
 73
    14
 74
     0
 42
0.000000001
 43
0.00000001
 40
0.0
 40
0.0
 40
0.0
 40
0.0
 40
0.0692164424092895
 40
0.165515647562792
 40
0.2618148527162954
 40
0.3581140578697972
 40
0.4544132630232987
 40
0.550712468176802
 40
0.6470116733303061
 40
0.7433108784838087
 40
0.8396100836373124
 40
0.9359092887908155
 40
1.0
 40
1.0
 40
1.0
 40
1.0
 10
206.0900957687868
 20
125.2997357410373
 30
0.0
 10
206.1815332271355
 20
125.3952395905596
 30
0.0
 10
206.4001854664487
 20
125.6236156952566
 30
0.0
 10
206.9296000852974
 20
125.6706146454067
 30
0.0
 10
207.5743928781085
 20
125.4683107251201
 30
0.0
 10
208.2363720596524
 20
124.9930534129142
 30
0.0
 10
208.8330321789657
 20
124.3096356454941
 30
0.0
 10
209.2993259712867
 20
123.4918595407114
 30
0.0
 10
209.5816681183004
 20
122.6337040757146
 30
0.0
 10
209.650061968833
 20
121.8280441214551
 30
0.0
 10
209.4904697289902
 20
121.1794333933101
 30
0.0
 10
209.1829438712072
 20
120.7623242704407
 30
0.0
 10
208.8821116215508
 20
120.6969940150653
 30
0.0
 10
208.761901116599
 20
120.670888492814
 30
0.0
  0
SPLINE
  5
23D
330
1F
100
AcDbEntity
  8
0
  6
Continuous
 62
     7
370
    15
100
AcDbSpline
210
0.0
220
0.0
230
1.0
 70
    11
 71
     3
 72
    26
 73
    22
 74
     0
 42
0.000000001
 43
0.00000001
 40
0.0
 40
0.0
 40
0.0
 40
0.0
 40
0.053688726933777
 40
0.107377453867556
 40
0.161066180801482
 40
0.2147549077353556
 40
0.2684436346692003
 40
0.3221323616030399
 40
0.3758210885368782
 40
0.4295098154707224
 40
0.4831985424045629
 40
0.5368872693383615
 40
0.5905759962721938
 40
0.6442647232061193
 40
0.6979534501400071
 40
0.7516421770738588
 40
0.8053309040076987
 40
0.8590196309415371
 40
0.9127083578753793
 40
0.966397084809215
 40
1.0
 40
1.0
 40
1.0
 40
1.0
 10
205.9395168295524
 20
121.6469359714219
 30
0.0
 10
205.8355950437843
 20
121.7928931037124
 30
0.0
 10
205.6277514722483
 20
122.0848073682934
 30
0.0
 10
205.4320009606239
 20
122.5883694255808
 30
0.0
 10
205.3526667898957
 20
123.0700198202171
 30
0.0
 10
205.4044991795988
 20
123.4837168690988
 30
0.0
 10
205.5800987366563
 20
123.7806059083516
 30
0.0
 10
205.8600847867738
 20
123.9278080449951
 30
0.0
 10
206.2127793362008
 20
123.9085684383165
 30
0.0
 10
206.5984486682648
 20
123.72509877974
 30
0.0
 10
206.9736035085999
 20
123.3980725110887
 30
0.0
 10
207.2959500075496
 20
122.9643622733842
 30
0.0
 10
207.5291459743624
 20
122.4728653364527
 30
0.0
 10
207.6468985929189
 20
121.9789924193743
 30
0.0
 10
207.6359391762818
 20
121.538431545334
 30
0.0
 10
207.4974769451308
 20
121.2008240503344
 30
0.0
 10
207.2472209197682
 20
121.0043392624687
 30
0.0
 10
206.9130181227556
 20
120.9707313354729
 30
0.0
 10
206.5339187138566
 20
121.1052747265706
 30
0.0
 10
206.1957282156897
 20
121.3520923338172
 30
0.0
 10
206.0107313628653
 20
121.5649835165804
 30
0.0
 10
205.9395168295524
 20
121.6469359714219
 30
0.0
  0
LINE
  5
23E
330
1F
100
AcDbEntity
  8
0
  6
Continuous
 62
     7
370
    15
100
AcDbLine
 10
205.7980954733
 20
123.3314389783
 30
0.0
 11
205.7980954733
 21
122.3885788632
 31
0.0
  0
LINE
  5
23F
330
1F
100
AcDbEntity
  8
0
  6
Continuous
 62
     7
370
    15
100
AcDbLine
 10
205.7980954733
 20
122.3885788632
 30
0.0
 11
206.5052022545
 21
121.5089447497
 31
0.0
  0
LINE
  5
240
330
1F
100
AcDbEntity
  8
0
  6
Continuous
 62
     7
370
    15
100
AcDbLine
 10
206.5052022545
 20
121.5089447497
 30
0.0
 11
207.2123090357
 21
121.5721707513
 31
0.0
  0
LINE
  5
241
330
1F
100
AcDbEntity
  8
0
  6
Continuous
 62
     7
370
    15
100
AcDbLine
 10
207.2123090357
 20
121.5721707513
 30
0.0
 11
207.2123090357
 21
122.5150308664
 31
0.0
  0
LINE
  5
242
330
1F
100
AcDbEntity
  8
0
  6
Continuous
 62
     7
370
    15
100
AcDbLine
 10
207.2123090357
 20
122.5150308664
 30
0.0
 11
206.5052022545
 21
123.3946649799
 31
0.0
  0
LINE
  5
243
330
1F
100
AcDbEntity
  8
0
  6
Continuous
 62
     7
370
    15
100
AcDbLine
 10
206.5052022545
 20
123.3946649799
 30
0.0
 11
205.7980954733
 21
123.3314389783
 31
0.0
  0
LINE
  5
244
330
1F
100
AcDbEntity
  8
0
  6
Continuous
 62
     7
370
    15
100
AcDbLine
 10
206.5799630931
 20
123.3016632074
 30
0.0
 11
206.5799630931
 21
122.8399414326
 31
0.0
  0
LINE
  5
245
330
1F
100
AcDbEntity
  8
0
  6
Continuous
 62
     7
370
    15
100
AcDbLine
 10
206.5799630932
 20
122.8399414325
 30
0.0
 11
207.2123090357
 21
122.0533090916
 31
0.0
  0
LINE
  5
246
330
1F
100
AcDbEntity
  8
0
  6
Continuous
 62
     7
370
    15
100
AcDbLine
 10
206.5052022545
 20
121.5089447497
 30
0.0
 11
207.2123090357
 21
121.9171488057
 31
0.0
  0
LINE
  5
247
330
1F
100
AcDbEntity
  8
0
  6
Continuous
 62
     7
370
    15
100
AcDbLine
 10
206.5799630932
 20
122.8399414325
 30
0.0
 11
205.7980954733
 21
122.3885788632
 31
0.0
  0
LINE
  5
248
330
1F
100
AcDbEntity
  8
0
  6
Continuous
 62
     7
370
    15
100
AcDbLine
 10
210.0827560174
 20
135.9583952442
 30
0.0
 11
215.3793923584
 21
162.8377283108
 31
0.0
  0
ARC
  5
249
330
1F
100
AcDbEntity
  8
0
  6
Continuous
 62
     7
370
    15
100
AcDbCircle
 10
210.4124826559
 20
135.8917400156
 30
0.0
 40
0.3363964559409349
100
AcDbArc
 50
168.5715036062
 51
179.6783871905
  0
LINE
  5
24A
330
1F
100
AcDbEntity
  8
0
  6
Continuous
 62
     7
370
    15
100
AcDbLine
 10
210.0760914995
 20
117.1647661404
 30
0.0
 11
210.0760914995
 21
135.8936282671
 31
0.0
  0
LINE
  5
24B
330
1F
100
AcDbEntity
  8
0
  6
Continuous
 62
     7
370
    15
100
AcDbLine
 10
210.0760914995
 20
117.1647661404
 30
0.0
 11
209.793248787
 21
117.001484518
 31
0.0
  0
LINE
  5
24C
330
1F
100
AcDbEntity
  8
0
  6
Continuous
 62
     7
370
    15
100
AcDbLine
 10
209.793248787
 20
117.001484518
 30
0.0
 11
209.793248787
 21
135.7303466448
 31
0.0
  0
ARC
  5
24D
330
1F
100
AcDbEntity
  8
0
  6
Continuous
 62
     7
370
    15
100
AcDbCircle
 10
210.5781614852
 20
135.7259407246
 30
0.0
 40
0.7849250638530051
100
AcDbArc
 50
168.5715036061
 51
179.6783871906
  0
LINE
  5
24E
330
1F
100
AcDbEntity
  8
0
  6
Continuous
 62
     7
370
    15
100
AcDbLine
 10
209.8087993289
 20
135.8814695912
 30
0.0
 11
215.217435288
 21
163.3291775367
 31
0.0
  0
ARC
  5
24F
330
1F
100
AcDbEntity
  8
0
  6
Continuous
 62
     7
370
    15
100
AcDbCircle
 10
214.9629422807
 20
163.3889727508
 30
0.0
 40
0.2614233317352348
100
AcDbArc
 50
346.777719468
 51
17.8306480122
  0
LINE
  5
250
330
1F
100
AcDbEntity
  8
0
  6
Continuous
 62
     7
370
    15
100
AcDbLine
 10
215.2118083355
 20
163.469021768
 30
0.0
 11
212.1974165819
 21
171.504376746
 31
0.0
  0
LINE
  5
251
330
1F
100
AcDbEntity
  8
0
  6
Continuous
 62
     7
370
    15
100
AcDbLine
 10
212.4638706671
 20
171.7677613741
 30
0.0
 11
212.1974165819
 21
171.504376746
 31
0.0
  0
LINE
  5
252
330
1F
100
AcDbEntity
  8
0
  6
Continuous
 62
     7
370
    15
100
AcDbLine
 10
215.3793923584
 20
163.9959607423
 30
0.0
 11
212.4638706671
 21
171.7677613741
 31
0.0
  0
LINE
  5
253
330
1F
100
AcDbEntity
  8
0
  6
Continuous
 62
     7
370
    15
100
AcDbLine
 10
210.3088028601
 20
173.5853761899
 30
0.0
 11
210.5752569453
 21
173.848760818
 31
0.0
  0
ARC
  5
254
330
1F
100
AcDbEntity
  8
0
  6
Continuous
 62
     7
370
    15
100
AcDbCircle
 10
208.1539512653
 20
169.7537951056
 30
0.0
 40
4.757253974852177
100
AcDbArc
 50
25.0460397233
 51
59.4046680212
  0
ARC
  5
255
330
1F
100
AcDbEntity
  8
0
  6
Continuous
 62
     7
370
    15
100
AcDbCircle
 10
207.88749718
 20
169.4904104775
 30
0.0
 40
4.757253974852217
100
AcDbArc
 50
25.0460397233
 51
59.4046680212
  0
LINE
  5
256
330
1F
100
AcDbEntity
  8
0
  6
Continuous
 62
     7
370
    15
100
AcDbLine
 10
215.2118083355
 20
163.469021768
 30
0.0
 11
210.9691676484
 21
165.9182461035
 31
0.0
  0
LINE
  5
257
330
1F
100
AcDbEntity
  8
0
  6
Continuous
 62
     7
370
    15
100
AcDbLine
 10
210.9691676484
 20
165.9182461035
 30
0.0
 11
207.9547758948
 21
173.9536010815
 31
0.0
  0
LWPOLYLINE
  5
258
330
1F
100
AcDbEntity
  8
0
  6
Continuous
 62
     7
370
    15
100
AcDbPolyline
 90
        9
 70
   128
 43
0.0
 10
208.8945892977
 20
174.4017843017
 10
208.6278053844
 20
174.5367588553
 10
208.3895047595
 20
174.6179488768
 10
208.1888451821
 20
174.6422342791
 10
208.0335378874
 20
174.6086817881
 10
207.9295512476
 20
174.5185808069
 10
207.8808814109
 20
174.3753938658
 10
207.889398732
 20
174.1846235587
 10
207.9547758948
 20
173.9536010815
  0
LINE
  5
259
330
1F
100
AcDbEntity
  8
0
  6
Continuous
 62
     7
370
    15
100
AcDbLine
 10
210.3088028601
 20
173.5853761899
 30
0.0
 11
208.8945892977
 21
174.4017843017
 31
0.0
  0
LINE
  5
25A
330
1F
100
AcDbEntity
  8
0
  6
Continuous
 62
     7
370
    15
100
AcDbLine
 10
209.1610433829
 20
174.6651689298
 30
0.0
 11
208.8945892977
 21
174.4017843017
 31
0.0
  0
LINE
  5
25B
330
1F
100
AcDbEntity
  8
0
  6
Continuous
 62
     7
370
    15
100
AcDbLine
 10
210.5752569453
 20
173.848760818
 30
0.0
 11
209.1610433829
 21
174.6651689298
 31
0.0
  0
LWPOLYLINE
  5
25C
330
1F
100
AcDbEntity
  8
0
  6
Continuous
 62
     7
370
    15
100
AcDbPolyline
 90
        6
 70
   128
 43
0.0
 10
208.2294463833
 20
174.8229601021
 10
208.2999919727
 20
174.8720664161
 10
208.4552992674
 20
174.9056189072
 10
208.6559588447
 20
174.8813335048
 10
208.8942594697
 20
174.8001434834
 10
209.1610433829
 20
174.6651689298
  0
LINE
  5
25D
330
1F
100
AcDbEntity
  8
0
  6
Continuous
 62
     7
370
    15
100
AcDbLine
 10
215.217435288
 20
163.3291775367
 30
0.0
 11
210.9747946008
 21
165.7784018722
 31
0.0
  0
LINE
  5
25E
330
1F
100
AcDbEntity
  8
0
  6
Continuous
 62
     7
370
    15
100
AcDbLine
 10
209.8087993289
 20
135.8814695912
 30
0.0
 11
205.5661586418
 21
138.3306939266
 31
0.0
  0
LINE
  5
25F
330
1F
100
AcDbEntity
  8
0
  6
Continuous
 62
     7
370
    15
100
AcDbLine
 10
205.5661586418
 20
138.3306939266
 30
0.0
 11
210.9747946008
 21
165.7784018722
 31
0.0
  0
ARC
  5
260
330
1F
100
AcDbEntity
  8
0
  6
Continuous
 62
     7
370
    15
100
AcDbCircle
 10
210.7203015936
 20
165.8381970863
 30
0.0
 40
0.2614233317354054
100
AcDbArc
 50
346.777719468
 51
17.8306480122
  0
LINE
  5
261
330
1F
100
AcDbEntity
  8
0
  6
Continuous
 62
     7
370
    15
100
AcDbLine
 10
209.793248787
 20
135.7303466448
 30
0.0
 11
205.5506080999
 21
138.1795709802
 31
0.0
  0
ARC
  5
262
330
1F
100
AcDbEntity
  8
0
  6
Continuous
 62
     7
370
    15
100
AcDbCircle
 10
206.3355207981
 20
138.1751650601
 30
0.0
 40
0.7849250638540839
100
AcDbArc
 50
168.5715036061
 51
179.6783871906
  0
LINE
  5
263
330
1F
100
AcDbEntity
  8
0
  6
Continuous
 62
     7
370
    15
100
AcDbLine
 10
209.793248787
 20
117.001484518
 30
0.0
 11
205.5506080999
 21
119.4507088535
 31
0.0
  0
LINE
  5
264
330
1F
100
AcDbEntity
  8
0
  6
Continuous
 62
     7
370
    15
100
AcDbLine
 10
205.5506080999
 20
119.4507088535
 30
0.0
 11
205.5506080999
 21
122.3285010031
 31
0.0
  0
LINE
  5
265
330
1F
100
AcDbEntity
  8
0
  6
Continuous
 62
     7
370
    15
100
AcDbLine
 10
205.5506080999
 20
124.4776528345
 30
0.0
 11
205.5506080999
 21
130.4847456708
 31
0.0
  0
LINE
  5
266
330
1F
100
AcDbEntity
  8
0
  6
Continuous
 62
     7
370
    15
100
AcDbLine
 10
205.5506080999
 20
132.6449038686
 30
0.0
 11
205.5506080999
 21
138.1795709802
 31
0.0
  0
ARC
  5
267
330
1F
100
AcDbEntity
  8
0
  6
Continuous
 62
     7
370
    15
100
AcDbCircle
 10
246.3638267224
 20
145.3805448679
 30
0.0
 40
0.6099877740483014
100
AcDbArc
 50
346.777719468
 51
17.8306480122
  0
LINE
  5
268
330
1F
100
AcDbEntity
  8
0
  6
Continuous
 62
     7
370
    15
100
AcDbLine
 10
241.5490077802
 20
117.7933147561
 30
0.0
 11
246.9576437393
 21
145.2410227016
 31
0.0
  0
ARC
  5
269
330
1F
100
AcDbEntity
  8
0
  6
Continuous
 62
     7
370
    15
100
AcDbCircle
 10
241.8787344186
 20
117.7266595276
 30
0.0
 40
0.3363964559375213
100
AcDbArc
 50
168.5715036061
 51
179.6783871906
  0
LINE
  5
26A
330
1F
100
AcDbEntity
  8
0
  6
Continuous
 62
     7
370
    15
100
AcDbLine
 10
241.5423432623
 20
98.9996856523
 30
0.0
 11
241.5423432623
 21
117.7285477791
 31
0.0
  0
LINE
  5
26B
330
1F
100
AcDbEntity
  8
0
  6
Continuous
 62
     7
370
    15
100
AcDbLine
 10
241.5423432623
 20
98.9996856523
 30
0.0
 11
241.2595005498
 21
98.83640403
 31
0.0
  0
LINE
  5
26C
330
1F
100
AcDbEntity
  8
0
  6
Continuous
 62
     7
370
    15
100
AcDbLine
 10
241.2595005498
 20
98.83640403
 30
0.0
 11
241.2595005498
 21
117.5652661567
 31
0.0
  0
ARC
  5
26D
330
1F
100
AcDbEntity
  8
0
  6
Continuous
 62
     7
370
    15
100
AcDbCircle
 10
242.044413248
 20
117.5608602366
 30
0.0
 40
0.7849250638592605
100
AcDbArc
 50
168.5715036062
 51
179.6783871905
  0
LINE
  5
26E
330
1F
100
AcDbEntity
  8
0
  6
Continuous
 62
     7
370
    15
100
AcDbLine
 10
241.2750510917
 20
117.7163891031
 30
0.0
 11
246.6836870508
 21
145.1640970486
 31
0.0
  0
ARC
  5
26F
330
1F
100
AcDbEntity
  8
0
  6
Continuous
 62
     7
370
    15
100
AcDbCircle
 10
246.4291940435
 20
145.2238922628
 30
0.0
 40
0.2614233317344856
100
AcDbArc
 50
346.7777194679
 51
17.8306480123
  0
LINE
  5
270
330
1F
100
AcDbEntity
  8
0
  6
Continuous
 62
     7
370
    15
100
AcDbLine
 10
246.6780600983
 20
145.30394128
 30
0.0
 11
243.6636683447
 21
153.339296258
 31
0.0
  0
LINE
  5
271
330
1F
100
AcDbEntity
  8
0
  6
Continuous
 62
     7
370
    15
100
AcDbLine
 10
243.93012243
 20
153.6026808861
 30
0.0
 11
243.6636683447
 21
153.339296258
 31
0.0
  0
LINE
  5
272
330
1F
100
AcDbEntity
  8
0
  6
Continuous
 62
     7
370
    15
100
AcDbLine
 10
246.9445141835
 20
145.5673259081
 30
0.0
 11
243.93012243
 21
153.6026808861
 31
0.0
  0
LINE
  5
273
330
1F
100
AcDbEntity
  8
0
  6
Continuous
 62
     7
370
    15
100
AcDbLine
 10
241.7750546229
 20
155.4202957018
 30
0.0
 11
242.0415087081
 21
155.6836803299
 31
0.0
  0
ARC
  5
274
330
1F
100
AcDbEntity
  8
0
  6
Continuous
 62
     7
370
    15
100
AcDbCircle
 10
239.6202030281
 20
151.5887146176
 30
0.0
 40
4.757253974852168
100
AcDbArc
 50
25.0460397233
 51
59.4046680212
  0
ARC
  5
275
330
1F
100
AcDbEntity
  8
0
  6
Continuous
 62
     7
370
    15
100
AcDbCircle
 10
239.3537489428
 20
151.3253299895
 30
0.0
 40
4.75725397485249
100
AcDbArc
 50
25.0460397233
 51
59.4046680212
  0
LINE
  5
276
330
1F
100
AcDbEntity
  8
0
  6
Continuous
 62
     7
370
    15
100
AcDbLine
 10
246.6780600983
 20
145.30394128
 30
0.0
 11
242.4354194112
 21
147.7531656154
 31
0.0
  0
LINE
  5
277
330
1F
100
AcDbEntity
  8
0
  6
Continuous
 62
     7
370
    15
100
AcDbLine
 10
242.4354194112
 20
147.7531656154
 30
0.0
 11
239.4210276576
 21
155.7885205934
 31
0.0
  0
LWPOLYLINE
  5
278
330
1F
100
AcDbEntity
  8
0
  6
Continuous
 62
     7
370
    15
100
AcDbPolyline
 90
        9
 70
   128
 43
0.0
 10
240.3608410605
 20
156.2367038136
 10
240.0940571472
 20
156.3716783672
 10
239.8557565223
 20
156.4528683887
 10
239.6550969449
 20
156.4771537911
 10
239.4997896502
 20
156.4436013
 10
239.3958030104
 20
156.3535003188
 10
239.3471331737
 20
156.2103133778
 10
239.3556504948
 20
156.0195430707
 10
239.4210276576
 20
155.7885205934
  0
LINE
  5
279
330
1F
100
AcDbEntity
  8
0
  6
Continuous
 62
     7
370
    15
100
AcDbLine
 10
241.7750546229
 20
155.4202957018
 30
0.0
 11
240.3608410605
 21
156.2367038136
 31
0.0
  0
LINE
  5
27A
330
1F
100
AcDbEntity
  8
0
  6
Continuous
 62
     7
370
    15
100
AcDbLine
 10
240.6272951457
 20
156.5000884417
 30
0.0
 11
240.3608410605
 21
156.2367038136
 31
0.0
  0
LINE
  5
27B
330
1F
100
AcDbEntity
  8
0
  6
Continuous
 62
     7
370
    15
100
AcDbLine
 10
242.0415087081
 20
155.6836803299
 30
0.0
 11
240.6272951457
 21
156.5000884417
 31
0.0
  0
LWPOLYLINE
  5
27C
330
1F
100
AcDbEntity
  8
0
  6
Continuous
 62
     7
370
    15
100
AcDbPolyline
 90
        6
 70
   128
 43
0.0
 10
239.6956981461
 20
156.657879614
 10
239.7662437355
 20
156.7069859281
 10
239.9215510302
 20
156.7405384192
 10
240.1222106075
 20
156.7162530168
 10
240.3605112325
 20
156.6350629953
 10
240.6272951457
 20
156.5000884417
  0
LINE
  5
27D
330
1F
100
AcDbEntity
  8
0
  6
Continuous
 62
     7
370
    15
100
AcDbLine
 10
246.6836870508
 20
145.1640970486
 30
0.0
 11
242.4410463636
 21
147.6133213841
 31
0.0
  0
LINE
  5
27E
330
1F
100
AcDbEntity
  8
0
  6
Continuous
 62
     7
370
    15
100
AcDbLine
 10
241.2750510917
 20
117.7163891031
 30
0.0
 11
237.0324104046
 21
120.1656134386
 31
0.0
  0
LINE
  5
27F
330
1F
100
AcDbEntity
  8
0
  6
Continuous
 62
     7
370
    15
100
AcDbLine
 10
237.0324104046
 20
120.1656134386
 30
0.0
 11
242.4410463636
 21
147.6133213841
 31
0.0
  0
ARC
  5
280
330
1F
100
AcDbEntity
  8
0
  6
Continuous
 62
     7
370
    15
100
AcDbCircle
 10
242.1865533564
 20
147.6731165982
 30
0.0
 40
0.26142333173509
100
AcDbArc
 50
346.777719468
 51
17.8306480122
  0
LINE
  5
281
330
1F
100
AcDbEntity
  8
0
  6
Continuous
 62
     7
370
    15
100
AcDbLine
 10
241.2595005498
 20
117.5652661567
 30
0.0
 11
237.0168598627
 21
120.0144904922
 31
0.0
  0
ARC
  5
282
330
1F
100
AcDbEntity
  8
0
  6
Continuous
 62
     7
370
    15
100
AcDbCircle
 10
237.8017725609
 20
120.010084572
 30
0.0
 40
0.7849250638549425
100
AcDbArc
 50
168.5715036061
 51
179.6783871905
  0
LINE
  5
283
330
1F
100
AcDbEntity
  8
0
  6
Continuous
 62
     7
370
    15
100
AcDbLine
 10
241.2595005498
 20
98.83640403
 30
0.0
 11
237.0168598627
 21
101.2856283654
 31
0.0
  0
LINE
  5
284
330
1F
100
AcDbEntity
  8
0
  6
Continuous
 62
     7
370
    15
100
AcDbLine
 10
237.0168598627
 20
101.2856283654
 30
0.0
 11
237.0168598627
 21
104.1704224965
 31
0.0
  0
LINE
  5
285
330
1F
100
AcDbEntity
  8
0
  6
Continuous
 62
     7
370
    15
100
AcDbLine
 10
237.0168598627
 20
106.3189512595
 30
0.0
 11
237.0168598627
 21
112.3288286339
 31
0.0
  0
LINE
  5
286
330
1F
100
AcDbEntity
  8
0
  6
Continuous
 62
     7
370
    15
100
AcDbLine
 10
237.0168598627
 20
114.4779804653
 30
0.0
 11
237.0168598627
 21
120.0144904922
 31
0.0
  0
LINE
  5
287
330
1F
100
AcDbEntity
  8
0
  6
Continuous
 62
     7
370
    15
100
AcDbLine
 10
250.3811780271
 20
153.9112258762
 30
0.0
 11
246.8456441212
 21
151.8702055967
 31
0.0
  0
LINE
  5
288
330
1F
100
AcDbEntity
  8
0
  6
Continuous
 62
     7
370
    15
100
AcDbLine
 10
250.3811780271
 20
153.9112258762
 30
0.0
 11
250.3811780271
 21
100.8360731037
 31
0.0
  0
LINE
  5
289
330
1F
100
AcDbEntity
  8
0
  6
Continuous
 62
     7
370
    15
100
AcDbLine
 10
250.3811780271
 20
100.8360731037
 30
0.0
 11
241.5423432623
 21
95.7335224048
 31
0.0
  0
LINE
  5
28A
330
1F
100
AcDbEntity
  8
0
  6
Continuous
 62
     7
370
    15
100
AcDbLine
 10
241.5423432623
 20
114.9222314841
 30
0.0
 11
241.5423432623
 21
95.7335224048
 31
0.0
  0
LINE
  5
28B
330
1F
100
AcDbEntity
  8
0
  6
Continuous
 62
     7
370
    15
100
AcDbLine
 10
241.5423432623
 20
114.9222314841
 30
0.0
 11
246.8456441212
 21
117.9837619034
 31
0.0
  0
LINE
  5
28C
330
1F
100
AcDbEntity
  8
0
  6
Continuous
 62
     7
370
    15
100
AcDbLine
 10
246.8456441212
 20
151.8702055967
 30
0.0
 11
246.8456441212
 21
117.9837619034
 31
0.0
  0
LINE
  5
28D
330
1F
100
AcDbEntity
  8
0
  6
Continuous
 62
     7
370
    15
100
AcDbLine
 10
204.7727906406
 20
116.9601333122
 30
0.0
 11
241.5423432623
 21
95.7335224048
 31
0.0
  0
LINE
  5
28E
330
1F
100
AcDbEntity
  8
0
  6
Continuous
 62
     7
370
    15
100
AcDbLine
 10
204.7727906406
 20
170.0352860847
 30
0.0
 11
204.7727906406
 21
116.9601333122
 31
0.0
  0
LINE
  5
28F
330
1F
100
AcDbEntity
  8
0
  6
Continuous
 62
     7
370
    15
100
AcDbLine
 10
204.7727906406
 20
170.0352860847
 30
0.0
 11
205.4798974218
 21
169.6270820288
 31
0.0
  0
LINE
  5
290
330
1F
100
AcDbEntity
  8
0
  6
Continuous
 62
     7
370
    15
100
AcDbLine
 10
205.4798974218
 20
169.6270820288
 30
0.0
 11
205.4798974218
 21
135.7406383356
 31
0.0
  0
LWPOLYLINE
  5
291
330
1F
100
AcDbEntity
  8
0
  6
Continuous
 62
     7
370
    15
100
AcDbPolyline
 90
        3
 70
   128
 43
0.0
 10
205.4798974218
 20
135.7406383356
 10
205.5318098256
 20
135.3321824615
 10
205.5506080999
 20
135.2600972456
  0
LINE
  5
292
330
1F
100
AcDbEntity
  8
0
  6
Continuous
 62
     7
370
    15
100
AcDbLine
 10
210.4566537446
 20
132.8676180644
 30
0.0
 11
210.0760914995
 21
133.0873119721
 31
0.0
  0
LWPOLYLINE
  5
293
330
1F
100
AcDbEntity
  8
0
  6
Continuous
 62
     7
370
    15
100
AcDbPolyline
 90
       24
 70
   128
 43
0.0
 10
210.4566537446
 20
132.8676180644
 10
211.3676791319
 20
131.2450083133
 10
212.3458000167
 20
129.6636419589
 10
213.3857649358
 20
128.1320092476
 10
214.4819903898
 20
126.6583334092
 10
215.62859082
 20
125.2505265071
 10
216.8194102084
 20
123.916146959
 10
218.0480551282
 20
122.6623589561
 10
219.3079290699
 20
121.4958939992
 10
220.5922678578
 20
120.4230147579
 10
221.894175966
 20
119.4494814465
 10
223.2066635401
 20
118.5805208977
 10
224.5226839252
 20
117.8207985005
 10
225.8351714993
 20
117.1743931518
 10
227.1370796074
 20
116.644775357
 10
228.4214183953
 20
116.2347885975
 10
229.6812923371
 20
115.9466340636
 10
230.9099372568
 20
115.7818588371
 10
232.1007566452
 20
115.7413475848
 10
233.2473570755
 20
115.8253178088
 10
234.3435825294
 20
116.0333186787
 10
235.3835474486
 20
116.3642334524
 10
236.3616683334
 20
116.8162854712
 10
237.0168598627
 20
117.210245227
  0
LINE
  5
294
330
1F
100
AcDbEntity
  8
0
  6
Continuous
 62
     7
370
    15
100
AcDbLine
 10
215.7599546035
 20
135.9291484837
 30
0.0
 11
212.9045186242
 21
137.5775565872
 31
0.0
  0
ARC
  5
295
330
1F
100
AcDbEntity
  8
0
  6
Continuous
 62
     7
370
    15
100
AcDbCircle
 10
213.066554443
 20
138.895710042
 30
0.0
 40
2.28527139228625
100
AcDbArc
 50
182.3459002324
 51
237.6487232349
  0
LINE
  5
296
330
1F
100
AcDbEntity
  8
0
  6
Continuous
 62
     7
370
    15
100
AcDbLine
 10
210.7831982807
 20
166.4139779149
 30
0.0
 11
210.7831982807
 21
164.8060902063
 31
0.0
  0
LINE
  5
297
330
1F
100
AcDbEntity
  8
0
  6
Continuous
 62
     7
370
    15
100
AcDbLine
 10
210.7831982807
 20
139.5129947439
 30
0.0
 11
210.7831982807
 21
138.8021687549
 31
0.0
  0
LINE
  5
298
330
1F
100
AcDbEntity
  8
0
  6
Continuous
 62
     7
370
    15
100
AcDbLine
 10
212.4875160455
 20
171.7047307451
 30
0.0
 11
215.732945749
 21
169.8311840568
 31
0.0
  0
LINE
  5
299
330
1F
100
AcDbEntity
  8
0
  6
Continuous
 62
     7
370
    15
100
AcDbLine
 10
215.732945749
 20
169.8311840568
 30
0.0
 11
215.732945749
 21
139.619174017
 31
0.0
  0
ARC
  5
29A
330
1F
100
AcDbEntity
  8
0
  6
Continuous
 62
     7
370
    15
100
AcDbCircle
 10
220.3385940531
 20
139.8287565738
 30
0.0
 40
4.610414422716141
100
AcDbArc
 50
182.6054784857
 51
237.39452166
  0
LINE
  5
29B
330
1F
100
AcDbEntity
  8
0
  6
Continuous
 62
     7
370
    15
100
AcDbLine
 10
217.8542660925
 20
135.9449394136
 30
0.0
 11
222.5785891877
 21
133.2176457429
 31
0.0
  0
LWPOLYLINE
  5
29C
330
1F
100
AcDbEntity
  8
0
  6
Continuous
 62
     7
370
    15
100
AcDbPolyline
 90
       13
 70
   128
 43
0.0
 10
222.5785891877
 20
133.2176457429
 10
223.5919425116
 20
131.9951587515
 10
224.651131081
 20
130.8548166975
 10
225.7474483162
 20
129.8059932459
 10
226.8718824381
 20
128.8573097749
 10
228.0151905453
 20
128.0165645071
 10
229.1679745915
 20
127.2906684081
 10
230.3207586377
 20
126.685588378
 10
231.464066745
 20
126.2062982029
 10
232.5885008668
 20
125.8567376707
 10
233.6848181021
 20
125.6397801854
 10
234.7440066715
 20
125.5572091476
 10
235.7573599953
 20
125.6097032952
  0
LINE
  5
29D
330
1F
100
AcDbEntity
  8
0
  6
Continuous
 62
     7
370
    15
100
AcDbLine
 10
235.7573599953
 20
125.6097032952
 30
0.0
 11
237.8653813327
 21
124.3927684803
 31
0.0
  0
LINE
  5
29E
330
1F
100
AcDbEntity
  8
0
  6
Continuous
 62
     7
370
    15
100
AcDbLine
 10
243.9537678083
 20
153.539650257
 30
0.0
 11
246.8456441212
 21
151.8702055967
 31
0.0
  0
LINE
  5
29F
330
1F
100
AcDbEntity
  8
0
  6
Continuous
 62
     7
370
    15
100
AcDbLine
 10
242.5759945796
 20
120.4485781187
 30
0.0
 11
246.8456441212
 21
117.9837619034
 31
0.0
  0
LWPOLYLINE
  5
2A0
330
1F
100
AcDbEntity
  8
0
  6
Continuous
 62
     7
370
    15
100
AcDbPolyline
 90
       19
 70
   128
 43
0.0
 10
215.7599546035
 20
135.9291484837
 10
216.6709799908
 20
134.3065387326
 10
217.6491008756
 20
132.7251723782
 10
218.6890657947
 20
131.193539667
 10
219.7852912487
 20
129.7198638286
 10
220.9318916789
 20
128.3120569265
 10
222.1227110673
 20
126.9776773783
 10
223.3513559871
 20
125.7238893754
 10
224.6112299288
 20
124.5574244186
 10
225.8955687167
 20
123.4845451773
 10
227.1974768249
 20
122.5110118658
 10
228.509964399
 20
121.642051317
 10
229.8259847841
 20
120.8823289198
 10
231.1384723582
 20
120.2359235711
 10
232.4403804663
 20
119.7063057763
 10
233.7247192542
 20
119.2963190168
 10
234.984593196
 20
119.0081644829
 10
236.2132381157
 20
118.8433892565
 10
237.0168598627
 20
118.8024628334
  0
LINE
  5
2A1
330
1F
100
AcDbEntity
  8
0
  6
Continuous
 62
     7
370
    15
100
AcDbLine
 10
246.13853734
 20
156.3604502117
 30
0.0
 11
243.229584415
 21
154.6811474331
 31
0.0
  0
LINE
  5
2A2
330
1F
100
AcDbEntity
  8
0
  6
Continuous
 62
     7
370
    15
100
AcDbLine
 10
246.13853734
 20
156.3604502117
 30
0.0
 11
250.3811780271
 21
153.9112258762
 31
0.0
  0
LINE
  5
2A3
330
1F
100
AcDbEntity
  8
0
  6
Continuous
 62
     7
370
    15
100
AcDbLine
 10
242.0075723327
 20
120.1204349403
 30
0.0
 11
242.5759945796
 21
120.4485781187
 31
0.0
  0
LINE
  5
2A4
330
1F
100
AcDbEntity
  8
0
  6
Continuous
 62
     7
370
    15
100
AcDbLine
 10
219.2684796549
 20
171.8722043363
 30
0.0
 11
215.732945749
 21
169.8311840568
 31
0.0
  0
LINE
  5
2A5
330
1F
100
AcDbEntity
  8
0
  6
Continuous
 62
     7
370
    15
100
AcDbLine
 10
205.4798974218
 20
169.6270820288
 30
0.0
 11
208.848345259
 21
171.5716455741
 31
0.0
  0
LINE
  5
2A6
330
1F
100
AcDbEntity
  8
0
  6
Continuous
 62
     7
370
    15
100
AcDbLine
 10
213.6116254054
 20
175.1378367836
 30
0.0
 11
210.9489616286
 21
173.6007137038
 31
0.0
  0
LINE
  5
2A7
330
1F
100
AcDbEntity
  8
0
  6
Continuous
 62
     7
370
    15
100
AcDbLine
 10
208.5965967797
 20
172.2427223822
 30
0.0
 11
204.7727906406
 21
170.0352860847
 31
0.0
  0
LINE
  5
2A8
330
1F
100
AcDbEntity
  8
0
  6
Continuous
 62
     7
370
    15
100
AcDbLine
 10
213.6116254054
 20
175.1378367836
 30
0.0
 11
219.2684796549
 21
171.8722043363
 31
0.0
  0
LINE
  5
2A9
330
1F
100
AcDbEntity
  8
0
  6
Continuous
 62
     7
370
    15
100
AcDbLine
 10
210.4566537446
 20
132.8676180644
 30
0.0
 11
215.7599546035
 21
135.9291484837
 31
0.0
  0
LINE
  5
2AA
330
1F
100
AcDbEntity
  8
0
  6
Continuous
 62
     7
370
    15
100
AcDbLine
 10
219.2684796549
 20
141.6601942966
 30
0.0
 11
215.732945749
 21
139.619174017
 31
0.0
  0
LINE
  5
2AB
330
1F
100
AcDbEntity
  8
0
  6
Continuous
 62
     7
370
    15
100
AcDbLine
 10
219.2684796549
 20
171.8722043363
 30
0.0
 11
219.2684796549
 21
141.6601942966
 31
0.0
  0
LINE
  5
2AC
330
1F
100
AcDbEntity
  8
0
  6
Continuous
 62
     7
370
    15
100
AcDbLine
 10
238.406541258
 20
127.1390430853
 30
0.0
 11
235.7573599953
 21
125.6097032952
 31
0.0
  0
LINE
  5
2AD
330
1F
100
AcDbEntity
  8
0
  6
Continuous
 62
     7
370
    15
100
AcDbLine
 10
226.1141230936
 20
135.2586660224
 30
0.0
 11
222.5785891877
 21
133.2176457429
 31
0.0
  0
LWPOLYLINE
  5
2AE
330
1F
100
AcDbEntity
  8
0
  6
Continuous
 62
     7
370
    15
100
AcDbPolyline
 90
       13
 70
   128
 43
0.0
 10
226.1141230936
 20
135.2586660224
 10
227.1274764175
 20
134.0361790311
 10
228.1866649869
 20
132.895836977
 10
229.2829822222
 20
131.8470135255
 10
230.407416344
 20
130.8983300545
 10
231.5507244512
 20
130.0575847867
 10
232.7035084975
 20
129.3316886877
 10
233.8562925437
 20
128.7266086575
 10
234.9996006509
 20
128.2473184825
 10
236.1240347728
 20
127.8977579503
 10
237.220352008
 20
127.680800465
 10
238.2795405774
 20
127.5982294272
 10
238.4969905692
 20
127.5980546172
  0
LINE
  5
2AF
330
1F
100
AcDbEntity
  8
0
  6
Continuous
 62
     7
370
    15
100
AcDbLine
 10
221.3897999985
 20
137.9859596932
 30
0.0
 11
217.8542660925
 21
135.9449394136
 31
0.0
  0
LINE
  5
2B0
330
1F
100
AcDbEntity
  8
0
  6
Continuous
 62
     7
370
    15
100
AcDbLine
 10
221.3897999985
 20
137.9859596932
 30
0.0
 11
226.1141230936
 21
135.2586660224
 31
0.0
  0
LINE
  5
2B1
330
1F
100
AcDbEntity
  8
0
  6
Continuous
 62
     7
370
    15
100
AcDbLine
 10
210.0807605794
 20
135.947435766
 30
0.0
 11
212.9045186242
 21
137.5775565872
 31
0.0
  0
ARC
  5
2B2
330
1F
100
AcDbEntity
  8
0
  6
Continuous
 62
     7
370
    15
100
AcDbCircle
 10
223.874127959
 20
141.8697768534
 30
0.0
 40
4.61041442271629
100
AcDbArc
 50
182.6054784857
 51
237.39452166
  0
LINE
  5
2B3
330
1F
100
AcDbEntity
  8
0
  6
Continuous
 62
     8
370
    15
100
AcDbLine
 10
205.4798974218
 20
135.7406383356
 30
0.0
 11
205.5506080999
 21
135.7814587412
 31
0.0
  0
LINE
  5
2B4
330
1F
100
AcDbEntity
  8
0
  6
Continuous
 62
     8
370
    15
100
AcDbLine
 10
210.6251493308
 20
138.7109290382
 30
0.0
 11
210.7831982807
 21
138.8021687549
 31
0.0
  0
ENDSEC
  0
SECTION
  2
OBJECTS
  0
DICTIONARY
  5
C
330
0
100
AcDbDictionary
281
     1
  3
ACAD_GROUP
350
D
  3
ACAD_LAYOUT
350
1A
  3
ACAD_MLINESTYLE
350
17
  3
ACAD_PLOTSETTINGS
350
19
  3
ACAD_PLOTSTYLENAME
350
E
  3
ACAD_SCALELIST
350
47
  0
DICTIONARY
  5
D
102
{ACAD_REACTORS
330
C
102
}
330
C
100
AcDbDictionary
281
     1
  0
DICTIONARY
  5
1A
102
{ACAD_REACTORS
330
C
102
}
330
C
100
AcDbDictionary
281
     1
  3
Layout1
350
1E
  3
Layout2
350
26
  3
Model
350
22
  0
DICTIONARY
  5
17
102
{ACAD_REACTORS
330
C
102
}
330
C
100
AcDbDictionary
281
     1
  3
Standard
350
18
  0
DICTIONARY
  5
19
102
{ACAD_REACTORS
330
C
102
}
330
C
100
AcDbDictionary
281
     1
  0
ACDBDICTIONARYWDFLT
  5
E
102
{ACAD_REACTORS
330
C
102
}
330
C
100
AcDbDictionary
281
     1
  3
Normal
350
F
100
AcDbDictionaryWithDefault
340
F
  0
DICTIONARY
  5
47
102
{ACAD_REACTORS
330
C
102
}
330
C
100
AcDbDictionary
281
     1
  3
A0
350
48
  3
A1
350
49
  3
A2
350
4A
  3
A3
350
4B
  3
A4
350
4C
  3
A5
350
4D
  3
A6
350
4E
  3
A7
350
4F
  3
A8
350
50
  3
A9
350
51
  3
B0
350
52
  3
B1
350
53
  3
B2
350
54
  3
B3
350
55
  3
B4
350
56
  3
B5
350
57
  3
B6
350
58
  3
B7
350
59
  3
B8
350
5A
  3
B9
350
5B
  3
C0
350
5C
  3
C1
350
5D
  3
C2
350
5E
  3
C3
350
5F
  3
C4
350
60
  3
C5
350
61
  3
C6
350
62
  3
C7
350
63
  3
C8
350
64
  3
C9
350
65
  3
D0
350
66
  3
D1
350
67
  3
D2
350
68
  0
LAYOUT
  5
1E
102
{ACAD_REACTORS
330
1A
102
}
330
1A
100
AcDbPlotSettings
  1

  2
none_device
  4

  6

 40
0.0
 41
0.0
 42
0.0
 43
0.0
 44
0.0
 45
0.0
 46
0.0
 47
0.0
 48
0.0
 49
0.0
140
0.0
141
0.0
142
1.0
143
1.0
 70
   688
 72
     1
 73
     0
 74
     5
  7

 75
    16
147
1.0
148
0.0
149
0.0
100
AcDbLayout
  1
Layout1
 70
     1
 71
     1
 10
0.0
 20
0.0
 11
420.0
 21
297.0
 12
0.0
 22
0.0
 32
0.0
 14
1.0000000000E+20
 24
1.0000000000E+20
 34
1.0000000000E+20
 15
-1.0000000000E+20
 25
-1.0000000000E+20
 35
-1.0000000000E+20
146
0.0
 13
0.0
 23
0.0
 33
0.0
 16
1.0
 26
0.0
 36
0.0
 17
0.0
 27
1.0
 37
0.0
 76
     0
330
1B
  0
LAYOUT
  5
26
102
{ACAD_REACTORS
330
1A
102
}
330
1A
100
AcDbPlotSettings
  1

  2
none_device
  4

  6

 40
0.0
 41
0.0
 42
0.0
 43
0.0
 44
0.0
 45
0.0
 46
0.0
 47
0.0
 48
0.0
 49
0.0
140
0.0
141
0.0
142
1.0
143
1.0
 70
   688
 72
     1
 73
     0
 74
     5
  7

 75
    16
147
1.0
148
0.0
149
0.0
100
AcDbLayout
  1
Layout2
 70
     1
 71
     2
 10
0.0
 20
0.0
 11
0.0
 21
0.0
 12
0.0
 22
0.0
 32
0.0
 14
0.0
 24
0.0
 34
0.0
 15
0.0
 25
0.0
 35
0.0
146
0.0
 13
0.0
 23
0.0
 33
0.0
 16
1.0
 26
0.0
 36
0.0
 17
0.0
 27
1.0
 37
0.0
 76
     0
330
23
  0
LAYOUT
  5
22
102
{ACAD_REACTORS
330
1A
102
}
330
1A
100
AcDbPlotSettings
  1

  2
none_device
  4
Letter_(8.50_x_11.00_Inches)
  6

 40
6.35
 41
6.35
 42
6.35000508
 43
6.35000508
 44
215.9
 45
279.4
 46
0.0
 47
0.0
 48
0.0
 49
0.0
140
0.0
141
0.0
142
1.0
143
1.0
 70
  1712
 72
     1
 73
     0
 74
     0
  7

 75
     0
147
1.0
148
0.0
149
0.0
100
AcDbLayout
  1
Model
 70
     1
 71
     0
 10
0.0
 20
0.0
 11
297.0
 21
210.0
 12
0.0
 22
0.0
 32
0.0
 14
0.0
 24
0.0
 34
0.0
 15
297.0
 25
210.0
 35
0.0
146
0.0
 13
0.0
 23
0.0
 33
0.0
 16
1.0
 26
0.0
 36
0.0
 17
0.0
 27
1.0
 37
0.0
 76
     0
330
1F
331
29
  0
MLINESTYLE
  5
18
102
{ACAD_REACTORS
330
17
102
}
330
17
100
AcDbMlineStyle
  2
Standard
 70
     0
  3

 62
   256
 51
90.0
 52
90.0
 71
     2
 49
0.5
 62
   256
  6
BYLAYER
 49
-0.5
 62
   256
  6
BYLAYER
  0
ACDBPLACEHOLDER
  5
F
102
{ACAD_REACTORS
330
E
102
}
330
E
  0
SCALE
  5
48
102
{ACAD_REACTORS
330
47
102
}
330
47
100
AcDbScale
 70
     0
300
1:1
140
1.0
141
1.0
290
     1
  0
SCALE
  5
49
102
{ACAD_REACTORS
330
47
102
}
330
47
100
AcDbScale
 70
     0
300
1:2
140
1.0
141
2.0
290
     0
  0
SCALE
  5
4A
102
{ACAD_REACTORS
330
47
102
}
330
47
100
AcDbScale
 70
     0
300
1:4
140
1.0
141
4.0
290
     0
  0
SCALE
  5
4B
102
{ACAD_REACTORS
330
47
102
}
330
47
100
AcDbScale
 70
     0
300
1:5
140
1.0
141
5.0
290
     0
  0
SCALE
  5
4C
102
{ACAD_REACTORS
330
47
102
}
330
47
100
AcDbScale
 70
     0
300
1:8
140
1.0
141
8.0
290
     0
  0
SCALE
  5
4D
102
{ACAD_REACTORS
330
47
102
}
330
47
100
AcDbScale
 70
     0
300
1:10
140
1.0
141
10.0
290
     0
  0
SCALE
  5
4E
102
{ACAD_REACTORS
330
47
102
}
330
47
100
AcDbScale
 70
     0
300
1:16
140
1.0
141
16.0
290
     0
  0
SCALE
  5
4F
102
{ACAD_REACTORS
330
47
102
}
330
47
100
AcDbScale
 70
     0
300
1:20
140
1.0
141
20.0
290
     0
  0
SCALE
  5
50
102
{ACAD_REACTORS
330
47
102
}
330
47
100
AcDbScale
 70
     0
300
1:30
140
1.0
141
30.0
290
     0
  0
SCALE
  5
51
102
{ACAD_REACTORS
330
47
102
}
330
47
100
AcDbScale
 70
     0
300
1:40
140
1.0
141
40.0
290
     0
  0
SCALE
  5
52
102
{ACAD_REACTORS
330
47
102
}
330
47
100
AcDbScale
 70
     0
300
1:50
140
1.0
141
50.0
290
     0
  0
SCALE
  5
53
102
{ACAD_REACTORS
330
47
102
}
330
47
100
AcDbScale
 70
     0
300
1:100
140
1.0
141
100.0
290
     0
  0
SCALE
  5
54
102
{ACAD_REACTORS
330
47
102
}
330
47
100
AcDbScale
 70
     0
300
2:1
140
2.0
141
1.0
290
     0
  0
SCALE
  5
55
102
{ACAD_REACTORS
330
47
102
}
330
47
100
AcDbScale
 70
     0
300
4:1
140
4.0
141
1.0
290
     0
  0
SCALE
  5
56
102
{ACAD_REACTORS
330
47
102
}
330
47
100
AcDbScale
 70
     0
300
8:1
140
8.0
141
1.0
290
     0
  0
SCALE
  5
57
102
{ACAD_REACTORS
330
47
102
}
330
47
100
AcDbScale
 70
     0
300
10:1
140
10.0
141
1.0
290
     0
  0
SCALE
  5
58
102
{ACAD_REACTORS
330
47
102
}
330
47
100
AcDbScale
 70
     0
300
100:1
140
100.0
141
1.0
290
     0
  0
SCALE
  5
59
102
{ACAD_REACTORS
330
47
102
}
330
47
100
AcDbScale
 70
     0
300
1/128" = 1'-0"
140
0.0078125
141
12.0
290
     0
  0
SCALE
  5
5A
102
{ACAD_REACTORS
330
47
102
}
330
47
100
AcDbScale
 70
     0
300
1/64" = 1'-0"
140
0.015625
141
12.0
290
     0
  0
SCALE
  5
5B
102
{ACAD_REACTORS
330
47
102
}
330
47
100
AcDbScale
 70
     0
300
1/32" = 1'-0"
140
0.03125
141
12.0
290
     0
  0
SCALE
  5
5C
102
{ACAD_REACTORS
330
47
102
}
330
47
100
AcDbScale
 70
     0
300
1/16" = 1'-0"
140
0.0625
141
12.0
290
     0
  0
SCALE
  5
5D
102
{ACAD_REACTORS
330
47
102
}
330
47
100
AcDbScale
 70
     0
300
3/32" = 1'-0"
140
0.09375
141
12.0
290
     0
  0
SCALE
  5
5E
102
{ACAD_REACTORS
330
47
102
}
330
47
100
AcDbScale
 70
     0
300
1/8" = 1'-0"
140
0.125
141
12.0
290
     0
  0
SCALE
  5
5F
102
{ACAD_REACTORS
330
47
102
}
330
47
100
AcDbScale
 70
     0
300
3/16" = 1'-0"
140
0.1875
141
12.0
290
     0
  0
SCALE
  5
60
102
{ACAD_REACTORS
330
47
102
}
330
47
100
AcDbScale
 70
     0
300
1/4" = 1'-0"
140
0.25
141
12.0
290
     0
  0
SCALE
  5
61
102
{ACAD_REACTORS
330
47
102
}
330
47
100
AcDbScale
 70
     0
300
3/8" = 1'-0"
140
0.375
141
12.0
290
     0
  0
SCALE
  5
62
102
{ACAD_REACTORS
330
47
102
}
330
47
100
AcDbScale
 70
     0
300
1/2" = 1'-0"
140
0.5
141
12.0
290
     0
  0
SCALE
  5
63
102
{ACAD_REACTORS
330
47
102
}
330
47
100
AcDbScale
 70
     0
300
3/4" = 1'-0"
140
0.75
141
12.0
290
     0
  0
SCALE
  5
64
102
{ACAD_REACTORS
330
47
102
}
330
47
100
AcDbScale
 70
     0
300
1" = 1'-0"
140
1.0
141
12.0
290
     0
  0
SCALE
  5
65
102
{ACAD_REACTORS
330
47
102
}
330
47
100
AcDbScale
 70
     0
300
1-1/2" = 1'-0"
140
1.5
141
12.0
290
     0
  0
SCALE
  5
66
102
{ACAD_REACTORS
330
47
102
}
330
47
100
AcDbScale
 70
     0
300
3" = 1'-0"
140
3.0
141
12.0
290
     0
  0
SCALE
  5
67
102
{ACAD_REACTORS
330
47
102
}
330
47
100
AcDbScale
 70
     0
300
6" = 1'-0"
140
6.0
141
12.0
290
     0
  0
SCALE
  5
68
102
{ACAD_REACTORS
330
47
102
}
330
47
100
AcDbScale
 70
     0
300
1'-0" = 1'-0"
140
12.0
141
12.0
290
     0
  0
ENDSEC
  0
EOF
