  0
SECTION
  2
HEADER
  9
$ACADVER
  1
AC1018
  9
$ACADMAINTVER
 70
     0
  9
$DWGCODEPAGE
  3
ANSI_950
  9
$LASTSAVEDBY
  1
R2591
  9
$INSBASE
 10
0.0
 20
0.0
 30
0.0
  9
$EXTMIN
 10
0.0
 20
0.0
 30
0.0
  9
$EXTMAX
 10
297.0
 20
210.0
 30
0.0
  9
$LIMMIN
 10
0.0
 20
0.0
  9
$LIMMAX
 10
297.0
 20
210.0
  9
$ORTHOMODE
 70
     0
  9
$REGENMODE
 70
     1
  9
$FILLMODE
 70
     1
  9
$QTEXTMODE
 70
     0
  9
$MIRRTEXT
 70
     1
  9
$LTSCALE
 40
1.0
  9
$ATTMODE
 70
     1
  9
$TEXTSIZE
 40
2.5
  9
$TRACEWID
 40
1.0
  9
$TEXTSTYLE
  7
Standard
  9
$CLAYER
  8
0
  9
$CELTYPE
  6
ByLayer
  9
$CECOLOR
 62
   256
  9
$CELTSCALE
 40
1.0
  9
$DISPSILH
 70
     0
  9
$DIMSCALE
 40
1.0
  9
$DIMASZ
 40
2.0
  9
$DIMEXO
 40
1.0
  9
$DIMDLI
 40
3.75
  9
$DIMRND
 40
0.0
  9
$DIMDLE
 40
0.0
  9
$DIMEXE
 40
1.0
  9
$DIMTP
 40
0.0
  9
$DIMTM
 40
0.0
  9
$DIMTXT
 40
2.5
  9
$DIMCEN
 40
2.5
  9
$DIMTSZ
 40
0.0
  9
$DIMTOL
 70
     0
  9
$DIMLIM
 70
     0
  9
$DIMTIH
 70
     1
  9
$DIMTOH
 70
     1
  9
$DIMSE1
 70
     0
  9
$DIMSE2
 70
     0
  9
$DIMTAD
 70
     1
  9
$DIMZIN
 70
     0
  9
$DIMBLK
  1

  9
$DIMASO
 70
     1
  9
$DIMSHO
 70
     1
  9
$DIMPOST
  1

  9
$DIMAPOST
  1

  9
$DIMALT
 70
     0
  9
$DIMALTD
 70
     3
  9
$DIMALTF
 40
0.0393700787
  9
$DIMLFAC
 40
1.0
  9
$DIMTOFL
 70
     1
  9
$DIMTVP
 40
0.0
  9
$DIMTIX
 70
     0
  9
$DIMSOXD
 70
     0
  9
$DIMSAH
 70
     0
  9
$DIMBLK1
  1

  9
$DIMBLK2
  1

  9
$DIMSTYLE
  2
ISO-25
  9
$DIMCLRD
 70
     0
  9
$DIMCLRE
 70
     0
  9
$DIMCLRT
 70
     0
  9
$DIMTFAC
 40
1.0
  9
$DIMGAP
 40
1.0
  9
$DIMJUST
 70
     0
  9
$DIMSD1
 70
     0
  9
$DIMSD2
 70
     0
  9
$DIMTOLJ
 70
     0
  9
$DIMTZIN
 70
     0
  9
$DIMALTZ
 70
     0
  9
$DIMALTTZ
 70
     0
  9
$DIMUPT
 70
     0
  9
$DIMDEC
 70
     2
  9
$DIMTDEC
 70
     2
  9
$DIMALTU
 70
     2
  9
$DIMALTTD
 70
     3
  9
$DIMTXSTY
  7
Standard
  9
$DIMAUNIT
 70
     0
  9
$DIMADEC
 70
     1
  9
$DIMALTRND
 40
0.0
  9
$DIMAZIN
 70
     0
  9
$DIMDSEP
 70
    44
  9
$DIMATFIT
 70
     3
  9
$DIMFRAC
 70
     0
  9
$DIMLDRBLK
  1

  9
$DIMLUNIT
 70
     2
  9
$DIMLWD
 70
    -2
  9
$DIMLWE
 70
    -2
  9
$DIMTMOVE
 70
     0
  9
$LUNITS
 70
     2
  9
$LUPREC
 70
     2
  9
$SKETCHINC
 40
1.0
  9
$FILLETRAD
 40
0.0
  9
$AUNITS
 70
     0
  9
$AUPREC
 70
     1
  9
$MENU
  1
.
  9
$ELEVATION
 40
0.0
  9
$PELEVATION
 40
0.0
  9
$THICKNESS
 40
0.0
  9
$LIMCHECK
 70
     0
  9
$CHAMFERA
 40
0.0
  9
$CHAMFERB
 40
0.0
  9
$CHAMFERC
 40
0.0
  9
$CHAMFERD
 40
0.0
  9
$SKPOLY
 70
     0
  9
$TDCREATE
 40
2460139.46172544
  9
$TDUCREATE
 40
2460139.128392106
  9
$TDUPDATE
 40
2460139.461747396
  9
$TDUUPDATE
 40
2460139.128414062
  9
$TDINDWG
 40
0.0000000116
  9
$TDUSRTIMER
 40
0.0000000116
  9
$USRTIMER
 70
     1
  9
$ANGBASE
 50
0.0
  9
$ANGDIR
 70
     0
  9
$PDMODE
 70
     0
  9
$PDSIZE
 40
-1.0
  9
$PLINEWID
 40
0.0
  9
$SPLFRAME
 70
     0
  9
$SPLINETYPE
 70
     6
  9
$SPLINESEGS
 70
     8
  9
$HANDSEED
  5
4B9
  9
$SURFTAB1
 70
     6
  9
$SURFTAB2
 70
     6
  9
$SURFTYPE
 70
     6
  9
$SURFU
 70
     6
  9
$SURFV
 70
     6
  9
$UCSBASE
  2

  9
$UCSNAME
  2

  9
$UCSORG
 10
0.0
 20
0.0
 30
0.0
  9
$UCSXDIR
 10
1.0
 20
0.0
 30
0.0
  9
$UCSYDIR
 10
0.0
 20
1.0
 30
0.0
  9
$UCSORTHOREF
  2

  9
$UCSORTHOVIEW
 70
     0
  9
$UCSORGTOP
 10
0.0
 20
0.0
 30
0.0
  9
$UCSORGBOTTOM
 10
0.0
 20
0.0
 30
0.0
  9
$UCSORGLEFT
 10
0.0
 20
0.0
 30
0.0
  9
$UCSORGRIGHT
 10
0.0
 20
0.0
 30
0.0
  9
$UCSORGFRONT
 10
0.0
 20
0.0
 30
0.0
  9
$UCSORGBACK
 10
0.0
 20
0.0
 30
0.0
  9
$PUCSBASE
  2

  9
$PUCSNAME
  2

  9
$PUCSORG
 10
0.0
 20
0.0
 30
0.0
  9
$PUCSXDIR
 10
1.0
 20
0.0
 30
0.0
  9
$PUCSYDIR
 10
0.0
 20
1.0
 30
0.0
  9
$PUCSORTHOREF
  2

  9
$PUCSORTHOVIEW
 70
     0
  9
$PUCSORGTOP
 10
0.0
 20
0.0
 30
0.0
  9
$PUCSORGBOTTOM
 10
0.0
 20
0.0
 30
0.0
  9
$PUCSORGLEFT
 10
0.0
 20
0.0
 30
0.0
  9
$PUCSORGRIGHT
 10
0.0
 20
0.0
 30
0.0
  9
$PUCSORGFRONT
 10
0.0
 20
0.0
 30
0.0
  9
$PUCSORGBACK
 10
0.0
 20
0.0
 30
0.0
  9
$USERI1
 70
     0
  9
$USERI2
 70
     0
  9
$USERI3
 70
     0
  9
$USERI4
 70
     0
  9
$USERI5
 70
     0
  9
$USERR1
 40
0.0
  9
$USERR2
 40
0.0
  9
$USERR3
 40
0.0
  9
$USERR4
 40
0.0
  9
$USERR5
 40
0.0
  9
$WORLDVIEW
 70
     1
  9
$SHADEDGE
 70
     3
  9
$SHADEDIF
 70
    70
  9
$TILEMODE
 70
     1
  9
$MAXACTVP
 70
    64
  9
$PINSBASE
 10
0.0
 20
0.0
 30
0.0
  9
$PLIMCHECK
 70
     0
  9
$PEXTMIN
 10
1.0000000000E+20
 20
1.0000000000E+20
 30
1.0000000000E+20
  9
$PEXTMAX
 10
-1.0000000000E+20
 20
-1.0000000000E+20
 30
-1.0000000000E+20
  9
$PLIMMIN
 10
0.0
 20
0.0
  9
$PLIMMAX
 10
420.0
 20
297.0
  9
$UNITMODE
 70
     0
  9
$VISRETAIN
 70
     1
  9
$PLINEGEN
 70
     0
  9
$PSLTSCALE
 70
     1
  9
$TREEDEPTH
 70
  3020
  9
$CMLSTYLE
  2
Standard
  9
$CMLJUST
 70
     0
  9
$CMLSCALE
 40
20.0
  9
$PROXYGRAPHICS
 70
     1
  9
$MEASUREMENT
 70
     1
  9
$CELWEIGHT
370
    -1
  9
$ENDCAPS
280
     0
  9
$JOINSTYLE
280
     0
  9
$LWDISPLAY
290
     1
  9
$INSUNITS
 70
     4
  9
$HYPERLINKBASE
  1

  9
$STYLESHEET
  1

  9
$XEDIT
290
     1
  9
$CEPSNTYPE
380
     0
  9
$PSTYLEMODE
290
     1
  9
$FINGERPRINTGUID
  2
{e02f4fe5-df4d-49f9-9505-59061b22eb16}
  9
$VERSIONGUID
  2
{FAEB1C32-E019-11D5-929B-00C0DF256EC4}
  9
$EXTNAMES
290
     1
  9
$PSVPSCALE
 40
0.0
  9
$OLESTARTUP
290
     0
  9
$SORTENTS
280
   127
  9
$INDEXCTL
280
     0
  9
$HIDETEXT
280
     1
  9
$XCLIPFRAME
290
     0
  9
$HALOGAP
280
     0
  9
$OBSCOLOR
 70
   257
  9
$OBSLTYPE
280
     0
  9
$INTERSECTIONDISPLAY
280
     0
  9
$INTERSECTIONCOLOR
 70
   257
  9
$DIMASSOC
280
     2
  9
$PROJECTNAME
  1

  0
ENDSEC
  0
SECTION
  2
CLASSES
  0
CLASS
  1
ACDBDICTIONARYWDFLT
  2
AcDbDictionaryWithDefault
  3
ObjectDBX Classes
 90
        0
 91
        3
280
     0
281
     0
  0
CLASS
  1
VISUALSTYLE
  2
AcDbVisualStyle
  3
ObjectDBX Classes
 90
     4095
 91
        3
280
     0
281
     0
  0
CLASS
  1
MATERIAL
  2
AcDbMaterial
  3
ObjectDBX Classes
 90
     1153
 91
        3
280
     0
281
     0
  0
CLASS
  1
SCALE
  2
AcDbScale
  3
ObjectDBX Classes
 90
     1153
 91
        3
280
     0
281
     0
  0
CLASS
  1
TABLESTYLE
  2
AcDbTableStyle
  3
ObjectDBX Classes
 90
     4095
 91
        3
280
     0
281
     0
  0
CLASS
  1
MLEADERSTYLE
  2
AcDbMLeaderStyle
  3
ACDB_MLEADERSTYLE_CLASS
 90
     4095
 91
        3
280
     0
281
     0
  0
CLASS
  1
SUN
  2
AcDbSun
  3
SCENEOE
 90
     1153
 91
        3
280
     0
281
     0
  0
CLASS
  1
DICTIONARYVAR
  2
AcDbDictionaryVar
  3
ObjectDBX Classes
 90
        0
 91
        3
280
     0
281
     0
  0
CLASS
  1
CELLSTYLEMAP
  2
AcDbCellStyleMap
  3
ObjectDBX Classes
 90
     1152
 91
        3
280
     0
281
     0
  0
ENDSEC
  0
SECTION
  2
TABLES
  0
TABLE
  2
VPORT
  5
8
330
0
100
AcDbSymbolTable
 70
     1
  0
VPORT
  5
29
330
8
100
AcDbSymbolTableRecord
100
AcDbViewportTableRecord
  2
*Active
 70
     0
 10
0.0
 20
0.0
 11
1.0
 21
1.0
 12
148.5
 22
105.0
 13
0.0
 23
0.0
 14
10.0
 24
10.0
 15
10.0
 25
10.0
 16
0.0
 26
0.0
 36
1.0
 17
0.0
 27
0.0
 37
0.0
 40
210.0
 41
1.4142857143
 42
50.0
 43
0.0
 44
0.0
 50
0.0
 51
0.0
 71
     0
 72
  2000
 73
     1
 74
     3
 75
     0
 76
     0
 77
     0
 78
     0
281
     0
 65
     1
110
0.0
120
0.0
130
0.0
111
1.0
121
0.0
131
0.0
112
0.0
122
1.0
132
0.0
 79
     0
146
0.0
  0
ENDTAB
  0
TABLE
  2
LTYPE
  5
5
330
0
100
AcDbSymbolTable
 70
     6
  0
LTYPE
  5
14
330
5
100
AcDbSymbolTableRecord
100
AcDbLinetypeTableRecord
  2
ByBlock
 70
     0
  3

 72
    65
 73
     0
 40
0.0
  0
LTYPE
  5
15
330
5
100
AcDbSymbolTableRecord
100
AcDbLinetypeTableRecord
  2
ByLayer
 70
     0
  3

 72
    65
 73
     0
 40
0.0
  0
LTYPE
  5
16
330
5
100
AcDbSymbolTableRecord
100
AcDbLinetypeTableRecord
  2
Continuous
 70
     0
  3
Solid line
 72
    65
 73
     0
 40
0.0
  0
LTYPE
  5
5E
330
5
100
AcDbSymbolTableRecord
100
AcDbLinetypeTableRecord
  2
HIDDEN
 70
     0
  3
Hidden __ __ __ __ __ __ __ __ __ __ __ __ __ __
 72
    65
 73
     2
 40
1.905
 49
1.27
 74
     0
 49
-0.635
 74
     0
  0
LTYPE
  5
5F
330
5
100
AcDbSymbolTableRecord
100
AcDbLinetypeTableRecord
  2
PHANTOM
 70
     0
  3
Phantom ______  __  __  ______  __  __  ______
 72
    65
 73
     6
 40
12.7
 49
6.35
 74
     0
 49
-1.27
 74
     0
 49
1.27
 74
     0
 49
-1.27
 74
     0
 49
1.27
 74
     0
 49
-1.27
 74
     0
  0
LTYPE
  5
60
330
5
100
AcDbSymbolTableRecord
100
AcDbLinetypeTableRecord
  2
CENTER
 70
     0
  3
Center ____ _ ____ _ ____ _ ____ _ ____ _ ____
 72
    65
 73
     4
 40
10.16
 49
6.35
 74
     0
 49
-1.27
 74
     0
 49
1.27
 74
     0
 49
-1.27
 74
     0
  0
LTYPE
  5
61
330
5
100
AcDbSymbolTableRecord
100
AcDbLinetypeTableRecord
  2
CENTERX2
 70
     0
  3
Center (2x) ________  __  ________  __  _____
 72
    65
 73
     4
 40
20.32
 49
12.7
 74
     0
 49
-2.54
 74
     0
 49
2.54
 74
     0
 49
-2.54
 74
     0
  0
LTYPE
  5
62
330
5
100
AcDbSymbolTableRecord
100
AcDbLinetypeTableRecord
  2
DOT2
 70
     0
  3
Dot (.5x) ........................................
 72
    65
 73
     2
 40
0.635
 49
0.0
 74
     0
 49
-0.635
 74
     0
  0
ENDTAB
  0
TABLE
  2
LAYER
  5
2
330
0
100
AcDbSymbolTable
 70
     3
  0
LAYER
  5
10
330
2
100
AcDbSymbolTableRecord
100
AcDbLayerTableRecord
  2
0
 70
     0
 62
     7
  6
Continuous
370
    -3
390
F
  0
LAYER
  5
63
330
2
100
AcDbSymbolTableRecord
100
AcDbLayerTableRecord
  2
SLD-0
 70
     0
 62
     7
  6
Continuous
370
    25
390
F
  0
LAYER
  5
64
330
2
100
AcDbSymbolTableRecord
100
AcDbLayerTableRecord
  2
工作區域參考線
 70
     0
 62
   179
  6
Continuous
370
    -3
390
F
  0
ENDTAB
  0
TABLE
  2
STYLE
  5
3
330
0
100
AcDbSymbolTable
 70
     2
  0
STYLE
  5
11
330
3
100
AcDbSymbolTableRecord
100
AcDbTextStyleTableRecord
  2
Standard
 70
     0
 40
0.0
 41
1.0
 50
0.0
 71
     0
 42
2.5
  3
txt
  4

  0
STYLE
  5
B9
330
3
100
AcDbSymbolTableRecord
100
AcDbTextStyleTableRecord
  2
SLDTEXTSTYLE0
 70
     0
 40
0.0
 41
0.605
 50
0.0
 71
     0
 42
2.5
  3
TXT
  4

  0
ENDTAB
  0
TABLE
  2
VIEW
  5
6
330
0
100
AcDbSymbolTable
 70
     0
  0
ENDTAB
  0
TABLE
  2
UCS
  5
7
330
0
100
AcDbSymbolTable
 70
     0
  0
ENDTAB
  0
TABLE
  2
APPID
  5
9
330
0
100
AcDbSymbolTable
 70
     2
  0
APPID
  5
12
330
9
100
AcDbSymbolTableRecord
100
AcDbRegAppTableRecord
  2
ACAD
 70
     0
  0
APPID
  5
4B1
330
9
100
AcDbSymbolTableRecord
100
AcDbRegAppTableRecord
  2
ACAD_MLEADERVER
 70
     0
  0
ENDTAB
  0
TABLE
  2
DIMSTYLE
  5
A
330
0
100
AcDbSymbolTable
 70
     4
100
AcDbDimStyleTable
  0
DIMSTYLE
105
27
330
A
100
AcDbSymbolTableRecord
100
AcDbDimStyleTableRecord
  2
ISO-25
 70
     0
 41
2.5
 42
0.625
 43
3.75
 44
1.25
 73
     0
 74
     0
 77
     1
 78
     8
140
2.5
141
2.5
143
0.0393700787
147
0.625
171
     3
172
     1
178
     0
271
     2
272
     2
274
     3
278
    44
283
     0
284
     8
340
11
  0
DIMSTYLE
105
2C2
102
{ACAD_REACTORS
330
2C1
330
2CC
330
2D6
330
2E0
330
2EA
330
30A
330
48C
330
496
102
}
330
A
100
AcDbSymbolTableRecord
100
AcDbDimStyleTableRecord
  2
SLDDIMSTYLE0
 70
     0
 41
2.0
 44
0.0
 45
0.000000001
 73
     0
 74
     0
 77
     1
 78
    12
 79
     3
140
2.5
147
0.625
173
     1
178
     0
271
     2
272
     2
276
     2
284
    12
340
B9
  0
DIMSTYLE
105
2F5
102
{ACAD_REACTORS
330
2F4
330
483
102
}
330
A
100
AcDbSymbolTableRecord
100
AcDbDimStyleTableRecord
  2
SLDDIMSTYLE1
 70
     0
  3
<>
 41
2.0
 44
0.0
 45
0.000000001
 78
    12
 79
     3
140
2.5
141
0.0
147
0.625
173
     1
178
     0
271
     2
272
     2
276
     2
284
    12
340
B9
  0
DIMSTYLE
105
2FF
102
{ACAD_REACTORS
330
2FE
102
}
330
A
100
AcDbSymbolTableRecord
100
AcDbDimStyleTableRecord
  2
SLDDIMSTYLE2
 70
     0
 41
2.0
 44
0.0
 45
0.000000001
 73
     0
 74
     0
 77
     1
 78
    12
 79
     3
140
2.5
147
0.625
173
     1
178
     0
271
     0
272
     0
276
     2
284
    12
340
B9
  0
ENDTAB
  0
TABLE
  2
BLOCK_RECORD
  5
1
330
0
100
AcDbSymbolTable
 70
    21
  0
BLOCK_RECORD
  5
1F
330
1
100
AcDbSymbolTableRecord
100
AcDbBlockTableRecord
  2
*Model_Space
340
22
  0
BLOCK_RECORD
  5
1B
330
1
100
AcDbSymbolTableRecord
100
AcDbBlockTableRecord
  2
*Paper_Space
340
1E
  0
BLOCK_RECORD
  5
23
330
1
100
AcDbSymbolTableRecord
100
AcDbBlockTableRecord
  2
*Paper_Space0
340
26
  0
BLOCK_RECORD
  5
65
330
1
100
AcDbSymbolTableRecord
100
AcDbBlockTableRecord
  2
圖塊6
340
0
102
{BLKREFS
331
B8
102
}
  0
BLOCK_RECORD
  5
1CC
330
1
100
AcDbSymbolTableRecord
100
AcDbBlockTableRecord
  2
SW_CENTERMARKSYMBOL_0
340
0
102
{BLKREFS
331
1D7
102
}
  0
BLOCK_RECORD
  5
1D8
330
1
100
AcDbSymbolTableRecord
100
AcDbBlockTableRecord
  2
SW_CENTERMARKSYMBOL_1
340
0
102
{BLKREFS
331
1E3
102
}
  0
BLOCK_RECORD
  5
1E4
330
1
100
AcDbSymbolTableRecord
100
AcDbBlockTableRecord
  2
SW_CENTERMARKSYMBOL_2
340
0
102
{BLKREFS
331
1EF
102
}
  0
BLOCK_RECORD
  5
1F0
330
1
100
AcDbSymbolTableRecord
100
AcDbBlockTableRecord
  2
SW_CENTERMARKSYMBOL_3
340
0
102
{BLKREFS
331
1FB
102
}
  0
BLOCK_RECORD
  5
1FC
330
1
100
AcDbSymbolTableRecord
100
AcDbBlockTableRecord
  2
SW_CENTERMARKSYMBOL_4
340
0
102
{BLKREFS
331
207
102
}
  0
BLOCK_RECORD
  5
208
330
1
100
AcDbSymbolTableRecord
100
AcDbBlockTableRecord
  2
SW_CENTERMARKSYMBOL_5
340
0
102
{BLKREFS
331
213
102
}
  0
BLOCK_RECORD
  5
2C3
330
1
100
AcDbSymbolTableRecord
100
AcDbBlockTableRecord
  2
_D
340
0
  0
BLOCK_RECORD
  5
2CD
330
1
100
AcDbSymbolTableRecord
100
AcDbBlockTableRecord
  2
_D_1
340
0
  0
BLOCK_RECORD
  5
2D7
330
1
100
AcDbSymbolTableRecord
100
AcDbBlockTableRecord
  2
_D_2
340
0
  0
BLOCK_RECORD
  5
2E1
330
1
100
AcDbSymbolTableRecord
100
AcDbBlockTableRecord
  2
_D_3
340
0
  0
BLOCK_RECORD
  5
2EB
330
1
100
AcDbSymbolTableRecord
100
AcDbBlockTableRecord
  2
_D_4
340
0
  0
BLOCK_RECORD
  5
2F6
330
1
100
AcDbSymbolTableRecord
100
AcDbBlockTableRecord
  2
_D_5
340
0
  0
BLOCK_RECORD
  5
300
330
1
100
AcDbSymbolTableRecord
100
AcDbBlockTableRecord
  2
_D_6
340
0
  0
BLOCK_RECORD
  5
30B
330
1
100
AcDbSymbolTableRecord
100
AcDbBlockTableRecord
  2
_D_7
340
0
  0
BLOCK_RECORD
  5
317
330
1
100
AcDbSymbolTableRecord
100
AcDbBlockTableRecord
  2
SW_CENTERMARKSYMBOL_6
340
0
102
{BLKREFS
331
322
102
}
  0
BLOCK_RECORD
  5
484
330
1
100
AcDbSymbolTableRecord
100
AcDbBlockTableRecord
  2
_D_8
340
0
  0
BLOCK_RECORD
  5
48D
330
1
100
AcDbSymbolTableRecord
100
AcDbBlockTableRecord
  2
_D_9
340
0
  0
BLOCK_RECORD
  5
497
330
1
100
AcDbSymbolTableRecord
100
AcDbBlockTableRecord
  2
_D_10
340
0
  0
BLOCK_RECORD
  5
4A0
330
1
100
AcDbSymbolTableRecord
100
AcDbBlockTableRecord
  2
SW_CENTERMARKSYMBOL_7
340
0
102
{BLKREFS
331
4AB
102
}
  0
ENDTAB
  0
ENDSEC
  0
SECTION
  2
BLOCKS
  0
BLOCK
  5
20
330
1F
100
AcDbEntity
  8
0
100
AcDbBlockBegin
  2
*Model_Space
 70
     0
 10
0.0
 20
0.0
 30
0.0
  3
*Model_Space
  1

  0
ENDBLK
  5
21
330
1F
100
AcDbEntity
  8
0
100
AcDbBlockEnd
  0
BLOCK
  5
1C
330
1B
100
AcDbEntity
 67
     1
  8
0
100
AcDbBlockBegin
  2
*Paper_Space
 70
     0
 10
0.0
 20
0.0
 30
0.0
  3
*Paper_Space
  1

  0
ENDBLK
  5
1D
330
1B
100
AcDbEntity
 67
     1
  8
0
100
AcDbBlockEnd
  0
BLOCK
  5
24
330
23
100
AcDbEntity
  8
0
100
AcDbBlockBegin
  2
*Paper_Space0
 70
     0
 10
0.0
 20
0.0
 30
0.0
  3
*Paper_Space0
  1

  0
ENDBLK
  5
25
330
23
100
AcDbEntity
  8
0
100
AcDbBlockEnd
  0
BLOCK
  5
66
330
65
100
AcDbEntity
  8
0
100
AcDbBlockBegin
  2
圖塊6
 70
     0
 10
0.0
 20
0.0
 30
0.0
  3
圖塊6
  1

  0
ARC
  5
68
330
65
100
AcDbEntity
  8
0
 62
     7
370
    35
100
AcDbCircle
 10
1.5301544339
 20
6.1020682891
 30
0.0
 40
1.53015443394367
100
AcDbArc
 50
130.2115225915
 51
228.588904108
  0
ARC
  5
69
330
65
100
AcDbEntity
  8
0
 62
     7
370
    35
100
AcDbCircle
 10
4.8509135981
 20
5.9949454415
 30
0.0
 40
2.577335426817622
100
AcDbArc
 50
140.4331765613
 51
251.0865666567
  0
ARC
  5
6A
330
65
100
AcDbEntity
  8
0
 62
     7
370
    35
100
AcDbCircle
 10
5.1765041982
 20
6.3117559713
 30
0.0
 40
2.989636657769863
100
AcDbArc
 50
247.1485306747
 51
309.6030773927
  0
LINE
  5
6B
330
65
100
AcDbEntity
  8
0
 62
     7
370
    35
100
AcDbLine
 10
1.8488977269
 20
8.5321825984
 30
0.0
 11
0.542269472
 21
7.2705955219
 31
0.0
  0
LINE
  5
6C
330
65
100
AcDbEntity
  8
0
 62
     7
370
    35
100
AcDbLine
 10
0.51802289
 20
4.9544784977
 30
0.0
 11
4.5272252002
 21
1.4698746574
 31
0.0
  0
LINE
  5
6D
330
65
100
AcDbEntity
  8
0
 62
     7
370
    35
100
AcDbLine
 10
4.5272252002
 20
1.4698746574
 30
0.0
 11
3.8961732797
 21
0.853974267
 31
0.0
  0
LINE
  5
6E
330
65
100
AcDbEntity
  8
0
 62
     7
370
    35
100
AcDbLine
 10
3.8961732797
 20
0.853974267
 30
0.0
 11
4.8880526445
 21
0.0
 31
0.0
  0
LINE
  5
6F
330
65
100
AcDbEntity
  8
0
 62
     7
370
    35
100
AcDbLine
 10
8.0977170788
 20
3.1165779655
 30
0.0
 11
7.0822940472
 21
4.0083036932
 31
0.0
  0
LINE
  5
70
330
65
100
AcDbEntity
  8
0
 62
     7
370
    35
100
AcDbLine
 10
2.8640915743
 20
7.6366506975
 30
0.0
 11
1.8488977269
 21
8.5321825984
 31
0.0
  0
LINE
  5
71
330
65
100
AcDbEntity
  8
0
 62
     7
370
    35
100
AcDbLine
 10
4.8880526445
 20
0.0
 30
0.0
 11
8.0977170788
 21
3.1165779655
 31
0.0
  0
ENDBLK
  5
67
330
65
100
AcDbEntity
  8
0
100
AcDbBlockEnd
  0
BLOCK
  5
1CD
330
1CC
100
AcDbEntity
  8
0
100
AcDbBlockBegin
  2
SW_CENTERMARKSYMBOL_0
 70
     0
 10
0.0
 20
0.0
 30
0.0
  3
SW_CENTERMARKSYMBOL_0
  1

  0
LINE
  5
1CF
330
1CC
100
AcDbEntity
  8
SLD-0
 62
     0
100
AcDbLine
 10
0.0
 20
0.0
 30
0.0
 11
0.0
 21
1.0
 31
0.0
  0
LINE
  5
1D0
330
1CC
100
AcDbEntity
  8
SLD-0
 62
     0
100
AcDbLine
 10
0.0
 20
0.0
 30
0.0
 11
-1.0
 21
0.0
 31
0.0
  0
LINE
  5
1D1
330
1CC
100
AcDbEntity
  8
SLD-0
 62
     0
100
AcDbLine
 10
0.0
 20
0.0
 30
0.0
 11
0.0
 21
-1.0
 31
0.0
  0
LINE
  5
1D2
330
1CC
100
AcDbEntity
  8
SLD-0
 62
     0
100
AcDbLine
 10
0.0
 20
0.0
 30
0.0
 11
1.0
 21
0.0
 31
0.0
  0
LINE
  5
1D3
330
1CC
100
AcDbEntity
  8
SLD-0
 62
     0
100
AcDbLine
 10
0.0
 20
2.0
 30
0.0
 11
0.0
 21
2.25
 31
0.0
  0
LINE
  5
1D4
330
1CC
100
AcDbEntity
  8
SLD-0
 62
     0
100
AcDbLine
 10
-2.0
 20
0.0
 30
0.0
 11
-2.25
 21
0.0
 31
0.0
  0
LINE
  5
1D5
330
1CC
100
AcDbEntity
  8
SLD-0
 62
     0
100
AcDbLine
 10
0.0
 20
-2.0
 30
0.0
 11
0.0
 21
-2.25
 31
0.0
  0
LINE
  5
1D6
330
1CC
100
AcDbEntity
  8
SLD-0
 62
     0
100
AcDbLine
 10
2.0
 20
0.0
 30
0.0
 11
2.25
 21
0.0
 31
0.0
  0
ENDBLK
  5
1CE
330
1CC
100
AcDbEntity
  8
0
100
AcDbBlockEnd
  0
BLOCK
  5
1D9
330
1D8
100
AcDbEntity
  8
0
100
AcDbBlockBegin
  2
SW_CENTERMARKSYMBOL_1
 70
     0
 10
0.0
 20
0.0
 30
0.0
  3
SW_CENTERMARKSYMBOL_1
  1

  0
LINE
  5
1DB
330
1D8
100
AcDbEntity
  8
SLD-0
 62
     0
100
AcDbLine
 10
0.0
 20
0.0
 30
0.0
 11
0.0
 21
1.0
 31
0.0
  0
LINE
  5
1DC
330
1D8
100
AcDbEntity
  8
SLD-0
 62
     0
100
AcDbLine
 10
0.0
 20
0.0
 30
0.0
 11
-1.0
 21
0.0
 31
0.0
  0
LINE
  5
1DD
330
1D8
100
AcDbEntity
  8
SLD-0
 62
     0
100
AcDbLine
 10
0.0
 20
0.0
 30
0.0
 11
0.0
 21
-1.0
 31
0.0
  0
LINE
  5
1DE
330
1D8
100
AcDbEntity
  8
SLD-0
 62
     0
100
AcDbLine
 10
0.0
 20
0.0
 30
0.0
 11
1.0
 21
0.0
 31
0.0
  0
LINE
  5
1DF
330
1D8
100
AcDbEntity
  8
SLD-0
 62
     0
100
AcDbLine
 10
0.0
 20
2.0
 30
0.0
 11
0.0
 21
2.25
 31
0.0
  0
LINE
  5
1E0
330
1D8
100
AcDbEntity
  8
SLD-0
 62
     0
100
AcDbLine
 10
-2.0
 20
0.0
 30
0.0
 11
-2.25
 21
0.0
 31
0.0
  0
LINE
  5
1E1
330
1D8
100
AcDbEntity
  8
SLD-0
 62
     0
100
AcDbLine
 10
0.0
 20
-2.0
 30
0.0
 11
0.0
 21
-2.25
 31
0.0
  0
LINE
  5
1E2
330
1D8
100
AcDbEntity
  8
SLD-0
 62
     0
100
AcDbLine
 10
2.0
 20
0.0
 30
0.0
 11
2.25
 21
0.0
 31
0.0
  0
ENDBLK
  5
1DA
330
1D8
100
AcDbEntity
  8
0
100
AcDbBlockEnd
  0
BLOCK
  5
1E5
330
1E4
100
AcDbEntity
  8
0
100
AcDbBlockBegin
  2
SW_CENTERMARKSYMBOL_2
 70
     0
 10
0.0
 20
0.0
 30
0.0
  3
SW_CENTERMARKSYMBOL_2
  1

  0
LINE
  5
1E7
330
1E4
100
AcDbEntity
  8
SLD-0
 62
     0
100
AcDbLine
 10
0.0
 20
0.0
 30
0.0
 11
0.0
 21
1.0
 31
0.0
  0
LINE
  5
1E8
330
1E4
100
AcDbEntity
  8
SLD-0
 62
     0
100
AcDbLine
 10
0.0
 20
0.0
 30
0.0
 11
-1.0
 21
0.0
 31
0.0
  0
LINE
  5
1E9
330
1E4
100
AcDbEntity
  8
SLD-0
 62
     0
100
AcDbLine
 10
0.0
 20
0.0
 30
0.0
 11
0.0
 21
-1.0
 31
0.0
  0
LINE
  5
1EA
330
1E4
100
AcDbEntity
  8
SLD-0
 62
     0
100
AcDbLine
 10
0.0
 20
0.0
 30
0.0
 11
1.0
 21
0.0
 31
0.0
  0
LINE
  5
1EB
330
1E4
100
AcDbEntity
  8
SLD-0
 62
     0
100
AcDbLine
 10
0.0
 20
2.0
 30
0.0
 11
0.0
 21
2.25
 31
0.0
  0
LINE
  5
1EC
330
1E4
100
AcDbEntity
  8
SLD-0
 62
     0
100
AcDbLine
 10
-2.0
 20
0.0
 30
0.0
 11
-2.25
 21
0.0
 31
0.0
  0
LINE
  5
1ED
330
1E4
100
AcDbEntity
  8
SLD-0
 62
     0
100
AcDbLine
 10
0.0
 20
-2.0
 30
0.0
 11
0.0
 21
-2.25
 31
0.0
  0
LINE
  5
1EE
330
1E4
100
AcDbEntity
  8
SLD-0
 62
     0
100
AcDbLine
 10
2.0
 20
0.0
 30
0.0
 11
2.25
 21
0.0
 31
0.0
  0
ENDBLK
  5
1E6
330
1E4
100
AcDbEntity
  8
0
100
AcDbBlockEnd
  0
BLOCK
  5
1F1
330
1F0
100
AcDbEntity
  8
0
100
AcDbBlockBegin
  2
SW_CENTERMARKSYMBOL_3
 70
     0
 10
0.0
 20
0.0
 30
0.0
  3
SW_CENTERMARKSYMBOL_3
  1

  0
LINE
  5
1F3
330
1F0
100
AcDbEntity
  8
SLD-0
 62
     0
100
AcDbLine
 10
0.0
 20
0.0
 30
0.0
 11
0.0
 21
1.0
 31
0.0
  0
LINE
  5
1F4
330
1F0
100
AcDbEntity
  8
SLD-0
 62
     0
100
AcDbLine
 10
0.0
 20
0.0
 30
0.0
 11
-1.0
 21
0.0
 31
0.0
  0
LINE
  5
1F5
330
1F0
100
AcDbEntity
  8
SLD-0
 62
     0
100
AcDbLine
 10
0.0
 20
0.0
 30
0.0
 11
0.0
 21
-1.0
 31
0.0
  0
LINE
  5
1F6
330
1F0
100
AcDbEntity
  8
SLD-0
 62
     0
100
AcDbLine
 10
0.0
 20
0.0
 30
0.0
 11
1.0
 21
0.0
 31
0.0
  0
LINE
  5
1F7
330
1F0
100
AcDbEntity
  8
SLD-0
 62
     0
100
AcDbLine
 10
0.0
 20
2.0
 30
0.0
 11
0.0
 21
2.25
 31
0.0
  0
LINE
  5
1F8
330
1F0
100
AcDbEntity
  8
SLD-0
 62
     0
100
AcDbLine
 10
-2.0
 20
0.0
 30
0.0
 11
-2.25
 21
0.0
 31
0.0
  0
LINE
  5
1F9
330
1F0
100
AcDbEntity
  8
SLD-0
 62
     0
100
AcDbLine
 10
0.0
 20
-2.0
 30
0.0
 11
0.0
 21
-2.25
 31
0.0
  0
LINE
  5
1FA
330
1F0
100
AcDbEntity
  8
SLD-0
 62
     0
100
AcDbLine
 10
2.0
 20
0.0
 30
0.0
 11
2.25
 21
0.0
 31
0.0
  0
ENDBLK
  5
1F2
330
1F0
100
AcDbEntity
  8
0
100
AcDbBlockEnd
  0
BLOCK
  5
1FD
330
1FC
100
AcDbEntity
  8
0
100
AcDbBlockBegin
  2
SW_CENTERMARKSYMBOL_4
 70
     0
 10
0.0
 20
0.0
 30
0.0
  3
SW_CENTERMARKSYMBOL_4
  1

  0
LINE
  5
1FF
330
1FC
100
AcDbEntity
  8
SLD-0
 62
     0
100
AcDbLine
 10
0.0
 20
0.0
 30
0.0
 11
0.0
 21
1.0
 31
0.0
  0
LINE
  5
200
330
1FC
100
AcDbEntity
  8
SLD-0
 62
     0
100
AcDbLine
 10
0.0
 20
0.0
 30
0.0
 11
-1.0
 21
0.0
 31
0.0
  0
LINE
  5
201
330
1FC
100
AcDbEntity
  8
SLD-0
 62
     0
100
AcDbLine
 10
0.0
 20
0.0
 30
0.0
 11
0.0
 21
-1.0
 31
0.0
  0
LINE
  5
202
330
1FC
100
AcDbEntity
  8
SLD-0
 62
     0
100
AcDbLine
 10
0.0
 20
0.0
 30
0.0
 11
1.0
 21
0.0
 31
0.0
  0
LINE
  5
203
330
1FC
100
AcDbEntity
  8
SLD-0
 62
     0
100
AcDbLine
 10
0.0
 20
2.0
 30
0.0
 11
0.0
 21
4.0
 31
0.0
  0
LINE
  5
204
330
1FC
100
AcDbEntity
  8
SLD-0
 62
     0
100
AcDbLine
 10
-2.0
 20
0.0
 30
0.0
 11
-4.0
 21
0.0
 31
0.0
  0
LINE
  5
205
330
1FC
100
AcDbEntity
  8
SLD-0
 62
     0
100
AcDbLine
 10
0.0
 20
-2.0
 30
0.0
 11
0.0
 21
-4.0
 31
0.0
  0
LINE
  5
206
330
1FC
100
AcDbEntity
  8
SLD-0
 62
     0
100
AcDbLine
 10
2.0
 20
0.0
 30
0.0
 11
4.0
 21
0.0
 31
0.0
  0
ENDBLK
  5
1FE
330
1FC
100
AcDbEntity
  8
0
100
AcDbBlockEnd
  0
BLOCK
  5
209
330
208
100
AcDbEntity
  8
0
100
AcDbBlockBegin
  2
SW_CENTERMARKSYMBOL_5
 70
     0
 10
0.0
 20
0.0
 30
0.0
  3
SW_CENTERMARKSYMBOL_5
  1

  0
LINE
  5
20B
330
208
100
AcDbEntity
  8
SLD-0
 62
     0
100
AcDbLine
 10
0.0
 20
0.0
 30
0.0
 11
0.0
 21
1.0
 31
0.0
  0
LINE
  5
20C
330
208
100
AcDbEntity
  8
SLD-0
 62
     0
100
AcDbLine
 10
0.0
 20
0.0
 30
0.0
 11
-1.0
 21
0.0
 31
0.0
  0
LINE
  5
20D
330
208
100
AcDbEntity
  8
SLD-0
 62
     0
100
AcDbLine
 10
0.0
 20
0.0
 30
0.0
 11
0.0
 21
-1.0
 31
0.0
  0
LINE
  5
20E
330
208
100
AcDbEntity
  8
SLD-0
 62
     0
100
AcDbLine
 10
0.0
 20
0.0
 30
0.0
 11
1.0
 21
0.0
 31
0.0
  0
LINE
  5
20F
330
208
100
AcDbEntity
  8
SLD-0
 62
     0
100
AcDbLine
 10
0.0
 20
2.0
 30
0.0
 11
0.0
 21
4.0
 31
0.0
  0
LINE
  5
210
330
208
100
AcDbEntity
  8
SLD-0
 62
     0
100
AcDbLine
 10
-2.0
 20
0.0
 30
0.0
 11
-4.0
 21
0.0
 31
0.0
  0
LINE
  5
211
330
208
100
AcDbEntity
  8
SLD-0
 62
     0
100
AcDbLine
 10
0.0
 20
-2.0
 30
0.0
 11
0.0
 21
-4.0
 31
0.0
  0
LINE
  5
212
330
208
100
AcDbEntity
  8
SLD-0
 62
     0
100
AcDbLine
 10
2.0
 20
0.0
 30
0.0
 11
4.0
 21
0.0
 31
0.0
  0
ENDBLK
  5
20A
330
208
100
AcDbEntity
  8
0
100
AcDbBlockEnd
  0
BLOCK
  5
2C4
330
2C3
100
AcDbEntity
  8
0
100
AcDbBlockBegin
  2
_D
 70
     0
 10
0.0
 20
0.0
 30
0.0
  3
_D
  1

  0
SOLID
  5
2C6
330
2C3
100
AcDbEntity
  8
SLD-0
 62
     7
100
AcDbTrace
 10
99.6482113403
 20
58.2331446404
 30
0.0
 11
101.6482113403
 21
57.9831446404
 31
0.0
 12
101.6482113403
 22
58.4831446404
 32
0.0
 13
101.6482113403
 23
58.4831446404
 33
0.0
  0
SOLID
  5
2C7
330
2C3
100
AcDbEntity
  8
SLD-0
 62
     7
100
AcDbTrace
 10
104.6482113403
 20
58.2331446404
 30
0.0
 11
102.6482113403
 21
58.4831446404
 31
0.0
 12
102.6482113403
 22
57.9831446404
 32
0.0
 13
102.6482113403
 23
57.9831446404
 33
0.0
  0
LINE
  5
2C8
330
2C3
100
AcDbEntity
  8
SLD-0
 62
     7
100
AcDbLine
 10
99.6482113403
 20
64.695877122
 30
0.0
 11
99.6482113403
 21
57.2331446404
 31
0.0
  0
LINE
  5
2C9
330
2C3
100
AcDbEntity
  8
SLD-0
 62
     7
100
AcDbLine
 10
104.6482113403
 20
84.995877122
 30
0.0
 11
104.6482113403
 21
57.2331446404
 31
0.0
  0
LINE
  5
2CA
330
2C3
100
AcDbEntity
  8
SLD-0
 62
     7
100
AcDbLine
 10
99.6482113403
 20
58.2331446404
 30
0.0
 11
104.6482113403
 21
58.2331446404
 31
0.0
  0
MTEXT
  5
2CB
330
2C3
100
AcDbEntity
  8
SLD-0
 62
     7
100
AcDbMText
 10
101.1933502279
 20
61.4558138152
 30
0.0
 40
2.5
 41
0.0
 71
     1
 72
     1
  1
5
  7
SLDTEXTSTYLE0
 73
     1
 44
1.0
  0
ENDBLK
  5
2C5
330
2C3
100
AcDbEntity
  8
0
100
AcDbBlockEnd
  0
BLOCK
  5
2CE
330
2CD
100
AcDbEntity
  8
0
100
AcDbBlockBegin
  2
_D_1
 70
     0
 10
0.0
 20
0.0
 30
0.0
  3
_D_1
  1

  0
SOLID
  5
2D0
330
2CD
100
AcDbEntity
  8
SLD-0
 62
     7
100
AcDbTrace
 10
99.6482113403
 20
52.1407620019
 30
0.0
 11
101.6482113403
 21
51.8907620019
 31
0.0
 12
101.6482113403
 22
52.3907620019
 32
0.0
 13
101.6482113403
 23
52.3907620019
 33
0.0
  0
SOLID
  5
2D1
330
2CD
100
AcDbEntity
  8
SLD-0
 62
     7
100
AcDbTrace
 10
109.6482113403
 20
52.1407620019
 30
0.0
 11
107.6482113403
 21
52.3907620019
 31
0.0
 12
107.6482113403
 22
51.8907620019
 32
0.0
 13
107.6482113403
 23
51.8907620019
 33
0.0
  0
LINE
  5
2D2
330
2CD
100
AcDbEntity
  8
SLD-0
 62
     7
100
AcDbLine
 10
99.6482113403
 20
64.695877122
 30
0.0
 11
99.6482113403
 21
51.1407620019
 31
0.0
  0
LINE
  5
2D3
330
2CD
100
AcDbEntity
  8
SLD-0
 62
     7
100
AcDbLine
 10
109.6482113403
 20
64.695877122
 30
0.0
 11
109.6482113403
 21
51.1407620019
 31
0.0
  0
LINE
  5
2D4
330
2CD
100
AcDbEntity
  8
SLD-0
 62
     7
100
AcDbLine
 10
99.6482113403
 20
52.1407620019
 30
0.0
 11
109.6482113403
 21
52.1407620019
 31
0.0
  0
MTEXT
  5
2D5
330
2CD
100
AcDbEntity
  8
SLD-0
 62
     7
100
AcDbMText
 10
102.7384891155
 20
55.3634311767
 30
0.0
 40
2.5
 41
0.0
 71
     1
 72
     1
  1
10
  7
SLDTEXTSTYLE0
 73
     1
 44
1.0
  0
ENDBLK
  5
2CF
330
2CD
100
AcDbEntity
  8
0
100
AcDbBlockEnd
  0
BLOCK
  5
2D8
330
2D7
100
AcDbEntity
  8
0
100
AcDbBlockBegin
  2
_D_2
 70
     0
 10
0.0
 20
0.0
 30
0.0
  3
_D_2
  1

  0
SOLID
  5
2DA
330
2D7
100
AcDbEntity
  8
SLD-0
 62
     7
100
AcDbTrace
 10
112.1482113403
 20
52.1407620019
 30
0.0
 11
114.1482113403
 21
51.8907620019
 31
0.0
 12
114.1482113403
 22
52.3907620019
 32
0.0
 13
114.1482113403
 23
52.3907620019
 33
0.0
  0
SOLID
  5
2DB
330
2D7
100
AcDbEntity
  8
SLD-0
 62
     7
100
AcDbTrace
 10
120.1482113403
 20
52.1407620019
 30
0.0
 11
118.1482113403
 21
52.3907620019
 31
0.0
 12
118.1482113403
 22
51.8907620019
 32
0.0
 13
118.1482113403
 23
51.8907620019
 33
0.0
  0
LINE
  5
2DC
330
2D7
100
AcDbEntity
  8
SLD-0
 62
     7
100
AcDbLine
 10
112.1482113403
 20
65.695877122
 30
0.0
 11
112.1482113403
 21
51.1407620019
 31
0.0
  0
LINE
  5
2DD
330
2D7
100
AcDbEntity
  8
SLD-0
 62
     7
100
AcDbLine
 10
120.1482113403
 20
65.695877122
 30
0.0
 11
120.1482113403
 21
51.1407620019
 31
0.0
  0
LINE
  5
2DE
330
2D7
100
AcDbEntity
  8
SLD-0
 62
     7
100
AcDbLine
 10
112.1482113403
 20
52.1407620019
 30
0.0
 11
120.1482113403
 21
52.1407620019
 31
0.0
  0
MTEXT
  5
2DF
330
2D7
100
AcDbEntity
  8
SLD-0
 62
     7
100
AcDbMText
 10
115.1933502279
 20
55.3634311767
 30
0.0
 40
2.5
 41
0.0
 71
     1
 72
     1
  1
8
  7
SLDTEXTSTYLE0
 73
     1
 44
1.0
  0
ENDBLK
  5
2D9
330
2D7
100
AcDbEntity
  8
0
100
AcDbBlockEnd
  0
BLOCK
  5
2E2
330
2E1
100
AcDbEntity
  8
0
100
AcDbBlockBegin
  2
_D_3
 70
     0
 10
0.0
 20
0.0
 30
0.0
  3
_D_3
  1

  0
SOLID
  5
2E4
330
2E1
100
AcDbEntity
  8
SLD-0
 62
     7
100
AcDbTrace
 10
99.6482113403
 20
45.9099161216
 30
0.0
 11
101.6482113403
 21
45.6599161216
 31
0.0
 12
101.6482113403
 22
46.1599161216
 32
0.0
 13
101.6482113403
 23
46.1599161216
 33
0.0
  0
SOLID
  5
2E5
330
2E1
100
AcDbEntity
  8
SLD-0
 62
     7
100
AcDbTrace
 10
120.1482113403
 20
45.9099161216
 30
0.0
 11
118.1482113403
 21
46.1599161216
 31
0.0
 12
118.1482113403
 22
45.6599161216
 32
0.0
 13
118.1482113403
 23
45.6599161216
 33
0.0
  0
LINE
  5
2E6
330
2E1
100
AcDbEntity
  8
SLD-0
 62
     7
100
AcDbLine
 10
99.6482113403
 20
64.695877122
 30
0.0
 11
99.6482113403
 21
44.9099161216
 31
0.0
  0
LINE
  5
2E7
330
2E1
100
AcDbEntity
  8
SLD-0
 62
     7
100
AcDbLine
 10
120.1482113403
 20
65.695877122
 30
0.0
 11
120.1482113403
 21
44.9099161216
 31
0.0
  0
LINE
  5
2E8
330
2E1
100
AcDbEntity
  8
SLD-0
 62
     7
100
AcDbLine
 10
99.6482113403
 20
45.9099161216
 30
0.0
 11
120.1482113403
 21
45.9099161216
 31
0.0
  0
MTEXT
  5
2E9
330
2E1
100
AcDbEntity
  8
SLD-0
 62
     7
100
AcDbMText
 10
106.5561975342
 20
49.1325852964
 30
0.0
 40
2.5
 41
0.0
 71
     1
 72
     1
  1
20.5
  7
SLDTEXTSTYLE0
 73
     1
 44
1.0
  0
ENDBLK
  5
2E3
330
2E1
100
AcDbEntity
  8
0
100
AcDbBlockEnd
  0
BLOCK
  5
2EC
330
2EB
100
AcDbEntity
  8
0
100
AcDbBlockBegin
  2
_D_4
 70
     0
 10
0.0
 20
0.0
 30
0.0
  3
_D_4
  1

  0
SOLID
  5
2EE
330
2EB
100
AcDbEntity
  8
SLD-0
 62
     7
100
AcDbTrace
 10
129.2839734931
 20
65.695877122
 30
0.0
 11
129.5339734931
 21
67.695877122
 31
0.0
 12
129.0339734931
 22
67.695877122
 32
0.0
 13
129.0339734931
 23
67.695877122
 33
0.0
  0
SOLID
  5
2EF
330
2EB
100
AcDbEntity
  8
SLD-0
 62
     7
100
AcDbTrace
 10
129.2839734931
 20
90.695877122
 30
0.0
 11
129.0339734931
 21
88.695877122
 31
0.0
 12
129.5339734931
 22
88.695877122
 32
0.0
 13
129.5339734931
 23
88.695877122
 33
0.0
  0
LINE
  5
2F0
330
2EB
100
AcDbEntity
  8
SLD-0
 62
     7
100
AcDbLine
 10
110.6482113403
 20
65.695877122
 30
0.0
 11
130.2839734931
 21
65.695877122
 31
0.0
  0
LINE
  5
2F1
330
2EB
100
AcDbEntity
  8
SLD-0
 62
     7
100
AcDbLine
 10
110.3482113403
 20
90.695877122
 30
0.0
 11
130.2839734931
 21
90.695877122
 31
0.0
  0
LINE
  5
2F2
330
2EB
100
AcDbEntity
  8
SLD-0
 62
     7
100
AcDbLine
 10
129.2839734931
 20
65.695877122
 30
0.0
 11
129.2839734931
 21
90.695877122
 31
0.0
  0
MTEXT
  5
2F3
330
2EB
100
AcDbEntity
  8
SLD-0
 62
     7
100
AcDbMText
 10
126.0613043183
 20
76.2861548972
 30
0.0
 40
2.5
 41
0.0
 71
     1
 72
     1
  1
25
  7
SLDTEXTSTYLE0
 11
6.123233995736766E-17
 21
1.0
 31
0.0
 73
     1
 44
1.0
  0
ENDBLK
  5
2ED
330
2EB
100
AcDbEntity
  8
0
100
AcDbBlockEnd
  0
BLOCK
  5
2F7
330
2F6
100
AcDbEntity
  8
0
100
AcDbBlockBegin
  2
_D_5
 70
     0
 10
0.0
 20
0.0
 30
0.0
  3
_D_5
  1

  0
SOLID
  5
2F9
330
2F6
100
AcDbEntity
  8
SLD-0
 62
     7
100
AcDbTrace
 10
103.6905808734
 20
94.2698026793
 30
0.0
 11
103.4144242398
 21
96.2663590931
 31
0.0
 12
102.9314613266
 22
96.1369495706
 32
0.0
 13
102.9314613266
 23
96.1369495706
 33
0.0
  0
LINE
  5
2FA
330
2F6
100
AcDbEntity
  8
SLD-0
 62
     7
100
AcDbLine
 10
103.6905808734
 20
94.2698026793
 30
0.0
 11
95.2515038783
 21
125.764866794
 31
0.0
  0
LINE
  5
2FB
330
2F6
100
AcDbEntity
  8
SLD-0
 62
     7
100
AcDbLine
 10
95.2515038783
 20
125.764866794
 30
0.0
 11
62.1195642585
 21
125.764866794
 31
0.0
  0
MTEXT
  5
2FC
330
2F6
100
AcDbEntity
  8
SLD-0
 62
     7
100
AcDbMText
 10
62.1195642585
 20
132.8243414353
 30
0.0
 40
2.5
 41
0.0
 71
     1
 72
     1
  1
2 HOLES for both of
  7
SLDTEXTSTYLE0
 73
     1
 44
1.0
  0
MTEXT
  5
2FD
330
2F6
100
AcDbEntity
  8
SLD-0
 62
     7
100
AcDbMText
 10
63.0570642585
 20
128.9875359688
 30
0.0
 40
2.5
 41
0.0
 71
     1
 72
     1
  1
M4 and 8-32
  7
SLDTEXTSTYLE0
 73
     1
 44
1.0
  0
ENDBLK
  5
2F8
330
2F6
100
AcDbEntity
  8
0
100
AcDbBlockEnd
  0
BLOCK
  5
301
330
300
100
AcDbEntity
  8
0
100
AcDbBlockBegin
  2
_D_6
 70
     0
 10
0.0
 20
0.0
 30
0.0
  3
_D_6
  1

  0
SOLID
  5
303
330
300
100
AcDbEntity
  8
SLD-0
100
AcDbTrace
 10
93.9837189702
 20
34.3783892939
 30
0.0
 11
95.9837189702
 21
34.1283892939
 31
0.0
 12
95.9837189702
 22
34.6283892939
 32
0.0
 13
95.9837189702
 23
34.6283892939
 33
0.0
  0
SOLID
  5
304
330
300
100
AcDbEntity
  8
SLD-0
100
AcDbTrace
 10
120.1482113403
 20
34.3783892939
 30
0.0
 11
118.1482113403
 21
34.6283892939
 31
0.0
 12
118.1482113403
 22
34.1283892939
 32
0.0
 13
118.1482113403
 23
34.1283892939
 33
0.0
  0
LINE
  5
305
330
300
100
AcDbEntity
  8
SLD-0
100
AcDbLine
 10
93.9837189702
 20
68.695877122
 30
0.0
 11
93.9837189702
 21
33.3783892939
 31
0.0
  0
LINE
  5
306
330
300
100
AcDbEntity
  8
SLD-0
100
AcDbLine
 10
120.1482113403
 20
65.695877122
 30
0.0
 11
120.1482113403
 21
33.3783892939
 31
0.0
  0
LINE
  5
307
330
300
100
AcDbEntity
  8
SLD-0
100
AcDbLine
 10
93.9837189702
 20
34.3783892939
 30
0.0
 11
120.1482113403
 21
34.3783892939
 31
0.0
  0
MTEXT
  5
308
330
300
100
AcDbEntity
  8
SLD-0
100
AcDbMText
 10
105.1562429304
 20
41.4378639353
 30
0.0
 40
2.5
 41
0.0
 71
     1
 72
     1
  1
26
  7
SLDTEXTSTYLE0
 73
     1
 44
1.0
  0
MTEXT
  5
309
330
300
100
AcDbEntity
  8
SLD-0
100
AcDbMText
 10
99.2430483123
 20
37.6010584687
 30
0.0
 40
2.5
 41
0.0
 71
     1
 72
     1
  1
NOMINAL
  7
SLDTEXTSTYLE0
 73
     1
 44
1.0
  0
ENDBLK
  5
302
330
300
100
AcDbEntity
  8
0
100
AcDbBlockEnd
  0
BLOCK
  5
30C
330
30B
100
AcDbEntity
  8
0
100
AcDbBlockBegin
  2
_D_7
 70
     0
 10
0.0
 20
0.0
 30
0.0
  3
_D_7
  1

  0
SOLID
  5
30E
330
30B
100
AcDbEntity
  8
SLD-0
100
AcDbTrace
 10
116.1482113403
 20
132.943142374
 30
0.0
 11
118.1482113403
 21
132.693142374
 31
0.0
 12
118.1482113403
 22
133.193142374
 32
0.0
 13
118.1482113403
 23
133.193142374
 33
0.0
  0
SOLID
  5
30F
330
30B
100
AcDbEntity
  8
SLD-0
100
AcDbTrace
 10
119.1482113403
 20
132.943142374
 30
0.0
 11
117.1482113403
 21
133.193142374
 31
0.0
 12
117.1482113403
 22
132.693142374
 32
0.0
 13
117.1482113403
 23
132.693142374
 33
0.0
  0
LINE
  5
310
330
30B
100
AcDbEntity
  8
SLD-0
100
AcDbLine
 10
116.1482113403
 20
109.695877122
 30
0.0
 11
116.1482113403
 21
133.943142374
 31
0.0
  0
LINE
  5
311
330
30B
100
AcDbEntity
  8
SLD-0
100
AcDbLine
 10
119.1482113403
 20
109.695877122
 30
0.0
 11
119.1482113403
 21
133.943142374
 31
0.0
  0
LINE
  5
312
330
30B
100
AcDbEntity
  8
SLD-0
100
AcDbLine
 10
116.1482113403
 20
132.943142374
 30
0.0
 11
119.1482113403
 21
132.943142374
 31
0.0
  0
LINE
  5
313
330
30B
100
AcDbEntity
  8
SLD-0
100
AcDbLine
 10
119.1482113403
 20
132.943142374
 30
0.0
 11
145.5978631329
 21
132.943142374
 31
0.0
  0
MTEXT
  5
314
330
30B
100
AcDbEntity
  8
SLD-0
100
AcDbMText
 10
122.6985595477
 20
136.1658115488
 30
0.0
 40
2.5
 41
0.0
 71
     1
 72
     1
  1
Max.THK
  7
SLDTEXTSTYLE0
 73
     1
 44
1.0
  0
MTEXT
  5
315
330
30B
100
AcDbEntity
  8
SLD-0
100
AcDbMText
 10
137.9659205031
 20
136.1658115488
 30
0.0
 40
2.5
 41
0.0
 71
     1
 72
     1
  1
3
  7
SLDTEXTSTYLE0
 73
     1
 44
1.0
  0
MTEXT
  5
316
330
30B
100
AcDbEntity
  8
SLD-0
100
AcDbMText
 10
139.8756421459
 20
136.1658115488
 30
0.0
 40
2.5
 41
0.0
 71
     1
 72
     1
  1
mm
  7
SLDTEXTSTYLE0
 73
     1
 44
1.0
  0
ENDBLK
  5
30D
330
30B
100
AcDbEntity
  8
0
100
AcDbBlockEnd
  0
BLOCK
  5
318
330
317
100
AcDbEntity
  8
0
100
AcDbBlockBegin
  2
SW_CENTERMARKSYMBOL_6
 70
     0
 10
0.0
 20
0.0
 30
0.0
  3
SW_CENTERMARKSYMBOL_6
  1

  0
LINE
  5
31A
330
317
100
AcDbEntity
  8
SLD-0
 62
     0
100
AcDbLine
 10
0.0
 20
0.0
 30
0.0
 11
0.0
 21
1.0
 31
0.0
  0
LINE
  5
31B
330
317
100
AcDbEntity
  8
SLD-0
 62
     0
100
AcDbLine
 10
0.0
 20
0.0
 30
0.0
 11
-1.0
 21
0.0
 31
0.0
  0
LINE
  5
31C
330
317
100
AcDbEntity
  8
SLD-0
 62
     0
100
AcDbLine
 10
0.0
 20
0.0
 30
0.0
 11
0.0
 21
-1.0
 31
0.0
  0
LINE
  5
31D
330
317
100
AcDbEntity
  8
SLD-0
 62
     0
100
AcDbLine
 10
0.0
 20
0.0
 30
0.0
 11
1.0
 21
0.0
 31
0.0
  0
LINE
  5
31E
330
317
100
AcDbEntity
  8
SLD-0
 62
     0
100
AcDbLine
 10
0.0
 20
2.0
 30
0.0
 11
0.0
 21
4.7
 31
0.0
  0
LINE
  5
31F
330
317
100
AcDbEntity
  8
SLD-0
 62
     0
100
AcDbLine
 10
-2.0
 20
0.0
 30
0.0
 11
-4.7
 21
0.0
 31
0.0
  0
LINE
  5
320
330
317
100
AcDbEntity
  8
SLD-0
 62
     0
100
AcDbLine
 10
0.0
 20
-2.0
 30
0.0
 11
0.0
 21
-4.7
 31
0.0
  0
LINE
  5
321
330
317
100
AcDbEntity
  8
SLD-0
 62
     0
100
AcDbLine
 10
2.0
 20
0.0
 30
0.0
 11
4.7
 21
0.0
 31
0.0
  0
ENDBLK
  5
319
330
317
100
AcDbEntity
  8
0
100
AcDbBlockEnd
  0
BLOCK
  5
485
330
484
100
AcDbEntity
  8
0
100
AcDbBlockBegin
  2
_D_8
 70
     0
 10
0.0
 20
0.0
 30
0.0
  3
_D_8
  1

  0
SOLID
  5
487
330
484
100
AcDbEntity
  8
SLD-0
 62
     7
100
AcDbTrace
 10
169.1438181093
 20
128.6303931097
 30
0.0
 11
169.9029376561
 21
130.497540001
 31
0.0
 12
169.4199747429
 22
130.6269495236
 32
0.0
 13
169.4199747429
 23
130.6269495236
 33
0.0
  0
LINE
  5
488
330
484
100
AcDbEntity
  8
SLD-0
 62
     7
100
AcDbLine
 10
169.1438181093
 20
128.6303931097
 30
0.0
 11
172.2329879844
 21
140.1593320369
 31
0.0
  0
LINE
  5
489
330
484
100
AcDbEntity
  8
SLD-0
 62
     7
100
AcDbLine
 10
172.2329879844
 20
140.1593320369
 30
0.0
 11
198.3510460252
 21
140.1593320369
 31
0.0
  0
MTEXT
  5
48A
330
484
100
AcDbEntity
  8
SLD-0
 62
     7
100
AcDbMText
 10
173.4829879844
 20
147.2188066783
 30
0.0
 40
2.5
 41
0.0
 71
     1
 72
     1
  1
ACCEPTS
  7
SLDTEXTSTYLE0
 73
     1
 44
1.0
  0
MTEXT
  5
48B
330
484
100
AcDbEntity
  8
SLD-0
 62
     7
100
AcDbMText
 10
173.4829879844
 20
143.3820012117
 30
0.0
 40
2.5
 41
0.0
 71
     1
 72
     1
  1
0.5"~2" OPTICS
  7
SLDTEXTSTYLE0
 73
     1
 44
1.0
  0
ENDBLK
  5
486
330
484
100
AcDbEntity
  8
0
100
AcDbBlockEnd
  0
BLOCK
  5
48E
330
48D
100
AcDbEntity
  8
0
100
AcDbBlockBegin
  2
_D_9
 70
     0
 10
0.0
 20
0.0
 30
0.0
  3
_D_9
  1

  0
SOLID
  5
490
330
48D
100
AcDbEntity
  8
SLD-0
 62
     7
100
AcDbTrace
 10
150.9698143637
 20
56.7135061416
 30
0.0
 11
152.9698143637
 21
56.4635061416
 31
0.0
 12
152.9698143637
 22
56.9635061416
 32
0.0
 13
152.9698143637
 23
56.9635061416
 33
0.0
  0
SOLID
  5
491
330
48D
100
AcDbEntity
  8
SLD-0
 62
     7
100
AcDbTrace
 10
200.9698143637
 20
56.7135061416
 30
0.0
 11
198.9698143637
 21
56.9635061416
 31
0.0
 12
198.9698143637
 22
56.4635061416
 32
0.0
 13
198.9698143637
 23
56.4635061416
 33
0.0
  0
LINE
  5
492
330
48D
100
AcDbEntity
  8
SLD-0
 62
     7
100
AcDbLine
 10
150.9698143637
 20
71.695877122
 30
0.0
 11
150.9698143637
 21
55.7135061416
 31
0.0
  0
LINE
  5
493
330
48D
100
AcDbEntity
  8
SLD-0
 62
     7
100
AcDbLine
 10
200.9698143637
 20
71.695877122
 30
0.0
 11
200.9698143637
 21
55.7135061416
 31
0.0
  0
LINE
  5
494
330
48D
100
AcDbEntity
  8
SLD-0
 62
     7
100
AcDbLine
 10
150.9698143637
 20
56.7135061416
 30
0.0
 11
200.9698143637
 21
56.7135061416
 31
0.0
  0
MTEXT
  5
495
330
48D
100
AcDbEntity
  8
SLD-0
 62
     7
100
AcDbMText
 10
174.0600921389
 20
59.9361753164
 30
0.0
 40
2.5
 41
0.0
 71
     1
 72
     1
  1
50
  7
SLDTEXTSTYLE0
 73
     1
 44
1.0
  0
ENDBLK
  5
48F
330
48D
100
AcDbEntity
  8
0
100
AcDbBlockEnd
  0
BLOCK
  5
498
330
497
100
AcDbEntity
  8
0
100
AcDbBlockBegin
  2
_D_10
 70
     0
 10
0.0
 20
0.0
 30
0.0
  3
_D_10
  1

  0
SOLID
  5
49A
330
497
100
AcDbEntity
  8
SLD-0
 62
     7
100
AcDbTrace
 10
210.5477113537
 20
65.695877122
 30
0.0
 11
210.7977113537
 21
67.695877122
 31
0.0
 12
210.2977113537
 22
67.695877122
 32
0.0
 13
210.2977113537
 23
67.695877122
 33
0.0
  0
SOLID
  5
49B
330
497
100
AcDbEntity
  8
SLD-0
 62
     7
100
AcDbTrace
 10
210.5477113537
 20
115.695877122
 30
0.0
 11
210.2977113537
 21
113.695877122
 31
0.0
 12
210.7977113537
 22
113.695877122
 32
0.0
 13
210.7977113537
 23
113.695877122
 33
0.0
  0
LINE
  5
49C
330
497
100
AcDbEntity
  8
SLD-0
 62
     7
100
AcDbLine
 10
194.9698143637
 20
65.695877122
 30
0.0
 11
211.5477113537
 21
65.695877122
 31
0.0
  0
LINE
  5
49D
330
497
100
AcDbEntity
  8
SLD-0
 62
     7
100
AcDbLine
 10
194.9698143637
 20
115.695877122
 30
0.0
 11
211.5477113537
 21
115.695877122
 31
0.0
  0
LINE
  5
49E
330
497
100
AcDbEntity
  8
SLD-0
 62
     7
100
AcDbLine
 10
210.5477113537
 20
65.695877122
 30
0.0
 11
210.5477113537
 21
115.695877122
 31
0.0
  0
MTEXT
  5
49F
330
497
100
AcDbEntity
  8
SLD-0
 62
     7
100
AcDbMText
 10
207.3250421789
 20
88.7861548972
 30
0.0
 40
2.5
 41
0.0
 71
     1
 72
     1
  1
50
  7
SLDTEXTSTYLE0
 11
6.944615092633338E-15
 21
1.0
 31
0.0
 73
     1
 44
1.0
  0
ENDBLK
  5
499
330
497
100
AcDbEntity
  8
0
100
AcDbBlockEnd
  0
BLOCK
  5
4A1
330
4A0
100
AcDbEntity
  8
0
100
AcDbBlockBegin
  2
SW_CENTERMARKSYMBOL_7
 70
     0
 10
0.0
 20
0.0
 30
0.0
  3
SW_CENTERMARKSYMBOL_7
  1

  0
LINE
  5
4A3
330
4A0
100
AcDbEntity
  8
SLD-0
 62
     0
100
AcDbLine
 10
0.0
 20
0.0
 30
0.0
 11
0.0
 21
1.0
 31
0.0
  0
LINE
  5
4A4
330
4A0
100
AcDbEntity
  8
SLD-0
 62
     0
100
AcDbLine
 10
0.0
 20
0.0
 30
0.0
 11
-1.0
 21
0.0
 31
0.0
  0
LINE
  5
4A5
330
4A0
100
AcDbEntity
  8
SLD-0
 62
     0
100
AcDbLine
 10
0.0
 20
0.0
 30
0.0
 11
0.0
 21
-1.0
 31
0.0
  0
LINE
  5
4A6
330
4A0
100
AcDbEntity
  8
SLD-0
 62
     0
100
AcDbLine
 10
0.0
 20
0.0
 30
0.0
 11
1.0
 21
0.0
 31
0.0
  0
LINE
  5
4A7
330
4A0
100
AcDbEntity
  8
SLD-0
 62
     0
100
AcDbLine
 10
0.0
 20
2.0
 30
0.0
 11
0.0
 21
26.4
 31
0.0
  0
LINE
  5
4A8
330
4A0
100
AcDbEntity
  8
SLD-0
 62
     0
100
AcDbLine
 10
-2.0
 20
0.0
 30
0.0
 11
-26.4
 21
0.0
 31
0.0
  0
LINE
  5
4A9
330
4A0
100
AcDbEntity
  8
SLD-0
 62
     0
100
AcDbLine
 10
0.0
 20
-2.0
 30
0.0
 11
0.0
 21
-26.4
 31
0.0
  0
LINE
  5
4AA
330
4A0
100
AcDbEntity
  8
SLD-0
 62
     0
100
AcDbLine
 10
2.0
 20
0.0
 30
0.0
 11
26.4
 21
0.0
 31
0.0
  0
ENDBLK
  5
4A2
330
4A0
100
AcDbEntity
  8
0
100
AcDbBlockEnd
  0
ENDSEC
  0
SECTION
  2
ENTITIES
  0
HATCH
  5
72
330
1F
100
AcDbEntity
  8
0
  6
Continuous
 62
     7
100
AcDbHatch
 10
0.0
 20
0.0
 30
0.0
210
0.0
220
0.0
230
1.0
  2
SOLID
 70
     1
 71
     0
 91
        1
 92
        0
 93
       10
 72
     2
 10
192.1405965629367
 20
35.75580880988856
 40
2.989636657769859
 50
50.39692260731407
 51
112.8514693252983
 73
     0
 72
     2
 10
191.815005962812
 20
35.43899828006204
 40
2.577335426817619
 50
108.9134333432861
 51
219.5668234386827
 73
     0
 72
     1
 10
189.8281839389603
 20
37.0807035361501
 11
188.8129900915579
 21
37.97623543696786
 72
     1
 10
188.8129900915579
 20
37.97623543696786
 11
187.5063618366762
 21
36.71464836046036
 72
     2
 10
188.4942467986389
 20
35.54612112772446
 40
1.530154433943661
 50
130.2115225915088
 51
228.5889041080191
 73
     1
 72
     1
 10
187.482115254651
 20
34.39853133629978
 11
191.4913175648466
 21
30.9139274960251
 72
     1
 10
191.4913175648466
 20
30.9139274960251
 11
190.8602656444315
 21
30.29802710555407
 72
     1
 10
190.8602656444315
 20
30.29802710555407
 11
191.852145009157
 21
29.44405283860024
 72
     1
 10
191.852145009157
 20
29.44405283860024
 11
195.0618094435223
 21
32.56063080411572
 72
     1
 10
195.0618094435223
 20
32.56063080411572
 11
194.0463864118641
 21
33.45235653184883
 97
        0
 75
     0
 76
     1
 98
        1
 10
0.0
 20
0.0
  0
HATCH
  5
73
330
1F
100
AcDbEntity
  8
0
  6
Continuous
 62
     1
100
AcDbHatch
 10
0.0
 20
0.0
 30
0.0
210
0.0
220
0.0
230
1.0
  2
SOLID
 70
     1
 71
     0
 91
        1
 92
        0
 93
       10
 72
     2
 10
192.5892455627688
 20
35.6630691563161
 40
2.57756748834625
 50
317.8184992995785
 51
398.0564711573078
 73
     0
 72
     1
 10
194.6188314058163
 20
34.07415900697447
 11
195.6042802987991
 21
33.21546206708498
 72
     1
 10
195.6042802987991
 20
33.21546206708498
 11
196.8459616135929
 21
34.41989500949219
 72
     2
 10
195.9525692879308
 20
35.64784174131312
 40
1.518552937418265
 50
306.0377529468138
 51
403.4396461533871
 73
     1
 72
     1
 10
197.0551891526031
 20
36.69198371335126
 11
192.9284332942598
 21
40.28115998198521
 72
     1
 10
192.9284332942598
 20
40.28115998198521
 11
193.552684596187
 21
40.89021841282256
 72
     1
 10
193.552684596187
 20
40.89021841282256
 11
192.622178086003
 21
41.72041063266705
 72
     1
 10
192.622178086003
 20
41.72041063266705
 11
189.3865926375931
 21
38.59349038605298
 72
     1
 10
189.3865926375931
 20
38.59349038605298
 11
190.4090005149417
 21
37.70169985893218
 72
     2
 10
192.2715892720444
 20
35.12224735083792
 40
3.181636704527876
 50
234.1674444878512
 51
314.4407074583994
 73
     0
 97
        0
 75
     0
 76
     1
 98
        1
 10
0.0
 20
0.0
  0
LINE
  5
74
330
1F
100
AcDbEntity
  8
0
  6
Continuous
 62
     7
370
    18
100
AcDbLine
 10
167.8593775185
 20
17.7745192513
 30
0.0
 11
168.8593775185
 21
17.7745192513
 31
0.0
  0
LINE
  5
75
330
1F
100
AcDbEntity
  8
0
  6
Continuous
 62
     7
370
    18
100
AcDbLine
 10
164.8593775185
 20
17.7745192513
 30
0.0
 11
167.3593775185
 21
17.7745192513
 31
0.0
  0
LINE
  5
76
330
1F
100
AcDbEntity
  8
0
  6
Continuous
 62
     7
370
    18
100
AcDbLine
 10
181.3593775185
 20
15.2745192513
 30
0.0
 11
181.3593775185
 21
20.2745192513
 31
0.0
  0
LINE
  5
77
330
1F
100
AcDbEntity
  8
0
  6
Continuous
 62
     7
370
    18
100
AcDbLine
 10
174.3593775185
 20
16.2745192513
 30
0.0
 11
181.3593775185
 21
15.2745192513
 31
0.0
  0
LINE
  5
78
330
1F
100
AcDbEntity
  8
0
  6
Continuous
 62
     7
370
    18
100
AcDbLine
 10
168.3593775185
 20
16.7745192513
 30
0.0
 11
168.3593775185
 21
14.2745192513
 31
0.0
  0
LINE
  5
79
330
1F
100
AcDbEntity
  8
0
  6
Continuous
 62
     7
370
    18
100
AcDbLine
 10
181.3593775185
 20
20.2745192513
 30
0.0
 11
174.3593775185
 21
19.2745192513
 31
0.0
  0
LINE
  5
7A
330
1F
100
AcDbEntity
  8
0
  6
Continuous
 62
     7
370
    18
100
AcDbLine
 10
173.3593775185
 20
17.7745192513
 30
0.0
 11
182.3593775185
 21
17.7745192513
 31
0.0
  0
LINE
  5
7B
330
1F
100
AcDbEntity
  8
0
  6
Continuous
 62
     7
370
    18
100
AcDbLine
 10
168.3593775185
 20
18.2745192513
 30
0.0
 11
168.3593775185
 21
17.2745192513
 31
0.0
  0
LINE
  5
7C
330
1F
100
AcDbEntity
  8
0
  6
Continuous
 62
     7
370
    18
100
AcDbLine
 10
169.3593775185
 20
17.7745192513
 30
0.0
 11
171.8593775185
 21
17.7745192513
 31
0.0
  0
LINE
  5
7D
330
1F
100
AcDbEntity
  8
0
  6
Continuous
 62
     7
370
    18
100
AcDbLine
 10
168.3593775185
 20
21.2745192513
 30
0.0
 11
168.3593775185
 21
18.7745192513
 31
0.0
  0
LINE
  5
7E
330
1F
100
AcDbEntity
  8
0
  6
Continuous
 62
     7
370
    18
100
AcDbLine
 10
174.3593775185
 20
19.2745192513
 30
0.0
 11
174.3593775185
 21
16.2745192513
 31
0.0
  0
LINE
  5
7F
330
1F
100
AcDbEntity
  8
工作區域參考線
 62
     1
370
    35
100
AcDbLine
 10
190.4090005149
 20
37.7016998589
 30
0.0
 11
189.3865926376
 21
38.5934903861
 31
0.0
  0
LINE
  5
80
330
1F
100
AcDbEntity
  8
工作區域參考線
 62
     1
370
    35
100
AcDbLine
 10
189.3865926376
 20
38.5934903861
 30
0.0
 11
192.622178086
 21
41.7204106327
 31
0.0
  0
LINE
  5
81
330
1F
100
AcDbEntity
  8
工作區域參考線
 62
     1
370
    35
100
AcDbLine
 10
192.622178086
 20
41.7204106327
 30
0.0
 11
193.5526845962
 21
40.8902184128
 31
0.0
  0
LINE
  5
82
330
1F
100
AcDbEntity
  8
工作區域參考線
 62
     1
370
    35
100
AcDbLine
 10
193.5526845962
 20
40.8902184128
 30
0.0
 11
192.9284332943
 21
40.281159982
 31
0.0
  0
LINE
  5
83
330
1F
100
AcDbEntity
  8
工作區域參考線
 62
     1
370
    35
100
AcDbLine
 10
192.9284332943
 20
40.281159982
 30
0.0
 11
197.0551891526
 21
36.6919837134
 31
0.0
  0
LINE
  5
84
330
1F
100
AcDbEntity
  8
工作區域參考線
 62
     1
370
    35
100
AcDbLine
 10
194.6188314058
 20
34.074159007
 30
0.0
 11
195.6042802988
 21
33.2154620671
 31
0.0
  0
LINE
  5
85
330
1F
100
AcDbEntity
  8
工作區域參考線
 62
     1
370
    35
100
AcDbLine
 10
195.6042802988
 20
33.2154620671
 30
0.0
 11
196.8459616136
 21
34.4198950095
 31
0.0
  0
LINE
  5
86
330
1F
100
AcDbEntity
  8
0
  6
Continuous
 62
     7
370
    18
100
AcDbLine
 10
185.6907965209
 20
13.1152464079
 30
0.0
 11
285.6907965209
 21
13.1152464079
 31
0.0
  0
LINE
  5
87
330
1F
100
AcDbEntity
  8
0
  6
Continuous
 62
     7
370
    18
100
AcDbLine
 10
185.6907965209
 20
18.1152464079
 30
0.0
 11
235.6907965209
 21
18.1152464079
 31
0.0
  0
LINE
  5
88
330
1F
100
AcDbEntity
  8
0
  6
Continuous
 62
     7
370
    18
100
AcDbLine
 10
185.6907965209
 20
23.1152464079
 30
0.0
 11
235.6907965209
 21
23.1152464079
 31
0.0
  0
LINE
  5
89
330
1F
100
AcDbEntity
  8
0
  6
Continuous
 62
     7
370
    18
100
AcDbLine
 10
185.6907965209
 20
28.1152464079
 30
0.0
 11
285.6907965209
 21
28.1152464079
 31
0.0
  0
LINE
  5
8A
330
1F
100
AcDbEntity
  8
0
  6
Continuous
 62
     7
370
    18
100
AcDbLine
 10
235.6907965209
 20
33.1152464079
 30
0.0
 11
285.6907965209
 21
33.1152464079
 31
0.0
  0
LINE
  5
8B
330
1F
100
AcDbEntity
  8
0
  6
Continuous
 62
     7
370
    25
100
AcDbLine
 10
235.6907965209
 20
18.1152464079
 30
0.0
 11
285.6907965209
 21
18.1152464079
 31
0.0
  0
LINE
  5
8C
330
1F
100
AcDbEntity
  8
0
  6
Continuous
 62
     7
370
    18
100
AcDbLine
 10
185.6907965209
 20
43.1152464079
 30
0.0
 11
285.6907965209
 21
43.1152464079
 31
0.0
  0
LINE
  5
8D
330
1F
100
AcDbEntity
  8
0
  6
Continuous
 62
     7
370
    18
100
AcDbLine
 10
251.237217675
 20
8.1152464079
 30
0.0
 11
251.237217675
 21
18.1152464079
 31
0.0
  0
LINE
  5
8E
330
1F
100
AcDbEntity
  8
0
  6
Continuous
 62
     7
370
    18
100
AcDbLine
 10
235.6907965209
 20
8.1152464079
 30
0.0
 11
235.6907965209
 21
43.1152464079
 31
0.0
  0
LINE
  5
8F
330
1F
100
AcDbEntity
  8
0
  6
Continuous
 62
     7
370
    18
100
AcDbLine
 10
251.237217675
 20
28.1152464079
 30
0.0
 11
251.237217675
 21
33.1152464079
 31
0.0
  0
LINE
  5
90
330
1F
100
AcDbEntity
  8
0
  6
Continuous
 62
     7
370
    18
100
AcDbLine
 10
214.4164086353
 20
8.1152464079
 30
0.0
 11
214.4164086353
 21
28.1152464079
 31
0.0
  0
LINE
  5
91
330
1F
100
AcDbEntity
  8
0
  6
Continuous
 62
     7
370
    18
100
AcDbLine
 10
199.7785887506
 20
8.1152464079
 30
0.0
 11
199.7785887506
 21
28.1152464079
 31
0.0
  0
LINE
  5
92
330
1F
100
AcDbEntity
  8
0
  6
Continuous
 62
     7
370
    18
100
AcDbLine
 10
185.6907965209
 20
8.1152464079
 30
0.0
 11
185.6907965209
 21
43.1152464079
 31
0.0
  0
LINE
  5
93
330
1F
100
AcDbEntity
  8
0
  6
Continuous
 62
     7
370
    25
100
AcDbLine
 10
8.6907965209
 20
104.7436369915
 30
0.0
 11
14.6907965209
 21
104.7436369915
 31
0.0
  0
LINE
  5
94
330
1F
100
AcDbEntity
  8
0
  6
Continuous
 62
     7
370
    25
100
AcDbLine
 10
285.6907965209
 20
104.7436369915
 30
0.0
 11
279.6907965209
 21
104.7436369915
 31
0.0
  0
LINE
  5
95
330
1F
100
AcDbEntity
  8
0
  6
Continuous
 62
     7
370
    25
100
AcDbLine
 10
147.1907965209
 20
8.1152464079
 30
0.0
 11
147.1907965209
 21
14.1152464079
 31
0.0
  0
LINE
  5
96
330
1F
100
AcDbEntity
  8
0
  6
Continuous
 62
     7
370
    25
100
AcDbLine
 10
147.1907965209
 20
201.3720275751
 30
0.0
 11
147.1907965209
 21
195.3720275751
 31
0.0
  0
LINE
  5
97
330
1F
100
AcDbEntity
  8
0
  6
Continuous
 62
     7
370
    25
100
AcDbLine
 10
43.3207965209
 20
201.3720275751
 30
0.0
 11
43.3207965209
 21
202.8720275751
 31
0.0
  0
LINE
  5
98
330
1F
100
AcDbEntity
  8
0
  6
Continuous
 62
     7
370
    25
100
AcDbLine
 10
77.9507965209
 20
201.3720275751
 30
0.0
 11
77.9507965209
 21
202.8720275751
 31
0.0
  0
LINE
  5
99
330
1F
100
AcDbEntity
  8
0
  6
Continuous
 62
     7
370
    25
100
AcDbLine
 10
112.5807965209
 20
201.3720275751
 30
0.0
 11
112.5807965209
 21
202.8720275751
 31
0.0
  0
LINE
  5
9A
330
1F
100
AcDbEntity
  8
0
  6
Continuous
 62
     7
370
    25
100
AcDbLine
 10
147.2107965209
 20
201.3720275751
 30
0.0
 11
147.2107965209
 21
202.8720275751
 31
0.0
  0
LINE
  5
9B
330
1F
100
AcDbEntity
  8
0
  6
Continuous
 62
     7
370
    25
100
AcDbLine
 10
181.8407965209
 20
201.3720275751
 30
0.0
 11
181.8407965209
 21
202.8720275751
 31
0.0
  0
LINE
  5
9C
330
1F
100
AcDbEntity
  8
0
  6
Continuous
 62
     7
370
    25
100
AcDbLine
 10
216.4707965209
 20
201.3720275751
 30
0.0
 11
216.4707965209
 21
202.8720275751
 31
0.0
  0
LINE
  5
9D
330
1F
100
AcDbEntity
  8
0
  6
Continuous
 62
     7
370
    25
100
AcDbLine
 10
251.1007965209
 20
201.3720275751
 30
0.0
 11
251.1007965209
 21
202.8720275751
 31
0.0
  0
LINE
  5
9E
330
1F
100
AcDbEntity
  8
0
  6
Continuous
 62
     7
370
    25
100
AcDbLine
 10
43.3157965209
 20
8.1152464079
 30
0.0
 11
43.3157965209
 21
6.6152464079
 31
0.0
  0
LINE
  5
9F
330
1F
100
AcDbEntity
  8
0
  6
Continuous
 62
     7
370
    25
100
AcDbLine
 10
77.9407965209
 20
8.1152464079
 30
0.0
 11
77.9407965209
 21
6.6152464079
 31
0.0
  0
LINE
  5
A0
330
1F
100
AcDbEntity
  8
0
  6
Continuous
 62
     7
370
    25
100
AcDbLine
 10
112.5657965209
 20
8.1152464079
 30
0.0
 11
112.5657965209
 21
6.6152464079
 31
0.0
  0
LINE
  5
A1
330
1F
100
AcDbEntity
  8
0
  6
Continuous
 62
     7
370
    25
100
AcDbLine
 10
147.1907965209
 20
8.1152464079
 30
0.0
 11
147.1907965209
 21
6.6152464079
 31
0.0
  0
LINE
  5
A2
330
1F
100
AcDbEntity
  8
0
  6
Continuous
 62
     7
370
    25
100
AcDbLine
 10
181.8157965209
 20
8.1152464079
 30
0.0
 11
181.8157965209
 21
6.6152464079
 31
0.0
  0
LINE
  5
A3
330
1F
100
AcDbEntity
  8
0
  6
Continuous
 62
     7
370
    25
100
AcDbLine
 10
216.4407965209
 20
8.1152464079
 30
0.0
 11
216.4407965209
 21
6.6152464079
 31
0.0
  0
LINE
  5
A4
330
1F
100
AcDbEntity
  8
0
  6
Continuous
 62
     7
370
    18
100
AcDbLine
 10
285.6907965209
 20
201.3720275751
 30
0.0
 11
8.6907965209
 21
201.3720275751
 31
0.0
  0
LINE
  5
A5
330
1F
100
AcDbEntity
  8
0
  6
Continuous
 62
     7
370
    18
100
AcDbLine
 10
285.6907965209
 20
8.1152464079
 30
0.0
 11
285.6907965209
 21
201.3720275751
 31
0.0
  0
LINE
  5
A6
330
1F
100
AcDbEntity
  8
0
  6
Continuous
 62
     7
370
    18
100
AcDbLine
 10
8.6907965209
 20
201.3720275751
 30
0.0
 11
8.6907965209
 21
8.1152464079
 31
0.0
  0
LINE
  5
A7
330
1F
100
AcDbEntity
  8
0
  6
Continuous
 62
     7
370
    18
100
AcDbLine
 10
8.6907965209
 20
8.1152464079
 30
0.0
 11
285.6907965209
 21
8.1152464079
 31
0.0
  0
LINE
  5
A8
330
1F
100
AcDbEntity
  8
0
  6
Continuous
 62
     7
370
    25
100
AcDbLine
 10
251.0657965209
 20
8.1152464079
 30
0.0
 11
251.0657965209
 21
6.6152464079
 31
0.0
  0
LINE
  5
A9
330
1F
100
AcDbEntity
  8
0
  6
Continuous
 62
     7
370
    25
100
AcDbLine
 10
8.6907965209
 20
40.3252464079
 30
0.0
 11
7.1907965209
 21
40.3252464079
 31
0.0
  0
LINE
  5
AA
330
1F
100
AcDbEntity
  8
0
  6
Continuous
 62
     7
370
    25
100
AcDbLine
 10
8.6907965209
 20
72.5352464079
 30
0.0
 11
7.1907965209
 21
72.5352464079
 31
0.0
  0
LINE
  5
AB
330
1F
100
AcDbEntity
  8
0
  6
Continuous
 62
     7
370
    25
100
AcDbLine
 10
8.6907965209
 20
104.7452464079
 30
0.0
 11
7.1907965209
 21
104.7452464079
 31
0.0
  0
LINE
  5
AC
330
1F
100
AcDbEntity
  8
0
  6
Continuous
 62
     7
370
    25
100
AcDbLine
 10
8.6907965209
 20
136.9552464079
 30
0.0
 11
7.1907965209
 21
136.9552464079
 31
0.0
  0
LINE
  5
AD
330
1F
100
AcDbEntity
  8
0
  6
Continuous
 62
     7
370
    25
100
AcDbLine
 10
8.6907965209
 20
169.1652464079
 30
0.0
 11
7.1907965209
 21
169.1652464079
 31
0.0
  0
LINE
  5
AE
330
1F
100
AcDbEntity
  8
0
  6
Continuous
 62
     7
370
    25
100
AcDbLine
 10
285.6907965209
 20
40.3252464079
 30
0.0
 11
287.1907965209
 21
40.3252464079
 31
0.0
  0
LINE
  5
AF
330
1F
100
AcDbEntity
  8
0
  6
Continuous
 62
     7
370
    25
100
AcDbLine
 10
285.6907965209
 20
72.5352464079
 30
0.0
 11
287.1907965209
 21
72.5352464079
 31
0.0
  0
LINE
  5
B0
330
1F
100
AcDbEntity
  8
0
  6
Continuous
 62
     7
370
    25
100
AcDbLine
 10
285.6907965209
 20
104.7452464079
 30
0.0
 11
287.1907965209
 21
104.7452464079
 31
0.0
  0
LINE
  5
B1
330
1F
100
AcDbEntity
  8
0
  6
Continuous
 62
     7
370
    25
100
AcDbLine
 10
285.6907965209
 20
136.9552464079
 30
0.0
 11
287.1907965209
 21
136.9552464079
 31
0.0
  0
LINE
  5
B2
330
1F
100
AcDbEntity
  8
0
  6
Continuous
 62
     7
370
    25
100
AcDbLine
 10
285.6907965209
 20
169.1652464079
 30
0.0
 11
287.1907965209
 21
169.1652464079
 31
0.0
  0
CIRCLE
  5
B3
330
1F
100
AcDbEntity
  8
0
  6
Continuous
 62
     7
370
    18
100
AcDbCircle
 10
168.3593775185
 20
17.7745192513
 30
0.0
 40
1.5
  0
CIRCLE
  5
B4
330
1F
100
AcDbEntity
  8
0
  6
Continuous
 62
     7
370
    18
100
AcDbCircle
 10
168.3593775185
 20
17.7745192513
 30
0.0
 40
2.5
  0
ARC
  5
B5
330
1F
100
AcDbEntity
  8
工作區域參考線
 62
     1
370
    35
100
AcDbCircle
 10
195.9525692879
 20
35.6478417413
 30
0.0
 40
1.518552937418275
100
AcDbArc
 50
306.0377529468
 51
43.4396461534
  0
ARC
  5
B6
330
1F
100
AcDbEntity
  8
工作區域參考線
 62
     1
370
    35
100
AcDbCircle
 10
192.271589272
 20
35.1222473508
 30
0.0
 40
3.181636704527891
100
AcDbArc
 50
45.5592925416
 51
125.8325555121
  0
ARC
  5
B7
330
1F
100
AcDbEntity
  8
工作區域參考線
 62
     1
370
    35
100
AcDbCircle
 10
192.5892455628
 20
35.6630691563
 30
0.0
 40
2.577567488346266
100
AcDbArc
 50
321.9435288427
 51
42.1815007004
  0
INSERT
  5
B8
330
1F
100
AcDbEntity
  8
0
  6
Continuous
 62
     7
100
AcDbBlockReference
  2
圖塊6
 10
186.9640923647
 20
29.4440528386
 30
0.0
  0
MTEXT
  5
BA
330
1F
100
AcDbEntity
  8
0
  6
Continuous
 62
     7
370
     0
100
AcDbMText
 10
165.5426850804
 20
13.2208440369
 30
0.0
 40
2.6458333333
 41
0.0
 71
     1
 72
     1
  1
UNIT:m/m
  7
SLDTEXTSTYLE0
 73
     1
 44
1.0
  0
MTEXT
  5
BB
330
1F
100
AcDbEntity
  8
0
  6
Continuous
 62
     7
370
     0
100
AcDbMText
 10
12.2315076053
 20
197.3010888199
 30
0.0
 40
2.6458333333
 41
0.0
 71
     1
 72
     1
  1
PROPRIETARY AND CONFIDENTIAL
  7
SLDTEXTSTYLE0
 73
     1
 44
1.0
  0
MTEXT
  5
BC
330
1F
100
AcDbEntity
  8
0
  6
Continuous
 62
     7
370
     0
100
AcDbMText
 10
12.2315076053
 20
193.8084469451
 30
0.0
 40
1.8520833333
 41
0.0
 71
     1
 72
     1
  1
THE INFORMATION CONTAINED IN THIS DRAWING IS THE SOLE PROPERTY OF UNICE E-O SERVICES INC. ANY REPRODUCTION IN PART OR AS A WHOLE WITHOUT THE WRITTEN PERMISSION OF UNICE E-O SERVICES INC IS
  7
SLDTEXTSTYLE0
 73
     1
 44
1.0
  0
MTEXT
  5
BD
330
1F
100
AcDbEntity
  8
0
  6
Continuous
 62
     7
370
     0
100
AcDbMText
 10
12.2315076053
 20
191.3390025305
 30
0.0
 40
1.8520833333
 41
0.0
 71
     1
 72
     1
  1
PROHIBITED.
  7
SLDTEXTSTYLE0
 73
     1
 44
1.0
  0
MTEXT
  5
BE
330
1F
100
AcDbEntity
  8
0
  6
Continuous
 62
     7
370
     0
100
AcDbMText
 10
198.7251893935
 20
40.4406774139
 30
0.0
 40
2.38125
 41
0.0
 71
     1
 72
     1
  1
Unice E-O Services Inc.
  7
SLDTEXTSTYLE0
 73
     1
 44
1.0
  0
MTEXT
  5
BF
330
1F
100
AcDbEntity
  8
0
  6
Continuous
 62
     7
370
     0
100
AcDbMText
 10
217.5590538149
 20
21.5867148511
 30
0.0
 40
1.8520833333
 41
0.0
 71
     1
 72
     1
  1
2023/04/26
  7
SLDTEXTSTYLE0
 73
     1
 44
1.0
  0
MTEXT
  5
C0
330
1F
100
AcDbEntity
  8
0
  6
Continuous
 62
     7
370
     0
100
AcDbMText
 10
252.6088982507
 20
16.87117774
 30
0.0
 40
2.5
 41
0.0
 71
     1
 72
     1
  1
1:1
  7
SLDTEXTSTYLE0
 73
     1
 44
1.0
  0
MTEXT
  5
C1
330
1F
100
AcDbEntity
  8
0
  6
Continuous
 62
     7
370
     0
100
AcDbMText
 10
252.3075599985
 20
32.1519195438
 30
0.0
 40
2.5
 41
0.0
 71
     1
 72
     1
  1
04RFM-1(M)-H
  7
SLDTEXTSTYLE0
 73
     1
 44
1.0
  0
MTEXT
  5
C2
330
1F
100
AcDbEntity
  8
0
  6
Continuous
 62
     7
370
     0
100
AcDbMText
 10
252.3075599985
 20
38.1082117879
 30
0.0
 40
2.5
 41
0.0
 71
     1
 72
     1
  1
04RFM-1(M)-H
  7
SLDTEXTSTYLE0
 73
     1
 44
1.0
  0
MTEXT
  5
C3
330
1F
100
AcDbEntity
  8
0
  6
Continuous
 62
     7
370
     0
100
AcDbMText
 10
236.3921866786
 20
16.5064795728
 30
0.0
 40
2.1166666667
 41
0.0
 71
     1
 72
     1
  1
SCALE:
  7
SLDTEXTSTYLE0
 73
     1
 44
1.0
  0
MTEXT
  5
C4
330
1F
100
AcDbEntity
  8
0
  6
Continuous
 62
     7
370
     0
100
AcDbMText
 10
186.3336086789
 20
21.5867148511
 30
0.0
 40
1.8520833333
 41
0.0
 71
     1
 72
     1
  1
DRAWN
  7
SLDTEXTSTYLE0
 73
     1
 44
1.0
  0
MTEXT
  5
C5
330
1F
100
AcDbEntity
  8
0
  6
Continuous
 62
     7
370
     0
100
AcDbMText
 10
203.2228367937
 20
26.683208308
 30
0.0
 40
1.8520833333
 41
0.0
 71
     1
 72
     1
  1
NAME
  7
SLDTEXTSTYLE0
 73
     1
 44
1.0
  0
MTEXT
  5
C6
330
1F
100
AcDbEntity
  8
0
  6
Continuous
 62
     7
370
     0
100
AcDbMText
 10
220.8710155758
 20
26.683208308
 30
0.0
 40
1.8520833333
 41
0.0
 71
     1
 72
     1
  1
DATE
  7
SLDTEXTSTYLE0
 73
     1
 44
1.0
  0
MTEXT
  5
C7
330
1F
100
AcDbEntity
  8
0
  6
Continuous
 62
     7
370
     0
100
AcDbMText
 10
236.2756316645
 20
31.7872213766
 30
0.0
 40
2.1166666667
 41
0.0
 71
     1
 72
     1
  1
DWG. NO.
  7
SLDTEXTSTYLE0
 73
     1
 44
1.0
  0
MTEXT
  5
C8
330
1F
100
AcDbEntity
  8
0
  6
Continuous
 62
     7
370
     0
100
AcDbMText
 10
236.3629907088
 20
41.8840658243
 30
0.0
 40
2.1166666667
 41
0.0
 71
     1
 72
     1
  1
TITLE:
  7
SLDTEXTSTYLE0
 73
     1
 44
1.0
  0
MTEXT
  5
C9
330
1F
100
AcDbEntity
  8
0
  6
Continuous
 62
     7
370
     0
100
AcDbMText
 10
203.0314209802
 20
16.2403789724
 30
0.0
 40
1.8520833333
 41
0.0
 71
     1
 72
     1
  1
Johnny
  7
SLDTEXTSTYLE0
 73
     1
 44
1.0
  0
MTEXT
  5
CA
330
1F
100
AcDbEntity
  8
0
  6
Continuous
 62
     7
370
     0
100
AcDbMText
 10
217.5590538149
 20
16.2403789724
 30
0.0
 40
1.8520833333
 41
0.0
 71
     1
 72
     1
  1
2023/04/26
  7
SLDTEXTSTYLE0
 73
     1
 44
1.0
  0
MTEXT
  5
CB
330
1F
100
AcDbEntity
  8
0
  6
Continuous
 62
     7
370
     0
100
AcDbMText
 10
186.3336086789
 20
16.2403789724
 30
0.0
 40
1.8520833333
 41
0.0
 71
     1
 72
     1
  1
ENG APPR.
  7
SLDTEXTSTYLE0
 73
     1
 44
1.0
  0
MTEXT
  5
CC
330
1F
100
AcDbEntity
  8
0
  6
Continuous
 62
     7
370
     0
100
AcDbMText
 10
236.3921866786
 20
11.6853389288
 30
0.0
 40
2.1166666667
 41
0.0
 71
     1
 72
     1
  1
REV
  7
SLDTEXTSTYLE0
 73
     1
 44
1.0
  0
MTEXT
  5
CD
330
1F
100
AcDbEntity
  8
0
  6
Continuous
 62
     7
370
     0
100
AcDbMText
 10
236.3629907088
 20
26.9493089085
 30
0.0
 40
2.1166666667
 41
0.0
 71
     1
 72
     1
  1
MATERIAL:
  7
SLDTEXTSTYLE0
 73
     1
 44
1.0
  0
MTEXT
  5
CE
330
1F
100
AcDbEntity
  8
0
  6
Continuous
 62
     7
370
     0
100
AcDbMText
 10
252.6088982507
 20
22.2175136187
 30
0.0
 40
2.5
 41
0.0
 71
     1
 72
     1
  1
N/A
  7
SLDTEXTSTYLE0
 73
     1
 44
1.0
  0
MTEXT
  5
CF
330
1F
100
AcDbEntity
  8
0
  6
Continuous
 62
     7
370
     0
100
AcDbMText
 10
26.6029931533
 20
204.453351657
 30
0.0
 40
2.1166666667
 41
0.0
 71
     1
 72
     1
  1
1
  7
SLDTEXTSTYLE0
 73
     1
 44
1.0
  0
MTEXT
  5
D0
330
1F
100
AcDbEntity
  8
0
  6
Continuous
 62
     7
370
     0
100
AcDbMText
 10
60.7170995724
 20
204.453351657
 30
0.0
 40
2.1166666667
 41
0.0
 71
     1
 72
     1
  1
2
  7
SLDTEXTSTYLE0
 73
     1
 44
1.0
  0
MTEXT
  5
D1
330
1F
100
AcDbEntity
  8
0
  6
Continuous
 62
     7
370
     0
100
AcDbMText
 10
94.9009943906
 20
204.453351657
 30
0.0
 40
2.1166666667
 41
0.0
 71
     1
 72
     1
  1
3
  7
SLDTEXTSTYLE0
 73
     1
 44
1.0
  0
MTEXT
  5
D2
330
1F
100
AcDbEntity
  8
0
  6
Continuous
 62
     7
370
     0
100
AcDbMText
 10
129.2533362851
 20
204.2992584364
 30
0.0
 40
2.1166666667
 41
0.0
 71
     1
 72
     1
  1
4
  7
SLDTEXTSTYLE0
 73
     1
 44
1.0
  0
MTEXT
  5
D3
330
1F
100
AcDbEntity
  8
0
  6
Continuous
 62
     7
370
     0
100
AcDbMText
 10
163.702323464
 20
204.453351657
 30
0.0
 40
2.1166666667
 41
0.0
 71
     1
 72
     1
  1
5
  7
SLDTEXTSTYLE0
 73
     1
 44
1.0
  0
MTEXT
  5
D4
330
1F
100
AcDbEntity
  8
0
  6
Continuous
 62
     7
370
     0
100
AcDbMText
 10
198.6382170415
 20
204.453351657
 30
0.0
 40
2.1166666667
 41
0.0
 71
     1
 72
     1
  1
6
  7
SLDTEXTSTYLE0
 73
     1
 44
1.0
  0
MTEXT
  5
D5
330
1F
100
AcDbEntity
  8
0
  6
Continuous
 62
     7
370
     0
100
AcDbMText
 10
234.3630657407
 20
204.453351657
 30
0.0
 40
2.1166666667
 41
0.0
 71
     1
 72
     1
  1
7
  7
SLDTEXTSTYLE0
 73
     1
 44
1.0
  0
MTEXT
  5
D6
330
1F
100
AcDbEntity
  8
0
  6
Continuous
 62
     7
370
     0
100
AcDbMText
 10
266.2787820494
 20
204.453351657
 30
0.0
 40
2.1166666667
 41
0.0
 71
     1
 72
     1
  1
8
  7
SLDTEXTSTYLE0
 73
     1
 44
1.0
  0
MTEXT
  5
D7
330
1F
100
AcDbEntity
  8
0
  6
Continuous
 62
     7
370
     0
100
AcDbMText
 10
5.3568236555
 20
185.8113022879
 30
0.0
 40
2.1166666667
 41
0.0
 71
     1
 72
     1
  1
A
  7
SLDTEXTSTYLE0
 73
     1
 44
1.0
  0
MTEXT
  5
D8
330
1F
100
AcDbEntity
  8
0
  6
Continuous
 62
     7
370
     0
100
AcDbMText
 10
5.5910431831
 20
154.2993048238
 30
0.0
 40
2.1166666667
 41
0.0
 71
     1
 72
     1
  1
B
  7
SLDTEXTSTYLE0
 73
     1
 44
1.0
  0
MTEXT
  5
D9
330
1F
100
AcDbEntity
  8
0
  6
Continuous
 62
     7
370
     0
100
AcDbMText
 10
5.5910431831
 20
121.274351423
 30
0.0
 40
2.1166666667
 41
0.0
 71
     1
 72
     1
  1
C
  7
SLDTEXTSTYLE0
 73
     1
 44
1.0
  0
MTEXT
  5
DA
330
1F
100
AcDbEntity
  8
0
  6
Continuous
 62
     7
370
     0
100
AcDbMText
 10
5.5910431831
 20
88.7453220221
 30
0.0
 40
2.1166666667
 41
0.0
 71
     1
 72
     1
  1
D
  7
SLDTEXTSTYLE0
 73
     1
 44
1.0
  0
MTEXT
  5
DB
330
1F
100
AcDbEntity
  8
0
  6
Continuous
 62
     7
370
     0
100
AcDbMText
 10
5.5910431831
 20
57.5558849197
 30
0.0
 40
2.1166666667
 41
0.0
 71
     1
 72
     1
  1
E
  7
SLDTEXTSTYLE0
 73
     1
 44
1.0
  0
MTEXT
  5
DC
330
1F
100
AcDbEntity
  8
0
  6
Continuous
 62
     7
370
     0
100
AcDbMText
 10
5.5910431831
 20
25.5694212252
 30
0.0
 40
2.1166666667
 41
0.0
 71
     1
 72
     1
  1
F
  7
SLDTEXTSTYLE0
 73
     1
 44
1.0
  0
MTEXT
  5
DD
330
1F
100
AcDbEntity
  8
0
  6
Continuous
 62
     7
370
     0
100
AcDbMText
 10
266.1858616964
 20
6.6236223963
 30
0.0
 40
2.1166666667
 41
0.0
 71
     1
 72
     1
  1
8
  7
SLDTEXTSTYLE0
 73
     1
 44
1.0
  0
MTEXT
  5
DE
330
1F
100
AcDbEntity
  8
0
  6
Continuous
 62
     7
370
     0
100
AcDbMText
 10
234.2701453876
 20
6.6236223963
 30
0.0
 40
2.1166666667
 41
0.0
 71
     1
 72
     1
  1
7
  7
SLDTEXTSTYLE0
 73
     1
 44
1.0
  0
MTEXT
  5
DF
330
1F
100
AcDbEntity
  8
0
  6
Continuous
 62
     7
370
     0
100
AcDbMText
 10
198.5452966885
 20
6.6236223963
 30
0.0
 40
2.1166666667
 41
0.0
 71
     1
 72
     1
  1
6
  7
SLDTEXTSTYLE0
 73
     1
 44
1.0
  0
MTEXT
  5
E0
330
1F
100
AcDbEntity
  8
0
  6
Continuous
 62
     7
370
     0
100
AcDbMText
 10
163.6094031109
 20
6.6236223963
 30
0.0
 40
2.1166666667
 41
0.0
 71
     1
 72
     1
  1
5
  7
SLDTEXTSTYLE0
 73
     1
 44
1.0
  0
MTEXT
  5
E1
330
1F
100
AcDbEntity
  8
0
  6
Continuous
 62
     7
370
     0
100
AcDbMText
 10
129.1604159321
 20
6.4695291758
 30
0.0
 40
2.1166666667
 41
0.0
 71
     1
 72
     1
  1
4
  7
SLDTEXTSTYLE0
 73
     1
 44
1.0
  0
MTEXT
  5
E2
330
1F
100
AcDbEntity
  8
0
  6
Continuous
 62
     7
370
     0
100
AcDbMText
 10
94.8080740376
 20
6.6236223963
 30
0.0
 40
2.1166666667
 41
0.0
 71
     1
 72
     1
  1
3
  7
SLDTEXTSTYLE0
 73
     1
 44
1.0
  0
MTEXT
  5
E3
330
1F
100
AcDbEntity
  8
0
  6
Continuous
 62
     7
370
     0
100
AcDbMText
 10
60.6241792194
 20
6.6236223963
 30
0.0
 40
2.1166666667
 41
0.0
 71
     1
 72
     1
  1
2
  7
SLDTEXTSTYLE0
 73
     1
 44
1.0
  0
MTEXT
  5
E4
330
1F
100
AcDbEntity
  8
0
  6
Continuous
 62
     7
370
     0
100
AcDbMText
 10
26.5100728003
 20
6.6236223963
 30
0.0
 40
2.1166666667
 41
0.0
 71
     1
 72
     1
  1
1
  7
SLDTEXTSTYLE0
 73
     1
 44
1.0
  0
MTEXT
  5
E5
330
1F
100
AcDbEntity
  8
0
  6
Continuous
 62
     7
370
     0
100
AcDbMText
 10
287.1023846145
 20
186.6424909092
 30
0.0
 40
2.1166666667
 41
0.0
 71
     1
 72
     1
  1
A
  7
SLDTEXTSTYLE0
 73
     1
 44
1.0
  0
MTEXT
  5
E6
330
1F
100
AcDbEntity
  8
0
  6
Continuous
 62
     7
370
     0
100
AcDbMText
 10
287.3366041421
 20
155.1304934451
 30
0.0
 40
2.1166666667
 41
0.0
 71
     1
 72
     1
  1
B
  7
SLDTEXTSTYLE0
 73
     1
 44
1.0
  0
MTEXT
  5
E7
330
1F
100
AcDbEntity
  8
0
  6
Continuous
 62
     7
370
     0
100
AcDbMText
 10
287.3366041421
 20
122.1055400442
 30
0.0
 40
2.1166666667
 41
0.0
 71
     1
 72
     1
  1
C
  7
SLDTEXTSTYLE0
 73
     1
 44
1.0
  0
MTEXT
  5
E8
330
1F
100
AcDbEntity
  8
0
  6
Continuous
 62
     7
370
     0
100
AcDbMText
 10
287.3366041421
 20
89.5765106433
 30
0.0
 40
2.1166666667
 41
0.0
 71
     1
 72
     1
  1
D
  7
SLDTEXTSTYLE0
 73
     1
 44
1.0
  0
MTEXT
  5
E9
330
1F
100
AcDbEntity
  8
0
  6
Continuous
 62
     7
370
     0
100
AcDbMText
 10
287.3366041421
 20
58.3870735409
 30
0.0
 40
2.1166666667
 41
0.0
 71
     1
 72
     1
  1
E
  7
SLDTEXTSTYLE0
 73
     1
 44
1.0
  0
MTEXT
  5
EA
330
1F
100
AcDbEntity
  8
0
  6
Continuous
 62
     7
370
     0
100
AcDbMText
 10
287.3366041421
 20
26.4006098464
 30
0.0
 40
2.1166666667
 41
0.0
 71
     1
 72
     1
  1
F
  7
SLDTEXTSTYLE0
 73
     1
 44
1.0
  0
MTEXT
  5
EB
330
1F
100
AcDbEntity
  8
0
  6
Continuous
 62
     7
370
     0
100
AcDbMText
 10
203.1553128802
 20
21.5867148511
 30
0.0
 40
1.8520833333
 41
0.0
 71
     1
 72
     1
  1
John
  7
SLDTEXTSTYLE0
 73
     1
 44
1.0
  0
MTEXT
  5
EC
330
1F
100
AcDbEntity
  8
0
  6
Continuous
 62
     7
370
     0
100
AcDbMText
 10
252.8482239645
 20
12.0500370959
 30
0.0
 40
2.5
 41
0.0
 71
     1
 72
     1
  1
0
  7
SLDTEXTSTYLE0
 73
     1
 44
1.0
  0
MTEXT
  5
ED
330
1F
100
AcDbEntity
  8
SLD-0
 62
     7
100
AcDbMText
 10
198.7251893935
 20
35.2062670905
 30
0.0
 40
1.5875
 41
0.0
 71
     1
 72
     1
  1
No.5, Andong Rd., Chung Li District,
  7
SLDTEXTSTYLE0
 73
     1
 44
1.0
  0
MTEXT
  5
EE
330
1F
100
AcDbEntity
  8
SLD-0
 62
     7
100
AcDbMText
 10
198.7251893935
 20
33.0896004495
 30
0.0
 40
1.5875
 41
0.0
 71
     1
 72
     1
  1
Taoyuan City 32063, Taiwan, R.O.C.
  7
SLDTEXTSTYLE0
 73
     1
 44
1.0
  0
LINE
  5
EF
330
1F
100
AcDbEntity
  8
0
  6
Continuous
 62
     7
370
    35
100
AcDbLine
 10
37.2009581879
 20
97.8326336045
 30
0.0
 11
32.6061071405
 21
98.0502200289
 31
0.0
  0
LINE
  5
F0
330
1F
100
AcDbEntity
  8
0
  6
Continuous
 62
     7
370
    35
100
AcDbLine
 10
32.5682660232
 20
97.2511154989
 30
0.0
 11
37.1631170706
 21
97.0335290745
 31
0.0
  0
LINE
  5
F1
330
1F
100
AcDbEntity
  8
0
  6
Continuous
 62
     7
370
    35
100
AcDbLine
 10
37.5815898943
 20
97.4141607809
 30
0.0
 11
37.6028755228
 21
97.863657079
 31
0.0
  0
LINE
  5
F2
330
1F
100
AcDbEntity
  8
0
  6
Continuous
 62
     7
370
    35
100
AcDbLine
 10
36.8037709928
 20
97.9014981963
 30
0.0
 11
36.8014059229
 21
97.8515541632
 31
0.0
  0
LINE
  5
F3
330
1F
100
AcDbEntity
  8
0
  6
Continuous
 62
     7
370
    35
100
AcDbLine
 10
36.8132312721
 20
98.1012743288
 30
0.0
 11
36.8037709928
 21
97.9014981963
 31
0.0
  0
LINE
  5
F4
330
1F
100
AcDbEntity
  8
0
  6
Continuous
 62
     7
370
    35
100
AcDbLine
 10
37.6028755228
 20
97.863657079
 30
0.0
 11
37.6123358021
 21
98.0634332115
 31
0.0
  0
LINE
  5
F5
330
1F
100
AcDbEntity
  8
0
  6
Continuous
 62
     7
370
    35
100
AcDbLine
 10
33.8891163584
 20
100.5377500965
 30
0.0
 11
34.1083631659
 21
99.5441052831
 31
0.0
  0
LINE
  5
F6
330
1F
100
AcDbEntity
  8
0
  6
Continuous
 62
     7
370
    35
100
AcDbLine
 10
35.7418235359
 20
95.8540041475
 30
0.0
 11
35.5654699471
 21
96.6532533166
 31
0.0
  0
LINE
  5
F7
330
1F
100
AcDbEntity
  8
0
  6
Continuous
 62
     7
370
    35
100
AcDbLine
 10
59.2507980346
 20
70.5304732985
 30
0.0
 11
60.8418265477
 21
74.8465627636
 31
0.0
  0
LINE
  5
F8
330
1F
100
AcDbEntity
  8
0
  6
Continuous
 62
     7
370
    35
100
AcDbLine
 10
60.0912022929
 20
75.1232633746
 30
0.0
 11
58.5001737798
 21
70.8071739095
 31
0.0
  0
LINE
  5
F9
330
1F
100
AcDbEntity
  8
0
  6
Continuous
 62
     7
370
    35
100
AcDbLine
 10
58.7371356017
 20
70.2935114766
 30
0.0
 11
59.159361745
 21
70.1378673829
 31
0.0
  0
LINE
  5
FA
330
1F
100
AcDbEntity
  8
0
  6
Continuous
 62
     7
370
    35
100
AcDbLine
 10
59.436062356
 20
70.8884916377
 30
0.0
 11
59.3891483401
 21
70.9057854259
 31
0.0
  0
LINE
  5
FB
330
1F
100
AcDbEntity
  8
0
  6
Continuous
 62
     7
370
    35
100
AcDbLine
 10
59.6237184197
 20
70.819316485
 30
0.0
 11
59.436062356
 21
70.8884916377
 31
0.0
  0
LINE
  5
FC
330
1F
100
AcDbEntity
  8
0
  6
Continuous
 62
     7
370
    35
100
AcDbLine
 10
59.159361745
 20
70.1378673829
 30
0.0
 11
59.3470178087
 21
70.0686922302
 31
0.0
  0
LINE
  5
FD
330
1F
100
AcDbEntity
  8
0
  6
Continuous
 62
     7
370
    35
100
AcDbLine
 10
57.6191099026
 20
73.4766731967
 30
0.0
 11
57.607757628
 21
73.445877122
 31
0.0
  0
LINE
  5
FE
330
1F
100
AcDbEntity
  8
0
  6
Continuous
 62
     7
370
    35
100
AcDbLine
 10
65.3864713287
 20
73.445877122
 30
0.0
 11
60.3254955467
 21
73.445877122
 31
0.0
  0
LINE
  5
FF
330
1F
100
AcDbEntity
  8
0
  6
Continuous
 62
     7
370
    35
100
AcDbLine
 10
59.4728718859
 20
73.445877122
 30
0.0
 11
55.3864713287
 21
73.445877122
 31
0.0
  0
LINE
  5
100
330
1F
100
AcDbEntity
  8
0
  6
Continuous
 62
     7
370
    35
100
AcDbLine
 10
61.0654699471
 20
69.5335994618
 30
0.0
 11
61.0654699471
 21
70.0226331212
 31
0.0
  0
LINE
  5
101
330
1F
100
AcDbEntity
  8
0
  6
Continuous
 62
     7
370
    35
100
AcDbLine
 10
61.0654699471
 20
70.8535516104
 30
0.0
 11
61.0654699471
 21
71.9887703408
 31
0.0
  0
LINE
  5
102
330
1F
100
AcDbEntity
  8
0
  6
Continuous
 62
     7
370
    35
100
AcDbLine
 10
61.0654699471
 20
73.445877122
 30
0.0
 11
61.0654699471
 21
74.5419803362
 31
0.0
  0
LINE
  5
103
330
1F
100
AcDbEntity
  8
0
  6
Continuous
 62
     7
370
    35
100
AcDbLine
 10
61.0654699471
 20
75.3729578392
 30
0.0
 11
61.0654699471
 21
75.8581547822
 31
0.0
  0
LINE
  5
104
330
1F
100
AcDbEntity
  8
0
  6
Continuous
 62
     7
370
    35
100
AcDbLine
 10
59.5654699471
 20
75.8581547822
 30
0.0
 11
59.5654699471
 21
75.3691211228
 31
0.0
  0
LINE
  5
105
330
1F
100
AcDbEntity
  8
0
  6
Continuous
 62
     7
370
    35
100
AcDbLine
 10
59.5654699471
 20
74.5382026336
 30
0.0
 11
59.5654699471
 21
73.6970740761
 31
0.0
  0
LINE
  5
106
330
1F
100
AcDbEntity
  8
0
  6
Continuous
 62
     7
370
    35
100
AcDbLine
 10
59.5654699471
 20
71.3841048428
 30
0.0
 11
59.5654699471
 21
70.8407884636
 31
0.0
  0
LINE
  5
107
330
1F
100
AcDbEntity
  8
0
  6
Continuous
 62
     7
370
    35
100
AcDbLine
 10
59.5654699471
 20
70.0187964048
 30
0.0
 11
59.5654699471
 21
69.5335994618
 31
0.0
  0
LINE
  5
108
330
1F
100
AcDbEntity
  8
0
  6
Continuous
 62
     7
370
    35
100
AcDbLine
 10
35.5654699471
 20
93.2229988627
 30
0.0
 11
35.5654699471
 21
97.1091846989
 31
0.0
  0
LINE
  5
109
330
1F
100
AcDbEntity
  8
0
  6
Continuous
 62
     7
370
    35
100
AcDbLine
 10
35.5654699471
 20
97.9100811724
 30
0.0
 11
35.5654699471
 21
103.2229988627
 31
0.0
  0
LINE
  5
10A
330
1F
100
AcDbEntity
  8
0
  6
Continuous
 62
     7
370
    35
100
AcDbLine
 10
37.9777476073
 20
98.945877122
 30
0.0
 11
37.4945124412
 21
98.945877122
 31
0.0
  0
LINE
  5
10B
330
1F
100
AcDbEntity
  8
0
  6
Continuous
 62
     7
370
    35
100
AcDbLine
 10
36.652523178
 20
98.945877122
 30
0.0
 11
35.5654699471
 21
98.945877122
 31
0.0
  0
LINE
  5
10C
330
1F
100
AcDbEntity
  8
0
  6
Continuous
 62
     7
370
    35
100
AcDbLine
 10
34.1083631659
 20
98.945877122
 30
0.0
 11
32.9778346668
 21
98.945877122
 31
0.0
  0
LINE
  5
10D
330
1F
100
AcDbEntity
  8
0
  6
Continuous
 62
     7
370
    35
100
AcDbLine
 10
32.1283901051
 20
98.945877122
 30
0.0
 11
31.653192287
 21
98.945877122
 31
0.0
  0
ARC
  5
10E
330
1F
100
AcDbEntity
  8
0
  6
Continuous
 62
     7
370
    35
100
AcDbCircle
 10
66.2154699471
 20
80.695877122
 30
0.0
 40
1.200000000000009
100
AcDbArc
 50
85.5114272526
 51
236.4426902381
  0
ARC
  5
10F
330
1F
100
AcDbEntity
  8
0
  6
Continuous
 62
     7
370
    35
100
AcDbCircle
 10
66.2154699471
 20
80.695877122
 30
0.0
 40
1.200000000000009
100
AcDbArc
 50
303.5573097619
 51
85.5114272526
  0
LINE
  5
110
330
1F
100
AcDbEntity
  8
0
  6
Continuous
 62
     7
370
    35
100
AcDbLine
 10
65.3521006761
 20
80.7636525003
 30
0.0
 11
65.7250901123
 21
79.9820650896
 31
0.0
  0
LINE
  5
111
330
1F
100
AcDbEntity
  8
0
  6
Continuous
 62
     7
370
    35
100
AcDbLine
 10
65.7250901123
 20
79.9820650896
 30
0.0
 11
66.5884593833
 21
79.9142897113
 31
0.0
  0
LINE
  5
112
330
1F
100
AcDbEntity
  8
0
  6
Continuous
 62
     7
370
    35
100
AcDbLine
 10
66.5884593833
 20
79.9142897113
 30
0.0
 11
67.0788392181
 21
80.6281017437
 31
0.0
  0
LINE
  5
113
330
1F
100
AcDbEntity
  8
0
  6
Continuous
 62
     7
370
    35
100
AcDbLine
 10
65.842480511
 20
81.4774645327
 30
0.0
 11
65.3521006761
 21
80.7636525003
 31
0.0
  0
LINE
  5
114
330
1F
100
AcDbEntity
  8
0
  6
Continuous
 62
     7
370
    35
100
AcDbLine
 10
66.705849782
 20
81.4096891544
 30
0.0
 11
65.842480511
 21
81.4774645327
 31
0.0
  0
LINE
  5
115
330
1F
100
AcDbEntity
  8
0
  6
Continuous
 62
     7
370
    35
100
AcDbLine
 10
67.0788392181
 20
80.6281017437
 30
0.0
 11
66.705849782
 21
81.4096891544
 31
0.0
  0
LINE
  5
116
330
1F
100
AcDbEntity
  8
0
  6
Continuous
 62
     7
370
    35
100
AcDbLine
 10
43.6147982599
 20
90.0291551568
 30
0.0
 11
42.9265068589
 21
90.5547547642
 31
0.0
  0
LINE
  5
117
330
1F
100
AcDbEntity
  8
0
  6
Continuous
 62
     7
370
    35
100
AcDbLine
 10
42.9265068589
 20
90.5547547642
 30
0.0
 11
42.1271785461
 21
90.2214767294
 31
0.0
  0
LINE
  5
118
330
1F
100
AcDbEntity
  8
0
  6
Continuous
 62
     7
370
    35
100
AcDbLine
 10
42.1271785461
 20
90.2214767294
 30
0.0
 11
42.0161416344
 21
89.3625990872
 31
0.0
  0
LINE
  5
119
330
1F
100
AcDbEntity
  8
0
  6
Continuous
 62
     7
370
    35
100
AcDbLine
 10
42.0161416344
 20
89.3625990872
 30
0.0
 11
42.7044330354
 21
88.8369994798
 31
0.0
  0
LINE
  5
11A
330
1F
100
AcDbEntity
  8
0
  6
Continuous
 62
     7
370
    35
100
AcDbLine
 10
43.5037613481
 20
89.1702775146
 30
0.0
 11
43.6147982599
 21
90.0291551568
 31
0.0
  0
CIRCLE
  5
11B
330
1F
100
AcDbEntity
  8
0
  6
Continuous
 62
     7
370
    35
100
AcDbCircle
 10
42.8154699471
 20
89.695877122
 30
0.0
 40
1.200000000000004
  0
LINE
  5
11C
330
1F
100
AcDbEntity
  8
0
  6
Continuous
 62
     7
370
    35
100
AcDbLine
 10
42.7044330354
 20
88.8369994798
 30
0.0
 11
43.5037613481
 21
89.1702775146
 31
0.0
  0
ARC
  5
11D
330
1F
100
AcDbEntity
  8
0
  6
Continuous
 62
     7
370
    35
100
AcDbCircle
 10
42.8154699471
 20
104.095877122
 30
0.0
 40
1.200000000000012
100
AcDbArc
 50
52.6335795692
 51
146.4426902381
  0
ARC
  5
11E
330
1F
100
AcDbEntity
  8
0
  6
Continuous
 62
     7
370
    35
100
AcDbCircle
 10
42.8154699471
 20
104.095877122
 30
0.0
 40
1.200000000000004
100
AcDbArc
 50
213.5573097619
 51
52.6335795692
  0
LINE
  5
11F
330
1F
100
AcDbEntity
  8
0
  6
Continuous
 62
     7
370
    35
100
AcDbLine
 10
42.7044330354
 20
103.2369994798
 30
0.0
 11
43.5037613481
 21
103.5702775146
 31
0.0
  0
LINE
  5
120
330
1F
100
AcDbEntity
  8
0
  6
Continuous
 62
     7
370
    35
100
AcDbLine
 10
43.5037613481
 20
103.5702775146
 30
0.0
 11
43.6147982599
 21
104.4291551568
 31
0.0
  0
LINE
  5
121
330
1F
100
AcDbEntity
  8
0
  6
Continuous
 62
     7
370
    35
100
AcDbLine
 10
43.6147982599
 20
104.4291551568
 30
0.0
 11
42.9265068589
 21
104.9547547642
 31
0.0
  0
LINE
  5
122
330
1F
100
AcDbEntity
  8
0
  6
Continuous
 62
     7
370
    35
100
AcDbLine
 10
42.1271785461
 20
104.6214767294
 30
0.0
 11
42.0161416344
 21
103.7625990872
 31
0.0
  0
LINE
  5
123
330
1F
100
AcDbEntity
  8
0
  6
Continuous
 62
     7
370
    35
100
AcDbLine
 10
42.9265068589
 20
104.9547547642
 30
0.0
 11
42.1271785461
 21
104.6214767294
 31
0.0
  0
LINE
  5
124
330
1F
100
AcDbEntity
  8
0
  6
Continuous
 62
     7
370
    35
100
AcDbLine
 10
42.0161416344
 20
103.7625990872
 30
0.0
 11
42.7044330354
 21
103.2369994798
 31
0.0
  0
CIRCLE
  5
125
330
1F
100
AcDbEntity
  8
0
  6
Continuous
 62
     7
370
    35
100
AcDbCircle
 10
51.8154699471
 20
80.695877122
 30
0.0
 40
1.200000000000004
  0
LINE
  5
126
330
1F
100
AcDbEntity
  8
0
  6
Continuous
 62
     7
370
    35
100
AcDbLine
 10
51.1271785461
 20
81.2214767294
 30
0.0
 11
51.0161416344
 21
80.3625990872
 31
0.0
  0
LINE
  5
127
330
1F
100
AcDbEntity
  8
0
  6
Continuous
 62
     7
370
    35
100
AcDbLine
 10
52.5037613481
 20
80.1702775146
 30
0.0
 11
52.6147982599
 21
81.0291551568
 31
0.0
  0
LINE
  5
128
330
1F
100
AcDbEntity
  8
0
  6
Continuous
 62
     7
370
    35
100
AcDbLine
 10
51.9265068589
 20
81.5547547642
 30
0.0
 11
51.1271785461
 21
81.2214767294
 31
0.0
  0
LINE
  5
129
330
1F
100
AcDbEntity
  8
0
  6
Continuous
 62
     7
370
    35
100
AcDbLine
 10
51.0161416344
 20
80.3625990872
 30
0.0
 11
51.7044330354
 21
79.8369994798
 31
0.0
  0
LINE
  5
12A
330
1F
100
AcDbEntity
  8
0
  6
Continuous
 62
     7
370
    35
100
AcDbLine
 10
52.6147982599
 20
81.0291551568
 30
0.0
 11
51.9265068589
 21
81.5547547642
 31
0.0
  0
LINE
  5
12B
330
1F
100
AcDbEntity
  8
0
  6
Continuous
 62
     7
370
    35
100
AcDbLine
 10
51.7044330354
 20
79.8369994798
 30
0.0
 11
52.5037613481
 21
80.1702775146
 31
0.0
  0
ARC
  5
12C
330
1F
100
AcDbEntity
  8
0
  6
Continuous
 62
     7
370
    35
100
AcDbCircle
 10
32.5871865819
 20
97.6506677639
 30
0.0
 40
0.400000000000002
100
AcDbArc
 50
87.288817958
 51
267.288817958
  0
ARC
  5
12D
330
1F
100
AcDbEntity
  8
0
  6
Continuous
 62
     7
370
    35
100
AcDbCircle
 10
37.1820376293
 20
97.4330813395
 30
0.0
 40
0.4000000000000155
100
AcDbArc
 50
267.288817958
 51
87.288817958
  0
LINE
  5
12E
330
1F
100
AcDbEntity
  8
0
  6
Continuous
 62
     7
370
    35
100
AcDbLine
 10
37.2127835371
 20
98.0823537701
 30
0.0
 11
36.8132312721
 21
98.1012743288
 31
0.0
  0
LINE
  5
12F
330
1F
100
AcDbEntity
  8
0
  6
Continuous
 62
     7
370
    35
100
AcDbLine
 10
37.6123358021
 20
98.0634332115
 30
0.0
 11
37.2127835371
 21
98.0823537701
 31
0.0
  0
SPLINE
  5
130
330
1F
100
AcDbEntity
  8
0
  6
Continuous
 62
     7
370
    35
100
AcDbSpline
210
0.0
220
0.0
230
1.0
 70
     8
 71
     3
 72
    13
 73
     9
 74
     0
 42
0.00000001
 43
0.00000001
 40
0.0
 40
0.0
 40
0.0
 40
0.0
 40
0.1911247939636573
 40
0.3890209428412507
 40
0.5869170917188404
 40
0.7780418856824873
 40
0.9691666796461451
 40
1.0
 40
1.0
 40
1.0
 40
1.0
 10
37.61233580207588
 20
98.06343321149916
 30
0.0
 10
37.60575770411391
 20
98.3041579839314
 30
0.0
 10
37.59236845294352
 20
98.79413615994264
 30
0.0
 10
37.33092103205247
 20
99.49417096519265
 30
0.0
 10
36.90889276775359
 20
100.1078379686349
 30
0.0
 10
36.34282963790032
 20
100.5670309162022
 30
0.0
 10
35.87827577212898
 20
100.8282055891873
 30
0.0
 10
35.60362330554136
 20
100.8737239854478
 30
0.0
 10
35.56546994712817
 20
100.8800471752903
 30
0.0
  0
SPLINE
  5
131
330
1F
100
AcDbEntity
  8
0
  6
Continuous
 62
     7
370
    35
100
AcDbSpline
210
0.0
220
0.0
230
1.0
 70
     8
 71
     3
 72
    18
 73
    14
 74
     0
 42
0.00000001
 43
0.00000001
 40
0.0
 40
0.0
 40
0.0
 40
0.0
 40
0.0835691076808416
 40
0.1814391432165323
 40
0.2827766134701818
 40
0.3841140837238325
 40
0.4819841192595261
 40
0.5798541547952145
 40
0.6811916250488617
 40
0.7825290953025095
 40
0.8803991308382005
 40
0.9782691663738913
 40
1.0
 40
1.0
 40
1.0
 40
1.0
 10
34.10836316594163
 20
100.8932144399001
 30
0.0
 10
33.91192476831973
 20
100.8329751214732
 30
0.0
 10
33.48543206607067
 20
100.7021879128185
 30
0.0
 10
32.91395354609187
 20
100.2908831739297
 30
0.0
 10
32.43126732180782
 20
99.72786006070058
 30
0.0
 10
32.11625283749238
 20
99.05302561146836
 30
0.0
 10
31.98758826922553
 20
98.32989774618478
 30
0.0
 10
32.04721635611456
 20
97.59719787604803
 30
0.0
 10
32.29764571638666
 20
96.89762367194116
 30
0.0
 10
32.72273239249036
 20
96.2841776750203
 30
0.0
 10
33.28766623762759
 20
95.82368208979001
 30
0.0
 10
33.76641609216566
 20
95.55884473280362
 30
0.0
 10
34.05578617986857
 20
95.51233093181116
 30
0.0
 10
34.10836316594162
 20
95.50387962474484
 30
0.0
  0
SPLINE
  5
132
330
1F
100
AcDbEntity
  8
0
  6
Continuous
 62
     7
370
    35
100
AcDbSpline
210
0.0
220
0.0
230
1.0
 70
     8
 71
     3
 72
    11
 73
     7
 74
     0
 42
0.00000001
 43
0.00000001
 40
0.0
 40
0.0
 40
0.0
 40
0.0
 40
0.2299034662483397
 40
0.5207874584852679
 40
0.8219771714472345
 40
1.0
 40
1.0
 40
1.0
 40
1.0
 10
35.56546994712817
 20
95.51408349504331
 30
0.0
 10
35.74742283285895
 20
95.57005274084125
 30
0.0
 10
36.15959052423877
 20
95.69683674174433
 30
0.0
 10
36.7119251916091
 20
96.10352498415514
 30
0.0
 10
37.14871949498079
 20
96.57906014774572
 30
0.0
 10
37.30110518456812
 20
96.94491578030441
 30
0.0
 10
37.35771499575033
 20
97.08082761254526
 30
0.0
  0
SPLINE
  5
133
330
1F
100
AcDbEntity
  8
0
  6
Continuous
 62
     7
370
    35
100
AcDbSpline
210
0.0
220
0.0
230
1.0
 70
     8
 71
     3
 72
    12
 73
     8
 74
     0
 42
0.00000001
 43
0.00000001
 40
0.0
 40
0.0
 40
0.0
 40
0.0
 40
0.2090043850364326
 40
0.4254441171496852
 40
0.6418838492629371
 40
0.8508882342993697
 40
1.0
 40
1.0
 40
1.0
 40
1.0
 10
36.8132312720908
 20
98.10127432878369
 30
0.0
 10
36.80849458560341
 20
98.27311988791797
 30
0.0
 10
36.79885270464245
 20
98.62292442517315
 30
0.0
 10
36.612671087087
 20
99.12457429502687
 30
0.0
 10
36.30912288952133
 20
99.55656151502238
 30
0.0
 10
35.9499152318467
 20
99.87428689345091
 30
0.0
 10
35.67848682447645
 20
99.98800642027548
 30
0.0
 10
35.56546994712817
 20
100.0353567545303
 30
0.0
  0
SPLINE
  5
134
330
1F
100
AcDbEntity
  8
0
  6
Continuous
 62
     7
370
    35
100
AcDbSpline
210
0.0
220
0.0
230
1.0
 70
     8
 71
     3
 72
    13
 73
     9
 74
     0
 42
0.00000001
 43
0.00000001
 40
0.0
 40
0.0
 40
0.0
 40
0.0
 40
0.0870510542048209
 40
0.2871500424428741
 40
0.4943675675815332
 40
0.701585092720198
 40
0.9016840809582611
 40
1.0
 40
1.0
 40
1.0
 40
1.0
 10
34.10836316594163
 20
100.0493346007957
 30
0.0
 10
34.03737165891522
 20
100.0262926649193
 30
0.0
 10
33.80319627250631
 20
99.95028562600041
 30
0.0
 10
33.45864891174694
 20
99.68982926707284
 30
0.0
 10
33.110932032782
 20
99.29072240878288
 30
0.0
 10
32.89208587961362
 20
98.80836270818297
 30
0.0
 10
32.79815479915227
 20
98.3771340084402
 30
0.0
 10
32.82826117039364
 20
98.12296800864473
 30
0.0
 10
32.8381800299593
 20
98.03923035596901
 30
0.0
  0
SPLINE
  5
135
330
1F
100
AcDbEntity
  8
0
  6
Continuous
 62
     7
370
    35
100
AcDbSpline
210
0.0
220
0.0
230
1.0
 70
     8
 71
     3
 72
    10
 73
     6
 74
     0
 42
0.00000001
 43
0.00000001
 40
0.0
 40
0.0
 40
0.0
 40
0.0
 40
0.3356659729143924
 40
0.7035256795372319
 40
1.0
 40
1.0
 40
1.0
 40
1.0
 10
33.074196210963
 20
97.22715747734507
 30
0.0
 10
33.15729769707071
 20
97.09457992812476
 30
0.0
 10
33.3314709353554
 20
96.81670931289148
 30
0.0
 10
33.69519029675397
 20
96.50901928762995
 30
0.0
 10
33.98087140763351
 20
96.38944591300282
 30
0.0
 10
34.10836316594162
 20
96.33608354777287
 30
0.0
  0
SPLINE
  5
136
330
1F
100
AcDbEntity
  8
0
  6
Continuous
 62
     7
370
    35
100
AcDbSpline
210
0.0
220
0.0
230
1.0
 70
     8
 71
     3
 72
    10
 73
     6
 74
     0
 42
0.00000001
 43
0.00000001
 40
0.0
 40
0.0
 40
0.0
 40
0.0
 40
0.1532436672872932
 40
0.5959958584192757
 40
1.0
 40
1.0
 40
1.0
 40
1.0
 10
35.56546994712817
 20
96.35796333414761
 30
0.0
 10
35.62172546380956
 20
96.37663458762508
 30
0.0
 10
35.84051463499593
 20
96.44925089824369
 30
0.0
 10
36.16156735518132
 20
96.68495688101052
 30
0.0
 10
36.36185132126384
 20
96.94356184721877
 30
0.0
 10
36.45741075042137
 20
97.06694737543415
 30
0.0
  0
LINE
  5
137
330
1F
100
AcDbEntity
  8
0
  6
Continuous
 62
     7
370
    35
100
AcDbLine
 10
36.769109166
 20
97.8530835568
 30
0.0
 11
36.8132312721
 21
98.1012743288
 31
0.0
  0
LWPOLYLINE
  5
138
330
1F
100
AcDbEntity
  8
0
  6
Continuous
 62
     7
370
    35
100
AcDbPolyline
 90
        3
 70
   128
 43
0.0
 10
35.6931067888
 20
95.5601815061
 10
35.6203662866
 20
95.4719126529
 10
35.5654699471
 20
95.4300358267
  0
ARC
  5
139
330
1F
100
AcDbEntity
  8
0
  6
Continuous
 62
     7
370
    35
100
AcDbCircle
 10
34.2797208684
 20
100.6239366197
 30
0.0
 40
0.4000000000000071
100
AcDbArc
 50
115.3656986885
 51
147.5695998896
  0
ARC
  5
13A
330
1F
100
AcDbEntity
  8
0
  6
Continuous
 62
     7
370
    35
100
AcDbCircle
 10
60.4665144203
 20
74.9849130691
 30
0.0
 40
0.4000000000000019
100
AcDbArc
 50
339.764735199
 51
159.764735199
  0
ARC
  5
13B
330
1F
100
AcDbEntity
  8
0
  6
Continuous
 62
     7
370
    35
100
AcDbCircle
 10
58.8754859072
 20
70.668823604
 30
0.0
 40
0.3999999999999952
100
AcDbArc
 50
159.764735199
 51
339.764735199
  0
LINE
  5
13C
330
1F
100
AcDbEntity
  8
0
  6
Continuous
 62
     7
370
    35
100
AcDbLine
 10
59.4853681142
 20
70.4440043576
 30
0.0
 11
59.6237184197
 21
70.819316485
 31
0.0
  0
LINE
  5
13D
330
1F
100
AcDbEntity
  8
0
  6
Continuous
 62
     7
370
    35
100
AcDbLine
 10
59.3470178087
 20
70.0686922302
 30
0.0
 11
59.4853681142
 21
70.4440043576
 31
0.0
  0
SPLINE
  5
13E
330
1F
100
AcDbEntity
  8
0
  6
Continuous
 62
     7
370
    35
100
AcDbSpline
210
0.0
220
0.0
230
1.0
 70
     8
 71
     3
 72
    13
 73
     9
 74
     0
 42
0.00000001
 43
0.00000001
 40
0.0
 40
0.0
 40
0.0
 40
0.0
 40
0.1646670421401342
 40
0.3351921269725875
 40
0.5057172118050401
 40
0.6703842539451761
 40
0.8350512960853094
 40
1.0
 40
1.0
 40
1.0
 40
1.0
 10
59.62371841971228
 20
70.81931648500041
 30
0.0
 10
59.7890741148156
 20
70.77204310549018
 30
0.0
 10
60.12566804659669
 20
70.6758145923568
 30
0.0
 10
60.65916927803423
 20
70.7030332049964
 30
0.0
 10
61.16601878374173
 20
70.85966654437735
 30
0.0
 10
61.60733737433163
 20
71.14221245762494
 30
0.0
 10
61.96812552797066
 20
71.51952181202587
 30
0.0
 10
62.11194224933811
 20
71.83226508322005
 30
0.0
 10
62.1839120568329
 20
71.9887703408085
 30
0.0
  0
SPLINE
  5
13F
330
1F
100
AcDbEntity
  8
0
  6
Continuous
 62
     7
370
    35
100
AcDbSpline
210
0.0
220
0.0
230
1.0
 70
     8
 71
     3
 72
    12
 73
     8
 74
     0
 42
0.00000001
 43
0.00000001
 40
0.0
 40
0.0
 40
0.0
 40
0.0
 40
0.043529381777703
 40
0.3215647134414266
 40
0.5996000451051565
 40
0.8680840380643332
 40
1.0
 40
1.0
 40
1.0
 40
1.0
 10
62.15985128405148
 20
73.44587712199505
 30
0.0
 10
62.15208882164308
 20
73.47252941683725
 30
0.0
 10
62.09474516322159
 20
73.66941798275477
 30
0.0
 10
61.86382660095731
 20
73.98902048103328
 30
0.0
 10
61.48101755803678
 20
74.34626297859529
 30
0.0
 10
61.09549062423379
 20
74.56491817541544
 30
0.0
 10
60.84424403421454
 20
74.61279560858328
 30
0.0
 10
60.76146821168941
 20
74.62856933076817
 30
0.0
  0
SPLINE
  5
140
330
1F
100
AcDbEntity
  8
0
  6
Continuous
 62
     7
370
    35
100
AcDbSpline
210
0.0
220
0.0
230
1.0
 70
     8
 71
     3
 72
    11
 73
     7
 74
     0
 42
0.00000001
 43
0.00000001
 40
0.0
 40
0.0
 40
0.0
 40
0.0
 40
0.2388952624492684
 40
0.500702976812345
 40
0.7625106911754037
 40
1.0
 40
1.0
 40
1.0
 40
1.0
 10
59.9160172115653
 20
74.64802708709523
 30
0.0
 10
59.76391754761791
 20
74.60918022223831
 30
0.0
 10
59.44513033631107
 20
74.52776068853025
 30
0.0
 10
59.02445221298686
 20
74.24735687910426
 30
0.0
 10
58.67283386606845
 20
73.88534388695709
 30
0.0
 10
58.53518050906797
 20
73.58753102317041
 30
0.0
 10
58.4697060537974
 20
73.44587712199505
 30
0.0
  0
SPLINE
  5
141
330
1F
100
AcDbEntity
  8
0
  6
Continuous
 62
     7
370
    35
100
AcDbSpline
210
0.0
220
0.0
230
1.0
 70
     8
 71
     3
 72
     9
 73
     5
 74
     0
 42
0.00000001
 43
0.00000001
 40
0.0
 40
0.0
 40
0.0
 40
0.0
 40
0.2147979204068278
 40
1.0
 40
1.0
 40
1.0
 40
1.0
 10
58.45786506979469
 20
71.9887703408085
 30
0.0
 10
58.469354325393
 20
71.94747598269277
 30
0.0
 10
58.5228429977998
 20
71.75522850637867
 30
0.0
 10
58.64702558675205
 20
71.59549183065057
 30
0.0
 10
58.74453401384662
 20
71.47006626068159
 30
0.0
  0
LINE
  5
142
330
1F
100
AcDbEntity
  8
0
  6
Continuous
 62
     7
370
    35
100
AcDbLine
 10
59.4003315233
 20
70.9361227951
 30
0.0
 11
59.6237184197
 21
70.819316485
 31
0.0
  0
SPLINE
  5
143
330
1F
100
AcDbEntity
  8
0
  6
Continuous
 62
     7
370
    35
100
AcDbSpline
210
0.0
220
0.0
230
1.0
 70
     8
 71
     3
 72
    14
 73
    10
 74
     0
 42
0.00000001
 43
0.00000001
 40
0.0
 40
0.0
 40
0.0
 40
0.0
 40
0.1543405546121547
 40
0.3141492363637513
 40
0.4739579181153447
 40
0.6282984727274914
 40
0.7826390273396471
 40
0.9424477090912448
 40
1.0
 40
1.0
 40
1.0
 40
1.0
 10
59.34701780874592
 20
70.06869223020254
 30
0.0
 10
59.57848147832386
 20
70.0025173238101
 30
0.0
 10
60.04960933727568
 20
69.86782300214026
 30
0.0
 10
60.7969753200555
 20
69.90578541164061
 30
0.0
 10
61.50509164500202
 20
70.12559057919884
 30
0.0
 10
62.12839716770288
 20
70.51937807539613
 30
0.0
 10
62.61848115480134
 20
71.06009518626358
 30
0.0
 10
62.9206722619995
 20
71.56878017784281
 30
0.0
 10
62.98425803604962
 20
71.90084662361856
 30
0.0
 10
63.00109411715932
 20
71.9887703408085
 30
0.0
  0
SPLINE
  5
144
330
1F
100
AcDbEntity
  8
0
  6
Continuous
 62
     7
370
    35
100
AcDbSpline
210
0.0
220
0.0
230
1.0
 70
     8
 71
     3
 72
    18
 73
    14
 74
     0
 42
0.00000001
 43
0.00000001
 40
0.0
 40
0.0
 40
0.0
 40
0.0
 40
0.0595780157629743
 40
0.1625308541123281
 40
0.2654836924616838
 40
0.3649138235132229
 40
0.4643439545647568
 40
0.5672967929141085
 40
0.6702496312634613
 40
0.7696797623149974
 40
0.8691098933665334
 40
0.9720627317158866
 40
1.0
 40
1.0
 40
1.0
 40
1.0
 10
62.99009074875448
 20
73.44587712199505
 30
0.0
 10
62.95333880423018
 20
73.5851364498237
 30
0.0
 10
62.85307824910222
 20
73.96504063436622
 30
0.0
 10
62.48825140311735
 20
74.5066688868235
 30
0.0
 10
61.94715262030072
 20
75.01210341935457
 30
0.0
 10
61.29429972793314
 20
75.35209221562101
 30
0.0
 10
60.57844564262983
 20
75.51584278048918
 30
0.0
 10
59.83472693244528
 20
75.48817751386706
 30
0.0
 10
59.12573590140754
 20
75.26556854770662
 30
0.0
 10
58.50227136142023
 20
74.87262557122895
 30
0.0
 10
58.01367577620994
 20
74.33123889211338
 30
0.0
 10
57.71849787932741
 20
73.84340195719176
 30
0.0
 10
57.65731084730282
 20
73.53354215778282
 30
0.0
 10
57.64425104795551
 20
73.46740548352071
 30
0.0
  0
SPLINE
  5
145
330
1F
100
AcDbEntity
  8
0
  6
Continuous
 62
     7
370
    35
100
AcDbSpline
210
0.0
220
0.0
230
1.0
 70
     8
 71
     3
 72
    10
 73
     6
 74
     0
 42
0.00000001
 43
0.00000001
 40
0.0
 40
0.0
 40
0.0
 40
0.0
 40
0.2865528951332709
 40
0.7349612945652628
 40
0.9999999999999999
 40
0.9999999999999999
 40
0.9999999999999999
 40
0.9999999999999999
 10
57.62762560509176
 20
71.9887703408085
 30
0.0
 10
57.66838664721179
 20
71.83547943270673
 30
0.0
 10
57.77293205154434
 20
71.44231333256609
 30
0.0
 10
58.07392363693701
 20
70.95832756798745
 30
0.0
 10
58.37488007759337
 20
70.70242908995877
 30
0.0
 10
58.48668248716193
 20
70.60736527811231
 30
0.0
  0
LINE
  5
146
330
1F
100
AcDbEntity
  8
0
  6
Continuous
 62
     7
370
    35
100
AcDbLine
 10
34.2381196779
 20
109.695877122
 30
0.0
 11
33.6607694087
 21
108.695877122
 31
0.0
  0
LINE
  5
147
330
1F
100
AcDbEntity
  8
0
  6
Continuous
 62
     7
370
    35
100
AcDbLine
 10
33.6607694087
 20
108.695877122
 30
0.0
 11
34.2381196779
 21
107.695877122
 31
0.0
  0
CIRCLE
  5
148
330
1F
100
AcDbEntity
  8
0
  6
Continuous
 62
     7
370
    35
100
AcDbCircle
 10
34.8154699471
 20
108.695877122
 30
0.0
 40
3.000000000000007
  0
LINE
  5
149
330
1F
100
AcDbEntity
  8
0
  6
Continuous
 62
     7
370
    35
100
AcDbLine
 10
34.2381196779
 20
107.695877122
 30
0.0
 11
35.3928202163
 21
107.695877122
 31
0.0
  0
LINE
  5
14A
330
1F
100
AcDbEntity
  8
0
  6
Continuous
 62
     7
370
    35
100
AcDbLine
 10
35.3928202163
 20
107.695877122
 30
0.0
 11
35.9701704855
 21
108.695877122
 31
0.0
  0
LINE
  5
14B
330
1F
100
AcDbEntity
  8
0
  6
Continuous
 62
     7
370
    35
100
AcDbLine
 10
35.9701704855
 20
108.695877122
 30
0.0
 11
35.3928202163
 21
109.695877122
 31
0.0
  0
LINE
  5
14C
330
1F
100
AcDbEntity
  8
0
  6
Continuous
 62
     7
370
    35
100
AcDbLine
 10
35.3928202163
 20
109.695877122
 30
0.0
 11
34.2381196779
 21
109.695877122
 31
0.0
  0
LINE
  5
14D
330
1F
100
AcDbEntity
  8
0
  6
Continuous
 62
     7
370
    35
100
AcDbLine
 10
69.7872946869
 20
73.2214139595
 30
0.0
 11
69.8462540651
 21
72.0682196458
 31
0.0
  0
LINE
  5
14E
330
1F
100
AcDbEntity
  8
0
  6
Continuous
 62
     7
370
    35
100
AcDbLine
 10
70.8744293253
 20
71.5426828083
 30
0.0
 11
71.8436452074
 21
72.1703402845
 31
0.0
  0
CIRCLE
  5
14F
330
1F
100
AcDbEntity
  8
0
  6
Continuous
 62
     7
370
    35
100
AcDbCircle
 10
70.8154699471
 20
72.695877122
 30
0.0
 40
3.000000000000002
  0
LINE
  5
150
330
1F
100
AcDbEntity
  8
0
  6
Continuous
 62
     7
370
    35
100
AcDbLine
 10
69.8462540651
 20
72.0682196458
 30
0.0
 11
70.8744293253
 21
71.5426828083
 31
0.0
  0
LINE
  5
151
330
1F
100
AcDbEntity
  8
0
  6
Continuous
 62
     7
370
    35
100
AcDbLine
 10
71.8436452074
 20
72.1703402845
 30
0.0
 11
71.7846858291
 21
73.3235345982
 31
0.0
  0
LINE
  5
152
330
1F
100
AcDbEntity
  8
0
  6
Continuous
 62
     7
370
    35
100
AcDbLine
 10
71.7846858291
 20
73.3235345982
 30
0.0
 11
70.7565105689
 21
73.8490714357
 31
0.0
  0
LINE
  5
153
330
1F
100
AcDbEntity
  8
0
  6
Continuous
 62
     7
370
    35
100
AcDbLine
 10
70.7565105689
 20
73.8490714357
 30
0.0
 11
69.7872946869
 21
73.2214139595
 31
0.0
  0
CIRCLE
  5
154
330
1F
100
AcDbEntity
  8
0
  6
Continuous
 62
     7
370
    35
100
AcDbCircle
 10
34.8154699471
 20
108.695877122
 30
0.0
 40
4.25
  0
CIRCLE
  5
155
330
1F
100
AcDbEntity
  8
0
  6
Continuous
 62
     7
370
    35
100
AcDbCircle
 10
34.8154699471
 20
108.695877122
 30
0.0
 40
4.725000000000009
  0
CIRCLE
  5
156
330
1F
100
AcDbEntity
  8
0
  6
Continuous
 62
     7
370
    35
100
AcDbCircle
 10
70.8154699471
 20
72.695877122
 30
0.0
 40
4.249999999999986
  0
CIRCLE
  5
157
330
1F
100
AcDbEntity
  8
0
  6
Continuous
 62
     7
370
    35
100
AcDbCircle
 10
70.8154699471
 20
72.695877122
 30
0.0
 40
4.724999999999994
  0
LINE
  5
158
330
1F
100
AcDbEntity
  8
0
  6
Continuous
 62
     7
370
    35
100
AcDbLine
 10
55.3864713287
 20
71.9887703408
 30
0.0
 11
58.9357425113
 21
71.9887703408
 31
0.0
  0
LINE
  5
159
330
1F
100
AcDbEntity
  8
0
  6
Continuous
 62
     7
370
    35
100
AcDbLine
 10
59.788366172
 20
71.9887703408
 30
0.0
 11
65.3864713287
 21
71.9887703408
 31
0.0
  0
LINE
  5
15A
330
1F
100
AcDbEntity
  8
0
  6
Continuous
 62
     7
370
    35
100
AcDbLine
 10
55.3864713287
 20
71.9887703408
 30
0.0
 11
55.3864713287
 21
73.445877122
 31
0.0
  0
LINE
  5
15B
330
1F
100
AcDbEntity
  8
0
  6
Continuous
 62
     7
370
    35
100
AcDbLine
 10
65.3864713287
 20
71.9887703408
 30
0.0
 11
65.3864713287
 21
73.445877122
 31
0.0
  0
LINE
  5
15C
330
1F
100
AcDbEntity
  8
0
  6
Continuous
 62
     7
370
    35
100
AcDbLine
 10
60.5384762832
 20
75.9382170447
 30
0.0
 11
60.5384762832
 21
75.481317326
 31
0.0
  0
LINE
  5
15D
330
1F
100
AcDbEntity
  8
0
  6
Continuous
 62
     7
370
    35
100
AcDbLine
 10
60.5384762832
 20
74.0236442112
 30
0.0
 11
60.5384762832
 21
73.445877122
 31
0.0
  0
LINE
  5
15E
330
1F
100
AcDbEntity
  8
0
  6
Continuous
 62
     7
370
    35
100
AcDbLine
 10
60.5384762832
 20
71.9887703408
 30
0.0
 11
60.5384762832
 21
70.7205222912
 31
0.0
  0
LINE
  5
15F
330
1F
100
AcDbEntity
  8
0
  6
Continuous
 62
     7
370
    35
100
AcDbLine
 10
60.5384762832
 20
69.9270564521
 30
0.0
 11
60.5384762832
 21
69.4535371993
 31
0.0
  0
LINE
  5
160
330
1F
100
AcDbEntity
  8
0
  6
Continuous
 62
     7
370
    35
100
AcDbLine
 10
60.9390027353
 20
75.8855019999
 30
0.0
 11
60.9390027353
 21
75.4018437359
 31
0.0
  0
LINE
  5
161
330
1F
100
AcDbEntity
  8
0
  6
Continuous
 62
     7
370
    35
100
AcDbLine
 10
60.9390027353
 20
74.5880193428
 30
0.0
 11
60.9390027353
 21
73.445877122
 31
0.0
  0
LINE
  5
162
330
1F
100
AcDbEntity
  8
0
  6
Continuous
 62
     7
370
    35
100
AcDbLine
 10
60.9390027353
 20
71.9887703408
 30
0.0
 11
60.9390027353
 21
70.8139301561
 31
0.0
  0
LINE
  5
163
330
1F
100
AcDbEntity
  8
0
  6
Continuous
 62
     7
370
    35
100
AcDbLine
 10
60.9390027353
 20
69.9830116669
 30
0.0
 11
60.9390027353
 21
69.506252244
 31
0.0
  0
LINE
  5
164
330
1F
100
AcDbEntity
  8
0
  6
Continuous
 62
     7
370
    35
100
AcDbLine
 10
60.7684407119
 20
75.9141557747
 30
0.0
 11
60.7684407119
 21
75.4408011615
 31
0.0
  0
LINE
  5
165
330
1F
100
AcDbEntity
  8
0
  6
Continuous
 62
     7
370
    35
100
AcDbLine
 10
60.7684407119
 20
74.6474840983
 30
0.0
 11
60.7684407119
 21
73.445877122
 31
0.0
  0
LINE
  5
166
330
1F
100
AcDbEntity
  8
0
  6
Continuous
 62
     7
370
    35
100
AcDbLine
 10
60.7684407119
 20
71.9887703408
 30
0.0
 11
60.7684407119
 21
69.4775984693
 31
0.0
  0
LINE
  5
167
330
1F
100
AcDbEntity
  8
0
  6
Continuous
 62
     7
370
    35
100
AcDbLine
 10
34.1083631659
 20
93.2229988627
 30
0.0
 11
34.1083631659
 21
97.1781851195
 31
0.0
  0
LINE
  5
168
330
1F
100
AcDbEntity
  8
0
  6
Continuous
 62
     7
370
    35
100
AcDbLine
 10
34.1083631659
 20
97.9790815929
 30
0.0
 11
34.1083631659
 21
103.2229988627
 31
0.0
  0
LINE
  5
169
330
1F
100
AcDbEntity
  8
0
  6
Continuous
 62
     7
370
    35
100
AcDbLine
 10
35.5654699471
 20
103.2229988627
 30
0.0
 11
34.1083631659
 21
103.2229988627
 31
0.0
  0
LINE
  5
16A
330
1F
100
AcDbEntity
  8
0
  6
Continuous
 62
     7
370
    35
100
AcDbLine
 10
35.5654699471
 20
93.2229988627
 30
0.0
 11
34.1083631659
 21
93.2229988627
 31
0.0
  0
LINE
  5
16B
330
1F
100
AcDbEntity
  8
0
  6
Continuous
 62
     7
370
    35
100
AcDbLine
 10
31.6530681652
 20
97.4464006583
 30
0.0
 11
32.136240432
 21
97.4464006583
 31
0.0
  0
LINE
  5
16C
330
1F
100
AcDbEntity
  8
0
  6
Continuous
 62
     7
370
    35
100
AcDbLine
 10
37.5831165944
 20
97.4464006583
 30
0.0
 11
37.9778717291
 21
97.4464006583
 31
0.0
  0
ARC
  5
16D
330
1F
100
AcDbEntity
  8
0
  6
Continuous
 62
     7
370
    35
100
AcDbCircle
 10
46.8154699471
 20
80.695877122
 30
0.0
 40
2.0
100
AcDbArc
 50
270.0
 51
0.0
  0
ARC
  5
16E
330
1F
100
AcDbEntity
  8
0
  6
Continuous
 62
     7
370
    35
100
AcDbCircle
 10
50.8154699471
 20
80.695877122
 30
0.0
 40
2.000000000000043
100
AcDbArc
 50
90.0
 51
180.0
  0
LINE
  5
16F
330
1F
100
AcDbEntity
  8
0
  6
Continuous
 62
     7
370
    35
100
AcDbLine
 10
66.8154699471
 20
82.695877122
 30
0.0
 11
50.8154699471
 21
82.695877122
 31
0.0
  0
ARC
  5
170
330
1F
100
AcDbEntity
  8
0
  6
Continuous
 62
     7
370
    35
100
AcDbCircle
 10
66.8154699471
 20
80.695877122
 30
0.0
 40
2.000000000000085
100
AcDbArc
 50
0.0
 51
90.0
  0
ARC
  5
171
330
1F
100
AcDbEntity
  8
0
  6
Continuous
 62
     7
370
    35
100
AcDbCircle
 10
70.8154699471
 20
80.695877122
 30
0.0
 40
2.000000000000001
100
AcDbArc
 50
180.0
 51
210.0
  0
LINE
  5
172
330
1F
100
AcDbEntity
  8
0
  6
Continuous
 62
     7
370
    35
100
AcDbLine
 10
75.8154699471
 20
78.695877122
 30
0.0
 11
74.4210212226
 21
78.695877122
 31
0.0
  0
ARC
  5
173
330
1F
100
AcDbEntity
  8
0
  6
Continuous
 62
     7
370
    35
100
AcDbCircle
 10
75.8154699471
 20
76.695877122
 30
0.0
 40
2.000000000000043
100
AcDbArc
 50
0.0
 51
90.0
  0
LINE
  5
174
330
1F
100
AcDbEntity
  8
0
  6
Continuous
 62
     7
370
    35
100
AcDbLine
 10
77.8154699471
 20
72.695877122
 30
0.0
 11
77.8154699471
 21
76.695877122
 31
0.0
  0
LINE
  5
175
330
1F
100
AcDbEntity
  8
0
  6
Continuous
 62
     7
370
    35
100
AcDbLine
 10
38.8154699471
 20
115.695877122
 30
0.0
 11
34.8154699471
 21
115.695877122
 31
0.0
  0
ARC
  5
176
330
1F
100
AcDbEntity
  8
0
  6
Continuous
 62
     7
370
    35
100
AcDbCircle
 10
38.8154699471
 20
113.695877122
 30
0.0
 40
2.000000000000043
100
AcDbArc
 50
0.0
 51
90.0
  0
LINE
  5
177
330
1F
100
AcDbEntity
  8
0
  6
Continuous
 62
     7
370
    35
100
AcDbLine
 10
40.8154699471
 20
112.3014283975
 30
0.0
 11
40.8154699471
 21
113.695877122
 31
0.0
  0
ARC
  5
178
330
1F
100
AcDbEntity
  8
0
  6
Continuous
 62
     7
370
    35
100
AcDbCircle
 10
42.8154699471
 20
108.695877122
 30
0.0
 40
2.000000000000085
100
AcDbArc
 50
240.0
 51
270.0
  0
ARC
  5
179
330
1F
100
AcDbEntity
  8
0
  6
Continuous
 62
     7
370
    35
100
AcDbCircle
 10
42.8154699471
 20
104.695877122
 30
0.0
 40
2.000000000000043
100
AcDbArc
 50
0.0
 51
90.0
  0
LINE
  5
17A
330
1F
100
AcDbEntity
  8
0
  6
Continuous
 62
     7
370
    35
100
AcDbLine
 10
44.8154699471
 20
88.695877122
 30
0.0
 11
44.8154699471
 21
104.695877122
 31
0.0
  0
ARC
  5
17B
330
1F
100
AcDbEntity
  8
0
  6
Continuous
 62
     7
370
    35
100
AcDbCircle
 10
42.8154699471
 20
88.695877122
 30
0.0
 40
2.000000000000043
100
AcDbArc
 50
270.0
 51
0.0
  0
ARC
  5
17C
330
1F
100
AcDbEntity
  8
0
  6
Continuous
 62
     7
370
    35
100
AcDbCircle
 10
42.8154699471
 20
84.695877122
 30
0.0
 40
2.000000000000007
100
AcDbArc
 50
90.0
 51
180.0
  0
LINE
  5
17D
330
1F
100
AcDbEntity
  8
0
  6
Continuous
 62
     7
370
    35
100
AcDbLine
 10
40.8154699471
 20
83.4847745711
 30
0.0
 11
40.8154699471
 21
84.695877122
 31
0.0
  0
LINE
  5
17E
330
1F
100
AcDbEntity
  8
0
  6
Continuous
 62
     7
370
    35
100
AcDbLine
 10
46.8154699471
 20
78.695877122
 30
0.0
 11
45.6043673962
 21
78.695877122
 31
0.0
  0
ARC
  5
17F
330
1F
100
AcDbEntity
  8
0
  6
Continuous
 62
     7
370
    35
100
AcDbCircle
 10
42.8154699471
 20
104.095877122
 30
0.0
 40
1.249999999999997
100
AcDbArc
 50
270.0
 51
143.1301023542
  0
ARC
  5
180
330
1F
100
AcDbEntity
  8
0
  6
Continuous
 62
     7
370
    35
100
AcDbCircle
 10
42.8154699471
 20
104.095877122
 30
0.0
 40
1.249999999999986
100
AcDbArc
 50
216.8698976458
 51
270.0
  0
CIRCLE
  5
181
330
1F
100
AcDbEntity
  8
0
  6
Continuous
 62
     7
370
    35
100
AcDbCircle
 10
42.8154699471
 20
89.695877122
 30
0.0
 40
1.249999999999986
  0
ARC
  5
182
330
1F
100
AcDbEntity
  8
0
  6
Continuous
 62
     7
370
    35
100
AcDbCircle
 10
66.2154699471
 20
80.695877122
 30
0.0
 40
1.249999999999994
100
AcDbArc
 50
306.8698976458
 51
233.1301023542
  0
CIRCLE
  5
183
330
1F
100
AcDbEntity
  8
0
  6
Continuous
 62
     7
370
    35
100
AcDbCircle
 10
51.8154699471
 20
80.695877122
 30
0.0
 40
1.249999999999986
  0
CIRCLE
  5
184
330
1F
100
AcDbEntity
  8
0
  6
Continuous
 62
     7
370
    35
100
AcDbCircle
 10
34.8154699471
 20
108.695877122
 30
0.0
 40
4.749999999999986
  0
LINE
  5
185
330
1F
100
AcDbEntity
  8
0
  6
Continuous
 62
     7
370
    35
100
AcDbLine
 10
57.2231407279
 20
73.695877122
 30
0.0
 11
55.8154699471
 21
73.695877122
 31
0.0
  0
ARC
  5
186
330
1F
100
AcDbEntity
  8
0
  6
Continuous
 62
     7
370
    35
100
AcDbCircle
 10
55.8154699471
 20
72.695877122
 30
0.0
 40
1.0
100
AcDbArc
 50
90.0
 51
270.0
  0
LINE
  5
187
330
1F
100
AcDbEntity
  8
0
  6
Continuous
 62
     7
370
    35
100
AcDbLine
 10
55.8154699471
 20
71.695877122
 30
0.0
 11
57.2231407279
 21
71.695877122
 31
0.0
  0
ARC
  5
188
330
1F
100
AcDbEntity
  8
0
  6
Continuous
 62
     7
370
    35
100
AcDbCircle
 10
60.3154699471
 20
72.695877122
 30
0.0
 40
3.249999999999996
100
AcDbArc
 50
197.9202131394
 51
342.0797868606
  0
LINE
  5
189
330
1F
100
AcDbEntity
  8
0
  6
Continuous
 62
     7
370
    35
100
AcDbLine
 10
63.4077991663
 20
71.695877122
 30
0.0
 11
64.8154699471
 21
71.695877122
 31
0.0
  0
ARC
  5
18A
330
1F
100
AcDbEntity
  8
0
  6
Continuous
 62
     7
370
    35
100
AcDbCircle
 10
64.8154699471
 20
72.695877122
 30
0.0
 40
1.0
100
AcDbArc
 50
270.0
 51
90.0
  0
LINE
  5
18B
330
1F
100
AcDbEntity
  8
0
  6
Continuous
 62
     7
370
    35
100
AcDbLine
 10
64.8154699471
 20
73.695877122
 30
0.0
 11
63.4077991663
 21
73.695877122
 31
0.0
  0
ARC
  5
18C
330
1F
100
AcDbEntity
  8
0
  6
Continuous
 62
     7
370
    35
100
AcDbCircle
 10
60.3154699471
 20
72.695877122
 30
0.0
 40
3.249999999999996
100
AcDbArc
 50
17.9202131394
 51
162.0797868606
  0
ARC
  5
18D
330
1F
100
AcDbEntity
  8
0
  6
Continuous
 62
     7
370
    35
100
AcDbCircle
 10
70.8154699471
 20
72.695877122
 30
0.0
 40
7.000000000000014
100
AcDbArc
 50
270.0
 51
90.0
  0
LINE
  5
18E
330
1F
100
AcDbEntity
  8
0
  6
Continuous
 62
     7
370
    35
100
AcDbLine
 10
70.8154699471
 20
65.695877122
 30
0.0
 11
34.8154699471
 21
65.695877122
 31
0.0
  0
ARC
  5
18F
330
1F
100
AcDbEntity
  8
0
  6
Continuous
 62
     7
370
    35
100
AcDbCircle
 10
34.8154699471
 20
72.695877122
 30
0.0
 40
7.000000000000007
100
AcDbArc
 50
180.0
 51
270.0
  0
LINE
  5
190
330
1F
100
AcDbEntity
  8
0
  6
Continuous
 62
     7
370
    35
100
AcDbLine
 10
27.8154699471
 20
72.695877122
 30
0.0
 11
27.8154699471
 21
108.695877122
 31
0.0
  0
ARC
  5
191
330
1F
100
AcDbEntity
  8
0
  6
Continuous
 62
     7
370
    35
100
AcDbCircle
 10
34.8154699471
 20
108.695877122
 30
0.0
 40
7.0
100
AcDbArc
 50
0.0
 51
180.0
  0
LINE
  5
192
330
1F
100
AcDbEntity
  8
0
  6
Continuous
 62
     7
370
    35
100
AcDbLine
 10
41.8154699471
 20
108.695877122
 30
0.0
 11
41.8154699471
 21
99.3561311598
 31
0.0
  0
ARC
  5
193
330
1F
100
AcDbEntity
  8
0
  6
Continuous
 62
     7
370
    35
100
AcDbCircle
 10
52.8154699471
 20
90.695877122
 30
0.0
 40
14.0
100
AcDbArc
 50
141.7867892983
 51
308.2132107017
  0
LINE
  5
194
330
1F
100
AcDbEntity
  8
0
  6
Continuous
 62
     7
370
    35
100
AcDbLine
 10
61.475723985
 20
79.695877122
 30
0.0
 11
70.8154699471
 21
79.695877122
 31
0.0
  0
ARC
  5
195
330
1F
100
AcDbEntity
  8
0
  6
Continuous
 62
     7
370
    35
100
AcDbCircle
 10
34.8154699471
 20
93.695877122
 30
0.0
 40
1.0
100
AcDbArc
 50
180.0
 51
0.0
  0
LINE
  5
196
330
1F
100
AcDbEntity
  8
0
  6
Continuous
 62
     7
370
    35
100
AcDbLine
 10
35.8154699471
 20
95.1035479028
 30
0.0
 11
35.8154699471
 21
93.695877122
 31
0.0
  0
ARC
  5
197
330
1F
100
AcDbEntity
  8
0
  6
Continuous
 62
     7
370
    35
100
AcDbCircle
 10
34.8154699471
 20
98.195877122
 30
0.0
 40
3.250000000000009
100
AcDbArc
 50
287.9202131394
 51
72.0797868606
  0
LINE
  5
198
330
1F
100
AcDbEntity
  8
0
  6
Continuous
 62
     7
370
    35
100
AcDbLine
 10
35.8154699471
 20
102.695877122
 30
0.0
 11
35.8154699471
 21
101.2882063412
 31
0.0
  0
ARC
  5
199
330
1F
100
AcDbEntity
  8
0
  6
Continuous
 62
     7
370
    35
100
AcDbCircle
 10
34.8154699471
 20
102.695877122
 30
0.0
 40
1.0
100
AcDbArc
 50
0.0
 51
180.0
  0
LINE
  5
19A
330
1F
100
AcDbEntity
  8
0
  6
Continuous
 62
     7
370
    35
100
AcDbLine
 10
33.8154699471
 20
101.2882063412
 30
0.0
 11
33.8154699471
 21
102.695877122
 31
0.0
  0
ARC
  5
19B
330
1F
100
AcDbEntity
  8
0
  6
Continuous
 62
     7
370
    35
100
AcDbCircle
 10
34.8154699471
 20
98.195877122
 30
0.0
 40
3.250000000000009
100
AcDbArc
 50
107.9202131394
 51
252.0797868606
  0
LINE
  5
19C
330
1F
100
AcDbEntity
  8
0
  6
Continuous
 62
     7
370
    35
100
AcDbLine
 10
33.8154699471
 20
93.695877122
 30
0.0
 11
33.8154699471
 21
95.1035479028
 31
0.0
  0
CIRCLE
  5
19D
330
1F
100
AcDbEntity
  8
0
  6
Continuous
 62
     7
370
    35
100
AcDbCircle
 10
70.8154699471
 20
72.695877122
 30
0.0
 40
4.75
  0
LWPOLYLINE
  5
19E
330
1F
100
AcDbEntity
  8
0
  6
Continuous
 62
     7
370
    35
100
AcDbPolyline
 90
        3
 70
   128
 43
0.0
 10
57.2231407279
 20
71.695877122
 10
57.1544770402
 20
71.9404806418
 10
57.143325562
 20
71.9887703408
  0
LWPOLYLINE
  5
19F
330
1F
100
AcDbEntity
  8
0
  6
Continuous
 62
     7
370
    35
100
AcDbPolyline
 90
        3
 70
   128
 43
0.0
 10
57.153192287
 20
73.445877122
 10
57.1544770402
 20
73.4512736022
 10
57.2231407279
 20
73.695877122
  0
LWPOLYLINE
  5
1A0
330
1F
100
AcDbEntity
  8
0
  6
Continuous
 62
     7
370
    35
100
AcDbPolyline
 90
        3
 70
   128
 43
0.0
 10
63.4077991663
 20
73.695877122
 10
63.4764628541
 20
73.4512736022
 10
63.4777476073
 20
73.445877122
  0
LWPOLYLINE
  5
1A1
330
1F
100
AcDbEntity
  8
0
  6
Continuous
 62
     7
370
    35
100
AcDbPolyline
 90
        3
 70
   128
 43
0.0
 10
63.4876143322
 20
71.9887703408
 10
63.4764628541
 20
71.9404806418
 10
63.4077991663
 20
71.695877122
  0
LWPOLYLINE
  5
1A2
330
1F
100
AcDbEntity
  8
0
  6
Continuous
 62
     7
370
    35
100
AcDbPolyline
 90
        3
 70
   128
 43
0.0
 10
35.8154699471
 20
95.1035479028
 10
35.5708664273
 20
95.0348842151
 10
35.5654699471
 20
95.0335994618
  0
LWPOLYLINE
  5
1A3
330
1F
100
AcDbEntity
  8
0
  6
Continuous
 62
     7
370
    35
100
AcDbPolyline
 90
        3
 70
   128
 43
0.0
 10
34.1083631659
 20
95.0237327369
 10
34.0600734669
 20
95.0348842151
 10
33.8154699471
 20
95.1035479028
  0
LWPOLYLINE
  5
1A4
330
1F
100
AcDbEntity
  8
0
  6
Continuous
 62
     7
370
    35
100
AcDbPolyline
 90
        3
 70
   128
 43
0.0
 10
33.8154699471
 20
101.2882063412
 10
34.0600734669
 20
101.3568700289
 10
34.1083631659
 20
101.3680215071
  0
LWPOLYLINE
  5
1A5
330
1F
100
AcDbEntity
  8
0
  6
Continuous
 62
     7
370
    35
100
AcDbPolyline
 90
        3
 70
   128
 43
0.0
 10
35.5654699471
 20
101.3581547822
 10
35.5708664273
 20
101.3568700289
 10
35.8154699471
 20
101.2882063412
  0
LINE
  5
1A6
330
1F
100
AcDbEntity
  8
0
  6
Continuous
 62
     7
370
    35
100
AcDbLine
 10
37.6028755228
 20
97.863657079
 30
0.0
 11
36.8037709928
 21
97.9014981963
 31
0.0
  0
SPLINE
  5
1A7
330
1F
100
AcDbEntity
  8
0
  6
Continuous
 62
     7
370
    35
100
AcDbSpline
210
0.0
220
0.0
230
1.0
 70
     8
 71
     3
 72
    12
 73
     8
 74
     0
 42
0.00000001
 43
0.00000001
 40
0.0
 40
0.0
 40
0.0
 40
0.0
 40
0.197863574527926
 40
0.4027481393616315
 40
0.6076327041953337
 40
0.8054962787232491
 40
1.0
 40
1.0
 40
1.0
 40
1.0
 10
37.21278353708334
 20
98.08235377014144
 30
0.0
 10
37.20711793162564
 20
98.28859408213347
 30
0.0
 10
37.19558568238829
 20
98.70839293654278
 30
0.0
 10
36.97190137658264
 20
99.3099363804337
 30
0.0
 10
36.60861838364104
 20
99.83012048344646
 30
0.0
 10
36.1317265358026
 20
100.2423724435061
 30
0.0
 10
35.75314153166541
 20
100.397427848092
 30
0.0
 10
35.56546994712817
 20
100.47429167828
 30
0.0
  0
SPLINE
  5
1A8
330
1F
100
AcDbEntity
  8
0
  6
Continuous
 62
     7
370
    35
100
AcDbSpline
210
0.0
220
0.0
230
1.0
 70
     8
 71
     3
 72
    13
 73
     9
 74
     0
 42
0.00000001
 43
0.00000001
 40
0.0
 40
0.0
 40
0.0
 40
0.0
 40
0.1299947788816741
 40
0.3213429968975235
 40
0.5194810143341273
 40
0.7176190317707327
 40
0.9089672497865858
 40
1.0
 40
1.0
 40
1.0
 40
1.0
 10
34.10836316594163
 20
100.4712745203479
 30
0.0
 10
33.97471324581856
 20
100.4294565528455
 30
0.0
 10
33.64433485495604
 20
100.3260838549803
 30
0.0
 10
33.1864478248029
 20
99.99057163906447
 30
0.0
 10
32.77021894058478
 20
99.50916719080215
 30
0.0
 10
32.50748574204125
 20
98.93096619073553
 30
0.0
 10
32.39497712068196
 20
98.41656401286451
 30
0.0
 10
32.43049300194432
 20
98.11476250837568
 30
0.0
 10
32.44194245750727
 20
98.01746905002243
 30
0.0
  0
SPLINE
  5
1A9
330
1F
100
AcDbEntity
  8
0
  6
Continuous
 62
     7
370
    35
100
AcDbSpline
210
0.0
220
0.0
230
1.0
 70
     8
 71
     3
 72
    12
 73
     8
 74
     0
 42
0.00000001
 43
0.00000001
 40
0.0
 40
0.0
 40
0.0
 40
0.0
 40
0.0785626804749755
 40
0.3872723137616486
 40
0.6854030762370118
 40
0.9835338387123619
 40
1.0
 40
1.0
 40
1.0
 40
1.0
 10
32.62800669945434
 20
97.24828651491471
 30
0.0
 10
32.64501948135926
 20
97.19686902197844
 30
0.0
 10
32.7288834657856
 20
96.9434080741484
 30
0.0
 10
33.02906578866312
 20
96.55935352737899
 30
0.0
 10
33.50452678815858
 20
96.16453235958087
 30
0.0
 10
33.88387901274427
 20
95.94642161718453
 30
0.0
 10
34.09719794565589
 20
95.90885110066802
 30
0.0
 10
34.10836316594162
 20
95.90688464092894
 30
0.0
  0
SPLINE
  5
1AA
330
1F
100
AcDbEntity
  8
0
  6
Continuous
 62
     7
370
    35
100
AcDbSpline
210
0.0
220
0.0
230
1.0
 70
     8
 71
     3
 72
    11
 73
     7
 74
     0
 42
0.00000001
 43
0.00000001
 40
0.0
 40
0.0
 40
0.0
 40
0.0
 40
0.2082398856562775
 40
0.5522906588385681
 40
0.835830804020924
 40
0.9999999999999999
 40
0.9999999999999999
 40
0.9999999999999999
 40
0.9999999999999999
 10
35.56546994712817
 20
95.93602341459547
 30
0.0
 10
35.68451983585285
 20
95.97350002821014
 30
0.0
 10
36.00026214079695
 20
96.07289493307701
 30
0.0
 10
36.4056408075752
 20
96.37797018959242
 30
0.0
 10
36.73610467846018
 20
96.72169795655314
 30
0.0
 10
36.86096172242766
 20
96.95874671408976
 30
0.0
 10
36.90674517753112
 20
97.04566941226636
 30
0.0
  0
LINE
  5
1AB
330
1F
100
AcDbEntity
  8
0
  6
Continuous
 62
     7
370
    35
100
AcDbLine
 10
59.159361745
 20
70.1378673829
 30
0.0
 11
59.436062356
 21
70.8884916377
 31
0.0
  0
SPLINE
  5
1AC
330
1F
100
AcDbEntity
  8
0
  6
Continuous
 62
     7
370
    35
100
AcDbSpline
210
0.0
220
0.0
230
1.0
 70
     8
 71
     3
 72
    10
 73
     6
 74
     0
 42
0.00000001
 43
0.00000001
 40
0.0
 40
0.0
 40
0.0
 40
0.0
 40
0.2738917284782963
 40
0.8527005156353563
 40
1.0
 40
1.0
 40
1.0
 40
1.0
 10
58.04274533744322
 20
71.98877034080851
 30
0.0
 10
58.06945959945903
 20
71.89190553063939
 30
0.0
 10
58.15262846739914
 20
71.59033865223444
 30
0.0
 10
58.34941152971446
 20
71.26297334892135
 30
0.0
 10
58.54945400330165
 20
71.08670447289097
 30
0.0
 10
58.59003493918423
 20
71.05094628700171
 30
0.0
  0
SPLINE
  5
1AD
330
1F
100
AcDbEntity
  8
0
  6
Continuous
 62
     7
370
    35
100
AcDbSpline
210
0.0
220
0.0
230
1.0
 70
     8
 71
     3
 72
    14
 73
    10
 74
     0
 42
0.00000001
 43
0.00000001
 40
0.0
 40
0.0
 40
0.0
 40
0.0
 40
0.1584484064580595
 40
0.3225191955520443
 40
0.4865899846460252
 40
0.6450383911040761
 40
0.8034867975621365
 40
0.9675575866561236
 40
1.0
 40
1.0
 40
1.0
 40
1.0
 10
59.4853681142291
 20
70.44400435760147
 30
0.0
 10
59.68376505801768
 20
70.38728412209855
 30
0.0
 10
60.08759886197337
 20
70.27183099047765
 30
0.0
 10
60.72822972150472
 20
70.30435950212932
 30
0.0
 10
61.33497610154168
 20
70.4928124597311
 30
0.0
 10
61.86995336079254
 20
70.8301383015676
 30
0.0
 10
62.28742515219765
 20
71.29442728787977
 30
0.0
 10
62.53570527211328
 20
71.69773255170297
 30
0.0
 10
62.58646553647175
 20
71.94753104549525
 30
0.0
 10
62.59484556110792
 20
71.9887703408085
 30
0.0
  0
SPLINE
  5
1AE
330
1F
100
AcDbEntity
  8
0
  6
Continuous
 62
     7
370
    35
100
AcDbSpline
210
0.0
220
0.0
230
1.0
 70
     8
 71
     3
 72
    12
 73
     8
 74
     0
 42
0.00000001
 43
0.00000001
 40
0.0
 40
0.0
 40
0.0
 40
0.0
 40
0.1052235075493194
 40
0.3664589172667166
 40
0.6276943269841153
 40
0.8799777139825706
 40
1.0
 40
1.0
 40
1.0
 40
1.0
 10
62.57497101640294
 20
73.44587712199505
 30
0.0
 10
62.55235415414351
 20
73.52866767398773
 30
0.0
 10
62.47358705115862
 20
73.81699997491326
 30
0.0
 10
62.17662267965678
 20
74.2488842801893
 30
0.0
 10
61.71324030869464
 20
74.67590398602685
 30
0.0
 10
61.25455068359108
 20
74.93753460673491
 30
0.0
 10
60.95620574756585
 20
74.99458010016353
 30
0.0
 10
60.86002660274271
 20
75.01297017859783
 30
0.0
  0
SPLINE
  5
1AF
330
1F
100
AcDbEntity
  8
0
  6
Continuous
 62
     7
370
    35
100
AcDbSpline
210
0.0
220
0.0
230
1.0
 70
     8
 71
     3
 72
    13
 73
     9
 74
     0
 42
0.00000001
 43
0.00000001
 40
0.0
 40
0.0
 40
0.0
 40
0.0
 40
0.0667676316952569
 40
0.2966142075719209
 40
0.5185843942127376
 40
0.7405545808535459
 40
0.970401156730202
 40
1.0
 40
1.0
 40
1.0
 40
1.0
 10
60.09344650460654
 20
75.06800149736314
 30
0.0
 10
60.03157712802007
 20
75.06732953392417
 30
0.0
 10
59.75672334568251
 20
75.06434434637283
 30
0.0
 10
59.29635056195001
 20
74.89079188763193
 30
0.0
 10
58.76061992623432
 20
74.56385339569177
 30
0.0
 10
58.34462041911997
 20
74.09636825209417
 30
0.0
 10
58.10050068185073
 20
73.70770157069957
 30
0.0
 10
58.05129885305823
 20
73.47268858940362
 30
0.0
 10
58.04568566002592
 20
73.44587712199505
 30
0.0
  0
SPLINE
  5
1B0
330
1F
100
AcDbEntity
  8
0
  6
Continuous
 62
     7
370
    35
100
AcDbSpline
210
0.0
220
0.0
230
1.0
 70
     8
 71
     3
 72
    10
 73
     6
 74
     0
 42
0.00000001
 43
0.00000001
 40
0.0
 40
0.0
 40
0.0
 40
0.0
 40
0.2735420308010472
 40
0.7336173053557519
 40
1.0
 40
1.0
 40
1.0
 40
1.0
 10
58.04274533744322
 20
71.9887703408085
 30
0.0
 10
58.06903874367892
 20
71.89153817518329
 30
0.0
 10
58.13955550402747
 20
71.63076947674601
 30
0.0
 10
58.33366160942678
 20
71.30879978544787
 30
0.0
 10
58.52045226479697
 20
71.11796778282053
 30
0.0
 10
58.58894597017504
 20
71.04799216793356
 30
0.0
  0
LINE
  5
1B1
330
1F
100
AcDbEntity
  8
0
  6
Continuous
 62
     7
370
    35
100
AcDbLine
 10
57.7026524742
 20
73.445877122
 30
0.0
 11
57.6191099026
 21
73.4766731967
 31
0.0
  0
LINE
  5
1B2
330
1F
100
AcDbEntity
  8
0
  6
HIDDEN
 62
     7
370
    18
100
AcDbLine
 10
35.8154699471
 20
95.1035479028
 30
0.0
 11
35.8154699471
 21
93.695877122
 31
0.0
  0
ARC
  5
1B3
330
1F
100
AcDbEntity
  8
0
  6
HIDDEN
 62
     7
370
    18
100
AcDbCircle
 10
34.8154699471
 20
98.195877122
 30
0.0
 40
3.250000000000006
100
AcDbArc
 50
257.4335752953
 51
283.3423637971
  0
ARC
  5
1B4
330
1F
100
AcDbEntity
  8
0
  6
HIDDEN
 62
     7
370
    18
100
AcDbCircle
 10
34.8154699471
 20
93.695877122
 30
0.0
 40
1.0
100
AcDbArc
 50
180.0
 51
0.0
  0
LINE
  5
1B5
330
1F
100
AcDbEntity
  8
0
  6
HIDDEN
 62
     7
370
    18
100
AcDbLine
 10
33.8154699471
 20
93.695877122
 30
0.0
 11
33.8154699471
 21
95.1035479028
 31
0.0
  0
ARC
  5
1B6
330
1F
100
AcDbEntity
  8
0
  6
HIDDEN
 62
     7
370
    18
100
AcDbCircle
 10
34.8154699471
 20
102.695877122
 30
0.0
 40
1.0
100
AcDbArc
 50
0.0
 51
180.0
  0
LINE
  5
1B7
330
1F
100
AcDbEntity
  8
0
  6
HIDDEN
 62
     7
370
    18
100
AcDbLine
 10
33.8154699471
 20
101.2882063412
 30
0.0
 11
33.8154699471
 21
102.695877122
 31
0.0
  0
ARC
  5
1B8
330
1F
100
AcDbEntity
  8
0
  6
HIDDEN
 62
     7
370
    18
100
AcDbCircle
 10
34.8154699471
 20
98.195877122
 30
0.0
 40
3.249999999999996
100
AcDbArc
 50
76.6576362029
 51
102.5664247047
  0
LINE
  5
1B9
330
1F
100
AcDbEntity
  8
0
  6
HIDDEN
 62
     7
370
    18
100
AcDbLine
 10
35.8154699471
 20
102.695877122
 30
0.0
 11
35.8154699471
 21
101.2882063412
 31
0.0
  0
LINE
  5
1BA
330
1F
100
AcDbEntity
  8
0
  6
HIDDEN
 62
     7
370
    18
100
AcDbLine
 10
34.8154699471
 20
94.395877122
 30
0.0
 11
34.8154699471
 21
86.995877122
 31
0.0
  0
SPLINE
  5
1BB
330
1F
100
AcDbEntity
  8
0
  6
HIDDEN
 62
     7
370
    18
100
AcDbSpline
210
0.0
220
0.0
230
1.0
 70
    11
 71
     3
 72
    45
 73
    41
 74
     0
 42
0.00000001
 43
0.00000001
 40
0.0
 40
0.0
 40
0.0
 40
0.0
 40
0.026219934367427
 40
0.0524422843527674
 40
0.0786358200946842
 40
0.1048329296677684
 40
0.1315681173205184
 40
0.1583027595075756
 40
0.1854889646800935
 40
0.2126703757582713
 40
0.2392457948183614
 40
0.2658199377758962
 40
0.2916654832258539
 40
0.3175146108050452
 40
0.3436515555262331
 40
0.3697911982772102
 40
0.3967704211845373
 40
0.4237472991059311
 40
0.450838066554457
 40
0.4779246371312655
 40
0.5042396645066526
 40
0.5305551201337053
 40
0.5564260961599963
 40
0.5823007351819117
 40
0.6086768902705793
 40
0.6350547266911806
 40
0.6621650038988852
 40
0.6892716865068174
 40
0.716217184116046
 40
0.7431589842456842
 40
0.7692306597478326
 40
0.7953043870991532
 40
0.8211830273240656
 40
0.8470654726119138
 40
0.8737003880390795
 40
0.9003352962681804
 40
0.9275230859638519
 40
0.9547065250303158
 40
0.9773538615113295
 40
0.9999999999999999
 40
0.9999999999999999
 40
0.9999999999999999
 40
0.9999999999999999
 10
38.81546994712816
 20
90.69587712199505
 30
0.0
 10
38.81816836038743
 20
90.49181193149992
 30
0.0
 10
38.82356543550824
 20
90.08366275017546
 30
0.0
 10
38.86373049504823
 20
89.48911226913732
 30
0.0
 10
38.92392462556335
 20
88.92988520690541
 30
0.0
 10
38.99945806273027
 20
88.41548005910322
 30
0.0
 10
39.08284339204555
 20
87.96201468629219
 30
0.0
 10
39.16558510889222
 20
87.57796930147134
 30
0.0
 10
39.23728950948048
 20
87.28159869222527
 30
0.0
 10
39.28988611056015
 20
87.08149485470904
 30
0.0
 10
39.31526196896082
 20
86.98784288393607
 30
0.0
 10
39.31310664504911
 20
86.99657431211816
 30
0.0
 10
39.28262746816599
 20
87.10784350892904
 30
0.0
 10
39.22997823874282
 20
87.31130757647252
 30
0.0
 10
39.15910913155893
 20
87.60665133766109
 30
0.0
 10
39.07768282805953
 20
87.98741523876257
 30
0.0
 10
38.99410979679715
 20
88.44859057739139
 30
0.0
 10
38.91723208000317
 20
88.97883046559039
 30
0.0
 10
38.85743989404161
 20
89.56183636156567
 30
0.0
 10
38.82044875321493
 20
90.17372518727237
 30
0.0
 10
38.81165447772474
 20
90.79556325221344
 30
0.0
 10
38.82898606540611
 20
91.40506862962606
 30
0.0
 10
38.87183678178851
 20
91.99023967574229
 30
0.0
 10
38.93400351805751
 20
92.5404786119776
 30
0.0
 10
39.01087579607179
 20
93.04246546660796
 30
0.0
 10
39.09467306763622
 20
93.48856861544348
 30
0.0
 10
39.1761605137965
 20
93.8593919133653
 30
0.0
 10
39.2462353402401
 20
94.14462124144848
 30
0.0
 10
39.29466508262806
 20
94.3287974528114
 30
0.0
 10
39.3171752637551
 20
94.40982467842267
 30
0.0
 10
39.30990607275204
 20
94.38447215446608
 30
0.0
 10
39.27705421513677
 20
94.26235458252053
 30
0.0
 10
39.22080132991682
 20
94.0440639644967
 30
0.0
 10
39.14836098353209
 20
93.73773087678441
 30
0.0
 10
39.06614210847221
 20
93.34507930906798
 30
0.0
 10
38.98263303660976
 20
92.87351872790006
 30
0.0
 10
38.90795346454214
 20
92.33455953241555
 30
0.0
 10
38.85364250770586
 20
91.77636233059161
 30
0.0
 10
38.82145065272785
 20
91.22452071873249
 30
0.0
 10
38.81746348050842
 20
90.87208854701593
 30
0.0
 10
38.81546994712817
 20
90.69587712199505
 30
0.0
  0
LINE
  5
1BC
330
1F
100
AcDbEntity
  8
0
  6
HIDDEN
 62
     7
370
    18
100
AcDbLine
 10
49.1154699471
 20
72.695877122
 30
0.0
 11
56.5154699471
 21
72.695877122
 31
0.0
  0
SPLINE
  5
1BD
330
1F
100
AcDbEntity
  8
0
  6
HIDDEN
 62
     7
370
    18
100
AcDbSpline
210
0.0
220
0.0
230
1.0
 70
    11
 71
     3
 72
    45
 73
    41
 74
     0
 42
0.00000001
 43
0.00000001
 40
0.0
 40
0.0
 40
0.0
 40
0.0
 40
0.0262199343674273
 40
0.0524422843527677
 40
0.0786358200946844
 40
0.1048329296677684
 40
0.1315681173205188
 40
0.1583027595075759
 40
0.185488964680094
 40
0.2126703757582717
 40
0.2392457948183619
 40
0.2658199377758967
 40
0.2916654832258544
 40
0.3175146108050457
 40
0.3436515555262336
 40
0.3697911982772106
 40
0.3967704211845378
 40
0.4237472991059316
 40
0.4508380665544572
 40
0.477924637131266
 40
0.5042396645066527
 40
0.5305551201337055
 40
0.5564260961599965
 40
0.5823007351819117
 40
0.6086768902705794
 40
0.635054726691181
 40
0.6621650038988856
 40
0.6892716865068177
 40
0.7162171841160463
 40
0.7431589842456845
 40
0.7692306597478329
 40
0.7953043870991535
 40
0.821183027324066
 40
0.8470654726119141
 40
0.8737003880390798
 40
0.9003352962681805
 40
0.9275230859638522
 40
0.9547065250303163
 40
0.9773538615113299
 40
1.0
 40
1.0
 40
1.0
 40
1.0
 10
52.81546994712816
 20
76.69587712199507
 30
0.0
 10
53.01953513762329
 20
76.69857553525434
 30
0.0
 10
53.42768431894776
 20
76.70397261037515
 30
0.0
 10
54.0222347999859
 20
76.74413766991512
 30
0.0
 10
54.58146186221781
 20
76.80433180043025
 30
0.0
 10
55.09586701001999
 20
76.87986523759716
 30
0.0
 10
55.54933238283103
 20
76.96325056691246
 30
0.0
 10
55.93337776765188
 20
77.04599228375912
 30
0.0
 10
56.22974837689795
 20
77.11769668434737
 30
0.0
 10
56.4298522144142
 20
77.17029328542705
 30
0.0
 10
56.52350418518714
 20
77.19566914382773
 30
0.0
 10
56.51477275700507
 20
77.193513819916
 30
0.0
 10
56.40350356019417
 20
77.16303464303289
 30
0.0
 10
56.20003949265071
 20
77.1103854136097
 30
0.0
 10
55.90469573146211
 20
77.03951630642582
 30
0.0
 10
55.52393183036065
 20
76.95809000292643
 30
0.0
 10
55.06275649173183
 20
76.87451697166405
 30
0.0
 10
54.53251660353282
 20
76.79763925487008
 30
0.0
 10
53.94951070755754
 20
76.73784706890852
 30
0.0
 10
53.33762188185086
 20
76.70085592808184
 30
0.0
 10
52.71578381690979
 20
76.69206165259163
 30
0.0
 10
52.10627843949717
 20
76.70939324027302
 30
0.0
 10
51.52110739338094
 20
76.75224395665542
 30
0.0
 10
50.97086845714561
 20
76.8144106929244
 30
0.0
 10
50.46888160251525
 20
76.89128297093869
 30
0.0
 10
50.02277845367973
 20
76.9750802425031
 30
0.0
 10
49.65195515575791
 20
77.05656768866339
 30
0.0
 10
49.36672582767475
 20
77.12664251510701
 30
0.0
 10
49.18254961631179
 20
77.17507225749496
 30
0.0
 10
49.10152239070055
 20
77.197582438622
 30
0.0
 10
49.12687491465714
 20
77.19031324761893
 30
0.0
 10
49.2489924866027
 20
77.15746139000368
 30
0.0
 10
49.46728310462652
 20
77.10120850478371
 30
0.0
 10
49.77361619233881
 20
77.02876815839899
 30
0.0
 10
50.16626776005522
 20
76.94654928333912
 30
0.0
 10
50.63782834122313
 20
76.86304021147666
 30
0.0
 10
51.17678753670767
 20
76.78836063940904
 30
0.0
 10
51.73498473853159
 20
76.73404968257276
 30
0.0
 10
52.28682635039072
 20
76.70185782759475
 30
0.0
 10
52.63925852210727
 20
76.69787065537531
 30
0.0
 10
52.81546994712816
 20
76.69587712199507
 30
0.0
  0
LINE
  5
1BE
330
1F
100
AcDbEntity
  8
0
  6
HIDDEN
 62
     7
370
    18
100
AcDbLine
 10
50.5674972732
 20
72.695877122
 30
0.0
 11
55.0634426211
 21
72.695877122
 31
0.0
  0
LINE
  5
1BF
330
1F
100
AcDbEntity
  8
0
  6
HIDDEN
 62
     7
370
    18
100
AcDbLine
 10
50.5674972732
 20
65.695877122
 30
0.0
 11
55.0634426211
 21
65.695877122
 31
0.0
  0
LINE
  5
1C0
330
1F
100
AcDbEntity
  8
0
  6
HIDDEN
 62
     7
370
    18
100
AcDbLine
 10
34.8154699471
 20
92.943849796
 30
0.0
 11
34.8154699471
 21
88.447904448
 31
0.0
  0
LINE
  5
1C1
330
1F
100
AcDbEntity
  8
0
  6
HIDDEN
 62
     7
370
    18
100
AcDbLine
 10
27.8154699471
 20
92.943849796
 30
0.0
 11
27.8154699471
 21
88.447904448
 31
0.0
  0
CIRCLE
  5
1C2
330
1F
100
AcDbEntity
  8
0
  6
HIDDEN
 62
     7
370
    18
100
AcDbCircle
 10
34.8154699471
 20
108.695877122
 30
0.0
 40
4.75
  0
CIRCLE
  5
1C3
330
1F
100
AcDbEntity
  8
0
  6
HIDDEN
 62
     7
370
    18
100
AcDbCircle
 10
34.8154699471
 20
98.195877122
 30
0.0
 40
3.25
  0
LINE
  5
1C4
330
1F
100
AcDbEntity
  8
0
  6
HIDDEN
 62
     7
370
    18
100
AcDbLine
 10
39.3105560536
 20
94.395877122
 30
0.0
 11
34.8154699471
 21
94.395877122
 31
0.0
  0
LINE
  5
1C5
330
1F
100
AcDbEntity
  8
0
  6
HIDDEN
 62
     7
370
    18
100
AcDbLine
 10
34.8154699471
 20
86.995877122
 30
0.0
 11
39.3096937525
 21
86.995877122
 31
0.0
  0
LINE
  5
1C6
330
1F
100
AcDbEntity
  8
0
  6
HIDDEN
 62
     7
370
    18
100
AcDbLine
 10
49.1154699471
 20
77.1909632285
 30
0.0
 11
49.1154699471
 21
72.695877122
 31
0.0
  0
LINE
  5
1C7
330
1F
100
AcDbEntity
  8
0
  6
HIDDEN
 62
     7
370
    18
100
AcDbLine
 10
56.5154699471
 20
72.695877122
 30
0.0
 11
56.5154699471
 21
77.1901009274
 31
0.0
  0
LINE
  5
1C8
330
1F
100
AcDbEntity
  8
0
  6
HIDDEN
 62
     7
370
    18
100
AcDbLine
 10
50.5654699471
 20
72.695877122
 30
0.0
 11
50.5654699471
 21
65.695877122
 31
0.0
  0
LINE
  5
1C9
330
1F
100
AcDbEntity
  8
0
  6
HIDDEN
 62
     7
370
    18
100
AcDbLine
 10
55.0654699471
 20
65.695877122
 30
0.0
 11
55.0654699471
 21
72.695877122
 31
0.0
  0
LINE
  5
1CA
330
1F
100
AcDbEntity
  8
0
  6
HIDDEN
 62
     7
370
    18
100
AcDbLine
 10
34.8154699471
 20
92.945877122
 30
0.0
 11
27.8154699471
 21
92.945877122
 31
0.0
  0
LINE
  5
1CB
330
1F
100
AcDbEntity
  8
0
  6
HIDDEN
 62
     7
370
    18
100
AcDbLine
 10
27.8154699471
 20
88.445877122
 30
0.0
 11
34.8154699471
 21
88.445877122
 31
0.0
  0
INSERT
  5
1D7
330
1F
100
AcDbEntity
  8
SLD-0
 62
     7
100
AcDbBlockReference
  2
SW_CENTERMARKSYMBOL_0
 10
42.8154699471
 20
89.695877122
 30
0.0
  0
INSERT
  5
1E3
330
1F
100
AcDbEntity
  8
SLD-0
 62
     7
100
AcDbBlockReference
  2
SW_CENTERMARKSYMBOL_1
 10
51.8154699471
 20
80.695877122
 30
0.0
  0
INSERT
  5
1EF
330
1F
100
AcDbEntity
  8
SLD-0
 62
     7
100
AcDbBlockReference
  2
SW_CENTERMARKSYMBOL_2
 10
66.2154699471
 20
80.695877122
 30
0.0
  0
INSERT
  5
1FB
330
1F
100
AcDbEntity
  8
SLD-0
 62
     7
100
AcDbBlockReference
  2
SW_CENTERMARKSYMBOL_3
 10
42.8154699471
 20
104.095877122
 30
0.0
  0
INSERT
  5
207
330
1F
100
AcDbEntity
  8
SLD-0
 62
     7
100
AcDbBlockReference
  2
SW_CENTERMARKSYMBOL_4
 10
34.8154699471
 20
108.695877122
 30
0.0
  0
INSERT
  5
213
330
1F
100
AcDbEntity
  8
SLD-0
 62
     7
100
AcDbBlockReference
  2
SW_CENTERMARKSYMBOL_5
 10
70.8154699471
 20
72.695877122
 30
0.0
  0
LINE
  5
214
330
1F
100
AcDbEntity
  8
SLD-0
  6
CENTERX2
370
    18
100
AcDbLine
 10
52.8154699471
 20
63.695877122
 30
0.0
 11
52.8154699471
 21
74.695877122
 31
0.0
  0
LINE
  5
215
330
1F
100
AcDbEntity
  8
SLD-0
  6
CENTERX2
370
    18
100
AcDbLine
 10
25.8154699471
 20
90.695877122
 30
0.0
 11
36.8154699471
 21
90.695877122
 31
0.0
  0
LINE
  5
216
330
1F
100
AcDbEntity
  8
0
  6
Continuous
 62
     7
370
    35
100
AcDbLine
 10
117.8482113403
 20
79.195877122
 30
0.0
 11
118.1482113403
 21
79.495877122
 31
0.0
  0
LINE
  5
217
330
1F
100
AcDbEntity
  8
0
  6
Continuous
 62
     7
370
    35
100
AcDbLine
 10
118.1482113403
 20
81.895877122
 30
0.0
 11
117.8482113403
 21
82.195877122
 31
0.0
  0
LINE
  5
218
330
1F
100
AcDbEntity
  8
0
  6
Continuous
 62
     7
370
    35
100
AcDbLine
 10
117.8482113403
 20
82.195877122
 30
0.0
 11
116.1482113403
 21
82.195877122
 31
0.0
  0
LINE
  5
219
330
1F
100
AcDbEntity
  8
0
  6
Continuous
 62
     7
370
    35
100
AcDbLine
 10
116.1482113403
 20
79.195877122
 30
0.0
 11
117.8482113403
 21
79.195877122
 31
0.0
  0
LINE
  5
21A
330
1F
100
AcDbEntity
  8
0
  6
Continuous
 62
     7
370
    35
100
AcDbLine
 10
117.8482113403
 20
88.195877122
 30
0.0
 11
118.1482113403
 21
88.495877122
 31
0.0
  0
LINE
  5
21B
330
1F
100
AcDbEntity
  8
0
  6
Continuous
 62
     7
370
    35
100
AcDbLine
 10
118.1482113403
 20
90.895877122
 30
0.0
 11
117.8482113403
 21
91.195877122
 31
0.0
  0
LINE
  5
21C
330
1F
100
AcDbEntity
  8
0
  6
Continuous
 62
     7
370
    35
100
AcDbLine
 10
117.8482113403
 20
91.195877122
 30
0.0
 11
116.1482113403
 21
91.195877122
 31
0.0
  0
LINE
  5
21D
330
1F
100
AcDbEntity
  8
0
  6
Continuous
 62
     7
370
    35
100
AcDbLine
 10
116.1482113403
 20
88.195877122
 30
0.0
 11
117.8482113403
 21
88.195877122
 31
0.0
  0
LINE
  5
21E
330
1F
100
AcDbEntity
  8
0
  6
Continuous
 62
     7
370
    35
100
AcDbLine
 10
117.8482113403
 20
105.595877122
 30
0.0
 11
116.1482113403
 21
105.595877122
 31
0.0
  0
LINE
  5
21F
330
1F
100
AcDbEntity
  8
0
  6
Continuous
 62
     7
370
    35
100
AcDbLine
 10
116.1482113403
 20
102.595877122
 30
0.0
 11
117.8482113403
 21
102.595877122
 31
0.0
  0
LINE
  5
220
330
1F
100
AcDbEntity
  8
0
  6
Continuous
 62
     7
370
    35
100
AcDbLine
 10
117.8482113403
 20
102.595877122
 30
0.0
 11
118.1482113403
 21
102.895877122
 31
0.0
  0
LINE
  5
221
330
1F
100
AcDbEntity
  8
0
  6
Continuous
 62
     7
370
    35
100
AcDbLine
 10
118.1482113403
 20
105.295877122
 30
0.0
 11
117.8482113403
 21
105.595877122
 31
0.0
  0
SPLINE
  5
222
330
1F
100
AcDbEntity
  8
0
  6
Continuous
 62
     7
370
    35
100
AcDbSpline
210
0.0
220
0.0
230
1.0
 70
     8
 71
     3
 72
    12
 73
     8
 74
     0
 42
0.00000001
 43
0.00000001
 40
0.0
 40
0.0
 40
0.0
 40
0.0
 40
0.2673790932952024
 40
0.5204942147983236
 40
0.7639699152365492
 40
0.8836252170336247
 40
1.0
 40
1.0
 40
1.0
 40
1.0
 10
109.8029896208411
 20
95.73053247433548
 30
0.0
 10
109.8123748963444
 20
95.6985586041903
 30
0.0
 10
109.8306447675729
 20
95.63631658582537
 30
0.0
 10
109.8974275259672
 20
95.52615487727955
 30
0.0
 10
110.00075083414
 20
95.44309068701932
 30
0.0
 10
110.1100242398134
 20
95.40221859755036
 30
0.0
 10
110.1719956529779
 20
95.39797206020383
 30
0.0
 10
110.2025506975366
 20
95.39587830227227
 30
0.0
  0
LINE
  5
223
330
1F
100
AcDbEntity
  8
0
  6
Continuous
 62
     7
370
    35
100
AcDbLine
 10
110.6029896208
 20
95.7305324743
 30
0.0
 11
110.611120757
 21
95.7076855653
 31
0.0
  0
SPLINE
  5
224
330
1F
100
AcDbEntity
  8
0
  6
Continuous
 62
     7
370
    35
100
AcDbSpline
210
0.0
220
0.0
230
1.0
 70
     8
 71
     3
 72
     9
 73
     5
 74
     0
 42
0.00000001
 43
0.00000001
 40
0.0
 40
0.0
 40
0.0
 40
0.0
 40
0.7657997563176793
 40
0.9999999999999999
 40
0.9999999999999999
 40
0.9999999999999999
 40
0.9999999999999999
 10
109.8025506975366
 20
100.9958759417178
 30
0.0
 10
109.7584981600201
 20
100.9932885968631
 30
0.0
 10
109.7009732820697
 20
100.9899099788454
 30
0.0
 10
109.6582233782066
 20
100.966487915228
 30
0.0
 10
109.6482113403045
 20
100.9610024622213
 30
0.0
  0
SPLINE
  5
225
330
1F
100
AcDbEntity
  8
0
  6
Continuous
 62
     7
370
    35
100
AcDbSpline
210
0.0
220
0.0
230
1.0
 70
     8
 71
     3
 72
    17
 73
    13
 74
     0
 42
0.00000001
 43
0.00000001
 40
0.0
 40
0.0
 40
0.0
 40
0.0
 40
0.038750474558977
 40
0.0784693720116072
 40
0.1591898991473322
 40
0.2475722346667664
 40
0.3536225951530653
 40
0.4785848239334373
 40
0.6293513161713437
 40
0.805376984331913
 40
0.9010836410044524
 40
1.0
 40
1.0
 40
1.0
 40
1.0
 10
110.6025506975366
 20
100.9958759417178
 30
0.0
 10
110.5599246811676
 20
100.9917148147112
 30
0.0
 10
110.4736073708921
 20
100.9832885689225
 30
0.0
 10
110.3349762097602
 20
100.9076871163665
 30
0.0
 10
110.2326909968362
 20
100.7723279060511
 30
0.0
 10
110.1953978497674
 20
100.6417367279246
 30
0.0
 10
110.1618650433566
 20
100.4577386115951
 30
0.0
 10
110.1286598236905
 20
100.1576256372988
 30
0.0
 10
110.0913965691609
 20
99.71346783705114
 30
0.0
 10
110.057750172202
 20
99.2134281810274
 30
0.0
 10
110.0298865650577
 20
98.74127271461361
 30
0.0
 10
110.0164749557093
 20
98.48529095579264
 30
0.0
 10
110.0096585596091
 20
98.35518926424845
 30
0.0
  0
SPLINE
  5
226
330
1F
100
AcDbEntity
  8
0
  6
Continuous
 62
     7
370
    35
100
AcDbSpline
210
0.0
220
0.0
230
1.0
 70
     8
 71
     3
 72
    16
 73
    12
 74
     0
 42
0.00000001
 43
0.00000001
 40
0.0
 40
0.0
 40
0.0
 40
0.0
 40
0.0777171303092748
 40
0.160849848367783
 40
0.2677023639778614
 40
0.4023713376023844
 40
0.5719634437753439
 40
0.6695606392006924
 40
0.774472438445042
 40
0.8852522183578432
 40
0.9999999999999999
 40
0.9999999999999999
 40
0.9999999999999999
 40
0.9999999999999999
 10
109.6482113403045
 20
95.48220418254856
 30
0.0
 10
109.6925832484815
 20
95.53027395217019
 30
0.0
 10
109.7844190467625
 20
95.629763152607
 30
0.0
 10
109.8044699630321
 20
95.73887208003177
 30
0.0
 10
109.8390472125984
 20
95.90422604557331
 30
0.0
 10
109.8677944979191
 20
96.18380350377188
 30
0.0
 10
109.8979876074338
 20
96.53791315212385
 30
0.0
 10
109.9245460041316
 20
96.91910626942057
 30
0.0
 10
109.9464591768803
 20
97.26849434383008
 30
0.0
 10
109.968671767942
 20
97.66014976314113
 30
0.0
 10
109.9823938915273
 20
97.93768463046595
 30
0.0
 10
109.9893756689649
 20
98.07889358131125
 30
0.0
  0
SPLINE
  5
227
330
1F
100
AcDbEntity
  8
0
  6
Continuous
 62
     7
370
    35
100
AcDbSpline
210
0.0
220
0.0
230
1.0
 70
     8
 71
     3
 72
    18
 73
    14
 74
     0
 42
0.00000001
 43
0.00000001
 40
0.0
 40
0.0
 40
0.0
 40
0.0
 40
0.0405925483560088
 40
0.080258302602762
 40
0.1541919931198737
 40
0.2304314212588454
 40
0.3284238227534054
 40
0.4519261666797832
 40
0.6074558485363459
 40
0.6969603726391157
 40
0.7931729802166945
 40
0.8947670008039824
 40
1.0
 40
1.0
 40
1.0
 40
1.0
 10
110.2025506975367
 20
95.39587830227227
 30
0.0
 10
110.2486372949934
 20
95.40073688308455
 30
0.0
 10
110.3397582576927
 20
95.41034311538198
 30
0.0
 10
110.4808372839077
 20
95.49274697840096
 30
0.0
 10
110.5785089672102
 20
95.63097380981121
 30
0.0
 10
110.6064981437052
 20
95.73801945174554
 30
0.0
 10
110.6382775911806
 20
95.90454958725736
 30
0.0
 10
110.6680903426306
 20
96.18367913340751
 30
0.0
 10
110.6979405716429
 20
96.53793292553274
 30
0.0
 10
110.7245564132443
 20
96.91910189352642
 30
0.0
 10
110.7464561416948
 20
97.26849561979384
 30
0.0
 10
110.7686725763056
 20
97.66014942331265
 30
0.0
 10
110.7823941641239
 20
97.93768451586887
 30
0.0
 10
110.7893756689649
 20
98.07889358131125
 30
0.0
  0
SPLINE
  5
228
330
1F
100
AcDbEntity
  8
0
  6
Continuous
 62
     7
370
    35
100
AcDbSpline
210
0.0
220
0.0
230
1.0
 70
     8
 71
     3
 72
     9
 73
     5
 74
     0
 42
0.00000001
 43
0.00000001
 40
0.0
 40
0.0
 40
0.0
 40
0.0
 40
0.5011411084980127
 40
1.0
 40
1.0
 40
1.0
 40
1.0
 10
109.9893756689649
 20
98.07889358131125
 30
0.0
 10
109.9935514065509
 20
98.12547863713421
 30
0.0
 10
110.0018838652442
 20
98.21843659854068
 30
0.0
 10
110.0070709408315
 20
98.30967445053793
 30
0.0
 10
110.0096585596091
 20
98.3551892642483
 30
0.0
  0
SPLINE
  5
229
330
1F
100
AcDbEntity
  8
0
  6
Continuous
 62
     7
370
    35
100
AcDbSpline
210
0.0
220
0.0
230
1.0
 70
     8
 71
     3
 72
     9
 73
     5
 74
     0
 42
0.00000001
 43
0.00000001
 40
0.0
 40
0.0
 40
0.0
 40
0.0
 40
0.5011411084980134
 40
1.0
 40
1.0
 40
1.0
 40
1.0
 10
110.7893756689649
 20
98.07889358131125
 30
0.0
 10
110.7935514065509
 20
98.12547863713421
 30
0.0
 10
110.8018838652442
 20
98.21843659854068
 30
0.0
 10
110.8070709408315
 20
98.30967445053793
 30
0.0
 10
110.8096585596091
 20
98.3551892642483
 30
0.0
  0
SPLINE
  5
22A
330
1F
100
AcDbEntity
  8
0
  6
Continuous
 62
     7
370
    35
100
AcDbSpline
210
0.0
220
0.0
230
1.0
 70
     8
 71
     3
 72
    11
 73
     7
 74
     0
 42
0.00000001
 43
0.00000001
 40
0.0
 40
0.0
 40
0.0
 40
0.0
 40
0.188132794160797
 40
0.6067878236765001
 40
0.8083059900472822
 40
1.0
 40
1.0
 40
1.0
 40
1.0
 10
110.1988255862385
 20
100.6449830946446
 30
0.0
 10
110.1919526306126
 20
100.6743484374216
 30
0.0
 10
110.1697851727537
 20
100.7690609648927
 30
0.0
 10
110.0805234752962
 20
100.8941168598092
 30
0.0
 10
109.935865335513
 20
100.9817789588905
 30
0.0
 10
109.8462425204968
 20
100.9912558723292
 30
0.0
 10
109.8025506975366
 20
100.9958759417178
 30
0.0
  0
SPLINE
  5
22B
330
1F
100
AcDbEntity
  8
0
  6
Continuous
 62
     7
370
    35
100
AcDbSpline
210
0.0
220
0.0
230
1.0
 70
     8
 71
     3
 72
    11
 73
     7
 74
     0
 42
0.00000001
 43
0.00000001
 40
0.0
 40
0.0
 40
0.0
 40
0.0
 40
0.3313511494688721
 40
0.6761528636425361
 40
0.8421219893023265
 40
1.0
 40
1.0
 40
1.0
 40
1.0
 10
111.0272078444431
 20
100.5447763653249
 30
0.0
 10
111.0141247603879
 20
100.607604426747
 30
0.0
 10
110.9874275095607
 20
100.7358109343016
 30
0.0
 10
110.8812480217889
 20
100.8941303394781
 30
0.0
 10
110.7357475911367
 20
100.9817767683407
 30
0.0
 10
110.6462039315877
 20
100.9912551544102
 30
0.0
 10
110.6025506975366
 20
100.9958759417178
 30
0.0
  0
LINE
  5
22C
330
1F
100
AcDbEntity
  8
0
  6
Continuous
 62
     7
370
    35
100
AcDbLine
 10
111.2011584497
 20
98.2060076915
 30
0.0
 11
111.1919627614
 21
98.3812744459
 31
0.0
  0
SPLINE
  5
22D
330
1F
100
AcDbEntity
  8
0
  6
Continuous
 62
     7
370
    35
100
AcDbSpline
210
0.0
220
0.0
230
1.0
 70
     8
 71
     3
 72
    13
 73
     9
 74
     0
 42
0.00000001
 43
0.00000001
 40
0.0
 40
0.0
 40
0.0
 40
0.0
 40
0.2168695261771703
 40
0.4534517534499331
 40
0.6853278278809696
 40
0.8664315207779106
 40
0.9969670881174564
 40
1.0
 40
1.0
 40
1.0
 40
1.0
 10
99.64821134030454
 20
97.85979395242529
 30
0.0
 10
99.57086859003799
 20
97.86322381974422
 30
0.0
 10
99.40915289699797
 20
97.87039531763646
 30
0.0
 10
99.21696172065089
 20
97.88294939770633
 30
0.0
 10
99.07496053322217
 20
97.89624446330555
 30
0.0
 10
99.00553613343469
 20
97.90466140771629
 30
0.0
 10
98.97682274377095
 20
97.91158617953984
 30
0.0
 10
98.98313818818633
 20
97.90971449182405
 30
0.0
 10
98.98328159167885
 20
97.9096719917975
 30
0.0
  0
SPLINE
  5
22E
330
1F
100
AcDbEntity
  8
0
  6
Continuous
 62
     7
370
    35
100
AcDbSpline
210
0.0
220
0.0
230
1.0
 70
     8
 71
     3
 72
    27
 73
    23
 74
     0
 42
0.00000001
 43
0.00000001
 40
0.0
 40
0.0
 40
0.0
 40
0.0
 40
0.0378081968858537
 40
0.1285102618370592
 40
0.2239915843799936
 40
0.278560826733585
 40
0.3144617566119714
 40
0.3430049671536338
 40
0.3749253546535459
 40
0.4096949472916686
 40
0.4457799943803959
 40
0.479922263301888
 40
0.5086790357871773
 40
0.5349325259519302
 40
0.5606501695290459
 40
0.5904760356675843
 40
0.6306709433326227
 40
0.6988716558810278
 40
0.7889758563171817
 40
0.8752284803830042
 40
0.9661572859510902
 40
1.0
 40
1.0
 40
1.0
 40
1.0
 10
99.24821134030454
 20
98.00364919634812
 30
0.0
 10
99.21606430858006
 20
98.00164428018073
 30
0.0
 10
99.10679637716646
 20
97.99482955948908
 30
0.0
 10
98.96446673657351
 20
97.98073558637964
 30
0.0
 10
98.8419420527391
 20
97.96328043861874
 30
0.0
 10
98.7509799342113
 20
97.94179624789565
 30
0.0
 10
98.66217277899382
 20
97.90594318063825
 30
0.0
 10
98.57198898311215
 20
97.84276653036225
 30
0.0
 10
98.49391548737267
 20
97.74749847701202
 30
0.0
 10
98.44488664848122
 20
97.61831864475538
 30
0.0
 10
98.44322088488872
 20
97.47569188709512
 30
0.0
 10
98.48723950743124
 20
97.349993562345
 30
0.0
 10
98.55645314415473
 20
97.25735575115917
 30
0.0
 10
98.63121034559919
 20
97.1972709456753
 30
0.0
 10
98.70049245009724
 20
97.16137311101602
 30
0.0
 10
98.76205426578339
 20
97.13989159577562
 30
0.0
 10
98.83175604300506
 20
97.12301278914924
 30
0.0
 10
98.92878610298239
 20
97.10744510060877
 30
0.0
 10
99.07663538968696
 20
97.09160985837809
 30
0.0
 10
99.2842906095496
 20
97.07659028056027
 30
0.0
 10
99.47535265321883
 20
97.0658263953133
 30
0.0
 10
99.61132935952193
 20
97.06078720196025
 30
0.0
 10
99.64821134030453
 20
97.05942038379365
 30
0.0
  0
LINE
  5
22F
330
1F
100
AcDbEntity
  8
0
  6
Continuous
 62
     7
370
    35
100
AcDbLine
 10
110.0096585596
 20
98.3551892642
 30
0.0
 11
110.0081965659
 21
98.3170572293
 31
0.0
  0
LINE
  5
230
330
1F
100
AcDbEntity
  8
0
  6
Continuous
 62
     7
370
    35
100
AcDbLine
 10
110.0096585596
 20
98.3551892642
 30
0.0
 11
110.0160279223
 21
98.4772040398
 31
0.0
  0
LINE
  5
231
330
1F
100
AcDbEntity
  8
0
  6
Continuous
 62
     7
370
    35
100
AcDbLine
 10
110.8096585596
 20
98.3551892642
 30
0.0
 11
110.8160279223
 21
98.4772040398
 31
0.0
  0
LINE
  5
232
330
1F
100
AcDbEntity
  8
0
  6
Continuous
 62
     7
370
    35
100
AcDbLine
 10
111.2057482391
 20
98.1080256615
 30
0.0
 11
111.2011584497
 21
98.2060076915
 31
0.0
  0
SPLINE
  5
233
330
1F
100
AcDbEntity
  8
0
  6
Continuous
 62
     7
370
    35
100
AcDbSpline
210
0.0
220
0.0
230
1.0
 70
     8
 71
     3
 72
    13
 73
     9
 74
     0
 42
0.00000001
 43
0.00000001
 40
0.0
 40
0.0
 40
0.0
 40
0.0
 40
0.0504897941710306
 40
0.2399483406239443
 40
0.4449437728080387
 40
0.6571555840948741
 40
0.8565219111386612
 40
1.0
 40
1.0
 40
1.0
 40
1.0
 10
111.3188011204321
 20
96.16902638900056
 30
0.0
 10
111.3181153217832
 20
96.18108962647261
 30
0.0
 10
111.3148561235526
 20
96.23841910981662
 30
0.0
 10
111.3007957085929
 20
96.4535581556374
 30
0.0
 10
111.275626010527
 20
96.81460718916892
 30
0.0
 10
111.2459254173045
 20
97.26826111737412
 30
0.0
 10
111.2244672961231
 20
97.7054459715577
 30
0.0
 10
111.2112708593649
 20
97.98925393295694
 30
0.0
 10
111.20574823908
 20
98.10802566151989
 30
0.0
  0
LINE
  5
234
330
1F
100
AcDbEntity
  8
0
  6
Continuous
 62
     7
370
    35
100
AcDbLine
 10
112.1482113403
 20
96.1678176242
 30
0.0
 11
111.4461215603
 21
96.1678176242
 31
0.0
  0
LINE
  5
235
330
1F
100
AcDbEntity
  8
0
  6
Continuous
 62
     7
370
    35
100
AcDbLine
 10
111.4461215603
 20
95.3678176242
 30
0.0
 11
112.1482113403
 21
95.3678176242
 31
0.0
  0
SPLINE
  5
236
330
1F
100
AcDbEntity
  8
0
  6
Continuous
 62
     7
370
    35
100
AcDbSpline
210
0.0
220
0.0
230
1.0
 70
     8
 71
     3
 72
    18
 73
    14
 74
     0
 42
0.00000001
 43
0.00000001
 40
0.0
 40
0.0
 40
0.0
 40
0.0
 40
0.0628800865723362
 40
0.1651566713375929
 40
0.2513054944969169
 40
0.3250587617440465
 40
0.3866075456600397
 40
0.4353880214502406
 40
0.4857494898715244
 40
0.5843362103905988
 40
0.728275483069383
 40
0.8809285733395616
 40
1.0
 40
1.0
 40
1.0
 40
1.0
 10
110.609300462234
 20
95.71756637364452
 30
0.0
 10
110.6123886233521
 20
95.69338770869179
 30
0.0
 10
110.6204997828402
 20
95.62988162848966
 30
0.0
 10
110.6736229225496
 20
95.54541602403295
 30
0.0
 10
110.7440361261747
 20
95.47318901680127
 30
0.0
 10
110.8161714752189
 20
95.42819328155656
 30
0.0
 10
110.8796979214828
 20
95.4034945664972
 30
0.0
 10
110.9291410529199
 20
95.39153576687549
 30
0.0
 10
110.977075546313
 20
95.38390021418844
 30
0.0
 10
111.0399130274526
 20
95.37793857688024
 30
0.0
 10
111.1485227510034
 20
95.37219351021515
 30
0.0
 10
111.295096536282
 20
95.3684392886577
 30
0.0
 10
111.4001058189278
 20
95.3680070388746
 30
0.0
 10
111.4461215603061
 20
95.3678176242464
 30
0.0
  0
SPLINE
  5
237
330
1F
100
AcDbEntity
  8
0
  6
Continuous
 62
     7
370
    35
100
AcDbSpline
210
0.0
220
0.0
230
1.0
 70
     8
 71
     3
 72
    13
 73
     9
 74
     0
 42
0.00000001
 43
0.00000001
 40
0.0
 40
0.0
 40
0.0
 40
0.0
 40
0.1519396063976587
 40
0.4438214713945682
 40
0.6986464488823505
 40
0.8821859999703644
 40
0.9881041267710554
 40
1.0
 40
1.0
 40
1.0
 40
1.0
 10
111.4461215603061
 20
96.16781762424641
 30
0.0
 10
111.4199366019209
 20
96.16788665165765
 30
0.0
 10
111.3434493249398
 20
96.16808828339774
 30
0.0
 10
111.2289315651969
 20
96.17016024338255
 30
0.0
 10
111.1325294799937
 20
96.17404444297618
 30
0.0
 10
111.0881271949191
 20
96.17692940021915
 30
0.0
 10
111.0730172243042
 20
96.1787575594522
 30
0.0
 10
111.0753081113349
 20
96.17841400969971
 30
0.0
 10
111.0755394259638
 20
96.1783793209165
 30
0.0
  0
LINE
  5
238
330
1F
100
AcDbEntity
  8
0
  6
Continuous
 62
     7
370
    35
100
AcDbLine
 10
111.4461215603
 20
100.2239366197
 30
0.0
 11
112.1482113403
 21
100.2239366197
 31
0.0
  0
LINE
  5
239
330
1F
100
AcDbEntity
  8
0
  6
Continuous
 62
     7
370
    35
100
AcDbLine
 10
112.1482113403
 20
101.0239366197
 30
0.0
 11
111.4461215603
 21
101.0239366197
 31
0.0
  0
SPLINE
  5
23A
330
1F
100
AcDbEntity
  8
0
  6
Continuous
 62
     7
370
    35
100
AcDbSpline
210
0.0
220
0.0
230
1.0
 70
     8
 71
     3
 72
    14
 73
    10
 74
     0
 42
0.00000001
 43
0.00000001
 40
0.0
 40
0.0
 40
0.0
 40
0.0
 40
0.0689615981888857
 40
0.140005068468861
 40
0.2861539229102659
 40
0.4429524822281797
 40
0.6196795114083683
 40
0.9960615474443499
 40
1.0
 40
1.0
 40
1.0
 40
1.0
 10
110.434042176672
 20
69.89609068842582
 30
0.0
 10
110.4642611158124
 20
69.89830963070871
 30
0.0
 10
110.5256112694417
 20
69.90281450261429
 30
0.0
 10
110.6343659320358
 20
69.94347424523991
 30
0.0
 10
110.7377668729354
 20
70.02600233971756
 30
0.0
 10
110.8035325525962
 20
70.13360095999926
 30
0.0
 10
110.8437221264325
 20
70.26082610681678
 30
0.0
 10
110.8648242747599
 20
70.35908648800657
 30
0.0
 10
110.8766507054326
 20
70.47055531683536
 30
0.0
 10
110.8767731753955
 20
70.47170964511096
 30
0.0
  0
SPLINE
  5
23B
330
1F
100
AcDbEntity
  8
0
  6
Continuous
 62
     7
370
    35
100
AcDbSpline
210
0.0
220
0.0
230
1.0
 70
     8
 71
     3
 72
    12
 73
     8
 74
     0
 42
0.00000001
 43
0.00000001
 40
0.0
 40
0.0
 40
0.0
 40
0.0
 40
0.2024998732224071
 40
0.4774142730566592
 40
0.742324480673512
 40
0.8728343336352643
 40
0.9999999999999999
 40
0.9999999999999999
 40
0.9999999999999999
 40
0.9999999999999999
 10
110.420688514031
 20
75.19369539569799
 30
0.0
 10
110.4138300458347
 20
75.21581545403485
 30
0.0
 10
110.3976605018439
 20
75.2679657660465
 30
0.0
 10
110.336359969105
 20
75.36655385779456
 30
0.0
 10
110.233504241349
 20
75.44893948047527
 30
0.0
 10
110.1245060649423
 20
75.48957426029858
 30
0.0
 10
110.0627806279566
 20
75.49379389185498
 30
0.0
 10
110.0323184546526
 20
75.49587632584051
 30
0.0
  0
SPLINE
  5
23C
330
1F
100
AcDbEntity
  8
0
  6
Continuous
 62
     7
370
    35
100
AcDbSpline
210
0.0
220
0.0
230
1.0
 70
     8
 71
     3
 72
    14
 73
    10
 74
     0
 42
0.00000001
 43
0.00000001
 40
0.0
 40
0.0
 40
0.0
 40
0.0
 40
0.2383189320946179
 40
0.5152513417877139
 40
0.6471034768582784
 40
0.7687540354044139
 40
0.8859777048105619
 40
0.9437287593866112
 40
1.0
 40
1.0
 40
1.0
 40
1.0
 10
111.3066295769261
 20
74.63868009091082
 30
0.0
 10
111.2970116434472
 20
74.73727472816115
 30
0.0
 10
111.2762174367651
 20
74.95043873779231
 30
0.0
 10
111.2447847802783
 20
75.12797479703258
 30
0.0
 10
111.2038185031259
 20
75.25562467220563
 30
0.0
 10
111.1367982000794
 20
75.366467998462
 30
0.0
 10
111.0334519507557
 20
75.44894972538195
 30
0.0
 10
110.9245149326244
 20
75.48957252291964
 30
0.0
 10
110.8627835581646
 20
75.49379331776116
 30
0.0
 10
110.8323184546526
 20
75.49587632584051
 30
0.0
  0
SPLINE
  5
23D
330
1F
100
AcDbEntity
  8
0
  6
Continuous
 62
     7
370
    35
100
AcDbSpline
210
0.0
220
0.0
230
1.0
 70
     8
 71
     3
 72
    10
 73
     6
 74
     0
 42
0.00000001
 43
0.00000001
 40
0.0
 40
0.0
 40
0.0
 40
0.0
 40
0.0580294306845938
 40
0.5274729706569351
 40
1.0
 40
1.0
 40
1.0
 40
1.0
 10
110.153958103701
 20
70.03802060209425
 30
0.0
 10
110.1583656113796
 20
70.03145311095888
 30
0.0
 10
110.1984287507381
 20
69.97175626371987
 30
0.0
 10
110.300739762034
 20
69.91358895606484
 30
0.0
 10
110.3895111756629
 20
69.90193615923747
 30
0.0
 10
110.434042176672
 20
69.89609068842582
 30
0.0
  0
LINE
  5
23E
330
1F
100
AcDbEntity
  8
0
  6
Continuous
 62
     7
370
    35
100
AcDbLine
 10
110.0323184547
 20
75.4958763258
 30
0.0
 11
109.9425857513
 21
75.4805570534
 31
0.0
  0
SPLINE
  5
23F
330
1F
100
AcDbEntity
  8
0
  6
Continuous
 62
     7
370
    35
100
AcDbSpline
210
0.0
220
0.0
230
1.0
 70
     8
 71
     3
 72
    11
 73
     7
 74
     0
 42
0.00000001
 43
0.00000001
 40
0.0
 40
0.0
 40
0.0
 40
0.0
 40
0.1866009152863052
 40
0.3696468881887347
 40
0.7128238534380748
 40
1.0
 40
1.0
 40
1.0
 40
1.0
 10
110.8323184546526
 20
75.49587632584051
 30
0.0
 10
110.7867074692478
 20
75.49111916327844
 30
0.0
 10
110.6963544353614
 20
75.48169546707108
 30
0.0
 10
110.5562643979139
 20
75.40057456793966
 30
0.0
 10
110.4637804317998
 20
75.27379110481199
 30
0.0
 10
110.4475571540543
 20
75.21073561700977
 30
0.0
 10
110.4401661563734
 20
75.18200881029253
 30
0.0
  0
LINE
  5
240
330
1F
100
AcDbEntity
  8
0
  6
Continuous
 62
     7
370
    35
100
AcDbLine
 10
109.6482113403
 20
105.7345725441
 30
0.0
 11
111.0837189702
 21
106.595877122
 31
0.0
  0
LINE
  5
241
330
1F
100
AcDbEntity
  8
0
  6
Continuous
 62
     7
370
    35
100
AcDbLine
 10
111.0837189702
 20
110.795877122
 30
0.0
 11
109.6482113403
 21
111.6571816999
 31
0.0
  0
LINE
  5
242
330
1F
100
AcDbEntity
  8
0
  6
Continuous
 62
     7
370
    35
100
AcDbLine
 10
99.6482113403
 20
111.695877122
 30
0.0
 11
93.9837189702
 21
111.695877122
 31
0.0
  0
LINE
  5
243
330
1F
100
AcDbEntity
  8
0
  6
Continuous
 62
     7
370
    35
100
AcDbLine
 10
93.9837189702
 20
105.695877122
 30
0.0
 11
99.6482113403
 21
105.695877122
 31
0.0
  0
LINE
  5
244
330
1F
100
AcDbEntity
  8
0
  6
Continuous
 62
     7
370
    35
100
AcDbLine
 10
109.6482113403
 20
69.7345725441
 30
0.0
 11
111.0837189702
 21
70.595877122
 31
0.0
  0
LINE
  5
245
330
1F
100
AcDbEntity
  8
0
  6
Continuous
 62
     7
370
    35
100
AcDbLine
 10
111.0837189702
 20
74.795877122
 30
0.0
 11
109.6482113403
 21
75.6571816999
 31
0.0
  0
LINE
  5
246
330
1F
100
AcDbEntity
  8
0
  6
Continuous
 62
     7
370
    35
100
AcDbLine
 10
99.6482113403
 20
75.695877122
 30
0.0
 11
93.9837189702
 21
75.695877122
 31
0.0
  0
LINE
  5
247
330
1F
100
AcDbEntity
  8
0
  6
Continuous
 62
     7
370
    35
100
AcDbLine
 10
93.9837189702
 20
69.695877122
 30
0.0
 11
99.6482113403
 21
69.695877122
 31
0.0
  0
LINE
  5
248
330
1F
100
AcDbEntity
  8
0
  6
Continuous
 62
     7
370
    35
100
AcDbLine
 10
99.2482113403
 20
103.2229988627
 30
0.0
 11
99.2482113403
 21
97.8816705197
 31
0.0
  0
LINE
  5
249
330
1F
100
AcDbEntity
  8
0
  6
Continuous
 62
     7
370
    35
100
AcDbLine
 10
99.2482113403
 20
97.0798608303
 30
0.0
 11
99.2482113403
 21
93.2229988627
 31
0.0
  0
LINE
  5
24A
330
1F
100
AcDbEntity
  8
0
  6
Continuous
 62
     7
370
    35
100
AcDbLine
 10
109.6482113403
 20
115.695877122
 30
0.0
 11
99.6482113403
 21
115.695877122
 31
0.0
  0
ARC
  5
24B
330
1F
100
AcDbEntity
  8
0
  6
Continuous
 62
     7
370
    35
100
AcDbCircle
 10
110.6482113403
 20
72.695877122
 30
0.0
 40
3.999999999999996
100
AcDbArc
 50
274.447851838
 51
292.024312837
  0
ARC
  5
24C
330
1F
100
AcDbEntity
  8
0
  6
Continuous
 62
     7
370
    35
100
AcDbCircle
 10
110.6482113403
 20
72.695877122
 30
0.0
 40
4.000000000000021
100
AcDbArc
 50
67.975687163
 51
104.4775121859
  0
ARC
  5
24D
330
1F
100
AcDbEntity
  8
0
  6
Continuous
 62
     7
370
    35
100
AcDbCircle
 10
110.6482113403
 20
72.695877122
 30
0.0
 40
4.000000000000003
100
AcDbArc
 50
255.5224878141
 51
274.447851838
  0
ARC
  5
24E
330
1F
100
AcDbEntity
  8
0
  6
Continuous
 62
     7
370
    35
100
AcDbCircle
 10
110.9841340466
 20
108.695877122
 30
0.0
 40
2.000000000000003
100
AcDbArc
 50
272.8540780892
 51
305.5940583123
  0
ARC
  5
24F
330
1F
100
AcDbEntity
  8
0
  6
Continuous
 62
     7
370
    35
100
AcDbCircle
 10
110.9841340466
 20
108.695877122
 30
0.0
 40
2.000000000000002
100
AcDbArc
 50
54.4059416877
 51
87.1459219108
  0
ARC
  5
250
330
1F
100
AcDbEntity
  8
0
  6
Continuous
 62
     7
370
    35
100
AcDbCircle
 10
110.9841340466
 20
72.695877122
 30
0.0
 40
2.000000000000002
100
AcDbArc
 50
272.8540780892
 51
305.5940583123
  0
ARC
  5
251
330
1F
100
AcDbEntity
  8
0
  6
Continuous
 62
     7
370
    35
100
AcDbCircle
 10
110.9841340466
 20
72.695877122
 30
0.0
 40
2.000000000000002
100
AcDbArc
 50
54.4059416877
 51
87.1459219108
  0
LINE
  5
252
330
1F
100
AcDbEntity
  8
0
  6
Continuous
 62
     7
370
    35
100
AcDbLine
 10
118.1482113403
 20
81.895877122
 30
0.0
 11
118.1482113403
 21
79.495877122
 31
0.0
  0
LINE
  5
253
330
1F
100
AcDbEntity
  8
0
  6
Continuous
 62
     7
370
    35
100
AcDbLine
 10
117.8482113403
 20
79.195877122
 30
0.0
 11
117.8482113403
 21
82.195877122
 31
0.0
  0
LINE
  5
254
330
1F
100
AcDbEntity
  8
0
  6
Continuous
 62
     7
370
    35
100
AcDbLine
 10
118.1482113403
 20
90.895877122
 30
0.0
 11
118.1482113403
 21
88.495877122
 31
0.0
  0
LINE
  5
255
330
1F
100
AcDbEntity
  8
0
  6
Continuous
 62
     7
370
    35
100
AcDbLine
 10
117.8482113403
 20
88.195877122
 30
0.0
 11
117.8482113403
 21
91.195877122
 31
0.0
  0
LINE
  5
256
330
1F
100
AcDbEntity
  8
0
  6
Continuous
 62
     7
370
    35
100
AcDbLine
 10
117.8482113403
 20
102.595877122
 30
0.0
 11
117.8482113403
 21
105.595877122
 31
0.0
  0
LINE
  5
257
330
1F
100
AcDbEntity
  8
0
  6
Continuous
 62
     7
370
    35
100
AcDbLine
 10
118.1482113403
 20
105.295877122
 30
0.0
 11
118.1482113403
 21
102.895877122
 31
0.0
  0
LINE
  5
258
330
1F
100
AcDbEntity
  8
0
  6
Continuous
 62
     7
370
    35
100
AcDbLine
 10
110.0068642019
 20
98.2911598962
 30
0.0
 11
110.0188835956
 21
98.5247824208
 31
0.0
  0
SPLINE
  5
259
330
1F
100
AcDbEntity
  8
0
  6
Continuous
 62
     7
370
    35
100
AcDbSpline
210
0.0
220
0.0
230
1.0
 70
     8
 71
     3
 72
    14
 73
    10
 74
     0
 42
0.00000001
 43
0.00000001
 40
0.0
 40
0.0
 40
0.0
 40
0.0
 40
0.0376220837306057
 40
0.2138191913261993
 40
0.3900162989217958
 40
0.5724655839951682
 40
0.7549148690685399
 40
0.9311119766641364
 40
1.0
 40
1.0
 40
1.0
 40
1.0
 10
109.8239810437364
 20
95.84195240031423
 30
0.0
 10
109.8264087040874
 20
95.84482009059992
 30
0.0
 10
109.8402059295885
 20
95.86111815697639
 30
0.0
 10
109.8626706981132
 20
96.04804723040432
 30
0.0
 10
109.8941909641823
 20
96.39505214398271
 30
0.0
 10
109.9294288645116
 20
96.88425987889975
 30
0.0
 10
109.9648211557117
 20
97.46034186023115
 30
0.0
 10
109.9896597038157
 20
97.95787294539745
 30
0.0
 10
110.0043386289925
 20
98.24231555028445
 30
0.0
 10
110.0084645510192
 20
98.32226609126054
 30
0.0
  0
SPLINE
  5
25A
330
1F
100
AcDbEntity
  8
0
  6
Continuous
 62
     7
370
    35
100
AcDbSpline
210
0.0
220
0.0
230
1.0
 70
     8
 71
     3
 72
    14
 73
    10
 74
     0
 42
0.00000001
 43
0.00000001
 40
0.0
 40
0.0
 40
0.0
 40
0.0
 40
0.1237728001067833
 40
0.2606777055970423
 40
0.4001539177593836
 40
0.5795709885194955
 40
0.7589880592796052
 40
0.9322568605713805
 40
1.0
 40
1.0
 40
1.0
 40
1.0
 10
110.6208790506419
 20
95.82515521080518
 30
0.0
 10
110.6288903204106
 20
95.85101288362216
 30
0.0
 10
110.645762843456
 20
95.90547168891858
 30
0.0
 10
110.6685214832022
 20
96.10971197425518
 30
0.0
 10
110.6965419892622
 20
96.4276756033001
 30
0.0
 10
110.7293952956559
 20
96.88379853577143
 30
0.0
 10
110.7648300307583
 20
97.46046383167416
 30
0.0
 10
110.7896589746738
 20
97.9578629246611
 30
0.0
 10
110.8043384690134
 20
98.24231335166105
 30
0.0
 10
110.8084645510192
 20
98.32226609126056
 30
0.0
  0
SPLINE
  5
25B
330
1F
100
AcDbEntity
  8
0
  6
Continuous
 62
     7
370
    35
100
AcDbSpline
210
0.0
220
0.0
230
1.0
 70
     8
 71
     3
 72
     9
 73
     5
 74
     0
 42
0.00000001
 43
0.00000001
 40
0.0
 40
0.0
 40
0.0
 40
0.0
 40
0.2655144389870765
 40
1.0
 40
1.0
 40
1.0
 40
1.0
 10
111.1923770808534
 20
98.38129634070404
 30
0.0
 10
111.1936252406731
 20
98.3573702624397
 30
0.0
 10
111.1983261519472
 20
98.26725810750143
 30
0.0
 10
111.2030270632214
 20
98.1754773633785
 30
0.0
 10
111.2064798146759
 20
98.10806573204118
 30
0.0
  0
ARC
  5
25C
330
1F
100
AcDbEntity
  8
0
  6
Continuous
 62
     7
370
    35
100
AcDbCircle
 10
110.9960203659
 20
95.7980690671
 30
0.0
 40
0.4000467427692298
100
AcDbArc
 50
89.9855066551
 51
150.5799125441
  0
LWPOLYLINE
  5
25D
330
1F
100
AcDbEntity
  8
0
  6
Continuous
 62
     7
370
    35
100
AcDbPolyline
 90
        3
 70
   128
 43
0.0
 10
110.9961215603
 20
96.198115797
 10
111.0741576891
 20
96.1904385123
 10
111.1421459175
 20
96.1705401555
  0
LINE
  5
25E
330
1F
100
AcDbEntity
  8
0
  6
Continuous
 62
     7
370
    35
100
AcDbLine
 10
111.4461215603
 20
100.2239366197
 30
0.0
 11
111.4461215603
 21
101.0239366197
 31
0.0
  0
LINE
  5
25F
330
1F
100
AcDbEntity
  8
0
  6
Continuous
 62
     7
370
    35
100
AcDbLine
 10
111.0837189702
 20
108.695877122
 30
0.0
 11
111.0837189702
 21
106.595877122
 31
0.0
  0
LINE
  5
260
330
1F
100
AcDbEntity
  8
0
  6
Continuous
 62
     7
370
    35
100
AcDbLine
 10
111.0837189702
 20
110.795877122
 30
0.0
 11
111.0837189702
 21
108.695877122
 31
0.0
  0
LINE
  5
261
330
1F
100
AcDbEntity
  8
0
  6
Continuous
 62
     7
370
    35
100
AcDbLine
 10
93.9837189702
 20
108.695877122
 30
0.0
 11
93.9837189702
 21
105.695877122
 31
0.0
  0
LINE
  5
262
330
1F
100
AcDbEntity
  8
0
  6
Continuous
 62
     7
370
    35
100
AcDbLine
 10
93.9837189702
 20
111.695877122
 30
0.0
 11
93.9837189702
 21
108.695877122
 31
0.0
  0
LINE
  5
263
330
1F
100
AcDbEntity
  8
0
  6
Continuous
 62
     7
370
    35
100
AcDbLine
 10
111.0837189702
 20
74.795877122
 30
0.0
 11
111.0837189702
 21
70.595877122
 31
0.0
  0
LINE
  5
264
330
1F
100
AcDbEntity
  8
0
  6
Continuous
 62
     7
370
    35
100
AcDbLine
 10
93.9837189702
 20
75.695877122
 30
0.0
 11
93.9837189702
 21
69.695877122
 31
0.0
  0
LINE
  5
265
330
1F
100
AcDbEntity
  8
0
  6
Continuous
 62
     7
370
    35
100
AcDbLine
 10
99.6482113403
 20
103.2229988627
 30
0.0
 11
99.2482113403
 21
103.2229988627
 31
0.0
  0
LINE
  5
266
330
1F
100
AcDbEntity
  8
0
  6
Continuous
 62
     7
370
    35
100
AcDbLine
 10
99.6482113403
 20
93.2229988627
 30
0.0
 11
99.2482113403
 21
93.2229988627
 31
0.0
  0
LINE
  5
267
330
1F
100
AcDbEntity
  8
0
  6
Continuous
 62
     7
370
    35
100
AcDbLine
 10
112.1482113403
 20
66.695877122
 30
0.0
 11
120.1482113403
 21
66.695877122
 31
0.0
  0
LINE
  5
268
330
1F
100
AcDbEntity
  8
0
  6
Continuous
 62
     7
370
    35
100
AcDbLine
 10
112.1482113403
 20
66.695877122
 30
0.0
 11
112.1482113403
 21
72.695877122
 31
0.0
  0
LINE
  5
269
330
1F
100
AcDbEntity
  8
0
  6
Continuous
 62
     7
370
    35
100
AcDbLine
 10
112.1482113403
 20
72.695877122
 30
0.0
 11
120.1482113403
 21
72.695877122
 31
0.0
  0
LINE
  5
26A
330
1F
100
AcDbEntity
  8
0
  6
Continuous
 62
     7
370
    35
100
AcDbLine
 10
120.1482113403
 20
66.695877122
 30
0.0
 11
120.1482113403
 21
72.695877122
 31
0.0
  0
LINE
  5
26B
330
1F
100
AcDbEntity
  8
0
  6
Continuous
 62
     7
370
    35
100
AcDbLine
 10
112.1482113403
 20
76.695877122
 30
0.0
 11
120.1482113403
 21
76.695877122
 31
0.0
  0
LINE
  5
26C
330
1F
100
AcDbEntity
  8
0
  6
Continuous
 62
     7
370
    35
100
AcDbLine
 10
112.1482113403
 20
72.695877122
 30
0.0
 11
112.1482113403
 21
76.695877122
 31
0.0
  0
LINE
  5
26D
330
1F
100
AcDbEntity
  8
0
  6
Continuous
 62
     7
370
    35
100
AcDbLine
 10
120.1482113403
 20
72.695877122
 30
0.0
 11
120.1482113403
 21
76.695877122
 31
0.0
  0
LINE
  5
26E
330
1F
100
AcDbEntity
  8
0
  6
Continuous
 62
     7
370
    35
100
AcDbLine
 10
112.1482113403
 20
78.695877122
 30
0.0
 11
120.1482113403
 21
78.695877122
 31
0.0
  0
LINE
  5
26F
330
1F
100
AcDbEntity
  8
0
  6
Continuous
 62
     7
370
    35
100
AcDbLine
 10
112.1482113403
 20
76.695877122
 30
0.0
 11
112.1482113403
 21
78.695877122
 31
0.0
  0
LINE
  5
270
330
1F
100
AcDbEntity
  8
0
  6
Continuous
 62
     7
370
    35
100
AcDbLine
 10
120.1482113403
 20
76.695877122
 30
0.0
 11
120.1482113403
 21
78.695877122
 31
0.0
  0
LINE
  5
271
330
1F
100
AcDbEntity
  8
0
  6
Continuous
 62
     7
370
    35
100
AcDbLine
 10
119.1482113403
 20
80.695877122
 30
0.0
 11
120.1482113403
 21
80.695877122
 31
0.0
  0
LINE
  5
272
330
1F
100
AcDbEntity
  8
0
  6
Continuous
 62
     7
370
    35
100
AcDbLine
 10
119.1482113403
 20
78.695877122
 30
0.0
 11
119.1482113403
 21
80.695877122
 31
0.0
  0
LINE
  5
273
330
1F
100
AcDbEntity
  8
0
  6
Continuous
 62
     7
370
    35
100
AcDbLine
 10
120.1482113403
 20
80.695877122
 30
0.0
 11
120.1482113403
 21
78.695877122
 31
0.0
  0
LINE
  5
274
330
1F
100
AcDbEntity
  8
0
  6
Continuous
 62
     7
370
    35
100
AcDbLine
 10
116.1482113403
 20
80.695877122
 30
0.0
 11
112.1482113403
 21
80.695877122
 31
0.0
  0
LINE
  5
275
330
1F
100
AcDbEntity
  8
0
  6
Continuous
 62
     7
370
    35
100
AcDbLine
 10
116.1482113403
 20
80.695877122
 30
0.0
 11
116.1482113403
 21
78.695877122
 31
0.0
  0
LINE
  5
276
330
1F
100
AcDbEntity
  8
0
  6
Continuous
 62
     7
370
    35
100
AcDbLine
 10
112.1482113403
 20
78.695877122
 30
0.0
 11
112.1482113403
 21
80.695877122
 31
0.0
  0
LINE
  5
277
330
1F
100
AcDbEntity
  8
0
  6
Continuous
 62
     7
370
    35
100
AcDbLine
 10
119.1482113403
 20
82.695877122
 30
0.0
 11
120.1482113403
 21
82.695877122
 31
0.0
  0
LINE
  5
278
330
1F
100
AcDbEntity
  8
0
  6
Continuous
 62
     7
370
    35
100
AcDbLine
 10
119.1482113403
 20
80.695877122
 30
0.0
 11
119.1482113403
 21
82.695877122
 31
0.0
  0
LINE
  5
279
330
1F
100
AcDbEntity
  8
0
  6
Continuous
 62
     7
370
    35
100
AcDbLine
 10
120.1482113403
 20
82.695877122
 30
0.0
 11
120.1482113403
 21
80.695877122
 31
0.0
  0
LINE
  5
27A
330
1F
100
AcDbEntity
  8
0
  6
Continuous
 62
     7
370
    35
100
AcDbLine
 10
112.1482113403
 20
82.695877122
 30
0.0
 11
116.1482113403
 21
82.695877122
 31
0.0
  0
LINE
  5
27B
330
1F
100
AcDbEntity
  8
0
  6
Continuous
 62
     7
370
    35
100
AcDbLine
 10
116.1482113403
 20
82.695877122
 30
0.0
 11
116.1482113403
 21
80.695877122
 31
0.0
  0
LINE
  5
27C
330
1F
100
AcDbEntity
  8
0
  6
Continuous
 62
     7
370
    35
100
AcDbLine
 10
112.1482113403
 20
80.695877122
 30
0.0
 11
112.1482113403
 21
82.695877122
 31
0.0
  0
LINE
  5
27D
330
1F
100
AcDbEntity
  8
0
  6
Continuous
 62
     7
370
    35
100
AcDbLine
 10
119.1482113403
 20
88.695877122
 30
0.0
 11
120.1482113403
 21
88.695877122
 31
0.0
  0
LINE
  5
27E
330
1F
100
AcDbEntity
  8
0
  6
Continuous
 62
     7
370
    35
100
AcDbLine
 10
120.1482113403
 20
86.695877122
 30
0.0
 11
119.1482113403
 21
86.695877122
 31
0.0
  0
LINE
  5
27F
330
1F
100
AcDbEntity
  8
0
  6
Continuous
 62
     7
370
    35
100
AcDbLine
 10
119.1482113403
 20
86.695877122
 30
0.0
 11
119.1482113403
 21
88.695877122
 31
0.0
  0
LINE
  5
280
330
1F
100
AcDbEntity
  8
0
  6
Continuous
 62
     7
370
    35
100
AcDbLine
 10
120.1482113403
 20
88.695877122
 30
0.0
 11
120.1482113403
 21
86.695877122
 31
0.0
  0
LINE
  5
281
330
1F
100
AcDbEntity
  8
0
  6
Continuous
 62
     7
370
    35
100
AcDbLine
 10
120.1482113403
 20
104.695877122
 30
0.0
 11
119.1482113403
 21
104.695877122
 31
0.0
  0
LINE
  5
282
330
1F
100
AcDbEntity
  8
0
  6
Continuous
 62
     7
370
    35
100
AcDbLine
 10
119.1482113403
 20
88.695877122
 30
0.0
 11
119.1482113403
 21
104.695877122
 31
0.0
  0
LINE
  5
283
330
1F
100
AcDbEntity
  8
0
  6
Continuous
 62
     7
370
    35
100
AcDbLine
 10
120.1482113403
 20
88.695877122
 30
0.0
 11
120.1482113403
 21
104.695877122
 31
0.0
  0
LINE
  5
284
330
1F
100
AcDbEntity
  8
0
  6
Continuous
 62
     7
370
    35
100
AcDbLine
 10
112.1482113403
 20
88.695877122
 30
0.0
 11
116.1482113403
 21
88.695877122
 31
0.0
  0
LINE
  5
285
330
1F
100
AcDbEntity
  8
0
  6
Continuous
 62
     7
370
    35
100
AcDbLine
 10
116.1482113403
 20
86.695877122
 30
0.0
 11
112.1482113403
 21
86.695877122
 31
0.0
  0
LINE
  5
286
330
1F
100
AcDbEntity
  8
0
  6
Continuous
 62
     7
370
    35
100
AcDbLine
 10
116.1482113403
 20
88.695877122
 30
0.0
 11
116.1482113403
 21
86.695877122
 31
0.0
  0
LINE
  5
287
330
1F
100
AcDbEntity
  8
0
  6
Continuous
 62
     7
370
    35
100
AcDbLine
 10
112.1482113403
 20
86.695877122
 30
0.0
 11
112.1482113403
 21
88.695877122
 31
0.0
  0
LINE
  5
288
330
1F
100
AcDbEntity
  8
0
  6
Continuous
 62
     7
370
    35
100
AcDbLine
 10
116.1482113403
 20
104.695877122
 30
0.0
 11
112.1482113403
 21
104.695877122
 31
0.0
  0
LINE
  5
289
330
1F
100
AcDbEntity
  8
0
  6
Continuous
 62
     7
370
    35
100
AcDbLine
 10
116.1482113403
 20
104.695877122
 30
0.0
 11
116.1482113403
 21
88.695877122
 31
0.0
  0
LINE
  5
28A
330
1F
100
AcDbEntity
  8
0
  6
Continuous
 62
     7
370
    35
100
AcDbLine
 10
112.1482113403
 20
88.695877122
 30
0.0
 11
112.1482113403
 21
104.695877122
 31
0.0
  0
LINE
  5
28B
330
1F
100
AcDbEntity
  8
0
  6
Continuous
 62
     7
370
    35
100
AcDbLine
 10
119.1482113403
 20
106.695877122
 30
0.0
 11
120.1482113403
 21
106.695877122
 31
0.0
  0
LINE
  5
28C
330
1F
100
AcDbEntity
  8
0
  6
Continuous
 62
     7
370
    35
100
AcDbLine
 10
119.1482113403
 20
104.695877122
 30
0.0
 11
119.1482113403
 21
106.695877122
 31
0.0
  0
LINE
  5
28D
330
1F
100
AcDbEntity
  8
0
  6
Continuous
 62
     7
370
    35
100
AcDbLine
 10
120.1482113403
 20
106.695877122
 30
0.0
 11
120.1482113403
 21
104.695877122
 31
0.0
  0
LINE
  5
28E
330
1F
100
AcDbEntity
  8
0
  6
Continuous
 62
     7
370
    35
100
AcDbLine
 10
116.1482113403
 20
106.695877122
 30
0.0
 11
112.1482113403
 21
106.695877122
 31
0.0
  0
LINE
  5
28F
330
1F
100
AcDbEntity
  8
0
  6
Continuous
 62
     7
370
    35
100
AcDbLine
 10
116.1482113403
 20
106.695877122
 30
0.0
 11
116.1482113403
 21
104.695877122
 31
0.0
  0
LINE
  5
290
330
1F
100
AcDbEntity
  8
0
  6
Continuous
 62
     7
370
    35
100
AcDbLine
 10
112.1482113403
 20
104.695877122
 30
0.0
 11
112.1482113403
 21
106.695877122
 31
0.0
  0
LINE
  5
291
330
1F
100
AcDbEntity
  8
0
  6
Continuous
 62
     7
370
    35
100
AcDbLine
 10
120.1482113403
 20
84.695877122
 30
0.0
 11
119.1482113403
 21
84.695877122
 31
0.0
  0
LINE
  5
292
330
1F
100
AcDbEntity
  8
0
  6
Continuous
 62
     7
370
    35
100
AcDbLine
 10
119.1482113403
 20
84.695877122
 30
0.0
 11
119.1482113403
 21
86.695877122
 31
0.0
  0
LINE
  5
293
330
1F
100
AcDbEntity
  8
0
  6
Continuous
 62
     7
370
    35
100
AcDbLine
 10
120.1482113403
 20
86.695877122
 30
0.0
 11
120.1482113403
 21
84.695877122
 31
0.0
  0
LINE
  5
294
330
1F
100
AcDbEntity
  8
0
  6
Continuous
 62
     7
370
    35
100
AcDbLine
 10
116.1482113403
 20
84.695877122
 30
0.0
 11
112.1482113403
 21
84.695877122
 31
0.0
  0
LINE
  5
295
330
1F
100
AcDbEntity
  8
0
  6
Continuous
 62
     7
370
    35
100
AcDbLine
 10
116.1482113403
 20
86.695877122
 30
0.0
 11
116.1482113403
 21
84.695877122
 31
0.0
  0
LINE
  5
296
330
1F
100
AcDbEntity
  8
0
  6
Continuous
 62
     7
370
    35
100
AcDbLine
 10
112.1482113403
 20
84.695877122
 30
0.0
 11
112.1482113403
 21
86.695877122
 31
0.0
  0
LINE
  5
297
330
1F
100
AcDbEntity
  8
0
  6
Continuous
 62
     7
370
    35
100
AcDbLine
 10
119.1482113403
 20
108.695877122
 30
0.0
 11
120.1482113403
 21
108.695877122
 31
0.0
  0
LINE
  5
298
330
1F
100
AcDbEntity
  8
0
  6
Continuous
 62
     7
370
    35
100
AcDbLine
 10
119.1482113403
 20
106.695877122
 30
0.0
 11
119.1482113403
 21
108.695877122
 31
0.0
  0
LINE
  5
299
330
1F
100
AcDbEntity
  8
0
  6
Continuous
 62
     7
370
    35
100
AcDbLine
 10
120.1482113403
 20
108.695877122
 30
0.0
 11
120.1482113403
 21
106.695877122
 31
0.0
  0
LINE
  5
29A
330
1F
100
AcDbEntity
  8
0
  6
Continuous
 62
     7
370
    35
100
AcDbLine
 10
112.1482113403
 20
108.695877122
 30
0.0
 11
116.1482113403
 21
108.695877122
 31
0.0
  0
LINE
  5
29B
330
1F
100
AcDbEntity
  8
0
  6
Continuous
 62
     7
370
    35
100
AcDbLine
 10
116.1482113403
 20
108.695877122
 30
0.0
 11
116.1482113403
 21
106.695877122
 31
0.0
  0
LINE
  5
29C
330
1F
100
AcDbEntity
  8
0
  6
Continuous
 62
     7
370
    35
100
AcDbLine
 10
112.1482113403
 20
106.695877122
 30
0.0
 11
112.1482113403
 21
108.695877122
 31
0.0
  0
LINE
  5
29D
330
1F
100
AcDbEntity
  8
0
  6
Continuous
 62
     7
370
    35
100
AcDbLine
 10
112.1482113403
 20
113.695877122
 30
0.0
 11
120.1482113403
 21
113.695877122
 31
0.0
  0
LINE
  5
29E
330
1F
100
AcDbEntity
  8
0
  6
Continuous
 62
     7
370
    35
100
AcDbLine
 10
112.1482113403
 20
108.695877122
 30
0.0
 11
112.1482113403
 21
113.695877122
 31
0.0
  0
LINE
  5
29F
330
1F
100
AcDbEntity
  8
0
  6
Continuous
 62
     7
370
    35
100
AcDbLine
 10
112.1482113403
 20
82.695877122
 30
0.0
 11
112.1482113403
 21
84.695877122
 31
0.0
  0
LINE
  5
2A0
330
1F
100
AcDbEntity
  8
0
  6
Continuous
 62
     7
370
    35
100
AcDbLine
 10
120.1482113403
 20
82.695877122
 30
0.0
 11
120.1482113403
 21
84.695877122
 31
0.0
  0
LINE
  5
2A1
330
1F
100
AcDbEntity
  8
0
  6
Continuous
 62
     7
370
    35
100
AcDbLine
 10
120.1482113403
 20
108.695877122
 30
0.0
 11
120.1482113403
 21
113.695877122
 31
0.0
  0
LINE
  5
2A2
330
1F
100
AcDbEntity
  8
0
  6
Continuous
 62
     7
370
    35
100
AcDbLine
 10
112.1482113403
 20
115.695877122
 30
0.0
 11
120.1482113403
 21
115.695877122
 31
0.0
  0
LINE
  5
2A3
330
1F
100
AcDbEntity
  8
0
  6
Continuous
 62
     7
370
    35
100
AcDbLine
 10
112.1482113403
 20
113.695877122
 30
0.0
 11
112.1482113403
 21
115.695877122
 31
0.0
  0
LINE
  5
2A4
330
1F
100
AcDbEntity
  8
0
  6
Continuous
 62
     7
370
    35
100
AcDbLine
 10
120.1482113403
 20
113.695877122
 30
0.0
 11
120.1482113403
 21
115.695877122
 31
0.0
  0
LINE
  5
2A5
330
1F
100
AcDbEntity
  8
0
  6
Continuous
 62
     7
370
    35
100
AcDbLine
 10
109.6482113403
 20
79.695877122
 30
0.0
 11
99.6482113403
 21
79.695877122
 31
0.0
  0
LINE
  5
2A6
330
1F
100
AcDbEntity
  8
0
  6
Continuous
 62
     7
370
    35
100
AcDbLine
 10
109.6482113403
 20
65.695877122
 30
0.0
 11
99.6482113403
 21
65.695877122
 31
0.0
  0
LINE
  5
2A7
330
1F
100
AcDbEntity
  8
0
  6
Continuous
 62
     7
370
    35
100
AcDbLine
 10
99.6482113403
 20
79.695877122
 30
0.0
 11
99.6482113403
 21
65.695877122
 31
0.0
  0
LINE
  5
2A8
330
1F
100
AcDbEntity
  8
0
  6
Continuous
 62
     7
370
    35
100
AcDbLine
 10
109.6482113403
 20
79.695877122
 30
0.0
 11
109.6482113403
 21
65.695877122
 31
0.0
  0
LINE
  5
2A9
330
1F
100
AcDbEntity
  8
0
  6
Continuous
 62
     7
370
    35
100
AcDbLine
 10
99.6482113403
 20
99.3561311598
 30
0.0
 11
109.6482113403
 21
99.3561311598
 31
0.0
  0
SPLINE
  5
2AA
330
1F
100
AcDbEntity
  8
0
  6
Continuous
 62
     7
370
    35
100
AcDbSpline
210
0.0
220
0.0
230
1.0
 70
    11
 71
     3
 72
    45
 73
    41
 74
     0
 42
0.00000001
 43
0.00000001
 40
0.0
 40
0.0
 40
0.0
 40
0.0
 40
0.026219934367427
 40
0.0524422843527674
 40
0.0786358200946842
 40
0.1048329296677684
 40
0.1315681173205184
 40
0.1583027595075756
 40
0.1854889646800935
 40
0.2126703757582713
 40
0.2392457948183614
 40
0.2658199377758962
 40
0.2916654832258539
 40
0.3175146108050452
 40
0.3436515555262331
 40
0.3697911982772102
 40
0.3967704211845373
 40
0.4237472991059311
 40
0.450838066554457
 40
0.4779246371312655
 40
0.5042396645066526
 40
0.5305551201337053
 40
0.5564260961599963
 40
0.5823007351819117
 40
0.6086768902705793
 40
0.6350547266911806
 40
0.6621650038988852
 40
0.6892716865068174
 40
0.716217184116046
 40
0.7431589842456842
 40
0.7692306597478326
 40
0.7953043870991532
 40
0.8211830273240656
 40
0.8470654726119138
 40
0.8737003880390795
 40
0.9003352962681804
 40
0.9275230859638519
 40
0.9547065250303158
 40
0.9773538615113295
 40
0.9999999999999999
 40
0.9999999999999999
 40
0.9999999999999999
 40
0.9999999999999999
 10
100.9482113403045
 20
90.69587712199504
 30
0.0
 10
100.9582039688025
 20
90.49181193149991
 30
0.0
 10
100.9781901464098
 20
90.08366275017544
 30
0.0
 10
101.1336445074151
 20
89.48911226913731
 30
0.0
 10
101.3783015020254
 20
88.9298852069054
 30
0.0
 10
101.7126746169983
 20
88.4154800591032
 30
0.0
 10
102.130396366699
 20
87.96201468629218
 30
0.0
 10
102.6228884164317
 20
87.57796930147133
 30
0.0
 10
103.1783044134447
 20
87.28159869222526
 30
0.0
 10
103.776043197291
 20
87.081494854709
 30
0.0
 10
104.3961594373708
 20
86.98784288393607
 30
0.0
 10
105.0133796922821
 20
86.99657431211814
 30
0.0
 10
105.6137866501242
 20
87.10784350892902
 30
0.0
 10
106.1841659096604
 20
87.31130757647252
 30
0.0
 10
106.7133575738542
 20
87.60665133766108
 30
0.0
 10
107.1944009684075
 20
87.98741523876255
 30
0.0
 10
107.6088313584355
 20
88.44859057739137
 30
0.0
 10
107.9461478267204
 20
88.97883046559038
 30
0.0
 10
108.1881662571164
 20
89.56183636156567
 30
0.0
 10
108.3292979842983
 20
90.17372518727235
 30
0.0
 10
108.3631597769658
 20
90.79556325221343
 30
0.0
 10
108.2970152886071
 20
91.40506862962604
 30
0.0
 10
108.1311691247023
 20
91.99023967574227
 30
0.0
 10
107.8750964667898
 20
92.54047861197759
 30
0.0
 10
107.5298194148782
 20
93.04246546660795
 30
0.0
 10
107.1021034176317
 20
93.48856861544347
 30
0.0
 10
106.5998935992312
 20
93.85939191336529
 30
0.0
 10
106.0379003789416
 20
94.14462124144846
 30
0.0
 10
105.434388428363
 20
94.32879745281139
 30
0.0
 10
104.8151800648029
 20
94.40982467842265
 30
0.0
 10
104.1978765012994
 20
94.38447215446607
 30
0.0
 10
103.6016294045845
 20
94.26235458252052
 30
0.0
 10
103.0370537292072
 20
94.04406396449669
 30
0.0
 10
102.5120287644354
 20
93.7377308767844
 30
0.0
 10
102.0416356166821
 20
93.34507930906798
 30
0.0
 10
101.6349072849702
 20
92.87351872790005
 30
0.0
 10
101.3113151222201
 20
92.33455953241554
 30
0.0
 10
101.0943805785409
 20
91.7763623305916
 30
0.0
 10
100.970463555996
 20
91.22452071873248
 30
0.0
 10
100.9556286147425
 20
90.87208854701592
 30
0.0
 10
100.9482113403045
 20
90.69587712199504
 30
0.0
  0
LINE
  5
2AB
330
1F
100
AcDbEntity
  8
0
  6
Continuous
 62
     7
370
    35
100
AcDbLine
 10
99.6482113403
 20
99.3561311598
 30
0.0
 11
99.6482113403
 21
79.695877122
 31
0.0
  0
LINE
  5
2AC
330
1F
100
AcDbEntity
  8
0
  6
Continuous
 62
     7
370
    35
100
AcDbLine
 10
109.6482113403
 20
99.3561311598
 30
0.0
 11
109.6482113403
 21
79.695877122
 31
0.0
  0
LINE
  5
2AD
330
1F
100
AcDbEntity
  8
0
  6
Continuous
 62
     7
370
    35
100
AcDbLine
 10
109.6482113403
 20
108.695877122
 30
0.0
 11
99.6482113403
 21
108.695877122
 31
0.0
  0
LINE
  5
2AE
330
1F
100
AcDbEntity
  8
0
  6
Continuous
 62
     7
370
    35
100
AcDbLine
 10
99.6482113403
 20
108.695877122
 30
0.0
 11
99.6482113403
 21
99.3561311598
 31
0.0
  0
LINE
  5
2AF
330
1F
100
AcDbEntity
  8
0
  6
Continuous
 62
     7
370
    35
100
AcDbLine
 10
109.6482113403
 20
108.695877122
 30
0.0
 11
109.6482113403
 21
99.3561311598
 31
0.0
  0
LINE
  5
2B0
330
1F
100
AcDbEntity
  8
0
  6
Continuous
 62
     7
370
    35
100
AcDbLine
 10
99.6482113403
 20
115.695877122
 30
0.0
 11
99.6482113403
 21
108.695877122
 31
0.0
  0
LINE
  5
2B1
330
1F
100
AcDbEntity
  8
0
  6
Continuous
 62
     7
370
    35
100
AcDbLine
 10
109.6482113403
 20
115.695877122
 30
0.0
 11
109.6482113403
 21
108.695877122
 31
0.0
  0
CIRCLE
  5
2B2
330
1F
100
AcDbEntity
  8
0
  6
Continuous
 62
     7
370
    35
100
AcDbCircle
 10
104.6482113403
 20
90.695877122
 30
0.0
 40
2.249999999999986
  0
LINE
  5
2B3
330
1F
100
AcDbEntity
  8
0
  6
Continuous
 62
     7
370
    35
100
AcDbLine
 10
109.8239810437
 20
95.8419524003
 30
0.0
 11
109.8312181636
 21
95.853223623
 31
0.0
  0
SPLINE
  5
2B4
330
1F
100
AcDbEntity
  8
0
  6
Continuous
 62
     7
370
    35
100
AcDbSpline
210
0.0
220
0.0
230
1.0
 70
     8
 71
     3
 72
     9
 73
     5
 74
     0
 42
0.00000001
 43
0.00000001
 40
0.0
 40
0.0
 40
0.0
 40
0.0
 40
0.6449457612413193
 40
1.0
 40
1.0
 40
1.0
 40
1.0
 10
109.9766078624434
 20
97.7076810715241
 30
0.0
 10
109.9831124283997
 20
97.83207562151622
 30
0.0
 10
109.993197874878
 20
98.02495160809949
 30
0.0
 10
110.0032833213562
 20
98.22140742547184
 30
0.0
 10
110.006864201878
 20
98.29115989615869
 30
0.0
  0
SPLINE
  5
2B5
330
1F
100
AcDbEntity
  8
0
  6
Continuous
 62
     7
370
    35
100
AcDbSpline
210
0.0
220
0.0
230
1.0
 70
     8
 71
     3
 72
    13
 73
     9
 74
     0
 42
0.00000001
 43
0.00000001
 40
0.0
 40
0.0
 40
0.0
 40
0.0
 40
0.0918060247088251
 40
0.3128463402500511
 40
0.5263233836644132
 40
0.7398004270787877
 40
0.9608407426200197
 40
1.0
 40
1.0
 40
1.0
 40
1.0
 10
109.6482113403045
 20
99.18876130483105
 30
0.0
 10
109.6530566540254
 20
99.28716302705396
 30
0.0
 10
109.6695679741673
 20
99.62248545027596
 30
0.0
 10
109.6981460504684
 20
100.1015178253863
 30
0.0
 10
109.729458597046
 20
100.581447761862
 30
0.0
 10
109.7607486608069
 20
100.8814634900934
 30
0.0
 10
109.7865186146065
 20
101.0162534334461
 30
0.0
 10
109.8002697334185
 20
100.9859987716967
 30
0.0
 10
109.8023392356655
 20
100.9814455356053
 30
0.0
  0
SPLINE
  5
2B6
330
1F
100
AcDbEntity
  8
0
  6
Continuous
 62
     7
370
    35
100
AcDbSpline
210
0.0
220
0.0
230
1.0
 70
     8
 71
     3
 72
    20
 73
    16
 74
     0
 42
0.00000001
 43
0.00000001
 40
0.0
 40
0.0
 40
0.0
 40
0.0
 40
0.0697035435739333
 40
0.151591654147873
 40
0.2334797647218132
 40
0.3182690868467442
 40
0.4030584089716748
 40
0.4849465195456146
 40
0.5668346301195565
 40
0.6516239522444875
 40
0.7364132743694171
 40
0.8183013849433544
 40
0.9001894955172963
 40
0.9849788176422282
 40
1.0
 40
1.0
 40
1.0
 40
1.0
 10
110.2023659737843
 20
95.41035729122507
 30
0.0
 10
110.2121361476281
 20
95.41746571916207
 30
0.0
 10
110.2333843760302
 20
95.43292516776552
 30
0.0
 10
110.2627718258225
 20
95.68328269651064
 30
0.0
 10
110.2941576497715
 20
96.09682592326786
 30
0.0
 10
110.3294536578349
 20
96.66499987267579
 30
0.0
 10
110.3647569961927
 20
97.3384266878723
 30
0.0
 10
110.3961215788206
 20
98.0619968020922
 30
0.0
 10
110.4274860490879
 20
98.7942871537702
 30
0.0
 10
110.4627897365167
 20
99.49509990997859
 30
0.0
 10
110.4980844700229
 20
100.10403476653
 30
0.0
 10
110.529474886471
 20
100.5807819738233
 30
0.0
 10
110.5607439293172
 20
100.8816568774758
 30
0.0
 10
110.5865187779908
 20
101.016246755535
 30
0.0
 10
110.6002697547909
 20
100.9859978981562
 30
0.0
 10
110.6023392356655
 20
100.9814455356053
 30
0.0
  0
SPLINE
  5
2B7
330
1F
100
AcDbEntity
  8
0
  6
Continuous
 62
     7
370
    35
100
AcDbSpline
210
0.0
220
0.0
230
1.0
 70
     8
 71
     3
 72
    19
 73
    15
 74
     0
 42
0.00000001
 43
0.00000001
 40
0.0
 40
0.0
 40
0.0
 40
0.0
 40
0.0520389449701733
 40
0.1405167133835203
 40
0.2289944817968654
 40
0.3144402914347286
 40
0.3998861010726009
 40
0.488363869485947
 40
0.5768416378992929
 40
0.662287447537162
 40
0.7477332571750289
 40
0.8362110255883722
 40
0.9246887940017169
 40
0.9999999999999999
 40
0.9999999999999999
 40
0.9999999999999999
 40
0.9999999999999999
 10
110.8084645510192
 20
98.32226609126056
 30
0.0
 10
110.8147846710096
 20
98.44765142464736
 30
0.0
 10
110.8318503991819
 20
98.78621968278765
 30
0.0
 10
110.8628308629807
 20
99.30901542702946
 30
0.0
 10
110.8980780184692
 20
99.83218250015946
 30
0.0
 10
110.9294577873027
 20
100.2376211647142
 30
0.0
 10
110.9608199888376
 20
100.5072446932086
 30
0.0
 10
110.9961217235829
 20
100.6217064355467
 30
0.0
 10
111.0314224898955
 20
100.567028191619
 30
0.0
 10
111.0627874975532
 20
100.3524059368796
 30
0.0
 10
111.0941569335322
 20
99.99431050374197
 30
0.0
 10
111.1294439416407
 20
99.50802184795047
 30
0.0
 10
111.1634305287004
 20
98.9539880411156
 30
0.0
 10
111.183259564721
 20
98.56168141004719
 30
0.0
 10
111.1923770808534
 20
98.38129634070404
 30
0.0
  0
SPLINE
  5
2B8
330
1F
100
AcDbEntity
  8
0
  6
Continuous
 62
     7
370
    35
100
AcDbSpline
210
0.0
220
0.0
230
1.0
 70
     8
 71
     3
 72
    13
 73
     9
 74
     0
 42
0.00000001
 43
0.00000001
 40
0.0
 40
0.0
 40
0.0
 40
0.0
 40
0.1376284462297455
 40
0.3125057791150149
 40
0.4873831120002889
 40
0.6562528895574626
 40
0.8251226671146245
 40
1.0
 40
1.0
 40
1.0
 40
1.0
 10
110.8019621010166
 20
98.19587712199507
 30
0.0
 10
110.8103987475417
 20
98.05588217340409
 30
0.0
 10
110.8295554035067
 20
97.73800290004105
 30
0.0
 10
110.8628059524372
 20
97.26819661253136
 30
0.0
 10
110.8980827316878
 20
96.83190819007703
 30
0.0
 10
110.9294560918967
 20
96.4960234616788
 30
0.0
 10
110.9608221773443
 20
96.26360933810429
 30
0.0
 10
110.9842188009547
 20
96.22019986177553
 30
0.0
 10
110.9961215603125
 20
96.19811579703226
 30
0.0
  0
LINE
  5
2B9
330
1F
100
AcDbEntity
  8
0
  6
Continuous
 62
     7
370
    35
100
AcDbLine
 10
111.4461215603
 20
96.1678176242
 30
0.0
 11
111.4461215603
 21
95.3678176242
 31
0.0
  0
ARC
  5
2BA
330
1F
100
AcDbEntity
  8
0
  6
Continuous
 62
     7
370
    35
100
AcDbCircle
 10
110.9960746374
 20
95.7885633161
 30
0.0
 40
0.4001114125800973
100
AcDbArc
 50
77.074478651
 51
152.8521523107
  0
SPLINE
  5
2BB
330
1F
100
AcDbEntity
  8
0
  6
Continuous
 62
     7
370
    35
100
AcDbSpline
210
0.0
220
0.0
230
1.0
 70
     8
 71
     3
 72
     9
 73
     5
 74
     0
 42
0.00000001
 43
0.00000001
 40
0.0
 40
0.0
 40
0.0
 40
0.0
 40
0.4234239564440517
 40
1.0
 40
1.0
 40
1.0
 40
1.0
 10
110.0113126314689
 20
75.43932092523522
 30
0.0
 10
110.0141418192591
 20
75.45747918542523
 30
0.0
 10
110.0208235096716
 20
75.50036353316617
 30
0.0
 10
110.0282552205231
 20
75.4830430872939
 30
0.0
 10
110.0325401669628
 20
75.47305653314025
 30
0.0
  0
SPLINE
  5
2BC
330
1F
100
AcDbEntity
  8
0
  6
Continuous
 62
     7
370
    35
100
AcDbSpline
210
0.0
220
0.0
230
1.0
 70
     8
 71
     3
 72
    10
 73
     6
 74
     0
 42
0.00000001
 43
0.00000001
 40
0.0
 40
0.0
 40
0.0
 40
0.0
 40
0.3277729008791215
 40
0.8816311071875141
 40
1.0
 40
1.0
 40
1.0
 40
1.0
 10
110.4342611222934
 20
69.92005546860476
 30
0.0
 10
110.4411427202997
 20
69.92037643809985
 30
0.0
 10
110.4596525814055
 20
69.92123976966442
 30
0.0
 10
110.4816762550347
 20
70.04878958304452
 30
0.0
 10
110.4948026187882
 20
70.21469986361403
 30
0.0
 10
110.4971139703332
 20
70.24391412207358
 30
0.0
  0
SPLINE
  5
2BD
330
1F
100
AcDbEntity
  8
0
  6
Continuous
 62
     7
370
    35
100
AcDbSpline
210
0.0
220
0.0
230
1.0
 70
     8
 71
     3
 72
    10
 73
     6
 74
     0
 42
0.00000001
 43
0.00000001
 40
0.0
 40
0.0
 40
0.0
 40
0.0
 40
0.4203580064214575
 40
0.8428712337003567
 40
0.9999999999999999
 40
0.9999999999999999
 40
0.9999999999999999
 40
0.9999999999999999
 10
110.7569555751296
 20
74.9919351590388
 30
0.0
 10
110.7675023910423
 20
75.11185285664003
 30
0.0
 10
110.7886500975311
 20
75.35230308281774
 30
0.0
 10
110.8126362844291
 20
75.50102976513362
 30
0.0
 10
110.8282953289787
 20
75.4790222957246
 30
0.0
 10
110.8325401669628
 20
75.47305653314025
 30
0.0
  0
SPLINE
  5
2BE
330
1F
100
AcDbEntity
  8
0
  6
Continuous
 62
     7
370
    35
100
AcDbSpline
210
0.0
220
0.0
230
1.0
 70
     8
 71
     3
 72
    13
 73
     9
 74
     0
 42
0.00000001
 43
0.00000001
 40
0.0
 40
0.0
 40
0.0
 40
0.0
 40
0.0009652547916963
 40
0.2101222779544552
 40
0.4192793011172148
 40
0.6358580512730121
 40
0.8524368014288087
 40
0.9999999999999999
 40
0.9999999999999999
 40
0.9999999999999999
 40
0.9999999999999999
 10
111.1566381180506
 20
74.66054870392763
 30
0.0
 10
111.1566902667798
 20
74.66119010574778
 30
0.0
 10
111.168042305501
 20
74.80081418499654
 30
0.0
 10
111.1881815322958
 20
74.96287088510202
 30
0.0
 10
111.2197887183563
 20
75.11646580188315
 30
0.0
 10
111.2549872609525
 20
75.08539631482088
 30
0.0
 10
111.2870464839253
 20
74.92705080950083
 30
0.0
 10
111.3050893739678
 20
74.72124031624344
 30
0.0
 10
111.3124009912517
 20
74.63783862415401
 30
0.0
  0
LINE
  5
2BF
330
1F
100
AcDbEntity
  8
0
  6
Continuous
 62
     7
370
    35
100
AcDbLine
 10
119.1482113403
 20
81.1494424973
 30
0.0
 11
118.1482113403
 21
81.1494424973
 31
0.0
  0
LINE
  5
2C0
330
1F
100
AcDbEntity
  8
0
  6
Continuous
 62
     7
370
    35
100
AcDbLine
 10
116.1482113403
 20
82.2030078726
 30
0.0
 11
119.1482113403
 21
82.2030078726
 31
0.0
  0
DIMENSION
  5
2C1
330
1F
100
AcDbEntity
  8
SLD-0
 62
     7
100
AcDbDimension
  2
_D
 10
104.6482113403
 20
58.2331446404
 30
0.0
 11
102.1482113403
 21
58.2331446404
 31
0.0
 70
   160
  1
<>
 71
     2
 42
-1.0
  3
SLDDIMSTYLE0
100
AcDbAlignedDimension
 13
99.6482113403
 23
65.695877122
 33
0.0
 14
104.6482113403
 24
85.995877122
 34
0.0
 50
0.0
100
AcDbRotatedDimension
  0
DIMENSION
  5
2CC
330
1F
100
AcDbEntity
  8
SLD-0
 62
     7
100
AcDbDimension
  2
_D_1
 10
109.6482113403
 20
52.1407620019
 30
0.0
 11
104.6482113403
 21
52.1407620019
 31
0.0
 70
   160
  1
<>
 71
     2
 42
-1.0
  3
SLDDIMSTYLE0
100
AcDbAlignedDimension
 13
99.6482113403
 23
65.695877122
 33
0.0
 14
109.6482113403
 24
65.695877122
 34
0.0
 50
0.0
100
AcDbRotatedDimension
  0
DIMENSION
  5
2D6
330
1F
100
AcDbEntity
  8
SLD-0
 62
     7
100
AcDbDimension
  2
_D_2
 10
120.1482113403
 20
52.1407620019
 30
0.0
 11
116.1482113403
 21
52.1407620019
 31
0.0
 70
   160
  1
<>
 71
     2
 42
-1.0
  3
SLDDIMSTYLE0
100
AcDbAlignedDimension
 13
112.1482113403
 23
66.695877122
 33
0.0
 14
120.1482113403
 24
66.695877122
 34
0.0
 50
0.0
100
AcDbRotatedDimension
  0
DIMENSION
  5
2E0
330
1F
100
AcDbEntity
  8
SLD-0
 62
     7
100
AcDbDimension
  2
_D_3
 10
120.1482113403
 20
45.9099161216
 30
0.0
 11
109.8982113403
 21
45.9099161216
 31
0.0
 70
   160
  1
<>
 71
     2
 42
-1.0
  3
SLDDIMSTYLE0
100
AcDbAlignedDimension
 13
99.6482113403
 23
65.695877122
 33
0.0
 14
120.1482113403
 24
66.695877122
 34
0.0
 50
0.0
100
AcDbRotatedDimension
  0
DIMENSION
  5
2EA
330
1F
100
AcDbEntity
  8
SLD-0
 62
     7
100
AcDbDimension
  2
_D_4
 10
129.2839734931
 20
90.695877122
 30
0.0
 11
129.2839734931
 21
78.195877122
 31
0.0
 70
   160
  1
<>
 71
     2
 42
-1.0
  3
SLDDIMSTYLE0
100
AcDbAlignedDimension
 13
109.6482113403
 23
65.695877122
 33
0.0
 14
109.3482113403
 24
90.695877122
 34
0.0
 50
90.0
100
AcDbRotatedDimension
  0
DIMENSION
  5
2F4
330
1F
100
AcDbEntity
  8
SLD-0
 62
     7
100
AcDbDimension
  2
_D_5
 10
105.6058418072
 20
87.1219515647
 30
0.0
 11
78.0605340684
 21
129.6016722605
 31
0.0
 70
   163
  1
2 HOLES for both of \P M4 and 8-32
 71
     1
 42
-1.0
  3
SLDDIMSTYLE1
100
AcDbDiametricDimension
 15
103.6905808734
 25
94.2698026793
 35
0.0
 40
0.0
  0
DIMENSION
  5
2FE
330
1F
100
AcDbEntity
  8
SLD-0
100
AcDbDimension
  2
_D_6
 10
120.1482113403
 20
34.3783892939
 30
0.0
 11
107.0659651553
 21
34.3783892939
 31
0.0
 70
   160
  1
<>\PNOMINAL
 71
     2
 42
-1.0
  3
SLDDIMSTYLE2
100
AcDbAlignedDimension
 13
93.9837189702
 23
69.695877122
 33
0.0
 14
120.1482113403
 24
66.695877122
 34
0.0
 50
0.0
100
AcDbRotatedDimension
  0
DIMENSION
  5
30A
330
1F
100
AcDbEntity
  8
SLD-0
100
AcDbDimension
  2
_D_7
 10
119.1482113403
 20
132.943142374
 30
0.0
 11
134.1482113403
 21
132.943142374
 31
0.0
 70
   160
  1
Max.THK <>mm
 71
     2
 42
-1.0
  3
SLDDIMSTYLE0
100
AcDbAlignedDimension
 13
116.1482113403
 23
108.695877122
 33
0.0
 14
119.1482113403
 24
108.695877122
 34
0.0
100
AcDbRotatedDimension
  0
INSERT
  5
322
330
1F
100
AcDbEntity
  8
SLD-0
 62
     7
100
AcDbBlockReference
  2
SW_CENTERMARKSYMBOL_6
 10
104.6482113403
 20
90.695877122
 30
0.0
  0
LINE
  5
323
330
1F
100
AcDbEntity
  8
0
  6
Continuous
 62
     7
370
    35
100
AcDbLine
 10
238.4082135471
 20
149.4358972053
 30
0.0
 11
238.4082135471
 21
149.3950767997
 31
0.0
  0
LINE
  5
324
330
1F
100
AcDbEntity
  8
0
  6
Continuous
 62
     7
370
    35
100
AcDbLine
 10
239.2566037748
 20
147.9254625848
 30
0.0
 11
239.2919533676
 21
147.9050490648
 31
0.0
  0
LINE
  5
325
330
1F
100
AcDbEntity
  8
0
  6
Continuous
 62
     7
370
    35
100
AcDbLine
 10
243.4993823716
 20
149.6224523764
 30
0.0
 11
244.0371893867
 21
149.9329217577
 31
0.0
  0
LINE
  5
326
330
1F
100
AcDbEntity
  8
0
  6
Continuous
 62
     7
370
    35
100
AcDbLine
 10
244.347910509
 20
150.6196889674
 30
0.0
 11
244.347910509
 21
150.864611401
 31
0.0
  0
LINE
  5
327
330
1F
100
AcDbEntity
  8
0
  6
Continuous
 62
     7
370
    35
100
AcDbLine
 10
243.4995202813
 20
152.3342256158
 30
0.0
 11
243.4993823716
 21
152.3343052553
 31
0.0
  0
LINE
  5
328
330
1F
100
AcDbEntity
  8
0
  6
Continuous
 62
     7
370
    35
100
AcDbLine
 10
238.4082135471
 20
161.1940848964
 30
0.0
 11
238.4082135471
 21
161.1532644908
 31
0.0
  0
LINE
  5
329
330
1F
100
AcDbEntity
  8
0
  6
Continuous
 62
     7
370
    35
100
AcDbLine
 10
239.2566037748
 20
159.683650276
 30
0.0
 11
239.2919533676
 21
159.663236756
 31
0.0
  0
LINE
  5
32A
330
1F
100
AcDbEntity
  8
0
  6
Continuous
 62
     7
370
    35
100
AcDbLine
 10
242.5373112878
 20
164.289256036
 30
0.0
 11
242.3904703883
 21
164.2044865891
 31
0.0
  0
LINE
  5
32B
330
1F
100
AcDbEntity
  8
0
  6
Continuous
 62
     7
370
    35
100
AcDbLine
 10
243.4993823716
 20
161.3806400676
 30
0.0
 11
244.0371893867
 21
161.6911094489
 31
0.0
  0
LINE
  5
32C
330
1F
100
AcDbEntity
  8
0
  6
Continuous
 62
     7
370
    35
100
AcDbLine
 10
244.347910509
 20
162.3778766586
 30
0.0
 11
244.347910509
 21
162.6227990921
 31
0.0
  0
LINE
  5
32D
330
1F
100
AcDbEntity
  8
0
  6
Continuous
 62
     7
370
    35
100
AcDbLine
 10
243.4995202813
 20
164.092413307
 30
0.0
 11
243.2874227244
 21
164.2148944271
 31
0.0
  0
LINE
  5
32E
330
1F
100
AcDbEntity
  8
0
  6
Continuous
 62
     7
370
    35
100
AcDbLine
 10
254.9545122268
 20
132.53505499
 30
0.0
 11
254.9545122268
 21
132.4942345844
 31
0.0
  0
LINE
  5
32F
330
1F
100
AcDbEntity
  8
0
  6
Continuous
 62
     7
370
    35
100
AcDbLine
 10
255.8029024546
 20
131.0246203695
 30
0.0
 11
255.8382520474
 21
131.0042068495
 31
0.0
  0
LINE
  5
330
330
1F
100
AcDbEntity
  8
0
  6
Continuous
 62
     7
370
    35
100
AcDbLine
 10
259.0836099675
 20
135.6302261296
 30
0.0
 11
258.5457890086
 21
135.3197486987
 31
0.0
  0
LINE
  5
331
330
1F
100
AcDbEntity
  8
0
  6
Continuous
 62
     7
370
    35
100
AcDbLine
 10
260.4366596482
 20
132.9473173007
 30
0.0
 11
260.5834880665
 21
133.0320795424
 31
0.0
  0
LINE
  5
332
330
1F
100
AcDbEntity
  8
0
  6
Continuous
 62
     7
370
    35
100
AcDbLine
 10
260.8942091888
 20
133.7188467521
 30
0.0
 11
260.8942091888
 21
133.9637691857
 31
0.0
  0
LINE
  5
333
330
1F
100
AcDbEntity
  8
0
  6
Continuous
 62
     7
370
    35
100
AcDbLine
 10
260.0458189611
 20
135.4333834005
 30
0.0
 11
259.8337214041
 21
135.5558645207
 31
0.0
  0
LINE
  5
334
330
1F
100
AcDbEntity
  8
0
  6
Continuous
 62
     7
370
    35
100
AcDbLine
 10
244.7721745778
 20
138.4131933951
 30
0.0
 11
244.7721745778
 21
138.3723729895
 31
0.0
  0
LINE
  5
335
330
1F
100
AcDbEntity
  8
0
  6
Continuous
 62
     7
370
    35
100
AcDbLine
 10
245.6205648055
 20
136.9027587747
 30
0.0
 11
245.6559143983
 21
136.8823452546
 31
0.0
  0
LINE
  5
336
330
1F
100
AcDbEntity
  8
0
  6
Continuous
 62
     7
370
    35
100
AcDbLine
 10
248.9012723185
 20
141.5083645347
 30
0.0
 11
248.3634513595
 21
141.1978871038
 31
0.0
  0
LINE
  5
337
330
1F
100
AcDbEntity
  8
0
  6
Continuous
 62
     7
370
    35
100
AcDbLine
 10
249.863481312
 20
141.3115218056
 30
0.0
 11
249.651383755
 21
141.4340029258
 31
0.0
  0
LINE
  5
338
330
1F
100
AcDbEntity
  8
0
  6
Continuous
 62
     7
370
    35
100
AcDbLine
 10
226.5097391437
 20
154.210855969
 30
0.0
 11
226.8170266078
 21
153.9211952386
 31
0.0
  0
SPLINE
  5
339
330
1F
100
AcDbEntity
  8
0
  6
Continuous
 62
     7
370
    35
100
AcDbSpline
210
0.0
220
0.0
230
1.0
 70
     8
 71
     3
 72
    10
 73
     6
 74
     0
 42
0.00000001
 43
0.00000001
 40
0.0
 40
0.0
 40
0.0
 40
0.0
 40
0.1551113619233759
 40
0.7991518754965545
 40
0.9999999999999999
 40
0.9999999999999999
 40
0.9999999999999999
 40
0.9999999999999999
 10
225.7585400435873
 20
154.1265507221513
 30
0.0
 10
225.8002516279346
 20
154.0630333619724
 30
0.0
 10
226.0151545882829
 20
153.7357844945516
 30
0.0
 10
226.382139099223
 20
153.4068817047097
 30
0.0
 10
226.7017513203813
 20
153.2179279494095
 30
0.0
 10
226.7777299905812
 20
153.1730095948955
 30
0.0
  0
SPLINE
  5
33A
330
1F
100
AcDbEntity
  8
0
  6
Continuous
 62
     7
370
    35
100
AcDbSpline
210
0.0
220
0.0
230
1.0
 70
     8
 71
     3
 72
    22
 73
    18
 74
     0
 42
0.00000001
 43
0.00000001
 40
0.0
 40
0.0
 40
0.0
 40
0.0
 40
0.0375072499353484
 40
0.1090019682351994
 40
0.1809805522289925
 40
0.2532689816831949
 40
0.325598458354725
 40
0.3975917602101516
 40
0.4689633763616099
 40
0.5395362871990823
 40
0.6094531869215964
 40
0.6794632329191092
 40
0.7515947364643495
 40
0.8312478613639036
 40
0.9046737501267376
 40
0.9728736218864343
 40
1.0
 40
1.0
 40
1.0
 40
1.0
 10
227.0021504477472
 20
153.2483729811952
 30
0.0
 10
226.9473169717423
 20
153.226422760863
 30
0.0
 10
226.7879622651184
 20
153.162631967789
 30
0.0
 10
226.4718612675068
 20
153.0981665631648
 30
0.0
 10
226.0778703895213
 20
153.0602299178933
 30
0.0
 10
225.6705796595459
 20
153.0720912280662
 30
0.0
 10
225.2729668386247
 20
153.1312986288237
 30
0.0
 10
224.9036565042625
 20
153.2348210502639
 30
0.0
 10
224.5808634152397
 20
153.3753442350588
 30
0.0
 10
224.3193216234272
 20
153.5424154730318
 30
0.0
 10
224.1291824959211
 20
153.7224268962191
 30
0.0
 10
224.0132897838782
 20
153.9001351948013
 30
0.0
 10
223.9647344575871
 20
154.0651615678749
 30
0.0
 10
223.9707122093772
 20
154.2161164365183
 30
0.0
 10
224.0391371789169
 20
154.3763232219295
 30
0.0
 10
224.1350861942909
 20
154.511070502635
 30
0.0
 10
224.231191869435
 20
154.5834533116819
 30
0.0
 10
224.2585400435873
 20
154.6040508223333
 30
0.0
  0
SPLINE
  5
33B
330
1F
100
AcDbEntity
  8
0
  6
Continuous
 62
     7
370
    35
100
AcDbSpline
210
0.0
220
0.0
230
1.0
 70
     8
 71
     3
 72
    24
 73
    20
 74
     0
 42
0.00000001
 43
0.00000001
 40
0.0
 40
0.0
 40
0.0
 40
0.0
 40
0.0354840686514893
 40
0.1015099568600442
 40
0.1603368445729469
 40
0.217165743055163
 40
0.2778055820018396
 40
0.3366359912717617
 40
0.3950079662789918
 40
0.4545005181285481
 40
0.5161575696344982
 40
0.5798219132246925
 40
0.6445635115403117
 40
0.7094648190975047
 40
0.7742245464927007
 40
0.8388829978721609
 40
0.9035849011595511
 40
0.9684697044228768
 40
1.0
 40
1.0
 40
1.0
 40
1.0
 10
224.0446171198458
 20
155.4311917696933
 30
0.0
 10
223.9806593481087
 20
155.3918486582601
 30
0.0
 10
223.7976941218363
 20
155.2792990635801
 30
0.0
 10
223.55489917775
 20
155.0646357538169
 30
0.0
 10
223.3434950779993
 20
154.7838058665299
 30
0.0
 10
223.2089434917235
 20
154.4793492513227
 30
0.0
 10
223.155880055287
 20
154.1538721009043
 30
0.0
 10
223.1916663357219
 20
153.8231282308434
 30
0.0
 10
223.3094931819668
 20
153.5102121322512
 30
0.0
 10
223.5029355250557
 20
153.2197058759141
 30
0.0
 10
223.7690951361048
 20
152.95514732142
 30
0.0
 10
224.1040268072784
 20
152.722861425097
 30
0.0
 10
224.4982258929667
 20
152.5312191717125
 30
0.0
 10
224.9374374196622
 20
152.3872823240042
 30
0.0
 10
225.405713747358
 20
152.2957668246767
 30
0.0
 10
225.8887009681913
 20
152.257990381888
 30
0.0
 10
226.369315333666
 20
152.2785383450171
 30
0.0
 10
226.7609009324478
 20
152.3325845449391
 30
0.0
 10
226.9737423746559
 20
152.399368180147
 30
0.0
 10
227.0433471737444
 20
152.4212082008818
 30
0.0
  0
SPLINE
  5
33C
330
1F
100
AcDbEntity
  8
0
  6
Continuous
 62
     7
370
    35
100
AcDbSpline
210
0.0
220
0.0
230
1.0
 70
     8
 71
     3
 72
    11
 73
     7
 74
     0
 42
0.00000001
 43
0.00000001
 40
0.0
 40
0.0
 40
0.0
 40
0.0
 40
0.0285054497830245
 40
0.3764607101244125
 40
0.7444352395459743
 40
1.0
 40
1.0
 40
1.0
 40
1.0
 10
226.7288907734018
 20
154.211671970741
 30
0.0
 10
226.7147959587948
 20
154.2228597711798
 30
0.0
 10
226.5286510652243
 20
154.3706128264729
 30
0.0
 10
226.2114232680034
 20
154.8155491434987
 30
0.0
 10
225.8720297079935
 20
155.4180016896549
 30
0.0
 10
225.7915326784035
 20
155.7829928639326
 30
0.0
 10
225.7585400435873
 20
155.9325887010141
 30
0.0
  0
LINE
  5
33D
330
1F
100
AcDbEntity
  8
0
  6
Continuous
 62
     7
370
    35
100
AcDbLine
 10
224.2585400436
 20
155.5546868449
 30
0.0
 11
224.0446171198
 21
155.4311917697
 31
0.0
  0
SPLINE
  5
33E
330
1F
100
AcDbEntity
  8
0
  6
Continuous
 62
     7
370
    35
100
AcDbSpline
210
0.0
220
0.0
230
1.0
 70
     8
 71
     3
 72
    11
 73
     7
 74
     0
 42
0.00000001
 43
0.00000001
 40
0.0
 40
0.0
 40
0.0
 40
0.0
 40
0.0349861991376659
 40
0.4539378949694809
 40
0.8507892797519649
 40
1.0
 40
1.0
 40
1.0
 40
1.0
 10
242.2744167437253
 20
122.4966108953066
 30
0.0
 10
242.268202318268
 20
122.4938873568191
 30
0.0
 10
242.1875715758594
 20
122.4585500707359
 30
0.0
 10
242.0857750025167
 20
122.4401132523141
 30
0.0
 10
242.0023181562612
 20
122.4418074059395
 30
0.0
 10
242.0107513398323
 20
122.4392025615798
 30
0.0
 10
242.0130556956611
 20
122.438490791436
 30
0.0
  0
SPLINE
  5
33F
330
1F
100
AcDbEntity
  8
0
  6
Continuous
 62
     7
370
    35
100
AcDbSpline
210
0.0
220
0.0
230
1.0
 70
     8
 71
     3
 72
    19
 73
    15
 74
     0
 42
0.00000001
 43
0.00000001
 40
0.0
 40
0.0
 40
0.0
 40
0.0
 40
0.013551793250532
 40
0.0889144302075802
 40
0.1682089752170561
 40
0.2506466447586247
 40
0.3382463396382372
 40
0.4298703690001581
 40
0.5241173219065144
 40
0.6198877237903742
 40
0.7164036085543096
 40
0.813082574105185
 40
0.9092394424713425
 40
1.0
 40
1.0
 40
1.0
 40
1.0
 10
242.0692618171413
 20
122.3785394449317
 30
0.0
 10
242.0699321885257
 20
122.3770935023811
 30
0.0
 10
242.0743305503195
 20
122.3676065543715
 30
0.0
 10
242.0642899081793
 20
122.4194133455404
 30
0.0
 10
242.089829895234
 20
122.5459952006784
 30
0.0
 10
242.1596105032874
 20
122.7404850826766
 30
0.0
 10
242.28324146763
 20
122.9825562555121
 30
0.0
 10
242.4614424136436
 20
123.2627701951994
 30
0.0
 10
242.6895664845568
 20
123.56484841166
 30
0.0
 10
242.958089368347
 20
123.8724160782817
 30
0.0
 10
243.2550523076462
 20
124.169964609817
 30
0.0
 10
243.5656516262003
 20
124.4415012557542
 30
0.0
 10
243.8725633472015
 20
124.6754257226879
 30
0.0
 10
244.0611771332225
 20
124.7910666378343
 30
0.0
 10
244.1527613838342
 20
124.8472178173274
 30
0.0
  0
SPLINE
  5
340
330
1F
100
AcDbEntity
  8
0
  6
Continuous
 62
     7
370
    35
100
AcDbSpline
210
0.0
220
0.0
230
1.0
 70
     8
 71
     3
 72
    25
 73
    21
 74
     0
 42
0.00000001
 43
0.00000001
 40
0.0
 40
0.0
 40
0.0
 40
0.0
 40
0.0004385470501553
 40
0.0653089006673225
 40
0.1297303262182344
 40
0.1940589633919609
 40
0.2585440965861365
 40
0.3234921155340707
 40
0.3893848783580942
 40
0.4570214632814533
 40
0.5276989930265544
 40
0.5824009303130055
 40
0.6309566127604622
 40
0.6776534236125163
 40
0.7266445745185848
 40
0.774498469557574
 40
0.8263822866697047
 40
0.886879955495623
 40
0.9549842862636553
 40
1.0
 40
1.0
 40
1.0
 40
1.0
 10
243.211673656565
 20
125.1754259284165
 30
0.0
 10
243.2108727413615
 20
125.1748607421139
 30
0.0
 10
243.0915995836594
 20
125.0906925871077
 30
0.0
 10
242.8531087003947
 20
124.8833938831389
 30
0.0
 10
242.5104508875577
 20
124.5627892133041
 30
0.0
 10
242.1913924643727
 20
124.2165697911434
 30
0.0
 10
241.9056668959131
 20
123.8615505050217
 30
0.0
 10
241.661640751683
 20
123.5050845822933
 30
0.0
 10
241.4666804382528
 20
123.1547699565191
 30
0.0
 10
241.3279261306116
 20
122.813298603635
 30
0.0
 10
241.2626556918254
 20
122.5078721463051
 30
0.0
 10
241.2711996617933
 20
122.2370850360576
 30
0.0
 10
241.3463581209704
 20
122.008275826912
 30
0.0
 10
241.4916964178684
 20
121.8173999704856
 30
0.0
 10
241.6929091841155
 20
121.691013259583
 30
0.0
 10
241.9221755753624
 20
121.6352228535065
 30
0.0
 10
242.1718033902351
 20
121.6390572415092
 30
0.0
 10
242.4588432369313
 20
121.7040842981542
 30
0.0
 10
242.7490798530033
 20
121.8191511204371
 30
0.0
 10
242.9484111589067
 20
121.9287889389654
 30
0.0
 10
243.0277343331908
 20
121.9724189134334
 30
0.0
  0
LINE
  5
341
330
1F
100
AcDbEntity
  8
0
  6
Continuous
 62
     7
370
    35
100
AcDbLine
 10
243.824227013
 20
124.6314177472
 30
0.0
 11
243.8996885092
 21
124.4007773133
 31
0.0
  0
SPLINE
  5
342
330
1F
100
AcDbEntity
  8
0
  6
Continuous
 62
     7
370
    35
100
AcDbSpline
210
0.0
220
0.0
230
1.0
 70
     8
 71
     3
 72
     9
 73
     5
 74
     0
 42
0.00000001
 43
0.00000001
 40
0.0
 40
0.0
 40
0.0
 40
0.0
 40
0.7601734902230761
 40
1.0
 40
1.0
 40
1.0
 40
1.0
 10
244.4839343963704
 20
123.3453091756144
 30
0.0
 10
244.5379375992247
 20
123.2678388184749
 30
0.0
 10
244.6089782281718
 20
123.1659274020208
 30
0.0
 10
244.692299901461
 20
123.0807199644887
 30
0.0
 10
244.7122826475546
 20
123.0602849621383
 30
0.0
  0
LINE
  5
343
330
1F
100
AcDbEntity
  8
0
  6
Continuous
 62
     7
370
    35
100
AcDbLine
 10
243.0946620832
 20
125.225226713
 30
0.0
 11
243.093805691
 21
125.0783840993
 31
0.0
  0
SPLINE
  5
344
330
1F
100
AcDbEntity
  8
0
  6
Continuous
 62
     7
370
    35
100
AcDbSpline
210
0.0
220
0.0
230
1.0
 70
     8
 71
     3
 72
     9
 73
     5
 74
     0
 42
0.00000001
 43
0.00000001
 40
0.0
 40
0.0
 40
0.0
 40
0.0
 40
0.3193190438384065
 40
1.0
 40
1.0
 40
1.0
 40
1.0
 10
243.2936846445998
 20
124.1974433032014
 30
0.0
 10
243.3182228279182
 20
124.1137550053476
 30
0.0
 10
243.3950681767688
 20
123.8516713637087
 30
0.0
 10
243.552021244069
 20
123.6004181641922
 30
0.0
 10
243.6588562079914
 20
123.4293948961067
 30
0.0
  0
LINE
  5
345
330
1F
100
AcDbEntity
  8
0
  6
Continuous
 62
     7
370
    35
100
AcDbLine
 10
243.0277343332
 20
121.9724189134
 30
0.0
 11
243.1050883044
 21
122.0170744105
 31
0.0
  0
LINE
  5
346
330
1F
100
AcDbEntity
  8
0
  6
Continuous
 62
     7
370
    35
100
AcDbLine
 10
223.2611745712
 20
165.180735694
 30
0.0
 11
219.2557736043
 21
162.8684669338
 31
0.0
  0
LINE
  5
347
330
1F
100
AcDbEntity
  8
0
  6
Continuous
 62
     7
370
    35
100
AcDbLine
 10
222.2555298022
 20
157.6721737595
 30
0.0
 11
226.2609307691
 21
159.9844425197
 31
0.0
  0
LINE
  5
348
330
1F
100
AcDbEntity
  8
0
  6
Continuous
 62
     7
370
    35
100
AcDbLine
 10
248.7170186939
 20
121.0899204533
 30
0.0
 11
244.7116177271
 21
118.7776516931
 31
0.0
  0
LINE
  5
349
330
1F
100
AcDbEntity
  8
0
  6
Continuous
 62
     7
370
    35
100
AcDbLine
 10
247.711373925
 20
113.5813585188
 30
0.0
 11
251.7167748918
 21
115.893627279
 31
0.0
  0
LINE
  5
34A
330
1F
100
AcDbEntity
  8
0
  6
Continuous
 62
     7
370
    35
100
AcDbLine
 10
247.2116929728
 20
120.6144349569
 30
0.0
 11
247.2116929728
 21
120.2266411037
 31
0.0
  0
LINE
  5
34B
330
1F
100
AcDbEntity
  8
0
  6
Continuous
 62
     7
370
    35
100
AcDbLine
 10
250.2164083628
 20
115.0217574262
 30
0.0
 11
250.5522294946
 21
114.8278289859
 31
0.0
  0
LINE
  5
34C
330
1F
100
AcDbEntity
  8
0
  6
Continuous
 62
     7
370
    35
100
AcDbLine
 10
221.7558488501
 20
164.7052501976
 30
0.0
 11
221.7558488501
 21
164.3174563444
 31
0.0
  0
LINE
  5
34D
330
1F
100
AcDbEntity
  8
0
  6
Continuous
 62
     7
370
    35
100
AcDbLine
 10
224.76056424
 20
159.1125726669
 30
0.0
 11
225.0963853718
 21
158.9186442266
 31
0.0
  0
LINE
  5
34E
330
1F
100
AcDbEntity
  8
0
  6
Continuous
 62
     7
370
    35
100
AcDbLine
 10
244.8626549623
 20
122.7344566674
 30
0.0
 11
242.939833426
 21
123.8444779129
 31
0.0
  0
LINE
  5
34F
330
1F
100
AcDbEntity
  8
0
  6
Continuous
 62
     7
370
    35
100
AcDbLine
 10
242.2320228173
 20
124.2530882798
 30
0.0
 11
240.8959952435
 21
125.0243605811
 31
0.0
  0
LINE
  5
350
330
1F
100
AcDbEntity
  8
0
  6
Continuous
 62
     7
370
    35
100
AcDbLine
 10
239.1794650915
 20
124.2832884536
 30
0.0
 11
241.4112839547
 21
122.9948868483
 31
0.0
  0
LINE
  5
351
330
1F
100
AcDbEntity
  8
0
  6
Continuous
 62
     7
370
    35
100
AcDbLine
 10
242.1100884024
 20
122.5914756275
 30
0.0
 11
246.2505329034
 21
120.2012478945
 31
0.0
  0
LINE
  5
352
330
1F
100
AcDbEntity
  8
0
  6
Continuous
 62
     7
370
    35
100
AcDbLine
 10
224.2585400436
 20
158.2566320692
 30
0.0
 11
224.2585400436
 21
153.612416021
 31
0.0
  0
LINE
  5
353
330
1F
100
AcDbEntity
  8
0
  6
Continuous
 62
     7
370
    35
100
AcDbLine
 10
224.2585400436
 20
152.6595395004
 30
0.0
 11
224.2585400436
 21
150.0912239503
 31
0.0
  0
LINE
  5
354
330
1F
100
AcDbEntity
  8
0
  6
Continuous
 62
     7
370
    35
100
AcDbLine
 10
225.7585400436
 20
151.2433266626
 30
0.0
 11
225.7585400436
 21
152.2776957845
 31
0.0
  0
LINE
  5
355
330
1F
100
AcDbEntity
  8
0
  6
Continuous
 62
     7
370
    35
100
AcDbLine
 10
225.7585400436
 20
153.0775493358
 30
0.0
 11
225.7585400436
 21
155.8238147811
 31
0.0
  0
LINE
  5
356
330
1F
100
AcDbEntity
  8
0
  6
Continuous
 62
     7
370
    35
100
AcDbLine
 10
262.7625945368
 20
117.9898273348
 30
0.0
 11
268.4194487863
 21
121.2554597821
 31
0.0
  0
LINE
  5
357
330
1F
100
AcDbEntity
  8
0
  6
Continuous
 62
     7
370
    35
100
AcDbLine
 10
236.2569854866
 20
176.9636062392
 30
0.0
 11
230.6001312371
 21
173.6979737919
 31
0.0
  0
LINE
  5
358
330
1F
100
AcDbEntity
  8
0
  6
Continuous
 62
     7
370
    35
100
AcDbLine
 10
246.7421043261
 20
141.6556461267
 30
0.0
 11
243.9136772014
 21
140.0228299031
 31
0.0
  0
LINE
  5
359
330
1F
100
AcDbEntity
  8
0
  6
Continuous
 62
     7
370
    35
100
AcDbLine
 10
240.2566604171
 20
146.3565933959
 30
0.0
 11
243.0850875419
 21
147.9894096196
 31
0.0
  0
LINE
  5
35A
330
1F
100
AcDbEntity
  8
0
  6
Continuous
 62
     7
370
    35
100
AcDbLine
 10
249.5705314508
 20
143.2884623504
 30
0.0
 11
248.8634246697
 21
142.8802582945
 31
0.0
  0
LINE
  5
35B
330
1F
100
AcDbEntity
  8
0
  6
Continuous
 62
     7
370
    35
100
AcDbLine
 10
245.2064078854
 20
149.2140217873
 30
0.0
 11
245.9135146666
 21
149.6222258432
 31
0.0
  0
LINE
  5
35C
330
1F
100
AcDbEntity
  8
0
  6
Continuous
 62
     7
370
    35
100
AcDbLine
 10
253.7166123571
 20
112.4294318295
 30
0.0
 11
260.787680169
 21
116.5114723886
 31
0.0
  0
LINE
  5
35D
330
1F
100
AcDbEntity
  8
0
  6
Continuous
 62
     7
370
    35
100
AcDbLine
 10
228.3324049178
 20
172.7269717026
 30
0.0
 11
221.2613371059
 21
168.6449311435
 31
0.0
  0
LWPOLYLINE
  5
35E
330
1F
100
AcDbEntity
  8
0
  6
Continuous
 62
     7
370
    35
100
AcDbPolyline
 90
       23
 70
   128
 43
0.0
 10
239.7717220234
 20
149.3866951225
 10
239.5608654653
 20
149.6444157706
 10
239.3253706072
 20
149.8422521403
 10
239.0843158419
 20
149.9641767054
 10
238.857229993
 20
150.0003118628
 10
238.6625102053
 20
149.9477301569
 10
238.515931518
 20
149.8106914449
 10
238.4293688646
 20
149.6002977882
 10
238.4098350366
 20
149.3335940296
 10
238.4589125484
 20
149.0321869214
 10
238.5726254319
 20
148.7204946751
 10
238.7417613456
 20
148.4237687427
 10
238.9526179037
 20
148.1660480946
 10
239.1881127618
 20
147.9682117249
 10
239.4291675271
 20
147.8462871598
 10
239.656253376
 20
147.8101520024
 10
239.8509731637
 20
147.8627337082
 10
239.997551851
 20
147.9997724203
 10
240.0841145044
 20
148.210166077
 10
240.1036483324
 20
148.4768698356
 10
240.0545708206
 20
148.7782769438
 10
239.9408579371
 20
149.0899691901
 10
239.7717220234
 20
149.3866951225
  0
LWPOLYLINE
  5
35F
330
1F
100
AcDbEntity
  8
0
  6
Continuous
 62
     7
370
    35
100
AcDbPolyline
 90
       10
 70
   128
 43
0.0
 10
244.0371893867
 20
149.9329217577
 10
244.1302317007
 20
150.0020019092
 10
244.2681162067
 20
150.199677713
 10
244.3391563247
 20
150.4677042374
 10
244.338510788
 20
150.7878159178
 10
244.2662235888
 20
151.138197672
 10
244.1272209804
 20
151.4949715627
 10
243.9309757608
 20
151.8338240386
 10
243.6908617174
 20
152.1316628637
 10
243.4993823716
 20
152.3095988405
  0
LINE
  5
360
330
1F
100
AcDbEntity
  8
0
  6
Continuous
 62
     7
370
    35
100
AcDbLine
 10
239.8219521548
 20
148.8510779904
 30
0.0
 11
239.3352566377
 21
149.5612148621
 31
0.0
  0
LINE
  5
361
330
1F
100
AcDbEntity
  8
0
  6
Continuous
 62
     7
370
    35
100
AcDbLine
 10
239.3352566377
 20
149.5612148621
 30
0.0
 11
238.7700461674
 21
149.6153688043
 31
0.0
  0
LINE
  5
362
330
1F
100
AcDbEntity
  8
0
  6
Continuous
 62
     7
370
    35
100
AcDbLine
 10
238.7700461674
 20
149.6153688043
 30
0.0
 11
238.6915312142
 21
148.9593858748
 31
0.0
  0
LINE
  5
363
330
1F
100
AcDbEntity
  8
0
  6
Continuous
 62
     7
370
    35
100
AcDbLine
 10
238.6915312142
 20
148.9593858748
 30
0.0
 11
239.1782267312
 21
148.2492490031
 31
0.0
  0
LINE
  5
364
330
1F
100
AcDbEntity
  8
0
  6
Continuous
 62
     7
370
    35
100
AcDbLine
 10
239.1782267312
 20
148.2492490031
 30
0.0
 11
239.7434372016
 21
148.1950950609
 31
0.0
  0
LINE
  5
365
330
1F
100
AcDbEntity
  8
0
  6
Continuous
 62
     7
370
    35
100
AcDbLine
 10
239.7434372016
 20
148.1950950609
 30
0.0
 11
239.8219521548
 21
148.8510779904
 31
0.0
  0
LINE
  5
366
330
1F
100
AcDbEntity
  8
0
  6
Continuous
 62
     7
370
    35
100
AcDbLine
 10
239.792352475
 20
148.6037762486
 30
0.0
 11
239.1782267312
 21
148.2492490031
 31
0.0
  0
LINE
  5
367
330
1F
100
AcDbEntity
  8
0
  6
Continuous
 62
     7
370
    35
100
AcDbLine
 10
239.4483069859
 20
149.3962632286
 30
0.0
 11
238.6915312142
 21
148.9593858748
 31
0.0
  0
ARC
  5
368
330
1F
100
AcDbEntity
  8
0
  6
Continuous
 62
     7
370
    35
100
AcDbCircle
 10
242.544869053
 20
150.8034274582
 30
0.0
 40
1.804079257460568
100
AcDbArc
 50
1.9435144184
 51
58.0511090489
  0
LWPOLYLINE
  5
369
330
1F
100
AcDbEntity
  8
0
  6
Continuous
 62
     7
370
    35
100
AcDbPolyline
 90
       23
 70
   128
 43
0.0
 10
239.7717220234
 20
161.1448828136
 10
239.5608654653
 20
161.4026034618
 10
239.3253706072
 20
161.6004398314
 10
239.0843158419
 20
161.7223643965
 10
238.857229993
 20
161.7584995539
 10
238.6625102053
 20
161.7059178481
 10
238.515931518
 20
161.5688791361
 10
238.4293688646
 20
161.3584854794
 10
238.4098350366
 20
161.0917817207
 10
238.4589125484
 20
160.7903746126
 10
238.5726254319
 20
160.4786823663
 10
238.7417613456
 20
160.1819564339
 10
238.9526179037
 20
159.9242357857
 10
239.1881127618
 20
159.7263994161
 10
239.4291675271
 20
159.604474851
 10
239.656253376
 20
159.5683396936
 10
239.8509731637
 20
159.6209213994
 10
239.997551851
 20
159.7579601114
 10
240.0841145044
 20
159.9683537681
 10
240.1036483324
 20
160.2350575268
 10
240.0545708206
 20
160.5364646349
 10
239.9408579371
 20
160.8481568812
 10
239.7717220234
 20
161.1448828136
  0
LWPOLYLINE
  5
36A
330
1F
100
AcDbEntity
  8
0
  6
Continuous
 62
     7
370
    35
100
AcDbPolyline
 90
       14
 70
   128
 43
0.0
 10
244.0371893867
 20
161.6911094489
 10
244.1302317007
 20
161.7601896003
 10
244.2681162067
 20
161.9578654041
 10
244.3391563247
 20
162.2258919286
 10
244.338510788
 20
162.5460036089
 10
244.2662235888
 20
162.8963853632
 10
244.1272209804
 20
163.2531592538
 10
243.9309757608
 20
163.5920117298
 10
243.6908617174
 20
163.8898505549
 10
243.4232422254
 20
164.1263785053
 10
243.146355111
 20
164.2854765921
 10
242.8790697734
 20
164.3563025437
 10
242.6396012667
 20
164.3340296884
 10
242.5373112878
 20
164.289256036
  0
LINE
  5
36B
330
1F
100
AcDbEntity
  8
0
  6
Continuous
 62
     7
370
    35
100
AcDbLine
 10
239.8219521548
 20
160.6092656816
 30
0.0
 11
239.3352566377
 21
161.3194025533
 31
0.0
  0
LINE
  5
36C
330
1F
100
AcDbEntity
  8
0
  6
Continuous
 62
     7
370
    35
100
AcDbLine
 10
239.3352566377
 20
161.3194025533
 30
0.0
 11
238.7700461674
 21
161.3735564954
 31
0.0
  0
LINE
  5
36D
330
1F
100
AcDbEntity
  8
0
  6
Continuous
 62
     7
370
    35
100
AcDbLine
 10
238.7700461674
 20
161.3735564954
 30
0.0
 11
238.6915312142
 21
160.7175735659
 31
0.0
  0
LINE
  5
36E
330
1F
100
AcDbEntity
  8
0
  6
Continuous
 62
     7
370
    35
100
AcDbLine
 10
238.6915312142
 20
160.7175735659
 30
0.0
 11
239.1782267312
 21
160.0074366942
 31
0.0
  0
LINE
  5
36F
330
1F
100
AcDbEntity
  8
0
  6
Continuous
 62
     7
370
    35
100
AcDbLine
 10
239.1782267312
 20
160.0074366942
 30
0.0
 11
239.7434372016
 21
159.9532827521
 31
0.0
  0
LINE
  5
370
330
1F
100
AcDbEntity
  8
0
  6
Continuous
 62
     7
370
    35
100
AcDbLine
 10
239.7434372016
 20
159.9532827521
 30
0.0
 11
239.8219521548
 21
160.6092656816
 31
0.0
  0
LINE
  5
371
330
1F
100
AcDbEntity
  8
0
  6
Continuous
 62
     7
370
    35
100
AcDbLine
 10
239.792352475
 20
160.3619639398
 30
0.0
 11
239.1782267312
 21
160.0074366942
 31
0.0
  0
LINE
  5
372
330
1F
100
AcDbEntity
  8
0
  6
Continuous
 62
     7
370
    35
100
AcDbLine
 10
239.4483069859
 20
161.1544509197
 30
0.0
 11
238.6915312142
 21
160.7175735659
 31
0.0
  0
ARC
  5
373
330
1F
100
AcDbEntity
  8
0
  6
Continuous
 62
     7
370
    35
100
AcDbCircle
 10
242.544869053
 20
162.5616151493
 30
0.0
 40
1.804079257459968
100
AcDbArc
 50
1.9435144184
 51
58.0511090489
  0
LWPOLYLINE
  5
374
330
1F
100
AcDbEntity
  8
0
  6
Continuous
 62
     7
370
    35
100
AcDbPolyline
 90
       23
 70
   128
 43
0.0
 10
255.8694464018
 20
132.9428980681
 10
255.628431689
 20
133.0640680307
 10
255.4015627326
 20
133.0993891585
 10
255.2072191062
 20
133.0459999438
 10
255.0611453746
 20
132.9082256632
 10
254.9751755629
 20
132.6972279696
 10
254.9562744339
 20
132.4301006413
 10
255.0059732447
 20
132.1284847457
 10
255.1202456932
 20
131.816815409
 10
255.2898341051
 20
131.5203422271
 10
255.5009994361
 20
131.2630836942
 10
255.7366343267
 20
131.0658813665
 10
255.9776490395
 20
130.9447114039
 10
256.204517996
 20
130.9093902761
 10
256.3988616224
 20
130.9627794908
 10
256.5449353539
 20
131.1005537714
 10
256.6309051656
 20
131.311551465
 10
256.6498062946
 20
131.5786787933
 10
256.6001074838
 20
131.8802946889
 10
256.4858350354
 20
132.1919640256
 10
256.3162466234
 20
132.4884372075
 10
256.1050812925
 20
132.7456957404
 10
255.8694464018
 20
132.9428980681
  0
LWPOLYLINE
  5
375
330
1F
100
AcDbEntity
  8
0
  6
Continuous
 62
     7
370
    35
100
AcDbPolyline
 90
       14
 70
   128
 43
0.0
 10
260.5834880665
 20
133.0320795424
 10
260.7077866428
 20
133.1329268159
 10
260.833441897
 20
133.345306854
 10
260.8909561038
 20
133.6248706667
 10
260.8764097651
 20
133.9525664419
 10
260.7907941898
 20
134.3060622543
 10
260.6399439379
 20
134.6612679484
 10
260.4341392048
 20
134.9939768431
 10
260.1874052429
 20
135.2815153771
 10
259.916556564
 20
135.5042882744
 10
259.6400510579
 20
135.6471139304
 10
259.376732118
 20
135.7002590124
 10
259.1445444948
 20
135.6601017711
 10
259.0836099675
 20
135.6302261296
  0
LINE
  5
376
330
1F
100
AcDbEntity
  8
0
  6
Continuous
 62
     7
370
    35
100
AcDbLine
 10
256.1497912708
 20
132.3870713362
 30
0.0
 11
255.5392970047
 21
132.7948435368
 31
0.0
  0
LINE
  5
377
330
1F
100
AcDbEntity
  8
0
  6
Continuous
 62
     7
370
    35
100
AcDbLine
 10
255.5392970047
 20
132.7948435368
 30
0.0
 11
255.1925460981
 21
132.4121619179
 31
0.0
  0
LINE
  5
378
330
1F
100
AcDbEntity
  8
0
  6
Continuous
 62
     7
370
    35
100
AcDbLine
 10
255.1925460981
 20
132.4121619179
 30
0.0
 11
255.4562894577
 21
131.6217080984
 31
0.0
  0
LINE
  5
379
330
1F
100
AcDbEntity
  8
0
  6
Continuous
 62
     7
370
    35
100
AcDbLine
 10
255.4562894577
 20
131.6217080984
 30
0.0
 11
256.0667837239
 21
131.2139358978
 31
0.0
  0
LINE
  5
37A
330
1F
100
AcDbEntity
  8
0
  6
Continuous
 62
     7
370
    35
100
AcDbLine
 10
256.0667837239
 20
131.2139358978
 30
0.0
 11
256.4135346304
 21
131.5966175167
 31
0.0
  0
LINE
  5
37B
330
1F
100
AcDbEntity
  8
0
  6
Continuous
 62
     7
370
    35
100
AcDbLine
 10
256.4135346304
 20
131.5966175167
 30
0.0
 11
256.1497912708
 21
132.3870713362
 31
0.0
  0
LINE
  5
37C
330
1F
100
AcDbEntity
  8
0
  6
Continuous
 62
     7
370
    35
100
AcDbLine
 10
255.6858620877
 20
132.6969471769
 30
0.0
 11
255.1925460981
 21
132.4121619179
 31
0.0
  0
LINE
  5
37D
330
1F
100
AcDbEntity
  8
0
  6
Continuous
 62
     7
370
    35
100
AcDbLine
 10
256.25191158
 20
132.081010973
 30
0.0
 11
255.4562894577
 21
131.6217080984
 31
0.0
  0
ARC
  5
37E
330
1F
100
AcDbEntity
  8
0
  6
Continuous
 62
     7
370
    35
100
AcDbCircle
 10
259.0909556947
 20
133.902462836
 30
0.0
 40
1.804295328480722
100
AcDbArc
 50
1.9471708851
 51
58.0474525822
  0
LWPOLYLINE
  5
37F
330
1F
100
AcDbEntity
  8
0
  6
Continuous
 62
     7
370
    35
100
AcDbPolyline
 90
       23
 70
   128
 43
0.0
 10
246.135683054
 20
138.3639913123
 10
245.924826496
 20
138.6217119604
 10
245.6893316379
 20
138.8195483301
 10
245.4482768726
 20
138.9414728952
 10
245.2211910236
 20
138.9776080526
 10
245.0264712359
 20
138.9250263468
 10
244.8798925487
 20
138.7879876348
 10
244.7933298953
 20
138.577593978
 10
244.7737960672
 20
138.3108902194
 10
244.822873579
 20
138.0094831113
 10
244.9365864626
 20
137.6977908649
 10
245.1057223763
 20
137.4010649325
 10
245.3165789344
 20
137.1433442844
 10
245.5520737925
 20
136.9455079147
 10
245.7931285578
 20
136.8235833496
 10
246.0202144067
 20
136.7874481922
 10
246.2149341944
 20
136.8400298981
 10
246.3615128817
 20
136.9770686101
 10
246.448075535
 20
137.1874622668
 10
246.4676093631
 20
137.4541660254
 10
246.4185318513
 20
137.7555731336
 10
246.3048189678
 20
138.0672653799
 10
246.135683054
 20
138.3639913123
  0
LWPOLYLINE
  5
380
330
1F
100
AcDbEntity
  8
0
  6
Continuous
 62
     7
370
    35
100
AcDbPolyline
 90
       10
 70
   128
 43
0.0
 10
250.6904019564
 20
139.8545671175
 10
250.6301846195
 20
140.1154938618
 10
250.4911820111
 20
140.4722677525
 10
250.2949367915
 20
140.8111202285
 10
250.0548227481
 20
141.1089590535
 10
249.7872032561
 20
141.345487004
 10
249.5103161417
 20
141.5045850908
 10
249.2430308041
 20
141.5754110423
 10
249.0035622974
 20
141.5531381871
 10
248.9012723185
 20
141.5083645347
  0
LINE
  5
381
330
1F
100
AcDbEntity
  8
0
  6
Continuous
 62
     7
370
    35
100
AcDbLine
 10
246.1859131855
 20
137.8283741802
 30
0.0
 11
245.6992176684
 21
138.5385110519
 31
0.0
  0
LINE
  5
382
330
1F
100
AcDbEntity
  8
0
  6
Continuous
 62
     7
370
    35
100
AcDbLine
 10
245.6992176684
 20
138.5385110519
 30
0.0
 11
245.1340071981
 21
138.5926649941
 31
0.0
  0
LINE
  5
383
330
1F
100
AcDbEntity
  8
0
  6
Continuous
 62
     7
370
    35
100
AcDbLine
 10
245.1340071981
 20
138.5926649941
 30
0.0
 11
245.0554922448
 21
137.9366820646
 31
0.0
  0
LINE
  5
384
330
1F
100
AcDbEntity
  8
0
  6
Continuous
 62
     7
370
    35
100
AcDbLine
 10
245.0554922448
 20
137.9366820646
 30
0.0
 11
245.5421877619
 21
137.2265451929
 31
0.0
  0
LINE
  5
385
330
1F
100
AcDbEntity
  8
0
  6
Continuous
 62
     7
370
    35
100
AcDbLine
 10
245.5421877619
 20
137.2265451929
 30
0.0
 11
246.1073982323
 21
137.1723912507
 31
0.0
  0
LINE
  5
386
330
1F
100
AcDbEntity
  8
0
  6
Continuous
 62
     7
370
    35
100
AcDbLine
 10
246.1073982323
 20
137.1723912507
 30
0.0
 11
246.1859131855
 21
137.8283741802
 31
0.0
  0
LINE
  5
387
330
1F
100
AcDbEntity
  8
0
  6
Continuous
 62
     7
370
    35
100
AcDbLine
 10
246.1563135057
 20
137.5810724384
 30
0.0
 11
245.5421877619
 21
137.2265451929
 31
0.0
  0
LINE
  5
388
330
1F
100
AcDbEntity
  8
0
  6
Continuous
 62
     7
370
    35
100
AcDbLine
 10
245.8122680166
 20
138.3735594184
 30
0.0
 11
245.0554922448
 21
137.9366820646
 31
0.0
  0
ARC
  5
389
330
1F
100
AcDbEntity
  8
0
  6
Continuous
 62
     7
370
    35
100
AcDbCircle
 10
248.9088300836
 20
139.780723648
 30
0.0
 40
1.804079257459571
100
AcDbArc
 50
1.9435144184
 51
58.0511090489
  0
LWPOLYLINE
  5
38A
330
1F
100
AcDbEntity
  8
0
  6
Continuous
 62
     7
370
    35
100
AcDbPolyline
 90
       36
 70
   128
 43
0.0
 10
222.8769720469
 20
159.0457081789
 10
222.8428815562
 20
158.6279912247
 10
222.7417057807
 20
158.2630600798
 10
222.5766965931
 20
157.9626439315
 10
222.3531575243
 20
157.7363984019
 10
222.078273304
 20
157.5915952085
 10
221.7608789372
 20
157.5328884451
 10
221.41117574
 20
157.5621649954
 10
221.0404034609
 20
157.678483887
 10
220.660479026
 20
157.878106535
 10
220.2836135192
 20
158.1546169031
 10
219.9219197081
 20
158.4991277208
 10
219.5870227293
 20
158.9005661268
 10
219.2896864473
 20
159.3460295605
 10
219.0394674948
 20
159.8212004605
 10
218.8444081149
 20
160.3108064432
 10
218.7107776765
 20
160.7991111695
 10
218.6428711718
 20
161.2704201236
 10
218.6428711718
 20
161.7095850481
 10
218.7107776765
 20
162.1024908207
 10
218.8444081149
 20
162.4365091269
 10
219.0394674948
 20
162.7009043432
 10
219.2896864473
 20
162.8871785901
 10
219.5870227293
 20
162.9893448598
 10
219.9219197081
 20
163.0041194445
 10
220.2836135192
 20
162.9310274768
 10
220.660479026
 20
162.7724181927
 10
221.0404034609
 20
162.5333894251
 10
221.41117574
 20
162.2216237552
 10
221.7608789372
 20
161.8471415883
 10
222.078273304
 20
161.4219790892
 10
222.3531575243
 20
160.9598013306
 10
222.5766965931
 20
160.4754630858
 10
222.7417057807
 20
159.9845313846
 10
222.8428815562
 20
159.5027851758
 10
222.8769720469
 20
159.0457081789
  0
LINE
  5
38B
330
1F
100
AcDbEntity
  8
0
  6
Continuous
 62
     7
370
    35
100
AcDbLine
 10
221.1638999938
 20
159.2181028132
 30
0.0
 11
221.5721482842
 21
159.7989669035
 31
0.0
  0
LINE
  5
38C
330
1F
100
AcDbEntity
  8
0
  6
Continuous
 62
     7
370
    35
100
AcDbLine
 10
221.5721482842
 20
159.7989669035
 30
0.0
 11
221.1638999938
 21
160.851184437
 31
0.0
  0
LINE
  5
38D
330
1F
100
AcDbEntity
  8
0
  6
Continuous
 62
     7
370
    35
100
AcDbLine
 10
221.1638999938
 20
160.851184437
 30
0.0
 11
220.3474034128
 21
161.3225378801
 31
0.0
  0
LINE
  5
38E
330
1F
100
AcDbEntity
  8
0
  6
Continuous
 62
     7
370
    35
100
AcDbLine
 10
220.3474034128
 20
161.3225378801
 30
0.0
 11
219.9391551224
 21
160.7416737898
 31
0.0
  0
LINE
  5
38F
330
1F
100
AcDbEntity
  8
0
  6
Continuous
 62
     7
370
    35
100
AcDbLine
 10
219.9391551224
 20
160.7416737898
 30
0.0
 11
220.3474034128
 21
159.6894562563
 31
0.0
  0
LINE
  5
390
330
1F
100
AcDbEntity
  8
0
  6
Continuous
 62
     7
370
    35
100
AcDbLine
 10
220.3474034128
 20
159.6894562563
 30
0.0
 11
221.1638999938
 21
159.2181028132
 31
0.0
  0
LINE
  5
391
330
1F
100
AcDbEntity
  8
0
  6
Continuous
 62
     7
370
    35
100
AcDbLine
 10
220.6463768376
 20
161.1499441957
 30
0.0
 11
219.9391551224
 21
160.7416737898
 31
0.0
  0
LINE
  5
392
330
1F
100
AcDbEntity
  8
0
  6
Continuous
 62
     7
370
    35
100
AcDbLine
 10
221.3827411799
 20
160.2871440271
 30
0.0
 11
220.3474034128
 21
159.6894562563
 31
0.0
  0
LWPOLYLINE
  5
393
330
1F
100
AcDbEntity
  8
0
  6
Continuous
 62
     7
370
    35
100
AcDbPolyline
 90
       36
 70
   128
 43
0.0
 10
246.1031805319
 20
118.6884612717
 10
246.4832034898
 20
118.4520972275
 10
246.8544935398
 20
118.1426902025
 10
247.2051171143
 20
117.7701847933
 10
247.523804883
 20
117.34655363
 10
247.8003139588
 20
116.885412567
 10
248.0257571126
 20
116.4015830573
 10
248.1928884158
 20
115.9106157796
 10
248.2963361309
 20
115.428290826
 10
248.3327753632
 20
114.9701105175
 10
248.3010349258
 20
114.5508011462
 10
248.2021349824
 20
114.1838396602
 10
248.0392542587
 20
113.8810205037
 10
247.817627875
 20
113.6520765336
 10
247.5443790857
 20
113.5043661973
 10
247.2282903318
 20
113.4426370266
 10
246.8795209658
 20
113.4688730479
 10
246.5092807222
 20
113.5822310139
 10
246.129469427
 20
113.7790675063
 10
245.7522945278
 20
114.0530560382
 10
245.3898787361
 20
114.3953903927
 10
245.0538703937
 20
114.7950676622
 10
244.7550690852
 20
115.2392418902
 10
244.5030785305
 20
115.7136369516
 10
244.3059979134
 20
116.2030053988
 10
244.170161567
 20
116.6916185272
 10
244.0999353834
 20
117.163771909
 10
244.0975764897
 20
117.6042901458
 10
244.1631607029
 20
117.9990146191
 10
244.2945800923
 20
118.3352585596
 10
244.4876107306
 20
118.6022148103
 10
244.7360484543
 20
118.7913031777
 10
245.0319082706
 20
118.8964462061
 10
245.3656810014
 20
118.914264512
 10
245.7266389166
 20
118.8441854005
 10
246.1031805319
 20
118.6884612717
  0
LINE
  5
394
330
1F
100
AcDbEntity
  8
0
  6
Continuous
 62
     7
370
    35
100
AcDbLine
 10
246.8968349486
 20
116.296375197
 30
0.0
 11
246.1698052499
 21
117.1452027844
 31
0.0
  0
LINE
  5
395
330
1F
100
AcDbEntity
  8
0
  6
Continuous
 62
     7
370
    35
100
AcDbLine
 10
246.1698052499
 20
117.1452027844
 30
0.0
 11
245.4844661272
 21
117.0283326934
 31
0.0
  0
LINE
  5
396
330
1F
100
AcDbEntity
  8
0
  6
Continuous
 62
     7
370
    35
100
AcDbLine
 10
245.4844661272
 20
117.0283326934
 30
0.0
 11
245.5261567034
 21
116.0626350149
 31
0.0
  0
LINE
  5
397
330
1F
100
AcDbEntity
  8
0
  6
Continuous
 62
     7
370
    35
100
AcDbLine
 10
245.5261567034
 20
116.0626350149
 30
0.0
 11
246.2531864022
 21
115.2138074275
 31
0.0
  0
LINE
  5
398
330
1F
100
AcDbEntity
  8
0
  6
Continuous
 62
     7
370
    35
100
AcDbLine
 10
246.2531864022
 20
115.2138074275
 30
0.0
 11
246.9385255248
 21
115.3306775186
 31
0.0
  0
LINE
  5
399
330
1F
100
AcDbEntity
  8
0
  6
Continuous
 62
     7
370
    35
100
AcDbLine
 10
246.9385255248
 20
115.3306775186
 30
0.0
 11
246.8968349486
 21
116.296375197
 31
0.0
  0
LINE
  5
39A
330
1F
100
AcDbEntity
  8
0
  6
Continuous
 62
     7
370
    35
100
AcDbLine
 10
246.9267833566
 20
115.6026666722
 30
0.0
 11
246.2531864022
 21
115.2138074275
 31
0.0
  0
LINE
  5
39B
330
1F
100
AcDbEntity
  8
0
  6
Continuous
 62
     7
370
    35
100
AcDbLine
 10
246.5772966174
 20
116.6694451709
 30
0.0
 11
245.5261567034
 21
116.0626350149
 31
0.0
  0
ARC
  5
39C
330
1F
100
AcDbEntity
  8
0
  6
Continuous
 62
     7
370
    35
100
AcDbCircle
 10
249.5906805362
 20
120.8507863616
 30
0.0
 40
2.39069944010931
100
AcDbArc
 50
128.2063591182
 51
185.6736931676
  0
ARC
  5
39D
330
1F
100
AcDbEntity
  8
0
  6
Continuous
 62
     7
370
    35
100
AcDbCircle
 10
251.9465678552
 20
116.7695892807
 30
0.0
 40
2.390525571223746
100
AcDbArc
 50
234.3186455806
 51
291.7905490729
  0
LWPOLYLINE
  5
39E
330
1F
100
AcDbEntity
  8
0
  6
Continuous
 62
     7
370
    35
100
AcDbPolyline
 90
       12
 70
   128
 43
0.0
 10
250.2168967929
 20
121.9620723166
 10
249.7581545808
 20
122.1862281315
 10
249.3101648974
 20
122.3237890696
 10
248.8834282411
 20
122.3715308193
 10
248.4879469575
 20
122.3283343542
 10
248.1329907926
 20
122.1952121631
 10
247.8268796181
 20
121.9752845172
 10
247.5767884205
 20
121.673706334
 10
247.3885791255
 20
121.2975463508
 10
247.2666631995
 20
120.8556214385
 10
247.2138982484
 20
120.3582899427
 10
247.2116929728
 20
120.2266411037
  0
LWPOLYLINE
  5
39F
330
1F
100
AcDbEntity
  8
0
  6
Continuous
 62
     7
370
    35
100
AcDbPolyline
 90
       23
 70
   128
 43
0.0
 10
250.2164083628
 20
115.0217574262
 10
250.4469428999
 20
114.8988551704
 10
250.9016430283
 20
114.7174645578
 10
251.3402932852
 20
114.6245405564
 10
251.7526120805
 20
114.6222612261
 10
252.128935011
 20
114.7106799924
 10
252.4604413863
 20
114.8877243944
 10
252.7393609779
 20
115.1492446614
 10
252.9591561469
 20
115.48911098
 10
253.1146750809
 20
115.8993571716
 10
253.2022725479
 20
116.3703674134
 10
253.2198953374
 20
116.8911016243
 10
253.1671303863
 20
117.449354236
 10
253.0452144603
 20
118.0320402803
 10
252.8570051653
 20
118.6255020901
 10
252.6069139677
 20
119.2158294238
 10
252.3008027932
 20
119.7891855088
 10
251.9458466283
 20
120.3321313646
 10
251.5503653447
 20
120.8319408005
 10
251.1236286884
 20
121.2768987068
 10
250.6756390049
 20
121.6565756474
 10
250.2168967929
 20
121.9620723166
 10
250.2168967929
 20
121.9620723166
  0
LWPOLYLINE
  5
3A0
330
1F
100
AcDbEntity
  8
0
  6
Continuous
 62
     7
370
    35
100
AcDbPolyline
 90
       15
 70
   128
 43
0.0
 10
250.2168967929
 20
120.9413963018
 10
250.5956731663
 20
120.6833669155
 10
250.9622753554
 20
120.3548979253
 10
251.3049204642
 20
119.9665465949
 10
251.612595597
 20
119.5307948555
 10
251.8754118219
 20
119.0616481266
 10
252.0849220091
 20
118.5741851701
 10
252.2343923288
 20
118.0840734465
 10
252.319018682
 20
117.6070655498
 10
252.336081108
 20
117.1584929064
 10
252.2850312065
 20
116.75277301
 10
252.1675097633
 20
116.402946032
 10
251.9872940142
 20
116.1202556993
 10
251.7501762417
 20
115.9137879117
 10
251.7167748918
 20
115.893627279
  0
ARC
  5
3A1
330
1F
100
AcDbEntity
  8
0
  6
Continuous
 62
     7
370
    35
100
AcDbCircle
 10
249.3391186733
 20
119.724669542
 30
0.0
 40
1.500306113837955
100
AcDbArc
 50
54.1923461835
 51
114.4971953874
  0
ARC
  5
3A2
330
1F
100
AcDbEntity
  8
0
  6
Continuous
 62
     7
370
    35
100
AcDbCircle
 10
224.1348364178
 20
164.9416016014
 30
0.0
 40
2.39069944438139
100
AcDbArc
 50
128.2063594464
 51
185.6736931375
  0
ARC
  5
3A3
330
1F
100
AcDbEntity
  8
0
  6
Continuous
 62
     7
370
    35
100
AcDbCircle
 10
226.4907237335
 20
160.8604045243
 30
0.0
 40
2.390525574087377
100
AcDbArc
 50
234.3186456007
 51
291.7905488529
  0
LWPOLYLINE
  5
3A4
330
1F
100
AcDbEntity
  8
0
  6
Continuous
 62
     7
370
    35
100
AcDbPolyline
 90
       12
 70
   128
 43
0.0
 10
224.7610526702
 20
166.0528875573
 10
224.3023104581
 20
166.2770433722
 10
223.8543207747
 20
166.4146043103
 10
223.4275841184
 20
166.4623460599
 10
223.0321028347
 20
166.4191495949
 10
222.6771466698
 20
166.2860274038
 10
222.3710354954
 20
166.0660997578
 10
222.1209442978
 20
165.7645215747
 10
221.9327350028
 20
165.3883615915
 10
221.8108190767
 20
164.9464366792
 10
221.7580541256
 20
164.4491051834
 10
221.7558488501
 20
164.3174563444
  0
LWPOLYLINE
  5
3A5
330
1F
100
AcDbEntity
  8
0
  6
Continuous
 62
     7
370
    35
100
AcDbPolyline
 90
       23
 70
   128
 43
0.0
 10
224.76056424
 20
159.1125726669
 10
224.9910987772
 20
158.9896704111
 10
225.4457989055
 20
158.8082797985
 10
225.8844491625
 20
158.7153557971
 10
226.2967679578
 20
158.7130764668
 10
226.6730908883
 20
158.8014952331
 10
227.0045972636
 20
158.9785396351
 10
227.2835168552
 20
159.2400599021
 10
227.5033120242
 20
159.5799262207
 10
227.6588309582
 20
159.9901724123
 10
227.7464284252
 20
160.4611826541
 10
227.7640512147
 20
160.981916865
 10
227.7112862636
 20
161.5401694767
 10
227.5893703376
 20
162.122855521
 10
227.4011610426
 20
162.7163173308
 10
227.151069845
 20
163.3066446645
 10
226.8449586705
 20
163.8800007495
 10
226.4900025056
 20
164.4229466053
 10
226.094521222
 20
164.9227560411
 10
225.6677845657
 20
165.3677139475
 10
225.2197948822
 20
165.7473908881
 10
224.7610526702
 20
166.0528875573
 10
224.7610526702
 20
166.0528875573
  0
LWPOLYLINE
  5
3A6
330
1F
100
AcDbEntity
  8
0
  6
Continuous
 62
     7
370
    35
100
AcDbPolyline
 90
       15
 70
   128
 43
0.0
 10
224.7610526702
 20
165.0322115425
 10
225.1398290436
 20
164.7741821562
 10
225.5064312327
 20
164.445713166
 10
225.8490763415
 20
164.0573618356
 10
226.1567514743
 20
163.6216100962
 10
226.4195676992
 20
163.1524633673
 10
226.6290778863
 20
162.6650004108
 10
226.7785482061
 20
162.1748886872
 10
226.8631745593
 20
161.6978807905
 10
226.8802369853
 20
161.2493081471
 10
226.8291870838
 20
160.8435882507
 10
226.7116656406
 20
160.4937612727
 10
226.5314498915
 20
160.2110709399
 10
226.294332119
 20
160.0046031524
 10
226.2609307691
 20
159.9844425197
  0
ARC
  5
3A7
330
1F
100
AcDbEntity
  8
0
  6
Continuous
 62
     7
370
    35
100
AcDbCircle
 10
223.8832745506
 20
163.8154847827
 30
0.0
 40
1.500306113838086
100
AcDbArc
 50
54.1923461835
 51
114.4971953874
  0
LINE
  5
3A8
330
1F
100
AcDbEntity
  8
0
  6
Continuous
 62
     7
370
    35
100
AcDbLine
 10
246.2413773578
 20
120.699255707
 30
0.0
 11
246.6772878405
 21
120.4476099418
 31
0.0
  0
LWPOLYLINE
  5
3A9
330
1F
100
AcDbEntity
  8
0
  6
Continuous
 62
     7
370
    35
100
AcDbPolyline
 90
        8
 70
   128
 43
0.0
 10
246.4487257328
 20
120.1713519821
 10
246.2784482087
 20
120.1873709951
 10
246.1560423878
 20
120.2948994455
 10
246.0983925919
 20
120.4791051551
 10
246.1134508752
 20
120.7145792957
 10
246.1991401395
 20
120.9688412127
 10
246.3436406436
 20
121.2068187176
 10
246.4280744391
 20
121.3051994954
  0
LWPOLYLINE
  5
3AA
330
1F
100
AcDbEntity
  8
0
  6
Continuous
 62
     7
370
    35
100
AcDbPolyline
 90
        8
 70
   128
 43
0.0
 10
239.1794650915
 20
124.2832884536
 10
239.0849745759
 20
124.3769400046
 10
239.0273247801
 20
124.5611457142
 10
239.0423830634
 20
124.7966198548
 10
239.1280723276
 20
125.0508817718
 10
239.2725728318
 20
125.2888592767
 10
239.4559525742
 20
125.4777264078
 10
239.4767467527
 20
125.4937759537
  0
LWPOLYLINE
  5
3AB
330
1F
100
AcDbEntity
  8
0
  6
Continuous
 62
     7
370
    35
100
AcDbPolyline
 90
        8
 70
   128
 43
0.0
 10
246.4929666543
 20
121.1964876726
 10
246.4682794136
 20
121.1707845478
 10
246.3421937131
 20
120.9949000907
 10
246.2608163611
 20
120.796273064
 10
246.2369893453
 20
120.606248378
 10
246.2744727566
 20
120.4548134263
 10
246.3673514171
 20
120.3658658379
 10
246.5009683422
 20
120.3534422435
  0
LINE
  5
3AC
330
1F
100
AcDbEntity
  8
0
  6
Continuous
 62
     7
370
    35
100
AcDbLine
 10
246.5009683422
 20
120.3534422435
 30
0.0
 11
246.4487257328
 21
120.1713519821
 31
0.0
  0
LINE
  5
3AD
330
1F
100
AcDbEntity
  8
0
  6
Continuous
 62
     7
370
    35
100
AcDbLine
 10
246.2612954198
 20
120.798034779
 30
0.0
 11
246.6810886053
 21
120.5556933313
 31
0.0
  0
LINE
  5
3AE
330
1F
100
AcDbEntity
  8
0
  6
Continuous
 62
     7
370
    35
100
AcDbLine
 10
246.2570918637
 20
120.4942291378
 30
0.0
 11
246.5009683422
 21
120.3534422435
 31
0.0
  0
LINE
  5
3AF
330
1F
100
AcDbEntity
  8
0
  6
Continuous
 62
     7
370
    35
100
AcDbLine
 10
224.3317633483
 20
158.4432249113
 30
0.0
 11
224.5079022657
 21
158.388098893
 31
0.0
  0
LWPOLYLINE
  5
3B0
330
1F
100
AcDbEntity
  8
0
  6
Continuous
 62
     7
370
    35
100
AcDbPolyline
 90
        8
 70
   128
 43
0.0
 10
224.5079022657
 20
158.388098893
 10
224.4587404725
 20
158.2652030263
 10
224.4963413857
 20
158.140954595
 10
224.6147712846
 20
158.034960981
 10
224.7953409978
 20
157.9639488121
 10
225.009555201
 20
157.9391243684
 10
225.2236092044
 20
157.9644051427
 10
225.259827504
 20
157.9742005165
  0
LWPOLYLINE
  5
3B1
330
1F
100
AcDbEntity
  8
0
  6
Continuous
 62
     7
370
    35
100
AcDbPolyline
 90
        8
 70
   128
 43
0.0
 10
225.3191562038
 20
157.862543831
 10
225.1759041871
 20
157.8345841163
 10
224.8975587924
 20
157.8284327615
 10
224.6345218459
 20
157.8813460399
 10
224.4230759394
 20
157.9860252397
 10
224.2923873391
 20
158.1280312002
 10
224.2604828706
 20
158.2877760105
 10
224.3317633483
 20
158.4432249113
  0
LINE
  5
3B2
330
1F
100
AcDbEntity
  8
0
  6
Continuous
 62
     7
370
    35
100
AcDbLine
 10
224.6853167389
 20
157.9997379377
 30
0.0
 11
224.6853167389
 21
158.5389093378
 31
0.0
  0
LWPOLYLINE
  5
3B3
330
1F
100
AcDbEntity
  8
0
  6
Continuous
 62
     7
370
    35
100
AcDbPolyline
 90
        8
 70
   128
 43
0.0
 10
225.4469233604
 20
149.7399216959
 10
225.4311638328
 20
149.7335434845
 10
225.1759041871
 20
149.6691759974
 10
224.8975587924
 20
149.6630246426
 10
224.6345218459
 20
149.7159379211
 10
224.4230759394
 20
149.8206171208
 10
224.2923873391
 20
149.9626230814
 10
224.2585400436
 20
150.0912239503
  0
LINE
  5
3B4
330
1F
100
AcDbEntity
  8
0
  6
Continuous
 62
     7
370
    35
100
AcDbLine
 10
224.5079022657
 20
158.1251652454
 30
0.0
 11
224.5079022657
 21
158.388098893
 31
0.0
  0
LINE
  5
3B5
330
1F
100
AcDbEntity
  8
0
  6
Continuous
 62
     7
370
    35
100
AcDbLine
 10
224.76464332
 20
157.9720494925
 30
0.0
 11
224.76464332
 21
158.4978016818
 31
0.0
  0
LWPOLYLINE
  5
3B6
330
1F
100
AcDbEntity
  8
0
  6
Continuous
 62
     7
370
    35
100
AcDbPolyline
 90
       23
 70
   128
 43
0.0
 10
245.6207027152
 20
136.8618521076
 10
245.869721467
 20
136.7594411923
 10
246.0985662004
 20
136.7480161009
 10
246.2886972763
 20
136.8285024263
 10
246.4247114055
 20
136.9943796451
 10
246.4955895323
 20
137.2322093714
 10
246.4955895323
 20
137.5227240554
 10
246.4247114055
 20
137.842387925
 10
246.2886972763
 20
138.1653037147
 10
246.0985662004
 20
138.4653107077
 10
245.869721467
 20
138.7181041215
 10
245.6207027152
 20
138.9032041373
 10
245.3716839634
 20
139.0056150525
 10
245.1428392299
 20
139.0170401439
 10
244.952708154
 20
138.9365538185
 10
244.8166940248
 20
138.7706765998
 10
244.745815898
 20
138.5328468734
 10
244.745815898
 20
138.2423321894
 10
244.8166940248
 20
137.9226683198
 10
244.952708154
 20
137.5997525301
 10
245.1428392299
 20
137.2997455371
 10
245.3716839634
 20
137.0469521233
 10
245.6207027152
 20
136.8618521076
  0
LWPOLYLINE
  5
3B7
330
1F
100
AcDbEntity
  8
0
  6
Continuous
 62
     7
370
    35
100
AcDbPolyline
 90
        8
 70
   128
 43
0.0
 10
235.8333689686
 20
167.7194632019
 10
235.9194310833
 20
167.7502764278
 10
236.0343921951
 20
167.882589469
 10
236.0747611692
 20
168.0936424368
 10
236.0343921951
 20
168.3513044299
 10
235.9194310833
 20
168.6163487456
 10
235.7473796208
 20
168.8484247895
 10
235.5444310833
 20
169.0122010876
  0
LINE
  5
3B8
330
1F
100
AcDbEntity
  8
0
  6
Continuous
 62
     7
370
    35
100
AcDbLine
 10
235.5444310833
 20
169.0122010876
 30
0.0
 11
234.8943475307
 21
169.3874863343
 31
0.0
  0
ARC
  5
3B9
330
1F
100
AcDbEntity
  8
0
  6
Continuous
 62
     7
370
    35
100
AcDbCircle
 10
242.6372336368
 20
138.9672858964
 30
0.0
 40
0.8734183948569637
100
AcDbArc
 50
230.7967147643
 51
9.2140369905
  0
ARC
  5
3BA
330
1F
100
AcDbEntity
  8
0
  6
Continuous
 62
     7
370
    35
100
AcDbCircle
 10
244.3615311065
 20
139.246994684
 30
0.0
 40
0.8734183948569962
100
AcDbArc
 50
50.7967147643
 51
189.2140369905
  0
LINE
  5
3BB
330
1F
100
AcDbEntity
  8
0
  6
Continuous
 62
     7
370
    35
100
AcDbLine
 10
256.227304433
 20
133.3925489075
 30
0.0
 11
244.913595934
 21
139.9238138021
 31
0.0
  0
ARC
  5
3BC
330
1F
100
AcDbEntity
  8
0
  6
Continuous
 62
     7
370
    35
100
AcDbCircle
 10
254.5710857926
 20
130.8033374674
 30
0.0
 40
3.073609615144199
100
AcDbArc
 50
2.6054784857
 51
57.39452166
  0
ARC
  5
3BD
330
1F
100
AcDbEntity
  8
0
  6
Continuous
 62
     7
370
    35
100
AcDbCircle
 10
260.7119501981
 20
131.0827808764
 30
0.0
 40
3.073609615144052
100
AcDbArc
 50
182.6054784857
 51
237.39452166
  0
LINE
  5
3BE
330
1F
100
AcDbEntity
  8
0
  6
Continuous
 62
     7
370
    35
100
AcDbLine
 10
262.5912654637
 20
126.4525491568
 30
0.0
 11
259.0557315577
 21
128.4935694363
 31
0.0
  0
ARC
  5
3BF
330
1F
100
AcDbEntity
  8
0
  6
Continuous
 62
     7
370
    35
100
AcDbCircle
 10
260.9350468233
 20
123.8633377167
 30
0.0
 40
3.073609615144521
100
AcDbArc
 50
2.6054784857
 51
57.39452166
  0
LINE
  5
3C0
330
1F
100
AcDbEntity
  8
0
  6
Continuous
 62
     7
370
    35
100
AcDbLine
 10
264.005479026
 20
120.7368961736
 30
0.0
 11
264.005479026
 21
124.0030594212
 31
0.0
  0
ARC
  5
3C1
330
1F
100
AcDbEntity
  8
0
  6
Continuous
 62
     7
370
    35
100
AcDbCircle
 10
261.421804695
 20
120.3010716214
 30
0.0
 40
2.620174820327233
100
AcDbArc
 50
279.3332676555
 51
9.574746738
  0
LWPOLYLINE
  5
3C2
330
1F
100
AcDbEntity
  8
0
  6
Continuous
 62
     7
370
    35
100
AcDbPolyline
 90
       10
 70
   128
 43
0.0
 10
233.599887435
 20
173.4009254889
 10
233.0461117012
 20
173.6786996963
 10
232.5018112237
 20
173.8678936719
 10
231.9762991346
 20
173.9652702543
 10
231.4785670914
 20
173.9691633033
 10
231.0171314275
 20
173.8795062076
 10
230.599887435
 20
173.6978330251
 10
230.2339742742
 20
173.4272522342
 10
229.9256528208
 20
173.0723935473
 10
229.9046023319
 20
173.0419515529
  0
LINE
  5
3C3
330
1F
100
AcDbEntity
  8
0
  6
Continuous
 62
     7
370
    35
100
AcDbLine
 10
236.4283145598
 20
171.7681092653
 30
0.0
 11
233.599887435
 21
173.4009254889
 31
0.0
  0
ARC
  5
3C4
330
1F
100
AcDbEntity
  8
0
  6
Continuous
 62
     7
370
    35
100
AcDbCircle
 10
234.7720959194
 20
169.1788978252
 30
0.0
 40
3.073609615144402
100
AcDbArc
 50
2.6054784857
 51
57.39452166
  0
LINE
  5
3C5
330
1F
100
AcDbEntity
  8
0
  6
Continuous
 62
     7
370
    35
100
AcDbLine
 10
237.8425281221
 20
165.2359154702
 30
0.0
 11
237.8425281221
 21
169.3186195297
 31
0.0
  0
ARC
  5
3C6
330
1F
100
AcDbEntity
  8
0
  6
Continuous
 62
     7
370
    35
100
AcDbCircle
 10
240.9129603249
 20
165.3756371748
 30
0.0
 40
3.073609615144242
100
AcDbArc
 50
182.6054784857
 51
237.39452166
  0
ARC
  5
3C7
330
1F
100
AcDbEntity
  8
0
  6
Continuous
 62
     7
370
    35
100
AcDbCircle
 10
237.6005230441
 20
160.1972142945
 30
0.0
 40
3.073609615144054
100
AcDbArc
 50
2.6054784857
 51
57.39452166
  0
LINE
  5
3C8
330
1F
100
AcDbEntity
  8
0
  6
Continuous
 62
     7
370
    35
100
AcDbLine
 10
240.6709552469
 20
147.2722830089
 30
0.0
 11
240.6709552469
 21
160.3369359991
 31
0.0
  0
ARC
  5
3C9
330
1F
100
AcDbEntity
  8
0
  6
Continuous
 62
     7
370
    35
100
AcDbCircle
 10
239.808806512
 20
147.1324286151
 30
0.0
 40
0.8734183948569728
100
AcDbArc
 50
230.7967147643
 51
9.2140369905
  0
ARC
  5
3CA
330
1F
100
AcDbEntity
  8
0
  6
Continuous
 62
     7
370
    35
100
AcDbCircle
 10
238.704676857
 20
145.7787903788
 30
0.0
 40
0.8734183948570107
100
AcDbArc
 50
50.7967147643
 51
189.2140369905
  0
LINE
  5
3CB
330
1F
100
AcDbEntity
  8
0
  6
Continuous
 62
     7
370
    35
100
AcDbLine
 10
237.8425281221
 20
143.6034065041
 30
0.0
 11
237.8425281221
 21
145.638935985
 31
0.0
  0
ARC
  5
3CC
330
1F
100
AcDbEntity
  8
0
  6
Continuous
 62
     7
370
    35
100
AcDbCircle
 10
236.6474321481
 20
143.5476075143
 30
0.0
 40
1.196397891301617
100
AcDbArc
 50
325.2455704323
 51
2.6731966163
  0
ARC
  5
3CD
330
1F
100
AcDbEntity
  8
0
  6
Continuous
 62
     7
370
    35
100
AcDbCircle
 10
239.9167594587
 20
141.9373443945
 30
0.0
 40
2.467609117670819
100
AcDbArc
 50
157.9032633873
 51
262.0967367583
  0
ARC
  5
3CE
330
1F
100
AcDbEntity
  8
0
  6
Continuous
 62
     7
370
    35
100
AcDbCircle
 10
239.6767847725
 20
138.3012293234
 30
0.0
 40
1.196075349551654
100
AcDbArc
 50
57.3289613554
 51
94.7634150007
  0
LINE
  5
3CF
330
1F
100
AcDbEntity
  8
0
  6
Continuous
 62
     7
370
    35
100
AcDbLine
 10
242.0851688092
 20
138.2904667782
 30
0.0
 11
240.3224440584
 21
139.3080661167
 31
0.0
  0
LWPOLYLINE
  5
3D0
330
1F
100
AcDbEntity
  8
0
  6
Continuous
 62
     7
370
    35
100
AcDbPolyline
 90
       23
 70
   128
 43
0.0
 10
255.8030403643
 20
130.9837137024
 10
256.052059116
 20
130.8813027872
 10
256.2809038495
 20
130.8698776958
 10
256.4710349254
 20
130.9503640212
 10
256.6070490546
 20
131.11624124
 10
256.6779271814
 20
131.3540709663
 10
256.6779271814
 20
131.6445856503
 10
256.6070490546
 20
131.9642495199
 10
256.4710349254
 20
132.2871653096
 10
256.2809038495
 20
132.5871723026
 10
256.052059116
 20
132.8399657164
 10
255.8030403643
 20
133.0250657322
 10
255.5540216125
 20
133.1274766474
 10
255.325176879
 20
133.1389017388
 10
255.1350458031
 20
133.0584154134
 10
254.9990316739
 20
132.8925381946
 10
254.9281535471
 20
132.6547084683
 10
254.9281535471
 20
132.3641937843
 10
254.9990316739
 20
132.0445299147
 10
255.1350458031
 20
131.721614125
 10
255.325176879
 20
131.421607132
 10
255.5540216125
 20
131.1688137182
 10
255.8030403643
 20
130.9837137024
  0
LWPOLYLINE
  5
3D1
330
1F
100
AcDbEntity
  8
0
  6
Continuous
 62
     7
370
    35
100
AcDbPolyline
 90
       23
 70
   128
 43
0.0
 10
239.2567416845
 20
159.6427436089
 10
239.5057604363
 20
159.5403326937
 10
239.7346051698
 20
159.5289076023
 10
239.9247362456
 20
159.6093939277
 10
240.0607503749
 20
159.7752711464
 10
240.1316285016
 20
160.0131008728
 10
240.1316285016
 20
160.3036155567
 10
240.0607503749
 20
160.6232794264
 10
239.9247362456
 20
160.9461952161
 10
239.7346051698
 20
161.246202209
 10
239.5057604363
 20
161.4989956229
 10
239.2567416845
 20
161.6840956386
 10
239.0077229327
 20
161.7865065538
 10
238.7788781992
 20
161.7979316452
 10
238.5887471234
 20
161.7174453198
 10
238.4527329941
 20
161.5515681011
 10
238.3818548673
 20
161.3137383747
 10
238.3818548673
 20
161.0232236908
 10
238.4527329941
 20
160.7035598211
 10
238.5887471234
 20
160.3806440314
 10
238.7788781992
 20
160.0806370385
 10
239.0077229327
 20
159.8278436246
 10
239.2567416845
 20
159.6427436089
  0
LWPOLYLINE
  5
3D2
330
1F
100
AcDbEntity
  8
0
  6
Continuous
 62
     7
370
    35
100
AcDbPolyline
 90
       23
 70
   128
 43
0.0
 10
239.2567416845
 20
147.8845559177
 10
239.5057604363
 20
147.7821450025
 10
239.7346051698
 20
147.7707199111
 10
239.9247362456
 20
147.8512062365
 10
240.0607503749
 20
148.0170834552
 10
240.1316285016
 20
148.2549131816
 10
240.1316285016
 20
148.5454278656
 10
240.0607503749
 20
148.8650917352
 10
239.9247362456
 20
149.1880075249
 10
239.7346051698
 20
149.4880145179
 10
239.5057604363
 20
149.7408079317
 10
239.2567416845
 20
149.9259079475
 10
239.0077229327
 20
150.0283188627
 10
238.7788781992
 20
150.0397439541
 10
238.5887471234
 20
149.9592576287
 10
238.4527329941
 20
149.7933804099
 10
238.3818548673
 20
149.5555506836
 10
238.3818548673
 20
149.2650359996
 10
238.4527329941
 20
148.94537213
 10
238.5887471234
 20
148.6224563403
 10
238.7788781992
 20
148.3224493473
 10
239.0077229327
 20
148.0696559335
 10
239.2567416845
 20
147.8845559177
  0
ARC
  5
3D3
330
1F
100
AcDbEntity
  8
0
  6
Continuous
 62
     7
370
    35
100
AcDbCircle
 10
255.5984683851
 20
121.598489018
 30
0.0
 40
6.012888887575487
100
AcDbArc
 50
23.3472356469
 51
36.6473878204
  0
LINE
  5
3D4
330
1F
100
AcDbEntity
  8
0
  6
Continuous
 62
     7
370
    35
100
AcDbLine
 10
264.005479026
 20
124.0030594212
 30
0.0
 11
269.6623332755
 21
127.2686918685
 31
0.0
  0
LINE
  5
3D5
330
1F
100
AcDbEntity
  8
0
  6
Continuous
 62
     7
370
    35
100
AcDbLine
 10
262.5912654637
 20
126.4525491568
 30
0.0
 11
268.2481197131
 21
129.7181816041
 31
0.0
  0
ARC
  5
3D6
330
1F
100
AcDbEntity
  8
0
  6
Continuous
 62
     7
370
    35
100
AcDbCircle
 10
266.5919010728
 20
127.128970164
 30
0.0
 40
3.07360961514442
100
AcDbArc
 50
2.6054784857
 51
57.39452166
  0
LINE
  5
3D7
330
1F
100
AcDbEntity
  8
0
  6
Continuous
 62
     7
370
    35
100
AcDbLine
 10
237.8425281221
 20
169.3186195297
 30
0.0
 11
243.4993823716
 21
172.584251977
 31
0.0
  0
LINE
  5
3D8
330
1F
100
AcDbEntity
  8
0
  6
Continuous
 62
     7
370
    35
100
AcDbLine
 10
236.4283145598
 20
171.7681092653
 30
0.0
 11
242.0851688092
 21
175.0337417126
 31
0.0
  0
ARC
  5
3D9
330
1F
100
AcDbEntity
  8
0
  6
Continuous
 62
     7
370
    35
100
AcDbCircle
 10
240.4289501689
 20
172.4445302724
 30
0.0
 40
3.073609615144314
100
AcDbArc
 50
2.6054784857
 51
57.39452166
  0
LINE
  5
3DA
330
1F
100
AcDbEntity
  8
0
  6
Continuous
 62
     7
370
    35
100
AcDbLine
 10
264.005479026
 20
120.7368961736
 30
0.0
 11
269.6623332755
 21
124.0025286209
 31
0.0
  0
LINE
  5
3DB
330
1F
100
AcDbEntity
  8
0
  6
Continuous
 62
     7
370
    35
100
AcDbLine
 10
269.6623332755
 20
124.0025286209
 30
0.0
 11
269.6623332755
 21
127.2686918685
 31
0.0
  0
LINE
  5
3DC
330
1F
100
AcDbEntity
  8
0
  6
Continuous
 62
     7
370
    35
100
AcDbLine
 10
264.005479026
 20
131.3509978277
 30
0.0
 11
260.7715533289
 21
133.2179033945
 31
0.0
  0
LINE
  5
3DD
330
1F
100
AcDbEntity
  8
0
  6
Continuous
 62
     7
370
    35
100
AcDbLine
 10
264.7125858072
 20
131.7592018836
 30
0.0
 11
264.005479026
 21
131.3509978277
 31
0.0
  0
LINE
  5
3DE
330
1F
100
AcDbEntity
  8
0
  6
Continuous
 62
     7
370
    35
100
AcDbLine
 10
261.8841586825
 20
130.12638566
 30
0.0
 11
259.0557315577
 21
128.4935694363
 31
0.0
  0
LINE
  5
3DF
330
1F
100
AcDbEntity
  8
0
  6
Continuous
 62
     7
370
    35
100
AcDbLine
 10
245.9792983079
 20
142.573698564
 30
0.0
 11
240.3224440584
 21
139.3080661167
 31
0.0
  0
LINE
  5
3E0
330
1F
100
AcDbEntity
  8
0
  6
Continuous
 62
     7
370
    35
100
AcDbLine
 10
268.2481197131
 20
129.7181816041
 30
0.0
 11
264.7125858072
 21
131.7592018836
 31
0.0
  0
LINE
  5
3E1
330
1F
100
AcDbEntity
  8
0
  6
Continuous
 62
     7
370
    35
100
AcDbLine
 10
247.7059688211
 20
141.5769128939
 30
0.0
 11
245.9792983079
 21
142.573698564
 31
0.0
  0
LINE
  5
3E2
330
1F
100
AcDbEntity
  8
0
  6
Continuous
 62
     7
370
    35
100
AcDbLine
 10
237.8425281221
 20
165.2359154702
 30
0.0
 11
240.6709552469
 21
166.8687316939
 31
0.0
  0
LINE
  5
3E3
330
1F
100
AcDbEntity
  8
0
  6
Continuous
 62
     7
370
    35
100
AcDbLine
 10
242.7922755904
 20
168.0933438616
 30
0.0
 11
243.4993823716
 21
168.5015479175
 31
0.0
  0
LINE
  5
3E4
330
1F
100
AcDbEntity
  8
0
  6
Continuous
 62
     7
370
    35
100
AcDbLine
 10
242.7922755904
 20
164.3591893812
 30
0.0
 11
242.7922755904
 21
168.0933438616
 31
0.0
  0
LINE
  5
3E5
330
1F
100
AcDbEntity
  8
0
  6
Continuous
 62
     7
370
    35
100
AcDbLine
 10
237.8425281221
 20
143.6034065041
 30
0.0
 11
243.4993823716
 21
146.8690389514
 31
0.0
  0
LINE
  5
3E6
330
1F
100
AcDbEntity
  8
0
  6
Continuous
 62
     7
370
    35
100
AcDbLine
 10
243.4993823716
 20
146.8690389514
 30
0.0
 11
243.4993823716
 21
148.9045684323
 31
0.0
  0
LINE
  5
3E7
330
1F
100
AcDbEntity
  8
0
  6
Continuous
 62
     7
370
    35
100
AcDbLine
 10
243.4993823716
 20
168.5015479175
 30
0.0
 11
243.4993823716
 21
172.584251977
 31
0.0
  0
LINE
  5
3E8
330
1F
100
AcDbEntity
  8
0
  6
Continuous
 62
     7
370
    35
100
AcDbLine
 10
233.599887435
 20
173.4009254889
 30
0.0
 11
239.2567416845
 21
176.6665579362
 31
0.0
  0
LINE
  5
3E9
330
1F
100
AcDbEntity
  8
0
  6
Continuous
 62
     7
370
    35
100
AcDbLine
 10
242.0851688092
 20
175.0337417126
 30
0.0
 11
239.2567416845
 21
176.6665579362
 31
0.0
  0
LINE
  5
3EA
330
1F
100
AcDbEntity
  8
0
  6
Continuous
 62
     7
370
    35
100
AcDbLine
 10
260.4699451201
 20
132.5758753956
 30
0.0
 11
257.6415179953
 21
130.9430591719
 31
0.0
  0
ARC
  5
3EB
330
1F
100
AcDbEntity
  8
0
  6
Continuous
 62
     7
370
    35
100
AcDbCircle
 10
263.5403773228
 20
132.7155971001
 30
0.0
 40
3.073609615144064
100
AcDbArc
 50
182.6054784857
 51
237.39452166
  0
LINE
  5
3EC
330
1F
100
AcDbEntity
  8
0
  6
Continuous
 62
     7
370
    35
100
AcDbLine
 10
256.227304433
 20
133.3925489075
 30
0.0
 11
259.0557315577
 21
135.0253651312
 31
0.0
  0
ARC
  5
3ED
330
1F
100
AcDbEntity
  8
0
  6
Continuous
 62
     7
370
    35
100
AcDbCircle
 10
257.3995129174
 20
132.4361536911
 30
0.0
 40
3.073609615144033
100
AcDbArc
 50
2.6054784857
 51
57.39452166
  0
LINE
  5
3EE
330
1F
100
AcDbEntity
  8
0
  6
Continuous
 62
     7
370
    35
100
AcDbLine
 10
243.4993823716
 20
161.9697522227
 30
0.0
 11
240.6709552469
 21
160.3369359991
 31
0.0
  0
LINE
  5
3EF
330
1F
100
AcDbEntity
  8
0
  6
Continuous
 62
     7
370
    35
100
AcDbLine
 10
242.0851688092
 20
164.4192419583
 30
0.0
 11
239.2567416845
 21
162.7864257347
 31
0.0
  0
ARC
  5
3F0
330
1F
100
AcDbEntity
  8
0
  6
Continuous
 62
     7
370
    35
100
AcDbCircle
 10
240.4289501689
 20
161.8300305182
 30
0.0
 40
3.073609615144258
100
AcDbArc
 50
2.6054784857
 51
57.39452166
  0
ARC
  5
3F1
330
1F
100
AcDbEntity
  8
0
  6
Continuous
 62
     7
370
    35
100
AcDbCircle
 10
243.7413874496
 20
167.0084533984
 30
0.0
 40
3.073609615144318
100
AcDbArc
 50
182.6054784857
 51
237.39452166
  0
ARC
  5
3F2
330
1F
100
AcDbEntity
  8
0
  6
Continuous
 62
     7
370
    35
100
AcDbCircle
 10
266.6439778922
 20
123.7134541612
 30
0.0
 40
3.032166430695267
100
AcDbArc
 50
305.8415244427
 51
5.4706559506
  0
ARC
  5
3F3
330
1F
100
AcDbEntity
  8
0
  6
Continuous
 62
     7
370
    35
100
AcDbCircle
 10
237.4976515643
 20
174.1974173522
 30
0.0
 40
3.031674994935476
100
AcDbArc
 50
54.5327836208
 51
114.1567579501
  0
LINE
  5
3F4
330
1F
100
AcDbEntity
  8
0
  6
Continuous
 62
     7
370
    35
100
AcDbLine
 10
236.0747611622
 20
168.0935429077
 30
0.0
 11
235.7461879872
 21
167.9038616512
 31
0.0
  0
LINE
  5
3F5
330
1F
100
AcDbEntity
  8
0
  6
Continuous
 62
     7
370
    35
100
AcDbLine
 10
247.7420230587
 20
141.5566300257
 30
0.0
 11
244.913595934
 21
139.9238138021
 31
0.0
  0
LINE
  5
3F6
330
1F
100
AcDbEntity
  8
0
  6
Continuous
 62
     7
370
    35
100
AcDbLine
 10
247.7420230587
 20
141.5566300257
 30
0.0
 11
259.0557315577
 21
135.0253651312
 31
0.0
  0
LINE
  5
3F7
330
1F
100
AcDbEntity
  8
0
  6
Continuous
 62
     7
370
    35
100
AcDbLine
 10
243.4993823716
 20
161.9697522227
 30
0.0
 11
243.4993823716
 21
148.9050992325
 31
0.0
  0
LINE
  5
3F8
330
1F
100
AcDbEntity
  8
0
  6
Continuous
 62
     7
370
    35
100
AcDbLine
 10
240.6709552469
 20
147.2722830089
 30
0.0
 11
243.4993823716
 21
148.9050992325
 31
0.0
  0
ARC
  5
3F9
330
1F
100
AcDbEntity
  8
0
  6
Continuous
 62
     7
370
    35
100
AcDbCircle
 10
247.2448705489
 20
141.9082350394
 30
0.0
 40
1.205576177244848
100
AcDbArc
 50
327.3426224236
 51
2.6782676566
  0
ARC
  5
3FA
330
1F
100
AcDbEntity
  8
0
  6
Continuous
 62
     7
370
    35
100
AcDbCircle
 10
249.3112785748
 20
142.1044230753
 30
0.0
 40
0.8734183948569804
100
AcDbArc
 50
50.7967147643
 51
189.2140369905
  0
LINE
  5
3FB
330
1F
100
AcDbEntity
  8
0
  6
Continuous
 62
     7
370
    35
100
AcDbLine
 10
261.1770519013
 20
136.2499772989
 30
0.0
 11
249.8633434023
 21
142.7812421935
 31
0.0
  0
ARC
  5
3FC
330
1F
100
AcDbEntity
  8
0
  6
Continuous
 62
     7
370
    35
100
AcDbCircle
 10
259.5208332609
 20
133.6607658588
 30
0.0
 40
3.073609615144002
100
AcDbArc
 50
2.6054784857
 51
57.39452166
  0
ARC
  5
3FD
330
1F
100
AcDbEntity
  8
0
  6
Continuous
 62
     7
370
    35
100
AcDbCircle
 10
265.6616976664
 20
133.9402092678
 30
0.0
 40
3.07360961514436
100
AcDbArc
 50
182.6054784857
 51
237.39452166
  0
ARC
  5
3FE
330
1F
100
AcDbEntity
  8
0
  6
Continuous
 62
     7
370
    35
100
AcDbCircle
 10
245.8627077932
 20
168.2330655661
 30
0.0
 40
3.073609615144087
100
AcDbArc
 50
182.6054784857
 51
237.39452166
  0
ARC
  5
3FF
330
1F
100
AcDbEntity
  8
0
  6
Continuous
 62
     7
370
    35
100
AcDbCircle
 10
242.5502705124
 20
163.0546426859
 30
0.0
 40
3.073609615144229
100
AcDbArc
 50
2.6054784857
 51
57.39452166
  0
LINE
  5
400
330
1F
100
AcDbEntity
  8
0
  6
Continuous
 62
     7
370
    35
100
AcDbLine
 10
245.6207027152
 20
150.1297114003
 30
0.0
 11
245.6207027152
 21
163.1943643904
 31
0.0
  0
ARC
  5
401
330
1F
100
AcDbEntity
  8
0
  6
Continuous
 62
     7
370
    35
100
AcDbCircle
 10
244.7585539803
 20
149.9898570065
 30
0.0
 40
0.8734183948570023
100
AcDbArc
 50
230.7967147643
 51
9.2140369905
  0
ARC
  5
402
330
1F
100
AcDbEntity
  8
0
  6
Continuous
 62
     7
370
    35
100
AcDbCircle
 10
243.5558599971
 20
148.2987140483
 30
0.0
 40
1.205060641893025
100
AcDbArc
 50
57.3222128509
 51
92.6862676172
  0
LINE
  5
403
330
1F
100
AcDbEntity
  8
0
  6
Continuous
 62
     7
370
    35
100
AcDbLine
 10
262.5912654637
 20
133.8004875633
 30
0.0
 11
263.2983722448
 21
134.2086916192
 31
0.0
  0
ARC
  5
404
330
1F
100
AcDbEntity
  8
0
  6
Continuous
 62
     7
370
    35
100
AcDbCircle
 10
266.3688044476
 20
134.3484133237
 30
0.0
 40
3.073609615144312
100
AcDbArc
 50
182.6054784857
 51
237.39452166
  0
LINE
  5
405
330
1F
100
AcDbEntity
  8
0
  6
Continuous
 62
     7
370
    35
100
AcDbLine
 10
261.1770519013
 20
136.2499772989
 30
0.0
 11
261.8841586825
 21
136.6581813548
 31
0.0
  0
ARC
  5
406
330
1F
100
AcDbEntity
  8
0
  6
Continuous
 62
     7
370
    35
100
AcDbCircle
 10
260.2279400421
 20
134.0689699147
 30
0.0
 40
3.073609615144118
100
AcDbArc
 50
2.6054784857
 51
57.39452166
  0
LINE
  5
407
330
1F
100
AcDbEntity
  8
0
  6
Continuous
 62
     7
370
    35
100
AcDbLine
 10
244.2064891528
 20
165.643854126
 30
0.0
 11
244.913595934
 21
166.0520581819
 31
0.0
  0
LINE
  5
408
330
1F
100
AcDbEntity
  8
0
  6
Continuous
 62
     7
370
    35
100
AcDbLine
 10
246.3278094964
 20
163.6025684463
 30
0.0
 11
245.6207027152
 21
163.1943643904
 31
0.0
  0
ARC
  5
409
330
1F
100
AcDbEntity
  8
0
  6
Continuous
 62
     7
370
    35
100
AcDbCircle
 10
243.2573772936
 20
163.4628467418
 30
0.0
 40
3.073609615144242
100
AcDbArc
 50
2.6054784857
 51
57.39452166
  0
ARC
  5
40A
330
1F
100
AcDbEntity
  8
0
  6
Continuous
 62
     7
370
    35
100
AcDbCircle
 10
246.5698145744
 20
168.6412696221
 30
0.0
 40
3.073609615144171
100
AcDbArc
 50
182.6054784857
 51
237.39452166
  0
LINE
  5
40B
330
1F
100
AcDbEntity
  8
0
  6
Continuous
 62
     7
370
    35
100
AcDbLine
 10
250.5704501835
 20
143.1894462494
 30
0.0
 11
249.8633434023
 21
142.7812421935
 31
0.0
  0
LINE
  5
40C
330
1F
100
AcDbEntity
  8
0
  6
Continuous
 62
     7
370
    35
100
AcDbLine
 10
261.8841586825
 20
136.6581813548
 30
0.0
 11
250.5704501835
 21
143.1894462494
 31
0.0
  0
LINE
  5
40D
330
1F
100
AcDbEntity
  8
0
  6
Continuous
 62
     7
370
    35
100
AcDbLine
 10
245.6207027152
 20
150.1297114003
 30
0.0
 11
246.3278094964
 21
150.5379154562
 31
0.0
  0
LINE
  5
40E
330
1F
100
AcDbEntity
  8
0
  6
Continuous
 62
     7
370
    35
100
AcDbLine
 10
246.3278094964
 20
150.5379154562
 30
0.0
 11
246.3278094964
 21
163.6025684463
 31
0.0
  0
ARC
  5
40F
330
1F
100
AcDbEntity
  8
0
  6
Continuous
 62
     7
370
    35
100
AcDbCircle
 10
247.156182949
 20
140.7388673675
 30
0.0
 40
1.005954471803602
100
AcDbArc
 50
54.3824225248
 51
114.3071190461
  0
ARC
  5
410
330
1F
100
AcDbEntity
  8
0
  6
Continuous
 62
     7
370
    35
100
AcDbCircle
 10
242.5480112599
 20
148.7839711753
 30
0.0
 40
0.9590510926797898
100
AcDbArc
 50
304.056350826
 51
7.2558295673
  0
ARC
  5
411
330
1F
100
AcDbEntity
  8
0
  6
Continuous
 62
     7
370
    35
100
AcDbCircle
 10
249.9846100738
 20
142.3716835912
 30
0.0
 40
1.00595447180364
100
AcDbArc
 50
54.3824225248
 51
114.3071190461
  0
ARC
  5
412
330
1F
100
AcDbEntity
  8
0
  6
Continuous
 62
     7
370
    35
100
AcDbCircle
 10
245.3764383847
 20
150.4167873989
 30
0.0
 40
0.959051092633107
100
AcDbArc
 50
304.0563508243
 51
7.2558295691
  0
LINE
  5
413
330
1F
100
AcDbEntity
  8
0
  6
Continuous
 62
     7
370
    35
100
AcDbLine
 10
243.2872503373
 20
146.1312210413
 30
0.0
 11
237.6303960878
 21
142.865588594
 31
0.0
  0
LINE
  5
414
330
1F
100
AcDbEntity
  8
0
  6
Continuous
 62
     7
370
    35
100
AcDbLine
 10
239.5774608371
 20
139.4931735325
 30
0.0
 11
245.2343150866
 21
142.7588059798
 31
0.0
  0
ARC
  5
415
330
1F
100
AcDbEntity
  8
0
  6
Continuous
 62
     7
370
    35
100
AcDbCircle
 10
245.5736137082
 20
145.2029768418
 30
0.0
 40
2.467609117670867
100
AcDbArc
 50
157.9032633873
 51
262.0967367583
  0
ARC
  5
416
330
1F
100
AcDbEntity
  8
0
  6
Continuous
 62
     7
370
    35
100
AcDbCircle
 10
245.333639022
 20
141.5668617706
 30
0.0
 40
1.196075349551802
100
AcDbArc
 50
57.3289613554
 51
94.7634150007
  0
ARC
  5
417
330
1F
100
AcDbEntity
  8
0
  6
Continuous
 62
     7
370
    35
100
AcDbCircle
 10
242.3042863976
 20
146.8132399616
 30
0.0
 40
1.196397891300665
100
AcDbArc
 50
325.2455704323
 51
2.6731966163
  0
ARC
  5
418
330
1F
100
AcDbEntity
  8
0
  6
Continuous
 62
     7
370
    35
100
AcDbCircle
 10
248.4166526623
 20
142.617558906
 30
0.0
 40
1.256162982819822
100
AcDbArc
 50
239.4457533046
 51
265.7618245434
  0
ARC
  5
419
330
1F
100
AcDbEntity
  8
0
  6
Continuous
 62
     7
370
    35
100
AcDbCircle
 10
244.7731781421
 20
148.9513780398
 30
0.0
 40
1.274655563005127
100
AcDbArc
 50
154.2919106122
 51
182.1045655162
  0
LINE
  5
41A
330
1F
100
AcDbEntity
  8
0
  6
Continuous
 62
     7
370
    35
100
AcDbLine
 10
221.4022954595
 20
164.5215583724
 30
0.0
 11
221.4196599577
 21
164.1176519359
 31
0.0
  0
LWPOLYLINE
  5
41B
330
1F
100
AcDbEntity
  8
0
  6
Continuous
 62
     7
370
    35
100
AcDbPolyline
 90
       36
 70
   128
 43
0.0
 10
224.4194161556
 20
158.9213587617
 10
224.7610526702
 20
158.7040202504
 10
225.2390536594
 20
158.4675543914
 10
225.7073239269
 20
158.3148587725
 10
226.1563308405
 20
158.2490418361
 10
226.5769339142
 20
158.2714434252
 10
226.9605708823
 20
158.3816075081
 10
227.2994320025
 20
158.5772914617
 10
227.5866190395
 20
158.854511725
 10
227.8162856936
 20
159.2076248929
 10
227.9837566139
 20
159.6294425996
 10
228.0856225753
 20
160.1113778531
 10
228.1198098808
 20
160.6436198412
 10
228.0856225753
 20
161.2153336521
 10
227.9837566139
 20
161.8148808413
 10
227.8162856936
 20
162.4300563568
 10
227.5866190395
 20
163.0483369992
 10
227.2994320025
 20
163.6571363577
 10
226.9605708823
 20
164.2440610328
 10
226.5769339142
 20
164.7971629309
 10
226.1563308405
 20
165.3051824922
 10
225.7073239269
 20
165.7577779034
 10
225.2390536594
 20
166.1457356273
 10
224.7610526702
 20
166.4611579633
 10
224.2830516809
 20
166.6976238222
 10
223.8147814134
 20
166.8503194411
 10
223.3657744998
 20
166.9161363775
 10
222.9451714262
 20
166.8937347884
 10
222.5615344581
 20
166.7835707055
 10
222.2226733379
 20
166.587886752
 10
221.9354863008
 20
166.3106664887
 10
221.7058196467
 20
165.9575533207
 10
221.5383487265
 20
165.535735614
 10
221.436482765
 20
165.0538003606
 10
221.4022954595
 20
164.5215583724
 10
221.4022954595
 20
164.5215583724
  0
LINE
  5
41C
330
1F
100
AcDbEntity
  8
0
  6
Continuous
 62
     7
370
    35
100
AcDbLine
 10
246.8581395823
 20
120.4307431317
 30
0.0
 11
246.8755040804
 21
120.0268366952
 31
0.0
  0
LWPOLYLINE
  5
41D
330
1F
100
AcDbEntity
  8
0
  6
Continuous
 62
     7
370
    35
100
AcDbPolyline
 90
       36
 70
   128
 43
0.0
 10
249.8752602783
 20
114.830543521
 10
250.2168967929
 20
114.6132050097
 10
250.6948977821
 20
114.3767391507
 10
251.1631680496
 20
114.2240435318
 10
251.6121749632
 20
114.1582265954
 10
252.0327780369
 20
114.1806281845
 10
252.416415005
 20
114.2907922674
 10
252.7552761252
 20
114.486476221
 10
253.0424631623
 20
114.7636964843
 10
253.2721298163
 20
115.1168096522
 10
253.4396007366
 20
115.5386273589
 10
253.541466698
 20
116.0205626124
 10
253.5756540035
 20
116.5528046005
 10
253.541466698
 20
117.1245184114
 10
253.4396007366
 20
117.7240656006
 10
253.2721298163
 20
118.3392411161
 10
253.0424631623
 20
118.9575217585
 10
252.7552761252
 20
119.566321117
 10
252.416415005
 20
120.1532457921
 10
252.0327780369
 20
120.7063476902
 10
251.6121749632
 20
121.2143672515
 10
251.1631680496
 20
121.6669626627
 10
250.6948977821
 20
122.0549203866
 10
250.2168967929
 20
122.3703427226
 10
249.7388958037
 20
122.6068085815
 10
249.2706255361
 20
122.7595042004
 10
248.8216186226
 20
122.8253211368
 10
248.4010155489
 20
122.8029195477
 10
248.0173785808
 20
122.6927554649
 10
247.6785174606
 20
122.4970715113
 10
247.3913304235
 20
122.219851248
 10
247.1616637695
 20
121.86673808
 10
246.9941928492
 20
121.4449203733
 10
246.8923268877
 20
120.9629851199
 10
246.8581395823
 20
120.4307431317
 10
246.8581395823
 20
120.4307431317
  0
LINE
  5
41E
330
1F
100
AcDbEntity
  8
0
  6
Continuous
 62
     7
370
    35
100
AcDbLine
 10
240.6056686299
 20
124.8567585946
 30
0.0
 11
239.6102950751
 21
125.4313755167
 31
0.0
  0
LWPOLYLINE
  5
41F
330
1F
100
AcDbEntity
  8
0
  6
Continuous
 62
     7
370
    35
100
AcDbPolyline
 90
       11
 70
   128
 43
0.0
 10
239.6102950751
 20
125.4313755167
 10
239.3917870629
 20
125.5175531552
 10
239.1946681373
 20
125.5153664222
 10
239.0382336723
 20
125.4250293703
 10
238.9377965631
 20
125.2553848196
 10
238.9031882939
 20
125.0230387607
 10
238.9377965631
 20
124.7507348447
 10
239.0382336723
 20
124.4651280761
 10
239.1946681373
 20
124.1941756354
 10
239.3917870629
 20
123.9644002353
 10
239.6102950751
 20
123.7982938929
  0
LINE
  5
420
330
1F
100
AcDbEntity
  8
0
  6
Continuous
 62
     7
370
    35
100
AcDbLine
 10
239.6102950751
 20
123.7982938929
 30
0.0
 11
240.6056686299
 21
123.2236769708
 31
0.0
  0
LWPOLYLINE
  5
421
330
1F
100
AcDbEntity
  8
0
  6
Continuous
 62
     7
370
    35
100
AcDbPolyline
 90
       15
 70
   128
 43
0.0
 10
244.978882551
 20
120.6990743118
 10
244.817267968
 20
120.3541708776
 10
244.5904245247
 20
120.0873409035
 10
244.3056592804
 20
119.9071794909
 10
243.9721450658
 20
119.819489982
 10
243.6006250089
 20
119.8270970229
 10
243.203066478
 20
119.9297555762
 10
242.7922755904
 20
120.1241588146
 10
242.3814847029
 20
120.4040446395
 10
241.983926172
 20
120.7603973956
 10
241.612406115
 20
121.181738282
 10
241.2788919005
 20
121.6544951067
 10
240.9941266562
 20
122.163439472
 10
240.7672832129
 20
122.6921773109
 10
240.6056686299
 20
123.2236769708
  0
LINE
  5
422
330
1F
100
AcDbEntity
  8
0
  6
Continuous
 62
     7
370
    35
100
AcDbLine
 10
244.978882551
 20
120.6990743118
 30
0.0
 11
245.9742561058
 21
120.1244573897
 31
0.0
  0
LWPOLYLINE
  5
423
330
1F
100
AcDbEntity
  8
0
  6
Continuous
 62
     7
370
    35
100
AcDbPolyline
 90
       11
 70
   128
 43
0.0
 10
245.9742561058
 20
120.1244573897
 10
246.192764118
 20
120.0382797512
 10
246.3898830435
 20
120.0404664842
 10
246.5463175086
 20
120.1308035361
 10
246.6467546177
 20
120.3004480868
 10
246.681362887
 20
120.5327941457
 10
246.6467546177
 20
120.8050980617
 10
246.5463175086
 20
121.0907048303
 10
246.3898830435
 20
121.361657271
 10
246.192764118
 20
121.5914326711
 10
245.9742561058
 20
121.7575390135
  0
LINE
  5
424
330
1F
100
AcDbEntity
  8
0
  6
Continuous
 62
     7
370
    35
100
AcDbLine
 10
245.9742561058
 20
121.7575390135
 30
0.0
 11
244.978882551
 21
122.3321559356
 31
0.0
  0
LWPOLYLINE
  5
425
330
1F
100
AcDbEntity
  8
0
  6
Continuous
 62
     7
370
    35
100
AcDbPolyline
 90
       15
 70
   128
 43
0.0
 10
240.6056686299
 20
124.8567585946
 10
240.7672832129
 20
125.2016620288
 10
240.9941266562
 20
125.4684920029
 10
241.2788919005
 20
125.6486534155
 10
241.612406115
 20
125.7363429244
 10
241.983926172
 20
125.7287358835
 10
242.3814847029
 20
125.6260773302
 10
242.7922755904
 20
125.4316740918
 10
243.203066478
 20
125.1517882669
 10
243.6006250089
 20
124.7954355108
 10
243.9721450658
 20
124.3740946244
 10
244.3056592804
 20
123.9013377997
 10
244.5904245247
 20
123.3923934344
 10
244.817267968
 20
122.8636555955
 10
244.978882551
 20
122.3321559356
  0
LWPOLYLINE
  5
426
330
1F
100
AcDbEntity
  8
0
  6
Continuous
 62
     7
370
    35
100
AcDbPolyline
 90
       27
 70
   128
 43
0.0
 10
250.2168967929
 20
124.2075595493
 10
250.8135229208
 20
123.8214601039
 10
251.4014488963
 20
123.3576418318
 10
251.9721014348
 20
122.8228682477
 10
252.5171591372
 20
122.2249375547
 10
253.0286738349
 20
121.5725689289
 10
253.4991864917
 20
120.8752753736
 10
253.9218359736
 20
120.1432249992
 10
254.2904590996
 20
119.3870927486
 10
254.5996805142
 20
118.6179047325
 10
254.8449910729
 20
117.8468774444
 10
255.0228135956
 20
117.0852541983
 10
255.1305550292
 20
116.3441411762
 10
255.1666442612
 20
115.6343454747
 10
255.1305550292
 20
114.9662175136
 10
255.0228135956
 20
114.3495001029
 10
254.8449910729
 20
113.7931863713
 10
254.5996805142
 20
113.3053886257
 10
254.2904590996
 20
112.8932200556
 10
253.9218359736
 20
112.5626910069
 10
253.4991864917
 20
112.3186213374
 10
253.0286738349
 20
112.1645701325
 10
252.5171591372
 20
112.1027838057
 10
251.9721014348
 20
112.1341633407
 10
251.4014488963
 20
112.2582511532
 10
250.8135229208
 20
112.4732377636
 10
250.2168967929
 20
112.7759881829
  0
LINE
  5
427
330
1F
100
AcDbEntity
  8
0
  6
Continuous
 62
     7
370
    35
100
AcDbLine
 10
250.2168967929
 20
112.7759881829
 30
0.0
 11
248.2665886079
 21
113.9018771329
 31
0.0
  0
LINE
  5
428
330
1F
100
AcDbEntity
  8
0
  6
Continuous
 62
     7
370
    35
100
AcDbLine
 10
244.3122907711
 20
116.184644684
 30
0.0
 11
224.7610526702
 21
127.4713341957
 31
0.0
  0
ARC
  5
429
330
1F
100
AcDbEntity
  8
0
  6
Continuous
 62
     7
370
    35
100
AcDbCircle
 10
230.5277514964
 20
136.5162153833
 30
0.0
 40
10.72682110644357
100
AcDbArc
 50
182.520154907
 51
237.4798452386
  0
LINE
  5
42A
330
1F
100
AcDbEntity
  8
0
  6
Continuous
 62
     7
370
    35
100
AcDbLine
 10
219.8113052019
 20
136.0445482703
 30
0.0
 11
219.8113052019
 21
158.6219742234
 31
0.0
  0
LINE
  5
42B
330
1F
100
AcDbEntity
  8
0
  6
Continuous
 62
     7
370
    35
100
AcDbLine
 10
219.8113052019
 20
163.1891684987
 30
0.0
 11
219.8113052019
 21
165.4400174982
 31
0.0
  0
LWPOLYLINE
  5
42C
330
1F
100
AcDbEntity
  8
0
  6
Continuous
 62
     7
370
    35
100
AcDbPolyline
 90
       27
 70
   128
 43
0.0
 10
219.8113052019
 20
165.4400174982
 10
219.8473944338
 20
166.1081454593
 10
219.9551358675
 20
166.72486287
 10
220.1329583901
 20
167.2811766016
 10
220.3782689489
 20
167.7689743473
 10
220.6874903635
 20
168.1811429174
 10
221.0561134894
 20
168.5116719661
 10
221.4787629714
 20
168.7557416356
 10
221.9492756282
 20
168.9097928405
 10
222.4607903259
 20
168.9715791673
 10
223.0058480283
 20
168.9401996323
 10
223.5765005667
 20
168.8161118197
 10
224.1644265422
 20
168.6011252093
 10
224.7610526702
 20
168.29837479
 10
225.3576787981
 20
167.9122753446
 10
225.9456047736
 20
167.4484570724
 10
226.5162573121
 20
166.9136834884
 10
227.0613150145
 20
166.3157527954
 10
227.5728297121
 20
165.6633841696
 10
228.043342369
 20
164.9660906143
 10
228.4659918509
 20
164.2340402399
 10
228.8346149768
 20
163.4779079893
 10
229.1438363914
 20
162.7087199732
 10
229.3891469502
 20
161.9376926851
 10
229.5669694728
 20
161.176069439
 10
229.6747109065
 20
160.4349564169
 10
229.7108001385
 20
159.7251607154
  0
LINE
  5
42D
330
1F
100
AcDbEntity
  8
0
  6
Continuous
 62
     7
370
    35
100
AcDbLine
 10
229.7108001385
 20
159.7251607154
 30
0.0
 11
229.7108001385
 21
152.0988769647
 31
0.0
  0
LWPOLYLINE
  5
42E
330
1F
100
AcDbEntity
  8
0
  6
Continuous
 62
     7
370
    35
100
AcDbPolyline
 90
       36
 70
   128
 43
0.0
 10
229.7108001385
 20
152.0988769647
 10
229.2299394329
 20
151.6075669541
 10
228.8059303987
 20
151.0400531385
 10
228.4416917328
 20
150.4002420405
 10
228.1397306986
 20
149.6925378466
 10
227.902125867
 20
148.92181209
 10
227.7305128081
 20
148.0933701177
 10
227.6260728329
 20
147.2129145704
 10
227.5895248617
 20
146.286506128
 10
227.6211204749
 20
145.3205217905
 10
227.7206421819
 20
144.3216109814
 10
227.8874049178
 20
143.2966497762
 10
228.1202607592
 20
142.2526935699
 10
228.4176068258
 20
141.1969285112
 10
228.7773963144
 20
140.1366220358
 10
229.1971525879
 20
139.0790728405
 10
229.6739862232
 20
138.0315606424
 10
230.2046149014
 20
137.0012960679
 10
230.7853860012
 20
135.9953710183
 10
231.4123017426
 20
135.020709852
 10
232.0810467052
 20
134.0840217202
 10
232.7870175345
 20
133.1917543839
 10
233.5253546288
 20
132.3500498302
 10
234.2909755908
 20
131.5647019939
 10
235.0786102129
 20
130.8411168739
 10
235.8828367549
 20
130.1842753212
 10
236.6981192646
 20
129.5986987525
 10
237.5188456856
 20
129.0884180267
 10
238.3393664877
 20
128.6569456985
 10
239.1540335562
 20
128.3072518389
 10
239.9572390709
 20
128.0417435912
 10
240.7434541082
 20
127.8622486007
 10
241.5072666995
 20
127.7700024344
 10
242.2434190853
 20
127.7656400753
 10
242.946843907
 20
127.8491915522
 10
243.6126990885
 20
128.0200817323
  0
LINE
  5
42F
330
1F
100
AcDbEntity
  8
0
  6
Continuous
 62
     7
370
    35
100
AcDbLine
 10
243.6126990885
 20
128.0200817323
 30
0.0
 11
250.2168967929
 21
124.2075595493
 31
0.0
  0
LWPOLYLINE
  5
430
330
1F
100
AcDbEntity
  8
0
  6
Continuous
 62
     7
370
    35
100
AcDbPolyline
 90
        8
 70
   128
 43
0.0
 10
225.4681594514
 20
149.9262728726
 10
225.4335511821
 20
149.6939268137
 10
225.333114073
 20
149.524282263
 10
225.1766796079
 20
149.4339452111
 10
224.9795606824
 20
149.4317584781
 10
224.7610526702
 20
149.5179361166
 10
224.5425446579
 20
149.684042459
 10
224.4057666467
 20
149.8335930291
  0
ARC
  5
431
330
1F
100
AcDbEntity
  8
0
  6
Continuous
 62
     7
370
    35
100
AcDbCircle
 10
225.5250573698
 20
150.8004468666
 30
0.0
 40
1.472245185424575
100
AcDbArc
 50
182.2486682922
 51
211.0304024322
  0
LINE
  5
432
330
1F
100
AcDbEntity
  8
0
  6
Continuous
 62
     7
370
    35
100
AcDbLine
 10
225.4681594514
 20
151.0756935148
 30
0.0
 11
225.4681594514
 21
149.9262728726
 31
0.0
  0
LWPOLYLINE
  5
433
330
1F
100
AcDbEntity
  8
0
  6
Continuous
 62
     7
370
    35
100
AcDbPolyline
 90
       15
 70
   128
 43
0.0
 10
225.4681594514
 20
156.1257195374
 10
225.8476325664
 20
155.7200278157
 10
226.192104874
 20
155.2592177497
 10
226.4904802653
 20
154.7581329092
 10
226.7331475008
 20
154.2329141909
 10
226.9122898067
 20
153.7004798899
 10
227.0221366683
 20
153.1779807287
 10
227.059149709
 20
152.6822474003
 10
227.0221366683
 20
152.2292484191
 10
226.9122898067
 20
151.8335757447
 10
226.7331475008
 20
151.5079747475
 10
226.4904802653
 20
151.2629336556
 10
226.192104874
 20
151.106345709
 10
225.8476325664
 20
151.0432549038
 10
225.4681594514
 20
151.0756935148
  0
LINE
  5
434
330
1F
100
AcDbEntity
  8
0
  6
Continuous
 62
     7
370
    35
100
AcDbLine
 10
225.4681594514
 20
157.2751401796
 30
0.0
 11
225.4681594514
 21
156.1257195374
 31
0.0
  0
LWPOLYLINE
  5
435
330
1F
100
AcDbEntity
  8
0
  6
Continuous
 62
     7
370
    35
100
AcDbPolyline
 90
       11
 70
   128
 43
0.0
 10
224.053945889
 20
158.0915482914
 10
224.0885541582
 20
158.3238943503
 10
224.1889912674
 20
158.493538901
 10
224.3454257324
 20
158.5838759529
 10
224.5425446579
 20
158.5860626859
 10
224.7610526702
 20
158.4998850474
 10
224.9795606824
 20
158.333778705
 10
225.1766796079
 20
158.1040033049
 10
225.333114073
 20
157.8330508642
 10
225.4335511821
 20
157.5474440956
 10
225.4681594514
 20
157.2751401796
  0
LINE
  5
436
330
1F
100
AcDbEntity
  8
0
  6
Continuous
 62
     7
370
    35
100
AcDbLine
 10
224.053945889
 20
156.9421276492
 30
0.0
 11
224.053945889
 21
158.0915482914
 31
0.0
  0
LWPOLYLINE
  5
437
330
1F
100
AcDbEntity
  8
0
  6
Continuous
 62
     7
370
    35
100
AcDbPolyline
 90
       15
 70
   128
 43
0.0
 10
224.053945889
 20
151.8921016267
 10
223.6744727739
 20
152.2977933484
 10
223.3300004663
 20
152.7586034143
 10
223.031625075
 20
153.2596882549
 10
222.7889578395
 20
153.7849069731
 10
222.6098155336
 20
154.3173412742
 10
222.499968672
 20
154.8398404353
 10
222.4629556313
 20
155.3355737637
 10
222.499968672
 20
155.788572745
 10
222.6098155336
 20
156.1842454193
 10
222.7889578395
 20
156.5098464165
 10
223.031625075
 20
156.7548875084
 10
223.3300004663
 20
156.911475455
 10
223.6744727739
 20
156.9745662602
 10
224.053945889
 20
156.9421276492
  0
LINE
  5
438
330
1F
100
AcDbEntity
  8
0
  6
Continuous
 62
     7
370
    35
100
AcDbLine
 10
224.053945889
 20
150.7426809844
 30
0.0
 11
224.053945889
 21
151.8921016267
 31
0.0
  0
LINE
  5
439
330
1F
100
AcDbEntity
  8
0
  6
Continuous
 62
     7
370
    35
100
AcDbLine
 10
229.7108001385
 20
152.0988769647
 30
0.0
 11
236.7818679503
 21
156.1809175238
 31
0.0
  0
LINE
  5
43A
330
1F
100
AcDbEntity
  8
0
  6
Continuous
 62
     7
370
    35
100
AcDbLine
 10
250.6837669004
 20
132.1021222914
 30
0.0
 11
243.6126990885
 21
128.0200817323
 31
0.0
  0
SPLINE
  5
43B
330
1F
100
AcDbEntity
  8
0
  6
Continuous
 62
     7
370
    35
100
AcDbSpline
210
0.0
220
0.0
230
1.0
 70
    11
 71
     3
 72
    45
 73
    41
 74
     0
 42
0.00000001
 43
0.00000001
 40
0.0
 40
0.0
 40
0.0
 40
0.0
 40
0.0258388764184964
 40
0.052442646326659
 40
0.078277294180201
 40
0.1048330525138144
 40
0.1311984064600799
 40
0.158302479320707
 40
0.1850814051986958
 40
0.2126703455818655
 40
0.2388442732194458
 40
0.2658205823156509
 40
0.2913055615279652
 40
0.3175153346933154
 40
0.3433019500098738
 40
0.3697914766422939
 40
0.3963877661971177
 40
0.4237473308706828
 40
0.4504272526816556
 40
0.4779251290926188
 40
0.5038513279505482
 40
0.530556113967885
 40
0.556071951797245
 40
0.5823016351527956
 40
0.608321015162574
 40
0.635055175487037
 40
0.6617725834265221
 40
0.6892720342257521
 40
0.7158058611122609
 40
0.7431599617802312
 40
0.7688539418819225
 40
0.7953057641878659
 40
0.8208357701102038
 40
0.8470665612183885
 40
0.8733359322088932
 40
0.900335951133824
 40
0.9271198699052581
 40
0.9547073436636484
 40
0.9771084231523414
 40
1.0
 40
1.0
 40
1.0
 40
1.0
 10
228.5087186104607
 20
146.7827035419178
 30
0.0
 10
228.5172338540214
 20
146.6213227849509
 30
0.0
 10
228.5345164130307
 20
146.2937840087105
 30
0.0
 10
228.672589523881
 20
145.8573354549261
 30
0.0
 10
228.887809173254
 20
145.4732009015444
 30
0.0
 10
229.1766437538692
 20
145.1603837102666
 30
0.0
 10
229.5315957958509
 20
144.9241522265544
 30
0.0
 10
229.9364916122775
 20
144.7787877919484
 30
0.0
 10
230.3815167045021
 20
144.732101098176
 30
0.0
 10
230.8391261588238
 20
144.7913772578309
 30
0.0
 10
231.2981228431973
 20
144.9564330974554
 30
0.0
 10
231.7309138715449
 20
145.2157442122421
 30
0.0
 10
232.1366412469719
 20
145.5643251544376
 30
0.0
 10
232.5008948810843
 20
145.983300152397
 30
0.0
 10
232.8272327910311
 20
146.4706427709085
 30
0.0
 10
233.1083164868101
 20
147.0087912750502
 30
0.0
 10
233.3440994638747
 20
147.590703391892
 30
0.0
 10
233.5272726500994
 20
148.1898182894333
 30
0.0
 10
233.6576044079615
 20
148.7921134569433
 30
0.0
 10
233.7308573567142
 20
149.3616647107002
 30
0.0
 10
233.749514911674
 20
149.8904527851889
 30
0.0
 10
233.7151139507049
 20
150.3517761264689
 30
0.0
 10
233.6284713798418
 20
150.7476038839083
 30
0.0
 10
233.4919229341396
 20
151.0652891173765
 30
0.0
 10
233.3020642912266
 20
151.3053177467381
 30
0.0
 10
233.0599372149195
 20
151.4597860758161
 30
0.0
 10
232.7620916125117
 20
151.5261432393581
 30
0.0
 10
232.4157225618903
 20
151.5009267453449
 30
0.0
 10
232.022313384826
 20
151.3861953221159
 30
0.0
 10
231.6019706745401
 20
151.191083402256
 30
0.0
 10
231.1585877064507
 20
150.9211814804937
 30
0.0
 10
230.7154360589675
 20
150.5927612148324
 30
0.0
 10
230.2742797641688
 20
150.2059871981019
 30
0.0
 10
229.8536702250292
 20
149.7729768604788
 30
0.0
 10
229.4605556032286
 20
149.292429566212
 30
0.0
 10
229.1157272878503
 20
148.7778510195338
 30
0.0
 10
228.831494903553
 20
148.2341309287106
 30
0.0
 10
228.6405384654813
 20
147.7134135391153
 30
0.0
 10
228.5285625974595
 20
147.2226447606359
 30
0.0
 10
228.5153808567328
 20
146.93040555082
 30
0.0
 10
228.5087186104607
 20
146.7827035419178
 30
0.0
  0
SPLINE
  5
43C
330
1F
100
AcDbEntity
  8
0
  6
Continuous
 62
     7
370
    35
100
AcDbSpline
210
0.0
220
0.0
230
1.0
 70
    11
 71
     3
 72
    45
 73
    41
 74
     0
 42
0.00000001
 43
0.00000001
 40
0.0
 40
0.0
 40
0.0
 40
0.0
 40
0.0258388764184966
 40
0.0524426463266593
 40
0.0782772941802012
 40
0.1048330525138144
 40
0.1311984064600801
 40
0.1583024793207072
 40
0.1850814051986961
 40
0.2126703455818658
 40
0.2388442732194461
 40
0.2658205823156512
 40
0.2913055615279655
 40
0.3175153346933157
 40
0.343301950009874
 40
0.3697914766422942
 40
0.3963877661971181
 40
0.4237473308706831
 40
0.4504272526816558
 40
0.4779251290926191
 40
0.5038513279505483
 40
0.5305561139678852
 40
0.5560719517972449
 40
0.5823016351527958
 40
0.6083210151625744
 40
0.6350551754870376
 40
0.6617725834265226
 40
0.6892720342257526
 40
0.7158058611122614
 40
0.7431599617802317
 40
0.7688539418819229
 40
0.7953057641878664
 40
0.8208357701102043
 40
0.8470665612183889
 40
0.8733359322088933
 40
0.900335951133824
 40
0.9271198699052583
 40
0.9547073436636487
 40
0.9771084231523415
 40
1.0
 40
1.0
 40
1.0
 40
1.0
 10
238.4082135470724
 20
129.6362753927583
 30
0.0
 10
238.557161083107
 20
129.5601216370652
 30
0.0
 10
238.8594653639503
 20
129.4055597895771
 30
0.0
 10
239.3876128858963
 20
129.2600878756156
 30
0.0
 10
239.9581809008442
 20
129.1792012563671
 30
0.0
 10
240.5557298945317
 20
129.167734874201
 30
0.0
 10
241.1743795825712
 20
129.220426018964
 30
0.0
 10
241.7911571529743
 20
129.3318615900142
 30
0.0
 10
242.3966372834828
 20
129.4961499994611
 30
0.0
 10
242.958004056478
 20
129.7004314032964
 30
0.0
 10
243.4663553628128
 20
129.9369162204922
 30
0.0
 10
243.8945080187225
 20
130.1894385044793
 30
0.0
 10
244.2435649461285
 20
130.4563711107291
 30
0.0
 10
244.5016138434395
 20
130.7279539541638
 30
0.0
 10
244.6692691519555
 20
131.0079409323504
 30
0.0
 10
244.7395847355776
 20
131.2918701701485
 30
0.0
 10
244.7081502022045
 20
131.5822350193295
 30
0.0
 10
244.5721018010328
 20
131.8722512113934
 30
0.0
 10
244.331749848791
 20
132.161473239117
 30
0.0
 10
244.0000707813822
 20
132.4375186950342
 30
0.0
 10
243.58368152813
 20
132.6994353777373
 30
0.0
 10
243.1077256219383
 20
132.9344827027639
 30
0.0
 10
242.5749121992494
 20
133.1420395993014
 30
0.0
 10
242.0071433792669
 20
133.3121583265499
 30
0.0
 10
241.4056881576819
 20
133.4401751242028
 30
0.0
 10
240.7907134533423
 20
133.5156495691585
 30
0.0
 10
240.1704972276147
 20
133.5298184486601
 30
0.0
 10
239.5744032118969
 20
133.4740362400882
 30
0.0
 10
239.0139017991923
 20
133.3433927984636
 30
0.0
 10
238.5211822488158
 20
133.1425193054279
 30
0.0
 10
238.0991148093388
 20
132.8742537062069
 30
0.0
 10
237.7655636181677
 20
132.5551523231734
 30
0.0
 10
237.518034295621
 20
132.1886923081444
 30
0.0
 10
237.3643573473256
 20
131.7917730920431
 30
0.0
 10
237.3074942932474
 20
131.3707080082644
 30
0.0
 10
237.3533852002358
 20
130.946074427589
 30
0.0
 10
237.5044937871049
 20
130.5306635695989
 30
0.0
 10
237.7453393899221
 20
130.1711455887948
 30
0.0
 10
238.0486696609237
 20
129.8667478214577
 30
0.0
 10
238.2875034339636
 20
129.7136521859915
 30
0.0
 10
238.4082135470724
 20
129.6362753927583
 30
0.0
  0
LWPOLYLINE
  5
43D
330
1F
100
AcDbEntity
  8
0
  6
Continuous
 62
     7
370
    35
100
AcDbPolyline
 90
       36
 70
   128
 43
0.0
 10
236.7818679503
 20
156.1809175238
 10
236.3010072448
 20
155.6896075132
 10
235.8769982105
 20
155.1220936976
 10
235.5127595446
 20
154.4822825996
 10
235.2107985105
 20
153.7745784057
 10
234.9731936789
 20
153.0038526491
 10
234.80158062
 20
152.1754106769
 10
234.6971406448
 20
151.2949551295
 10
234.6605926735
 20
150.3685466871
 10
234.6921882867
 20
149.4025623496
 10
234.7917099938
 20
148.4036515405
 10
234.9584727297
 20
147.3786903353
 10
235.191328571
 20
146.334734129
 10
235.4886746377
 20
145.2789690703
 10
235.8484641263
 20
144.2186625949
 10
236.2682203997
 20
143.1611133996
 10
236.7450540351
 20
142.1136012015
 10
237.2756827132
 20
141.083336627
 10
237.8564538131
 20
140.0774115774
 10
238.4833695545
 20
139.1027504111
 10
239.1521145171
 20
138.1660622793
 10
239.8580853464
 20
137.273794943
 10
240.5964224406
 20
136.4320903893
 10
241.3620434027
 20
135.646742553
 10
242.1496780248
 20
134.923157433
 10
242.9539045668
 20
134.2663158804
 10
243.7691870765
 20
133.6807393116
 10
244.5899134975
 20
133.1704585859
 10
245.4104342996
 20
132.7389862576
 10
246.225101368
 20
132.389292398
 10
247.0283068828
 20
132.1237841503
 10
247.81452192
 20
131.9442891599
 10
248.5783345114
 20
131.8520429935
 10
249.3144868972
 20
131.8476806344
 10
250.0179117189
 20
131.9312321113
 10
250.6837669004
 20
132.1021222914
  0
LINE
  5
43E
330
1F
100
AcDbEntity
  8
0
  6
Continuous
 62
     7
370
    35
100
AcDbLine
 10
257.2879646048
 20
128.2896001084
 30
0.0
 11
250.2168967929
 21
124.2075595493
 31
0.0
  0
LWPOLYLINE
  5
43F
330
1F
100
AcDbEntity
  8
0
  6
Continuous
 62
     7
370
    35
100
AcDbPolyline
 90
       21
 70
   128
 43
0.0
 10
257.2879646048
 20
128.2896001084
 10
257.8845907327
 20
127.903500663
 10
258.4725167082
 20
127.4396823909
 10
259.0431692466
 20
126.9049088068
 10
259.588226949
 20
126.3069781138
 10
260.0997416467
 20
125.654609488
 10
260.5702543036
 20
124.9573159327
 10
260.9929037855
 20
124.2252655583
 10
261.3615269114
 20
123.4691333077
 10
261.670748326
 20
122.6999452916
 10
261.9160588848
 20
121.9289180035
 10
262.0938814074
 20
121.1672947574
 10
262.2016228411
 20
120.4261817353
 10
262.2377120731
 20
119.7163860339
 10
262.2016228411
 20
119.0482580727
 10
262.0938814074
 20
118.431540662
 10
261.9160588848
 20
117.8752269304
 10
261.670748326
 20
117.3874291848
 10
261.3615269114
 20
116.9752606147
 10
260.9929037855
 20
116.644731566
 10
260.787680169
 20
116.5114723886
  0
LINE
  5
440
330
1F
100
AcDbEntity
  8
0
  6
Continuous
 62
     7
370
    35
100
AcDbLine
 10
236.7818679503
 20
163.8072012746
 30
0.0
 11
229.7108001385
 21
159.7251607154
 31
0.0
  0
LWPOLYLINE
  5
441
330
1F
100
AcDbEntity
  8
0
  6
Continuous
 62
     7
370
    35
100
AcDbPolyline
 90
       21
 70
   128
 43
0.0
 10
228.3324049178
 20
172.7269717026
 10
228.5498307832
 20
172.8377821947
 10
229.0203434401
 20
172.9918333996
 10
229.5318581378
 20
173.0536197264
 10
230.0769158401
 20
173.0222401914
 10
230.6475683786
 20
172.8981523788
 10
231.2354943541
 20
172.6831657685
 10
231.832120482
 20
172.3804153491
 10
232.42874661
 20
171.9943159037
 10
233.0166725855
 20
171.5304976316
 10
233.5873251239
 20
170.9957240475
 10
234.1323828263
 20
170.3977933545
 10
234.643897524
 20
169.7454247287
 10
235.1144101808
 20
169.0481311734
 10
235.5370596628
 20
168.316080799
 10
235.9056827887
 20
167.5599485484
 10
236.2149042033
 20
166.7907605323
 10
236.4602147621
 20
166.0197332442
 10
236.6380372847
 20
165.2581099981
 10
236.7457787184
 20
164.516996976
 10
236.7818679503
 20
163.8072012746
  0
LINE
  5
442
330
1F
100
AcDbEntity
  8
0
  6
Continuous
 62
     7
370
    35
100
AcDbLine
 10
250.6837669004
 20
132.1021222914
 30
0.0
 11
257.2879646048
 21
128.2896001084
 31
0.0
  0
LINE
  5
443
330
1F
100
AcDbEntity
  8
0
  6
Continuous
 62
     7
370
    35
100
AcDbLine
 10
236.7818679503
 20
163.8072012746
 30
0.0
 11
236.7818679503
 21
156.1809175238
 31
0.0
  0
LINE
  5
444
330
1F
100
AcDbEntity
  8
0
  6
Continuous
 62
     7
370
    35
100
AcDbLine
 10
244.978882551
 20
120.6990743118
 30
0.0
 11
245.1835306842
 21
120.8172151644
 31
0.0
  0
LINE
  5
445
330
1F
100
AcDbEntity
  8
0
  6
Continuous
 62
     7
370
    35
100
AcDbLine
 10
240.8103167631
 20
123.3418178234
 30
0.0
 11
240.6056686299
 21
123.2236769708
 31
0.0
  0
ARC
  5
446
330
1F
100
AcDbEntity
  8
0
  6
Continuous
 62
     7
370
    35
100
AcDbCircle
 10
243.4842223555
 20
124.6230344509
 30
0.0
 40
2.208899843430308
100
AcDbArc
 50
161.9956085185
 51
175.3729898689
  0
LINE
  5
447
330
1F
100
AcDbEntity
  8
0
  6
Continuous
 62
     7
370
    35
100
AcDbLine
 10
240.6056686299
 20
124.8567585946
 30
0.0
 11
241.3834860892
 21
125.3057830561
 31
0.0
  0
LINE
  5
448
330
1F
100
AcDbEntity
  8
0
  6
Continuous
 62
     7
370
    35
100
AcDbLine
 10
225.4681594514
 20
151.0756935148
 30
0.0
 11
226.2459769107
 21
151.5247179763
 31
0.0
  0
ARC
  5
449
330
1F
100
AcDbEntity
  8
0
  6
Continuous
 62
     7
370
    35
100
AcDbCircle
 10
226.7047202413
 20
153.6848443712
 30
0.0
 40
2.208300587635953
100
AcDbArc
 50
244.6297957238
 51
258.0102963461
  0
LINE
  5
44A
330
1F
100
AcDbEntity
  8
0
  6
Continuous
 62
     7
370
    35
100
AcDbLine
 10
224.2585400436
 20
152.0102113181
 30
0.0
 11
224.053945889
 21
151.8921016267
 31
0.0
  0
LINE
  5
44B
330
1F
100
AcDbEntity
  8
0
  6
Continuous
 62
     7
370
    35
100
AcDbLine
 10
224.053945889
 20
156.9421276492
 30
0.0
 11
224.2585400436
 21
157.0602373406
 31
0.0
  0
ARC
  5
44C
330
1F
100
AcDbEntity
  8
0
  6
Continuous
 62
     7
370
    35
100
AcDbCircle
 10
241.0371844312
 20
124.1170252354
 30
0.0
 40
5.90593226638091
100
AcDbArc
 50
71.3375200373
 51
113.7223633189
  0
ARC
  5
44D
330
1F
100
AcDbEntity
  8
0
  6
Continuous
 62
     7
370
    35
100
AcDbCircle
 10
225.059566286
 20
151.8084131414
 30
0.0
 40
5.88850181025709
100
AcDbArc
 50
306.1640369715
 51
348.8658302162
  0
SPLINE
  5
44E
330
1F
100
AcDbEntity
  8
0
  6
Continuous
 62
     7
370
    35
100
AcDbSpline
210
0.0
220
0.0
230
1.0
 70
     8
 71
     3
 72
    11
 73
     7
 74
     0
 42
0.00000001
 43
0.00000001
 40
0.0
 40
0.0
 40
0.0
 40
0.0
 40
0.1247596310572642
 40
0.4859621624903979
 40
0.8599816031382104
 40
1.0
 40
1.0
 40
1.0
 40
1.0
 10
225.7585400435873
 20
154.2393405180809
 30
0.0
 10
225.7986221769316
 20
154.1804680703755
 30
0.0
 10
225.9547496039862
 20
153.9511488446325
 30
0.0
 10
226.2985988907979
 20
153.6218891053297
 30
0.0
 10
226.6663031526427
 20
153.3329558479714
 30
0.0
 10
226.8834981250014
 20
153.2489944573786
 30
0.0
 10
226.942659707315
 20
153.2261242745802
 30
0.0
  0
ARC
  5
44F
330
1F
100
AcDbEntity
  8
0
  6
Continuous
 62
     7
370
    35
100
AcDbCircle
 10
224.1272733159
 20
155.2331056254
 30
0.0
 40
0.214653870875652
100
AcDbArc
 50
52.2999725609
 51
112.6199753704
  0
SPLINE
  5
450
330
1F
100
AcDbEntity
  8
0
  6
Continuous
 62
     7
370
    35
100
AcDbSpline
210
0.0
220
0.0
230
1.0
 70
     8
 71
     3
 72
    10
 73
     6
 74
     0
 42
0.00000001
 43
0.00000001
 40
0.0
 40
0.0
 40
0.0
 40
0.0
 40
0.3452426403763048
 40
0.7653778557490277
 40
1.0
 40
1.0
 40
1.0
 40
1.0
 10
225.7585400435873
 20
155.386385981477
 30
0.0
 10
225.8363608296052
 20
155.2005594401566
 30
0.0
 10
226.0088838594086
 20
154.7885954962414
 30
0.0
 10
226.395391698945
 20
154.2735812950348
 30
0.0
 10
226.6908056208823
 20
154.0635662121971
 30
0.0
 10
226.7966626178107
 20
153.9883105646871
 30
0.0
  0
LWPOLYLINE
  5
451
330
1F
100
AcDbEntity
  8
0
  6
Continuous
 62
     7
370
    35
100
AcDbPolyline
 90
        3
 70
   128
 43
0.0
 10
243.027836623
 20
121.9724780245
 10
243.0354977267
 20
121.9772628717
 10
243.0826052132
 20
122.0300536228
  0
SPLINE
  5
452
330
1F
100
AcDbEntity
  8
0
  6
Continuous
 62
     7
370
    35
100
AcDbSpline
210
0.0
220
0.0
230
1.0
 70
     8
 71
     3
 72
    10
 73
     6
 74
     0
 42
0.00000001
 43
0.00000001
 40
0.0
 40
0.0
 40
0.0
 40
0.0
 40
0.1730668824514784
 40
0.9289041754311268
 40
1.0
 40
1.0
 40
1.0
 40
1.0
 10
243.3539022005965
 20
124.2501796995593
 30
0.0
 10
243.367370581477
 20
124.1993464864429
 30
0.0
 10
243.439659600953
 20
123.9265087069347
 30
0.0
 10
243.5862963387204
 20
123.6080201776948
 30
0.0
 10
243.7524500254043
 20
123.3861896606634
 30
0.0
 10
243.7667351388062
 20
123.3671177149544
 30
0.0
  0
SPLINE
  5
453
330
1F
100
AcDbEntity
  8
0
  6
Continuous
 62
     7
370
    35
100
AcDbSpline
210
0.0
220
0.0
230
1.0
 70
     8
 71
     3
 72
    10
 73
     6
 74
     0
 42
0.00000001
 43
0.00000001
 40
0.0
 40
0.0
 40
0.0
 40
0.0
 40
0.1510148254284511
 40
0.6350554636059127
 40
1.0
 40
1.0
 40
1.0
 40
1.0
 10
243.8850594138179
 20
124.4614768604229
 30
0.0
 10
243.9000697531407
 20
124.3904925787919
 30
0.0
 10
243.9631920192524
 20
124.0919857550277
 30
0.0
 10
244.2477067970262
 20
123.5808740672713
 30
0.0
 10
244.5590064517387
 20
123.2475060082205
 30
0.0
 10
244.6928216367047
 20
123.1042045049636
 30
0.0
  0
LINE
  5
454
330
1F
100
AcDbEntity
  8
0
  6
Continuous
 62
     7
370
    35
100
AcDbLine
 10
242.0851688092
 20
138.2904667782
 30
0.0
 11
243.4993823529
 21
139.1068748792
 31
0.0
  0
LINE
  5
455
330
1F
100
AcDbEntity
  8
0
  6
Continuous
 62
     7
370
    35
100
AcDbLine
 10
239.2569715713
 20
146.4554768077
 30
0.0
 11
237.8425281221
 21
145.638935985
 31
0.0
  0
LINE
  5
456
330
1F
100
AcDbEntity
  8
0
  6
Continuous
 62
     7
370
    35
100
AcDbLine
 10
246.6056606191
 20
120.4889594566
 30
0.0
 11
246.4359404137
 21
120.3909820675
 31
0.0
  0
LINE
  5
457
330
1F
100
AcDbEntity
  8
0
  6
Continuous
 62
     7
370
    35
100
AcDbLine
 10
246.178904239
 20
120.2425982423
 30
0.0
 11
245.9742561058
 21
120.1244573897
 31
0.0
  0
LINE
  5
458
330
1F
100
AcDbEntity
  8
0
  6
Continuous
 62
     7
370
    35
100
AcDbLine
 10
224.6853167389
 20
158.4560309248
 30
0.0
 11
224.5079022657
 21
158.3536117295
 31
0.0
  0
LINE
  5
459
330
1F
100
AcDbEntity
  8
0
  6
Continuous
 62
     7
370
    35
100
AcDbLine
 10
224.2585400436
 20
158.2096579828
 30
0.0
 11
224.053945889
 21
158.0915482914
 31
0.0
  0
LINE
  5
45A
330
1F
100
AcDbEntity
  8
0
  6
Continuous
 62
     7
370
    35
100
AcDbLine
 10
239.8149432083
 20
123.9164347455
 30
0.0
 11
239.6102950751
 21
123.7982938929
 31
0.0
  0
LINE
  5
45B
330
1F
100
AcDbEntity
  8
0
  6
Continuous
 62
     7
370
    35
100
AcDbLine
 10
224.2585400436
 20
150.8607906759
 30
0.0
 11
224.053945889
 21
150.7426809844
 31
0.0
  0
ARC
  5
45C
330
1F
100
AcDbEntity
  8
0
  6
Continuous
 62
     7
370
    35
100
AcDbCircle
 10
189.9698143637
 20
82.2030078726
 30
0.0
 40
2.000000000000057
100
AcDbArc
 50
180.0
 51
211.7883306171
  0
LINE
  5
45D
330
1F
100
AcDbEntity
  8
0
  6
Continuous
 62
     7
370
    35
100
AcDbLine
 10
187.9698143637
 20
82.2030078726
 30
0.0
 11
187.9698143637
 21
84.695877122
 31
0.0
  0
ARC
  5
45E
330
1F
100
AcDbEntity
  8
0
  6
Continuous
 62
     7
370
    35
100
AcDbCircle
 10
185.9698143637
 20
84.695877122
 30
0.0
 40
2.0
100
AcDbArc
 50
0.0
 51
90.0
  0
ARC
  5
45F
330
1F
100
AcDbEntity
  8
0
  6
Continuous
 62
     7
370
    35
100
AcDbCircle
 10
185.9698143637
 20
88.695877122
 30
0.0
 40
2.000000000000057
100
AcDbArc
 50
180.0
 51
270.0
  0
LINE
  5
460
330
1F
100
AcDbEntity
  8
0
  6
Continuous
 62
     7
370
    35
100
AcDbLine
 10
183.9698143637
 20
88.695877122
 30
0.0
 11
183.9698143637
 21
104.695877122
 31
0.0
  0
ARC
  5
461
330
1F
100
AcDbEntity
  8
0
  6
Continuous
 62
     7
370
    35
100
AcDbCircle
 10
185.9698143637
 20
104.695877122
 30
0.0
 40
2.000000000000057
100
AcDbArc
 50
90.0
 51
180.0
  0
ARC
  5
462
330
1F
100
AcDbEntity
  8
0
  6
Continuous
 62
     7
370
    35
100
AcDbCircle
 10
185.9698143637
 20
108.695877122
 30
0.0
 40
2.000000000000071
100
AcDbArc
 50
270.0
 51
360.0
  0
LINE
  5
463
330
1F
100
AcDbEntity
  8
0
  6
Continuous
 62
     7
370
    35
100
AcDbLine
 10
187.9698143637
 20
108.695877122
 30
0.0
 11
187.9698143637
 21
113.695877122
 31
0.0
  0
ARC
  5
464
330
1F
100
AcDbEntity
  8
0
  6
Continuous
 62
     7
370
    35
100
AcDbCircle
 10
189.9698143637
 20
113.695877122
 30
0.0
 40
2.000000000000057
100
AcDbArc
 50
90.0
 51
180.0
  0
LINE
  5
465
330
1F
100
AcDbEntity
  8
0
  6
Continuous
 62
     7
370
    35
100
AcDbLine
 10
189.9698143637
 20
115.695877122
 30
0.0
 11
193.9698143637
 21
115.695877122
 31
0.0
  0
ARC
  5
466
330
1F
100
AcDbEntity
  8
0
  6
Continuous
 62
     7
370
    35
100
AcDbCircle
 10
193.9698143637
 20
109.695877122
 30
0.0
 40
6.000000000000071
100
AcDbArc
 50
0.0
 51
90.0
  0
LINE
  5
467
330
1F
100
AcDbEntity
  8
0
  6
Continuous
 62
     7
370
    35
100
AcDbLine
 10
199.9698143637
 20
109.695877122
 30
0.0
 11
199.9698143637
 21
72.695877122
 31
0.0
  0
ARC
  5
468
330
1F
100
AcDbEntity
  8
0
  6
Continuous
 62
     7
370
    35
100
AcDbCircle
 10
193.9698143637
 20
72.695877122
 30
0.0
 40
6.000000000000043
100
AcDbArc
 50
270.0
 51
0.0
  0
LINE
  5
469
330
1F
100
AcDbEntity
  8
0
  6
Continuous
 62
     7
370
    35
100
AcDbLine
 10
193.9698143637
 20
66.695877122
 30
0.0
 11
156.9698143637
 21
66.695877122
 31
0.0
  0
ARC
  5
46A
330
1F
100
AcDbEntity
  8
0
  6
Continuous
 62
     7
370
    35
100
AcDbCircle
 10
156.9698143637
 20
72.695877122
 30
0.0
 40
6.000000000000085
100
AcDbArc
 50
180.0
 51
270.0
  0
LINE
  5
46B
330
1F
100
AcDbEntity
  8
0
  6
Continuous
 62
     7
370
    35
100
AcDbLine
 10
150.9698143637
 20
72.695877122
 30
0.0
 11
150.9698143637
 21
76.695877122
 31
0.0
  0
ARC
  5
46C
330
1F
100
AcDbEntity
  8
0
  6
Continuous
 62
     7
370
    35
100
AcDbCircle
 10
152.9698143637
 20
76.695877122
 30
0.0
 40
2.000000000000028
100
AcDbArc
 50
90.0
 51
180.0
  0
LINE
  5
46D
330
1F
100
AcDbEntity
  8
0
  6
Continuous
 62
     7
370
    35
100
AcDbLine
 10
152.9698143637
 20
78.695877122
 30
0.0
 11
157.9698143637
 21
78.695877122
 31
0.0
  0
ARC
  5
46E
330
1F
100
AcDbEntity
  8
0
  6
Continuous
 62
     7
370
    35
100
AcDbCircle
 10
157.9698143637
 20
80.695877122
 30
0.0
 40
2.0
100
AcDbArc
 50
270.0
 51
0.0
  0
ARC
  5
46F
330
1F
100
AcDbEntity
  8
0
  6
Continuous
 62
     7
370
    35
100
AcDbCircle
 10
161.9698143637
 20
80.695877122
 30
0.0
 40
2.000000000000085
100
AcDbArc
 50
90.0
 51
180.0
  0
LINE
  5
470
330
1F
100
AcDbEntity
  8
0
  6
Continuous
 62
     7
370
    35
100
AcDbLine
 10
161.9698143637
 20
82.695877122
 30
0.0
 11
177.9698143637
 21
82.695877122
 31
0.0
  0
ARC
  5
471
330
1F
100
AcDbEntity
  8
0
  6
Continuous
 62
     7
370
    35
100
AcDbCircle
 10
177.9698143637
 20
80.695877122
 30
0.0
 40
2.000000000000043
100
AcDbArc
 50
0.0
 51
90.0
  0
ARC
  5
472
330
1F
100
AcDbEntity
  8
0
  6
Continuous
 62
     7
370
    35
100
AcDbCircle
 10
181.9698143637
 20
80.695877122
 30
0.0
 40
2.0
100
AcDbArc
 50
180.0
 51
270.0
  0
LINE
  5
473
330
1F
100
AcDbEntity
  8
0
  6
Continuous
 62
     7
370
    35
100
AcDbLine
 10
181.9698143637
 20
78.695877122
 30
0.0
 11
184.4626836131
 21
78.695877122
 31
0.0
  0
ARC
  5
474
330
1F
100
AcDbEntity
  8
0
  6
Continuous
 62
     7
370
    35
100
AcDbCircle
 10
184.4626836131
 20
76.695877122
 30
0.0
 40
2.000000000000028
100
AcDbArc
 50
58.2116693829
 51
90.0
  0
ARC
  5
475
330
1F
100
AcDbEntity
  8
0
  6
Continuous
 62
     7
370
    35
100
AcDbCircle
 10
186.5698143637
 20
80.095877122
 30
0.0
 40
2.000000000000037
100
AcDbArc
 50
238.2116693829
 51
31.7883306171
  0
LINE
  5
476
330
1F
100
AcDbEntity
  8
0
  6
Continuous
 62
     7
370
    35
100
AcDbLine
 10
186.9698143637
 20
108.695877122
 30
0.0
 11
186.9698143637
 21
106.9638263144
 31
0.0
  0
ARC
  5
477
330
1F
100
AcDbEntity
  8
0
  6
Continuous
 62
     7
370
    35
100
AcDbCircle
 10
193.9698143637
 20
108.695877122
 30
0.0
 40
7.0
100
AcDbArc
 50
0.0
 51
90.0
  0
ARC
  5
478
330
1F
100
AcDbEntity
  8
0
  6
Continuous
 62
     7
370
    35
100
AcDbCircle
 10
193.9698143637
 20
108.695877122
 30
0.0
 40
6.999999999999986
100
AcDbArc
 50
148.9972808661
 51
180.0
  0
LINE
  5
479
330
1F
100
AcDbEntity
  8
0
  6
Continuous
 62
     7
370
    35
100
AcDbLine
 10
200.9698143637
 20
72.695877122
 30
0.0
 11
200.9698143637
 21
108.695877122
 31
0.0
  0
ARC
  5
47A
330
1F
100
AcDbEntity
  8
0
  6
Continuous
 62
     7
370
    35
100
AcDbCircle
 10
193.9698143637
 20
72.695877122
 30
0.0
 40
7.0
100
AcDbArc
 50
270.0
 51
0.0
  0
LINE
  5
47B
330
1F
100
AcDbEntity
  8
0
  6
Continuous
 62
     7
370
    35
100
AcDbLine
 10
157.9698143637
 20
65.695877122
 30
0.0
 11
193.9698143637
 21
65.695877122
 31
0.0
  0
ARC
  5
47C
330
1F
100
AcDbEntity
  8
0
  6
Continuous
 62
     7
370
    35
100
AcDbCircle
 10
157.9698143637
 20
72.695877122
 30
0.0
 40
7.000000000000014
100
AcDbArc
 50
90.0
 51
121.0027191339
  0
ARC
  5
47D
330
1F
100
AcDbEntity
  8
0
  6
Continuous
 62
     7
370
    35
100
AcDbCircle
 10
157.9698143637
 20
72.695877122
 30
0.0
 40
6.999999999999986
100
AcDbArc
 50
180.0
 51
270.0
  0
LINE
  5
47E
330
1F
100
AcDbEntity
  8
0
  6
Continuous
 62
     7
370
    35
100
AcDbLine
 10
159.7018651713
 20
79.695877122
 30
0.0
 11
157.9698143637
 21
79.695877122
 31
0.0
  0
ARC
  5
47F
330
1F
100
AcDbEntity
  8
0
  6
Continuous
 62
     7
370
    35
100
AcDbCircle
 10
175.9698143637
 20
90.695877122
 30
0.0
 40
14.00000000000002
100
AcDbArc
 50
301.0027191339
 51
328.9972808661
  0
LINE
  5
480
330
1F
100
AcDbEntity
  8
SLD-0
  6
HIDDEN
 62
     7
370
    18
100
AcDbLine
 10
157.9698143637
 20
78.695877122
 30
0.0
 11
183.2162489884
 21
78.695877122
 31
0.0
  0
LINE
  5
481
330
1F
100
AcDbEntity
  8
SLD-0
  6
HIDDEN
 62
     7
370
    18
100
AcDbLine
 10
187.9698143637
 20
83.4494424973
 30
0.0
 11
187.9698143637
 21
111.5130566433
 31
0.0
  0
CIRCLE
  5
482
330
1F
100
AcDbEntity
  8
SLD-0
  6
HIDDEN
 62
     7
370
    18
100
AcDbCircle
 10
162.5698143637
 20
104.095877122
 30
0.0
 40
25.4
  0
DIMENSION
  5
483
330
1F
100
AcDbEntity
  8
SLD-0
 62
     7
100
AcDbDimension
  2
_D_8
 10
155.9958106181
 20
79.5613611343
 30
0.0
 11
185.9170170048
 21
143.9961375035
 31
0.0
 70
   163
  1
ACCEPTS\P0.5"~2" OPTICS
 71
     1
 42
-1.0
  3
SLDDIMSTYLE1
100
AcDbDiametricDimension
 15
169.1438181093
 25
128.6303931097
 35
0.0
 40
0.0
  0
DIMENSION
  5
48C
330
1F
100
AcDbEntity
  8
SLD-0
 62
     7
100
AcDbDimension
  2
_D_9
 10
200.9698143637
 20
56.7135061416
 30
0.0
 11
175.9698143637
 21
56.7135061416
 31
0.0
 70
   160
  1
<>
 71
     2
 42
-1.0
  3
SLDDIMSTYLE0
100
AcDbAlignedDimension
 13
150.9698143637
 23
72.695877122
 33
0.0
 14
200.9698143637
 24
72.695877122
 34
0.0
 50
0.0
100
AcDbRotatedDimension
  0
DIMENSION
  5
496
330
1F
100
AcDbEntity
  8
SLD-0
 62
     7
100
AcDbDimension
  2
_D_10
 10
210.5477113537
 20
115.695877122
 30
0.0
 11
210.5477113537
 21
90.695877122
 31
0.0
 70
   160
  1
<>
 71
     2
 42
-1.0
  3
SLDDIMSTYLE0
100
AcDbAlignedDimension
 13
193.9698143637
 23
65.695877122
 33
0.0
 14
193.9698143637
 24
115.695877122
 34
0.0
 50
90.0
100
AcDbRotatedDimension
  0
INSERT
  5
4AB
330
1F
100
AcDbEntity
  8
SLD-0
 62
     7
100
AcDbBlockReference
  2
SW_CENTERMARKSYMBOL_7
 10
162.5698143637
 20
104.095877122
 30
0.0
  0
ENDSEC
  0
SECTION
  2
OBJECTS
  0
DICTIONARY
  5
C
330
0
100
AcDbDictionary
281
     1
  3
ACAD_DETAILVIEWSTYLE
350
4B5
  3
ACAD_GROUP
350
D
  3
ACAD_LAYOUT
350
1A
  3
ACAD_MATERIAL
350
43
  3
ACAD_MLEADERSTYLE
350
5B
  3
ACAD_MLINESTYLE
350
17
  3
ACAD_PLOTSETTINGS
350
19
  3
ACAD_PLOTSTYLENAME
350
E
  3
ACAD_SCALELIST
350
47
  3
ACAD_SECTIONVIEWSTYLE
350
4B6
  3
ACAD_TABLESTYLE
350
59
  3
ACDB_RECOMPOSE_DATA
350
4B2
  3
AcDbVariableDictionary
350
4AC
  0
DICTIONARY
  5
4B5
102
{ACAD_REACTORS
330
C
102
}
330
C
100
AcDbDictionary
281
     1
  0
DICTIONARY
  5
D
102
{ACAD_REACTORS
330
C
102
}
330
C
100
AcDbDictionary
281
     1
  0
DICTIONARY
  5
1A
102
{ACAD_REACTORS
330
C
102
}
330
C
100
AcDbDictionary
281
     1
  3
Layout1
350
1E
  3
Layout2
350
26
  3
Model
350
22
  0
DICTIONARY
  5
43
102
{ACAD_REACTORS
330
C
102
}
330
C
100
AcDbDictionary
281
     1
  3
ByBlock
350
45
  3
ByLayer
350
44
  3
Global
350
46
  0
DICTIONARY
  5
5B
102
{ACAD_REACTORS
330
C
102
}
330
C
100
AcDbDictionary
281
     1
  3
Standard
350
5C
  0
DICTIONARY
  5
17
102
{ACAD_REACTORS
330
C
102
}
330
C
100
AcDbDictionary
281
     1
  3
Standard
350
18
  0
DICTIONARY
  5
19
102
{ACAD_REACTORS
330
C
102
}
330
C
100
AcDbDictionary
281
     1
  0
ACDBDICTIONARYWDFLT
  5
E
102
{ACAD_REACTORS
330
C
102
}
330
C
100
AcDbDictionary
281
     1
  3
Normal
350
F
100
AcDbDictionaryWithDefault
340
F
  0
DICTIONARY
  5
47
102
{ACAD_REACTORS
330
C
102
}
330
C
100
AcDbDictionary
281
     1
  3
A0
350
48
  3
A1
350
49
  3
A2
350
4A
  3
A3
350
4B
  3
A4
350
4C
  3
A5
350
4D
  3
A6
350
4E
  3
A7
350
4F
  3
A8
350
50
  3
A9
350
51
  3
B0
350
52
  3
B1
350
53
  3
B2
350
54
  3
B3
350
55
  3
B4
350
56
  3
B5
350
57
  3
B6
350
58
  0
DICTIONARY
  5
4B6
102
{ACAD_REACTORS
330
C
102
}
330
C
100
AcDbDictionary
281
     1
  0
DICTIONARY
  5
59
102
{ACAD_REACTORS
330
C
102
}
330
C
100
AcDbDictionary
281
     1
  3
Standard
350
5A
  0
XRECORD
  5
4B2
102
{ACAD_REACTORS
330
C
102
}
330
C
100
AcDbXrecord
280
     1
 90
        1
330
5A
  0
DICTIONARY
  5
4AC
102
{ACAD_REACTORS
330
C
102
}
330
C
100
AcDbDictionary
281
     1
  3
CANNOSCALE
350
4AD
  3
CENTEREXE
350
4B7
  3
CENTERLTYPEFILE
350
4B8
  3
CMLEADERSTYLE
350
4B4
  3
CTABLESTYLE
350
4B3
  0
LAYOUT
  5
1E
102
{ACAD_REACTORS
330
1A
102
}
330
1A
100
AcDbPlotSettings
  1

  2
none_device
  4

  6

 40
0.0
 41
0.0
 42
0.0
 43
0.0
 44
0.0
 45
0.0
 46
0.0
 47
0.0
 48
0.0
 49
0.0
140
0.0
141
0.0
142
1.0
143
1.0
 70
   688
 72
     1
 73
     0
 74
     5
  7

 75
    16
 76
     0
 77
     2
 78
   300
147
1.0
148
0.0
149
0.0
100
AcDbLayout
  1
Layout1
 70
     1
 71
     1
 10
0.0
 20
0.0
 11
420.0
 21
297.0
 12
0.0
 22
0.0
 32
0.0
 14
1.0000000000E+20
 24
1.0000000000E+20
 34
1.0000000000E+20
 15
-1.0000000000E+20
 25
-1.0000000000E+20
 35
-1.0000000000E+20
146
0.0
 13
0.0
 23
0.0
 33
0.0
 16
1.0
 26
0.0
 36
0.0
 17
0.0
 27
1.0
 37
0.0
 76
     0
330
1B
  0
LAYOUT
  5
26
102
{ACAD_REACTORS
330
1A
102
}
330
1A
100
AcDbPlotSettings
  1

  2
none_device
  4

  6

 40
0.0
 41
0.0
 42
0.0
 43
0.0
 44
0.0
 45
0.0
 46
0.0
 47
0.0
 48
0.0
 49
0.0
140
0.0
141
0.0
142
1.0
143
1.0
 70
   688
 72
     1
 73
     0
 74
     5
  7

 75
    16
 76
     0
 77
     2
 78
   300
147
1.0
148
0.0
149
0.0
100
AcDbLayout
  1
Layout2
 70
     1
 71
     2
 10
0.0
 20
0.0
 11
0.0
 21
0.0
 12
0.0
 22
0.0
 32
0.0
 14
0.0
 24
0.0
 34
0.0
 15
0.0
 25
0.0
 35
0.0
146
0.0
 13
0.0
 23
0.0
 33
0.0
 16
1.0
 26
0.0
 36
0.0
 17
0.0
 27
1.0
 37
0.0
 76
     0
330
23
  0
LAYOUT
  5
22
102
{ACAD_REACTORS
330
1A
102
}
330
1A
100
AcDbPlotSettings
  1

  2
none_device
  4
Letter_(8.50_x_11.00_Inches)
  6

 40
6.35
 41
6.35
 42
6.35000508
 43
6.35000508
 44
215.9
 45
279.4
 46
0.0
 47
0.0
 48
0.0
 49
0.0
140
0.0
141
0.0
142
1.0
143
1.0
 70
  1712
 72
     1
 73
     0
 74
     0
  7

 75
     0
 76
     0
 77
     2
 78
   300
147
1.0
148
0.0
149
0.0
100
AcDbLayout
  1
Model
 70
     1
 71
     0
 10
0.0
 20
0.0
 11
297.0
 21
210.0
 12
0.0
 22
0.0
 32
0.0
 14
0.0
 24
0.0
 34
0.0
 15
297.0
 25
210.0
 35
0.0
146
0.0
 13
0.0
 23
0.0
 33
0.0
 16
1.0
 26
0.0
 36
0.0
 17
0.0
 27
1.0
 37
0.0
 76
     0
330
1F
331
29
  0
MATERIAL
  5
45
102
{ACAD_REACTORS
330
43
102
}
330
43
100
AcDbMaterial
  1
ByBlock
  0
MATERIAL
  5
44
102
{ACAD_REACTORS
330
43
102
}
330
43
100
AcDbMaterial
  1
ByLayer
  0
MATERIAL
  5
46
102
{ACAD_REACTORS
330
43
102
}
330
43
100
AcDbMaterial
  1
Global
  0
MLEADERSTYLE
  5
5C
102
{ACAD_REACTORS
330
5B
102
}
330
5B
100
AcDbMLeaderStyle
170
     2
171
     1
172
     0
 90
        2
 40
0.0
 41
0.0
173
     1
 91
-1056964608
340
14
 92
       -2
290
     1
 42
2.0
291
     1
 43
8.0
  3
Standard
341
0
 44
4.0
300

342
11
174
     1
178
     6
175
     1
176
     0
 93
-1056964608
 45
4.0
292
     0
297
     0
 46
4.0
343
0
 94
-1056964608
 47
1.0
 49
1.0
140
1.0
293
     1
141
0.0
294
     1
177
     0
142
1.0
295
     0
296
     0
143
3.75
1001
ACAD_MLEADERVER
1070
     2
  0
MLINESTYLE
  5
18
102
{ACAD_REACTORS
330
17
102
}
330
17
100
AcDbMlineStyle
  2
Standard
 70
     0
  3

 62
   256
 51
90.0
 52
90.0
 71
     2
 49
0.5
 62
   256
  6
BYLAYER
 49
-0.5
 62
   256
  6
BYLAYER
  0
ACDBPLACEHOLDER
  5
F
102
{ACAD_REACTORS
330
E
102
}
330
E
  0
SCALE
  5
48
102
{ACAD_REACTORS
330
47
102
}
330
47
100
AcDbScale
 70
     0
300
1:1
140
1.0
141
1.0
290
     1
  0
SCALE
  5
49
102
{ACAD_REACTORS
330
47
102
}
330
47
100
AcDbScale
 70
     0
300
1:2
140
1.0
141
2.0
290
     0
  0
SCALE
  5
4A
102
{ACAD_REACTORS
330
47
102
}
330
47
100
AcDbScale
 70
     0
300
1:4
140
1.0
141
4.0
290
     0
  0
SCALE
  5
4B
102
{ACAD_REACTORS
330
47
102
}
330
47
100
AcDbScale
 70
     0
300
1:5
140
1.0
141
5.0
290
     0
  0
SCALE
  5
4C
102
{ACAD_REACTORS
330
47
102
}
330
47
100
AcDbScale
 70
     0
300
1:8
140
1.0
141
8.0
290
     0
  0
SCALE
  5
4D
102
{ACAD_REACTORS
330
47
102
}
330
47
100
AcDbScale
 70
     0
300
1:10
140
1.0
141
10.0
290
     0
  0
SCALE
  5
4E
102
{ACAD_REACTORS
330
47
102
}
330
47
100
AcDbScale
 70
     0
300
1:16
140
1.0
141
16.0
290
     0
  0
SCALE
  5
4F
102
{ACAD_REACTORS
330
47
102
}
330
47
100
AcDbScale
 70
     0
300
1:20
140
1.0
141
20.0
290
     0
  0
SCALE
  5
50
102
{ACAD_REACTORS
330
47
102
}
330
47
100
AcDbScale
 70
     0
300
1:30
140
1.0
141
30.0
290
     0
  0
SCALE
  5
51
102
{ACAD_REACTORS
330
47
102
}
330
47
100
AcDbScale
 70
     0
300
1:40
140
1.0
141
40.0
290
     0
  0
SCALE
  5
52
102
{ACAD_REACTORS
330
47
102
}
330
47
100
AcDbScale
 70
     0
300
1:50
140
1.0
141
50.0
290
     0
  0
SCALE
  5
53
102
{ACAD_REACTORS
330
47
102
}
330
47
100
AcDbScale
 70
     0
300
1:100
140
1.0
141
100.0
290
     0
  0
SCALE
  5
54
102
{ACAD_REACTORS
330
47
102
}
330
47
100
AcDbScale
 70
     0
300
2:1
140
2.0
141
1.0
290
     0
  0
SCALE
  5
55
102
{ACAD_REACTORS
330
47
102
}
330
47
100
AcDbScale
 70
     0
300
4:1
140
4.0
141
1.0
290
     0
  0
SCALE
  5
56
102
{ACAD_REACTORS
330
47
102
}
330
47
100
AcDbScale
 70
     0
300
8:1
140
8.0
141
1.0
290
     0
  0
SCALE
  5
57
102
{ACAD_REACTORS
330
47
102
}
330
47
100
AcDbScale
 70
     0
300
10:1
140
10.0
141
1.0
290
     0
  0
SCALE
  5
58
102
{ACAD_REACTORS
330
47
102
}
330
47
100
AcDbScale
 70
     0
300
100:1
140
100.0
141
1.0
290
     0
  0
TABLESTYLE
  5
5A
102
{ACAD_REACTORS
330
59
102
}
102
{ACAD_XDICTIONARY
360
4AE
102
}
330
59
100
AcDbTableStyle
  3
Standard
 70
     0
 71
     0
 40
0.06
 41
0.06
280
     0
281
     0
  7
Standard
140
4.5
170
     2
 62
     0
 63
   257
283
     0
274
    -2
284
     1
 64
     0
275
    -2
285
     1
 65
     0
276
    -2
286
     1
 66
     0
277
    -2
287
     1
 67
     0
278
    -2
288
     1
 68
     0
279
    -2
289
     1
 69
     0
  7
Standard
140
6.0
170
     5
 62
     0
 63
   257
283
     0
274
    -2
284
     1
 64
     0
275
    -2
285
     1
 65
     0
276
    -2
286
     1
 66
     0
277
    -2
287
     1
 67
     0
278
    -2
288
     1
 68
     0
279
    -2
289
     1
 69
     0
  7
Standard
140
4.5
170
     5
 62
     0
 63
   257
283
     0
274
    -2
284
     1
 64
     0
275
    -2
285
     1
 65
     0
276
    -2
286
     1
 66
     0
277
    -2
287
     1
 67
     0
278
    -2
288
     1
 68
     0
279
    -2
289
     1
 69
     0
  0
DICTIONARYVAR
  5
4AD
102
{ACAD_REACTORS
330
4AC
102
}
330
4AC
100
DictionaryVariables
280
     0
  1
1:1
  0
DICTIONARYVAR
  5
4B7
102
{ACAD_REACTORS
330
4AC
102
}
330
4AC
100
DictionaryVariables
280
     0
  1
3.500000
  0
DICTIONARYVAR
  5
4B8
102
{ACAD_REACTORS
330
4AC
102
}
330
4AC
100
DictionaryVariables
280
     0
  1
acadiso.lin
  0
DICTIONARYVAR
  5
4B4
102
{ACAD_REACTORS
330
4AC
102
}
330
4AC
100
DictionaryVariables
280
     0
  1
Standard
  0
DICTIONARYVAR
  5
4B3
102
{ACAD_REACTORS
330
4AC
102
}
330
4AC
100
DictionaryVariables
280
     0
  1
Standard
  0
DICTIONARY
  5
4AE
330
5A
100
AcDbDictionary
280
     1
281
     1
  3
ACAD_ROUNDTRIP_2008_TABLESTYLE_CELLSTYLEMAP
360
4B0
  3
ACAD_XREC_ROUNDTRIP
360
4AF
  0
CELLSTYLEMAP
  5
4B0
102
{ACAD_REACTORS
330
4AE
102
}
330
4AE
100
AcDbCellStyleMap
 90
        3
300
CELLSTYLE
  1
TABLEFORMAT_BEGIN
 90
        5
170
     1
 91
        0
 92
    32768
 62
   257
 93
        1
300
CONTENTFORMAT
  1
CONTENTFORMAT_BEGIN
 90
        0
 91
        0
 92
        4
 93
        0
300

 40
0.0
140
1.0
 94
        5
 62
     0
340
11
144
6.0
309
CONTENTFORMAT_END
171
     1
301
MARGIN
  1
CELLMARGIN_BEGIN
 40
1.5
 40
1.5
 40
1.5
 40
1.5
 40
1.5
 40
1.5
309
CELLMARGIN_END
 94
        6
 95
        1
302
GRIDFORMAT
  1
GRIDFORMAT_BEGIN
 90
        0
 91
        1
 62
     0
 92
       -2
340
14
 93
        0
 40
0.045
309
GRIDFORMAT_END
 95
        2
302
GRIDFORMAT
  1
GRIDFORMAT_BEGIN
 90
        0
 91
        1
 62
     0
 92
       -2
340
14
 93
        0
 40
0.045
309
GRIDFORMAT_END
 95
        4
302
GRIDFORMAT
  1
GRIDFORMAT_BEGIN
 90
        0
 91
        1
 62
     0
 92
       -2
340
14
 93
        0
 40
0.045
309
GRIDFORMAT_END
 95
        8
302
GRIDFORMAT
  1
GRIDFORMAT_BEGIN
 90
        0
 91
        1
 62
     0
 92
       -2
340
14
 93
        0
 40
0.045
309
GRIDFORMAT_END
 95
       16
302
GRIDFORMAT
  1
GRIDFORMAT_BEGIN
 90
        0
 91
        1
 62
     0
 92
       -2
340
14
 93
        0
 40
0.045
309
GRIDFORMAT_END
 95
       32
302
GRIDFORMAT
  1
GRIDFORMAT_BEGIN
 90
        0
 91
        1
 62
     0
 92
       -2
340
14
 93
        0
 40
0.045
309
GRIDFORMAT_END
309
TABLEFORMAT_END
  1
CELLSTYLE_BEGIN
 90
        1
 91
        1
300
_TITLE
309
CELLSTYLE_END
300
CELLSTYLE
  1
TABLEFORMAT_BEGIN
 90
        5
170
     1
 91
        0
 92
        0
 62
   257
 93
        1
300
CONTENTFORMAT
  1
CONTENTFORMAT_BEGIN
 90
        0
 91
        0
 92
        4
 93
        0
300

 40
0.0
140
1.0
 94
        5
 62
     0
340
11
144
4.5
309
CONTENTFORMAT_END
171
     1
301
MARGIN
  1
CELLMARGIN_BEGIN
 40
1.5
 40
1.5
 40
1.5
 40
1.5
 40
1.5
 40
1.5
309
CELLMARGIN_END
 94
        6
 95
        1
302
GRIDFORMAT
  1
GRIDFORMAT_BEGIN
 90
        0
 91
        1
 62
     0
 92
       -2
340
14
 93
        0
 40
0.045
309
GRIDFORMAT_END
 95
        2
302
GRIDFORMAT
  1
GRIDFORMAT_BEGIN
 90
        0
 91
        1
 62
     0
 92
       -2
340
14
 93
        0
 40
0.045
309
GRIDFORMAT_END
 95
        4
302
GRIDFORMAT
  1
GRIDFORMAT_BEGIN
 90
        0
 91
        1
 62
     0
 92
       -2
340
14
 93
        0
 40
0.045
309
GRIDFORMAT_END
 95
        8
302
GRIDFORMAT
  1
GRIDFORMAT_BEGIN
 90
        0
 91
        1
 62
     0
 92
       -2
340
14
 93
        0
 40
0.045
309
GRIDFORMAT_END
 95
       16
302
GRIDFORMAT
  1
GRIDFORMAT_BEGIN
 90
        0
 91
        1
 62
     0
 92
       -2
340
14
 93
        0
 40
0.045
309
GRIDFORMAT_END
 95
       32
302
GRIDFORMAT
  1
GRIDFORMAT_BEGIN
 90
        0
 91
        1
 62
     0
 92
       -2
340
14
 93
        0
 40
0.045
309
GRIDFORMAT_END
309
TABLEFORMAT_END
  1
CELLSTYLE_BEGIN
 90
        2
 91
        1
300
_HEADER
309
CELLSTYLE_END
300
CELLSTYLE
  1
TABLEFORMAT_BEGIN
 90
        5
170
     1
 91
        0
 92
        0
 62
   257
 93
        1
300
CONTENTFORMAT
  1
CONTENTFORMAT_BEGIN
 90
        0
 91
        0
 92
        4
 93
        0
300

 40
0.0
140
1.0
 94
        2
 62
     0
340
11
144
4.5
309
CONTENTFORMAT_END
171
     1
301
MARGIN
  1
CELLMARGIN_BEGIN
 40
1.5
 40
1.5
 40
1.5
 40
1.5
 40
1.5
 40
1.5
309
CELLMARGIN_END
 94
        6
 95
        1
302
GRIDFORMAT
  1
GRIDFORMAT_BEGIN
 90
        0
 91
        1
 62
     0
 92
       -2
340
14
 93
        0
 40
0.045
309
GRIDFORMAT_END
 95
        2
302
GRIDFORMAT
  1
GRIDFORMAT_BEGIN
 90
        0
 91
        1
 62
     0
 92
       -2
340
14
 93
        0
 40
0.045
309
GRIDFORMAT_END
 95
        4
302
GRIDFORMAT
  1
GRIDFORMAT_BEGIN
 90
        0
 91
        1
 62
     0
 92
       -2
340
14
 93
        0
 40
0.045
309
GRIDFORMAT_END
 95
        8
302
GRIDFORMAT
  1
GRIDFORMAT_BEGIN
 90
        0
 91
        1
 62
     0
 92
       -2
340
14
 93
        0
 40
0.045
309
GRIDFORMAT_END
 95
       16
302
GRIDFORMAT
  1
GRIDFORMAT_BEGIN
 90
        0
 91
        1
 62
     0
 92
       -2
340
14
 93
        0
 40
0.045
309
GRIDFORMAT_END
 95
       32
302
GRIDFORMAT
  1
GRIDFORMAT_BEGIN
 90
        0
 91
        1
 62
     0
 92
       -2
340
14
 93
        0
 40
0.045
309
GRIDFORMAT_END
309
TABLEFORMAT_END
  1
CELLSTYLE_BEGIN
 90
        3
 91
        2
300
_DATA
309
CELLSTYLE_END
  0
XRECORD
  5
4AF
102
{ACAD_REACTORS
330
4AE
102
}
330
4AE
100
AcDbXrecord
280
     1
102
ACAD_ROUNDTRIP_PRE2007_TABLESTYLE
 90
        4
 91
        0
  1

 92
        4
 93
        0
  2

 94
        4
 95
        0
  3

  0
ENDSEC
  0
EOF
