  0
SECTION
  2
HEADER
  9
$ACADVER
  1
AC1015
  9
$ACADMAINTVER
 70
     6
  9
$DWGCODEPAGE
  3
ANSI_950
  9
$INSBASE
 10
0.0
 20
0.0
 30
0.0
  9
$EXTMIN
 10
0.0
 20
0.0
 30
0.0
  9
$EXTMAX
 10
247.5
 20
175.0
 30
0.0
  9
$LIMMIN
 10
0.0
 20
0.0
  9
$LIMMAX
 10
247.5
 20
175.0
  9
$ORTHOMODE
 70
     0
  9
$REGENMODE
 70
     1
  9
$FILLMODE
 70
     1
  9
$QTEXTMODE
 70
     0
  9
$MIRRTEXT
 70
     1
  9
$LTSCALE
 40
0.8333333333
  9
$ATTMODE
 70
     1
  9
$TEXTSIZE
 40
2.0833333333
  9
$TRACEWID
 40
1.0
  9
$TEXTSTYLE
  7
Standard
  9
$CLAYER
  8
0
  9
$CELTYPE
  6
ByLayer
  9
$CECOLOR
 62
   256
  9
$CELTSCALE
 40
1.0
  9
$DISPSILH
 70
     0
  9
$DIMSCALE
 40
1.0
  9
$DIMASZ
 40
1.6666666667
  9
$DIMEXO
 40
0.8333333333
  9
$DIMDLI
 40
3.75
  9
$DIMRND
 40
0.0
  9
$DIMDLE
 40
0.0
  9
$DIMEXE
 40
0.8333333333
  9
$DIMTP
 40
0.0
  9
$DIMTM
 40
0.0
  9
$DIMTXT
 40
2.0833333333
  9
$DIMCEN
 40
2.5
  9
$DIMTSZ
 40
0.0
  9
$DIMTOL
 70
     0
  9
$DIMLIM
 70
     0
  9
$DIMTIH
 70
     1
  9
$DIMTOH
 70
     1
  9
$DIMSE1
 70
     0
  9
$DIMSE2
 70
     0
  9
$DIMTAD
 70
     1
  9
$DIMZIN
 70
     0
  9
$DIMBLK
  1

  9
$DIMASO
 70
     1
  9
$DIMSHO
 70
     1
  9
$DIMPOST
  1

  9
$DIMAPOST
  1

  9
$DIMALT
 70
     0
  9
$DIMALTD
 70
     3
  9
$DIMALTF
 40
0.0393700787
  9
$DIMLFAC
 40
1.0
  9
$DIMTOFL
 70
     1
  9
$DIMTVP
 40
0.0
  9
$DIMTIX
 70
     0
  9
$DIMSOXD
 70
     0
  9
$DIMSAH
 70
     0
  9
$DIMBLK1
  1

  9
$DIMBLK2
  1

  9
$DIMSTYLE
  2
ISO-25
  9
$DIMCLRD
 70
     0
  9
$DIMCLRE
 70
     0
  9
$DIMCLRT
 70
     0
  9
$DIMTFAC
 40
1.0
  9
$DIMGAP
 40
0.8333333333
  9
$DIMJUST
 70
     0
  9
$DIMSD1
 70
     0
  9
$DIMSD2
 70
     0
  9
$DIMTOLJ
 70
     0
  9
$DIMTZIN
 70
     0
  9
$DIMALTZ
 70
     0
  9
$DIMALTTZ
 70
     0
  9
$DIMUPT
 70
     0
  9
$DIMDEC
 70
     2
  9
$DIMTDEC
 70
     2
  9
$DIMALTU
 70
     2
  9
$DIMALTTD
 70
     3
  9
$DIMTXSTY
  7
Standard
  9
$DIMAUNIT
 70
     0
  9
$DIMADEC
 70
     2
  9
$DIMALTRND
 40
0.0
  9
$DIMAZIN
 70
     0
  9
$DIMDSEP
 70
    44
  9
$DIMATFIT
 70
     3
  9
$DIMFRAC
 70
     0
  9
$DIMLDRBLK
  1

  9
$DIMLUNIT
 70
     2
  9
$DIMLWD
 70
    -2
  9
$DIMLWE
 70
    -2
  9
$DIMTMOVE
 70
     0
  9
$LUNITS
 70
     2
  9
$LUPREC
 70
     2
  9
$SKETCHINC
 40
1.0
  9
$FILLETRAD
 40
10.0
  9
$AUNITS
 70
     0
  9
$AUPREC
 70
     2
  9
$MENU
  1
.
  9
$ELEVATION
 40
0.0
  9
$PELEVATION
 40
0.0
  9
$THICKNESS
 40
0.0
  9
$LIMCHECK
 70
     0
  9
$CHAMFERA
 40
0.0
  9
$CHAMFERB
 40
0.0
  9
$CHAMFERC
 40
0.0
  9
$CHAMFERD
 40
0.0
  9
$SKPOLY
 70
     0
  9
$TDCREATE
 40
2458302.459072558
  9
$TDUCREATE
 40
2458302.125739225
  9
$TDUPDATE
 40
2458302.459085845
  9
$TDUUPDATE
 40
2458302.125752511
  9
$TDINDWG
 40
0.0000000116
  9
$TDUSRTIMER
 40
0.0000000116
  9
$USRTIMER
 70
     1
  9
$ANGBASE
 50
0.0
  9
$ANGDIR
 70
     0
  9
$PDMODE
 70
     0
  9
$PDSIZE
 40
-1.0
  9
$PLINEWID
 40
0.0
  9
$SPLFRAME
 70
     0
  9
$SPLINETYPE
 70
     6
  9
$SPLINESEGS
 70
     8
  9
$HANDSEED
  5
4F2
  9
$SURFTAB1
 70
     6
  9
$SURFTAB2
 70
     6
  9
$SURFTYPE
 70
     6
  9
$SURFU
 70
     6
  9
$SURFV
 70
     6
  9
$UCSBASE
  2

  9
$UCSNAME
  2

  9
$UCSORG
 10
0.0
 20
0.0
 30
0.0
  9
$UCSXDIR
 10
1.0
 20
0.0
 30
0.0
  9
$UCSYDIR
 10
0.0
 20
1.0
 30
0.0
  9
$UCSORTHOREF
  2

  9
$UCSORTHOVIEW
 70
     0
  9
$UCSORGTOP
 10
0.0
 20
0.0
 30
0.0
  9
$UCSORGBOTTOM
 10
0.0
 20
0.0
 30
0.0
  9
$UCSORGLEFT
 10
0.0
 20
0.0
 30
0.0
  9
$UCSORGRIGHT
 10
0.0
 20
0.0
 30
0.0
  9
$UCSORGFRONT
 10
0.0
 20
0.0
 30
0.0
  9
$UCSORGBACK
 10
0.0
 20
0.0
 30
0.0
  9
$PUCSBASE
  2

  9
$PUCSNAME
  2

  9
$PUCSORG
 10
0.0
 20
0.0
 30
0.0
  9
$PUCSXDIR
 10
1.0
 20
0.0
 30
0.0
  9
$PUCSYDIR
 10
0.0
 20
1.0
 30
0.0
  9
$PUCSORTHOREF
  2

  9
$PUCSORTHOVIEW
 70
     0
  9
$PUCSORGTOP
 10
0.0
 20
0.0
 30
0.0
  9
$PUCSORGBOTTOM
 10
0.0
 20
0.0
 30
0.0
  9
$PUCSORGLEFT
 10
0.0
 20
0.0
 30
0.0
  9
$PUCSORGRIGHT
 10
0.0
 20
0.0
 30
0.0
  9
$PUCSORGFRONT
 10
0.0
 20
0.0
 30
0.0
  9
$PUCSORGBACK
 10
0.0
 20
0.0
 30
0.0
  9
$USERI1
 70
     0
  9
$USERI2
 70
     0
  9
$USERI3
 70
     0
  9
$USERI4
 70
     0
  9
$USERI5
 70
     0
  9
$USERR1
 40
0.0
  9
$USERR2
 40
0.0
  9
$USERR3
 40
0.0
  9
$USERR4
 40
0.0
  9
$USERR5
 40
0.0
  9
$WORLDVIEW
 70
     1
  9
$SHADEDGE
 70
     3
  9
$SHADEDIF
 70
    70
  9
$TILEMODE
 70
     1
  9
$MAXACTVP
 70
    64
  9
$PINSBASE
 10
0.0
 20
0.0
 30
0.0
  9
$PLIMCHECK
 70
     0
  9
$PEXTMIN
 10
1.0000000000E+20
 20
1.0000000000E+20
 30
1.0000000000E+20
  9
$PEXTMAX
 10
-1.0000000000E+20
 20
-1.0000000000E+20
 30
-1.0000000000E+20
  9
$PLIMMIN
 10
0.0
 20
0.0
  9
$PLIMMAX
 10
420.0
 20
297.0
  9
$UNITMODE
 70
     0
  9
$VISRETAIN
 70
     1
  9
$PLINEGEN
 70
     0
  9
$PSLTSCALE
 70
     1
  9
$TREEDEPTH
 70
  3020
  9
$CMLSTYLE
  2
Standard
  9
$CMLJUST
 70
     0
  9
$CMLSCALE
 40
20.0
  9
$PROXYGRAPHICS
 70
     1
  9
$MEASUREMENT
 70
     1
  9
$CELWEIGHT
370
    -1
  9
$ENDCAPS
280
     0
  9
$JOINSTYLE
280
     0
  9
$LWDISPLAY
290
     1
  9
$INSUNITS
 70
     4
  9
$HYPERLINKBASE
  1

  9
$STYLESHEET
  1

  9
$XEDIT
290
     1
  9
$CEPSNTYPE
380
     0
  9
$PSTYLEMODE
290
     1
  9
$FINGERPRINTGUID
  2
{7F2E446F-3AE0-4D33-9F39-F7368F2E3A84}
  9
$VERSIONGUID
  2
{FAEB1C32-E019-11D5-929B-00C0DF256EC4}
  9
$EXTNAMES
290
     1
  9
$PSVPSCALE
 40
0.0
  9
$OLESTARTUP
290
     0
  0
ENDSEC
  0
SECTION
  2
CLASSES
  0
CLASS
  1
ACDBDICTIONARYWDFLT
  2
AcDbDictionaryWithDefault
  3
ObjectDBX Classes
 90
        0
280
     0
281
     0
  0
CLASS
  1
VISUALSTYLE
  2
AcDbVisualStyle
  3
ObjectDBX Classes
 90
     4095
280
     0
281
     0
  0
CLASS
  1
MATERIAL
  2
AcDbMaterial
  3
ObjectDBX Classes
 90
     1153
280
     0
281
     0
  0
CLASS
  1
SCALE
  2
AcDbScale
  3
ObjectDBX Classes
 90
     1153
280
     0
281
     0
  0
CLASS
  1
TABLESTYLE
  2
AcDbTableStyle
  3
ObjectDBX Classes
 90
     4095
280
     0
281
     0
  0
CLASS
  1
MLEADERSTYLE
  2
AcDbMLeaderStyle
  3
ACDB_MLEADERSTYLE_CLASS
 90
     4095
280
     0
281
     0
  0
CLASS
  1
SUN
  2
AcDbSun
  3
SCENEOE
 90
     1153
280
     0
281
     0
  0
CLASS
  1
ACDBPLACEHOLDER
  2
AcDbPlaceHolder
  3
ObjectDBX Classes
 90
        0
280
     0
281
     0
  0
CLASS
  1
LAYOUT
  2
AcDbLayout
  3
ObjectDBX Classes
 90
        0
280
     0
281
     0
  0
ENDSEC
  0
SECTION
  2
TABLES
  0
TABLE
  2
VPORT
  5
8
330
0
100
AcDbSymbolTable
 70
     1
  0
VPORT
  5
29
330
8
100
AcDbSymbolTableRecord
100
AcDbViewportTableRecord
  2
*Active
 70
     0
 10
0.0
 20
0.0
 11
1.0
 21
1.0
 12
123.75
 22
87.5
 13
0.0
 23
0.0
 14
10.0
 24
10.0
 15
10.0
 25
10.0
 16
0.0
 26
0.0
 36
1.0
 17
0.0
 27
0.0
 37
0.0
 40
175.0
 41
1.4142857143
 42
50.0
 43
0.0
 44
0.0
 50
0.0
 51
0.0
 71
     0
 72
  2000
 73
     1
 74
     3
 75
     0
 76
     0
 77
     0
 78
     0
281
     0
 65
     1
110
0.0
120
0.0
130
0.0
111
1.0
121
0.0
131
0.0
112
0.0
122
1.0
132
0.0
 79
     0
146
0.0
  0
ENDTAB
  0
TABLE
  2
LTYPE
  5
5
330
0
100
AcDbSymbolTable
 70
     6
  0
LTYPE
  5
14
330
5
100
AcDbSymbolTableRecord
100
AcDbLinetypeTableRecord
  2
ByBlock
 70
     0
  3

 72
    65
 73
     0
 40
0.0
  0
LTYPE
  5
15
330
5
100
AcDbSymbolTableRecord
100
AcDbLinetypeTableRecord
  2
ByLayer
 70
     0
  3

 72
    65
 73
     0
 40
0.0
  0
LTYPE
  5
16
330
5
100
AcDbSymbolTableRecord
100
AcDbLinetypeTableRecord
  2
Continuous
 70
     0
  3
Solid line
 72
    65
 73
     0
 40
0.0
  0
LTYPE
  5
6E
330
5
100
AcDbSymbolTableRecord
100
AcDbLinetypeTableRecord
  2
HIDDEN
 70
     0
  3
Hidden __ __ __ __ __ __ __ __ __ __ __ __ __ __
 72
    65
 73
     2
 40
1.905
 49
1.27
 74
     0
 49
-0.635
 74
     0
  0
LTYPE
  5
6F
330
5
100
AcDbSymbolTableRecord
100
AcDbLinetypeTableRecord
  2
PHANTOM
 70
     0
  3
Phantom ______  __  __  ______  __  __  ______
 72
    65
 73
     6
 40
12.7
 49
6.35
 74
     0
 49
-1.27
 74
     0
 49
1.27
 74
     0
 49
-1.27
 74
     0
 49
1.27
 74
     0
 49
-1.27
 74
     0
  0
LTYPE
  5
70
330
5
100
AcDbSymbolTableRecord
100
AcDbLinetypeTableRecord
  2
CENTER
 70
     0
  3
Center ____ _ ____ _ ____ _ ____ _ ____ _ ____
 72
    65
 73
     4
 40
10.16
 49
6.35
 74
     0
 49
-1.27
 74
     0
 49
1.27
 74
     0
 49
-1.27
 74
     0
  0
LTYPE
  5
71
330
5
100
AcDbSymbolTableRecord
100
AcDbLinetypeTableRecord
  2
CENTERX2
 70
     0
  3
Center (2x) ________  __  ________  __  _____
 72
    65
 73
     4
 40
20.32
 49
12.7
 74
     0
 49
-2.54
 74
     0
 49
2.54
 74
     0
 49
-2.54
 74
     0
  0
LTYPE
  5
72
330
5
100
AcDbSymbolTableRecord
100
AcDbLinetypeTableRecord
  2
DOT2
 70
     0
  3
Dot (.5x) ........................................
 72
    65
 73
     2
 40
0.635
 49
0.0
 74
     0
 49
-0.635
 74
     0
  0
ENDTAB
  0
TABLE
  2
LAYER
  5
2
330
0
100
AcDbSymbolTable
 70
     3
  0
LAYER
  5
10
330
2
100
AcDbSymbolTableRecord
100
AcDbLayerTableRecord
  2
0
 70
     0
 62
     7
  6
Continuous
370
    -3
390
F
  0
LAYER
  5
73
330
2
100
AcDbSymbolTableRecord
100
AcDbLayerTableRecord
  2
SLD-0
 70
     0
 62
     7
  6
Continuous
370
    15
390
F
  0
LAYER
  5
74
330
2
100
AcDbSymbolTableRecord
100
AcDbLayerTableRecord
  2
工作區域參考線
 70
     0
 62
   179
  6
Continuous
370
    -3
390
F
  0
ENDTAB
  0
TABLE
  2
STYLE
  5
3
330
0
100
AcDbSymbolTable
 70
     2
  0
STYLE
  5
11
330
3
100
AcDbSymbolTableRecord
100
AcDbTextStyleTableRecord
  2
Standard
 70
     0
 40
0.0
 41
1.0
 50
0.0
 71
     0
 42
2.0833333333
  3
txt
  4

  0
STYLE
  5
C5
330
3
100
AcDbSymbolTableRecord
100
AcDbTextStyleTableRecord
  2
SLDTEXTSTYLE0
 70
     0
 40
0.0
 41
0.605
 50
0.0
 71
     0
 42
2.0833333333
  3
TXT
  4

  0
ENDTAB
  0
TABLE
  2
VIEW
  5
6
330
0
100
AcDbSymbolTable
 70
     0
  0
ENDTAB
  0
TABLE
  2
UCS
  5
7
330
0
100
AcDbSymbolTable
 70
     0
  0
ENDTAB
  0
TABLE
  2
APPID
  5
9
330
0
100
AcDbSymbolTable
 70
     1
  0
APPID
  5
12
330
9
100
AcDbSymbolTableRecord
100
AcDbRegAppTableRecord
  2
ACAD
 70
     0
  0
ENDTAB
  0
TABLE
  2
DIMSTYLE
  5
A
330
0
100
AcDbSymbolTable
 70
     5
100
AcDbDimStyleTable
  0
DIMSTYLE
105
27
330
A
100
AcDbSymbolTableRecord
100
AcDbDimStyleTableRecord
  2
ISO-25
 70
     0
 41
2.5
 42
0.625
 43
3.75
 44
1.25
 73
     0
 74
     0
 77
     1
 78
     8
140
2.5
141
2.5
143
0.0393700787
147
0.625
171
     3
172
     1
178
     0
271
     2
272
     2
274
     3
278
    44
283
     0
284
     8
340
11
  0
DIMSTYLE
105
22B
102
{ACAD_REACTORS
330
22A
330
235
330
23F
330
249
330
3A8
330
3B2
330
3C6
330
3D0
102
}
330
A
100
AcDbSymbolTableRecord
100
AcDbDimStyleTableRecord
  2
SLDDIMSTYLE0
 70
     0
 41
1.6666666667
 44
0.0
 45
0.000000001
 73
     0
 74
     0
 77
     1
 78
    12
 79
     3
140
2.0833333333
147
0.5208333333
173
     1
178
     0
271
     2
272
     2
276
     2
284
    12
340
C5
  0
DIMSTYLE
105
2EC
102
{ACAD_REACTORS
330
2EB
102
}
330
A
100
AcDbSymbolTableRecord
100
AcDbDimStyleTableRecord
  2
SLDDIMSTYLE1
 70
     0
 41
1.6666666667
 44
0.0
 45
0.000000001
 78
    12
 79
     3
140
2.0833333333
141
0.0
147
0.5208333333
173
     1
178
     0
271
     2
272
     2
276
     2
284
    12
340
C5
  0
DIMSTYLE
105
3BD
102
{ACAD_REACTORS
330
3BC
102
}
330
A
100
AcDbSymbolTableRecord
100
AcDbDimStyleTableRecord
  2
SLDDIMSTYLE2
 70
     0
  3
<>
 41
1.6666666667
 44
0.0
 45
0.000000001
 78
    12
 79
     3
140
2.0833333333
141
0.0
147
0.5208333333
173
     1
178
     0
271
     2
272
     2
276
     2
284
    12
340
C5
  0
DIMSTYLE
105
3DB
102
{ACAD_REACTORS
330
3DA
102
}
330
A
100
AcDbSymbolTableRecord
100
AcDbDimStyleTableRecord
  2
SLDDIMSTYLE3
 70
     0
 41
1.6666666667
 44
0.0
 45
0.000000001
 73
     0
 74
     0
 77
     1
 78
    12
 79
     3
140
2.0833333333
147
0.5208333333
173
     1
178
     0
271
     1
272
     1
276
     2
284
    12
340
C5
  0
ENDTAB
  0
TABLE
  2
BLOCK_RECORD
  5
1
330
0
100
AcDbSymbolTable
 70
    18
  0
BLOCK_RECORD
  5
1F
330
1
100
AcDbSymbolTableRecord
100
AcDbBlockTableRecord
  2
*Model_Space
340
22
  0
BLOCK_RECORD
  5
1B
330
1
100
AcDbSymbolTableRecord
100
AcDbBlockTableRecord
  2
*Paper_Space
340
1E
  0
BLOCK_RECORD
  5
23
330
1
100
AcDbSymbolTableRecord
100
AcDbBlockTableRecord
  2
*Paper_Space0
340
26
  0
BLOCK_RECORD
  5
75
330
1
100
AcDbSymbolTableRecord
100
AcDbBlockTableRecord
  2
圖塊6_1
340
0
102
{BLKREFS
331
C4
102
}
  0
BLOCK_RECORD
  5
C7
330
1
100
AcDbSymbolTableRecord
100
AcDbBlockTableRecord
  2
SW_NOTE_0
340
0
102
{BLKREFS
331
CD
102
}
  0
BLOCK_RECORD
  5
FD
330
1
100
AcDbSymbolTableRecord
100
AcDbBlockTableRecord
  2
SW_NOTE_1
340
0
102
{BLKREFS
331
102
102
}
  0
BLOCK_RECORD
  5
22C
330
1
100
AcDbSymbolTableRecord
100
AcDbBlockTableRecord
  2
_D
340
0
  0
BLOCK_RECORD
  5
236
330
1
100
AcDbSymbolTableRecord
100
AcDbBlockTableRecord
  2
_D_1
340
0
  0
BLOCK_RECORD
  5
240
330
1
100
AcDbSymbolTableRecord
100
AcDbBlockTableRecord
  2
_D_2
340
0
  0
BLOCK_RECORD
  5
24A
330
1
100
AcDbSymbolTableRecord
100
AcDbBlockTableRecord
  2
_D_3
340
0
  0
BLOCK_RECORD
  5
253
330
1
100
AcDbSymbolTableRecord
100
AcDbBlockTableRecord
  2
SW_CENTERMARKSYMBOL_0
340
0
102
{BLKREFS
331
25E
102
}
  0
BLOCK_RECORD
  5
2ED
330
1
100
AcDbSymbolTableRecord
100
AcDbBlockTableRecord
  2
_D_4
340
0
  0
BLOCK_RECORD
  5
2F6
330
1
100
AcDbSymbolTableRecord
100
AcDbBlockTableRecord
  2
SW_CENTERMARKSYMBOL_1
340
0
102
{BLKREFS
331
301
102
}
  0
BLOCK_RECORD
  5
3A9
330
1
100
AcDbSymbolTableRecord
100
AcDbBlockTableRecord
  2
_D_5
340
0
  0
BLOCK_RECORD
  5
3B3
330
1
100
AcDbSymbolTableRecord
100
AcDbBlockTableRecord
  2
_D_6
340
0
  0
BLOCK_RECORD
  5
3BE
330
1
100
AcDbSymbolTableRecord
100
AcDbBlockTableRecord
  2
_D_7
340
0
  0
BLOCK_RECORD
  5
3C7
330
1
100
AcDbSymbolTableRecord
100
AcDbBlockTableRecord
  2
_D_8
340
0
  0
BLOCK_RECORD
  5
3D1
330
1
100
AcDbSymbolTableRecord
100
AcDbBlockTableRecord
  2
_D_9
340
0
  0
BLOCK_RECORD
  5
3DC
330
1
100
AcDbSymbolTableRecord
100
AcDbBlockTableRecord
  2
_D_10
340
0
  0
BLOCK_RECORD
  5
3E6
330
1
100
AcDbSymbolTableRecord
100
AcDbBlockTableRecord
  2
SW_CENTERMARKSYMBOL_2
340
0
102
{BLKREFS
331
3F1
102
}
  0
ENDTAB
  0
ENDSEC
  0
SECTION
  2
BLOCKS
  0
BLOCK
  5
20
330
1F
100
AcDbEntity
  8
0
100
AcDbBlockBegin
  2
*Model_Space
 70
     0
 10
0.0
 20
0.0
 30
0.0
  3
*Model_Space
  1

  0
ENDBLK
  5
21
330
1F
100
AcDbEntity
  8
0
100
AcDbBlockEnd
  0
BLOCK
  5
1C
330
1B
100
AcDbEntity
 67
     1
  8
0
100
AcDbBlockBegin
  2
*Paper_Space
 70
     0
 10
0.0
 20
0.0
 30
0.0
  3
*Paper_Space
  1

  0
ENDBLK
  5
1D
330
1B
100
AcDbEntity
 67
     1
  8
0
100
AcDbBlockEnd
  0
BLOCK
  5
24
330
23
100
AcDbEntity
  8
0
100
AcDbBlockBegin
  2
*Paper_Space0
 70
     0
 10
0.0
 20
0.0
 30
0.0
  3
*Paper_Space0
  1

  0
ENDBLK
  5
25
330
23
100
AcDbEntity
  8
0
100
AcDbBlockEnd
  0
BLOCK
  5
76
330
75
100
AcDbEntity
  8
0
100
AcDbBlockBegin
  2
圖塊6_1
 70
     0
 10
0.0
 20
0.0
 30
0.0
  3
圖塊6_1
  1

  0
ARC
  5
78
330
75
100
AcDbEntity
  8
0
 62
     7
370
    30
100
AcDbCircle
 10
1.275128695
 20
5.0850569076
 30
0.0
 40
1.275128694953059
100
AcDbArc
 50
130.2115225915
 51
228.588904108
  0
ARC
  5
79
330
75
100
AcDbEntity
  8
0
 62
     7
370
    30
100
AcDbCircle
 10
4.0424279984
 20
4.9957878679
 30
0.0
 40
2.147779522348018
100
AcDbArc
 50
140.4331765613
 51
251.0865666567
  0
ARC
  5
7A
330
75
100
AcDbEntity
  8
0
 62
     7
370
    30
100
AcDbCircle
 10
4.3137534985
 20
5.2597966427
 30
0.0
 40
2.491363881474885
100
AcDbArc
 50
247.1485306747
 51
309.6030773927
  0
LINE
  5
7B
330
75
100
AcDbEntity
  8
0
 62
     7
370
    30
100
AcDbLine
 10
1.5407481057
 20
7.1101521653
 30
0.0
 11
0.4518912267
 21
6.0588296016
 31
0.0
  0
LINE
  5
7C
330
75
100
AcDbEntity
  8
0
 62
     7
370
    30
100
AcDbLine
 10
0.4316857416
 20
4.1287320814
 30
0.0
 11
3.7726876668
 21
1.2248955479
 31
0.0
  0
LINE
  5
7D
330
75
100
AcDbEntity
  8
0
 62
     7
370
    30
100
AcDbLine
 10
3.7726876668
 20
1.2248955479
 30
0.0
 11
3.2468110664
 21
0.7116452225
 31
0.0
  0
LINE
  5
7E
330
75
100
AcDbEntity
  8
0
 62
     7
370
    30
100
AcDbLine
 10
3.2468110664
 20
0.7116452225
 30
0.0
 11
4.0733772037
 21
0.0
 31
0.0
  0
LINE
  5
7F
330
75
100
AcDbEntity
  8
0
 62
     7
370
    30
100
AcDbLine
 10
6.7480975657
 20
2.5971483046
 30
0.0
 11
5.901911706
 21
3.3402530777
 31
0.0
  0
LINE
  5
80
330
75
100
AcDbEntity
  8
0
 62
     7
370
    30
100
AcDbLine
 10
2.3867429786
 20
6.3638755813
 30
0.0
 11
1.5407481057
 21
7.1101521653
 31
0.0
  0
LINE
  5
81
330
75
100
AcDbEntity
  8
0
 62
     7
370
    30
100
AcDbLine
 10
4.0733772037
 20
0.0
 30
0.0
 11
6.7480975657
 21
2.5971483046
 31
0.0
  0
ENDBLK
  5
77
330
75
100
AcDbEntity
  8
0
100
AcDbBlockEnd
  0
BLOCK
  5
C8
330
C7
100
AcDbEntity
  8
0
100
AcDbBlockBegin
  2
SW_NOTE_0
 70
     0
 10
0.0
 20
0.0
 30
0.0
  3
SW_NOTE_0
  1

  0
MTEXT
  5
CA
330
C7
100
AcDbEntity
  8
0
  6
Continuous
 62
     0
370
     0
100
AcDbMText
 10
0.0
 20
2.842215329
 30
0.0
 40
2.2048611111
 41
0.0
 71
     1
 72
     1
  1
PROPRIETARY AND CONFIDENTIAL
  7
SLDTEXTSTYLE0
 73
     1
 44
1.0
  0
MTEXT
  5
CB
330
C7
100
AcDbEntity
  8
0
  6
Continuous
 62
     0
370
     0
100
AcDbMText
 10
0.0
 20
-0.0683195667
 30
0.0
 40
1.5434027778
 41
0.0
 71
     1
 72
     1
  1
THE INFORMATION CONTAINED IN THIS DRAWING IS THE SOLE PROPERTY OF UNICE E-O SERVICES INC. ANY REPRODUCTION IN PART OR AS A WHOLE WITHOUT THE WRITTEN PERMISSION OF UNICE E-O SERVICES INC IS
  7
SLDTEXTSTYLE0
 73
     1
 44
1.0
  0
MTEXT
  5
CC
330
C7
100
AcDbEntity
  8
0
  6
Continuous
 62
     0
370
     0
100
AcDbMText
 10
0.0
 20
-2.1261899122
 30
0.0
 40
1.5434027778
 41
0.0
 71
     1
 72
     1
  1
PROHIBITED.
  7
SLDTEXTSTYLE0
 73
     1
 44
1.0
  0
ENDBLK
  5
C9
330
C7
100
AcDbEntity
  8
0
100
AcDbBlockEnd
  0
BLOCK
  5
FE
330
FD
100
AcDbEntity
  8
0
100
AcDbBlockBegin
  2
SW_NOTE_1
 70
     0
 10
0.0
 20
0.0
 30
0.0
  3
SW_NOTE_1
  1

  0
MTEXT
  5
100
330
FD
100
AcDbEntity
  8
SLD-0
 62
     0
100
AcDbMText
 10
0.0
 20
1.7053291974
 30
0.0
 40
1.3229166667
 41
0.0
 71
     1
 72
     1
  1
No.5, Andong Rd., Chung Li District,
  7
SLDTEXTSTYLE0
 73
     1
 44
1.0
  0
MTEXT
  5
101
330
FD
100
AcDbEntity
  8
SLD-0
 62
     0
100
AcDbMText
 10
0.0
 20
-0.0585596702
 30
0.0
 40
1.3229166667
 41
0.0
 71
     1
 72
     1
  1
Taoyuan City 32063, Taiwan, R.O.C.
  7
SLDTEXTSTYLE0
 73
     1
 44
1.0
  0
ENDBLK
  5
FF
330
FD
100
AcDbEntity
  8
0
100
AcDbBlockEnd
  0
BLOCK
  5
22D
330
22C
100
AcDbEntity
  8
0
100
AcDbBlockBegin
  2
_D
 70
     0
 10
0.0
 20
0.0
 30
0.0
  3
_D
  1

  0
SOLID
  5
22F
330
22C
100
AcDbEntity
  8
SLD-0
 62
     7
100
AcDbTrace
 10
55.7353510255
 20
50.1686087712
 30
0.0
 11
54.0686843588
 21
50.3769421045
 31
0.0
 12
54.0686843588
 22
49.9602754379
 32
0.0
 13
54.0686843588
 23
49.9602754379
 33
0.0
  0
SOLID
  5
230
330
22C
100
AcDbEntity
  8
SLD-0
 62
     7
100
AcDbTrace
 10
29.2353510255
 20
50.1686087712
 30
0.0
 11
30.9020176921
 21
49.9602754379
 31
0.0
 12
30.9020176921
 22
50.3769421045
 32
0.0
 13
30.9020176921
 23
50.3769421045
 33
0.0
  0
LINE
  5
231
330
22C
100
AcDbEntity
  8
SLD-0
 62
     7
100
AcDbLine
 10
55.7353510255
 20
69.7817095525
 30
0.0
 11
55.7353510255
 21
49.3352754379
 31
0.0
  0
LINE
  5
232
330
22C
100
AcDbEntity
  8
SLD-0
 62
     7
100
AcDbLine
 10
29.2353510255
 20
67.5317095525
 30
0.0
 11
29.2353510255
 21
49.3352754379
 31
0.0
  0
LINE
  5
233
330
22C
100
AcDbEntity
  8
SLD-0
 62
     7
100
AcDbLine
 10
55.7353510255
 20
50.1686087712
 30
0.0
 11
29.2353510255
 21
50.1686087712
 31
0.0
  0
MTEXT
  5
234
330
22C
100
AcDbEntity
  8
SLD-0
 62
     7
100
AcDbMText
 10
39.7003395204
 20
52.8541664169
 30
0.0
 40
2.0833333333
 41
0.0
 71
     1
 72
     1
  1
26.5
  7
SLDTEXTSTYLE0
 73
     1
 44
1.0
  0
ENDBLK
  5
22E
330
22C
100
AcDbEntity
  8
0
100
AcDbBlockEnd
  0
BLOCK
  5
237
330
236
100
AcDbEntity
  8
0
100
AcDbBlockBegin
  2
_D_1
 70
     0
 10
0.0
 20
0.0
 30
0.0
  3
_D_1
  1

  0
SOLID
  5
239
330
236
100
AcDbEntity
  8
SLD-0
 62
     7
100
AcDbTrace
 10
24.8714758045
 20
56.6150428858
 30
0.0
 11
25.0798091378
 21
58.2817095525
 31
0.0
 12
24.6631424711
 22
58.2817095525
 32
0.0
 13
24.6631424711
 23
58.2817095525
 33
0.0
  0
SOLID
  5
23A
330
236
100
AcDbEntity
  8
SLD-0
 62
     7
100
AcDbTrace
 10
24.8714758045
 20
83.1150428858
 30
0.0
 11
24.6631424711
 21
81.4483762191
 31
0.0
 12
25.0798091378
 22
81.4483762191
 32
0.0
 13
25.0798091378
 23
81.4483762191
 33
0.0
  0
LINE
  5
23B
330
236
100
AcDbEntity
  8
SLD-0
 62
     7
100
AcDbLine
 10
40.1520176921
 20
56.6150428858
 30
0.0
 11
24.0381424711
 21
56.6150428858
 31
0.0
  0
LINE
  5
23C
330
236
100
AcDbEntity
  8
SLD-0
 62
     7
100
AcDbLine
 10
42.4020176921
 20
83.1150428858
 30
0.0
 11
24.0381424711
 21
83.1150428858
 31
0.0
  0
LINE
  5
23D
330
236
100
AcDbEntity
  8
SLD-0
 62
     7
100
AcDbLine
 10
24.8714758045
 20
56.6150428858
 30
0.0
 11
24.8714758045
 21
83.1150428858
 31
0.0
  0
MTEXT
  5
23E
330
236
100
AcDbEntity
  8
SLD-0
 62
     7
100
AcDbMText
 10
22.1859181588
 20
67.0800313807
 30
0.0
 40
2.0833333333
 41
0.0
 71
     1
 72
     1
  1
26.5
  7
SLDTEXTSTYLE0
 11
6.123233995736766E-17
 21
1.0
 31
0.0
 73
     1
 44
1.0
  0
ENDBLK
  5
238
330
236
100
AcDbEntity
  8
0
100
AcDbBlockEnd
  0
BLOCK
  5
241
330
240
100
AcDbEntity
  8
0
100
AcDbBlockBegin
  2
_D_2
 70
     0
 10
0.0
 20
0.0
 30
0.0
  3
_D_2
  1

  0
SOLID
  5
243
330
240
100
AcDbEntity
  8
SLD-0
 62
     7
100
AcDbTrace
 10
19.2287310265
 20
56.6150428858
 30
0.0
 11
19.4370643599
 21
58.2817095525
 31
0.0
 12
19.0203976932
 22
58.2817095525
 32
0.0
 13
19.0203976932
 23
58.2817095525
 33
0.0
  0
SOLID
  5
244
330
240
100
AcDbEntity
  8
SLD-0
 62
     7
100
AcDbTrace
 10
19.2287310265
 20
101.1150428858
 30
0.0
 11
19.0203976932
 21
99.4483762191
 31
0.0
 12
19.4370643599
 22
99.4483762191
 32
0.0
 13
19.4370643599
 23
99.4483762191
 33
0.0
  0
LINE
  5
245
330
240
100
AcDbEntity
  8
SLD-0
 62
     7
100
AcDbLine
 10
40.1520176921
 20
56.6150428858
 30
0.0
 11
18.3953976932
 21
56.6150428858
 31
0.0
  0
LINE
  5
246
330
240
100
AcDbEntity
  8
SLD-0
 62
     7
100
AcDbLine
 10
54.9020176921
 20
101.1150428858
 30
0.0
 11
18.3953976932
 21
101.1150428858
 31
0.0
  0
LINE
  5
247
330
240
100
AcDbEntity
  8
SLD-0
 62
     7
100
AcDbLine
 10
19.2287310265
 20
56.6150428858
 30
0.0
 11
19.2287310265
 21
101.1150428858
 31
0.0
  0
MTEXT
  5
248
330
240
100
AcDbEntity
  8
SLD-0
 62
     7
100
AcDbMText
 10
16.5431733809
 20
76.0800313807
 30
0.0
 40
2.0833333333
 41
0.0
 71
     1
 72
     1
  1
44.5
  7
SLDTEXTSTYLE0
 11
6.123233995736766E-17
 21
1.0
 31
0.0
 73
     1
 44
1.0
  0
ENDBLK
  5
242
330
240
100
AcDbEntity
  8
0
100
AcDbBlockEnd
  0
BLOCK
  5
24B
330
24A
100
AcDbEntity
  8
0
100
AcDbBlockBegin
  2
_D_3
 70
     0
 10
0.0
 20
0.0
 30
0.0
  3
_D_3
  1

  0
SOLID
  5
24D
330
24A
100
AcDbEntity
  8
SLD-0
 62
     7
100
AcDbTrace
 10
29.2353510255
 20
44.9483762191
 30
0.0
 11
30.9020176921
 21
44.7400428858
 31
0.0
 12
30.9020176921
 22
45.1567095525
 32
0.0
 13
30.9020176921
 23
45.1567095525
 33
0.0
  0
SOLID
  5
24E
330
24A
100
AcDbEntity
  8
SLD-0
 62
     7
100
AcDbTrace
 10
73.7353510255
 20
44.9483762191
 30
0.0
 11
72.0686843588
 21
45.1567095525
 31
0.0
 12
72.0686843588
 22
44.7400428858
 32
0.0
 13
72.0686843588
 23
44.7400428858
 33
0.0
  0
LINE
  5
24F
330
24A
100
AcDbEntity
  8
SLD-0
 62
     7
100
AcDbLine
 10
29.2353510255
 20
67.5317095525
 30
0.0
 11
29.2353510255
 21
44.1150428858
 31
0.0
  0
LINE
  5
250
330
24A
100
AcDbEntity
  8
SLD-0
 62
     7
100
AcDbLine
 10
73.7353510255
 20
82.2817095525
 30
0.0
 11
73.7353510255
 21
44.1150428858
 31
0.0
  0
LINE
  5
251
330
24A
100
AcDbEntity
  8
SLD-0
 62
     7
100
AcDbLine
 10
29.2353510255
 20
44.9483762191
 30
0.0
 11
73.7353510255
 21
44.9483762191
 31
0.0
  0
MTEXT
  5
252
330
24A
100
AcDbEntity
  8
SLD-0
 62
     7
100
AcDbMText
 10
48.7003395204
 20
47.6339338648
 30
0.0
 40
2.0833333333
 41
0.0
 71
     1
 72
     1
  1
44.5
  7
SLDTEXTSTYLE0
 73
     1
 44
1.0
  0
ENDBLK
  5
24C
330
24A
100
AcDbEntity
  8
0
100
AcDbBlockEnd
  0
BLOCK
  5
254
330
253
100
AcDbEntity
  8
0
100
AcDbBlockBegin
  2
SW_CENTERMARKSYMBOL_0
 70
     0
 10
0.0
 20
0.0
 30
0.0
  3
SW_CENTERMARKSYMBOL_0
  1

  0
LINE
  5
256
330
253
100
AcDbEntity
  8
SLD-0
 62
     0
100
AcDbLine
 10
0.0
 20
0.0
 30
0.0
 11
0.0
 21
1.0
 31
0.0
  0
LINE
  5
257
330
253
100
AcDbEntity
  8
SLD-0
 62
     0
100
AcDbLine
 10
0.0
 20
0.0
 30
0.0
 11
-1.0
 21
0.0
 31
0.0
  0
LINE
  5
258
330
253
100
AcDbEntity
  8
SLD-0
 62
     0
100
AcDbLine
 10
0.0
 20
0.0
 30
0.0
 11
0.0
 21
-1.0
 31
0.0
  0
LINE
  5
259
330
253
100
AcDbEntity
  8
SLD-0
 62
     0
100
AcDbLine
 10
0.0
 20
0.0
 30
0.0
 11
1.0
 21
0.0
 31
0.0
  0
LINE
  5
25A
330
253
100
AcDbEntity
  8
SLD-0
 62
     0
100
AcDbLine
 10
0.0
 20
2.0
 30
0.0
 11
0.0
 21
12.5
 31
0.0
  0
LINE
  5
25B
330
253
100
AcDbEntity
  8
SLD-0
 62
     0
100
AcDbLine
 10
-2.0
 20
0.0
 30
0.0
 11
-12.5
 21
0.0
 31
0.0
  0
LINE
  5
25C
330
253
100
AcDbEntity
  8
SLD-0
 62
     0
100
AcDbLine
 10
0.0
 20
-2.0
 30
0.0
 11
0.0
 21
-12.5
 31
0.0
  0
LINE
  5
25D
330
253
100
AcDbEntity
  8
SLD-0
 62
     0
100
AcDbLine
 10
2.0
 20
0.0
 30
0.0
 11
12.5
 21
0.0
 31
0.0
  0
ENDBLK
  5
255
330
253
100
AcDbEntity
  8
0
100
AcDbBlockEnd
  0
BLOCK
  5
2EE
330
2ED
100
AcDbEntity
  8
0
100
AcDbBlockBegin
  2
_D_4
 70
     0
 10
0.0
 20
0.0
 30
0.0
  3
_D_4
  1

  0
SOLID
  5
2F0
330
2ED
100
AcDbEntity
  8
SLD-0
 62
     7
100
AcDbTrace
 10
151.7114049988
 20
94.8063858369
 30
0.0
 11
151.0584936246
 21
96.3539281765
 31
0.0
 12
150.6976497064
 22
96.1455948432
 32
0.0
 13
150.6976497064
 23
96.1455948432
 33
0.0
  0
LINE
  5
2F1
330
2ED
100
AcDbEntity
  8
SLD-0
 62
     7
100
AcDbLine
 10
151.7114049988
 20
94.8063858369
 30
0.0
 11
145.1975159684
 21
106.0887725924
 31
0.0
  0
LINE
  5
2F2
330
2ED
100
AcDbEntity
  8
SLD-0
 62
     7
100
AcDbLine
 10
145.1975159684
 20
106.0887725924
 30
0.0
 11
127.0616640363
 21
106.0887725924
 31
0.0
  0
MTEXT
  5
2F3
330
2ED
100
AcDbEntity
  8
SLD-0
 62
     7
100
AcDbMText
 10
127.0616640363
 20
111.9774555206
 30
0.0
 40
2.0833333333
 41
0.0
 71
     1
 72
     1
  1
ACCEPTS
  7
SLDTEXTSTYLE0
 73
     1
 44
1.0
  0
MTEXT
  5
2F4
330
2ED
100
AcDbEntity
  8
SLD-0
 62
     7
100
AcDbMText
 10
127.0616640363
 20
108.7743305776
 30
0.0
 40
2.0833333333
 41
0.0
 71
     1
 72
     1
  1
%%c
  7
SLDTEXTSTYLE0
 73
     1
 44
1.0
  0
MTEXT
  5
2F5
330
2ED
100
AcDbEntity
  8
SLD-0
 62
     7
100
AcDbMText
 10
130.0991351665
 20
108.7801176318
 30
0.0
 40
2.0833333333
 41
0.0
 71
     1
 72
     1
  1
1" OPTICS
  7
SLDTEXTSTYLE0
 73
     1
 44
1.0
  0
ENDBLK
  5
2EF
330
2ED
100
AcDbEntity
  8
0
100
AcDbBlockEnd
  0
BLOCK
  5
2F7
330
2F6
100
AcDbEntity
  8
0
100
AcDbBlockBegin
  2
SW_CENTERMARKSYMBOL_1
 70
     0
 10
0.0
 20
0.0
 30
0.0
  3
SW_CENTERMARKSYMBOL_1
  1

  0
LINE
  5
2F9
330
2F6
100
AcDbEntity
  8
SLD-0
 62
     0
100
AcDbLine
 10
0.0
 20
0.0
 30
0.0
 11
0.0
 21
1.0
 31
0.0
  0
LINE
  5
2FA
330
2F6
100
AcDbEntity
  8
SLD-0
 62
     0
100
AcDbLine
 10
0.0
 20
0.0
 30
0.0
 11
-1.0
 21
0.0
 31
0.0
  0
LINE
  5
2FB
330
2F6
100
AcDbEntity
  8
SLD-0
 62
     0
100
AcDbLine
 10
0.0
 20
0.0
 30
0.0
 11
0.0
 21
-1.0
 31
0.0
  0
LINE
  5
2FC
330
2F6
100
AcDbEntity
  8
SLD-0
 62
     0
100
AcDbLine
 10
0.0
 20
0.0
 30
0.0
 11
1.0
 21
0.0
 31
0.0
  0
LINE
  5
2FD
330
2F6
100
AcDbEntity
  8
SLD-0
 62
     0
100
AcDbLine
 10
0.0
 20
2.0
 30
0.0
 11
0.0
 21
15.0
 31
0.0
  0
LINE
  5
2FE
330
2F6
100
AcDbEntity
  8
SLD-0
 62
     0
100
AcDbLine
 10
-2.0
 20
0.0
 30
0.0
 11
-15.0
 21
0.0
 31
0.0
  0
LINE
  5
2FF
330
2F6
100
AcDbEntity
  8
SLD-0
 62
     0
100
AcDbLine
 10
0.0
 20
-2.0
 30
0.0
 11
0.0
 21
-15.0
 31
0.0
  0
LINE
  5
300
330
2F6
100
AcDbEntity
  8
SLD-0
 62
     0
100
AcDbLine
 10
2.0
 20
0.0
 30
0.0
 11
15.0
 21
0.0
 31
0.0
  0
ENDBLK
  5
2F8
330
2F6
100
AcDbEntity
  8
0
100
AcDbBlockEnd
  0
BLOCK
  5
3AA
330
3A9
100
AcDbEntity
  8
0
100
AcDbBlockBegin
  2
_D_5
 70
     0
 10
0.0
 20
0.0
 30
0.0
  3
_D_5
  1

  0
SOLID
  5
3AC
330
3A9
100
AcDbEntity
  8
SLD-0
100
AcDbTrace
 10
97.4915217774
 20
50.0710664384
 30
0.0
 11
99.1581884441
 21
49.8627331051
 31
0.0
 12
99.1581884441
 22
50.2793997718
 32
0.0
 13
99.1581884441
 23
50.2793997718
 33
0.0
  0
SOLID
  5
3AD
330
3A9
100
AcDbEntity
  8
SLD-0
100
AcDbTrace
 10
103.4915217774
 20
50.0710664384
 30
0.0
 11
101.8248551108
 21
50.2793997718
 31
0.0
 12
101.8248551108
 22
49.8627331051
 32
0.0
 13
101.8248551108
 23
49.8627331051
 33
0.0
  0
LINE
  5
3AE
330
3A9
100
AcDbEntity
  8
SLD-0
100
AcDbLine
 10
97.4915217774
 20
57.5317095525
 30
0.0
 11
97.4915217774
 21
49.2377331051
 31
0.0
  0
LINE
  5
3AF
330
3A9
100
AcDbEntity
  8
SLD-0
100
AcDbLine
 10
103.4915217774
 20
82.2817095525
 30
0.0
 11
103.4915217774
 21
49.2377331051
 31
0.0
  0
LINE
  5
3B0
330
3A9
100
AcDbEntity
  8
SLD-0
100
AcDbLine
 10
97.4915217774
 20
50.0710664384
 30
0.0
 11
103.4915217774
 21
50.0710664384
 31
0.0
  0
MTEXT
  5
3B1
330
3A9
100
AcDbEntity
  8
SLD-0
100
AcDbMText
 10
99.6958041838
 20
52.7566240841
 30
0.0
 40
2.0833333333
 41
0.0
 71
     1
 72
     1
  1
6
  7
SLDTEXTSTYLE0
 73
     1
 44
1.0
  0
ENDBLK
  5
3AB
330
3A9
100
AcDbEntity
  8
0
100
AcDbBlockEnd
  0
BLOCK
  5
3B4
330
3B3
100
AcDbEntity
  8
0
100
AcDbBlockBegin
  2
_D_6
 70
     0
 10
0.0
 20
0.0
 30
0.0
  3
_D_6
  1

  0
SOLID
  5
3B6
330
3B3
100
AcDbEntity
  8
SLD-0
100
AcDbTrace
 10
121.4915217774
 20
44.9483762191
 30
0.0
 11
119.8248551108
 21
45.1567095525
 31
0.0
 12
119.8248551108
 22
44.7400428858
 32
0.0
 13
119.8248551108
 23
44.7400428858
 33
0.0
  0
SOLID
  5
3B7
330
3B3
100
AcDbEntity
  8
SLD-0
100
AcDbTrace
 10
113.4915217774
 20
44.9483762191
 30
0.0
 11
115.1581884441
 21
44.7400428858
 31
0.0
 12
115.1581884441
 22
45.1567095525
 32
0.0
 13
115.1581884441
 23
45.1567095525
 33
0.0
  0
LINE
  5
3B8
330
3B3
100
AcDbEntity
  8
SLD-0
100
AcDbLine
 10
121.4915217774
 20
57.7817095525
 30
0.0
 11
121.4915217774
 21
44.1150428858
 31
0.0
  0
LINE
  5
3B9
330
3B3
100
AcDbEntity
  8
SLD-0
100
AcDbLine
 10
113.4915217774
 20
58.7817095525
 30
0.0
 11
113.4915217774
 21
44.1150428858
 31
0.0
  0
LINE
  5
3BA
330
3B3
100
AcDbEntity
  8
SLD-0
100
AcDbLine
 10
121.4915217774
 20
44.9483762191
 30
0.0
 11
113.4915217774
 21
44.9483762191
 31
0.0
  0
MTEXT
  5
3BB
330
3B3
100
AcDbEntity
  8
SLD-0
100
AcDbMText
 10
116.6958041838
 20
47.6339338648
 30
0.0
 40
2.0833333333
 41
0.0
 71
     1
 72
     1
  1
8
  7
SLDTEXTSTYLE0
 73
     1
 44
1.0
  0
ENDBLK
  5
3B5
330
3B3
100
AcDbEntity
  8
0
100
AcDbBlockEnd
  0
BLOCK
  5
3BF
330
3BE
100
AcDbEntity
  8
0
100
AcDbBlockBegin
  2
_D_7
 70
     0
 10
0.0
 20
0.0
 30
0.0
  3
_D_7
  1

  0
SOLID
  5
3C1
330
3BE
100
AcDbEntity
  8
SLD-0
 62
     7
100
AcDbTrace
 10
102.8963643964
 20
87.0705185452
 30
0.0
 11
102.8543965115
 21
88.7496311835
 31
0.0
 12
102.442367797
 22
88.687635623
 32
0.0
 13
102.442367797
 23
88.687635623
 33
0.0
  0
LINE
  5
3C2
330
3BE
100
AcDbEntity
  8
SLD-0
 62
     7
100
AcDbLine
 10
102.8963643964
 20
87.0705185452
 30
0.0
 11
99.6500865196
 21
108.6456069719
 31
0.0
  0
LINE
  5
3C3
330
3BE
100
AcDbEntity
  8
SLD-0
 62
     7
100
AcDbLine
 10
99.6500865196
 20
108.6456069719
 30
0.0
 11
78.8919856722
 21
108.6456069719
 31
0.0
  0
MTEXT
  5
3C4
330
3BE
100
AcDbEntity
  8
SLD-0
 62
     7
100
AcDbMText
 10
78.8919856722
 20
114.5285025063
 30
0.0
 40
2.0833333333
 41
0.0
 71
     1
 72
     1
  1
2 HOLES,
  7
SLDTEXTSTYLE0
 73
     1
 44
1.0
  0
MTEXT
  5
3C5
330
3BE
100
AcDbEntity
  8
SLD-0
 62
     7
100
AcDbMText
 10
79.6732356722
 20
111.3311646175
 30
0.0
 40
2.0833333333
 41
0.0
 71
     1
 72
     1
  1
M4 (8-32) CLR
  7
SLDTEXTSTYLE0
 73
     1
 44
1.0
  0
ENDBLK
  5
3C0
330
3BE
100
AcDbEntity
  8
0
100
AcDbBlockEnd
  0
BLOCK
  5
3C8
330
3C7
100
AcDbEntity
  8
0
100
AcDbBlockBegin
  2
_D_8
 70
     0
 10
0.0
 20
0.0
 30
0.0
  3
_D_8
  1

  0
SOLID
  5
3CA
330
3C7
100
AcDbEntity
  8
SLD-0
 62
     7
100
AcDbTrace
 10
97.4915217774
 20
44.9483762191
 30
0.0
 11
99.1581884441
 21
44.7400428858
 31
0.0
 12
99.1581884441
 22
45.1567095525
 32
0.0
 13
99.1581884441
 23
45.1567095525
 33
0.0
  0
SOLID
  5
3CB
330
3C7
100
AcDbEntity
  8
SLD-0
 62
     7
100
AcDbTrace
 10
109.4915217774
 20
44.9483762191
 30
0.0
 11
107.8248551108
 21
45.1567095525
 31
0.0
 12
107.8248551108
 22
44.7400428858
 32
0.0
 13
107.8248551108
 23
44.7400428858
 33
0.0
  0
LINE
  5
3CC
330
3C7
100
AcDbEntity
  8
SLD-0
 62
     7
100
AcDbLine
 10
97.4915217774
 20
56.2817095525
 30
0.0
 11
97.4915217774
 21
44.1150428858
 31
0.0
  0
LINE
  5
3CD
330
3C7
100
AcDbEntity
  8
SLD-0
 62
     7
100
AcDbLine
 10
109.4915217774
 20
56.2817095525
 30
0.0
 11
109.4915217774
 21
44.1150428858
 31
0.0
  0
LINE
  5
3CE
330
3C7
100
AcDbEntity
  8
SLD-0
 62
     7
100
AcDbLine
 10
97.4915217774
 20
44.9483762191
 30
0.0
 11
109.4915217774
 21
44.9483762191
 31
0.0
  0
MTEXT
  5
3CF
330
3C7
100
AcDbEntity
  8
SLD-0
 62
     7
100
AcDbMText
 10
101.9000865901
 20
47.6339338648
 30
0.0
 40
2.0833333333
 41
0.0
 71
     1
 72
     1
  1
12
  7
SLDTEXTSTYLE0
 73
     1
 44
1.0
  0
ENDBLK
  5
3C9
330
3C7
100
AcDbEntity
  8
0
100
AcDbBlockEnd
  0
BLOCK
  5
3D2
330
3D1
100
AcDbEntity
  8
0
100
AcDbBlockBegin
  2
_D_9
 70
     0
 10
0.0
 20
0.0
 30
0.0
  3
_D_9
  1

  0
SOLID
  5
3D4
330
3D1
100
AcDbEntity
  8
SLD-0
 62
     7
100
AcDbTrace
 10
97.4915217774
 20
39.8661068945
 30
0.0
 11
99.1581884441
 21
39.6577735612
 31
0.0
 12
99.1581884441
 22
40.0744402278
 32
0.0
 13
99.1581884441
 23
40.0744402278
 33
0.0
  0
SOLID
  5
3D5
330
3D1
100
AcDbEntity
  8
SLD-0
 62
     7
100
AcDbTrace
 10
121.4915217774
 20
39.8661068945
 30
0.0
 11
119.8248551108
 21
40.0744402278
 31
0.0
 12
119.8248551108
 22
39.6577735612
 32
0.0
 13
119.8248551108
 23
39.6577735612
 33
0.0
  0
LINE
  5
3D6
330
3D1
100
AcDbEntity
  8
SLD-0
 62
     7
100
AcDbLine
 10
97.4915217774
 20
56.2817095525
 30
0.0
 11
97.4915217774
 21
39.0327735612
 31
0.0
  0
LINE
  5
3D7
330
3D1
100
AcDbEntity
  8
SLD-0
 62
     7
100
AcDbLine
 10
121.4915217774
 20
57.7817095525
 30
0.0
 11
121.4915217774
 21
39.0327735612
 31
0.0
  0
LINE
  5
3D8
330
3D1
100
AcDbEntity
  8
SLD-0
 62
     7
100
AcDbLine
 10
97.4915217774
 20
39.8661068945
 30
0.0
 11
121.4915217774
 21
39.8661068945
 31
0.0
  0
MTEXT
  5
3D9
330
3D1
100
AcDbEntity
  8
SLD-0
 62
     7
100
AcDbMText
 10
107.9000865901
 20
42.5516645402
 30
0.0
 40
2.0833333333
 41
0.0
 71
     1
 72
     1
  1
24
  7
SLDTEXTSTYLE0
 73
     1
 44
1.0
  0
ENDBLK
  5
3D3
330
3D1
100
AcDbEntity
  8
0
100
AcDbBlockEnd
  0
BLOCK
  5
3DD
330
3DC
100
AcDbEntity
  8
0
100
AcDbBlockBegin
  2
_D_10
 70
     0
 10
0.0
 20
0.0
 30
0.0
  3
_D_10
  1

  0
SOLID
  5
3DF
330
3DC
100
AcDbEntity
  8
SLD-0
 62
     7
100
AcDbTrace
 10
121.4915217774
 20
32.0031542208
 30
0.0
 11
119.8248551108
 21
32.2114875541
 31
0.0
 12
119.8248551108
 22
31.7948208875
 32
0.0
 13
119.8248551108
 23
31.7948208875
 33
0.0
  0
SOLID
  5
3E0
330
3DC
100
AcDbEntity
  8
SLD-0
 62
     7
100
AcDbTrace
 10
88.6599666974
 20
32.0031542208
 30
0.0
 11
90.3266333641
 21
31.7948208875
 31
0.0
 12
90.3266333641
 22
32.2114875541
 32
0.0
 13
90.3266333641
 23
32.2114875541
 33
0.0
  0
LINE
  5
3E1
330
3DC
100
AcDbEntity
  8
SLD-0
 62
     7
100
AcDbLine
 10
121.4915217774
 20
57.7817095525
 30
0.0
 11
121.4915217774
 21
31.1698208875
 31
0.0
  0
LINE
  5
3E2
330
3DC
100
AcDbEntity
  8
SLD-0
 62
     7
100
AcDbLine
 10
88.6599666974
 20
59.7817095525
 30
0.0
 11
88.6599666974
 21
31.1698208875
 31
0.0
  0
LINE
  5
3E3
330
3DC
100
AcDbEntity
  8
SLD-0
 62
     7
100
AcDbLine
 10
121.4915217774
 20
32.0031542208
 30
0.0
 11
88.6599666974
 21
32.0031542208
 31
0.0
  0
MTEXT
  5
3E4
330
3DC
100
AcDbEntity
  8
SLD-0
 62
     7
100
AcDbMText
 10
102.2907327324
 20
37.8860497553
 30
0.0
 40
2.0833333333
 41
0.0
 71
     1
 72
     1
  1
32.8
  7
SLDTEXTSTYLE0
 73
     1
 44
1.0
  0
MTEXT
  5
3E5
330
3DC
100
AcDbEntity
  8
SLD-0
 62
     7
100
AcDbMText
 10
98.5566468683
 20
34.6887118665
 30
0.0
 40
2.0833333333
 41
0.0
 71
     1
 72
     1
  1
NOMINAL
  7
SLDTEXTSTYLE0
 73
     1
 44
1.0
  0
ENDBLK
  5
3DE
330
3DC
100
AcDbEntity
  8
0
100
AcDbBlockEnd
  0
BLOCK
  5
3E7
330
3E6
100
AcDbEntity
  8
0
100
AcDbBlockBegin
  2
SW_CENTERMARKSYMBOL_2
 70
     0
 10
0.0
 20
0.0
 30
0.0
  3
SW_CENTERMARKSYMBOL_2
  1

  0
LINE
  5
3E9
330
3E6
100
AcDbEntity
  8
SLD-0
 62
     0
100
AcDbLine
 10
0.0
 20
0.0
 30
0.0
 11
0.0
 21
1.0
 31
0.0
  0
LINE
  5
3EA
330
3E6
100
AcDbEntity
  8
SLD-0
 62
     0
100
AcDbLine
 10
0.0
 20
0.0
 30
0.0
 11
-1.0
 21
0.0
 31
0.0
  0
LINE
  5
3EB
330
3E6
100
AcDbEntity
  8
SLD-0
 62
     0
100
AcDbLine
 10
0.0
 20
0.0
 30
0.0
 11
0.0
 21
-1.0
 31
0.0
  0
LINE
  5
3EC
330
3E6
100
AcDbEntity
  8
SLD-0
 62
     0
100
AcDbLine
 10
0.0
 20
0.0
 30
0.0
 11
1.0
 21
0.0
 31
0.0
  0
LINE
  5
3ED
330
3E6
100
AcDbEntity
  8
SLD-0
 62
     0
100
AcDbLine
 10
0.0
 20
2.0
 30
0.0
 11
0.0
 21
5.5
 31
0.0
  0
LINE
  5
3EE
330
3E6
100
AcDbEntity
  8
SLD-0
 62
     0
100
AcDbLine
 10
-2.0
 20
0.0
 30
0.0
 11
-5.5
 21
0.0
 31
0.0
  0
LINE
  5
3EF
330
3E6
100
AcDbEntity
  8
SLD-0
 62
     0
100
AcDbLine
 10
0.0
 20
-2.0
 30
0.0
 11
0.0
 21
-5.5
 31
0.0
  0
LINE
  5
3F0
330
3E6
100
AcDbEntity
  8
SLD-0
 62
     0
100
AcDbLine
 10
2.0
 20
0.0
 30
0.0
 11
5.5
 21
0.0
 31
0.0
  0
ENDBLK
  5
3E8
330
3E6
100
AcDbEntity
  8
0
100
AcDbBlockEnd
  0
ENDSEC
  0
SECTION
  2
ENTITIES
  0
HATCH
  5
82
330
1F
100
AcDbEntity
  8
0
  6
Continuous
 62
     7
100
AcDbHatch
 10
0.0
 20
0.0
 30
0.0
210
0.0
220
0.0
230
1.0
  2
SOLID
 70
     1
 71
     0
 91
        1
 92
        0
 93
       10
 72
     2
 10
160.1171638024472
 20
29.7965073415738
 40
2.491363881474883
 50
50.39692260731405
 51
112.8514693252981
 73
     0
 72
     2
 10
159.8458383023433
 20
29.53249856671837
 40
2.147779522348015
 50
108.913433343286
 51
219.5668234386826
 73
     0
 72
     1
 10
158.190153282467
 20
30.90058628012509
 11
157.3441584096316
 21
31.64686286413989
 72
     1
 10
157.3441584096316
 20
31.64686286413989
 11
156.2553015305635
 21
30.59554030038363
 72
     2
 10
157.0785389988658
 20
29.62176760643705
 40
1.275128694953051
 50
130.2115225915085
 51
228.5889041080194
 73
     1
 72
     1
 10
156.2350960455425
 20
28.66544278024982
 11
159.5760979707055
 21
25.76160624668759
 72
     1
 10
159.5760979707055
 20
25.76160624668759
 11
159.0502213703596
 21
25.24835592129506
 72
     1
 10
159.0502213703596
 20
25.24835592129506
 11
159.8767875076309
 21
24.53671069883354
 72
     1
 10
159.8767875076309
 20
24.53671069883354
 11
162.5515078696019
 21
27.13385900342977
 72
     1
 10
162.5515078696019
 20
27.13385900342977
 11
161.7053220098868
 21
27.87696377654069
 97
        0
 75
     0
 76
     1
 98
        1
 10
0.0
 20
0.0
  0
HATCH
  5
83
330
1F
100
AcDbEntity
  8
0
  6
Continuous
 62
     1
100
AcDbHatch
 10
0.0
 20
0.0
 30
0.0
210
0.0
220
0.0
230
1.0
  2
SOLID
 70
     1
 71
     0
 91
        1
 92
        0
 93
       10
 72
     2
 10
160.491037968974
 20
29.71922429693008
 40
2.147972906955208
 50
317.8184992995787
 51
398.0564711573077
 73
     0
 72
     1
 10
162.1823595048469
 20
28.39513250581206
 11
163.0035669156659
 21
27.67955172257082
 72
     1
 10
163.0035669156659
 20
27.67955172257082
 11
164.0383013446607
 21
28.68324584124349
 72
     2
 10
163.2938077399423
 20
29.7065347844276
 40
1.265460781181888
 50
306.0377529468126
 51
403.4396461533875
 73
     1
 72
     1
 10
164.2126576271692
 20
30.57665309445939
 11
160.7736944118832
 21
33.56763331832101
 72
     1
 10
160.7736944118832
 20
33.56763331832101
 11
161.2939038301559
 21
34.07518201068547
 72
     1
 10
161.2939038301559
 20
34.07518201068547
 11
160.5184817383359
 21
34.76700886055588
 72
     1
 10
160.5184817383359
 20
34.76700886055588
 11
157.8221605313276
 21
32.16124198837748
 72
     1
 10
157.8221605313276
 20
32.16124198837748
 11
158.6741670957848
 21
31.41808321577682
 72
     2
 10
160.2263243933703
 20
29.2685394590316
 40
2.651363920439897
 50
234.1674444878511
 51
314.4407074583992
 73
     0
 97
        0
 75
     0
 76
     1
 98
        1
 10
0.0
 20
0.0
  0
LINE
  5
84
330
1F
100
AcDbEntity
  8
0
  6
Continuous
 62
     7
370
     0
100
AcDbLine
 10
139.8828145987
 20
14.812099376
 30
0.0
 11
140.7161479321
 21
14.812099376
 31
0.0
  0
LINE
  5
85
330
1F
100
AcDbEntity
  8
0
  6
Continuous
 62
     7
370
     0
100
AcDbLine
 10
137.3828145987
 20
14.812099376
 30
0.0
 11
139.4661479321
 21
14.812099376
 31
0.0
  0
LINE
  5
86
330
1F
100
AcDbEntity
  8
0
  6
Continuous
 62
     7
370
     0
100
AcDbLine
 10
151.1328145987
 20
12.7287660427
 30
0.0
 11
151.1328145987
 21
16.8954327094
 31
0.0
  0
LINE
  5
87
330
1F
100
AcDbEntity
  8
0
  6
Continuous
 62
     7
370
     0
100
AcDbLine
 10
145.2994812654
 20
13.562099376
 30
0.0
 11
151.1328145987
 21
12.7287660427
 31
0.0
  0
LINE
  5
88
330
1F
100
AcDbEntity
  8
0
  6
Continuous
 62
     7
370
     0
100
AcDbLine
 10
140.2994812654
 20
13.9787660427
 30
0.0
 11
140.2994812654
 21
11.8954327094
 31
0.0
  0
LINE
  5
89
330
1F
100
AcDbEntity
  8
0
  6
Continuous
 62
     7
370
     0
100
AcDbLine
 10
151.1328145987
 20
16.8954327094
 30
0.0
 11
145.2994812654
 21
16.062099376
 31
0.0
  0
LINE
  5
8A
330
1F
100
AcDbEntity
  8
0
  6
Continuous
 62
     7
370
     0
100
AcDbLine
 10
144.4661479321
 20
14.812099376
 30
0.0
 11
151.9661479321
 21
14.812099376
 31
0.0
  0
LINE
  5
8B
330
1F
100
AcDbEntity
  8
0
  6
Continuous
 62
     7
370
     0
100
AcDbLine
 10
140.2994812654
 20
15.2287660427
 30
0.0
 11
140.2994812654
 21
14.3954327094
 31
0.0
  0
LINE
  5
8C
330
1F
100
AcDbEntity
  8
0
  6
Continuous
 62
     7
370
     0
100
AcDbLine
 10
141.1328145987
 20
14.812099376
 30
0.0
 11
143.2161479321
 21
14.812099376
 31
0.0
  0
LINE
  5
8D
330
1F
100
AcDbEntity
  8
0
  6
Continuous
 62
     7
370
     0
100
AcDbLine
 10
140.2994812654
 20
17.7287660427
 30
0.0
 11
140.2994812654
 21
15.6454327094
 31
0.0
  0
LINE
  5
8E
330
1F
100
AcDbEntity
  8
0
  6
Continuous
 62
     7
370
     0
100
AcDbLine
 10
145.2994812654
 20
16.062099376
 30
0.0
 11
145.2994812654
 21
13.562099376
 31
0.0
  0
LINE
  5
8F
330
1F
100
AcDbEntity
  8
工作區域參考線
 62
     1
370
    30
100
AcDbLine
 10
158.6741670958
 20
31.4180832158
 30
0.0
 11
157.8221605313
 21
32.1612419884
 31
0.0
  0
LINE
  5
90
330
1F
100
AcDbEntity
  8
工作區域參考線
 62
     1
370
    30
100
AcDbLine
 10
157.8221605313
 20
32.1612419884
 30
0.0
 11
160.5184817383
 21
34.7670088606
 31
0.0
  0
LINE
  5
91
330
1F
100
AcDbEntity
  8
工作區域參考線
 62
     1
370
    30
100
AcDbLine
 10
160.5184817383
 20
34.7670088606
 30
0.0
 11
161.2939038302
 21
34.0751820107
 31
0.0
  0
LINE
  5
92
330
1F
100
AcDbEntity
  8
工作區域參考線
 62
     1
370
    30
100
AcDbLine
 10
161.2939038302
 20
34.0751820107
 30
0.0
 11
160.7736944119
 21
33.5676333183
 31
0.0
  0
LINE
  5
93
330
1F
100
AcDbEntity
  8
工作區域參考線
 62
     1
370
    30
100
AcDbLine
 10
160.7736944119
 20
33.5676333183
 30
0.0
 11
164.2126576272
 21
30.5766530945
 31
0.0
  0
LINE
  5
94
330
1F
100
AcDbEntity
  8
工作區域參考線
 62
     1
370
    30
100
AcDbLine
 10
162.1823595048
 20
28.3951325058
 30
0.0
 11
163.0035669157
 21
27.6795517226
 31
0.0
  0
LINE
  5
95
330
1F
100
AcDbEntity
  8
工作區域參考線
 62
     1
370
    30
100
AcDbLine
 10
163.0035669157
 20
27.6795517226
 30
0.0
 11
164.0383013447
 21
28.6832458412
 31
0.0
  0
LINE
  5
96
330
1F
100
AcDbEntity
  8
0
  6
Continuous
 62
     7
370
     0
100
AcDbLine
 10
154.7423304341
 20
10.9293720066
 30
0.0
 11
238.0756637674
 21
10.9293720066
 31
0.0
  0
LINE
  5
97
330
1F
100
AcDbEntity
  8
0
  6
Continuous
 62
     7
370
     0
100
AcDbLine
 10
154.7423304341
 20
15.0960386733
 30
0.0
 11
196.4089971008
 21
15.0960386733
 31
0.0
  0
LINE
  5
98
330
1F
100
AcDbEntity
  8
0
  6
Continuous
 62
     7
370
     0
100
AcDbLine
 10
154.7423304341
 20
19.2627053399
 30
0.0
 11
196.4089971008
 21
19.2627053399
 31
0.0
  0
LINE
  5
99
330
1F
100
AcDbEntity
  8
0
  6
Continuous
 62
     7
370
     0
100
AcDbLine
 10
154.7423304341
 20
23.4293720066
 30
0.0
 11
238.0756637674
 21
23.4293720066
 31
0.0
  0
LINE
  5
9A
330
1F
100
AcDbEntity
  8
0
  6
Continuous
 62
     7
370
     0
100
AcDbLine
 10
196.4089971008
 20
27.5960386733
 30
0.0
 11
238.0756637674
 21
27.5960386733
 31
0.0
  0
LINE
  5
9B
330
1F
100
AcDbEntity
  8
0
  6
Continuous
 62
     7
370
    15
100
AcDbLine
 10
196.4089971008
 20
15.0960386733
 30
0.0
 11
238.0756637674
 21
15.0960386733
 31
0.0
  0
LINE
  5
9C
330
1F
100
AcDbEntity
  8
0
  6
Continuous
 62
     7
370
     0
100
AcDbLine
 10
154.7423304341
 20
35.9293720066
 30
0.0
 11
238.0756637674
 21
35.9293720066
 31
0.0
  0
LINE
  5
9D
330
1F
100
AcDbEntity
  8
0
  6
Continuous
 62
     7
370
     0
100
AcDbLine
 10
209.3643480625
 20
6.7627053399
 30
0.0
 11
209.3643480625
 21
15.0960386733
 31
0.0
  0
LINE
  5
9E
330
1F
100
AcDbEntity
  8
0
  6
Continuous
 62
     7
370
     0
100
AcDbLine
 10
196.4089971008
 20
6.7627053399
 30
0.0
 11
196.4089971008
 21
35.9293720066
 31
0.0
  0
LINE
  5
9F
330
1F
100
AcDbEntity
  8
0
  6
Continuous
 62
     7
370
     0
100
AcDbLine
 10
209.3643480625
 20
23.4293720066
 30
0.0
 11
209.3643480625
 21
27.5960386733
 31
0.0
  0
LINE
  5
A0
330
1F
100
AcDbEntity
  8
0
  6
Continuous
 62
     7
370
     0
100
AcDbLine
 10
178.6803405294
 20
6.7627053399
 30
0.0
 11
178.6803405294
 21
23.4293720066
 31
0.0
  0
LINE
  5
A1
330
1F
100
AcDbEntity
  8
0
  6
Continuous
 62
     7
370
     0
100
AcDbLine
 10
166.4821572921
 20
6.7627053399
 30
0.0
 11
166.4821572921
 21
23.4293720066
 31
0.0
  0
LINE
  5
A2
330
1F
100
AcDbEntity
  8
0
  6
Continuous
 62
     7
370
     0
100
AcDbLine
 10
154.7423304341
 20
6.7627053399
 30
0.0
 11
154.7423304341
 21
35.9293720066
 31
0.0
  0
LINE
  5
A3
330
1F
100
AcDbEntity
  8
0
  6
Continuous
 62
     7
370
    15
100
AcDbLine
 10
36.1006637674
 20
167.8100229792
 30
0.0
 11
36.1006637674
 21
169.0600229792
 31
0.0
  0
LINE
  5
A4
330
1F
100
AcDbEntity
  8
0
  6
Continuous
 62
     7
370
    15
100
AcDbLine
 10
64.9589971008
 20
167.8100229792
 30
0.0
 11
64.9589971008
 21
169.0600229792
 31
0.0
  0
LINE
  5
A5
330
1F
100
AcDbEntity
  8
0
  6
Continuous
 62
     7
370
    15
100
AcDbLine
 10
93.8173304341
 20
167.8100229792
 30
0.0
 11
93.8173304341
 21
169.0600229792
 31
0.0
  0
LINE
  5
A6
330
1F
100
AcDbEntity
  8
0
  6
Continuous
 62
     7
370
    15
100
AcDbLine
 10
122.6756637674
 20
167.8100229792
 30
0.0
 11
122.6756637674
 21
169.0600229792
 31
0.0
  0
LINE
  5
A7
330
1F
100
AcDbEntity
  8
0
  6
Continuous
 62
     7
370
    15
100
AcDbLine
 10
151.5339971008
 20
167.8100229792
 30
0.0
 11
151.5339971008
 21
169.0600229792
 31
0.0
  0
LINE
  5
A8
330
1F
100
AcDbEntity
  8
0
  6
Continuous
 62
     7
370
    15
100
AcDbLine
 10
180.3923304341
 20
167.8100229792
 30
0.0
 11
180.3923304341
 21
169.0600229792
 31
0.0
  0
LINE
  5
A9
330
1F
100
AcDbEntity
  8
0
  6
Continuous
 62
     7
370
    15
100
AcDbLine
 10
209.2506637674
 20
167.8100229792
 30
0.0
 11
209.2506637674
 21
169.0600229792
 31
0.0
  0
LINE
  5
AA
330
1F
100
AcDbEntity
  8
0
  6
Continuous
 62
     7
370
    15
100
AcDbLine
 10
36.0964971008
 20
6.7627053399
 30
0.0
 11
36.0964971008
 21
5.5127053399
 31
0.0
  0
LINE
  5
AB
330
1F
100
AcDbEntity
  8
0
  6
Continuous
 62
     7
370
    15
100
AcDbLine
 10
64.9506637674
 20
6.7627053399
 30
0.0
 11
64.9506637674
 21
5.5127053399
 31
0.0
  0
LINE
  5
AC
330
1F
100
AcDbEntity
  8
0
  6
Continuous
 62
     7
370
    15
100
AcDbLine
 10
93.8048304341
 20
6.7627053399
 30
0.0
 11
93.8048304341
 21
5.5127053399
 31
0.0
  0
LINE
  5
AD
330
1F
100
AcDbEntity
  8
0
  6
Continuous
 62
     7
370
    15
100
AcDbLine
 10
122.6589971008
 20
6.7627053399
 30
0.0
 11
122.6589971008
 21
5.5127053399
 31
0.0
  0
LINE
  5
AE
330
1F
100
AcDbEntity
  8
0
  6
Continuous
 62
     7
370
    15
100
AcDbLine
 10
151.5131637674
 20
6.7627053399
 30
0.0
 11
151.5131637674
 21
5.5127053399
 31
0.0
  0
LINE
  5
AF
330
1F
100
AcDbEntity
  8
0
  6
Continuous
 62
     7
370
    15
100
AcDbLine
 10
180.3673304341
 20
6.7627053399
 30
0.0
 11
180.3673304341
 21
5.5127053399
 31
0.0
  0
LINE
  5
B0
330
1F
100
AcDbEntity
  8
0
  6
Continuous
 62
     7
370
     0
100
AcDbLine
 10
238.0756637674
 20
167.8100229792
 30
0.0
 11
7.2423304341
 21
167.8100229792
 31
0.0
  0
LINE
  5
B1
330
1F
100
AcDbEntity
  8
0
  6
Continuous
 62
     7
370
     0
100
AcDbLine
 10
238.0756637674
 20
6.7627053399
 30
0.0
 11
238.0756637674
 21
167.8100229792
 31
0.0
  0
LINE
  5
B2
330
1F
100
AcDbEntity
  8
0
  6
Continuous
 62
     7
370
     0
100
AcDbLine
 10
7.2423304341
 20
167.8100229792
 30
0.0
 11
7.2423304341
 21
6.7627053399
 31
0.0
  0
LINE
  5
B3
330
1F
100
AcDbEntity
  8
0
  6
Continuous
 62
     7
370
     0
100
AcDbLine
 10
7.2423304341
 20
6.7627053399
 30
0.0
 11
238.0756637674
 21
6.7627053399
 31
0.0
  0
LINE
  5
B4
330
1F
100
AcDbEntity
  8
0
  6
Continuous
 62
     7
370
    15
100
AcDbLine
 10
209.2214971008
 20
6.7627053399
 30
0.0
 11
209.2214971008
 21
5.5127053399
 31
0.0
  0
LINE
  5
B5
330
1F
100
AcDbEntity
  8
0
  6
Continuous
 62
     7
370
    15
100
AcDbLine
 10
7.2423304341
 20
33.6043720066
 30
0.0
 11
5.9923304341
 21
33.6043720066
 31
0.0
  0
LINE
  5
B6
330
1F
100
AcDbEntity
  8
0
  6
Continuous
 62
     7
370
    15
100
AcDbLine
 10
7.2423304341
 20
60.4460386733
 30
0.0
 11
5.9923304341
 21
60.4460386733
 31
0.0
  0
LINE
  5
B7
330
1F
100
AcDbEntity
  8
0
  6
Continuous
 62
     7
370
    15
100
AcDbLine
 10
7.2423304341
 20
87.2877053399
 30
0.0
 11
5.9923304341
 21
87.2877053399
 31
0.0
  0
LINE
  5
B8
330
1F
100
AcDbEntity
  8
0
  6
Continuous
 62
     7
370
    15
100
AcDbLine
 10
7.2423304341
 20
114.1293720066
 30
0.0
 11
5.9923304341
 21
114.1293720066
 31
0.0
  0
LINE
  5
B9
330
1F
100
AcDbEntity
  8
0
  6
Continuous
 62
     7
370
    15
100
AcDbLine
 10
7.2423304341
 20
140.9710386733
 30
0.0
 11
5.9923304341
 21
140.9710386733
 31
0.0
  0
LINE
  5
BA
330
1F
100
AcDbEntity
  8
0
  6
Continuous
 62
     7
370
    15
100
AcDbLine
 10
238.0756637674
 20
33.6043720066
 30
0.0
 11
239.3256637674
 21
33.6043720066
 31
0.0
  0
LINE
  5
BB
330
1F
100
AcDbEntity
  8
0
  6
Continuous
 62
     7
370
    15
100
AcDbLine
 10
238.0756637674
 20
60.4460386733
 30
0.0
 11
239.3256637674
 21
60.4460386733
 31
0.0
  0
LINE
  5
BC
330
1F
100
AcDbEntity
  8
0
  6
Continuous
 62
     7
370
    15
100
AcDbLine
 10
238.0756637674
 20
87.2877053399
 30
0.0
 11
239.3256637674
 21
87.2877053399
 31
0.0
  0
LINE
  5
BD
330
1F
100
AcDbEntity
  8
0
  6
Continuous
 62
     7
370
    15
100
AcDbLine
 10
238.0756637674
 20
114.1293720066
 30
0.0
 11
239.3256637674
 21
114.1293720066
 31
0.0
  0
LINE
  5
BE
330
1F
100
AcDbEntity
  8
0
  6
Continuous
 62
     7
370
    15
100
AcDbLine
 10
238.0756637674
 20
140.9710386733
 30
0.0
 11
239.3256637674
 21
140.9710386733
 31
0.0
  0
CIRCLE
  5
BF
330
1F
100
AcDbEntity
  8
0
  6
Continuous
 62
     7
370
     0
100
AcDbCircle
 10
140.2994812654
 20
14.812099376
 30
0.0
 40
1.25
  0
CIRCLE
  5
C0
330
1F
100
AcDbEntity
  8
0
  6
Continuous
 62
     7
370
     0
100
AcDbCircle
 10
140.2994812654
 20
14.812099376
 30
0.0
 40
2.083333333333343
  0
ARC
  5
C1
330
1F
100
AcDbEntity
  8
工作區域參考線
 62
     1
370
    30
100
AcDbCircle
 10
163.2938077399
 20
29.7065347844
 30
0.0
 40
1.26546078118189
100
AcDbArc
 50
306.0377529468
 51
43.4396461534
  0
ARC
  5
C2
330
1F
100
AcDbEntity
  8
工作區域參考線
 62
     1
370
    30
100
AcDbCircle
 10
160.2263243934
 20
29.268539459
 30
0.0
 40
2.651363920439903
100
AcDbArc
 50
45.5592925416
 51
125.8325555121
  0
ARC
  5
C3
330
1F
100
AcDbEntity
  8
工作區域參考線
 62
     1
370
    30
100
AcDbCircle
 10
160.491037969
 20
29.7192242969
 30
0.0
 40
2.147972906955226
100
AcDbArc
 50
321.9435288427
 51
42.1815007004
  0
INSERT
  5
C4
330
1F
100
AcDbEntity
  8
0
  6
Continuous
 62
     7
100
AcDbBlockReference
  2
圖塊6_1
 10
155.8034103039
 20
24.5367106988
 30
0.0
  0
MTEXT
  5
C6
330
1F
100
AcDbEntity
  8
0
  6
Continuous
 62
     7
370
     0
100
AcDbMText
 10
137.952237567
 20
11.0173700308
 30
0.0
 40
2.2048611111
 41
0.0
 71
     1
 72
     1
  1
UNIT:m/m
  7
SLDTEXTSTYLE0
 73
     1
 44
1.0
  0
INSERT
  5
CD
330
1F
100
AcDbEntity
  8
0
  6
Continuous
 62
     7
370
     0
100
AcDbBlockReference
  2
SW_NOTE_0
 10
10.1929230044
 20
161.5753586876
 30
0.0
  0
MTEXT
  5
CE
330
1F
100
AcDbEntity
  8
0
  6
Continuous
 62
     7
370
     0
100
AcDbMText
 10
165.6043244946
 20
33.7005645116
 30
0.0
 40
1.984375
 41
0.0
 71
     1
 72
     1
  1
Unice E-O Services Inc.
  7
SLDTEXTSTYLE0
 73
     1
 44
1.0
  0
MTEXT
  5
CF
330
1F
100
AcDbEntity
  8
0
  6
Continuous
 62
     7
370
     0
100
AcDbMText
 10
181.2992115124
 20
17.9889290426
 30
0.0
 40
1.5434027778
 41
0.0
 71
     1
 72
     1
  1
2018/7/2
  7
SLDTEXTSTYLE0
 73
     1
 44
1.0
  0
MTEXT
  5
D0
330
1F
100
AcDbEntity
  8
0
  6
Continuous
 62
     7
370
     0
100
AcDbMText
 10
210.5074152089
 20
14.0593147833
 30
0.0
 40
2.0833333333
 41
0.0
 71
     1
 72
     1
  1
1.2:1
  7
SLDTEXTSTYLE0
 73
     1
 44
1.0
  0
MTEXT
  5
D1
330
1F
100
AcDbEntity
  8
0
  6
Continuous
 62
     7
370
     0
100
AcDbMText
 10
210.2562999987
 20
26.7932662865
 30
0.0
 40
2.0833333333
 41
0.0
 71
     1
 72
     1
  1
04PMT-1(M)-H
  7
SLDTEXTSTYLE0
 73
     1
 44
1.0
  0
MTEXT
  5
D2
330
1F
100
AcDbEntity
  8
0
  6
Continuous
 62
     7
370
     0
100
AcDbMText
 10
210.2562999987
 20
31.7568431566
 30
0.0
 40
2.0833333333
 41
0.0
 71
     1
 72
     1
  1
04PMT-1(M)-H
  7
SLDTEXTSTYLE0
 73
     1
 44
1.0
  0
MTEXT
  5
D3
330
1F
100
AcDbEntity
  8
0
  6
Continuous
 62
     7
370
     0
100
AcDbMText
 10
196.9934888989
 20
13.755399644
 30
0.0
 40
1.7638888889
 41
0.0
 71
     1
 72
     1
  1
SCALE:
  7
SLDTEXTSTYLE0
 73
     1
 44
1.0
  0
MTEXT
  5
D4
330
1F
100
AcDbEntity
  8
0
  6
Continuous
 62
     7
370
     0
100
AcDbMText
 10
155.2780072324
 20
17.9889290426
 30
0.0
 40
1.5434027778
 41
0.0
 71
     1
 72
     1
  1
DRAWN
  7
SLDTEXTSTYLE0
 73
     1
 44
1.0
  0
MTEXT
  5
D5
330
1F
100
AcDbEntity
  8
0
  6
Continuous
 62
     7
370
     0
100
AcDbMText
 10
169.3523639947
 20
22.2360069233
 30
0.0
 40
1.5434027778
 41
0.0
 71
     1
 72
     1
  1
NAME
  7
SLDTEXTSTYLE0
 73
     1
 44
1.0
  0
MTEXT
  5
D6
330
1F
100
AcDbEntity
  8
0
  6
Continuous
 62
     7
370
     0
100
AcDbMText
 10
184.0591796465
 20
22.2360069233
 30
0.0
 40
1.5434027778
 41
0.0
 71
     1
 72
     1
  1
DATE
  7
SLDTEXTSTYLE0
 73
     1
 44
1.0
  0
MTEXT
  5
D7
330
1F
100
AcDbEntity
  8
0
  6
Continuous
 62
     7
370
     0
100
AcDbMText
 10
196.8963597204
 20
26.4893511472
 30
0.0
 40
1.7638888889
 41
0.0
 71
     1
 72
     1
  1
DWG. NO.
  7
SLDTEXTSTYLE0
 73
     1
 44
1.0
  0
MTEXT
  5
D8
330
1F
100
AcDbEntity
  8
0
  6
Continuous
 62
     7
370
     0
100
AcDbMText
 10
196.969158924
 20
34.9033881869
 30
0.0
 40
1.7638888889
 41
0.0
 71
     1
 72
     1
  1
TITLE:
  7
SLDTEXTSTYLE0
 73
     1
 44
1.0
  0
MTEXT
  5
D9
330
1F
100
AcDbEntity
  8
0
  6
Continuous
 62
     7
370
     0
100
AcDbMText
 10
169.1928508168
 20
13.5336491437
 30
0.0
 40
1.5434027778
 41
0.0
 71
     1
 72
     1
  1
Johnny
  7
SLDTEXTSTYLE0
 73
     1
 44
1.0
  0
MTEXT
  5
DA
330
1F
100
AcDbEntity
  8
0
  6
Continuous
 62
     7
370
     0
100
AcDbMText
 10
181.2992115124
 20
13.5336491437
 30
0.0
 40
1.5434027778
 41
0.0
 71
     1
 72
     1
  1
2018/7/2
  7
SLDTEXTSTYLE0
 73
     1
 44
1.0
  0
MTEXT
  5
DB
330
1F
100
AcDbEntity
  8
0
  6
Continuous
 62
     7
370
     0
100
AcDbMText
 10
155.2780072324
 20
13.5336491437
 30
0.0
 40
1.5434027778
 41
0.0
 71
     1
 72
     1
  1
ENG APPR.
  7
SLDTEXTSTYLE0
 73
     1
 44
1.0
  0
MTEXT
  5
DC
330
1F
100
AcDbEntity
  8
0
  6
Continuous
 62
     7
370
     0
100
AcDbMText
 10
196.9934888989
 20
9.7377824406
 30
0.0
 40
1.7638888889
 41
0.0
 71
     1
 72
     1
  1
REV
  7
SLDTEXTSTYLE0
 73
     1
 44
1.0
  0
MTEXT
  5
DD
330
1F
100
AcDbEntity
  8
0
  6
Continuous
 62
     7
370
     0
100
AcDbMText
 10
196.969158924
 20
22.4577574237
 30
0.0
 40
1.7638888889
 41
0.0
 71
     1
 72
     1
  1
MATERIAL:
  7
SLDTEXTSTYLE0
 73
     1
 44
1.0
  0
MTEXT
  5
DE
330
1F
100
AcDbEntity
  8
0
  6
Continuous
 62
     7
370
     0
100
AcDbMText
 10
210.5074152089
 20
18.5145946822
 30
0.0
 40
2.0833333333
 41
0.0
 71
     1
 72
     1
  1
N/A
  7
SLDTEXTSTYLE0
 73
     1
 44
1.0
  0
MTEXT
  5
DF
330
1F
100
AcDbEntity
  8
0
  6
Continuous
 62
     7
370
     0
100
AcDbMText
 10
22.1691609611
 20
170.3777930475
 30
0.0
 40
1.7638888889
 41
0.0
 71
     1
 72
     1
  1
1
  7
SLDTEXTSTYLE0
 73
     1
 44
1.0
  0
MTEXT
  5
E0
330
1F
100
AcDbEntity
  8
0
  6
Continuous
 62
     7
370
     0
100
AcDbMText
 10
50.597582977
 20
170.3777930475
 30
0.0
 40
1.7638888889
 41
0.0
 71
     1
 72
     1
  1
2
  7
SLDTEXTSTYLE0
 73
     1
 44
1.0
  0
MTEXT
  5
E1
330
1F
100
AcDbEntity
  8
0
  6
Continuous
 62
     7
370
     0
100
AcDbMText
 10
79.0841619922
 20
170.3777930475
 30
0.0
 40
1.7638888889
 41
0.0
 71
     1
 72
     1
  1
3
  7
SLDTEXTSTYLE0
 73
     1
 44
1.0
  0
MTEXT
  5
E2
330
1F
100
AcDbEntity
  8
0
  6
Continuous
 62
     7
370
     0
100
AcDbMText
 10
107.7111135709
 20
170.2493820304
 30
0.0
 40
1.7638888889
 41
0.0
 71
     1
 72
     1
  1
4
  7
SLDTEXTSTYLE0
 73
     1
 44
1.0
  0
MTEXT
  5
E3
330
1F
100
AcDbEntity
  8
0
  6
Continuous
 62
     7
370
     0
100
AcDbMText
 10
136.4186028866
 20
170.3777930475
 30
0.0
 40
1.7638888889
 41
0.0
 71
     1
 72
     1
  1
5
  7
SLDTEXTSTYLE0
 73
     1
 44
1.0
  0
MTEXT
  5
E4
330
1F
100
AcDbEntity
  8
0
  6
Continuous
 62
     7
370
     0
100
AcDbMText
 10
165.5318475346
 20
170.3777930475
 30
0.0
 40
1.7638888889
 41
0.0
 71
     1
 72
     1
  1
6
  7
SLDTEXTSTYLE0
 73
     1
 44
1.0
  0
MTEXT
  5
E5
330
1F
100
AcDbEntity
  8
0
  6
Continuous
 62
     7
370
     0
100
AcDbMText
 10
195.3025547839
 20
170.3777930475
 30
0.0
 40
1.7638888889
 41
0.0
 71
     1
 72
     1
  1
7
  7
SLDTEXTSTYLE0
 73
     1
 44
1.0
  0
MTEXT
  5
E6
330
1F
100
AcDbEntity
  8
0
  6
Continuous
 62
     7
370
     0
100
AcDbMText
 10
221.8989850411
 20
170.3777930475
 30
0.0
 40
1.7638888889
 41
0.0
 71
     1
 72
     1
  1
8
  7
SLDTEXTSTYLE0
 73
     1
 44
1.0
  0
MTEXT
  5
E7
330
1F
100
AcDbEntity
  8
0
  6
Continuous
 62
     7
370
     0
100
AcDbMText
 10
4.4640197129
 20
154.8427519066
 30
0.0
 40
1.7638888889
 41
0.0
 71
     1
 72
     1
  1
A
  7
SLDTEXTSTYLE0
 73
     1
 44
1.0
  0
MTEXT
  5
E8
330
1F
100
AcDbEntity
  8
0
  6
Continuous
 62
     7
370
     0
100
AcDbMText
 10
4.6592026526
 20
128.5827540198
 30
0.0
 40
1.7638888889
 41
0.0
 71
     1
 72
     1
  1
B
  7
SLDTEXTSTYLE0
 73
     1
 44
1.0
  0
MTEXT
  5
E9
330
1F
100
AcDbEntity
  8
0
  6
Continuous
 62
     7
370
     0
100
AcDbMText
 10
4.6592026526
 20
101.0619595192
 30
0.0
 40
1.7638888889
 41
0.0
 71
     1
 72
     1
  1
C
  7
SLDTEXTSTYLE0
 73
     1
 44
1.0
  0
MTEXT
  5
EA
330
1F
100
AcDbEntity
  8
0
  6
Continuous
 62
     7
370
     0
100
AcDbMText
 10
4.6592026526
 20
73.9544350184
 30
0.0
 40
1.7638888889
 41
0.0
 71
     1
 72
     1
  1
D
  7
SLDTEXTSTYLE0
 73
     1
 44
1.0
  0
MTEXT
  5
EB
330
1F
100
AcDbEntity
  8
0
  6
Continuous
 62
     7
370
     0
100
AcDbMText
 10
4.6592026526
 20
47.9632374331
 30
0.0
 40
1.7638888889
 41
0.0
 71
     1
 72
     1
  1
E
  7
SLDTEXTSTYLE0
 73
     1
 44
1.0
  0
MTEXT
  5
EC
330
1F
100
AcDbEntity
  8
0
  6
Continuous
 62
     7
370
     0
100
AcDbMText
 10
4.6592026526
 20
21.307851021
 30
0.0
 40
1.7638888889
 41
0.0
 71
     1
 72
     1
  1
F
  7
SLDTEXTSTYLE0
 73
     1
 44
1.0
  0
MTEXT
  5
ED
330
1F
100
AcDbEntity
  8
0
  6
Continuous
 62
     7
370
     0
100
AcDbMText
 10
221.8215514136
 20
5.5196853303
 30
0.0
 40
1.7638888889
 41
0.0
 71
     1
 72
     1
  1
8
  7
SLDTEXTSTYLE0
 73
     1
 44
1.0
  0
MTEXT
  5
EE
330
1F
100
AcDbEntity
  8
0
  6
Continuous
 62
     7
370
     0
100
AcDbMText
 10
195.2251211564
 20
5.5196853303
 30
0.0
 40
1.7638888889
 41
0.0
 71
     1
 72
     1
  1
7
  7
SLDTEXTSTYLE0
 73
     1
 44
1.0
  0
MTEXT
  5
EF
330
1F
100
AcDbEntity
  8
0
  6
Continuous
 62
     7
370
     0
100
AcDbMText
 10
165.4544139071
 20
5.5196853303
 30
0.0
 40
1.7638888889
 41
0.0
 71
     1
 72
     1
  1
6
  7
SLDTEXTSTYLE0
 73
     1
 44
1.0
  0
MTEXT
  5
F0
330
1F
100
AcDbEntity
  8
0
  6
Continuous
 62
     7
370
     0
100
AcDbMText
 10
136.3411692591
 20
5.5196853303
 30
0.0
 40
1.7638888889
 41
0.0
 71
     1
 72
     1
  1
5
  7
SLDTEXTSTYLE0
 73
     1
 44
1.0
  0
MTEXT
  5
F1
330
1F
100
AcDbEntity
  8
0
  6
Continuous
 62
     7
370
     0
100
AcDbMText
 10
107.6336799434
 20
5.3912743132
 30
0.0
 40
1.7638888889
 41
0.0
 71
     1
 72
     1
  1
4
  7
SLDTEXTSTYLE0
 73
     1
 44
1.0
  0
MTEXT
  5
F2
330
1F
100
AcDbEntity
  8
0
  6
Continuous
 62
     7
370
     0
100
AcDbMText
 10
79.0067283647
 20
5.5196853303
 30
0.0
 40
1.7638888889
 41
0.0
 71
     1
 72
     1
  1
3
  7
SLDTEXTSTYLE0
 73
     1
 44
1.0
  0
MTEXT
  5
F3
330
1F
100
AcDbEntity
  8
0
  6
Continuous
 62
     7
370
     0
100
AcDbMText
 10
50.5201493495
 20
5.5196853303
 30
0.0
 40
1.7638888889
 41
0.0
 71
     1
 72
     1
  1
2
  7
SLDTEXTSTYLE0
 73
     1
 44
1.0
  0
MTEXT
  5
F4
330
1F
100
AcDbEntity
  8
0
  6
Continuous
 62
     7
370
     0
100
AcDbMText
 10
22.0917273336
 20
5.5196853303
 30
0.0
 40
1.7638888889
 41
0.0
 71
     1
 72
     1
  1
1
  7
SLDTEXTSTYLE0
 73
     1
 44
1.0
  0
MTEXT
  5
F5
330
1F
100
AcDbEntity
  8
0
  6
Continuous
 62
     7
370
     0
100
AcDbMText
 10
239.2519871787
 20
155.535409091
 30
0.0
 40
1.7638888889
 41
0.0
 71
     1
 72
     1
  1
A
  7
SLDTEXTSTYLE0
 73
     1
 44
1.0
  0
MTEXT
  5
F6
330
1F
100
AcDbEntity
  8
0
  6
Continuous
 62
     7
370
     0
100
AcDbMText
 10
239.4471701184
 20
129.2754112042
 30
0.0
 40
1.7638888889
 41
0.0
 71
     1
 72
     1
  1
B
  7
SLDTEXTSTYLE0
 73
     1
 44
1.0
  0
MTEXT
  5
F7
330
1F
100
AcDbEntity
  8
0
  6
Continuous
 62
     7
370
     0
100
AcDbMText
 10
239.4471701184
 20
101.7546167035
 30
0.0
 40
1.7638888889
 41
0.0
 71
     1
 72
     1
  1
C
  7
SLDTEXTSTYLE0
 73
     1
 44
1.0
  0
MTEXT
  5
F8
330
1F
100
AcDbEntity
  8
0
  6
Continuous
 62
     7
370
     0
100
AcDbMText
 10
239.4471701184
 20
74.6470922028
 30
0.0
 40
1.7638888889
 41
0.0
 71
     1
 72
     1
  1
D
  7
SLDTEXTSTYLE0
 73
     1
 44
1.0
  0
MTEXT
  5
F9
330
1F
100
AcDbEntity
  8
0
  6
Continuous
 62
     7
370
     0
100
AcDbMText
 10
239.4471701184
 20
48.6558946175
 30
0.0
 40
1.7638888889
 41
0.0
 71
     1
 72
     1
  1
E
  7
SLDTEXTSTYLE0
 73
     1
 44
1.0
  0
MTEXT
  5
FA
330
1F
100
AcDbEntity
  8
0
  6
Continuous
 62
     7
370
     0
100
AcDbMText
 10
239.4471701184
 20
22.0005082054
 30
0.0
 40
1.7638888889
 41
0.0
 71
     1
 72
     1
  1
F
  7
SLDTEXTSTYLE0
 73
     1
 44
1.0
  0
MTEXT
  5
FB
330
1F
100
AcDbEntity
  8
0
  6
Continuous
 62
     7
370
     0
100
AcDbMText
 10
169.2960940668
 20
17.9889290426
 30
0.0
 40
1.5434027778
 41
0.0
 71
     1
 72
     1
  1
Sky
  7
SLDTEXTSTYLE0
 73
     1
 44
1.0
  0
MTEXT
  5
FC
330
1F
100
AcDbEntity
  8
0
  6
Continuous
 62
     7
370
     0
100
AcDbMText
 10
210.7068533038
 20
10.0416975799
 30
0.0
 40
2.0833333333
 41
0.0
 71
     1
 72
     1
  1
0
  7
SLDTEXTSTYLE0
 73
     1
 44
1.0
  0
INSERT
  5
102
330
1F
100
AcDbEntity
  8
SLD-0
 62
     7
100
AcDbBlockReference
  2
SW_NOTE_1
 10
165.6043244946
 20
27.9566454344
 30
0.0
  0
ARC
  5
103
330
1F
100
AcDbEntity
  8
0
  6
Continuous
 62
     7
370
    30
100
AcDbCircle
 10
36.8353510255
 20
70.4368677265
 30
0.0
 40
0.1000000000000085
100
AcDbArc
 50
270.0
 51
0.0
  0
ARC
  5
104
330
1F
100
AcDbEntity
  8
0
  6
Continuous
 62
     7
370
    30
100
AcDbCircle
 10
35.5353510255
 20
70.4368677265
 30
0.0
 40
0.1000000000000085
100
AcDbArc
 50
180.0
 51
270.0
  0
ARC
  5
105
330
1F
100
AcDbEntity
  8
0
  6
Continuous
 62
     7
370
    30
100
AcDbCircle
 10
36.8353510255
 20
80.2368677265
 30
0.0
 40
0.1000000000000085
100
AcDbArc
 50
0.0
 51
90.0
  0
LINE
  5
106
330
1F
100
AcDbEntity
  8
0
  6
Continuous
 62
     7
370
    30
100
AcDbLine
 10
35.4353510457
 20
80.2150426265
 30
0.0
 11
35.4353510457
 21
74.3057552558
 31
0.0
  0
LINE
  5
107
330
1F
100
AcDbEntity
  8
0
  6
Continuous
 62
     7
370
    30
100
AcDbLine
 10
35.4353510457
 20
73.5057547521
 30
0.0
 11
35.4353510457
 21
70.4368675892
 31
0.0
  0
LINE
  5
108
330
1F
100
AcDbEntity
  8
0
  6
Continuous
 62
     7
370
    30
100
AcDbLine
 10
36.9353510005
 20
70.4368675892
 30
0.0
 11
36.9353510005
 21
73.5057547521
 31
0.0
  0
LINE
  5
109
330
1F
100
AcDbEntity
  8
0
  6
Continuous
 62
     7
370
    30
100
AcDbLine
 10
36.9353510005
 20
74.3057552558
 30
0.0
 11
36.9353510005
 21
80.2368672397
 31
0.0
  0
LINE
  5
10A
330
1F
100
AcDbEntity
  8
0
  6
Continuous
 62
     7
370
    30
100
AcDbLine
 10
46.4853513086
 20
67.0337415599
 30
0.0
 11
46.4853513086
 21
66.6224182882
 31
0.0
  0
LINE
  5
10B
330
1F
100
AcDbEntity
  8
0
  6
Continuous
 62
     7
370
    30
100
AcDbLine
 10
46.4853513086
 20
65.774319863
 30
0.0
 11
46.4853513086
 21
64.7150428799
 31
0.0
  0
LINE
  5
10C
330
1F
100
AcDbEntity
  8
0
  6
Continuous
 62
     7
370
    30
100
AcDbLine
 10
46.4853513086
 20
62.9150429108
 30
0.0
 11
46.4853513086
 21
61.4514336288
 31
0.0
  0
LINE
  5
10D
330
1F
100
AcDbEntity
  8
0
  6
Continuous
 62
     7
370
    30
100
AcDbLine
 10
46.4853513086
 20
60.608656548
 30
0.0
 11
46.4853513086
 21
60.1963442117
 31
0.0
  0
LINE
  5
10E
330
1F
100
AcDbEntity
  8
0
  6
Continuous
 62
     7
370
    30
100
AcDbLine
 10
47.9853506231
 20
60.1963442117
 30
0.0
 11
47.9853506231
 21
60.6091964823
 31
0.0
  0
LINE
  5
10F
330
1F
100
AcDbEntity
  8
0
  6
Continuous
 62
     7
370
    30
100
AcDbLine
 10
47.9853506231
 20
66.7129109446
 30
0.0
 11
47.9853506231
 21
67.0337415599
 31
0.0
  0
LINE
  5
110
330
1F
100
AcDbEntity
  8
0
  6
Continuous
 62
     7
370
    30
100
AcDbLine
 10
43.0362526359
 20
62.9150429108
 30
0.0
 11
47.5446385363
 21
62.9150429108
 31
0.0
  0
LINE
  5
111
330
1F
100
AcDbEntity
  8
0
  6
Continuous
 62
     7
370
    30
100
AcDbLine
 10
48.3446390399
 20
62.9150429108
 30
0.0
 11
52.8362522864
 21
62.9150429108
 31
0.0
  0
ARC
  5
112
330
1F
100
AcDbEntity
  8
0
  6
Continuous
 62
     7
370
    30
100
AcDbCircle
 10
43.036252709
 20
63.0150428858
 30
0.0
 40
0.1000000000000014
100
AcDbArc
 50
180.0
 51
270.0
  0
ARC
  5
113
330
1F
100
AcDbEntity
  8
0
  6
Continuous
 62
     7
370
    30
100
AcDbCircle
 10
52.836252709
 20
63.0150428858
 30
0.0
 40
0.1000000000000085
100
AcDbArc
 50
270.0
 51
0.0
  0
LINE
  5
114
330
1F
100
AcDbEntity
  8
0
  6
Continuous
 62
     7
370
    30
100
AcDbLine
 10
39.6540496995
 20
75.3650424835
 30
0.0
 11
39.2427264278
 21
75.3650424835
 31
0.0
  0
LINE
  5
115
330
1F
100
AcDbEntity
  8
0
  6
Continuous
 62
     7
370
    30
100
AcDbLine
 10
38.3946280026
 20
75.3650424835
 30
0.0
 11
37.3353510195
 21
75.3650424835
 31
0.0
  0
LINE
  5
116
330
1F
100
AcDbEntity
  8
0
  6
Continuous
 62
     7
370
    30
100
AcDbLine
 10
35.4353510457
 20
75.3650424835
 30
0.0
 11
34.0717417685
 21
75.3650424835
 31
0.0
  0
LINE
  5
117
330
1F
100
AcDbEntity
  8
0
  6
Continuous
 62
     7
370
    30
100
AcDbLine
 10
33.2289646877
 20
75.3650424835
 30
0.0
 11
32.8166523514
 21
75.3650424835
 31
0.0
  0
LINE
  5
118
330
1F
100
AcDbEntity
  8
0
  6
Continuous
 62
     7
370
    30
100
AcDbLine
 10
32.8166523514
 20
73.8650431689
 30
0.0
 11
33.2295046219
 21
73.8650431689
 31
0.0
  0
LINE
  5
119
330
1F
100
AcDbEntity
  8
0
  6
Continuous
 62
     7
370
    30
100
AcDbLine
 10
39.3332190843
 20
73.8650431689
 30
0.0
 11
39.6540496995
 21
73.8650431689
 31
0.0
  0
LINE
  5
11A
330
1F
100
AcDbEntity
  8
0
  6
Continuous
 62
     7
370
    30
100
AcDbLine
 10
38.9352963803
 20
74.3057552558
 30
0.0
 11
36.4296067683
 21
74.3057552558
 31
0.0
  0
LINE
  5
11B
330
1F
100
AcDbEntity
  8
0
  6
Continuous
 62
     7
370
    30
100
AcDbLine
 10
36.4296067683
 20
73.5057547521
 30
0.0
 11
38.9352963803
 21
73.5057547521
 31
0.0
  0
LINE
  5
11C
330
1F
100
AcDbEntity
  8
0
  6
Continuous
 62
     7
370
    30
100
AcDbLine
 10
36.2296067738
 20
73.5057547521
 30
0.0
 11
36.4296067683
 21
73.5057547521
 31
0.0
  0
LINE
  5
11D
330
1F
100
AcDbEntity
  8
0
  6
Continuous
 62
     7
370
    30
100
AcDbLine
 10
36.4296067683
 20
74.3057552558
 30
0.0
 11
36.2296067738
 21
74.3057552558
 31
0.0
  0
LINE
  5
11E
330
1F
100
AcDbEntity
  8
0
  6
Continuous
 62
     7
370
    30
100
AcDbLine
 10
36.2296067738
 20
74.3057552558
 30
0.0
 11
33.7239172341
 21
74.3057552558
 31
0.0
  0
LINE
  5
11F
330
1F
100
AcDbEntity
  8
0
  6
Continuous
 62
     7
370
    30
100
AcDbLine
 10
33.7239172341
 20
73.5057547521
 30
0.0
 11
36.2296067738
 21
73.5057547521
 31
0.0
  0
SPLINE
  5
120
330
1F
100
AcDbEntity
  8
0
  6
Continuous
 62
     7
370
    30
100
AcDbSpline
210
0.0
220
0.0
230
1.0
 70
     8
 71
     3
 72
    16
 73
    12
 74
     0
 42
0.000000001
 43
0.00000001
 40
0.0
 40
0.0
 40
0.0
 40
0.0
 40
0.1476423673452978
 40
0.2884452655266627
 40
0.4196420705892959
 40
0.5394057746311505
 40
0.6478687020760677
 40
0.7485729257886274
 40
0.8407050330289226
 40
0.9233540536525973
 40
1.0
 40
1.0
 40
1.0
 40
1.0
 10
39.33529639928834
 20
74.61504282620696
 30
0.0
 10
39.32356161317996
 20
74.82002277000987
 30
0.0
 10
39.30063564988237
 20
75.22048704988417
 30
0.0
 10
39.12521773546796
 20
75.78059958235089
 30
0.0
 10
38.87689334679792
 20
76.26576727079873
 30
0.0
 10
38.57611520329512
 20
76.66585704210473
 30
0.0
 10
38.2488011883321
 20
76.98541958687251
 30
0.0
 10
37.91117492761442
 20
77.23355800837638
 30
0.0
 10
37.57568004865332
 20
77.41722996236973
 30
0.0
 10
37.25313843708186
 20
77.55225211181447
 30
0.0
 10
37.03858497747698
 20
77.60539445001339
 30
0.0
 10
36.93535100049571
 20
77.63096427735834
 30
0.0
  0
SPLINE
  5
121
330
1F
100
AcDbEntity
  8
0
  6
Continuous
 62
     7
370
    30
100
AcDbSpline
210
0.0
220
0.0
230
1.0
 70
     8
 71
     3
 72
    22
 73
    18
 74
     0
 42
0.000000001
 43
0.00000001
 40
0.0
 40
0.0
 40
0.0
 40
0.0
 40
0.0497671607699982
 40
0.1211474777859985
 40
0.1915404825215606
 40
0.2614950447378122
 40
0.3329326423588443
 40
0.4046692449483889
 40
0.4754530400531796
 40
0.5451677403143965
 40
0.6163571959962922
 40
0.6881360891706295
 40
0.7592484747604458
 40
0.8289345279448362
 40
0.8998109971634233
 40
0.9715643487283461
 40
1.0
 40
1.0
 40
1.0
 40
1.0
 10
35.43535104566486
 20
77.59869395014792
 30
0.0
 10
35.30543863544195
 20
77.56307118526377
 30
0.0
 10
34.98919473910355
 20
77.47635520527402
 30
0.0
 10
34.53186840660327
 20
77.22359610271835
 30
0.0
 10
34.08072251649787
 20
76.86879401060257
 30
0.0
 10
33.70343472276168
 20
76.43398067197477
 30
0.0
 10
33.41029708615988
 20
75.93490655772065
 30
0.0
 10
33.21460486171859
 20
75.38757068784572
 30
0.0
 10
33.12451127063439
 20
74.81817871980924
 30
0.0
 10
33.1400134154745
 20
74.24340610698663
 30
0.0
 10
33.26123012126599
 20
73.6785674492063
 30
0.0
 10
33.4868569610224
 20
73.14247561544322
 30
0.0
 10
33.80603990171145
 20
72.66158077427814
 30
0.0
 10
34.20582187748759
 20
72.24738271101138
 30
0.0
 10
34.67748892597203
 20
71.91877028724967
 30
0.0
 10
35.09582857455395
 20
71.70942586763836
 30
0.0
 10
35.36029123186527
 20
71.65029706072332
 30
0.0
 10
35.43535104566486
 20
71.63351511773615
 30
0.0
  0
SPLINE
  5
122
330
1F
100
AcDbEntity
  8
0
  6
Continuous
 62
     7
370
    30
100
AcDbSpline
210
0.0
220
0.0
230
1.0
 70
     8
 71
     3
 72
    13
 73
     9
 74
     0
 42
0.000000001
 43
0.00000001
 40
0.0
 40
0.0
 40
0.0
 40
0.0
 40
0.1777483942234523
 40
0.3656170007755474
 40
0.5500216657513183
 40
0.7339387222802382
 40
0.9216072472942026
 40
0.9999999999999999
 40
0.9999999999999999
 40
0.9999999999999999
 40
0.9999999999999999
 10
36.93535100049571
 20
71.59806618657855
 30
0.0
 10
37.11198556518645
 20
71.647509022785
 30
0.0
 10
37.47531149033846
 20
71.74920975298066
 30
0.0
 10
37.97319019473831
 20
72.02842871637279
 30
0.0
 10
38.42079179427035
 20
72.39013549765347
 30
0.0
 10
38.78766408851839
 20
72.83140163999391
 30
0.0
 10
39.0326586107761
 20
73.23090796395864
 30
0.0
 10
39.11521414348262
 20
73.4923788115387
 30
0.0
 10
39.1395384477009
 20
73.56941903200892
 30
0.0
  0
SPLINE
  5
123
330
1F
100
AcDbEntity
  8
0
  6
Continuous
 62
     7
370
    30
100
AcDbSpline
210
0.0
220
0.0
230
1.0
 70
     8
 71
     3
 72
     9
 73
     5
 74
     0
 42
0.000000001
 43
0.00000001
 40
0.0
 40
0.0
 40
0.0
 40
0.0
 40
0.3197460755009564
 40
1.0
 40
1.0
 40
1.0
 40
1.0
 10
38.52578290119068
 20
74.69620572593956
 30
0.0
 10
38.53004097509231
 20
74.65446393504588
 30
0.0
 10
38.54335802329987
 20
74.52391724787144
 30
0.0
 10
38.52066592929405
 20
74.39407854379198
 30
0.0
 10
38.50522954329149
 20
74.30575525579003
 30
0.0
  0
SPLINE
  5
124
330
1F
100
AcDbEntity
  8
0
  6
Continuous
 62
     7
370
    30
100
AcDbSpline
210
0.0
220
0.0
230
1.0
 70
     8
 71
     3
 72
    12
 73
     8
 74
     0
 42
0.000000001
 43
0.00000001
 40
0.0
 40
0.0
 40
0.0
 40
0.0
 40
0.0968666273719944
 40
0.3412000640489395
 40
0.5839833010532641
 40
0.8319402763955792
 40
1.0
 40
1.0
 40
1.0
 40
1.0
 10
38.23911715611116
 20
73.5057547521308
 30
0.0
 10
38.21414558713434
 20
73.45559256944202
 30
0.0
 10
38.12618649156707
 20
73.27890282179013
 30
0.0
 10
37.90505631191792
 20
73.01815258028795
 30
0.0
 10
37.58556414110303
 20
72.73815841673913
 30
0.0
 10
37.25717690887087
 20
72.53711559934082
 30
0.0
 10
37.02795185052494
 20
72.46335224595607
 30
0.0
 10
36.93535100049571
 20
72.43355380562096
 30
0.0
  0
SPLINE
  5
125
330
1F
100
AcDbEntity
  8
0
  6
Continuous
 62
     7
370
    30
100
AcDbSpline
210
0.0
220
0.0
230
1.0
 70
     8
 71
     3
 72
    12
 73
     8
 74
     0
 42
0.000000001
 43
0.00000001
 40
0.0
 40
0.0
 40
0.0
 40
0.0
 40
0.1920003834628341
 40
0.454319859918247
 40
0.7113656024358203
 40
0.972846812163409
 40
1.0
 40
1.0
 40
1.0
 40
1.0
 10
35.43535104566486
 20
72.4673496392086
 30
0.0
 10
35.33771371380686
 20
72.50473837710499
 30
0.0
 10
35.10667990995456
 20
72.59320927417951
 30
0.0
 10
34.78395290635726
 20
72.81455551092363
 30
0.0
 10
34.48261897909062
 20
73.11267577987003
 30
0.0
 10
34.29511439057762
 20
73.34908785941202
 30
0.0
 10
34.23089920732211
 20
73.49228365395457
 30
0.0
 10
34.22485818467335
 20
73.5057547521308
 30
0.0
  0
SPLINE
  5
126
330
1F
100
AcDbEntity
  8
0
  6
Continuous
 62
     7
370
    30
100
AcDbSpline
210
0.0
220
0.0
230
1.0
 70
     8
 71
     3
 72
    15
 73
    11
 74
     0
 42
0.000000001
 43
0.00000001
 40
0.0
 40
0.0
 40
0.0
 40
0.0
 40
0.1255568761742541
 40
0.2624223122131694
 40
0.4015285489906137
 40
0.5404474934879854
 40
0.6759489677009662
 40
0.8066545412377042
 40
0.9350851301823969
 40
1.0
 40
1.0
 40
1.0
 40
1.0
 10
33.95895441374973
 20
74.30575525579003
 30
0.0
 10
33.94672247129994
 20
74.43523807911917
 30
0.0
 10
33.9211568892439
 20
74.70586588482188
 30
0.0
 10
33.97903566839723
 20
75.12029584206616
 30
0.0
 10
34.11028971991392
 20
75.53025564990726
 30
0.0
 10
34.31690413870432
 20
75.90701173769567
 30
0.0
 10
34.58301585973462
 20
76.23347578573518
 30
0.0
 10
34.89599361722824
 20
76.49663403654469
 30
0.0
 10
35.18313953801353
 20
76.67476344409825
 30
0.0
 10
35.37195657359973
 20
76.74067252705898
 30
0.0
 10
35.43535104566486
 20
76.76280120578556
 30
0.0
  0
SPLINE
  5
127
330
1F
100
AcDbEntity
  8
0
  6
Continuous
 62
     7
370
    30
100
AcDbSpline
210
0.0
220
0.0
230
1.0
 70
     8
 71
     3
 72
    14
 73
    10
 74
     0
 42
0.000000001
 43
0.00000001
 40
0.0
 40
0.0
 40
0.0
 40
0.0
 40
0.0578866022728097
 40
0.186944321737068
 40
0.3260180116729934
 40
0.4746520581343147
 40
0.6383797138541748
 40
0.8150130000996358
 40
1.0
 40
1.0
 40
1.0
 40
1.0
 10
36.93535100049571
 20
76.79931091335563
 30
0.0
 10
36.98894526752907
 20
76.78339069418267
 30
0.0
 10
37.16202752674213
 20
76.73197647295808
 30
0.0
 10
37.44226751644942
 20
76.58344270582114
 30
0.0
 10
37.7688149945483
 20
76.34676949967125
 30
0.0
 10
38.06966888848082
 20
76.02723721219823
 30
0.0
 10
38.32026897941164
 20
75.62472947170377
 30
0.0
 10
38.49963246238271
 20
75.14371193252292
 30
0.0
 10
38.52322671305828
 20
74.79395905073225
 30
0.0
 10
38.53529636129038
 20
74.61504282620696
 30
0.0
  0
LINE
  5
128
330
1F
100
AcDbEntity
  8
0
  6
Continuous
 62
     7
370
    30
100
AcDbLine
 10
39.3352963993
 20
73.905755004
 30
0.0
 11
39.3352963993
 21
74.415043166
 31
0.0
  0
LINE
  5
129
330
1F
100
AcDbEntity
  8
0
  6
Continuous
 62
     7
370
    30
100
AcDbLine
 10
38.5352963613
 20
74.415043166
 30
0.0
 11
38.5352963613
 21
74.3057552558
 31
0.0
  0
LINE
  5
12A
330
1F
100
AcDbEntity
  8
0
  6
Continuous
 62
     7
370
    30
100
AcDbLine
 10
38.5352963613
 20
74.6150428262
 30
0.0
 11
38.5352963613
 21
74.415043166
 31
0.0
  0
LINE
  5
12B
330
1F
100
AcDbEntity
  8
0
  6
Continuous
 62
     7
370
    30
100
AcDbLine
 10
39.3352963993
 20
74.415043166
 30
0.0
 11
39.3352963993
 21
74.6150428262
 31
0.0
  0
LINE
  5
12C
330
1F
100
AcDbEntity
  8
0
  6
Continuous
 62
     7
370
    30
100
AcDbLine
 10
37.3353510195
 20
74.5677670297
 30
0.0
 11
37.3353510195
 21
76.6502611172
 31
0.0
  0
LINE
  5
12D
330
1F
100
AcDbEntity
  8
0
  6
Continuous
 62
     7
370
    30
100
AcDbLine
 10
37.3353510195
 20
72.5845193323
 30
0.0
 11
37.3353510195
 21
73.5057547521
 31
0.0
  0
LINE
  5
12E
330
1F
100
AcDbEntity
  8
0
  6
Continuous
 62
     7
370
    30
100
AcDbLine
 10
37.3353510195
 20
74.3057552558
 30
0.0
 11
37.3353510195
 21
74.4150971827
 31
0.0
  0
LINE
  5
12F
330
1F
100
AcDbEntity
  8
0
  6
Continuous
 62
     7
370
    30
100
AcDbLine
 10
37.3353510195
 20
74.4150971827
 30
0.0
 11
37.3353510195
 21
74.5677670297
 31
0.0
  0
LINE
  5
130
330
1F
100
AcDbEntity
  8
0
  6
Continuous
 62
     7
370
    30
100
AcDbLine
 10
47.5446385363
 20
63.6092986341
 30
0.0
 11
47.5446385363
 21
61.1036090944
 31
0.0
  0
LINE
  5
131
330
1F
100
AcDbEntity
  8
0
  6
Continuous
 62
     7
370
    30
100
AcDbLine
 10
48.3446390399
 20
61.1036090944
 30
0.0
 11
48.3446390399
 21
63.6092986341
 31
0.0
  0
LINE
  5
132
330
1F
100
AcDbEntity
  8
0
  6
Continuous
 62
     7
370
    30
100
AcDbLine
 10
47.5446385363
 20
66.3149882406
 30
0.0
 11
47.5446385363
 21
63.8092986286
 31
0.0
  0
LINE
  5
133
330
1F
100
AcDbEntity
  8
0
  6
Continuous
 62
     7
370
    30
100
AcDbLine
 10
48.3446390399
 20
63.8092986286
 30
0.0
 11
48.3446390399
 21
66.3149882406
 31
0.0
  0
LINE
  5
134
330
1F
100
AcDbEntity
  8
0
  6
Continuous
 62
     7
370
    30
100
AcDbLine
 10
48.3446390399
 20
63.6092986341
 30
0.0
 11
48.3446390399
 21
63.8092986286
 31
0.0
  0
LINE
  5
135
330
1F
100
AcDbEntity
  8
0
  6
Continuous
 62
     7
370
    30
100
AcDbLine
 10
47.5446385363
 20
63.8092986286
 30
0.0
 11
47.5446385363
 21
63.6092986341
 31
0.0
  0
SPLINE
  5
136
330
1F
100
AcDbEntity
  8
0
  6
Continuous
 62
     7
370
    30
100
AcDbSpline
210
0.0
220
0.0
230
1.0
 70
     8
 71
     3
 72
    16
 73
    12
 74
     0
 42
0.000000001
 43
0.00000001
 40
0.0
 40
0.0
 40
0.0
 40
0.0
 40
0.1513923100608995
 40
0.2957714364744759
 40
0.4303004862870475
 40
0.5531060477417874
 40
0.6643238061474793
 40
0.7675857988590827
 40
0.8620579534085
 40
0.9468061620796984
 40
1.0
 40
1.0
 40
1.0
 40
1.0
 10
47.23535096585051
 20
66.71498825964478
 30
0.0
 10
47.03037114904315
 20
66.70325343354912
 30
0.0
 10
46.62990711727693
 20
66.68032739212933
 30
0.0
 10
46.06979283018453
 20
66.5049100301968
 30
0.0
 10
45.58463113433421
 20
66.25658375462771
 30
0.0
 10
45.18452177005703
 20
65.95581178039598
 30
0.0
 10
44.86502292112893
 20
65.62847770941916
 30
0.0
 10
44.616673820394
 20
65.29091778561744
 30
0.0
 10
44.43368905077757
 20
64.95520653178149
 30
0.0
 10
44.30997255820056
 20
64.66506913784573
 30
0.0
 10
44.26426902631903
 20
64.484137522707
 30
0.0
 10
44.24664462297456
 20
64.41436585229783
 30
0.0
  0
SPLINE
  5
137
330
1F
100
AcDbEntity
  8
0
  6
Continuous
 62
     7
370
    30
100
AcDbSpline
210
0.0
220
0.0
230
1.0
 70
     8
 71
     3
 72
    22
 73
    18
 74
     0
 42
0.000000001
 43
0.00000001
 40
0.0
 40
0.0
 40
0.0
 40
0.0
 40
0.0611206593051725
 40
0.1307166991679532
 40
0.1993501578233283
 40
0.2675561332843876
 40
0.3372080741438672
 40
0.4071515460329033
 40
0.4761660268473712
 40
0.5441381359514577
 40
0.6135481374366435
 40
0.6835328428134927
 40
0.7528677006533948
 40
0.8208118787440183
 40
0.8899167171867983
 40
0.9598765193932214
 40
1.0
 40
1.0
 40
1.0
 40
1.0
 10
44.22075013010995
 20
62.91504291077106
 30
0.0
 10
44.26495382973523
 20
62.75115669071911
 30
0.0
 10
44.35949079598715
 20
62.40065874177947
 30
0.0
 10
44.62610169011455
 20
61.91130329119812
 30
0.0
 10
44.98178378426784
 20
61.46048227394956
 30
0.0
 10
45.416362783121
 20
61.083108013411
 30
0.0
 10
45.91550093777469
 20
60.78999398399541
 30
0.0
 10
46.46281938022057
 20
60.59429541940616
 30
0.0
 10
47.03221640609349
 20
60.50420336197111
 30
0.0
 10
47.60698599465529
 20
60.51970561952903
 30
0.0
 10
48.17183190725464
 20
60.64092032414627
 30
0.0
 10
48.70789755987458
 20
60.86655512606792
 30
0.0
 10
49.18888843268581
 20
61.18570865683755
 30
0.0
 10
49.60273386118806
 20
61.58559868228166
 30
0.0
 10
49.93268406147584
 20
62.05685581224334
 30
0.0
 10
50.15324325728967
 20
62.50762558659852
 30
0.0
 10
50.21805647949919
 20
62.8062129171469
 30
0.0
 10
50.24167979448334
 20
62.91504291077106
 30
0.0
  0
SPLINE
  5
138
330
1F
100
AcDbEntity
  8
0
  6
Continuous
 62
     7
370
    30
100
AcDbSpline
210
0.0
220
0.0
230
1.0
 70
     8
 71
     3
 72
    13
 73
     9
 74
     0
 42
0.000000001
 43
0.00000001
 40
0.0
 40
0.0
 40
0.0
 40
0.0
 40
0.1489801393134208
 40
0.3434216361421166
 40
0.5342783429504692
 40
0.7246299465047533
 40
0.9188647811502009
 40
1.0
 40
1.0
 40
1.0
 40
1.0
 10
50.2203469195892
 20
64.41436585229783
 30
0.0
 10
50.17976723235424
 20
64.55719943689013
 30
0.0
 10
50.0862249478015
 20
64.88645233961115
 30
0.0
 10
49.82132481100761
 20
65.35263521682346
 30
0.0
 10
49.46042835702814
 20
65.80054858321188
 30
0.0
 10
49.01894535322928
 20
66.1673383097435
 30
0.0
 10
48.61949055916794
 20
66.41235165386891
 30
0.0
 10
48.3580165656952
 20
66.49490633960406
 30
0.0
 10
48.28097569137112
 20
66.51923030805735
 30
0.0
  0
SPLINE
  5
139
330
1F
100
AcDbEntity
  8
0
  6
Continuous
 62
     7
370
    30
100
AcDbSpline
210
0.0
220
0.0
230
1.0
 70
     8
 71
     3
 72
     9
 73
     5
 74
     0
 42
0.000000001
 43
0.00000001
 40
0.0
 40
0.0
 40
0.0
 40
0.0
 40
0.3197444727054151
 40
0.9999999999999999
 40
0.9999999999999999
 40
0.9999999999999999
 40
0.9999999999999999
 10
47.1541889974405
 20
65.90547476154713
 30
0.0
 10
47.19593047711035
 20
65.90973282382525
 30
0.0
 10
47.32647684532953
 20
65.92304990243517
 30
0.0
 10
47.45631524633106
 20
65.90035781889915
 30
0.0
 10
47.54463853626744
 20
65.88492140364794
 30
0.0
  0
SPLINE
  5
13A
330
1F
100
AcDbEntity
  8
0
  6
Continuous
 62
     7
370
    30
100
AcDbSpline
210
0.0
220
0.0
230
1.0
 70
     8
 71
     3
 72
    12
 73
     8
 74
     0
 42
0.000000001
 43
0.00000001
 40
0.0
 40
0.0
 40
0.0
 40
0.0
 40
0.1031448236197257
 40
0.3633141916897356
 40
0.6218332611951658
 40
0.8858610195762531
 40
1.0
 40
1.0
 40
1.0
 40
1.0
 10
48.34463903992668
 20
65.61880901646761
 30
0.0
 10
48.39479639230132
 20
65.59383546449746
 30
0.0
 10
48.57146912580144
 20
65.50586938409468
 30
0.0
 10
48.83249812503313
 20
65.2848534458015
 30
0.0
 10
49.11129863698959
 20
64.96487102118495
 30
0.0
 10
49.29742110244953
 20
64.6683255950298
 30
0.0
 10
49.3618678942455
 20
64.47324533504998
 30
0.0
 10
49.38131934344069
 20
64.41436585229783
 30
0.0
  0
SPLINE
  5
13B
330
1F
100
AcDbEntity
  8
0
  6
Continuous
 62
     7
370
    30
100
AcDbSpline
210
0.0
220
0.0
230
1.0
 70
     8
 71
     3
 72
    12
 73
     8
 74
     0
 42
0.000000001
 43
0.00000001
 40
0.0
 40
0.0
 40
0.0
 40
0.0
 40
0.2424247548745964
 40
0.4883738093166736
 40
0.7293782447281041
 40
0.974541345676127
 40
1.0
 40
1.0
 40
1.0
 40
1.0
 10
49.42520326315657
 20
62.91504291077106
 30
0.0
 10
49.37553995961301
 20
62.78323430241246
 30
0.0
 10
49.27549136207035
 20
62.51770089103243
 30
0.0
 10
49.03647388051866
 20
62.16334529798242
 30
0.0
 10
48.73753706398649
 20
61.8623960949232
 30
0.0
 10
48.50130938736653
 20
61.67480462320918
 30
0.0
 10
48.35811043515921
 20
61.61059092771765
 30
0.0
 10
48.34463903992668
 20
61.6045500450298
 30
0.0
  0
SPLINE
  5
13C
330
1F
100
AcDbEntity
  8
0
  6
Continuous
 62
     7
370
    30
100
AcDbSpline
210
0.0
220
0.0
230
1.0
 70
     8
 71
     3
 72
    15
 73
    11
 74
     0
 42
0.000000001
 43
0.00000001
 40
0.0
 40
0.0
 40
0.0
 40
0.0
 40
0.1213707523125211
 40
0.253673031915035
 40
0.3881414029312942
 40
0.5224284724355901
 40
0.6534124891352051
 40
0.7797602788777342
 40
0.9039089330583631
 40
0.9999999999999999
 40
0.9999999999999999
 40
0.9999999999999999
 40
0.9999999999999999
 10
47.54463853626744
 20
61.3386462741062
 30
0.0
 10
47.41515603397007
 20
61.32641446782709
 30
0.0
 10
47.14452889924537
 20
61.30084917037699
 30
0.0
 10
46.73009353132942
 20
61.35872565450835
 30
0.0
 10
46.32015521600778
 20
61.48998862943325
 30
0.0
 10
45.94332032932201
 20
61.69656953830152
 30
0.0
 10
45.61714134940915
 20
61.96280411047187
 30
0.0
 10
45.35296431361555
 20
62.27534088987554
 30
0.0
 10
45.15930816628564
 20
62.59453628677063
 30
0.0
 10
45.08313602970836
 20
62.81768335987005
 30
0.0
 10
45.04990196167724
 20
62.91504291077106
 30
0.0
  0
SPLINE
  5
13D
330
1F
100
AcDbEntity
  8
0
  6
Continuous
 62
     7
370
    30
100
AcDbSpline
210
0.0
220
0.0
230
1.0
 70
     8
 71
     3
 72
    14
 73
    10
 74
     0
 42
0.000000001
 43
0.00000001
 40
0.0
 40
0.0
 40
0.0
 40
0.0
 40
0.0226782547382996
 40
0.1565590804839761
 40
0.3008301905377716
 40
0.4550189438860275
 40
0.6248656618554144
 40
0.8080997215688833
 40
1.0
 40
1.0
 40
1.0
 40
1.0
 10
45.08282048939959
 20
64.41436585229783
 30
0.0
 10
45.0890452499871
 20
64.43452815269278
 30
0.0
 10
45.13201781578019
 20
64.57371837022504
 30
0.0
 10
45.26820488972446
 20
64.82149927170431
 30
0.0
 10
45.50325250128196
 20
65.1486432655051
 30
0.0
 10
45.82327038779655
 20
65.44931934673542
 30
0.0
 10
46.22563062297747
 20
65.69997290998641
 30
0.0
 10
46.70669140012689
 20
65.87932109930094
 30
0.0
 10
47.05643787149609
 20
65.90291747586001
 30
0.0
 10
47.23535096585051
 20
65.91498822164682
 30
0.0
  0
LINE
  5
13E
330
1F
100
AcDbEntity
  8
0
  6
Continuous
 62
     7
370
    30
100
AcDbLine
 10
47.9446387881
 20
66.7149882596
 30
0.0
 11
47.4353506261
 21
66.7149882596
 31
0.0
  0
LINE
  5
13F
330
1F
100
AcDbEntity
  8
0
  6
Continuous
 62
     7
370
    30
100
AcDbLine
 10
47.4353506261
 20
65.9149882216
 30
0.0
 11
47.5446385363
 21
65.9149882216
 31
0.0
  0
LINE
  5
140
330
1F
100
AcDbEntity
  8
0
  6
Continuous
 62
     7
370
    30
100
AcDbLine
 10
47.2353509659
 20
65.9149882216
 30
0.0
 11
47.4353506261
 21
65.9149882216
 31
0.0
  0
LINE
  5
141
330
1F
100
AcDbEntity
  8
0
  6
Continuous
 62
     7
370
    30
100
AcDbLine
 10
47.4353506261
 20
66.7149882596
 30
0.0
 11
47.2353509659
 21
66.7149882596
 31
0.0
  0
LINE
  5
142
330
1F
100
AcDbEntity
  8
0
  6
Continuous
 62
     7
370
    30
100
AcDbLine
 10
47.2826267624
 20
64.7150428799
 30
0.0
 11
45.2001326749
 21
64.7150428799
 31
0.0
  0
LINE
  5
143
330
1F
100
AcDbEntity
  8
0
  6
Continuous
 62
     7
370
    30
100
AcDbLine
 10
49.2658744597
 20
64.7150428799
 30
0.0
 11
48.3446390399
 21
64.7150428799
 31
0.0
  0
LINE
  5
144
330
1F
100
AcDbEntity
  8
0
  6
Continuous
 62
     7
370
    30
100
AcDbLine
 10
47.5446385363
 20
64.7150428799
 30
0.0
 11
47.4352966094
 21
64.7150428799
 31
0.0
  0
LINE
  5
145
330
1F
100
AcDbEntity
  8
0
  6
Continuous
 62
     7
370
    30
100
AcDbLine
 10
47.4352966094
 20
64.7150428799
 30
0.0
 11
47.2826267624
 21
64.7150428799
 31
0.0
  0
LINE
  5
146
330
1F
100
AcDbEntity
  8
0
  6
Continuous
 62
     7
370
    30
100
AcDbLine
 10
53.7353511
 20
101.1150443759
 30
0.0
 11
53.7353511
 21
101.0035874155
 31
0.0
  0
LINE
  5
147
330
1F
100
AcDbEntity
  8
0
  6
Continuous
 62
     7
370
    30
100
AcDbLine
 10
57.7353517556
 20
101.0035874155
 30
0.0
 11
57.7353517556
 21
101.1150443759
 31
0.0
  0
CIRCLE
  5
148
330
1F
100
AcDbEntity
  8
0
  6
Continuous
 62
     7
370
    30
100
AcDbCircle
 10
36.2353510255
 20
94.6150428858
 30
0.0
 40
4.750000000000003
  0
CIRCLE
  5
149
330
1F
100
AcDbEntity
  8
0
  6
Continuous
 62
     7
370
    30
100
AcDbCircle
 10
36.2353510255
 20
94.6150428858
 30
0.0
 40
4.250000000000007
  0
CIRCLE
  5
14A
330
1F
100
AcDbEntity
  8
0
  6
Continuous
 62
     7
370
    30
100
AcDbCircle
 10
67.2353510255
 20
63.6150428858
 30
0.0
 40
4.249999999999996
  0
CIRCLE
  5
14B
330
1F
100
AcDbEntity
  8
0
  6
Continuous
 62
     7
370
    30
100
AcDbCircle
 10
67.2353510255
 20
63.6150428858
 30
0.0
 40
4.749999999999991
  0
CIRCLE
  5
14C
330
1F
100
AcDbEntity
  8
0
  6
Continuous
 62
     7
370
    30
100
AcDbCircle
 10
36.2353510255
 20
94.6150428858
 30
0.0
 40
3.000000000000011
  0
LINE
  5
14D
330
1F
100
AcDbEntity
  8
0
  6
Continuous
 62
     7
370
    30
100
AcDbLine
 10
35.8123770248
 20
95.6894868818
 30
0.0
 11
35.0933696873
 21
94.7859586981
 31
0.0
  0
LINE
  5
14E
330
1F
100
AcDbEntity
  8
0
  6
Continuous
 62
     7
370
    30
100
AcDbLine
 10
35.0933696873
 20
94.7859586981
 30
0.0
 11
35.516343688
 21
93.7115160581
 31
0.0
  0
LINE
  5
14F
330
1F
100
AcDbEntity
  8
0
  6
Continuous
 62
     7
370
    30
100
AcDbLine
 10
35.516343688
 20
93.7115160581
 30
0.0
 11
36.6583250261
 21
93.5405997392
 31
0.0
  0
LINE
  5
150
330
1F
100
AcDbEntity
  8
0
  6
Continuous
 62
     7
370
    30
100
AcDbLine
 10
36.6583250261
 20
93.5405997392
 30
0.0
 11
37.3773323636
 21
94.4441279229
 31
0.0
  0
LINE
  5
151
330
1F
100
AcDbEntity
  8
0
  6
Continuous
 62
     7
370
    30
100
AcDbLine
 10
37.3773323636
 20
94.4441279229
 30
0.0
 11
36.9543583629
 21
95.5185705629
 31
0.0
  0
LINE
  5
152
330
1F
100
AcDbEntity
  8
0
  6
Continuous
 62
     7
370
    30
100
AcDbLine
 10
36.9543583629
 20
95.5185705629
 30
0.0
 11
35.8123770248
 21
95.6894868818
 31
0.0
  0
CIRCLE
  5
153
330
1F
100
AcDbEntity
  8
0
  6
Continuous
 62
     7
370
    30
100
AcDbCircle
 10
67.2353510255
 20
63.6150428858
 30
0.0
 40
2.999999999999989
  0
LINE
  5
154
330
1F
100
AcDbEntity
  8
0
  6
Continuous
 62
     7
370
    30
100
AcDbLine
 10
67.0204422468
 20
64.7495680554
 30
0.0
 11
66.1453678304
 21
63.9961884539
 31
0.0
  0
LINE
  5
155
330
1F
100
AcDbEntity
  8
0
  6
Continuous
 62
     7
370
    30
100
AcDbLine
 10
66.1453678304
 20
63.9961884539
 30
0.0
 11
66.3602779651
 21
62.8616632843
 31
0.0
  0
LINE
  5
156
330
1F
100
AcDbEntity
  8
0
  6
Continuous
 62
     7
370
    30
100
AcDbLine
 10
66.3602779651
 20
62.8616632843
 30
0.0
 11
67.4502606535
 21
62.4805177162
 31
0.0
  0
LINE
  5
157
330
1F
100
AcDbEntity
  8
0
  6
Continuous
 62
     7
370
    30
100
AcDbLine
 10
67.4502606535
 20
62.4805177162
 30
0.0
 11
68.3253332072
 21
63.2338973177
 31
0.0
  0
LINE
  5
158
330
1F
100
AcDbEntity
  8
0
  6
Continuous
 62
     7
370
    30
100
AcDbLine
 10
68.3253332072
 20
63.2338973177
 30
0.0
 11
68.1104249352
 21
64.3684224873
 31
0.0
  0
LINE
  5
159
330
1F
100
AcDbEntity
  8
0
  6
Continuous
 62
     7
370
    30
100
AcDbLine
 10
68.1104249352
 20
64.3684224873
 30
0.0
 11
67.0204422468
 21
64.7495680554
 31
0.0
  0
LINE
  5
15A
330
1F
100
AcDbEntity
  8
0
  6
Continuous
 62
     7
370
    30
100
AcDbLine
 10
35.5492542995
 20
70.3368677591
 30
0.0
 11
35.5353510504
 21
70.3368677591
 31
0.0
  0
LINE
  5
15B
330
1F
100
AcDbEntity
  8
0
  6
Continuous
 62
     7
370
    30
100
AcDbLine
 10
36.835351054
 20
70.3368677591
 30
0.0
 11
35.5614147529
 21
70.3368677591
 31
0.0
  0
SPLINE
  5
15C
330
1F
100
AcDbEntity
  8
0
  6
Continuous
 62
     7
370
    30
100
AcDbSpline
210
0.0
220
0.0
230
1.0
 70
     8
 71
     3
 72
    12
 73
     8
 74
     0
 42
0.000000001
 43
0.00000001
 40
0.0
 40
0.0
 40
0.0
 40
0.0
 40
0.2148738250130387
 40
0.4297511788032768
 40
0.6445406885741958
 40
0.8591995645530022
 40
1.0
 40
1.0
 40
1.0
 40
1.0
 10
35.56141475294948
 20
70.33686775905042
 30
0.0
 10
35.5504972499556
 20
70.33797403193122
 30
0.0
 10
35.52866206467454
 20
70.34018659586064
 30
0.0
 10
35.49956348875024
 20
70.35744496088037
 30
0.0
 10
35.47761455230462
 20
70.38284132263512
 30
0.0
 10
35.46600527328041
 20
70.41095484823946
 30
0.0
 10
35.46482334010985
 20
70.42951554172491
 30
0.0
 10
35.46435516639845
 20
70.43686758917717
 30
0.0
  0
SPLINE
  5
15D
330
1F
100
AcDbEntity
  8
0
  6
Continuous
 62
     7
370
    30
100
AcDbSpline
210
0.0
220
0.0
230
1.0
 70
     8
 71
     3
 72
    12
 73
     8
 74
     0
 42
0.000000001
 43
0.00000001
 40
0.0
 40
0.0
 40
0.0
 40
0.0
 40
0.2145305056222764
 40
0.429058368234202
 40
0.6436380330256641
 40
0.8583321886753653
 40
1.0
 40
1.0
 40
1.0
 40
1.0
 10
35.45219465471105
 20
70.43686758917717
 30
0.0
 10
35.45326660969143
 20
70.42563004591364
 30
0.0
 10
35.45541050644574
 20
70.4031550978328
 30
0.0
 10
35.47212859843572
 20
70.37319906397421
 30
0.0
 10
35.49673584748582
 20
70.35058396122793
 30
0.0
 10
35.5240294024586
 20
70.33858155945863
 30
0.0
 10
35.542078913366
 20
70.33735526072894
 30
0.0
 10
35.54925429946974
 20
70.33686775905042
 30
0.0
  0
LINE
  5
15E
330
1F
100
AcDbEntity
  8
0
  6
Continuous
 62
     7
370
    30
100
AcDbLine
 10
35.5614147529
 20
80.3368670699
 30
0.0
 11
36.835351054
 21
80.3368670699
 31
0.0
  0
LINE
  5
15F
330
1F
100
AcDbEntity
  8
0
  6
Continuous
 62
     7
370
    30
100
AcDbLine
 10
35.5432752085
 20
80.3368670699
 30
0.0
 11
35.5492542995
 21
80.3368670699
 31
0.0
  0
LINE
  5
160
330
1F
100
AcDbEntity
  8
0
  6
Continuous
 62
     7
370
    30
100
AcDbLine
 10
35.4643551664
 20
70.4368675892
 30
0.0
 11
35.4643551664
 21
73.5057547521
 31
0.0
  0
LINE
  5
161
330
1F
100
AcDbEntity
  8
0
  6
Continuous
 62
     7
370
    30
100
AcDbLine
 10
35.4643551664
 20
74.3057552558
 30
0.0
 11
35.4643551664
 21
80.2368672397
 31
0.0
  0
LINE
  5
162
330
1F
100
AcDbEntity
  8
0
  6
Continuous
 62
     7
370
    30
100
AcDbLine
 10
35.4521946547
 20
80.2368672397
 30
0.0
 11
35.4521946547
 21
74.3057552558
 31
0.0
  0
LINE
  5
163
330
1F
100
AcDbEntity
  8
0
  6
Continuous
 62
     7
370
    30
100
AcDbLine
 10
35.4521946547
 20
73.5057547521
 30
0.0
 11
35.4521946547
 21
70.4368675892
 31
0.0
  0
LINE
  5
164
330
1F
100
AcDbEntity
  8
0
  6
Continuous
 62
     7
370
    30
100
AcDbLine
 10
35.5492542995
 20
80.3368670699
 30
0.0
 11
35.5614147529
 21
80.3368670699
 31
0.0
  0
LINE
  5
165
330
1F
100
AcDbEntity
  8
0
  6
Continuous
 62
     7
370
    30
100
AcDbLine
 10
35.5492542995
 20
70.3368677591
 30
0.0
 11
35.5614147529
 21
70.3368677591
 31
0.0
  0
LINE
  5
166
330
1F
100
AcDbEntity
  8
0
  6
Continuous
 62
     7
370
    30
100
AcDbLine
 10
47.2525850901
 20
60.1150853858
 30
0.0
 11
47.2525850901
 21
60.5190235023
 31
0.0
  0
LINE
  5
167
330
1F
100
AcDbEntity
  8
0
  6
Continuous
 62
     7
370
    30
100
AcDbLine
 10
47.2525850901
 20
61.3246133384
 30
0.0
 11
47.2525850901
 21
62.9150429108
 31
0.0
  0
LINE
  5
168
330
1F
100
AcDbEntity
  8
0
  6
Continuous
 62
     7
370
    30
100
AcDbLine
 10
47.2525850901
 20
64.7150428799
 30
0.0
 11
47.2525850901
 21
65.9149882216
 31
0.0
  0
LINE
  5
169
330
1F
100
AcDbEntity
  8
0
  6
Continuous
 62
     7
370
    30
100
AcDbLine
 10
47.2525850901
 20
66.7149882596
 30
0.0
 11
47.2525850901
 21
67.1150003858
 31
0.0
  0
LINE
  5
16A
330
1F
100
AcDbEntity
  8
0
  6
Continuous
 62
     7
370
    30
100
AcDbLine
 10
47.202587969
 20
67.1148895585
 30
0.0
 11
47.202587969
 21
66.7133428455
 31
0.0
  0
LINE
  5
16B
330
1F
100
AcDbEntity
  8
0
  6
Continuous
 62
     7
370
    30
100
AcDbLine
 10
47.202587969
 20
65.9139109143
 30
0.0
 11
47.202587969
 21
64.7150428799
 31
0.0
  0
LINE
  5
16C
330
1F
100
AcDbEntity
  8
0
  6
Continuous
 62
     7
370
    30
100
AcDbLine
 10
47.202587969
 20
62.9150429108
 30
0.0
 11
47.202587969
 21
61.3249011171
 31
0.0
  0
LINE
  5
16D
330
1F
100
AcDbEntity
  8
0
  6
Continuous
 62
     7
370
    30
100
AcDbLine
 10
47.202587969
 20
60.515423242
 30
0.0
 11
47.202587969
 21
60.1151962132
 31
0.0
  0
LINE
  5
16E
330
1F
100
AcDbEntity
  8
0
  6
Continuous
 62
     7
370
    30
100
AcDbLine
 10
47.2051798397
 20
60.1151729301
 30
0.0
 11
47.2051798397
 21
60.5153303426
 31
0.0
  0
LINE
  5
16F
330
1F
100
AcDbEntity
  8
0
  6
Continuous
 62
     7
370
    30
100
AcDbLine
 10
47.2051798397
 20
61.3248671238
 30
0.0
 11
47.2051798397
 21
62.9150429108
 31
0.0
  0
LINE
  5
170
330
1F
100
AcDbEntity
  8
0
  6
Continuous
 62
     7
370
    30
100
AcDbLine
 10
47.2051798397
 20
64.7150428799
 30
0.0
 11
47.2051798397
 21
65.9141768069
 31
0.0
  0
LINE
  5
171
330
1F
100
AcDbEntity
  8
0
  6
Continuous
 62
     7
370
    30
100
AcDbLine
 10
47.2051798397
 20
66.7135956996
 30
0.0
 11
47.2051798397
 21
67.1149128415
 31
0.0
  0
LINE
  5
172
330
1F
100
AcDbEntity
  8
0
  6
Continuous
 62
     7
370
    30
100
AcDbLine
 10
43.0362526359
 20
64.4148235391
 30
0.0
 11
47.5446385363
 21
64.4148235391
 31
0.0
  0
LINE
  5
173
330
1F
100
AcDbEntity
  8
0
  6
Continuous
 62
     7
370
    30
100
AcDbLine
 10
48.3446390399
 20
64.4148235391
 30
0.0
 11
52.8356432015
 21
64.4148235391
 31
0.0
  0
LINE
  5
174
330
1F
100
AcDbEntity
  8
0
  6
Continuous
 62
     7
370
    30
100
AcDbLine
 10
42.9362528057
 20
63.0150428573
 30
0.0
 11
42.9362528057
 21
64.3147635805
 31
0.0
  0
SPLINE
  5
175
330
1F
100
AcDbEntity
  8
0
  6
Continuous
 62
     7
370
    30
100
AcDbSpline
210
0.0
220
0.0
230
1.0
 70
     8
 71
     3
 72
    12
 73
     8
 74
     0
 42
0.000000001
 43
0.00000001
 40
0.0
 40
0.0
 40
0.0
 40
0.0
 40
0.2148732484424855
 40
0.4297489552870565
 40
0.6445406668849324
 40
0.859199585946057
 40
1.0
 40
1.0
 40
1.0
 40
1.0
 10
42.93625280573265
 20
64.3147635804951
 30
0.0
 10
42.93735912413396
 20
64.32601855254451
 30
0.0
 10
42.93957177359417
 20
64.3485286254134
 30
0.0
 10
42.95682946689406
 20
64.37852711853013
 30
0.0
 10
42.98222638485186
 20
64.40115407546391
 30
0.0
 10
43.01033987067171
 20
64.41312239183965
 30
0.0
 10
43.02890058264832
 20
64.41434088414493
 30
0.0
 10
43.03625263585941
 20
64.4148235391356
 30
0.0
  0
LINE
  5
176
330
1F
100
AcDbEntity
  8
0
  6
Continuous
 62
     7
370
    30
100
AcDbLine
 10
52.9362521166
 20
64.3147635805
 30
0.0
 11
52.9362521166
 21
63.0150428573
 31
0.0
  0
ARC
  5
177
330
1F
100
AcDbEntity
  8
0
  6
Continuous
 62
     7
370
    30
100
AcDbCircle
 10
38.9352963036
 20
73.9057550575
 30
0.0
 40
0.4000000000000057
100
AcDbArc
 50
270.0
 51
90.0
  0
ARC
  5
178
330
1F
100
AcDbEntity
  8
0
  6
Continuous
 62
     7
370
    30
100
AcDbCircle
 10
33.7239172442
 20
73.9057550575
 30
0.0
 40
0.4000000000000057
100
AcDbArc
 50
90.0
 51
270.0
  0
LINE
  5
179
330
1F
100
AcDbEntity
  8
0
  6
Continuous
 62
     7
370
    30
100
AcDbLine
 10
39.3352961665
 20
74.6150428262
 30
0.0
 11
38.5352963613
 21
74.6150428262
 31
0.0
  0
ARC
  5
17A
330
1F
100
AcDbEntity
  8
0
  6
Continuous
 62
     7
370
    30
100
AcDbCircle
 10
36.9353510255
 20
71.9150976076
 30
0.0
 40
0.3999999999999917
100
AcDbArc
 50
270.0
 51
328.140759218
  0
LWPOLYLINE
  5
17B
330
1F
100
AcDbEntity
  8
0
  6
Continuous
 62
     7
370
    30
100
AcDbPolyline
 90
        3
 70
   128
 43
0.0
 10
36.9353510005
 20
76.6677671876
 10
37.0884244012
 20
76.6982149166
 10
37.1393091891
 20
76.7236726191
  0
ARC
  5
17C
330
1F
100
AcDbEntity
  8
0
  6
Continuous
 62
     7
370
    30
100
AcDbCircle
 10
47.9446388538
 20
61.1036091045
 30
0.0
 40
0.4000000000000057
100
AcDbArc
 50
180.0
 51
0.0
  0
ARC
  5
17D
330
1F
100
AcDbEntity
  8
0
  6
Continuous
 62
     7
370
    30
100
AcDbCircle
 10
47.9446388538
 20
66.314988164
 30
0.0
 40
0.4000000000000057
100
AcDbArc
 50
0.0
 51
180.0
  0
LINE
  5
17E
330
1F
100
AcDbEntity
  8
0
  6
Continuous
 62
     7
370
    30
100
AcDbLine
 10
47.2353509659
 20
66.7149880268
 30
0.0
 11
47.2353509659
 21
65.9149882216
 31
0.0
  0
ARC
  5
17F
330
1F
100
AcDbEntity
  8
0
  6
Continuous
 62
     7
370
    30
100
AcDbCircle
 10
49.9352963036
 20
64.3150428858
 30
0.0
 40
0.3999999999999939
100
AcDbArc
 50
14.3773728561
 51
58.140759218
  0
LWPOLYLINE
  5
180
330
1F
100
AcDbEntity
  8
0
  6
Continuous
 62
     7
370
    30
100
AcDbPolyline
 90
        3
 70
   128
 43
0.0
 10
45.1700993845
 20
64.4143658523
 10
45.1521788755
 20
64.4681162616
 10
45.1267221042
 20
64.5190010495
  0
LINE
  5
181
330
1F
100
AcDbEntity
  8
0
  6
Continuous
 62
     7
370
    30
100
AcDbLine
 10
53.8101307148
 20
101.1150443759
 30
0.0
 11
53.7353511
 21
101.1150443759
 31
0.0
  0
LINE
  5
182
330
1F
100
AcDbEntity
  8
0
  6
Continuous
 62
     7
370
    30
100
AcDbLine
 10
57.7353517556
 20
101.1150443759
 30
0.0
 11
53.8101307148
 21
101.1150443759
 31
0.0
  0
ARC
  5
183
330
1F
100
AcDbEntity
  8
0
  6
Continuous
 62
     7
370
    30
100
AcDbCircle
 10
44.0068151785
 20
102.8999221346
 30
0.0
 40
5.000000000000001
100
AcDbArc
 50
249.2149847277
 51
300.6595895532
  0
LWPOLYLINE
  5
184
330
1F
100
AcDbEntity
  8
0
  6
Continuous
 62
     7
370
    30
100
AcDbPolyline
 90
        9
 70
   128
 43
0.0
 10
47.0664332652
 20
97.7386498657
 10
46.9669493878
 20
97.906466743
 10
46.8712885895
 20
98.0678388682
 10
46.783127732
 20
98.2165561822
 10
46.7058540353
 20
98.3469115403
 10
46.6424365559
 20
98.4538907018
 10
46.5953134963
 20
98.5333809462
 10
46.5662953475
 20
98.5823312607
 10
46.5564969027
 20
98.5988603738
  0
ARC
  5
185
330
1F
100
AcDbEntity
  8
0
  6
Continuous
 62
     7
370
    30
100
AcDbCircle
 10
55.7353510255
 20
83.1150428858
 30
0.0
 40
17.0
100
AcDbArc
 50
329.3404104468
 51
120.6595895532
  0
ARC
  5
186
330
1F
100
AcDbEntity
  8
0
  6
Continuous
 62
     7
370
    30
100
AcDbCircle
 10
55.7353510255
 20
83.1150428858
 30
0.0
 40
18.0
100
AcDbArc
 50
329.3404104468
 51
120.6595895532
  0
LWPOLYLINE
  5
187
330
1F
100
AcDbEntity
  8
0
  6
Continuous
 62
     7
370
    30
100
AcDbPolyline
 90
        9
 70
   128
 43
0.0
 10
70.3589580053
 20
74.4461251256
 10
70.5267748827
 20
74.3466412481
 10
70.6881470078
 20
74.2509804499
 10
70.8368643218
 20
74.1628195923
 10
70.9672196799
 20
74.0855458957
 10
71.0741988414
 20
74.0221284163
 10
71.1536890858
 20
73.9750053566
 10
71.2026394004
 20
73.9459872079
 10
71.2191685134
 20
73.9361887631
  0
CIRCLE
  5
188
330
1F
100
AcDbEntity
  8
0
  6
Continuous
 62
     7
370
    30
100
AcDbCircle
 10
55.7353510255
 20
83.1150428858
 30
0.0
 40
12.00000000000003
  0
CIRCLE
  5
189
330
1F
100
AcDbEntity
  8
0
  6
Continuous
 62
     7
370
    30
100
AcDbCircle
 10
55.7353510255
 20
83.1150428858
 30
0.0
 40
11.50000000000003
  0
ARC
  5
18A
330
1F
100
AcDbEntity
  8
0
  6
Continuous
 62
     7
370
    30
100
AcDbCircle
 10
75.5202302742
 20
71.3865070389
 30
0.0
 40
5.000000000000002
100
AcDbArc
 50
149.3404104468
 51
200.7850152723
  0
ARC
  5
18B
330
1F
100
AcDbEntity
  8
0
  6
Continuous
 62
     7
370
    30
100
AcDbCircle
 10
38.8059015537
 20
52.1150428858
 30
0.0
 40
5.000000000000008
100
AcDbArc
 50
64.1580672368
 51
90.0
  0
LINE
  5
18C
330
1F
100
AcDbEntity
  8
0
  6
Continuous
 62
     7
370
    30
100
AcDbLine
 10
38.8059014486
 20
57.1150427517
 30
0.0
 11
38.8059014486
 21
57.6150428337
 31
0.0
  0
ARC
  5
18D
330
1F
100
AcDbEntity
  8
0
  6
Continuous
 62
     7
370
    30
100
AcDbCircle
 10
38.8059015537
 20
52.1150428858
 30
0.0
 40
5.500000000000129
100
AcDbArc
 50
65.3800226713
 51
90.0
  0
SPLINE
  5
18E
330
1F
100
AcDbEntity
  8
0
  6
Continuous
 62
     7
370
    30
100
AcDbSpline
210
0.0
220
0.0
230
1.0
 70
     8
 71
     3
 72
    13
 73
     9
 74
     0
 42
0.000000001
 43
0.00000001
 40
0.0
 40
0.0
 40
0.0
 40
0.0
 40
0.2081244515742345
 40
0.4161641780480326
 40
0.6265975882951371
 40
0.8420492173955016
 40
0.9912483762014079
 40
1.0
 40
1.0
 40
1.0
 40
1.0
 10
40.98535087271826
 20
56.61504266974477
 30
0.0
 10
40.9865767064301
 20
56.62037755900685
 30
0.0
 10
40.98902787483081
 20
56.63104516575818
 30
0.0
 10
41.00797326042755
 20
56.71397862668568
 30
0.0
 10
41.03568909544586
 20
56.83666178272054
 30
0.0
 10
41.06665728419586
 20
56.97574264551394
 30
0.0
 10
41.0878088682758
 20
57.07206208972195
 30
0.0
 10
41.09669675603502
 20
57.11278633205868
 30
0.0
 10
41.09718920975224
 20
57.11504275170117
 30
0.0
  0
LINE
  5
18F
330
1F
100
AcDbEntity
  8
0
  6
Continuous
 62
     7
370
    30
100
AcDbLine
 10
61.9853510553
 20
56.6150426697
 30
0.0
 11
40.9853508727
 21
56.6150426697
 31
0.0
  0
LINE
  5
190
330
1F
100
AcDbEntity
  8
0
  6
Continuous
 62
     7
370
    30
100
AcDbLine
 10
41.0971892098
 20
57.1150427517
 30
0.0
 11
61.8735122526
 21
57.1150427517
 31
0.0
  0
SPLINE
  5
191
330
1F
100
AcDbEntity
  8
0
  6
Continuous
 62
     7
370
    30
100
AcDbSpline
210
0.0
220
0.0
230
1.0
 70
     8
 71
     3
 72
    13
 73
     9
 74
     0
 42
0.000000001
 43
0.00000001
 40
0.0
 40
0.0
 40
0.0
 40
0.0
 40
0.2081244504546572
 40
0.4161640270011024
 40
0.6265976059411269
 40
0.842048858633767
 40
0.991248000742272
 40
0.9999999999999999
 40
0.9999999999999999
 40
0.9999999999999999
 40
0.9999999999999999
 10
61.98535105525748
 20
56.61504266974477
 30
0.0
 10
61.98412491441045
 20
56.62037755271888
 30
0.0
 10
61.98167313274109
 20
56.63104514308237
 30
0.0
 10
61.96272957092285
 20
56.71397867751269
 30
0.0
 10
61.93501288526298
 20
56.83666184257785
 30
0.0
 10
61.90404116162501
 20
56.97574175287562
 30
0.0
 10
61.88290136080453
 20
57.07206380093101
 30
0.0
 10
61.87400518549712
 20
57.1127863350324
 30
0.0
 10
61.87351225256221
 20
57.11504275170117
 30
0.0
  0
LINE
  5
192
330
1F
100
AcDbEntity
  8
0
  6
Continuous
 62
     7
370
    30
100
AcDbLine
 10
50.9434499809
 20
65.1150428989
 30
0.0
 11
52.2353517854
 21
65.1150428989
 31
0.0
  0
LINE
  5
193
330
1F
100
AcDbEntity
  8
0
  6
Continuous
 62
     7
370
    30
100
AcDbLine
 10
52.2353517854
 20
64.6150429333
 30
0.0
 11
52.2353517854
 21
65.1150428989
 31
0.0
  0
LINE
  5
194
330
1F
100
AcDbEntity
  8
0
  6
Continuous
 62
     7
370
    30
100
AcDbLine
 10
52.2353517854
 20
64.6150429333
 30
0.0
 11
50.589453339
 21
64.6150429333
 31
0.0
  0
SPLINE
  5
195
330
1F
100
AcDbEntity
  8
0
  6
Continuous
 62
     7
370
    30
100
AcDbSpline
210
0.0
220
0.0
230
1.0
 70
     8
 71
     3
 72
    13
 73
     9
 74
     0
 42
0.000000001
 43
0.00000001
 40
0.0
 40
0.0
 40
0.0
 40
0.0
 40
0.0053295205142721
 40
0.2797179929644418
 40
0.491385663237035
 40
0.6691323647187857
 40
0.8343010239224004
 40
1.0
 40
1.0
 40
1.0
 40
1.0
 10
50.94344998090759
 20
65.11504289885013
 30
0.0
 10
50.94258458713671
 20
65.11375927347223
 30
0.0
 10
50.89716470216409
 20
65.04638865101887
 30
0.0
 10
50.81570030873689
 20
64.92791020417515
 30
0.0
 10
50.71480780415893
 20
64.78593102824935
 30
0.0
 10
50.64518906072534
 20
64.69022539381216
 30
0.0
 10
50.59875257199612
 20
64.62749147873338
 30
0.0
 10
50.5925563937399
 20
64.61919687999674
 30
0.0
 10
50.58945333897368
 20
64.61504293330906
 30
0.0
  0
ARC
  5
196
330
1F
100
AcDbEntity
  8
0
  6
Continuous
 62
     7
370
    30
100
AcDbCircle
 10
67.2353510255
 20
63.6150428858
 30
0.0
 40
7.000000000000001
100
AcDbArc
 50
311.4096221093
 51
318.5903778907
  0
LWPOLYLINE
  5
197
330
1F
100
AcDbEntity
  8
0
  6
Continuous
 62
     7
370
    30
100
AcDbPolyline
 90
        9
 70
   128
 43
0.0
 10
71.8654169732
 20
58.3650429566
 10
71.859061628
 20
58.3722485994
 10
71.8402414614
 20
58.3935879935
 10
71.8096791798
 20
58.4282415752
 10
71.7685519749
 20
58.4748780188
 10
71.7184356445
 20
58.5317040626
 10
71.6612561637
 20
58.5965366867
 10
71.5992151791
 20
58.6668841374
 10
71.5346968764
 20
58.7400427852
  0
ARC
  5
198
330
1F
100
AcDbEntity
  8
0
  6
Continuous
 62
     7
370
    30
100
AcDbCircle
 10
67.2353510255
 20
63.6150428858
 30
0.0
 40
6.499999999999992
100
AcDbArc
 50
311.4096221093
 51
318.5903778907
  0
LWPOLYLINE
  5
199
330
1F
100
AcDbEntity
  8
0
  6
Continuous
 62
     7
370
    30
100
AcDbPolyline
 90
        9
 70
   128
 43
0.0
 10
72.4853499824
 20
58.984978294
 10
72.4781452709
 20
58.991332708
 10
72.4568068081
 20
59.0101524089
 10
72.4221504325
 20
59.0407142248
 10
72.3755172485
 20
59.0818432924
 10
72.3186916703
 20
59.1319596228
 10
72.2538567179
 20
59.1891363096
 10
72.1835083359
 20
59.2511768286
 10
72.1103510851
 20
59.3156969939
  0
CIRCLE
  5
19A
330
1F
100
AcDbEntity
  8
0
  6
Continuous
 62
     7
370
    30
100
AcDbCircle
 10
67.2353510255
 20
63.6150428858
 30
0.0
 40
5.249999999999986
  0
ARC
  5
19B
330
1F
100
AcDbEntity
  8
0
  6
Continuous
 62
     7
370
    30
100
AcDbCircle
 10
34.9124753699
 20
62.1150428858
 30
0.0
 40
5.000000000000002
100
AcDbArc
 50
228.5903778907
 51
270.0
  0
LWPOLYLINE
  5
19C
330
1F
100
AcDbEntity
  8
0
  6
Continuous
 62
     7
370
    30
100
AcDbPolyline
 90
        9
 70
   128
 43
0.0
 10
31.6052864337
 20
58.3650429566
 10
31.6116408476
 20
58.3722485994
 10
31.6304605485
 20
58.3935879935
 10
31.6610223645
 20
58.4282415752
 10
31.702151432
 20
58.4748780188
 10
31.7522677624
 20
58.5317040626
 10
31.8094444492
 20
58.5965366867
 10
31.8714849682
 20
58.6668841374
 10
31.9360051335
 20
58.7400427852
  0
ARC
  5
19D
330
1F
100
AcDbEntity
  8
0
  6
Continuous
 62
     7
370
    30
100
AcDbCircle
 10
34.9124753699
 20
62.1150428858
 30
0.0
 40
4.500000000000009
100
AcDbArc
 50
228.5903778907
 51
270.0
  0
LINE
  5
19E
330
1F
100
AcDbEntity
  8
0
  6
Continuous
 62
     7
370
    30
100
AcDbLine
 10
34.9124754112
 20
57.1150427517
 30
0.0
 11
34.9124754112
 21
57.6150428337
 31
0.0
  0
ARC
  5
19F
330
1F
100
AcDbEntity
  8
0
  6
Continuous
 62
     7
370
    30
100
AcDbCircle
 10
67.2353510255
 20
63.6150428858
 30
0.0
 40
6.5
100
AcDbArc
 50
41.4096221093
 51
90.0
  0
LINE
  5
1A0
330
1F
100
AcDbEntity
  8
0
  6
Continuous
 62
     7
370
    30
100
AcDbLine
 10
67.2353505188
 20
70.1150430199
 30
0.0
 11
67.2353505188
 21
70.6150431019
 31
0.0
  0
ARC
  5
1A1
330
1F
100
AcDbEntity
  8
0
  6
Continuous
 62
     7
370
    30
100
AcDbCircle
 10
67.2353510255
 20
63.6150428858
 30
0.0
 40
7.000000000000007
100
AcDbArc
 50
41.4096221093
 51
90.0
  0
LWPOLYLINE
  5
1A2
330
1F
100
AcDbEntity
  8
0
  6
Continuous
 62
     7
370
    30
100
AcDbPolyline
 90
        9
 70
   128
 43
0.0
 10
72.1103510851
 20
67.9143887777
 10
72.1835083359
 20
67.9789089431
 10
72.2538567179
 20
68.040949462
 10
72.3186916703
 20
68.0981261489
 10
72.3755172485
 20
68.1482424792
 10
72.4221504325
 20
68.1893715468
 10
72.4568068081
 20
68.2199333627
 10
72.4781452709
 20
68.2387530637
 10
72.4853499824
 20
68.2451074776
  0
ARC
  5
1A3
330
1F
100
AcDbEntity
  8
0
  6
Continuous
 62
     7
370
    30
100
AcDbCircle
 10
36.2353510255
 20
74.6150428858
 30
0.0
 40
3.500000000000002
100
AcDbArc
 50
286.601549599
 51
73.398450401
  0
SPLINE
  5
1A4
330
1F
100
AcDbEntity
  8
0
  6
Continuous
 62
     7
370
    30
100
AcDbSpline
210
0.0
220
0.0
230
1.0
 70
     8
 71
     3
 72
    13
 73
     9
 74
     0
 42
0.000000001
 43
0.00000001
 40
0.0
 40
0.0
 40
0.0
 40
0.0
 40
0.1656989760775996
 40
0.3308676352812142
 40
0.508614336762965
 40
0.7202820070355582
 40
0.994670479485728
 40
1.0
 40
1.0
 40
1.0
 40
1.0
 10
37.23535107295261
 20
77.96914519933013
 30
0.0
 10
37.23950501964028
 20
77.97224825409637
 30
0.0
 10
37.24779961837693
 20
77.97844443235259
 30
0.0
 10
37.3105335334557
 20
78.02488092108179
 30
0.0
 10
37.4062391678929
 20
78.09449966451538
 30
0.0
 10
37.54821834381869
 20
78.19539216909335
 30
0.0
 10
37.66669679066243
 20
78.27685656252059
 30
0.0
 10
37.73406741311577
 20
78.32227644749317
 30
0.0
 10
37.73535103849367
 20
78.32314184126406
 30
0.0
  0
ARC
  5
1A5
330
1F
100
AcDbEntity
  8
0
  6
Continuous
 62
     7
370
    30
100
AcDbCircle
 10
36.2353510255
 20
74.6150428858
 30
0.0
 40
4.000000000000001
100
AcDbArc
 50
292.024312837
 51
67.975687163
  0
SPLINE
  5
1A6
330
1F
100
AcDbEntity
  8
0
  6
Continuous
 62
     7
370
    30
100
AcDbSpline
210
0.0
220
0.0
230
1.0
 70
     8
 71
     3
 72
    13
 73
     9
 74
     0
 42
0.000000001
 43
0.00000001
 40
0.0
 40
0.0
 40
0.0
 40
0.0
 40
0.165699007519616
 40
0.3308674856769552
 40
0.5086143874655388
 40
0.720281750987759
 40
0.9946701815580569
 40
1.0
 40
1.0
 40
1.0
 40
1.0
 10
37.23535107295261
 20
71.26094091874509
 30
0.0
 10
37.23950501055988
 20
71.25783761687546
 30
0.0
 10
37.2477995858404
 20
71.251640949181
 30
0.0
 10
37.31053360227821
 20
71.20520541934633
 30
0.0
 10
37.40623921671875
 20
71.13558609328177
 30
0.0
 10
37.54821722646262
 20
71.0346922640058
 30
0.0
 10
37.66670053756243
 20
70.95323495611409
 30
0.0
 10
37.73406741391351
 20
70.90780936130193
 30
0.0
 10
37.73535103849367
 20
70.90694381114989
 30
0.0
  0
LINE
  5
1A7
330
1F
100
AcDbEntity
  8
0
  6
Continuous
 62
     7
370
    30
100
AcDbLine
 10
35.235350978
 20
71.2609409187
 30
0.0
 11
35.235350978
 21
69.615042938
 31
0.0
  0
LINE
  5
1A8
330
1F
100
AcDbEntity
  8
0
  6
Continuous
 62
     7
370
    30
100
AcDbLine
 10
35.235350978
 20
69.615042938
 30
0.0
 11
34.7353510124
 21
69.615042938
 31
0.0
  0
LINE
  5
1A9
330
1F
100
AcDbEntity
  8
0
  6
Continuous
 62
     7
370
    30
100
AcDbLine
 10
34.7353510124
 20
69.615042938
 30
0.0
 11
34.7353510124
 21
70.9069438111
 31
0.0
  0
SPLINE
  5
1AA
330
1F
100
AcDbEntity
  8
0
  6
Continuous
 62
     7
370
    30
100
AcDbSpline
210
0.0
220
0.0
230
1.0
 70
     8
 71
     3
 72
    13
 73
     9
 74
     0
 42
0.000000001
 43
0.00000001
 40
0.0
 40
0.0
 40
0.0
 40
0.0
 40
0.0053298184419432
 40
0.279718249012241
 40
0.4913856125344613
 40
0.6691325143230448
 40
0.834300992480384
 40
1.0
 40
1.0
 40
1.0
 40
1.0
 10
34.73535101241664
 20
70.90694381114989
 30
0.0
 10
34.7366346369968
 20
70.90780936130193
 30
0.0
 10
34.80400151334788
 20
70.95323495611409
 30
0.0
 10
34.92248482444769
 20
71.0346922640058
 30
0.0
 10
35.06446283419156
 20
71.13558609328177
 30
0.0
 10
35.16016844863211
 20
71.20520541934633
 30
0.0
 10
35.22290246506991
 20
71.251640949181
 30
0.0
 10
35.23119704035043
 20
71.25783761687546
 30
0.0
 10
35.23535097795771
 20
71.26094091874509
 30
0.0
  0
ARC
  5
1AB
330
1F
100
AcDbEntity
  8
0
  6
Continuous
 62
     7
370
    30
100
AcDbCircle
 10
48.2353510255
 20
75.6150428858
 30
0.0
 40
5.500000000000014
100
AcDbArc
 50
180.0
 51
270.0
  0
LINE
  5
1AC
330
1F
100
AcDbEntity
  8
0
  6
Continuous
 62
     7
370
    30
100
AcDbLine
 10
42.7353511596
 20
75.6150429901
 30
0.0
 11
43.2353512415
 21
75.6150429901
 31
0.0
  0
ARC
  5
1AD
330
1F
100
AcDbEntity
  8
0
  6
Continuous
 62
     7
370
    30
100
AcDbCircle
 10
48.2353510255
 20
75.6150428858
 30
0.0
 40
5.0
100
AcDbArc
 50
180.0
 51
270.0
  0
LINE
  5
1AE
330
1F
100
AcDbEntity
  8
0
  6
Continuous
 62
     7
370
    30
100
AcDbLine
 10
48.2353511298
 20
70.1150430199
 30
0.0
 11
48.2353511298
 21
70.6150431019
 31
0.0
  0
CIRCLE
  5
1AF
330
1F
100
AcDbEntity
  8
0
  6
Continuous
 62
     7
370
    30
100
AcDbCircle
 10
36.2353510255
 20
94.6150428858
 30
0.0
 40
5.249999999999986
  0
ARC
  5
1B0
330
1F
100
AcDbEntity
  8
0
  6
Continuous
 62
     7
370
    30
100
AcDbCircle
 10
36.2353510255
 20
79.6150428858
 30
0.0
 40
1.500000000000007
100
AcDbArc
 50
0.0
 51
180.0
  0
LINE
  5
1B1
330
1F
100
AcDbEntity
  8
0
  6
Continuous
 62
     7
370
    30
100
AcDbLine
 10
34.7353510124
 20
78.3231418413
 30
0.0
 11
34.7353510124
 21
79.6150436458
 31
0.0
  0
ARC
  5
1B2
330
1F
100
AcDbEntity
  8
0
  6
Continuous
 62
     7
370
    30
100
AcDbCircle
 10
36.2353510255
 20
74.6150428858
 30
0.0
 40
4.000000000000004
100
AcDbArc
 50
112.024312837
 51
247.975687163
  0
ARC
  5
1B3
330
1F
100
AcDbEntity
  8
0
  6
Continuous
 62
     7
370
    30
100
AcDbCircle
 10
36.2353510255
 20
69.6150428858
 30
0.0
 40
1.5
100
AcDbArc
 50
180.0
 51
0.0
  0
LINE
  5
1B4
330
1F
100
AcDbEntity
  8
0
  6
Continuous
 62
     7
370
    30
100
AcDbLine
 10
37.7353510385
 20
70.9069438111
 30
0.0
 11
37.7353510385
 21
69.615042938
 31
0.0
  0
LINE
  5
1B5
330
1F
100
AcDbEntity
  8
0
  6
Continuous
 62
     7
370
    30
100
AcDbLine
 10
37.7353510385
 20
79.6150436458
 30
0.0
 11
37.7353510385
 21
78.3231418413
 31
0.0
  0
LINE
  5
1B6
330
1F
100
AcDbEntity
  8
0
  6
Continuous
 62
     7
370
    30
100
AcDbLine
 10
52.2353517854
 20
62.1150428728
 30
0.0
 11
50.9434499809
 21
62.1150428728
 31
0.0
  0
ARC
  5
1B7
330
1F
100
AcDbEntity
  8
0
  6
Continuous
 62
     7
370
    30
100
AcDbCircle
 10
52.2353510255
 20
63.6150428858
 30
0.0
 40
1.500000000000007
100
AcDbArc
 50
270.0
 51
90.0
  0
ARC
  5
1B8
330
1F
100
AcDbEntity
  8
0
  6
Continuous
 62
     7
370
    30
100
AcDbCircle
 10
47.2353510255
 20
63.6150428858
 30
0.0
 40
3.999999999999988
100
AcDbArc
 50
22.024312837
 51
157.975687163
  0
LINE
  5
1B9
330
1F
100
AcDbEntity
  8
0
  6
Continuous
 62
     7
370
    30
100
AcDbLine
 10
42.2353510776
 20
65.1150428989
 30
0.0
 11
43.5272519508
 21
65.1150428989
 31
0.0
  0
ARC
  5
1BA
330
1F
100
AcDbEntity
  8
0
  6
Continuous
 62
     7
370
    30
100
AcDbCircle
 10
42.2353510255
 20
63.6150428858
 30
0.0
 40
1.5
100
AcDbArc
 50
90.0
 51
270.0
  0
LINE
  5
1BB
330
1F
100
AcDbEntity
  8
0
  6
Continuous
 62
     7
370
    30
100
AcDbLine
 10
43.5272519508
 20
62.1150428728
 30
0.0
 11
42.2353510776
 21
62.1150428728
 31
0.0
  0
ARC
  5
1BC
330
1F
100
AcDbEntity
  8
0
  6
Continuous
 62
     7
370
    30
100
AcDbCircle
 10
47.2353510255
 20
63.6150428858
 30
0.0
 40
3.999999999999996
100
AcDbArc
 50
202.024312837
 51
337.975687163
  0
ARC
  5
1BD
330
1F
100
AcDbEntity
  8
0
  6
Continuous
 62
     7
370
    30
100
AcDbCircle
 10
36.2353510255
 20
94.6150428858
 30
0.0
 40
6.500000000000002
100
AcDbArc
 50
0.0
 51
48.5903778907
  0
LINE
  5
1BE
330
1F
100
AcDbEntity
  8
0
  6
Continuous
 62
     7
370
    30
100
AcDbLine
 10
42.7353511596
 20
75.6150429901
 30
0.0
 11
42.7353511596
 21
94.6150423792
 31
0.0
  0
LINE
  5
1BF
330
1F
100
AcDbEntity
  8
0
  6
Continuous
 62
     7
370
    30
100
AcDbLine
 10
67.2353505188
 20
70.1150430199
 30
0.0
 11
48.2353511298
 21
70.1150430199
 31
0.0
  0
ARC
  5
1C0
330
1F
100
AcDbEntity
  8
0
  6
Continuous
 62
     7
370
    30
100
AcDbCircle
 10
68.7353510255
 20
64.9379185413
 30
0.0
 40
4.500000000000011
100
AcDbArc
 50
0.0
 51
41.4096221093
  0
LINE
  5
1C1
330
1F
100
AcDbEntity
  8
0
  6
Continuous
 62
     7
370
    30
100
AcDbLine
 10
73.2353515023
 20
62.2921672715
 30
0.0
 11
73.2353515023
 21
64.9379185001
 31
0.0
  0
ARC
  5
1C2
330
1F
100
AcDbEntity
  8
0
  6
Continuous
 62
     7
370
    30
100
AcDbCircle
 10
68.7353510255
 20
62.2921672303
 30
0.0
 40
4.5
100
AcDbArc
 50
318.5903778907
 51
0.0
  0
ARC
  5
1C3
330
1F
100
AcDbEntity
  8
0
  6
Continuous
 62
     7
370
    30
100
AcDbCircle
 10
68.558226681
 20
62.1150428858
 30
0.0
 40
4.5
100
AcDbArc
 50
270.0
 51
311.4096221093
  0
LINE
  5
1C4
330
1F
100
AcDbEntity
  8
0
  6
Continuous
 62
     7
370
    30
100
AcDbLine
 10
64.1648004794
 20
57.6150428337
 30
0.0
 11
68.5582271808
 21
57.6150428337
 31
0.0
  0
ARC
  5
1C5
330
1F
100
AcDbEntity
  8
0
  6
Continuous
 62
     7
370
    30
100
AcDbCircle
 10
64.1648004972
 20
52.1150428858
 30
0.0
 40
5.500000000000135
100
AcDbArc
 50
90.0
 51
114.6199773287
  0
LINE
  5
1C6
330
1F
100
AcDbEntity
  8
0
  6
Continuous
 62
     7
370
    30
100
AcDbLine
 10
34.9124754112
 20
57.6150428337
 30
0.0
 11
38.8059014486
 21
57.6150428337
 31
0.0
  0
ARC
  5
1C7
330
1F
100
AcDbEntity
  8
0
  6
Continuous
 62
     7
370
    30
100
AcDbCircle
 10
36.2353510255
 20
63.6150428858
 30
0.0
 40
6.500000000000032
100
AcDbArc
 50
221.4096221093
 51
228.5903778907
  0
ARC
  5
1C8
330
1F
100
AcDbEntity
  8
0
  6
Continuous
 62
     7
370
    30
100
AcDbCircle
 10
34.7353510255
 20
62.2921672303
 30
0.0
 40
4.500000000000004
100
AcDbArc
 50
180.0
 51
221.4096221093
  0
LINE
  5
1C9
330
1F
100
AcDbEntity
  8
0
  6
Continuous
 62
     7
370
    30
100
AcDbLine
 10
30.2353509733
 20
66.1855933089
 30
0.0
 11
30.2353509733
 21
62.2921672715
 31
0.0
  0
ARC
  5
1CA
330
1F
100
AcDbEntity
  8
0
  6
Continuous
 62
     7
370
    30
100
AcDbCircle
 10
24.7353510255
 20
66.185593414
 30
0.0
 40
5.500000000000004
100
AcDbArc
 50
0.0
 51
24.6199773287
  0
LINE
  5
1CB
330
1F
100
AcDbEntity
  8
0
  6
Continuous
 62
     7
370
    30
100
AcDbLine
 10
29.7353508913
 20
89.2532041129
 30
0.0
 11
29.7353508913
 21
68.4768810701
 31
0.0
  0
ARC
  5
1CC
330
1F
100
AcDbEntity
  8
0
  6
Continuous
 62
     7
370
    30
100
AcDbCircle
 10
24.7353510255
 20
91.5444923576
 30
0.0
 40
5.500000000000126
100
AcDbArc
 50
335.3800226713
 51
0.0
  0
LINE
  5
1CD
330
1F
100
AcDbEntity
  8
0
  6
Continuous
 62
     7
370
    30
100
AcDbLine
 10
30.2353509733
 20
95.9379190412
 30
0.0
 11
30.2353509733
 21
91.5444923398
 31
0.0
  0
ARC
  5
1CE
330
1F
100
AcDbEntity
  8
0
  6
Continuous
 62
     7
370
    30
100
AcDbCircle
 10
34.7353510255
 20
95.9379185413
 30
0.0
 40
4.500000000000015
100
AcDbArc
 50
138.5903778907
 51
180.0
  0
ARC
  5
1CF
330
1F
100
AcDbEntity
  8
0
  6
Continuous
 62
     7
370
    30
100
AcDbCircle
 10
36.2353510255
 20
94.6150428858
 30
0.0
 40
6.500000000000015
100
AcDbArc
 50
131.4096221093
 51
138.5903778907
  0
ARC
  5
1D0
330
1F
100
AcDbEntity
  8
0
  6
Continuous
 62
     7
370
    30
100
AcDbCircle
 10
34.9124753699
 20
96.1150428858
 30
0.0
 40
4.5
100
AcDbArc
 50
90.0
 51
131.4096221093
  0
LINE
  5
1D1
330
1F
100
AcDbEntity
  8
0
  6
Continuous
 62
     7
370
    30
100
AcDbLine
 10
37.5582266397
 20
100.6150433626
 30
0.0
 11
34.9124754112
 21
100.6150433626
 31
0.0
  0
ARC
  5
1D2
330
1F
100
AcDbEntity
  8
0
  6
Continuous
 62
     7
370
    30
100
AcDbCircle
 10
37.558226681
 20
96.1150428858
 30
0.0
 40
4.5
100
AcDbArc
 50
48.5903778907
 51
90.0
  0
LINE
  5
1D3
330
1F
100
AcDbEntity
  8
0
  6
Continuous
 62
     7
370
    30
100
AcDbLine
 10
37.235351073
 20
69.615042938
 30
0.0
 11
37.235351073
 21
71.2609409187
 31
0.0
  0
LINE
  5
1D4
330
1F
100
AcDbEntity
  8
0
  6
Continuous
 62
     7
370
    30
100
AcDbLine
 10
37.235351073
 20
69.615042938
 30
0.0
 11
37.7353510385
 21
69.615042938
 31
0.0
  0
LINE
  5
1D5
330
1F
100
AcDbEntity
  8
0
  6
Continuous
 62
     7
370
    30
100
AcDbLine
 10
29.7353508913
 20
62.2921672715
 30
0.0
 11
29.7353508913
 21
66.1855933089
 31
0.0
  0
LINE
  5
1D6
330
1F
100
AcDbEntity
  8
0
  6
Continuous
 62
     7
370
    30
100
AcDbLine
 10
29.7353508913
 20
66.1855933089
 30
0.0
 11
30.2353509733
 21
66.1855933089
 31
0.0
  0
LINE
  5
1D7
330
1F
100
AcDbEntity
  8
0
  6
Continuous
 62
     7
370
    30
100
AcDbLine
 10
29.7353508913
 20
62.2921672715
 30
0.0
 11
30.2353509733
 21
62.2921672715
 31
0.0
  0
LINE
  5
1D8
330
1F
100
AcDbEntity
  8
0
  6
Continuous
 62
     7
370
    30
100
AcDbLine
 10
73.2353515023
 20
62.2921672715
 30
0.0
 11
73.7353525156
 21
62.2921672715
 31
0.0
  0
ARC
  5
1D9
330
1F
100
AcDbEntity
  8
0
  6
Continuous
 62
     7
370
    30
100
AcDbCircle
 10
68.7353510255
 20
62.2921672303
 30
0.0
 40
5.000000000000012
100
AcDbArc
 50
318.5903778907
 51
0.0
  0
ARC
  5
1DA
330
1F
100
AcDbEntity
  8
0
  6
Continuous
 62
     7
370
    30
100
AcDbCircle
 10
24.7353510255
 20
66.185593414
 30
0.0
 40
5.00000000000002
100
AcDbArc
 50
0.0
 51
25.8419327632
  0
SPLINE
  5
1DB
330
1F
100
AcDbEntity
  8
0
  6
Continuous
 62
     7
370
    30
100
AcDbSpline
210
0.0
220
0.0
230
1.0
 70
     8
 71
     3
 72
    13
 73
     9
 74
     0
 42
0.000000001
 43
0.00000001
 40
0.0
 40
0.0
 40
0.0
 40
0.0
 40
0.2081244515742345
 40
0.4161641780480326
 40
0.6265975882951371
 40
0.8420492173955016
 40
0.9912483762014079
 40
1.0
 40
1.0
 40
1.0
 40
1.0
 10
29.23535080938832
 20
68.3650427330747
 30
0.0
 10
29.24068569865039
 20
68.36626856678654
 30
0.0
 10
29.25135330540172
 20
68.36871973518727
 30
0.0
 10
29.33428676632923
 20
68.38766512078402
 30
0.0
 10
29.45696992236408
 20
68.41538095580232
 30
0.0
 10
29.59605078515748
 20
68.44634914455231
 30
0.0
 10
29.6923702293655
 20
68.46750072863226
 30
0.0
 10
29.73309447170223
 20
68.47638861639146
 30
0.0
 10
29.7353508913447
 20
68.4768810701087
 30
0.0
  0
ARC
  5
1DC
330
1F
100
AcDbEntity
  8
0
  6
Continuous
 62
     7
370
    30
100
AcDbCircle
 10
68.7353510255
 20
64.9379185413
 30
0.0
 40
5.000000000000003
100
AcDbArc
 50
0.0
 51
41.4096221093
  0
LINE
  5
1DD
330
1F
100
AcDbEntity
  8
0
  6
Continuous
 62
     7
370
    30
100
AcDbLine
 10
73.2353515023
 20
64.9379185001
 30
0.0
 11
73.7353525156
 21
64.9379185001
 31
0.0
  0
ARC
  5
1DE
330
1F
100
AcDbEntity
  8
0
  6
Continuous
 62
     7
370
    30
100
AcDbCircle
 10
68.558226681
 20
62.1150428858
 30
0.0
 40
5.000000000000007
100
AcDbArc
 50
270.0
 51
311.4096221093
  0
LINE
  5
1DF
330
1F
100
AcDbEntity
  8
0
  6
Continuous
 62
     7
370
    30
100
AcDbLine
 10
68.5582271808
 20
57.1150427517
 30
0.0
 11
68.5582271808
 21
57.6150428337
 31
0.0
  0
LINE
  5
1E0
330
1F
100
AcDbEntity
  8
0
  6
Continuous
 62
     7
370
    30
100
AcDbLine
 10
42.2353510776
 20
62.1150428728
 30
0.0
 11
42.2353510776
 21
62.6150428383
 31
0.0
  0
LINE
  5
1E1
330
1F
100
AcDbEntity
  8
0
  6
Continuous
 62
     7
370
    30
100
AcDbLine
 10
42.2353510776
 20
62.6150428383
 30
0.0
 11
43.8812490584
 21
62.6150428383
 31
0.0
  0
SPLINE
  5
1E2
330
1F
100
AcDbEntity
  8
0
  6
Continuous
 62
     7
370
    30
100
AcDbSpline
210
0.0
220
0.0
230
1.0
 70
     8
 71
     3
 72
    13
 73
     9
 74
     0
 42
0.000000001
 43
0.00000001
 40
0.0
 40
0.0
 40
0.0
 40
0.0
 40
0.165699007519616
 40
0.3308674856769552
 40
0.5086143874655388
 40
0.720281750987759
 40
0.9946701815580569
 40
1.0
 40
1.0
 40
1.0
 40
1.0
 10
43.88124905838863
 20
62.61504283831416
 30
0.0
 10
43.878145756519
 20
62.61088890070689
 30
0.0
 10
43.87194908882453
 20
62.60259432542637
 30
0.0
 10
43.82551355898988
 20
62.53986030898857
 30
0.0
 10
43.75589423292532
 20
62.44415469454801
 30
0.0
 10
43.65500040364935
 20
62.30217668480415
 30
0.0
 10
43.57354309575763
 20
62.18369337370434
 30
0.0
 10
43.52811750094548
 20
62.11632649735326
 30
0.0
 10
43.52725195079342
 20
62.1150428727731
 30
0.0
  0
LINE
  5
1E3
330
1F
100
AcDbEntity
  8
0
  6
Continuous
 62
     7
370
    30
100
AcDbLine
 10
68.5582271808
 20
57.1150427517
 30
0.0
 11
64.1648004794
 21
57.1150427517
 31
0.0
  0
LINE
  5
1E4
330
1F
100
AcDbEntity
  8
0
  6
Continuous
 62
     7
370
    30
100
AcDbLine
 10
64.1648004794
 20
57.1150427517
 30
0.0
 11
64.1648004794
 21
57.6150428337
 31
0.0
  0
LINE
  5
1E5
330
1F
100
AcDbEntity
  8
0
  6
Continuous
 62
     7
370
    30
100
AcDbLine
 10
48.2353511298
 20
70.6150431019
 30
0.0
 11
67.2353505188
 21
70.6150431019
 31
0.0
  0
ARC
  5
1E6
330
1F
100
AcDbEntity
  8
0
  6
Continuous
 62
     7
370
    30
100
AcDbCircle
 10
64.1648004972
 20
52.1150428858
 30
0.0
 40
5.000000000000011
100
AcDbArc
 50
90.0
 51
115.8419327632
  0
LINE
  5
1E7
330
1F
100
AcDbEntity
  8
0
  6
Continuous
 62
     7
370
    30
100
AcDbLine
 10
50.589453339
 20
62.6150428383
 30
0.0
 11
52.2353517854
 21
62.6150428383
 31
0.0
  0
LINE
  5
1E8
330
1F
100
AcDbEntity
  8
0
  6
Continuous
 62
     7
370
    30
100
AcDbLine
 10
52.2353517854
 20
62.6150428383
 30
0.0
 11
52.2353517854
 21
62.1150428728
 31
0.0
  0
SPLINE
  5
1E9
330
1F
100
AcDbEntity
  8
0
  6
Continuous
 62
     7
370
    30
100
AcDbSpline
210
0.0
220
0.0
230
1.0
 70
     8
 71
     3
 72
    13
 73
     9
 74
     0
 42
0.000000001
 43
0.00000001
 40
0.0
 40
0.0
 40
0.0
 40
0.0
 40
0.1656989760775996
 40
0.3308676352812142
 40
0.508614336762965
 40
0.7202820070355582
 40
0.994670479485728
 40
1.0
 40
1.0
 40
1.0
 40
1.0
 10
50.58945333897368
 20
62.61504283831416
 30
0.0
 10
50.5925563937399
 20
62.61088889162648
 30
0.0
 10
50.59875257199613
 20
62.60259429288984
 30
0.0
 10
50.64518906072533
 20
62.53986037781107
 30
0.0
 10
50.71480780415893
 20
62.44415474337388
 30
0.0
 10
50.81570030873689
 20
62.30217556744807
 30
0.0
 10
50.89716470216413
 20
62.18369712060434
 30
0.0
 10
50.94258458713671
 20
62.116326498151
 30
0.0
 10
50.94344998090759
 20
62.1150428727731
 30
0.0
  0
ARC
  5
1EA
330
1F
100
AcDbEntity
  8
0
  6
Continuous
 62
     7
370
    30
100
AcDbCircle
 10
47.2353510255
 20
63.6150428858
 30
0.0
 40
3.499999999999993
100
AcDbArc
 50
16.601549599
 51
163.398450401
  0
SPLINE
  5
1EB
330
1F
100
AcDbEntity
  8
0
  6
Continuous
 62
     7
370
    30
100
AcDbSpline
210
0.0
220
0.0
230
1.0
 70
     8
 71
     3
 72
    13
 73
     9
 74
     0
 42
0.000000001
 43
0.00000001
 40
0.0
 40
0.0
 40
0.0
 40
0.0
 40
0.0053298184419432
 40
0.279718249012241
 40
0.4913856125344613
 40
0.6691325143230448
 40
0.834300992480384
 40
1.0
 40
1.0
 40
1.0
 40
1.0
 10
43.52725195079342
 20
65.11504289885013
 30
0.0
 10
43.52811750094548
 20
65.11375927426997
 30
0.0
 10
43.57354309575762
 20
65.0463923979189
 30
0.0
 10
43.65500040364935
 20
64.92790908681907
 30
0.0
 10
43.75589423292532
 20
64.78593107707522
 30
0.0
 10
43.82551355898987
 20
64.69022546263466
 30
0.0
 10
43.87194908882453
 20
64.62749144619686
 30
0.0
 10
43.878145756519
 20
64.61919687091634
 30
0.0
 10
43.88124905838863
 20
64.61504293330906
 30
0.0
  0
ARC
  5
1EC
330
1F
100
AcDbEntity
  8
0
  6
Continuous
 62
     7
370
    30
100
AcDbCircle
 10
52.2353510255
 20
63.6150428858
 30
0.0
 40
1.000000000000007
100
AcDbArc
 50
270.0
 51
90.0
  0
LINE
  5
1ED
330
1F
100
AcDbEntity
  8
0
  6
Continuous
 62
     7
370
    30
100
AcDbLine
 10
42.2353510776
 20
65.1150428989
 30
0.0
 11
42.2353510776
 21
64.6150429333
 31
0.0
  0
ARC
  5
1EE
330
1F
100
AcDbEntity
  8
0
  6
Continuous
 62
     7
370
    30
100
AcDbCircle
 10
42.2353510255
 20
63.6150428858
 30
0.0
 40
1.000000000000007
100
AcDbArc
 50
90.0
 51
270.0
  0
LINE
  5
1EF
330
1F
100
AcDbEntity
  8
0
  6
Continuous
 62
     7
370
    30
100
AcDbLine
 10
73.7353525156
 20
64.9379185001
 30
0.0
 11
73.7353525156
 21
62.2921672715
 31
0.0
  0
LINE
  5
1F0
330
1F
100
AcDbEntity
  8
0
  6
Continuous
 62
     7
370
    30
100
AcDbLine
 10
38.8059014486
 20
57.1150427517
 30
0.0
 11
34.9124754112
 21
57.1150427517
 31
0.0
  0
LINE
  5
1F1
330
1F
100
AcDbEntity
  8
0
  6
Continuous
 62
     7
370
    30
100
AcDbLine
 10
29.2353508094
 20
68.3650427331
 30
0.0
 11
29.2353508094
 21
89.3650429156
 31
0.0
  0
SPLINE
  5
1F2
330
1F
100
AcDbEntity
  8
0
  6
Continuous
 62
     7
370
    30
100
AcDbSpline
210
0.0
220
0.0
230
1.0
 70
     8
 71
     3
 72
    13
 73
     9
 74
     0
 42
0.000000001
 43
0.00000001
 40
0.0
 40
0.0
 40
0.0
 40
0.0
 40
0.2081244504546572
 40
0.4161640270011024
 40
0.6265976059411269
 40
0.842048858633767
 40
0.991248000742272
 40
0.9999999999999999
 40
0.9999999999999999
 40
0.9999999999999999
 40
0.9999999999999999
 10
29.23535080938832
 20
89.36504291561394
 30
0.0
 10
29.24068569236241
 20
89.36381677476692
 30
0.0
 10
29.25135328272592
 20
89.36136499309754
 30
0.0
 10
29.33428681715623
 20
89.3424214312793
 30
0.0
 10
29.4569699822214
 20
89.31470474561942
 30
0.0
 10
29.59604989251916
 20
89.28373302198146
 30
0.0
 10
29.69237194057456
 20
89.262593221161
 30
0.0
 10
29.73309447467595
 20
89.25369704585358
 30
0.0
 10
29.7353508913447
 20
89.25320411291867
 30
0.0
  0
SPLINE
  5
1F3
330
1F
100
AcDbEntity
  8
0
  6
Continuous
 62
     7
370
    30
100
AcDbSpline
210
0.0
220
0.0
230
1.0
 70
     8
 71
     3
 72
    13
 73
     9
 74
     0
 42
0.000000001
 43
0.00000001
 40
0.0
 40
0.0
 40
0.0
 40
0.0
 40
0.0053295205142721
 40
0.2797179929644418
 40
0.491385663237035
 40
0.6691323647187857
 40
0.8343010239224004
 40
1.0
 40
1.0
 40
1.0
 40
1.0
 10
34.73535101241664
 20
78.32314184126406
 30
0.0
 10
34.73663463779454
 20
78.32227644749317
 30
0.0
 10
34.80400526024789
 20
78.27685656252055
 30
0.0
 10
34.92248370709162
 20
78.19539216909335
 30
0.0
 10
35.06446288301742
 20
78.09449966451538
 30
0.0
 10
35.16016851745461
 20
78.02488092108179
 30
0.0
 10
35.22290243253339
 20
77.97844443235259
 30
0.0
 10
35.23119703127003
 20
77.97224825409637
 30
0.0
 10
35.23535097795771
 20
77.96914519933013
 30
0.0
  0
ARC
  5
1F4
330
1F
100
AcDbEntity
  8
0
  6
Continuous
 62
     7
370
    30
100
AcDbCircle
 10
36.2353510255
 20
74.6150428858
 30
0.0
 40
3.5
100
AcDbArc
 50
106.601549599
 51
253.398450401
  0
ARC
  5
1F5
330
1F
100
AcDbEntity
  8
0
  6
Continuous
 62
     7
370
    30
100
AcDbCircle
 10
36.2353510255
 20
69.6150428858
 30
0.0
 40
1.0
100
AcDbArc
 50
180.0
 51
0.0
  0
ARC
  5
1F6
330
1F
100
AcDbEntity
  8
0
  6
Continuous
 62
     7
370
    30
100
AcDbCircle
 10
36.2353510255
 20
63.6150428858
 30
0.0
 40
7.000000000000025
100
AcDbArc
 50
221.4096221093
 51
228.5903778907
  0
LWPOLYLINE
  5
1F7
330
1F
100
AcDbEntity
  8
0
  6
Continuous
 62
     7
370
    30
100
AcDbPolyline
 90
        9
 70
   128
 43
0.0
 10
30.9853510962
 20
58.984978294
 10
30.992556739
 20
58.991332708
 10
31.0138961331
 20
59.0101524089
 10
31.0485497148
 20
59.0407142248
 10
31.0951861584
 20
59.0818432924
 10
31.1520122023
 20
59.1319596228
 10
31.2168448263
 20
59.1891363096
 10
31.287192277
 20
59.2511768286
 10
31.3603509249
 20
59.3156969939
  0
LINE
  5
1F8
330
1F
100
AcDbEntity
  8
0
  6
Continuous
 62
     7
370
    30
100
AcDbLine
 10
43.8812490584
 20
64.6150429333
 30
0.0
 11
42.2353510776
 21
64.6150429333
 31
0.0
  0
ARC
  5
1F9
330
1F
100
AcDbEntity
  8
0
  6
Continuous
 62
     7
370
    30
100
AcDbCircle
 10
34.7353510255
 20
62.2921672303
 30
0.0
 40
5.000000000000007
100
AcDbArc
 50
180.0
 51
221.4096221093
  0
ARC
  5
1FA
330
1F
100
AcDbEntity
  8
0
  6
Continuous
 62
     7
370
    30
100
AcDbCircle
 10
47.2353510255
 20
63.6150428858
 30
0.0
 40
3.499999999999997
100
AcDbArc
 50
196.601549599
 51
343.398450401
  0
LINE
  5
1FB
330
1F
100
AcDbEntity
  8
0
  6
Continuous
 62
     7
370
    30
100
AcDbLine
 10
37.235351073
 20
77.9691451993
 30
0.0
 11
37.235351073
 21
79.6150436458
 31
0.0
  0
LINE
  5
1FC
330
1F
100
AcDbEntity
  8
0
  6
Continuous
 62
     7
370
    30
100
AcDbLine
 10
37.7353510385
 20
79.6150436458
 30
0.0
 11
37.235351073
 21
79.6150436458
 31
0.0
  0
LINE
  5
1FD
330
1F
100
AcDbEntity
  8
0
  6
Continuous
 62
     7
370
    30
100
AcDbLine
 10
34.7353510124
 20
79.6150436458
 30
0.0
 11
35.235350978
 21
79.6150436458
 31
0.0
  0
LINE
  5
1FE
330
1F
100
AcDbEntity
  8
0
  6
Continuous
 62
     7
370
    30
100
AcDbLine
 10
35.235350978
 20
79.6150436458
 30
0.0
 11
35.235350978
 21
77.9691451993
 31
0.0
  0
LINE
  5
1FF
330
1F
100
AcDbEntity
  8
0
  6
Continuous
 62
     7
370
    30
100
AcDbLine
 10
30.2353509733
 20
91.5444923398
 30
0.0
 11
29.7353508913
 21
91.5444923398
 31
0.0
  0
LINE
  5
200
330
1F
100
AcDbEntity
  8
0
  6
Continuous
 62
     7
370
    30
100
AcDbLine
 10
29.7353508913
 20
91.5444923398
 30
0.0
 11
29.7353508913
 21
95.9379190412
 31
0.0
  0
LINE
  5
201
330
1F
100
AcDbEntity
  8
0
  6
Continuous
 62
     7
370
    30
100
AcDbLine
 10
30.2353509733
 20
95.9379190412
 30
0.0
 11
29.7353508913
 21
95.9379190412
 31
0.0
  0
ARC
  5
202
330
1F
100
AcDbEntity
  8
0
  6
Continuous
 62
     7
370
    30
100
AcDbCircle
 10
36.2353510255
 20
79.6150428858
 30
0.0
 40
1.000000000000007
100
AcDbArc
 50
0.0
 51
180.0
  0
ARC
  5
203
330
1F
100
AcDbEntity
  8
0
  6
Continuous
 62
     7
370
    30
100
AcDbCircle
 10
24.7353510255
 20
91.5444923576
 30
0.0
 40
4.999999999999996
100
AcDbArc
 50
334.1580672368
 51
0.0
  0
LINE
  5
204
330
1F
100
AcDbEntity
  8
0
  6
Continuous
 62
     7
370
    30
100
AcDbLine
 10
42.7353511596
 20
94.6150423792
 30
0.0
 11
43.2353512415
 21
94.6150423792
 31
0.0
  0
LINE
  5
205
330
1F
100
AcDbEntity
  8
0
  6
Continuous
 62
     7
370
    30
100
AcDbLine
 10
43.2353512415
 20
94.6150423792
 30
0.0
 11
43.2353512415
 21
75.6150429901
 31
0.0
  0
LWPOLYLINE
  5
206
330
1F
100
AcDbEntity
  8
0
  6
Continuous
 62
     7
370
    30
100
AcDbPolyline
 90
        9
 70
   128
 43
0.0
 10
40.5346969174
 20
99.4900429454
 10
40.5992170827
 20
99.5632001963
 10
40.6612576017
 20
99.6335485783
 10
40.7184342885
 20
99.6983835306
 10
40.7685506189
 20
99.7552091089
 10
40.8096796864
 20
99.8018422928
 10
40.8402415024
 20
99.8364986685
 10
40.8590612033
 20
99.8578371313
 10
40.8654156172
 20
99.8650418427
  0
ARC
  5
207
330
1F
100
AcDbEntity
  8
0
  6
Continuous
 62
     7
370
    30
100
AcDbCircle
 10
36.2353510255
 20
94.6150428858
 30
0.0
 40
7.000000000000008
100
AcDbArc
 50
0.0
 51
48.5903778907
  0
LWPOLYLINE
  5
208
330
1F
100
AcDbEntity
  8
0
  6
Continuous
 62
     7
370
    30
100
AcDbPolyline
 90
        9
 70
   128
 43
0.0
 10
31.9360051335
 20
99.4900429454
 10
31.8714849682
 20
99.5632001963
 10
31.8094444492
 20
99.6335485783
 10
31.7522677624
 20
99.6983835306
 10
31.702151432
 20
99.7552091089
 10
31.6610223645
 20
99.8018422928
 10
31.6304605485
 20
99.8364986685
 10
31.6116408476
 20
99.8578371313
 10
31.6052864337
 20
99.8650418427
  0
ARC
  5
209
330
1F
100
AcDbEntity
  8
0
  6
Continuous
 62
     7
370
    30
100
AcDbCircle
 10
34.9124753699
 20
96.1150428858
 30
0.0
 40
5.000000000000003
100
AcDbArc
 50
90.0
 51
131.4096221093
  0
LINE
  5
20A
330
1F
100
AcDbEntity
  8
0
  6
Continuous
 62
     7
370
    30
100
AcDbLine
 10
34.9124754112
 20
100.6150433626
 30
0.0
 11
34.9124754112
 21
101.1150443759
 31
0.0
  0
ARC
  5
20B
330
1F
100
AcDbEntity
  8
0
  6
Continuous
 62
     7
370
    30
100
AcDbCircle
 10
34.7353510255
 20
95.9379185413
 30
0.0
 40
5.000000000000009
100
AcDbArc
 50
138.5903778907
 51
180.0
  0
LWPOLYLINE
  5
20C
330
1F
100
AcDbEntity
  8
0
  6
Continuous
 62
     7
370
    30
100
AcDbPolyline
 90
        9
 70
   128
 43
0.0
 10
31.3603509249
 20
98.9143887368
 10
31.287192277
 20
98.9789070394
 10
31.2168448263
 20
99.0409480241
 10
31.1520122023
 20
99.0981275049
 10
31.0951861584
 20
99.1482438352
 10
31.0485497148
 20
99.1893710401
 10
31.0138961331
 20
99.2199333217
 10
30.992556739
 20
99.2387534883
 10
30.9853510962
 20
99.2451088336
  0
LINE
  5
20D
330
1F
100
AcDbEntity
  8
0
  6
Continuous
 62
     7
370
    30
100
AcDbLine
 10
34.9124754112
 20
101.1150443759
 30
0.0
 11
37.5582266397
 21
101.1150443759
 31
0.0
  0
LINE
  5
20E
330
1F
100
AcDbEntity
  8
0
  6
Continuous
 62
     7
370
    30
100
AcDbLine
 10
37.5582266397
 20
100.6150433626
 30
0.0
 11
37.5582266397
 21
101.1150443759
 31
0.0
  0
ARC
  5
20F
330
1F
100
AcDbEntity
  8
0
  6
Continuous
 62
     7
370
    30
100
AcDbCircle
 10
37.558226681
 20
96.1150428858
 30
0.0
 40
4.999999999999998
100
AcDbArc
 50
48.5903778907
 51
90.0
  0
ARC
  5
210
330
1F
100
AcDbEntity
  8
0
  6
Continuous
 62
     7
370
    30
100
AcDbCircle
 10
36.2353510255
 20
94.6150428858
 30
0.0
 40
7.000000000000013
100
AcDbArc
 50
131.4096221093
 51
138.5903778907
  0
LWPOLYLINE
  5
211
330
1F
100
AcDbEntity
  8
0
  6
Continuous
 62
     7
370
    30
100
AcDbPolyline
 90
        3
 70
   128
 43
0.0
 10
50.589453339
 20
62.6150428383
 10
50.6530319372
 20
62.8604171165
 10
50.6646362165
 20
62.9150429108
  0
LINE
  5
212
330
1F
100
AcDbEntity
  8
0
  6
Continuous
 62
     7
370
    30
100
AcDbLine
 10
50.6428553754
 20
64.4143658523
 30
0.0
 11
50.589453339
 21
64.6150429333
 31
0.0
  0
LINE
  5
213
330
1F
100
AcDbEntity
  8
0
  6
Continuous
 62
     7
370
    30
100
AcDbLine
 10
43.8812490584
 20
64.6150429333
 30
0.0
 11
43.827847022
 21
64.4143658523
 31
0.0
  0
LWPOLYLINE
  5
214
330
1F
100
AcDbEntity
  8
0
  6
Continuous
 62
     7
370
    30
100
AcDbPolyline
 90
        3
 70
   128
 43
0.0
 10
43.8060652496
 20
62.9150429108
 10
43.8176704602
 20
62.8604171165
 10
43.8812490584
 20
62.6150428383
  0
LWPOLYLINE
  5
215
330
1F
100
AcDbEntity
  8
0
  6
Continuous
 62
     7
370
    30
100
AcDbPolyline
 90
        3
 70
   128
 43
0.0
 10
37.235351073
 20
71.2609409187
 10
36.9899767948
 20
71.1973623205
 10
36.9353510005
 20
71.1857571099
  0
LINE
  5
216
330
1F
100
AcDbEntity
  8
0
  6
Continuous
 62
     7
370
    30
100
AcDbLine
 10
35.4353510457
 20
71.2076976728
 30
0.0
 11
35.235350978
 21
71.2609409187
 31
0.0
  0
LINE
  5
217
330
1F
100
AcDbEntity
  8
0
  6
Continuous
 62
     7
370
    30
100
AcDbLine
 10
35.235350978
 20
77.9691451993
 30
0.0
 11
35.4353510457
 21
78.0223879796
 31
0.0
  0
LWPOLYLINE
  5
218
330
1F
100
AcDbEntity
  8
0
  6
Continuous
 62
     7
370
    30
100
AcDbPolyline
 90
        3
 70
   128
 43
0.0
 10
36.9353510005
 20
78.0443280768
 10
36.9899767948
 20
78.0327237975
 10
37.235351073
 20
77.9691451993
  0
LINE
  5
219
330
1F
100
AcDbEntity
  8
0
  6
Continuous
 62
     8
370
    30
100
AcDbLine
 10
35.4643551664
 20
70.4368675892
 30
0.0
 11
36.9353510005
 21
70.4368675892
 31
0.0
  0
LINE
  5
21A
330
1F
100
AcDbEntity
  8
0
  6
Continuous
 62
     8
370
    30
100
AcDbLine
 10
35.4353510457
 20
70.4368675892
 30
0.0
 11
35.4521946547
 21
70.4368675892
 31
0.0
  0
LINE
  5
21B
330
1F
100
AcDbEntity
  8
0
  6
Continuous
 62
     8
370
    30
100
AcDbLine
 10
36.9353510005
 20
80.2368672397
 30
0.0
 11
35.4643551664
 21
80.2368672397
 31
0.0
  0
LINE
  5
21C
330
1F
100
AcDbEntity
  8
0
  6
Continuous
 62
     8
370
    30
100
AcDbLine
 10
52.8362522864
 20
62.9150429108
 30
0.0
 11
52.8362522864
 21
64.4148235391
 31
0.0
  0
LINE
  5
21D
330
1F
100
AcDbEntity
  8
0
  6
Continuous
 62
     8
370
    30
100
AcDbLine
 10
43.0362526359
 20
64.4148235391
 30
0.0
 11
43.0362526359
 21
62.9150429108
 31
0.0
  0
LINE
  5
21E
330
1F
100
AcDbEntity
  8
0
  6
Continuous
 62
     8
370
    30
100
AcDbLine
 10
36.4296067683
 20
73.5057547521
 30
0.0
 11
36.4296067683
 21
74.3057552558
 31
0.0
  0
LINE
  5
21F
330
1F
100
AcDbEntity
  8
0
  6
Continuous
 62
     8
370
    30
100
AcDbLine
 10
36.2296067738
 20
73.5057547521
 30
0.0
 11
36.2296067738
 21
74.3057552558
 31
0.0
  0
LINE
  5
220
330
1F
100
AcDbEntity
  8
0
  6
Continuous
 62
     8
370
    30
100
AcDbLine
 10
39.3352963993
 20
74.415043166
 30
0.0
 11
38.5352963613
 21
74.415043166
 31
0.0
  0
LINE
  5
221
330
1F
100
AcDbEntity
  8
0
  6
Continuous
 62
     8
370
    30
100
AcDbLine
 10
36.9353510005
 20
74.5677670297
 30
0.0
 11
37.3353510195
 21
74.5677670297
 31
0.0
  0
LINE
  5
222
330
1F
100
AcDbEntity
  8
0
  6
Continuous
 62
     8
370
    30
100
AcDbLine
 10
36.9353510005
 20
74.4150971827
 30
0.0
 11
37.3353510195
 21
74.4150971827
 31
0.0
  0
LINE
  5
223
330
1F
100
AcDbEntity
  8
0
  6
Continuous
 62
     8
370
    30
100
AcDbLine
 10
48.3446390399
 20
63.6092986341
 30
0.0
 11
47.5446385363
 21
63.6092986341
 31
0.0
  0
LINE
  5
224
330
1F
100
AcDbEntity
  8
0
  6
Continuous
 62
     8
370
    30
100
AcDbLine
 10
48.3446390399
 20
63.8092986286
 30
0.0
 11
47.5446385363
 21
63.8092986286
 31
0.0
  0
LINE
  5
225
330
1F
100
AcDbEntity
  8
0
  6
Continuous
 62
     8
370
    30
100
AcDbLine
 10
47.4353506261
 20
66.7149882596
 30
0.0
 11
47.4353506261
 21
65.9149882216
 31
0.0
  0
LINE
  5
226
330
1F
100
AcDbEntity
  8
0
  6
Continuous
 62
     8
370
    30
100
AcDbLine
 10
47.2826267624
 20
64.4143658523
 30
0.0
 11
47.2826267624
 21
64.7150428799
 31
0.0
  0
LINE
  5
227
330
1F
100
AcDbEntity
  8
0
  6
Continuous
 62
     8
370
    30
100
AcDbLine
 10
47.4352966094
 20
64.4143658523
 30
0.0
 11
47.4352966094
 21
64.7150428799
 31
0.0
  0
ARC
  5
228
330
1F
100
AcDbEntity
  8
0
  6
Continuous
 62
     8
370
    30
100
AcDbCircle
 10
44.0068151785
 20
102.8999221346
 30
0.0
 40
5.999999999999998
100
AcDbArc
 50
258.4842916258
 51
300.6595895532
  0
ARC
  5
229
330
1F
100
AcDbEntity
  8
0
  6
Continuous
 62
     8
370
    30
100
AcDbCircle
 10
75.5202302742
 20
71.3865070389
 30
0.0
 40
6.000000000000009
100
AcDbArc
 50
149.3404104468
 51
191.5157083742
  0
DIMENSION
  5
22A
330
1F
100
AcDbEntity
  8
SLD-0
 62
     7
100
AcDbDimension
  2
_D
 10
29.2353510255
 20
50.1686087712
 30
0.0
 11
42.4853510255
 21
50.1686087712
 31
0.0
 70
   160
  1
<>
 71
     2
 42
-1.0
  3
SLDDIMSTYLE0
100
AcDbAlignedDimension
 13
55.7353510255
 23
70.6150428858
 33
0.0
 14
29.2353510255
 24
68.3650428858
 34
0.0
100
AcDbRotatedDimension
  0
DIMENSION
  5
235
330
1F
100
AcDbEntity
  8
SLD-0
 62
     7
100
AcDbDimension
  2
_D_1
 10
24.8714758045
 20
83.1150428858
 30
0.0
 11
24.8714758045
 21
69.8650428858
 31
0.0
 70
   160
  1
<>
 71
     2
 42
-1.0
  3
SLDDIMSTYLE0
100
AcDbAlignedDimension
 13
40.9853510255
 23
56.6150428858
 33
0.0
 14
43.2353510255
 24
83.1150428858
 34
0.0
 50
90.0
100
AcDbRotatedDimension
  0
DIMENSION
  5
23F
330
1F
100
AcDbEntity
  8
SLD-0
 62
     7
100
AcDbDimension
  2
_D_2
 10
19.2287310265
 20
101.1150428858
 30
0.0
 11
19.2287310265
 21
78.8650428858
 31
0.0
 70
   160
  1
<>
 71
     2
 42
-1.0
  3
SLDDIMSTYLE0
100
AcDbAlignedDimension
 13
40.9853510255
 23
56.6150428858
 33
0.0
 14
55.7353510255
 24
101.1150428858
 34
0.0
 50
90.0
100
AcDbRotatedDimension
  0
DIMENSION
  5
249
330
1F
100
AcDbEntity
  8
SLD-0
 62
     7
100
AcDbDimension
  2
_D_3
 10
73.7353510255
 20
44.9483762191
 30
0.0
 11
51.4853510255
 21
44.9483762191
 31
0.0
 70
   160
  1
<>
 71
     2
 42
-1.0
  3
SLDDIMSTYLE0
100
AcDbAlignedDimension
 13
29.2353510255
 23
68.3650428858
 33
0.0
 14
73.7353510255
 24
83.1150428858
 34
0.0
 50
0.0
100
AcDbRotatedDimension
  0
INSERT
  5
25E
330
1F
100
AcDbEntity
  8
SLD-0
100
AcDbBlockReference
  2
SW_CENTERMARKSYMBOL_0
 10
55.7353510255
 20
83.1150428858
 30
0.0
  0
LINE
  5
25F
330
1F
100
AcDbEntity
  8
0
  6
Continuous
 62
     7
370
    30
100
AcDbLine
 10
156.4614042686
 20
101.1150443759
 30
0.0
 11
156.4614042686
 21
101.0035874155
 31
0.0
  0
LINE
  5
260
330
1F
100
AcDbEntity
  8
0
  6
Continuous
 62
     7
370
    30
100
AcDbLine
 10
160.4614049243
 20
101.0035874155
 30
0.0
 11
160.4614049243
 21
101.1150443759
 31
0.0
  0
LINE
  5
261
330
1F
100
AcDbEntity
  8
0
  6
Continuous
 62
     7
370
    30
100
AcDbLine
 10
157.2114057886
 20
96.5570473876
 30
0.0
 11
157.2114057886
 21
96.1150416937
 31
0.0
  0
LINE
  5
262
330
1F
100
AcDbEntity
  8
0
  6
Continuous
 62
     7
370
    30
100
AcDbLine
 10
159.711405267
 20
96.1150416937
 30
0.0
 11
159.711405267
 21
96.5570473876
 31
0.0
  0
LINE
  5
263
330
1F
100
AcDbEntity
  8
0
  6
Continuous
 62
     7
370
    30
100
AcDbLine
 10
160.4614049243
 20
101.1150443759
 30
0.0
 11
156.4614042686
 21
101.1150443759
 31
0.0
  0
LINE
  5
264
330
1F
100
AcDbEntity
  8
0
  6
Continuous
 62
     7
370
    30
100
AcDbLine
 10
159.711405267
 20
96.1150416937
 30
0.0
 11
157.2114057886
 21
96.1150416937
 31
0.0
  0
ARC
  5
265
330
1F
100
AcDbEntity
  8
0
  6
Continuous
 62
     7
370
    30
100
AcDbCircle
 10
146.4614049988
 20
63.6150428858
 30
0.0
 40
5.000000000000011
100
AcDbArc
 50
135.0494093087
 51
294.6199773287
  0
LWPOLYLINE
  5
266
330
1F
100
AcDbEntity
  8
0
  6
Continuous
 62
     7
370
    30
100
AcDbPolyline
 90
        9
 70
   128
 43
0.0
 10
148.544393112
 20
59.0695884843
 10
148.6256677704
 20
58.8922334668
 10
148.7038187729
 20
58.7216943335
 10
148.7758435356
 20
58.5645243358
 10
148.838972305
 20
58.4267640319
 10
148.8907817798
 20
58.3137070593
 10
148.9292807924
 20
58.2296980378
 10
148.9529866772
 20
58.1779653971
 10
148.960992326
 20
58.1604975109
  0
ARC
  5
267
330
1F
100
AcDbEntity
  8
0
  6
Continuous
 62
     7
370
    30
100
AcDbCircle
 10
146.4614049988
 20
63.6150428858
 30
0.0
 40
6.000000000000009
100
AcDbArc
 50
135.0494093087
 51
294.6199773287
  0
LWPOLYLINE
  5
268
330
1F
100
AcDbEntity
  8
0
  6
Continuous
 62
     7
370
    30
100
AcDbPolyline
 90
        9
 70
   128
 43
0.0
 10
142.9228220182
 20
67.1475265939
 10
142.7847553091
 20
67.2853572127
 10
142.6519934135
 20
67.4178911672
 10
142.5296362536
 20
67.540035287
 10
142.4223925965
 20
67.6470950079
 10
142.3343788879
 20
67.7349573765
 10
142.2689776914
 20
67.800244486
 10
142.2287073033
 20
67.8404482846
 10
142.2151062684
 20
67.8540232424
  0
ARC
  5
269
330
1F
100
AcDbEntity
  8
0
  6
Continuous
 62
     7
370
    30
100
AcDbCircle
 10
158.4614049988
 20
83.1150428858
 30
0.0
 40
18.0
100
AcDbArc
 50
59.3404104468
 51
210.6595895532
  0
LWPOLYLINE
  5
26A
330
1F
100
AcDbEntity
  8
0
  6
Continuous
 62
     7
370
    30
100
AcDbPolyline
 90
        9
 70
   128
 43
0.0
 10
167.6402591216
 20
98.5988603738
 10
167.6304606768
 20
98.5823312607
 10
167.601442528
 20
98.5333809462
 10
167.5543194683
 20
98.4538907018
 10
167.490901989
 20
98.3469115403
 10
167.4136282923
 20
98.2165561822
 10
167.3254674347
 20
98.0678388682
 10
167.2298066365
 20
97.906466743
 10
167.1303227591
 20
97.7386498657
  0
ARC
  5
26B
330
1F
100
AcDbEntity
  8
0
  6
Continuous
 62
     7
370
    30
100
AcDbCircle
 10
158.4614049988
 20
83.1150428858
 30
0.0
 40
17.00000000000001
100
AcDbArc
 50
59.3404104468
 51
210.6595895532
  0
LWPOLYLINE
  5
26C
330
1F
100
AcDbEntity
  8
0
  6
Continuous
 62
     7
370
    30
100
AcDbPolyline
 90
        9
 70
   128
 43
0.0
 10
142.9775875109
 20
73.9361887631
 10
142.9941166239
 20
73.9459872079
 10
143.0430669384
 20
73.9750053566
 10
143.1225571828
 20
74.0221284163
 10
143.2295363443
 20
74.0855458957
 10
143.3598917024
 20
74.1628195923
 10
143.5086090164
 20
74.2509804499
 10
143.6699811416
 20
74.3466412481
 10
143.837798019
 20
74.4461251256
  0
ARC
  5
26D
330
1F
100
AcDbEntity
  8
0
  6
Continuous
 62
     7
370
    30
100
AcDbCircle
 10
173.3788293039
 20
53.6150428858
 30
0.0
 40
6.000000000000006
100
AcDbArc
 50
65.3800226713
 51
90.0
  0
LINE
  5
26E
330
1F
100
AcDbEntity
  8
0
  6
Continuous
 62
     7
370
    30
100
AcDbLine
 10
151.0439809459
 20
59.6150426958
 30
0.0
 11
173.3788294764
 21
59.6150426958
 31
0.0
  0
ARC
  5
26F
330
1F
100
AcDbEntity
  8
0
  6
Continuous
 62
     7
370
    30
100
AcDbCircle
 10
151.0439806938
 20
53.6150428858
 30
0.0
 40
6.0
100
AcDbArc
 50
90.0
 51
114.6199773287
  0
ARC
  5
270
330
1F
100
AcDbEntity
  8
0
  6
Continuous
 62
     7
370
    30
100
AcDbCircle
 10
138.6765257501
 20
71.3865070389
 30
0.0
 40
6.000000000000024
100
AcDbArc
 50
315.0494093087
 51
30.6595895532
  0
ARC
  5
271
330
1F
100
AcDbEntity
  8
0
  6
Continuous
 62
     7
370
    30
100
AcDbCircle
 10
170.1899408457
 20
102.8999221346
 30
0.0
 40
6.000000000000014
100
AcDbArc
 50
239.3404104468
 51
314.9505906913
  0
ARC
  5
272
330
1F
100
AcDbEntity
  8
0
  6
Continuous
 62
     7
370
    30
100
AcDbCircle
 10
177.9614049988
 20
95.1150428858
 30
0.0
 40
5.000000000000005
100
AcDbArc
 50
335.3800226713
 51
134.9505906913
  0
ARC
  5
273
330
1F
100
AcDbEntity
  8
0
  6
Continuous
 62
     7
370
    30
100
AcDbCircle
 10
187.9614049988
 20
90.5324671909
 30
0.0
 40
5.99999999999998
100
AcDbArc
 50
155.3800226713
 51
180.0
  0
LINE
  5
274
330
1F
100
AcDbEntity
  8
0
  6
Continuous
 62
     7
370
    30
100
AcDbLine
 10
181.9614051888
 20
68.1976184082
 30
0.0
 11
181.9614051888
 21
90.5324669388
 31
0.0
  0
ARC
  5
275
330
1F
100
AcDbEntity
  8
0
  6
Continuous
 62
     7
370
    30
100
AcDbCircle
 10
187.9614049988
 20
68.1976185808
 30
0.0
 40
5.999999999999987
100
AcDbArc
 50
180.0
 51
204.6199773287
  0
ARC
  5
276
330
1F
100
AcDbEntity
  8
0
  6
Continuous
 62
     7
370
    30
100
AcDbCircle
 10
177.9614049988
 20
63.6150428858
 30
0.0
 40
5.000000000000011
100
AcDbArc
 50
245.3800226713
 51
24.6199773287
  0
ARC
  5
277
330
1F
100
AcDbEntity
  8
0
  6
Continuous
 62
     7
370
    30
100
AcDbCircle
 10
149.2894317014
 20
77.0425717388
 30
0.0
 40
3.000000000000014
100
AcDbArc
 50
213.507272935
 51
250.9977466136
  0
ARC
  5
278
330
1F
100
AcDbEntity
  8
0
  6
Continuous
 62
     7
370
    30
100
AcDbCircle
 10
147.6614049988
 20
72.3150428858
 30
0.0
 40
2.000000000000024
100
AcDbArc
 50
19.0022533864
 51
70.9977466136
  0
ARC
  5
279
330
1F
100
AcDbEntity
  8
0
  6
Continuous
 62
     7
370
    30
100
AcDbCircle
 10
152.3889338518
 20
73.9430695884
 30
0.0
 40
2.999999999999978
100
AcDbArc
 50
199.0022533864
 51
236.492727065
  0
ARC
  5
27A
330
1F
100
AcDbEntity
  8
0
  6
Continuous
 62
     7
370
    30
100
AcDbCircle
 10
158.4614049988
 20
83.1150428858
 30
0.0
 40
14.00000000000001
100
AcDbArc
 50
236.492727065
 51
303.507272935
  0
ARC
  5
27B
330
1F
100
AcDbEntity
  8
0
  6
Continuous
 62
     7
370
    30
100
AcDbCircle
 10
164.5338761458
 20
73.9430695884
 30
0.0
 40
3.000000000000041
100
AcDbArc
 50
303.507272935
 51
340.9977466136
  0
ARC
  5
27C
330
1F
100
AcDbEntity
  8
0
  6
Continuous
 62
     7
370
    30
100
AcDbCircle
 10
169.2614049988
 20
72.3150428858
 30
0.0
 40
2.000000000000011
100
AcDbArc
 50
109.0022533864
 51
160.9977466136
  0
ARC
  5
27D
330
1F
100
AcDbEntity
  8
0
  6
Continuous
 62
     7
370
    30
100
AcDbCircle
 10
167.6333782962
 20
77.0425717388
 30
0.0
 40
3.000000000000014
100
AcDbArc
 50
289.0022533864
 51
326.492727065
  0
ARC
  5
27E
330
1F
100
AcDbEntity
  8
0
  6
Continuous
 62
     7
370
    30
100
AcDbCircle
 10
158.4614049988
 20
83.1150428858
 30
0.0
 40
14.00000000000002
100
AcDbArc
 50
326.492727065
 51
213.507272935
  0
ARC
  5
27F
330
1F
100
AcDbEntity
  8
0
  6
Continuous
 62
     7
370
    30
100
AcDbCircle
 10
138.6765257501
 20
71.3865070389
 30
0.0
 40
5.000000000000005
100
AcDbArc
 50
315.0494093087
 51
30.6595895532
  0
LWPOLYLINE
  5
280
330
1F
100
AcDbEntity
  8
0
  6
Continuous
 62
     7
370
    30
100
AcDbPolyline
 90
        9
 70
   128
 43
0.0
 10
170.1348252641
 20
75.3864433449
 10
170.053491001
 20
75.4402924162
 10
169.9752822565
 20
75.4920720887
 10
169.9032044085
 20
75.5397921261
 10
169.8400272103
 20
75.5816196856
 10
169.7881795513
 20
75.615946373
 10
169.749652599
 20
75.6414534357
 10
169.7259280877
 20
75.6571611222
 10
169.7179177823
 20
75.6624650043
  0
ARC
  5
281
330
1F
100
AcDbEntity
  8
0
  6
Continuous
 62
     7
370
    30
100
AcDbCircle
 10
158.4614049988
 20
83.1150428858
 30
0.0
 40
13.50000000000002
100
AcDbArc
 50
326.492727065
 51
213.507272935
  0
LWPOLYLINE
  5
282
330
1F
100
AcDbEntity
  8
0
  6
Continuous
 62
     7
370
    30
100
AcDbPolyline
 90
        9
 70
   128
 43
0.0
 10
146.7879839288
 20
75.3864433449
 10
146.8693200546
 20
75.4402924162
 10
146.9475287991
 20
75.4920720887
 10
147.0196057158
 20
75.5397921261
 10
147.082782914
 20
75.5816196856
 10
147.1346315043
 20
75.615946373
 10
147.1731565939
 20
75.6414534357
 10
147.1968811052
 20
75.6571611222
 10
147.204892342
 20
75.6624650043
  0
ARC
  5
283
330
1F
100
AcDbEntity
  8
0
  6
Continuous
 62
     7
370
    30
100
AcDbCircle
 10
149.2894317014
 20
77.0425717388
 30
0.0
 40
2.500000000000012
100
AcDbArc
 50
213.507272935
 51
250.9977466136
  0
LWPOLYLINE
  5
284
330
1F
100
AcDbEntity
  8
0
  6
Continuous
 62
     7
370
    30
100
AcDbPolyline
 90
        9
 70
   128
 43
0.0
 10
148.3126148628
 20
74.2060543802
 10
148.3443766879
 20
74.2982841861
 10
148.3749184804
 20
74.3869693783
 10
148.4030649113
 20
74.4687022474
 10
148.4277337836
 20
74.5403414425
 10
148.4479807364
 20
74.599133974
 10
148.4630253213
 20
74.6428213846
 10
148.4722901182
 20
74.6697235685
 10
148.4754174994
 20
74.6788076889
  0
ARC
  5
285
330
1F
100
AcDbEntity
  8
0
  6
Continuous
 62
     7
370
    30
100
AcDbCircle
 10
147.6614049988
 20
72.3150428858
 30
0.0
 40
2.500000000000017
100
AcDbArc
 50
19.0022533864
 51
70.9977466136
  0
LWPOLYLINE
  5
286
330
1F
100
AcDbEntity
  8
0
  6
Continuous
 62
     7
370
    30
100
AcDbPolyline
 90
        9
 70
   128
 43
0.0
 10
149.5524156885
 20
72.9662535545
 10
149.6446464258
 20
72.9980144483
 10
149.7333306866
 20
73.0285553094
 10
149.8150635557
 20
73.0567017403
 10
149.8867027508
 20
73.0813724753
 10
149.9454952823
 20
73.1016194281
 10
149.9891836243
 20
73.1166640129
 10
150.0160858082
 20
73.1259278786
 10
150.0251699286
 20
73.1290561911
  0
LINE
  5
287
330
1F
100
AcDbEntity
  8
0
  6
Continuous
 62
     7
370
    30
100
AcDbLine
 10
151.0439809459
 20
59.6150426958
 30
0.0
 11
151.0439809459
 21
58.6150429976
 31
0.0
  0
ARC
  5
288
330
1F
100
AcDbEntity
  8
0
  6
Continuous
 62
     7
370
    30
100
AcDbCircle
 10
151.0439806938
 20
53.6150428858
 30
0.0
 40
4.999999999999993
100
AcDbArc
 50
90.0
 51
114.6199773287
  0
ARC
  5
289
330
1F
100
AcDbEntity
  8
0
  6
Continuous
 62
     7
370
    30
100
AcDbCircle
 10
152.3889338518
 20
73.9430695884
 30
0.0
 40
2.499999999999985
100
AcDbArc
 50
199.0022533864
 51
236.492727065
  0
LWPOLYLINE
  5
28A
330
1F
100
AcDbEntity
  8
0
  6
Continuous
 62
     7
370
    30
100
AcDbPolyline
 90
        9
 70
   128
 43
0.0
 10
151.008827244
 20
71.8585301023
 10
151.0035224306
 20
71.8505197969
 10
150.9878166067
 20
71.8267952856
 10
150.962309544
 20
71.7882683333
 10
150.9279828565
 20
71.7364206743
 10
150.8861552971
 20
71.6732434761
 10
150.8384343283
 20
71.6011656281
 10
150.7866546558
 20
71.5229568836
 10
150.7328055846
 20
71.4416226205
  0
ARC
  5
28B
330
1F
100
AcDbEntity
  8
0
  6
Continuous
 62
     7
370
    30
100
AcDbCircle
 10
158.4614049988
 20
83.1150428858
 30
0.0
 40
13.50000000000001
100
AcDbArc
 50
236.492727065
 51
303.507272935
  0
LWPOLYLINE
  5
28C
330
1F
100
AcDbEntity
  8
0
  6
Continuous
 62
     7
370
    30
100
AcDbPolyline
 90
        9
 70
   128
 43
0.0
 10
165.9139828803
 20
71.8585301023
 10
165.9192867624
 20
71.8505197969
 10
165.9349944489
 20
71.8267952856
 10
165.9605015116
 20
71.7882683333
 10
165.9948281991
 20
71.7364206743
 10
166.0366557585
 20
71.6732434761
 10
166.0843757959
 20
71.6011656281
 10
166.1361554684
 20
71.5229568836
 10
166.1900045397
 20
71.4416226205
  0
LINE
  5
28D
330
1F
100
AcDbEntity
  8
0
  6
Continuous
 62
     7
370
    30
100
AcDbLine
 10
173.3788294764
 20
59.6150426958
 30
0.0
 11
173.3788294764
 21
58.6150429976
 31
0.0
  0
LINE
  5
28E
330
1F
100
AcDbEntity
  8
0
  6
Continuous
 62
     7
370
    30
100
AcDbLine
 10
173.3788294764
 20
58.6150429976
 30
0.0
 11
151.0439809459
 21
58.6150429976
 31
0.0
  0
ARC
  5
28F
330
1F
100
AcDbEntity
  8
0
  6
Continuous
 62
     7
370
    30
100
AcDbCircle
 10
164.5338761458
 20
73.9430695884
 30
0.0
 40
2.500000000000024
100
AcDbArc
 50
303.507272935
 51
340.9977466136
  0
LWPOLYLINE
  5
290
330
1F
100
AcDbEntity
  8
0
  6
Continuous
 62
     7
370
    30
100
AcDbPolyline
 90
        9
 70
   128
 43
0.0
 10
166.8976401957
 20
73.1290561911
 10
166.9067243161
 20
73.1259278786
 10
166.9336265
 20
73.1166640129
 10
166.9773139106
 20
73.1016194281
 10
167.0361064421
 20
73.0813724753
 10
167.1077456372
 20
73.0567017403
 10
167.1894785064
 20
73.0285553094
 10
167.2781636985
 20
72.9980144483
 10
167.3703935044
 20
72.9662535545
  0
ARC
  5
291
330
1F
100
AcDbEntity
  8
0
  6
Continuous
 62
     7
370
    30
100
AcDbCircle
 10
169.2614049988
 20
72.3150428858
 30
0.0
 40
2.500000000000017
100
AcDbArc
 50
109.0022533864
 51
160.9977466136
  0
LWPOLYLINE
  5
292
330
1F
100
AcDbEntity
  8
0
  6
Continuous
 62
     7
370
    30
100
AcDbPolyline
 90
        9
 70
   128
 43
0.0
 10
168.4473916935
 20
74.6788076889
 10
168.450520006
 20
74.6697235685
 10
168.4597838717
 20
74.6428213846
 10
168.4748284565
 20
74.599133974
 10
168.4950754093
 20
74.5403414425
 10
168.5197461443
 20
74.4687022474
 10
168.5478925752
 20
74.3869693783
 10
168.5784334364
 20
74.2982841861
 10
168.6101943301
 20
74.2060543802
  0
ARC
  5
293
330
1F
100
AcDbEntity
  8
0
  6
Continuous
 62
     7
370
    30
100
AcDbCircle
 10
170.1899408457
 20
102.8999221346
 30
0.0
 40
4.999999999999995
100
AcDbArc
 50
239.3404104468
 51
314.9505906913
  0
LWPOLYLINE
  5
294
330
1F
100
AcDbEntity
  8
0
  6
Continuous
 62
     7
370
    30
100
AcDbPolyline
 90
        9
 70
   128
 43
0.0
 10
173.7224246422
 20
99.3613416162
 10
173.7359996
 20
99.3477405813
 10
173.7762033986
 20
99.3074701932
 10
173.8414905081
 20
99.2420689967
 10
173.9293528767
 20
99.1540552881
 10
174.0364125977
 20
99.046811631
 10
174.1585567175
 20
98.9244544711
 10
174.2910906719
 20
98.7916925755
 10
174.4289212907
 20
98.6536258664
  0
ARC
  5
295
330
1F
100
AcDbEntity
  8
0
  6
Continuous
 62
     7
370
    30
100
AcDbCircle
 10
167.6333782962
 20
77.0425717388
 30
0.0
 40
2.500000000000012
100
AcDbArc
 50
289.0022533864
 51
326.492727065
  0
ARC
  5
296
330
1F
100
AcDbEntity
  8
0
  6
Continuous
 62
     7
370
    30
100
AcDbCircle
 10
177.9614049988
 20
95.1150428858
 30
0.0
 40
6.000000000000006
100
AcDbArc
 50
335.3800226713
 51
134.9505906913
  0
LWPOLYLINE
  5
297
330
1F
100
AcDbEntity
  8
0
  6
Continuous
 62
     7
370
    30
100
AcDbPolyline
 90
        9
 70
   128
 43
0.0
 10
183.4159503738
 20
92.6154555586
 10
183.3984824876
 20
92.6234612074
 10
183.3467498468
 20
92.6471670922
 10
183.2627408253
 20
92.6856661048
 10
183.1496838527
 20
92.7374755797
 10
183.0119235488
 20
92.800604349
 10
182.8547535511
 20
92.8726291117
 10
182.6842144178
 20
92.9507801142
 10
182.5068594003
 20
93.0320547726
  0
LWPOLYLINE
  5
298
330
1F
100
AcDbEntity
  8
0
  6
Continuous
 62
     7
370
    30
100
AcDbPolyline
 90
        9
 70
   128
 43
0.0
 10
175.8784161462
 20
59.0695884843
 10
175.7971419534
 20
58.8922334668
 10
175.7189909509
 20
58.7216943335
 10
175.6469666539
 20
58.5645243358
 10
175.5838369532
 20
58.4267640319
 10
175.5320277112
 20
58.3137070593
 10
175.4935298627
 20
58.2296980378
 10
175.4698230466
 20
58.1779653971
 10
175.4618183291
 20
58.1604975109
  0
ARC
  5
299
330
1F
100
AcDbEntity
  8
0
  6
Continuous
 62
     7
370
    30
100
AcDbCircle
 10
173.3788293039
 20
53.6150428858
 30
0.0
 40
5.000000000000018
100
AcDbArc
 50
65.3800226713
 51
90.0
  0
LWPOLYLINE
  5
29A
330
1F
100
AcDbEntity
  8
0
  6
Continuous
 62
     7
370
    30
100
AcDbPolyline
 90
        9
 70
   128
 43
0.0
 10
182.5068594003
 20
65.6980317384
 10
182.6842144178
 20
65.7793059312
 10
182.8547535511
 20
65.8574569338
 10
183.0119235488
 20
65.9294812307
 10
183.1496838527
 20
65.9926109314
 10
183.2627408253
 20
66.0444201734
 10
183.3467498468
 20
66.0829180219
 10
183.3984824876
 20
66.106624838
 10
183.4159503738
 20
66.1146295555
  0
ARC
  5
29B
330
1F
100
AcDbEntity
  8
0
  6
Continuous
 62
     7
370
    30
100
AcDbCircle
 10
177.9614049988
 20
63.6150428858
 30
0.0
 40
6.0
100
AcDbArc
 50
245.3800226713
 51
24.6199773287
  0
ARC
  5
29C
330
1F
100
AcDbEntity
  8
0
  6
Continuous
 62
     7
370
    30
100
AcDbCircle
 10
187.9614049988
 20
68.1976185808
 30
0.0
 40
4.999999999999986
100
AcDbArc
 50
180.0
 51
204.6199773287
  0
LINE
  5
29D
330
1F
100
AcDbEntity
  8
0
  6
Continuous
 62
     7
370
    30
100
AcDbLine
 10
182.961404887
 20
68.1976184082
 30
0.0
 11
181.9614051888
 21
68.1976184082
 31
0.0
  0
ARC
  5
29E
330
1F
100
AcDbEntity
  8
0
  6
Continuous
 62
     7
370
    30
100
AcDbCircle
 10
187.9614049988
 20
90.5324671909
 30
0.0
 40
4.99999999999998
100
AcDbArc
 50
155.3800226713
 51
180.0
  0
LINE
  5
29F
330
1F
100
AcDbEntity
  8
0
  6
Continuous
 62
     7
370
    30
100
AcDbLine
 10
182.961404887
 20
90.5324669388
 30
0.0
 11
181.9614051888
 21
90.5324669388
 31
0.0
  0
LINE
  5
2A0
330
1F
100
AcDbEntity
  8
0
  6
Continuous
 62
     7
370
    30
100
AcDbLine
 10
182.961404887
 20
90.5324669388
 30
0.0
 11
182.961404887
 21
68.1976184082
 31
0.0
  0
CIRCLE
  5
2A1
330
1F
100
AcDbEntity
  8
0
  6
Continuous
 62
     7
370
    30
100
AcDbCircle
 10
158.4614049988
 20
83.1150428858
 30
0.0
 40
12.00000000000003
  0
CIRCLE
  5
2A2
330
1F
100
AcDbEntity
  8
0
  6
Continuous
 62
     7
370
    30
100
AcDbCircle
 10
158.4614049988
 20
83.1150428858
 30
0.0
 40
11.50000000000003
  0
LWPOLYLINE
  5
2A3
330
1F
100
AcDbEntity
  8
0
  6
Continuous
 62
     7
370
    30
100
AcDbPolyline
 90
        9
 70
   128
 43
0.0
 10
142.0864049392
 20
59.3156969939
 10
142.0132476883
 20
59.2511768286
 10
141.9428993063
 20
59.1891363096
 10
141.878064354
 20
59.1319596228
 10
141.8212387758
 20
59.0818432924
 10
141.7746055918
 20
59.0407142248
 10
141.7399492162
 20
59.0101524089
 10
141.7186107533
 20
58.991332708
 10
141.7114060419
 20
58.984978294
  0
ARC
  5
2A4
330
1F
100
AcDbEntity
  8
0
  6
Continuous
 62
     7
370
    30
100
AcDbCircle
 10
145.4614049988
 20
62.2921672303
 30
0.0
 40
5.0
100
AcDbArc
 50
180.0
 51
221.4096221093
  0
ARC
  5
2A5
330
1F
100
AcDbEntity
  8
0
  6
Continuous
 62
     7
370
    30
100
AcDbCircle
 10
145.4614049988
 20
64.9379185413
 30
0.0
 40
5.0
100
AcDbArc
 50
138.5903778907
 51
180.0
  0
LWPOLYLINE
  5
2A6
330
1F
100
AcDbEntity
  8
0
  6
Continuous
 62
     7
370
    30
100
AcDbPolyline
 90
        9
 70
   128
 43
0.0
 10
142.0864049392
 20
67.9143887777
 10
142.0132476883
 20
67.9789089431
 10
141.9428993063
 20
68.040949462
 10
141.878064354
 20
68.0981261489
 10
141.8212387758
 20
68.1482424792
 10
141.7746055918
 20
68.1893715468
 10
141.7399492162
 20
68.2199333627
 10
141.7186107533
 20
68.2387530637
 10
141.7114060419
 20
68.2451074776
  0
LINE
  5
2A7
330
1F
100
AcDbEntity
  8
0
  6
Continuous
 62
     7
370
    30
100
AcDbLine
 10
140.4614035087
 20
62.2921672715
 30
0.0
 11
140.4614035087
 21
64.9379185001
 31
0.0
  0
LINE
  5
2A8
330
1F
100
AcDbEntity
  8
0
  6
Continuous
 62
     7
370
    30
100
AcDbLine
 10
152.3232437717
 20
57.1150427517
 30
0.0
 11
173.0995668145
 21
57.1150427517
 31
0.0
  0
ARC
  5
2A9
330
1F
100
AcDbEntity
  8
0
  6
Continuous
 62
     7
370
    30
100
AcDbCircle
 10
150.031955527
 20
52.1150428858
 30
0.0
 40
5.500000000000007
100
AcDbArc
 50
65.3800226713
 51
90.0
  0
LINE
  5
2AA
330
1F
100
AcDbEntity
  8
0
  6
Continuous
 62
     7
370
    30
100
AcDbLine
 10
145.6385288434
 20
57.6150428337
 30
0.0
 11
150.0319555449
 21
57.6150428337
 31
0.0
  0
ARC
  5
2AB
330
1F
100
AcDbEntity
  8
0
  6
Continuous
 62
     7
370
    30
100
AcDbCircle
 10
145.6385293433
 20
62.1150428858
 30
0.0
 40
4.5
100
AcDbArc
 50
228.5903778907
 51
270.0
  0
ARC
  5
2AC
330
1F
100
AcDbEntity
  8
0
  6
Continuous
 62
     7
370
    30
100
AcDbCircle
 10
146.9614049988
 20
63.6150428858
 30
0.0
 40
6.500000000000011
100
AcDbArc
 50
221.4096221093
 51
228.5903778907
  0
ARC
  5
2AD
330
1F
100
AcDbEntity
  8
0
  6
Continuous
 62
     7
370
    30
100
AcDbCircle
 10
177.9614049988
 20
94.6150428858
 30
0.0
 40
6.500000000000015
100
AcDbArc
 50
41.4096221093
 51
48.5903778907
  0
ARC
  5
2AE
330
1F
100
AcDbEntity
  8
0
  6
Continuous
 62
     7
370
    30
100
AcDbCircle
 10
179.4614049988
 20
95.9379185413
 30
0.0
 40
4.500000000000031
100
AcDbArc
 50
0.0
 51
41.4096221093
  0
LINE
  5
2AF
330
1F
100
AcDbEntity
  8
0
  6
Continuous
 62
     7
370
    30
100
AcDbLine
 10
183.961405051
 20
91.5444923398
 30
0.0
 11
183.961405051
 21
95.9379190412
 31
0.0
  0
ARC
  5
2B0
330
1F
100
AcDbEntity
  8
0
  6
Continuous
 62
     7
370
    30
100
AcDbCircle
 10
189.4614049988
 20
91.5444923576
 30
0.0
 40
5.500000000000155
100
AcDbArc
 50
180.0
 51
204.6199773287
  0
LINE
  5
2B1
330
1F
100
AcDbEntity
  8
0
  6
Continuous
 62
     7
370
    30
100
AcDbLine
 10
184.4614051329
 20
68.4768810701
 30
0.0
 11
184.4614051329
 21
89.2532041129
 31
0.0
  0
ARC
  5
2B2
330
1F
100
AcDbEntity
  8
0
  6
Continuous
 62
     7
370
    30
100
AcDbCircle
 10
189.4614049988
 20
66.185593414
 30
0.0
 40
5.500000000000153
100
AcDbArc
 50
155.3800226713
 51
180.0
  0
LINE
  5
2B3
330
1F
100
AcDbEntity
  8
0
  6
Continuous
 62
     7
370
    30
100
AcDbLine
 10
183.961405051
 20
62.2921672715
 30
0.0
 11
183.961405051
 21
66.1855933089
 31
0.0
  0
ARC
  5
2B4
330
1F
100
AcDbEntity
  8
0
  6
Continuous
 62
     7
370
    30
100
AcDbCircle
 10
179.4614049988
 20
62.2921672303
 30
0.0
 40
4.500000000000028
100
AcDbArc
 50
318.5903778907
 51
0.0
  0
ARC
  5
2B5
330
1F
100
AcDbEntity
  8
0
  6
Continuous
 62
     7
370
    30
100
AcDbCircle
 10
177.9614049988
 20
63.6150428858
 30
0.0
 40
6.500000000000013
100
AcDbArc
 50
311.4096221093
 51
318.5903778907
  0
ARC
  5
2B6
330
1F
100
AcDbEntity
  8
0
  6
Continuous
 62
     7
370
    30
100
AcDbCircle
 10
179.2842806543
 20
62.1150428858
 30
0.0
 40
4.499999999999993
100
AcDbArc
 50
270.0
 51
311.4096221093
  0
LINE
  5
2B7
330
1F
100
AcDbEntity
  8
0
  6
Continuous
 62
     7
370
    30
100
AcDbLine
 10
175.3908545757
 20
57.6150428337
 30
0.0
 11
179.2842806131
 21
57.6150428337
 31
0.0
  0
ARC
  5
2B8
330
1F
100
AcDbEntity
  8
0
  6
Continuous
 62
     7
370
    30
100
AcDbCircle
 10
175.3908544706
 20
52.1150428858
 30
0.0
 40
5.500000000000135
100
AcDbArc
 50
90.0
 51
114.6199773287
  0
ARC
  5
2B9
330
1F
100
AcDbEntity
  8
0
  6
Continuous
 62
     7
370
    30
100
AcDbCircle
 10
146.9614049988
 20
63.6150428858
 30
0.0
 40
7.000000000000015
100
AcDbArc
 50
121.0479495152
 51
138.5903778907
  0
LWPOLYLINE
  5
2BA
330
1F
100
AcDbEntity
  8
0
  6
Continuous
 62
     7
370
    30
100
AcDbPolyline
 90
        9
 70
   128
 43
0.0
 10
142.6620591479
 20
58.7400427852
 10
142.5975408452
 20
58.6668841374
 10
142.5354998606
 20
58.5965366867
 10
142.4783203798
 20
58.5317040626
 10
142.4282040494
 20
58.4748780188
 10
142.3870768445
 20
58.4282415752
 10
142.3565145629
 20
58.3935879935
 10
142.3376943963
 20
58.3722485994
 10
142.331339051
 20
58.3650429566
  0
ARC
  5
2BB
330
1F
100
AcDbEntity
  8
0
  6
Continuous
 62
     7
370
    30
100
AcDbCircle
 10
146.9614049988
 20
63.6150428858
 30
0.0
 40
7.000000000000012
100
AcDbArc
 50
221.4096221093
 51
228.5903778907
  0
LINE
  5
2BC
330
1F
100
AcDbEntity
  8
0
  6
Continuous
 62
     7
370
    30
100
AcDbLine
 10
145.6385288434
 20
57.6150428337
 30
0.0
 11
145.6385288434
 21
57.1150427517
 31
0.0
  0
ARC
  5
2BD
330
1F
100
AcDbEntity
  8
0
  6
Continuous
 62
     7
370
    30
100
AcDbCircle
 10
145.6385293433
 20
62.1150428858
 30
0.0
 40
5.000000000000008
100
AcDbArc
 50
228.5903778907
 51
270.0
  0
LINE
  5
2BE
330
1F
100
AcDbEntity
  8
0
  6
Continuous
 62
     7
370
    30
100
AcDbLine
 10
150.0319555449
 20
57.6150428337
 30
0.0
 11
150.0319555449
 21
57.1150427517
 31
0.0
  0
LINE
  5
2BF
330
1F
100
AcDbEntity
  8
0
  6
Continuous
 62
     7
370
    30
100
AcDbLine
 10
150.0319555449
 20
57.1150427517
 30
0.0
 11
145.6385288434
 21
57.1150427517
 31
0.0
  0
SPLINE
  5
2C0
330
1F
100
AcDbEntity
  8
0
  6
Continuous
 62
     7
370
    30
100
AcDbSpline
210
0.0
220
0.0
230
1.0
 70
     8
 71
     3
 72
    13
 73
     9
 74
     0
 42
0.000000001
 43
0.00000001
 40
0.0
 40
0.0
 40
0.0
 40
0.0
 40
0.2081244504546572
 40
0.4161640270011024
 40
0.6265976059411269
 40
0.842048858633767
 40
0.991248000742272
 40
0.9999999999999999
 40
0.9999999999999999
 40
0.9999999999999999
 40
0.9999999999999999
 10
152.2114049690038
 20
56.61504266974477
 30
0.0
 10
152.2126311098508
 20
56.62037755271888
 30
0.0
 10
152.2150828915202
 20
56.63104514308237
 30
0.0
 10
152.2340264533384
 20
56.71397867751269
 30
0.0
 10
152.2617431389983
 20
56.83666184257785
 30
0.0
 10
152.2927148626363
 20
56.97574175287562
 30
0.0
 10
152.3138546634568
 20
57.07206380093101
 30
0.0
 10
152.3227508387642
 20
57.1127863350324
 30
0.0
 10
152.3232437716991
 20
57.11504275170117
 30
0.0
  0
ARC
  5
2C1
330
1F
100
AcDbEntity
  8
0
  6
Continuous
 62
     7
370
    30
100
AcDbCircle
 10
150.031955527
 20
52.1150428858
 30
0.0
 40
5.000000000000002
100
AcDbArc
 50
64.1580672368
 51
90.0
  0
LINE
  5
2C2
330
1F
100
AcDbEntity
  8
0
  6
Continuous
 62
     7
370
    30
100
AcDbLine
 10
173.2114051515
 20
56.6150426697
 30
0.0
 11
152.211404969
 21
56.6150426697
 31
0.0
  0
SPLINE
  5
2C3
330
1F
100
AcDbEntity
  8
0
  6
Continuous
 62
     7
370
    30
100
AcDbSpline
210
0.0
220
0.0
230
1.0
 70
     8
 71
     3
 72
    13
 73
     9
 74
     0
 42
0.000000001
 43
0.00000001
 40
0.0
 40
0.0
 40
0.0
 40
0.0
 40
0.2081244515742345
 40
0.4161641780480326
 40
0.6265975882951371
 40
0.8420492173955016
 40
0.9912483762014079
 40
1.0
 40
1.0
 40
1.0
 40
1.0
 10
173.211405151543
 20
56.61504266974477
 30
0.0
 10
173.2101793178312
 20
56.62037755900685
 30
0.0
 10
173.2077281494305
 20
56.63104516575818
 30
0.0
 10
173.1887827638337
 20
56.71397862668568
 30
0.0
 10
173.1610669288154
 20
56.83666178272054
 30
0.0
 10
173.1300987400654
 20
56.97574264551394
 30
0.0
 10
173.1089471559855
 20
57.07206208972195
 30
0.0
 10
173.1000592682263
 20
57.11278633205868
 30
0.0
 10
173.099566814509
 20
57.11504275170117
 30
0.0
  0
ARC
  5
2C4
330
1F
100
AcDbEntity
  8
0
  6
Continuous
 62
     7
370
    30
100
AcDbCircle
 10
177.9614049988
 20
94.6150428858
 30
0.0
 40
7.000000000000021
100
AcDbArc
 50
131.4096221093
 51
148.9520504848
  0
LWPOLYLINE
  5
2C5
330
1F
100
AcDbEntity
  8
0
  6
Continuous
 62
     7
370
    30
100
AcDbPolyline
 90
        9
 70
   128
 43
0.0
 10
173.6620591069
 20
99.4900429454
 10
173.5975389416
 20
99.5632001963
 10
173.5354984226
 20
99.6335485783
 10
173.4783217358
 20
99.6983835306
 10
173.4282054054
 20
99.7552091089
 10
173.3870763378
 20
99.8018422928
 10
173.3565145219
 20
99.8364986685
 10
173.337694821
 20
99.8578371313
 10
173.331340407
 20
99.8650418427
  0
ARC
  5
2C6
330
1F
100
AcDbEntity
  8
0
  6
Continuous
 62
     7
370
    30
100
AcDbCircle
 10
175.3908544706
 20
52.1150428858
 30
0.0
 40
5.000000000000008
100
AcDbArc
 50
90.0
 51
115.8419327632
  0
LINE
  5
2C7
330
1F
100
AcDbEntity
  8
0
  6
Continuous
 62
     7
370
    30
100
AcDbLine
 10
175.3908545757
 20
57.1150427517
 30
0.0
 11
175.3908545757
 21
57.6150428337
 31
0.0
  0
ARC
  5
2C8
330
1F
100
AcDbEntity
  8
0
  6
Continuous
 62
     7
370
    30
100
AcDbCircle
 10
176.6385293433
 20
96.1150428858
 30
0.0
 40
5.000000000000003
100
AcDbArc
 50
90.0
 51
131.4096221093
  0
LINE
  5
2C9
330
1F
100
AcDbEntity
  8
0
  6
Continuous
 62
     7
370
    30
100
AcDbLine
 10
179.2842806131
 20
57.1150427517
 30
0.0
 11
175.3908545757
 21
57.1150427517
 31
0.0
  0
LINE
  5
2CA
330
1F
100
AcDbEntity
  8
0
  6
Continuous
 62
     7
370
    30
100
AcDbLine
 10
179.2842806131
 20
57.1150427517
 30
0.0
 11
179.2842806131
 21
57.6150428337
 31
0.0
  0
LINE
  5
2CB
330
1F
100
AcDbEntity
  8
0
  6
Continuous
 62
     7
370
    30
100
AcDbLine
 10
176.6385293845
 20
101.1150443759
 30
0.0
 11
179.2842806131
 21
101.1150443759
 31
0.0
  0
ARC
  5
2CC
330
1F
100
AcDbEntity
  8
0
  6
Continuous
 62
     7
370
    30
100
AcDbCircle
 10
179.2842806543
 20
96.1150428858
 30
0.0
 40
5.000000000000003
100
AcDbArc
 50
48.5903778907
 51
90.0
  0
LWPOLYLINE
  5
2CD
330
1F
100
AcDbEntity
  8
0
  6
Continuous
 62
     7
370
    30
100
AcDbPolyline
 90
        9
 70
   128
 43
0.0
 10
182.5914695906
 20
99.8650418427
 10
182.5851151766
 20
99.8578371313
 10
182.5662954757
 20
99.8364986685
 10
182.5357336598
 20
99.8018422928
 10
182.4946045922
 20
99.7552091089
 10
182.4444882618
 20
99.6983835306
 10
182.387311575
 20
99.6335485783
 10
182.3252710561
 20
99.5632001963
 10
182.2607508907
 20
99.4900429454
  0
ARC
  5
2CE
330
1F
100
AcDbEntity
  8
0
  6
Continuous
 62
     7
370
    30
100
AcDbCircle
 10
179.2842806543
 20
62.1150428858
 30
0.0
 40
4.999999999999995
100
AcDbArc
 50
270.0
 51
311.4096221093
  0
LWPOLYLINE
  5
2CF
330
1F
100
AcDbEntity
  8
0
  6
Continuous
 62
     7
370
    30
100
AcDbPolyline
 90
        9
 70
   128
 43
0.0
 10
182.5914695906
 20
58.3650429566
 10
182.5851151766
 20
58.3722485994
 10
182.5662954757
 20
58.3935879935
 10
182.5357336598
 20
58.4282415752
 10
182.4946045922
 20
58.4748780188
 10
182.4444882618
 20
58.5317040626
 10
182.387311575
 20
58.5965366867
 10
182.3252710561
 20
58.6668841374
 10
182.2607508907
 20
58.7400427852
  0
ARC
  5
2D0
330
1F
100
AcDbEntity
  8
0
  6
Continuous
 62
     7
370
    30
100
AcDbCircle
 10
177.9614049988
 20
94.6150428858
 30
0.0
 40
7.000000000000008
100
AcDbArc
 50
41.4096221093
 51
48.5903778907
  0
LWPOLYLINE
  5
2D1
330
1F
100
AcDbEntity
  8
0
  6
Continuous
 62
     7
370
    30
100
AcDbPolyline
 90
        9
 70
   128
 43
0.0
 10
183.211404928
 20
99.2451088336
 10
183.2041992853
 20
99.2387534883
 10
183.1828598911
 20
99.2199333217
 10
183.1482063094
 20
99.1893710401
 10
183.1015698658
 20
99.1482438352
 10
183.044743822
 20
99.0981275049
 10
182.9799111979
 20
99.0409480241
 10
182.9095637473
 20
98.9789070394
 10
182.8364050994
 20
98.9143887368
  0
ARC
  5
2D2
330
1F
100
AcDbEntity
  8
0
  6
Continuous
 62
     7
370
    30
100
AcDbCircle
 10
177.9614049988
 20
63.6150428858
 30
0.0
 40
7.000000000000017
100
AcDbArc
 50
311.4096221093
 51
318.5903778907
  0
LWPOLYLINE
  5
2D3
330
1F
100
AcDbEntity
  8
0
  6
Continuous
 62
     7
370
    30
100
AcDbPolyline
 90
        9
 70
   128
 43
0.0
 10
183.211404928
 20
58.984978294
 10
183.2041992853
 20
58.991332708
 10
183.1828598911
 20
59.0101524089
 10
183.1482063094
 20
59.0407142248
 10
183.1015698658
 20
59.0818432924
 10
183.044743822
 20
59.1319596228
 10
182.9799111979
 20
59.1891363096
 10
182.9095637473
 20
59.2511768286
 10
182.8364050994
 20
59.3156969939
  0
ARC
  5
2D4
330
1F
100
AcDbEntity
  8
0
  6
Continuous
 62
     7
370
    30
100
AcDbCircle
 10
179.4614049988
 20
95.9379185413
 30
0.0
 40
5.000000000000023
100
AcDbArc
 50
0.0
 51
41.4096221093
  0
LINE
  5
2D5
330
1F
100
AcDbEntity
  8
0
  6
Continuous
 62
     7
370
    30
100
AcDbLine
 10
184.4614051329
 20
95.9379190412
 30
0.0
 11
183.961405051
 21
95.9379190412
 31
0.0
  0
ARC
  5
2D6
330
1F
100
AcDbEntity
  8
0
  6
Continuous
 62
     7
370
    30
100
AcDbCircle
 10
179.4614049988
 20
62.2921672303
 30
0.0
 40
5.000000000000011
100
AcDbArc
 50
318.5903778907
 51
0.0
  0
LINE
  5
2D7
330
1F
100
AcDbEntity
  8
0
  6
Continuous
 62
     7
370
    30
100
AcDbLine
 10
184.4614051329
 20
62.2921672715
 30
0.0
 11
183.961405051
 21
62.2921672715
 31
0.0
  0
LINE
  5
2D8
330
1F
100
AcDbEntity
  8
0
  6
Continuous
 62
     7
370
    30
100
AcDbLine
 10
184.4614051329
 20
95.9379190412
 30
0.0
 11
184.4614051329
 21
91.5444923398
 31
0.0
  0
LINE
  5
2D9
330
1F
100
AcDbEntity
  8
0
  6
Continuous
 62
     7
370
    30
100
AcDbLine
 10
184.4614051329
 20
91.5444923398
 30
0.0
 11
183.961405051
 21
91.5444923398
 31
0.0
  0
ARC
  5
2DA
330
1F
100
AcDbEntity
  8
0
  6
Continuous
 62
     7
370
    30
100
AcDbCircle
 10
189.4614049988
 20
91.5444923576
 30
0.0
 40
5.000000000000028
100
AcDbArc
 50
180.0
 51
205.8419327632
  0
SPLINE
  5
2DB
330
1F
100
AcDbEntity
  8
0
  6
Continuous
 62
     7
370
    30
100
AcDbSpline
210
0.0
220
0.0
230
1.0
 70
     8
 71
     3
 72
    13
 73
     9
 74
     0
 42
0.000000001
 43
0.00000001
 40
0.0
 40
0.0
 40
0.0
 40
0.0
 40
0.2081244504546572
 40
0.4161640270011024
 40
0.6265976059411269
 40
0.842048858633767
 40
0.991248000742272
 40
0.9999999999999999
 40
0.9999999999999999
 40
0.9999999999999999
 40
0.9999999999999999
 10
184.961405214873
 20
89.36504291561394
 30
0.0
 10
184.9560703318989
 20
89.36381677476692
 30
0.0
 10
184.9454027415354
 20
89.36136499309754
 30
0.0
 10
184.8624692071051
 20
89.3424214312793
 30
0.0
 10
184.7397860420399
 20
89.31470474561942
 30
0.0
 10
184.6007061317421
 20
89.28373302198146
 30
0.0
 10
184.5043840836867
 20
89.262593221161
 30
0.0
 10
184.4636615495853
 20
89.25369704585358
 30
0.0
 10
184.4614051329166
 20
89.25320411291867
 30
0.0
  0
LINE
  5
2DC
330
1F
100
AcDbEntity
  8
0
  6
Continuous
 62
     7
370
    30
100
AcDbLine
 10
184.4614051329
 20
66.1855933089
 30
0.0
 11
184.4614051329
 21
62.2921672715
 31
0.0
  0
LINE
  5
2DD
330
1F
100
AcDbEntity
  8
0
  6
Continuous
 62
     7
370
    30
100
AcDbLine
 10
184.4614051329
 20
66.1855933089
 30
0.0
 11
183.961405051
 21
66.1855933089
 31
0.0
  0
ARC
  5
2DE
330
1F
100
AcDbEntity
  8
0
  6
Continuous
 62
     7
370
    30
100
AcDbCircle
 10
189.4614049988
 20
66.185593414
 30
0.0
 40
5.000000000000028
100
AcDbArc
 50
154.1580672368
 51
180.0
  0
SPLINE
  5
2DF
330
1F
100
AcDbEntity
  8
0
  6
Continuous
 62
     7
370
    30
100
AcDbSpline
210
0.0
220
0.0
230
1.0
 70
     8
 71
     3
 72
    13
 73
     9
 74
     0
 42
0.000000001
 43
0.00000001
 40
0.0
 40
0.0
 40
0.0
 40
0.0
 40
0.2081244515742345
 40
0.4161641780480326
 40
0.6265975882951371
 40
0.8420492173955016
 40
0.9912483762014079
 40
1.0
 40
1.0
 40
1.0
 40
1.0
 10
184.961405214873
 20
68.3650427330747
 30
0.0
 10
184.9560703256109
 20
68.36626856678654
 30
0.0
 10
184.9454027188596
 20
68.36871973518727
 30
0.0
 10
184.8624692579321
 20
68.38766512078402
 30
0.0
 10
184.7397861018972
 20
68.41538095580232
 30
0.0
 10
184.6007052391038
 20
68.44634914455231
 30
0.0
 10
184.5043857948958
 20
68.46750072863226
 30
0.0
 10
184.4636615525591
 20
68.47638861639146
 30
0.0
 10
184.4614051329166
 20
68.4768810701087
 30
0.0
  0
LINE
  5
2E0
330
1F
100
AcDbEntity
  8
0
  6
Continuous
 62
     7
370
    30
100
AcDbLine
 10
184.9614052149
 20
89.3650429156
 30
0.0
 11
184.9614052149
 21
68.3650427331
 31
0.0
  0
ARC
  5
2E1
330
1F
100
AcDbEntity
  8
0
  6
Continuous
 62
     8
370
    30
100
AcDbCircle
 10
145.4614049988
 20
62.2921672303
 30
0.0
 40
4.499999999999991
100
AcDbArc
 50
203.4921871568
 51
221.4096221093
  0
LINE
  5
2E2
330
1F
100
AcDbEntity
  8
0
  6
Continuous
 62
     8
370
    30
100
AcDbLine
 10
140.6090553897
 20
62.2921672715
 30
0.0
 11
140.4614035087
 21
62.2921672715
 31
0.0
  0
ARC
  5
2E3
330
1F
100
AcDbEntity
  8
0
  6
Continuous
 62
     8
370
    30
100
AcDbCircle
 10
145.4614049988
 20
64.9379185413
 30
0.0
 40
4.500000000000011
100
AcDbArc
 50
138.5903778907
 51
156.5078128424
  0
LINE
  5
2E4
330
1F
100
AcDbEntity
  8
0
  6
Continuous
 62
     8
370
    30
100
AcDbLine
 10
140.6090553897
 20
64.9379185001
 30
0.0
 11
140.4614035087
 21
64.9379185001
 31
0.0
  0
LWPOLYLINE
  5
2E5
330
1F
100
AcDbEntity
  8
0
  6
Continuous
 62
     8
370
    30
100
AcDbPolyline
 90
        3
 70
   128
 43
0.0
 10
142.8731750744
 20
68.6683968474
 10
142.5686810212
 20
68.4060744774
 10
142.0864049392
 20
67.9143887777
  0
LWPOLYLINE
  5
2E6
330
1F
100
AcDbEntity
  8
0
  6
Continuous
 62
     8
370
    30
100
AcDbPolyline
 90
        3
 70
   128
 43
0.0
 10
173.6620591069
 20
99.4900429454
 10
173.1703734072
 20
99.0077668634
 10
172.9080510372
 20
98.7032728103
  0
ARC
  5
2E7
330
1F
100
AcDbEntity
  8
0
  6
Continuous
 62
     8
370
    30
100
AcDbCircle
 10
176.6385293433
 20
96.1150428858
 30
0.0
 40
4.5
100
AcDbArc
 50
113.4921871567
 51
131.4096221093
  0
ARC
  5
2E8
330
1F
100
AcDbEntity
  8
0
  6
Continuous
 62
     8
370
    30
100
AcDbCircle
 10
179.2842806543
 20
96.1150428858
 30
0.0
 40
4.5
100
AcDbArc
 50
48.5903778907
 51
66.5078128433
  0
LINE
  5
2E9
330
1F
100
AcDbEntity
  8
0
  6
Continuous
 62
     8
370
    30
100
AcDbLine
 10
176.6385293845
 20
100.9673924949
 30
0.0
 11
176.6385293845
 21
101.1150443759
 31
0.0
  0
LINE
  5
2EA
330
1F
100
AcDbEntity
  8
0
  6
Continuous
 62
     8
370
    30
100
AcDbLine
 10
179.2842806131
 20
100.9673924949
 30
0.0
 11
179.2842806131
 21
101.1150443759
 31
0.0
  0
DIMENSION
  5
2EB
330
1F
100
AcDbEntity
  8
SLD-0
 62
     7
100
AcDbDimension
  2
_D_4
 10
165.2114049988
 20
71.4236999347
 30
0.0
 11
135.608756669
 21
109.2890041781
 31
0.0
 70
   163
  1
ACCEPTS\P%%c1" OPTICS
 71
     1
 42
-1.0
  3
SLDDIMSTYLE1
100
AcDbDiametricDimension
 15
151.7114049988
 25
94.8063858369
 35
0.0
 40
0.0
  0
INSERT
  5
301
330
1F
100
AcDbEntity
  8
SLD-0
100
AcDbBlockReference
  2
SW_CENTERMARKSYMBOL_1
 10
158.4614049988
 20
83.1150428858
 30
0.0
  0
ARC
  5
302
330
1F
100
AcDbEntity
  8
0
  6
Continuous
 62
     7
370
    30
100
AcDbCircle
 10
112.489084381
 20
94.6152494818
 30
0.0
 40
2.000000000000011
100
AcDbArc
 50
274.9013936643
 51
300.0806612342
  0
ARC
  5
303
330
1F
100
AcDbEntity
  8
0
  6
Continuous
 62
     7
370
    30
100
AcDbCircle
 10
112.489084381
 20
94.6152494818
 30
0.0
 40
1.999999999999997
100
AcDbArc
 50
59.9193387658
 51
85.0986063357
  0
ARC
  5
304
330
1F
100
AcDbEntity
  8
0
  6
Continuous
 62
     7
370
    30
100
AcDbCircle
 10
112.489084381
 20
63.6148779338
 30
0.0
 40
2.000000000000011
100
AcDbArc
 50
274.9013936643
 51
300.0806612342
  0
ARC
  5
305
330
1F
100
AcDbEntity
  8
0
  6
Continuous
 62
     7
370
    30
100
AcDbCircle
 10
112.489084381
 20
63.6148779338
 30
0.0
 40
2.000000000000011
100
AcDbArc
 50
59.9193387658
 51
85.0986063357
  0
LINE
  5
306
330
1F
100
AcDbEntity
  8
0
  6
Continuous
 62
     7
370
    30
100
AcDbLine
 10
111.1599666643
 20
91.6150437501
 30
0.0
 11
112.6599669101
 21
92.5150422212
 31
0.0
  0
LINE
  5
307
330
1F
100
AcDbEntity
  8
0
  6
Continuous
 62
     7
370
    30
100
AcDbLine
 10
112.6599669101
 20
96.7150443998
 30
0.0
 11
111.1599666643
 21
97.6150447336
 31
0.0
  0
LINE
  5
308
330
1F
100
AcDbEntity
  8
0
  6
Continuous
 62
     7
370
    30
100
AcDbLine
 10
111.1599666643
 20
97.6150447336
 30
0.0
 11
109.4915218296
 21
97.6150447336
 31
0.0
  0
LINE
  5
309
330
1F
100
AcDbEntity
  8
0
  6
Continuous
 62
     7
370
    30
100
AcDbLine
 10
97.4915217253
 20
97.6150447336
 30
0.0
 11
88.6599667015
 21
97.6150447336
 31
0.0
  0
LINE
  5
30A
330
1F
100
AcDbEntity
  8
0
  6
Continuous
 62
     7
370
    30
100
AcDbLine
 10
88.6599667015
 20
91.6150437501
 30
0.0
 11
97.4915217253
 21
91.6150437501
 31
0.0
  0
LINE
  5
30B
330
1F
100
AcDbEntity
  8
0
  6
Continuous
 62
     7
370
    30
100
AcDbLine
 10
109.4915218296
 20
91.6150437501
 30
0.0
 11
111.1599666643
 21
91.6150437501
 31
0.0
  0
LINE
  5
30C
330
1F
100
AcDbEntity
  8
0
  6
Continuous
 62
     7
370
    30
100
AcDbLine
 10
111.1599666643
 20
60.6150428597
 30
0.0
 11
112.6599669101
 21
61.5150429607
 31
0.0
  0
LINE
  5
30D
330
1F
100
AcDbEntity
  8
0
  6
Continuous
 62
     7
370
    30
100
AcDbLine
 10
112.6599669101
 20
65.7150428109
 30
0.0
 11
111.1599666643
 21
66.6150429119
 31
0.0
  0
LINE
  5
30E
330
1F
100
AcDbEntity
  8
0
  6
Continuous
 62
     7
370
    30
100
AcDbLine
 10
111.1599666643
 20
66.6150429119
 30
0.0
 11
109.4915218296
 21
66.6150429119
 31
0.0
  0
LINE
  5
30F
330
1F
100
AcDbEntity
  8
0
  6
Continuous
 62
     7
370
    30
100
AcDbLine
 10
97.4915217253
 20
66.6150429119
 30
0.0
 11
88.6599667015
 21
66.6150429119
 31
0.0
  0
LINE
  5
310
330
1F
100
AcDbEntity
  8
0
  6
Continuous
 62
     7
370
    30
100
AcDbLine
 10
88.6599667015
 20
60.6150428597
 30
0.0
 11
97.4915217253
 21
60.6150428597
 31
0.0
  0
LINE
  5
311
330
1F
100
AcDbEntity
  8
0
  6
Continuous
 62
     7
370
    30
100
AcDbLine
 10
109.4915218296
 20
60.6150428597
 30
0.0
 11
111.1599666643
 21
60.6150428597
 31
0.0
  0
SPLINE
  5
312
330
1F
100
AcDbEntity
  8
0
  6
Continuous
 62
     7
370
    30
100
AcDbSpline
210
0.0
220
0.0
230
1.0
 70
     8
 71
     3
 72
    12
 73
     8
 74
     0
 42
0.000000001
 43
0.00000001
 40
0.0
 40
0.0
 40
0.0
 40
0.0
 40
0.2444275763606535
 40
0.4698166787932889
 40
0.6725092386296584
 40
0.8504718250194498
 40
0.9999999999999999
 40
0.9999999999999999
 40
0.9999999999999999
 40
0.9999999999999999
 10
109.6064991893732
 20
74.61504282620696
 30
0.0
 10
109.5974373203353
 20
74.45629785320871
 30
0.0
 10
109.58001941161
 20
74.15117255965701
 30
0.0
 10
109.5536675753512
 20
73.72858388810562
 30
0.0
 10
109.5298841932272
 20
73.369666126715
 30
0.0
 10
109.5092919110836
 20
73.07660981802354
 30
0.0
 10
109.497092107112
 20
72.91524516520522
 30
0.0
 10
109.4915218296014
 20
72.84156808820515
 30
0.0
  0
SPLINE
  5
313
330
1F
100
AcDbEntity
  8
0
  6
Continuous
 62
     7
370
    30
100
AcDbSpline
210
0.0
220
0.0
230
1.0
 70
     8
 71
     3
 72
    15
 73
    11
 74
     0
 42
0.000000001
 43
0.00000001
 40
0.0
 40
0.0
 40
0.0
 40
0.0
 40
0.0160493505047986
 40
0.2233875320139369
 40
0.4115315838323631
 40
0.6186223178764135
 40
0.7748679530430828
 40
0.8841374670079908
 40
0.9648075764641031
 40
0.9999999999999999
 40
0.9999999999999999
 40
0.9999999999999999
 40
0.9999999999999999
 10
109.7568928840124
 20
76.80701947030573
 30
0.0
 10
109.7563287255273
 20
76.81375423829931
 30
0.0
 10
109.7484763223035
 20
76.90749405663807
 30
0.0
 10
109.7326082519481
 20
77.03258427623516
 30
0.0
 10
109.7077249250234
 20
77.21002418450054
 30
0.0
 10
109.6807284553273
 20
77.3405667435058
 30
0.0
 10
109.6483471079403
 20
77.44234720214583
 30
0.0
 10
109.6100495806871
 20
77.5170918590841
 30
0.0
 10
109.5536737603205
 20
77.59622056384188
 30
0.0
 10
109.5060018382004
 20
77.62564857291007
 30
0.0
 10
109.4915218296014
 20
77.6345871221736
 30
0.0
  0
LWPOLYLINE
  5
314
330
1F
100
AcDbEntity
  8
0
  6
Continuous
 62
     7
370
    30
100
AcDbPolyline
 90
       32
 70
   128
 43
0.0
 10
111.069616733
 20
72.315097956
 10
111.0597945394
 20
72.3991982472
 10
111.0405068489
 20
72.6003276017
 10
111.0048139113
 20
73.063682003
 10
110.9700667317
 20
73.5675033015
 10
110.9389810468
 20
74.0584071558
 10
110.9105547535
 20
74.5428820905
 10
110.8835645596
 20
75.0134505164
 10
110.8551228995
 20
75.4772556779
 10
110.8261629584
 20
75.9176287633
 10
110.7937776128
 20
76.3705123049
 10
110.7551966439
 20
76.8270904031
 10
110.7315708528
 20
77.0373867657
 10
110.7078216615
 20
77.1992720496
 10
110.6759299169
 20
77.3500820455
 10
110.6412563118
 20
77.4525144902
 10
110.5980988237
 20
77.5317886677
 10
110.5332405882
 20
77.6067294013
 10
110.4278097505
 20
77.6771299374
 10
110.294775443
 20
77.7131842282
 10
110.1455011981
 20
77.6995114815
 10
110.0086577813
 20
77.6299444791
 10
109.9159031751
 20
77.5291716513
 10
109.8280124011
 20
77.3183211517
 10
109.8048159497
 20
77.2016124633
 10
109.7781661543
 20
77.0132776183
 10
109.7455586883
 20
76.6971327197
 10
109.7180502134
 20
76.3530658391
 10
109.6848886105
 20
75.8878711444
 10
109.6466811019
 20
75.298197737
 10
109.6064991894
 20
74.6150428262
 10
109.6064991894
 20
74.6150428262
  0
SPLINE
  5
315
330
1F
100
AcDbEntity
  8
0
  6
Continuous
 62
     7
370
    30
100
AcDbSpline
210
0.0
220
0.0
230
1.0
 70
     8
 71
     3
 72
    13
 73
     9
 74
     0
 42
0.000000001
 43
0.00000001
 40
0.0
 40
0.0
 40
0.0
 40
0.0
 40
0.106946667512046
 40
0.2508159755535501
 40
0.3773784400395573
 40
0.6342527614084417
 40
0.8955318454271738
 40
1.0
 40
1.0
 40
1.0
 40
1.0
 10
109.4915218296014
 20
75.97697077509908
 30
0.0
 10
109.4959222030839
 20
76.0400586146528
 30
0.0
 10
109.5062421503386
 20
76.18801495954267
 30
0.0
 10
109.5212254802227
 20
76.38708373757278
 30
0.0
 10
109.5414854142312
 20
76.64339831629528
 30
0.0
 10
109.5641939656437
 20
76.88993781319539
 30
0.0
 10
109.5938559596207
 20
77.07606301649489
 30
0.0
 10
109.5941834396497
 20
77.09421867729765
 30
0.0
 10
109.5942769775652
 20
77.09940446731596
 30
0.0
  0
SPLINE
  5
316
330
1F
100
AcDbEntity
  8
0
  6
Continuous
 62
     7
370
    30
100
AcDbSpline
210
0.0
220
0.0
230
1.0
 70
     8
 71
     3
 72
    29
 73
    25
 74
     0
 42
0.000000001
 43
0.00000001
 40
0.0
 40
0.0
 40
0.0
 40
0.0
 40
0.0165834050741091
 40
0.0356583434094792
 40
0.0559566596615978
 40
0.0807145142817581
 40
0.1078938225346346
 40
0.1588565628544881
 40
0.1932480051584156
 40
0.2411147821213165
 40
0.3038523414876648
 40
0.3599594956215522
 40
0.4257689708646037
 40
0.500742201281649
 40
0.5827252316169531
 40
0.6394731433166817
 40
0.6918009578512252
 40
0.7388593939698015
 40
0.7801763537166938
 40
0.8155895560288197
 40
0.8467427033981887
 40
0.9099719050537576
 40
0.9742853319613795
 40
1.0
 40
1.0
 40
1.0
 40
1.0
 10
109.4915218296014
 20
71.61550054517535
 30
0.0
 10
109.5211661016688
 20
71.59280117513335
 30
0.0
 10
109.5849084771809
 20
71.54399202354355
 30
0.0
 10
109.7192833912394
 20
71.50769018437185
 30
0.0
 10
109.8863173053331
 20
71.52450103316808
 30
0.0
 10
110.0175463622501
 20
71.60064354009288
 30
0.0
 10
110.1276972025301
 20
71.72698349584894
 30
0.0
 10
110.1869433152224
 20
71.9024418214712
 30
0.0
 10
110.2103127072388
 20
72.03785123470281
 30
0.0
 10
110.2381030426018
 20
72.22877828404951
 30
0.0
 10
110.2666668838598
 20
72.5095527720029
 30
0.0
 10
110.2962774166337
 20
72.88875284874725
 30
0.0
 10
110.3295744776918
 20
73.35554018167346
 30
0.0
 10
110.3678634823173
 20
73.94450020564136
 30
0.0
 10
110.4025582067418
 20
74.54483285820478
 30
0.0
 10
110.4329617224925
 20
75.07886920463072
 30
0.0
 10
110.4593313246461
 20
75.50139402532602
 30
0.0
 10
110.4831251862521
 20
75.86081546505913
 30
0.0
 10
110.5037871459631
 20
76.15391857402138
 30
0.0
 10
110.5212334518703
 20
76.38749995908613
 30
0.0
 10
110.5414812410161
 20
76.64316641987459
 30
0.0
 10
110.5641955563437
 20
76.89002045032309
 30
0.0
 10
110.5938563332591
 20
77.07605588169777
 30
0.0
 10
110.5941832879534
 20
77.09421709220187
 30
0.0
 10
110.5942766758167
 20
77.09940446731596
 30
0.0
  0
SPLINE
  5
317
330
1F
100
AcDbEntity
  8
0
  6
Continuous
 62
     7
370
    30
100
AcDbSpline
210
0.0
220
0.0
230
1.0
 70
     8
 71
     3
 72
    15
 73
    11
 74
     0
 42
0.000000001
 43
0.00000001
 40
0.0
 40
0.0
 40
0.0
 40
0.0
 40
0.0163204682577073
 40
0.2271613709369912
 40
0.4184839021621338
 40
0.6290731770586085
 40
0.7879583882554024
 40
0.899073875002702
 40
0.9811066833361375
 40
1.0
 40
1.0
 40
1.0
 40
1.0
 10
110.2561055327319
 20
72.42306618210822
 30
0.0
 10
110.2566695207372
 20
72.41633140844628
 30
0.0
 10
110.2645195582753
 20
72.32259142538717
 30
0.0
 10
110.2803996125903
 20
72.19750704880781
 30
0.0
 10
110.3052424385067
 20
72.02004270348662
 30
0.0
 10
110.3323852045936
 20
71.88958862121666
 30
0.0
 10
110.3643764926607
 20
71.78757220254288
 30
0.0
 10
110.4035689893012
 20
71.71336898501227
 30
0.0
 10
110.4540213096166
 20
71.63901268839378
 30
0.0
 10
110.4942513350558
 20
71.61343662954279
 30
0.0
 10
110.5017823743188
 20
71.60864880499392
 30
0.0
  0
LINE
  5
318
330
1F
100
AcDbEntity
  8
0
  6
Continuous
 62
     7
370
    30
100
AcDbLine
 10
113.1564987468
 20
76.6677671876
 30
0.0
 11
113.4915215539
 21
76.6408705917
 31
0.0
  0
LINE
  5
319
330
1F
100
AcDbEntity
  8
0
  6
Continuous
 62
     7
370
    30
100
AcDbLine
 10
113.4915215539
 20
77.4483496156
 30
0.0
 11
113.1564987468
 21
77.46776676
 31
0.0
  0
LINE
  5
31A
330
1F
100
AcDbEntity
  8
0
  6
Continuous
 62
     7
370
    30
100
AcDbLine
 10
113.4915215539
 20
72.3419936207
 30
0.0
 11
113.1564987468
 21
72.315097956
 31
0.0
  0
LINE
  5
31B
330
1F
100
AcDbEntity
  8
0
  6
Continuous
 62
     7
370
    30
100
AcDbLine
 10
113.1564987468
 20
71.5150974524
 30
0.0
 11
113.4915215539
 21
71.5345145967
 31
0.0
  0
LINE
  5
31C
330
1F
100
AcDbEntity
  8
0
  6
Continuous
 62
     7
370
    30
100
AcDbLine
 10
111.2836081179
 20
76.6677671876
 30
0.0
 11
113.1564987468
 21
76.6677671876
 31
0.0
  0
LINE
  5
31D
330
1F
100
AcDbEntity
  8
0
  6
Continuous
 62
     7
370
    30
100
AcDbLine
 10
113.1564987468
 20
77.46776676
 30
0.0
 11
111.2836081179
 21
77.46776676
 31
0.0
  0
LINE
  5
31E
330
1F
100
AcDbEntity
  8
0
  6
Continuous
 62
     7
370
    30
100
AcDbLine
 10
113.1564987468
 20
72.315097956
 30
0.0
 11
111.2564991804
 21
72.315097956
 31
0.0
  0
LINE
  5
31F
330
1F
100
AcDbEntity
  8
0
  6
Continuous
 62
     7
370
    30
100
AcDbLine
 10
111.2564991804
 20
71.5150974524
 30
0.0
 11
113.1564987468
 21
71.5150974524
 31
0.0
  0
LINE
  5
320
330
1F
100
AcDbEntity
  8
0
  6
Continuous
 62
     7
370
    30
100
AcDbLine
 10
110.7564990985
 20
71.5150974524
 30
0.0
 11
111.2564991804
 21
71.5150974524
 31
0.0
  0
LINE
  5
321
330
1F
100
AcDbEntity
  8
0
  6
Continuous
 62
     7
370
    30
100
AcDbLine
 10
111.2564991804
 20
72.315097956
 30
0.0
 11
110.7564990985
 21
72.315097956
 31
0.0
  0
SPLINE
  5
322
330
1F
100
AcDbEntity
  8
0
  6
Continuous
 62
     7
370
    30
100
AcDbSpline
210
0.0
220
0.0
230
1.0
 70
     8
 71
     3
 72
     9
 73
     5
 74
     0
 42
0.000000001
 43
0.00000001
 40
0.0
 40
0.0
 40
0.0
 40
0.0
 40
0.6487701964039394
 40
1.0
 40
1.0
 40
1.0
 40
1.0
 10
110.0064989755415
 20
66.71498825964478
 30
0.0
 10
109.9690482917876
 20
66.71177145149105
 30
0.0
 10
109.9113226379869
 20
66.7068131347071
 30
0.0
 10
109.8247704199431
 20
66.63889706108718
 30
0.0
 10
109.7943707013988
 20
66.61504291188865
 30
0.0
  0
SPLINE
  5
323
330
1F
100
AcDbEntity
  8
0
  6
Continuous
 62
     7
370
    30
100
AcDbSpline
210
0.0
220
0.0
230
1.0
 70
     8
 71
     3
 72
     9
 73
     5
 74
     0
 42
0.000000001
 43
0.00000001
 40
0.0
 40
0.0
 40
0.0
 40
0.0
 40
0.2708880588139196
 40
1.0
 40
1.0
 40
1.0
 40
1.0
 10
110.222686884787
 20
66.61504291188865
 30
0.0
 10
110.2045159271935
 20
66.63399256912714
 30
0.0
 10
110.1374367149423
 20
66.7039463992128
 30
0.0
 10
110.0617112883334
 20
66.71033225554112
 30
0.0
 10
110.0064989755415
 20
66.71498825964478
 30
0.0
  0
SPLINE
  5
324
330
1F
100
AcDbEntity
  8
0
  6
Continuous
 62
     7
370
    30
100
AcDbSpline
210
0.0
220
0.0
230
1.0
 70
     8
 71
     3
 72
    10
 73
     6
 74
     0
 42
0.000000001
 43
0.00000001
 40
0.0
 40
0.0
 40
0.0
 40
0.0
 40
0.4198732367529442
 40
0.8834552760523863
 40
1.0
 40
1.0
 40
1.0
 40
1.0
 10
109.4915218296014
 20
60.51785539095252
 30
0.0
 10
109.5358192482742
 20
60.5197310171849
 30
0.0
 10
109.629025446756
 20
60.52367752233422
 30
0.0
 10
109.7255292639849
 20
60.57102111078379
 30
0.0
 10
109.7618776115627
 20
60.60767855292216
 30
0.0
 10
109.7691798227393
 20
60.61504285973458
 30
0.0
  0
SPLINE
  5
325
330
1F
100
AcDbEntity
  8
0
  6
Continuous
 62
     7
370
    30
100
AcDbSpline
210
0.0
220
0.0
230
1.0
 70
     8
 71
     3
 72
    13
 73
     9
 74
     0
 42
0.000000001
 43
0.00000001
 40
0.0
 40
0.0
 40
0.0
 40
0.0
 40
0.190133709978456
 40
0.3384690697348705
 40
0.4719353731007604
 40
0.7078221082519164
 40
0.9413029418399617
 40
0.9999999999999999
 40
0.9999999999999999
 40
0.9999999999999999
 40
0.9999999999999999
 10
110.2512701059245
 20
60.61504285973458
 30
0.0
 10
110.2713283545283
 20
60.59596415610106
 30
0.0
 10
110.307035314363
 20
60.56200094636137
 30
0.0
 10
110.390672832698
 20
60.52919451318655
 30
0.0
 10
110.4972044439299
 20
60.50914039567181
 30
0.0
 10
110.6244372312197
 20
60.52465527893345
 30
0.0
 10
110.7255248099643
 20
60.5708571290839
 30
0.0
 10
110.7618770131975
 20
60.60765113113576
 30
0.0
 10
110.769179986652
 20
60.61504285973458
 30
0.0
  0
ARC
  5
326
330
1F
100
AcDbEntity
  8
0
  6
Continuous
 62
     7
370
    30
100
AcDbCircle
 10
111.4915217774
 20
63.6150428858
 30
0.0
 40
4.000000000000023
100
AcDbArc
 50
60.0
 51
120.0
  0
ARC
  5
327
330
1F
100
AcDbEntity
  8
0
  6
Continuous
 62
     7
370
    30
100
AcDbCircle
 10
111.4915217774
 20
63.6150428858
 30
0.0
 40
4.000000000000013
100
AcDbArc
 50
240.0
 51
300.0
  0
ARC
  5
328
330
1F
100
AcDbEntity
  8
0
  6
Continuous
 62
     7
370
    30
100
AcDbCircle
 10
120.4915217774
 20
100.1150428858
 30
0.0
 40
1.0
100
AcDbArc
 50
0.0
 51
90.0
  0
LINE
  5
329
330
1F
100
AcDbEntity
  8
0
  6
Continuous
 62
     7
370
    30
100
AcDbLine
 10
115.9915219637
 20
101.1150443759
 30
0.0
 11
114.4915217178
 21
101.1150443759
 31
0.0
  0
LINE
  5
32A
330
1F
100
AcDbEntity
  8
0
  6
Continuous
 62
     7
370
    30
100
AcDbLine
 10
120.4915227013
 20
101.1150443759
 30
0.0
 11
119.991521688
 21
101.1150443759
 31
0.0
  0
ARC
  5
32B
330
1F
100
AcDbEntity
  8
0
  6
Continuous
 62
     7
370
    30
100
AcDbCircle
 10
114.4915217774
 20
100.1150428858
 30
0.0
 40
1.0
100
AcDbArc
 50
90.0
 51
180.0
  0
LINE
  5
32C
330
1F
100
AcDbEntity
  8
0
  6
Continuous
 62
     7
370
    30
100
AcDbLine
 10
114.4915217178
 20
57.6150428337
 30
0.0
 11
120.4915227013
 21
57.6150428337
 31
0.0
  0
ARC
  5
32D
330
1F
100
AcDbEntity
  8
0
  6
Continuous
 62
     7
370
    30
100
AcDbCircle
 10
120.4915217774
 20
58.6150428858
 30
0.0
 40
1.0
100
AcDbArc
 50
270.0
 51
0.0
  0
ARC
  5
32E
330
1F
100
AcDbEntity
  8
0
  6
Continuous
 62
     7
370
    30
100
AcDbCircle
 10
114.4915217774
 20
58.6150428858
 30
0.0
 40
0.9999999999999929
100
AcDbArc
 50
180.0
 51
270.0
  0
LINE
  5
32F
330
1F
100
AcDbEntity
  8
0
  6
Continuous
 62
     7
370
    30
100
AcDbLine
 10
111.1599666643
 20
97.6150447336
 30
0.0
 11
111.1599666643
 21
91.6150437501
 31
0.0
  0
LINE
  5
330
330
1F
100
AcDbEntity
  8
0
  6
Continuous
 62
     7
370
    30
100
AcDbLine
 10
112.6599669101
 20
96.7150443998
 30
0.0
 11
112.6599669101
 21
92.5150422212
 31
0.0
  0
LINE
  5
331
330
1F
100
AcDbEntity
  8
0
  6
Continuous
 62
     7
370
    30
100
AcDbLine
 10
88.6599667015
 20
97.6150447336
 30
0.0
 11
88.6599667015
 21
91.6150437501
 31
0.0
  0
LINE
  5
332
330
1F
100
AcDbEntity
  8
0
  6
Continuous
 62
     7
370
    30
100
AcDbLine
 10
111.1599666643
 20
62.6247976274
 30
0.0
 11
111.1599666643
 21
60.6150428597
 31
0.0
  0
LINE
  5
333
330
1F
100
AcDbEntity
  8
0
  6
Continuous
 62
     7
370
    30
100
AcDbLine
 10
111.1599666643
 20
66.6150429119
 30
0.0
 11
111.1599666643
 21
62.6247976274
 31
0.0
  0
LINE
  5
334
330
1F
100
AcDbEntity
  8
0
  6
Continuous
 62
     7
370
    30
100
AcDbLine
 10
112.6599669101
 20
62.9218712515
 30
0.0
 11
112.6599669101
 21
61.5150429607
 31
0.0
  0
LINE
  5
335
330
1F
100
AcDbEntity
  8
0
  6
Continuous
 62
     7
370
    30
100
AcDbLine
 10
112.6599669101
 20
65.7150428109
 30
0.0
 11
112.6599669101
 21
62.9218712515
 31
0.0
  0
LINE
  5
336
330
1F
100
AcDbEntity
  8
0
  6
Continuous
 62
     7
370
    30
100
AcDbLine
 10
88.6599667015
 20
62.6247976274
 30
0.0
 11
88.6599667015
 21
60.6150428597
 31
0.0
  0
LINE
  5
337
330
1F
100
AcDbEntity
  8
0
  6
Continuous
 62
     7
370
    30
100
AcDbLine
 10
88.6599667015
 20
66.6150429119
 30
0.0
 11
88.6599667015
 21
62.6247976274
 31
0.0
  0
LINE
  5
338
330
1F
100
AcDbEntity
  8
0
  6
Continuous
 62
     7
370
    30
100
AcDbLine
 10
111.2836081179
 20
76.6677671876
 30
0.0
 11
111.2836081179
 21
77.46776676
 31
0.0
  0
ARC
  5
339
330
1F
100
AcDbEntity
  8
0
  6
Continuous
 62
     7
370
    30
100
AcDbCircle
 10
110.7564991355
 20
71.9150976076
 30
0.0
 40
0.4000000000000199
100
AcDbArc
 50
90.0
 51
270.0
  0
LINE
  5
33A
330
1F
100
AcDbEntity
  8
0
  6
Continuous
 62
     7
370
    30
100
AcDbLine
 10
119.991521688
 20
101.1150443759
 30
0.0
 11
115.9915219637
 21
101.1150443759
 31
0.0
  0
LINE
  5
33B
330
1F
100
AcDbEntity
  8
0
  6
Continuous
 62
     7
370
    30
100
AcDbLine
 10
121.4915210026
 20
100.1150423494
 30
0.0
 11
121.4915210026
 21
74.4461251256
 31
0.0
  0
LWPOLYLINE
  5
33C
330
1F
100
AcDbEntity
  8
0
  6
Continuous
 62
     7
370
    30
100
AcDbPolyline
 90
        9
 70
   128
 43
0.0
 10
120.4915227013
 20
73.9361887631
 10
120.686612429
 20
73.9459872079
 10
120.8742050099
 20
73.9750053566
 10
121.0470920073
 20
74.0221284163
 10
121.1986293661
 20
74.0855458957
 10
121.3229907321
 20
74.1628195923
 10
121.4154021459
 20
74.2509804499
 10
121.4723078179
 20
74.3466412481
 10
121.4915210026
 20
74.4461251256
  0
LINE
  5
33D
330
1F
100
AcDbEntity
  8
0
  6
Continuous
 62
     7
370
    30
100
AcDbLine
 10
114.4915217178
 20
73.9361887631
 30
0.0
 11
120.4915227013
 21
73.9361887631
 31
0.0
  0
LINE
  5
33E
330
1F
100
AcDbEntity
  8
0
  6
Continuous
 62
     7
370
    30
100
AcDbLine
 10
113.4915215539
 20
74.4461251256
 30
0.0
 11
113.4915215539
 21
100.1150423494
 31
0.0
  0
LWPOLYLINE
  5
33F
330
1F
100
AcDbEntity
  8
0
  6
Continuous
 62
     7
370
    30
100
AcDbPolyline
 90
        9
 70
   128
 43
0.0
 10
113.4915215539
 20
74.4461251256
 10
113.5107366013
 20
74.3466412481
 10
113.5676422732
 20
74.2509804499
 10
113.6600518244
 20
74.1628195923
 10
113.7844150531
 20
74.0855458957
 10
113.9359514805
 20
74.0221284163
 10
114.108838478
 20
73.9750053566
 10
114.2964310589
 20
73.9459872079
 10
114.4915217178
 20
73.9361887631
  0
LINE
  5
340
330
1F
100
AcDbEntity
  8
0
  6
Continuous
 62
     7
370
    30
100
AcDbLine
 10
114.4915217178
 20
67.8540232424
 30
0.0
 11
120.4915227013
 21
67.8540232424
 31
0.0
  0
LINE
  5
341
330
1F
100
AcDbEntity
  8
0
  6
Continuous
 62
     7
370
    30
100
AcDbLine
 10
121.4915210026
 20
67.1475265939
 30
0.0
 11
121.4915210026
 21
58.6150429976
 31
0.0
  0
ARC
  5
342
330
1F
100
AcDbEntity
  8
0
  6
Continuous
 62
     7
370
    30
100
AcDbCircle
 10
120.6167392219
 20
66.9702954117
 30
0.0
 40
0.892554791461724
100
AcDbArc
 50
11.4531247936
 51
98.0646282154
  0
LINE
  5
343
330
1F
100
AcDbEntity
  8
0
  6
Continuous
 62
     7
370
    30
100
AcDbLine
 10
113.4915215539
 20
58.6150429976
 30
0.0
 11
113.4915215539
 21
67.1475265939
 31
0.0
  0
ARC
  5
344
330
1F
100
AcDbEntity
  8
0
  6
Continuous
 62
     7
370
    30
100
AcDbCircle
 10
114.3663064062
 20
66.9702913942
 30
0.0
 40
0.892558599691892
100
AcDbArc
 50
81.935484806
 51
168.5466615957
  0
LINE
  5
345
330
1F
100
AcDbEntity
  8
0
  6
Continuous
 62
     7
370
    30
100
AcDbLine
 10
120.4915227013
 20
67.8540232424
 30
0.0
 11
120.4915227013
 21
73.9361887631
 31
0.0
  0
LINE
  5
346
330
1F
100
AcDbEntity
  8
0
  6
Continuous
 62
     7
370
    30
100
AcDbLine
 10
121.4915210026
 20
74.4461251256
 30
0.0
 11
121.4915210026
 21
67.1475265939
 31
0.0
  0
LINE
  5
347
330
1F
100
AcDbEntity
  8
0
  6
Continuous
 62
     7
370
    30
100
AcDbLine
 10
114.4915217178
 20
73.9361887631
 30
0.0
 11
114.4915217178
 21
67.8540232424
 31
0.0
  0
LINE
  5
348
330
1F
100
AcDbEntity
  8
0
  6
Continuous
 62
     7
370
    30
100
AcDbLine
 10
113.4915215539
 20
67.1475265939
 30
0.0
 11
113.4915215539
 21
74.4461251256
 31
0.0
  0
LINE
  5
349
330
1F
100
AcDbEntity
  8
0
  6
Continuous
 62
     7
370
    30
100
AcDbLine
 10
109.4915218296
 20
64.9379185001
 30
0.0
 11
109.4915218296
 21
62.2921672715
 31
0.0
  0
LINE
  5
34A
330
1F
100
AcDbEntity
  8
0
  6
Continuous
 62
     7
370
    30
100
AcDbLine
 10
109.4915218296
 20
62.2921672715
 30
0.0
 11
108.9915217476
 21
62.2921672715
 31
0.0
  0
LINE
  5
34B
330
1F
100
AcDbEntity
  8
0
  6
Continuous
 62
     7
370
    30
100
AcDbLine
 10
108.9915217476
 20
62.2921672715
 30
0.0
 11
108.9915217476
 21
64.9379185001
 31
0.0
  0
LINE
  5
34C
330
1F
100
AcDbEntity
  8
0
  6
Continuous
 62
     7
370
    30
100
AcDbLine
 10
109.4915218296
 20
64.9379185001
 30
0.0
 11
108.9915217476
 21
64.9379185001
 31
0.0
  0
LINE
  5
34D
330
1F
100
AcDbEntity
  8
0
  6
Continuous
 62
     7
370
    30
100
AcDbLine
 10
108.9915217476
 20
58.984978294
 30
0.0
 11
108.9915217476
 21
62.2921672715
 31
0.0
  0
LINE
  5
34E
330
1F
100
AcDbEntity
  8
0
  6
Continuous
 62
     7
370
    30
100
AcDbLine
 10
108.9915217476
 20
58.984978294
 30
0.0
 11
97.9915218072
 21
58.984978294
 31
0.0
  0
LINE
  5
34F
330
1F
100
AcDbEntity
  8
0
  6
Continuous
 62
     7
370
    30
100
AcDbLine
 10
97.9915218072
 20
62.2921672715
 30
0.0
 11
97.9915218072
 21
58.984978294
 31
0.0
  0
LINE
  5
350
330
1F
100
AcDbEntity
  8
0
  6
Continuous
 62
     7
370
    30
100
AcDbLine
 10
97.9915218072
 20
62.2921672715
 30
0.0
 11
108.9915217476
 21
62.2921672715
 31
0.0
  0
LINE
  5
351
330
1F
100
AcDbEntity
  8
0
  6
Continuous
 62
     7
370
    30
100
AcDbLine
 10
109.4915218296
 20
67.9143887777
 30
0.0
 11
109.4915218296
 21
64.9379185001
 31
0.0
  0
LINE
  5
352
330
1F
100
AcDbEntity
  8
0
  6
Continuous
 62
     7
370
    30
100
AcDbLine
 10
108.9915217476
 20
64.9379185001
 30
0.0
 11
108.9915217476
 21
68.2451074776
 31
0.0
  0
LWPOLYLINE
  5
353
330
1F
100
AcDbEntity
  8
0
  6
Continuous
 62
     7
370
    30
100
AcDbPolyline
 90
        9
 70
   128
 43
0.0
 10
109.4915218296
 20
67.9143887777
 10
109.4819143059
 20
67.9789089431
 10
109.4534614699
 20
68.040949462
 10
109.4072566944
 20
68.0981261489
 10
109.34507508
 20
68.1482424792
 10
109.2693068663
 20
68.1893715468
 10
109.1828633676
 20
68.2199333627
 10
109.0890670771
 20
68.2387530637
 10
108.9915217476
 20
68.2451074776
  0
LINE
  5
354
330
1F
100
AcDbEntity
  8
0
  6
Continuous
 62
     7
370
    30
100
AcDbLine
 10
109.4915218296
 20
62.2921672715
 30
0.0
 11
109.4915218296
 21
59.3156969939
 31
0.0
  0
LWPOLYLINE
  5
355
330
1F
100
AcDbEntity
  8
0
  6
Continuous
 62
     7
370
    30
100
AcDbPolyline
 90
        9
 70
   128
 43
0.0
 10
109.4915218296
 20
59.3156969939
 10
109.4819143059
 20
59.2511768286
 10
109.4534614699
 20
59.1891363096
 10
109.4072566944
 20
59.1319596228
 10
109.34507508
 20
59.0818432924
 10
109.2693068663
 20
59.0407142248
 10
109.1828633676
 20
59.0101524089
 10
109.0890670771
 20
58.991332708
 10
108.9915217476
 20
58.984978294
  0
LINE
  5
356
330
1F
100
AcDbEntity
  8
0
  6
Continuous
 62
     7
370
    30
100
AcDbLine
 10
97.9915218072
 20
64.9379185001
 30
0.0
 11
97.9915218072
 21
62.2921672715
 31
0.0
  0
LINE
  5
357
330
1F
100
AcDbEntity
  8
0
  6
Continuous
 62
     7
370
    30
100
AcDbLine
 10
108.9915217476
 20
64.9379185001
 30
0.0
 11
97.9915218072
 21
64.9379185001
 31
0.0
  0
LINE
  5
358
330
1F
100
AcDbEntity
  8
0
  6
Continuous
 62
     7
370
    30
100
AcDbLine
 10
97.9915218072
 20
68.2451074776
 30
0.0
 11
97.9915218072
 21
64.9379185001
 31
0.0
  0
LINE
  5
359
330
1F
100
AcDbEntity
  8
0
  6
Continuous
 62
     7
370
    30
100
AcDbLine
 10
97.9915218072
 20
68.2451074776
 30
0.0
 11
108.9915217476
 21
68.2451074776
 31
0.0
  0
LINE
  5
35A
330
1F
100
AcDbEntity
  8
0
  6
Continuous
 62
     7
370
    30
100
AcDbLine
 10
97.4915217253
 20
59.3156969939
 30
0.0
 11
97.4915217253
 21
62.2921672715
 31
0.0
  0
LINE
  5
35B
330
1F
100
AcDbEntity
  8
0
  6
Continuous
 62
     7
370
    30
100
AcDbLine
 10
97.4915217253
 20
62.2921672715
 30
0.0
 11
97.9915218072
 21
62.2921672715
 31
0.0
  0
LWPOLYLINE
  5
35C
330
1F
100
AcDbEntity
  8
0
  6
Continuous
 62
     7
370
    30
100
AcDbPolyline
 90
        9
 70
   128
 43
0.0
 10
97.9915218072
 20
58.984978294
 10
97.8939764778
 20
58.991332708
 10
97.8001801873
 20
59.0101524089
 10
97.7137366886
 20
59.0407142248
 10
97.6379684749
 20
59.0818432924
 10
97.5757868605
 20
59.1319596228
 10
97.529582085
 20
59.1891363096
 10
97.501129249
 20
59.2511768286
 10
97.4915217253
 20
59.3156969939
  0
LINE
  5
35D
330
1F
100
AcDbEntity
  8
0
  6
Continuous
 62
     7
370
    30
100
AcDbLine
 10
97.4915217253
 20
62.2921672715
 30
0.0
 11
97.4915217253
 21
64.9379185001
 31
0.0
  0
LINE
  5
35E
330
1F
100
AcDbEntity
  8
0
  6
Continuous
 62
     7
370
    30
100
AcDbLine
 10
97.4915217253
 20
64.9379185001
 30
0.0
 11
97.9915218072
 21
64.9379185001
 31
0.0
  0
LINE
  5
35F
330
1F
100
AcDbEntity
  8
0
  6
Continuous
 62
     7
370
    30
100
AcDbLine
 10
97.4915217253
 20
64.9379185001
 30
0.0
 11
97.4915217253
 21
67.9143887777
 31
0.0
  0
LWPOLYLINE
  5
360
330
1F
100
AcDbEntity
  8
0
  6
Continuous
 62
     7
370
    30
100
AcDbPolyline
 90
        9
 70
   128
 43
0.0
 10
97.4915217253
 20
67.9143887777
 10
97.501129249
 20
67.9789089431
 10
97.529582085
 20
68.040949462
 10
97.5757868605
 20
68.0981261489
 10
97.6379684749
 20
68.1482424792
 10
97.7137366886
 20
68.1893715468
 10
97.8001801873
 20
68.2199333627
 10
97.8939764778
 20
68.2387530637
 10
97.9915218072
 20
68.2451074776
  0
LINE
  5
361
330
1F
100
AcDbEntity
  8
0
  6
Continuous
 62
     7
370
    30
100
AcDbLine
 10
108.9915217476
 20
68.2451074776
 30
0.0
 11
108.9915217476
 21
70.6150431019
 31
0.0
  0
ARC
  5
362
330
1F
100
AcDbEntity
  8
0
  6
Continuous
 62
     7
370
    30
100
AcDbCircle
 10
108.9915217774
 20
70.1150428858
 30
0.0
 40
0.5000000000000142
100
AcDbArc
 50
0.0
 51
90.0
  0
LINE
  5
363
330
1F
100
AcDbEntity
  8
0
  6
Continuous
 62
     7
370
    30
100
AcDbLine
 10
109.4915218296
 20
70.1150430199
 30
0.0
 11
109.4915218296
 21
67.9143887777
 31
0.0
  0
LINE
  5
364
330
1F
100
AcDbEntity
  8
0
  6
Continuous
 62
     7
370
    30
100
AcDbLine
 10
108.9915217476
 20
58.3650429566
 30
0.0
 11
108.9915217476
 21
58.984978294
 31
0.0
  0
LINE
  5
365
330
1F
100
AcDbEntity
  8
0
  6
Continuous
 62
     7
370
    30
100
AcDbLine
 10
97.9915218072
 20
58.3650429566
 30
0.0
 11
108.9915217476
 21
58.3650429566
 31
0.0
  0
LINE
  5
366
330
1F
100
AcDbEntity
  8
0
  6
Continuous
 62
     7
370
    30
100
AcDbLine
 10
97.9915218072
 20
58.984978294
 30
0.0
 11
97.9915218072
 21
58.3650429566
 31
0.0
  0
SPLINE
  5
367
330
1F
100
AcDbEntity
  8
0
  6
Continuous
 62
     7
370
    30
100
AcDbSpline
210
0.0
220
0.0
230
1.0
 70
     8
 71
     3
 72
    17
 73
    13
 74
     0
 42
0.000000001
 43
0.00000001
 40
0.0
 40
0.0
 40
0.0
 40
0.0
 40
0.1068952758817346
 40
0.2137752623242361
 40
0.3210872654348034
 40
0.4286953661164146
 40
0.535827933890033
 40
0.6424558715613896
 40
0.7493370106193598
 40
0.8568318678498051
 40
0.964348305714207
 40
1.0
 40
1.0
 40
1.0
 40
1.0
 10
104.2915217572377
 20
70.61504310187846
 30
0.0
 10
104.2827353136672
 20
70.6140107096874
 30
0.0
 10
104.2651636832683
 20
70.61194607297038
 30
0.0
 10
104.1282625463084
 20
70.59757242121003
 30
0.0
 10
103.9261862542278
 20
70.58148514302842
 30
0.0
 10
103.6729732764558
 20
70.56981406043289
 30
0.0
 10
103.4000723331259
 20
70.5680076969949
 30
0.0
 10
103.1381924848392
 20
70.57670264866533
 30
0.0
 10
102.9155659559882
 20
70.59211421642722
 30
0.0
 10
102.7577676664885
 20
70.6074690955022
 30
0.0
 10
102.6966547915223
 20
70.6144595630471
 30
0.0
 10
102.6925451737094
 20
70.61492676048368
 30
0.0
 10
102.6915217976571
 20
70.61504310187846
 30
0.0
  0
LINE
  5
368
330
1F
100
AcDbEntity
  8
0
  6
Continuous
 62
     7
370
    30
100
AcDbLine
 10
108.9915217476
 20
70.6150431019
 30
0.0
 11
104.2915217572
 21
70.6150431019
 31
0.0
  0
LINE
  5
369
330
1F
100
AcDbEntity
  8
0
  6
Continuous
 62
     7
370
    30
100
AcDbLine
 10
97.9915218072
 20
70.6150431019
 30
0.0
 11
97.9915218072
 21
68.2451074776
 31
0.0
  0
LINE
  5
36A
330
1F
100
AcDbEntity
  8
0
  6
Continuous
 62
     7
370
    30
100
AcDbLine
 10
102.6915217977
 20
70.6150431019
 30
0.0
 11
97.9915218072
 21
70.6150431019
 31
0.0
  0
ARC
  5
36B
330
1F
100
AcDbEntity
  8
0
  6
Continuous
 62
     7
370
    30
100
AcDbCircle
 10
109.0462091369
 20
58.8129599016
 30
0.0
 40
0.4512430610964751
100
AcDbArc
 50
263.0390552214
 51
350.7007059193
  0
LINE
  5
36C
330
1F
100
AcDbEntity
  8
0
  6
Continuous
 62
     7
370
    30
100
AcDbLine
 10
109.4915218296
 20
59.3156969939
 30
0.0
 11
109.4915218296
 21
58.7400427852
 31
0.0
  0
ARC
  5
36D
330
1F
100
AcDbEntity
  8
0
  6
Continuous
 62
     7
370
    30
100
AcDbCircle
 10
97.936834418
 20
58.8129599016
 30
0.0
 40
0.4512430610964925
100
AcDbArc
 50
189.2992940807
 51
276.9609447786
  0
LINE
  5
36E
330
1F
100
AcDbEntity
  8
0
  6
Continuous
 62
     7
370
    30
100
AcDbLine
 10
97.4915217253
 20
58.7400427852
 30
0.0
 11
97.4915217253
 21
59.3156969939
 31
0.0
  0
ARC
  5
36F
330
1F
100
AcDbEntity
  8
0
  6
Continuous
 62
     7
370
    30
100
AcDbCircle
 10
97.9915217774
 20
70.1150428858
 30
0.0
 40
0.5000000000000142
100
AcDbArc
 50
90.0
 51
180.0
  0
LINE
  5
370
330
1F
100
AcDbEntity
  8
0
  6
Continuous
 62
     7
370
    30
100
AcDbLine
 10
97.4915217253
 20
67.9143887777
 30
0.0
 11
97.4915217253
 21
70.1150430199
 31
0.0
  0
LINE
  5
371
330
1F
100
AcDbEntity
  8
0
  6
Continuous
 62
     7
370
    30
100
AcDbLine
 10
108.9915217476
 20
57.1150427517
 30
0.0
 11
108.9915217476
 21
58.3650429566
 31
0.0
  0
LINE
  5
372
330
1F
100
AcDbEntity
  8
0
  6
Continuous
 62
     7
370
    30
100
AcDbLine
 10
108.9915217476
 20
57.1150427517
 30
0.0
 11
97.9915218072
 21
57.1150427517
 31
0.0
  0
LINE
  5
373
330
1F
100
AcDbEntity
  8
0
  6
Continuous
 62
     7
370
    30
100
AcDbLine
 10
97.9915218072
 20
58.3650429566
 30
0.0
 11
97.9915218072
 21
57.1150427517
 31
0.0
  0
ARC
  5
374
330
1F
100
AcDbEntity
  8
0
  6
Continuous
 62
     7
370
    30
100
AcDbCircle
 10
108.9915217774
 20
57.6150428858
 30
0.0
 40
0.5000000000000071
100
AcDbArc
 50
270.0
 51
0.0
  0
LINE
  5
375
330
1F
100
AcDbEntity
  8
0
  6
Continuous
 62
     7
370
    30
100
AcDbLine
 10
109.4915218296
 20
58.7400427852
 30
0.0
 11
109.4915218296
 21
57.6150428337
 31
0.0
  0
ARC
  5
376
330
1F
100
AcDbEntity
  8
0
  6
Continuous
 62
     7
370
    30
100
AcDbCircle
 10
97.9915217774
 20
57.6150428858
 30
0.0
 40
0.5000000000000071
100
AcDbArc
 50
180.0
 51
270.0
  0
LINE
  5
377
330
1F
100
AcDbEntity
  8
0
  6
Continuous
 62
     7
370
    30
100
AcDbLine
 10
97.4915217253
 20
57.6150428337
 30
0.0
 11
97.4915217253
 21
58.7400427852
 31
0.0
  0
LINE
  5
378
330
1F
100
AcDbEntity
  8
0
  6
Continuous
 62
     7
370
    30
100
AcDbLine
 10
108.9915217476
 20
56.6150426697
 30
0.0
 11
108.9915217476
 21
57.1150427517
 31
0.0
  0
LINE
  5
379
330
1F
100
AcDbEntity
  8
0
  6
Continuous
 62
     7
370
    30
100
AcDbLine
 10
97.9915218072
 20
56.6150426697
 30
0.0
 11
108.9915217476
 21
56.6150426697
 31
0.0
  0
LINE
  5
37A
330
1F
100
AcDbEntity
  8
0
  6
Continuous
 62
     7
370
    30
100
AcDbLine
 10
97.9915218072
 20
57.1150427517
 30
0.0
 11
97.9915218072
 21
56.6150426697
 31
0.0
  0
SPLINE
  5
37B
330
1F
100
AcDbEntity
  8
0
  6
Continuous
 62
     7
370
    30
100
AcDbSpline
210
0.0
220
0.0
230
1.0
 70
     8
 71
     3
 72
    13
 73
     9
 74
     0
 42
0.000000001
 43
0.00000001
 40
0.0
 40
0.0
 40
0.0
 40
0.0
 40
0.2081244504546572
 40
0.4161640270011024
 40
0.6265976059411269
 40
0.842048858633767
 40
0.991248000742272
 40
0.9999999999999999
 40
0.9999999999999999
 40
0.9999999999999999
 40
0.9999999999999999
 10
108.9915217476451
 20
56.61504266974477
 30
0.0
 10
109.0467056394778
 20
56.62037755271888
 30
0.0
 10
109.1570509189515
 20
56.63104514308237
 30
0.0
 10
109.3042907255473
 20
56.71397867751269
 30
0.0
 10
109.4181764648527
 20
56.83666184257785
 30
0.0
 10
109.4787399455177
 20
56.97574175287562
 30
0.0
 10
109.4913293859619
 20
57.07206380093101
 30
0.0
 10
109.491511726213
 20
57.1127863350324
 30
0.0
 10
109.4915218296014
 20
57.11504275170117
 30
0.0
  0
LINE
  5
37C
330
1F
100
AcDbEntity
  8
0
  6
Continuous
 62
     7
370
    30
100
AcDbLine
 10
109.4915218296
 20
57.6150428337
 30
0.0
 11
109.4915218296
 21
57.1150427517
 31
0.0
  0
SPLINE
  5
37D
330
1F
100
AcDbEntity
  8
0
  6
Continuous
 62
     7
370
    30
100
AcDbSpline
210
0.0
220
0.0
230
1.0
 70
     8
 71
     3
 72
    13
 73
     9
 74
     0
 42
0.000000001
 43
0.00000001
 40
0.0
 40
0.0
 40
0.0
 40
0.0
 40
0.2081244504546572
 40
0.4161640270011024
 40
0.6265976059411269
 40
0.842048858633767
 40
0.991248000742272
 40
0.9999999999999999
 40
0.9999999999999999
 40
0.9999999999999999
 40
0.9999999999999999
 10
97.9915218072497
 20
56.61504266974477
 30
0.0
 10
97.93633791541693
 20
56.62037755271888
 30
0.0
 10
97.82599263594325
 20
56.63104514308237
 30
0.0
 10
97.67875282934746
 20
56.71397867751269
 30
0.0
 10
97.56486709004201
 20
56.83666184257785
 30
0.0
 10
97.50430360937702
 20
56.97574175287562
 30
0.0
 10
97.49171416893287
 20
57.07206380093101
 30
0.0
 10
97.4915318286818
 20
57.1127863350324
 30
0.0
 10
97.49152172529331
 20
57.11504275170117
 30
0.0
  0
LINE
  5
37E
330
1F
100
AcDbEntity
  8
0
  6
Continuous
 62
     7
370
    30
100
AcDbLine
 10
97.4915217253
 20
57.1150427517
 30
0.0
 11
97.4915217253
 21
57.6150428337
 31
0.0
  0
LINE
  5
37F
330
1F
100
AcDbEntity
  8
0
  6
Continuous
 62
     7
370
    30
100
AcDbLine
 10
108.9915217476
 20
70.6150431019
 30
0.0
 11
108.9915217476
 21
75.6150429901
 31
0.0
  0
LINE
  5
380
330
1F
100
AcDbEntity
  8
0
  6
Continuous
 62
     7
370
    30
100
AcDbLine
 10
109.4915218296
 20
75.6150429901
 30
0.0
 11
108.9915217476
 21
75.6150429901
 31
0.0
  0
LINE
  5
381
330
1F
100
AcDbEntity
  8
0
  6
Continuous
 62
     7
370
    30
100
AcDbLine
 10
109.4915218296
 20
75.6150429901
 30
0.0
 11
109.4915218296
 21
70.1150430199
 31
0.0
  0
LINE
  5
382
330
1F
100
AcDbEntity
  8
0
  6
Continuous
 62
     7
370
    30
100
AcDbLine
 10
97.9915218072
 20
75.6150429901
 30
0.0
 11
97.9915218072
 21
70.6150431019
 31
0.0
  0
LINE
  5
383
330
1F
100
AcDbEntity
  8
0
  6
Continuous
 62
     7
370
    30
100
AcDbLine
 10
108.9915217476
 20
75.6150429901
 30
0.0
 11
97.9915218072
 21
75.6150429901
 31
0.0
  0
LINE
  5
384
330
1F
100
AcDbEntity
  8
0
  6
Continuous
 62
     7
370
    30
100
AcDbLine
 10
97.4915217253
 20
75.6150429901
 30
0.0
 11
97.9915218072
 21
75.6150429901
 31
0.0
  0
LINE
  5
385
330
1F
100
AcDbEntity
  8
0
  6
Continuous
 62
     7
370
    30
100
AcDbLine
 10
97.4915217253
 20
70.1150430199
 30
0.0
 11
97.4915217253
 21
75.6150429901
 31
0.0
  0
LINE
  5
386
330
1F
100
AcDbEntity
  8
0
  6
Continuous
 62
     7
370
    30
100
AcDbLine
 10
108.9915217476
 20
75.6150429901
 30
0.0
 11
108.9915217476
 21
94.6150423792
 31
0.0
  0
LINE
  5
387
330
1F
100
AcDbEntity
  8
0
  6
Continuous
 62
     7
370
    30
100
AcDbLine
 10
109.4915218296
 20
94.6150423792
 30
0.0
 11
108.9915217476
 21
94.6150423792
 31
0.0
  0
LINE
  5
388
330
1F
100
AcDbEntity
  8
0
  6
Continuous
 62
     7
370
    30
100
AcDbLine
 10
109.4915218296
 20
94.6150423792
 30
0.0
 11
109.4915218296
 21
75.6150429901
 31
0.0
  0
LINE
  5
389
330
1F
100
AcDbEntity
  8
0
  6
Continuous
 62
     7
370
    30
100
AcDbLine
 10
108.9915217476
 20
94.6150423792
 30
0.0
 11
108.9915217476
 21
99.8650418427
 31
0.0
  0
ARC
  5
38A
330
1F
100
AcDbEntity
  8
0
  6
Continuous
 62
     7
370
    30
100
AcDbCircle
 10
109.0462123503
 20
99.4171290012
 30
0.0
 40
0.4512393772689713
100
AcDbArc
 50
9.2989625184
 51
96.9614129448
  0
LINE
  5
38B
330
1F
100
AcDbEntity
  8
0
  6
Continuous
 62
     7
370
    30
100
AcDbLine
 10
109.4915218296
 20
99.4900429454
 30
0.0
 11
109.4915218296
 21
94.6150423792
 31
0.0
  0
LINE
  5
38C
330
1F
100
AcDbEntity
  8
0
  6
Continuous
 62
     7
370
    30
100
AcDbLine
 10
108.9915217476
 20
94.6150423792
 30
0.0
 11
104.2915217572
 21
94.6150423792
 31
0.0
  0
SPLINE
  5
38D
330
1F
100
AcDbEntity
  8
0
  6
Continuous
 62
     7
370
    30
100
AcDbSpline
210
0.0
220
0.0
230
1.0
 70
     8
 71
     3
 72
    17
 73
    13
 74
     0
 42
0.000000001
 43
0.00000001
 40
0.0
 40
0.0
 40
0.0
 40
0.0
 40
0.1068952758817346
 40
0.2137752623242361
 40
0.3210872654348034
 40
0.4286953661164146
 40
0.535827933890033
 40
0.6424558715613896
 40
0.7493370106193598
 40
0.8568318678498051
 40
0.964348305714207
 40
1.0
 40
1.0
 40
1.0
 40
1.0
 10
102.6915217976571
 20
94.61504237917214
 30
0.0
 10
102.7003082412276
 20
94.70467463264231
 30
0.0
 10
102.7178798716264
 20
94.88392631930715
 30
0.0
 10
102.8547810085863
 20
95.12271594282967
 30
0.0
 10
103.056857300667
 20
95.30502396496921
 30
0.0
 10
103.3100702784389
 20
95.4099250981853
 30
0.0
 10
103.5829712217688
 20
95.42510170029351
 30
0.0
 10
103.8448510700555
 20
95.34961024963702
 30
0.0
 10
104.0674775989066
 20
95.19211024622807
 30
0.0
 10
104.2252758884062
 20
94.96956060849784
 30
0.0
 10
104.2863887633725
 20
94.76428201353063
 30
0.0
 10
104.2904983811854
 20
94.6447966067962
 30
0.0
 10
104.2915217572377
 20
94.61504237917214
 30
0.0
  0
LINE
  5
38E
330
1F
100
AcDbEntity
  8
0
  6
Continuous
 62
     7
370
    30
100
AcDbLine
 10
102.6915217977
 20
94.6150423792
 30
0.0
 11
97.9915218072
 21
94.6150423792
 31
0.0
  0
LINE
  5
38F
330
1F
100
AcDbEntity
  8
0
  6
Continuous
 62
     7
370
    30
100
AcDbLine
 10
97.9915218072
 20
99.8650418427
 30
0.0
 11
97.9915218072
 21
94.6150423792
 31
0.0
  0
LINE
  5
390
330
1F
100
AcDbEntity
  8
0
  6
Continuous
 62
     7
370
    30
100
AcDbLine
 10
108.9915217476
 20
99.8650418427
 30
0.0
 11
97.9915218072
 21
99.8650418427
 31
0.0
  0
ARC
  5
391
330
1F
100
AcDbEntity
  8
0
  6
Continuous
 62
     7
370
    30
100
AcDbCircle
 10
103.4915217774
 20
94.6150428858
 30
0.0
 40
0.7999999999999972
100
AcDbArc
 50
180.0
 51
0.0
  0
LINE
  5
392
330
1F
100
AcDbEntity
  8
0
  6
Continuous
 62
     7
370
    30
100
AcDbLine
 10
97.9915218072
 20
94.6150423792
 30
0.0
 11
97.9915218072
 21
75.6150429901
 31
0.0
  0
CIRCLE
  5
393
330
1F
100
AcDbEntity
  8
0
  6
Continuous
 62
     7
370
    30
100
AcDbCircle
 10
103.4915217774
 20
83.1150428858
 30
0.0
 40
4.5
  0
CIRCLE
  5
394
330
1F
100
AcDbEntity
  8
0
  6
Continuous
 62
     7
370
    30
100
AcDbCircle
 10
103.4915217774
 20
83.1150428858
 30
0.0
 40
4.000000000000014
  0
LINE
  5
395
330
1F
100
AcDbEntity
  8
0
  6
Continuous
 62
     7
370
    30
100
AcDbLine
 10
97.4915217253
 20
94.6150423792
 30
0.0
 11
97.9915218072
 21
94.6150423792
 31
0.0
  0
LINE
  5
396
330
1F
100
AcDbEntity
  8
0
  6
Continuous
 62
     7
370
    30
100
AcDbLine
 10
97.4915217253
 20
75.6150429901
 30
0.0
 11
97.4915217253
 21
94.6150423792
 31
0.0
  0
ARC
  5
397
330
1F
100
AcDbEntity
  8
0
  6
Continuous
 62
     7
370
    30
100
AcDbCircle
 10
97.9368312046
 20
99.4171290012
 30
0.0
 40
0.4512393772689713
100
AcDbArc
 50
83.0385870552
 51
170.7010374816
  0
LINE
  5
398
330
1F
100
AcDbEntity
  8
0
  6
Continuous
 62
     7
370
    30
100
AcDbLine
 10
97.4915217253
 20
94.6150423792
 30
0.0
 11
97.4915217253
 21
99.4900429454
 31
0.0
  0
LINE
  5
399
330
1F
100
AcDbEntity
  8
0
  6
Continuous
 62
     7
370
    30
100
AcDbLine
 10
108.9915217476
 20
99.8650418427
 30
0.0
 11
108.9915217476
 21
101.1150443759
 31
0.0
  0
ARC
  5
39A
330
1F
100
AcDbEntity
  8
0
  6
Continuous
 62
     7
370
    30
100
AcDbCircle
 10
108.9915217774
 20
100.6150428858
 30
0.0
 40
0.4999999999999858
100
AcDbArc
 50
0.0
 51
90.0
  0
LINE
  5
39B
330
1F
100
AcDbEntity
  8
0
  6
Continuous
 62
     7
370
    30
100
AcDbLine
 10
109.4915218296
 20
100.6150433626
 30
0.0
 11
109.4915218296
 21
99.4900429454
 31
0.0
  0
LINE
  5
39C
330
1F
100
AcDbEntity
  8
0
  6
Continuous
 62
     7
370
    30
100
AcDbLine
 10
97.9915218072
 20
101.1150443759
 30
0.0
 11
97.9915218072
 21
99.8650418427
 31
0.0
  0
LINE
  5
39D
330
1F
100
AcDbEntity
  8
0
  6
Continuous
 62
     7
370
    30
100
AcDbLine
 10
97.9915218072
 20
101.1150443759
 30
0.0
 11
108.9915217476
 21
101.1150443759
 31
0.0
  0
ARC
  5
39E
330
1F
100
AcDbEntity
  8
0
  6
Continuous
 62
     7
370
    30
100
AcDbCircle
 10
97.9915217774
 20
100.6150428858
 30
0.0
 40
0.5
100
AcDbArc
 50
90.0
 51
180.0
  0
LINE
  5
39F
330
1F
100
AcDbEntity
  8
0
  6
Continuous
 62
     7
370
    30
100
AcDbLine
 10
97.4915217253
 20
99.4900429454
 30
0.0
 11
97.4915217253
 21
100.6150433626
 31
0.0
  0
CIRCLE
  5
3A0
330
1F
100
AcDbEntity
  8
0
  6
Continuous
 62
     7
370
    30
100
AcDbCircle
 10
103.4915217774
 20
83.1150428858
 30
0.0
 40
2.25
  0
LINE
  5
3A1
330
1F
100
AcDbEntity
  8
0
  6
Continuous
 62
     8
370
    30
100
AcDbLine
 10
113.1564987468
 20
76.6677671876
 30
0.0
 11
113.1564987468
 21
77.46776676
 31
0.0
  0
LINE
  5
3A2
330
1F
100
AcDbEntity
  8
0
  6
Continuous
 62
     8
370
    30
100
AcDbLine
 10
113.1564987468
 20
72.315097956
 30
0.0
 11
113.1564987468
 21
71.5150974524
 31
0.0
  0
LINE
  5
3A3
330
1F
100
AcDbEntity
  8
0
  6
Continuous
 62
     8
370
    30
100
AcDbLine
 10
111.2564991804
 20
72.315097956
 30
0.0
 11
111.2564991804
 21
71.5150974524
 31
0.0
  0
LINE
  5
3A4
330
1F
100
AcDbEntity
  8
0
  6
Continuous
 62
     8
370
    30
100
AcDbLine
 10
120.4915227013
 20
73.9361887631
 30
0.0
 11
120.4915227013
 21
101.1150443759
 31
0.0
  0
LINE
  5
3A5
330
1F
100
AcDbEntity
  8
0
  6
Continuous
 62
     8
370
    30
100
AcDbLine
 10
114.4915217178
 20
101.1150443759
 30
0.0
 11
114.4915217178
 21
73.9361887631
 31
0.0
  0
LINE
  5
3A6
330
1F
100
AcDbEntity
  8
0
  6
Continuous
 62
     8
370
    30
100
AcDbLine
 10
114.4915217178
 20
67.8540232424
 30
0.0
 11
114.4915217178
 21
57.6150428337
 31
0.0
  0
LINE
  5
3A7
330
1F
100
AcDbEntity
  8
0
  6
Continuous
 62
     8
370
    30
100
AcDbLine
 10
120.4915227013
 20
57.6150428337
 30
0.0
 11
120.4915227013
 21
67.8540232424
 31
0.0
  0
DIMENSION
  5
3A8
330
1F
100
AcDbEntity
  8
SLD-0
100
AcDbDimension
  2
_D_5
 10
103.4915217774
 20
50.0710664384
 30
0.0
 11
100.4915217774
 21
50.0710664384
 31
0.0
 70
   160
  1
<>
 71
     2
 42
-1.0
  3
SLDDIMSTYLE0
100
AcDbAlignedDimension
 13
97.4915217774
 23
58.3650428858
 33
0.0
 14
103.4915217774
 24
83.1150428858
 34
0.0
100
AcDbRotatedDimension
  0
DIMENSION
  5
3B2
330
1F
100
AcDbEntity
  8
SLD-0
100
AcDbDimension
  2
_D_6
 10
113.4915217774
 20
44.9483762191
 30
0.0
 11
117.4915217774
 21
44.9483762191
 31
0.0
 70
   160
  1
<>
 71
     2
 42
-1.0
  3
SLDDIMSTYLE0
100
AcDbAlignedDimension
 13
121.4915217774
 23
58.6150428858
 33
0.0
 14
113.4915217774
 24
59.6150428858
 34
0.0
100
AcDbRotatedDimension
  0
DIMENSION
  5
3BC
330
1F
100
AcDbEntity
  8
SLD-0
 62
     7
100
AcDbDimension
  2
_D_7
 10
104.0866791585
 20
79.1595672265
 30
0.0
 11
88.7502027626
 21
111.8429448607
 31
0.0
 70
   163
  1
2 HOLES,\P M4 (8-32) CLR
 71
     1
 42
-1.0
  3
SLDDIMSTYLE2
100
AcDbDiametricDimension
 15
102.8963643964
 25
87.0705185452
 35
0.0
 40
0.0
  0
DIMENSION
  5
3C6
330
1F
100
AcDbEntity
  8
SLD-0
 62
     7
100
AcDbDimension
  2
_D_8
 10
109.4915217774
 20
44.9483762191
 30
0.0
 11
103.4915217774
 21
44.9483762191
 31
0.0
 70
   160
  1
<>
 71
     2
 42
-1.0
  3
SLDDIMSTYLE0
100
AcDbAlignedDimension
 13
97.4915217774
 23
57.1150428858
 33
0.0
 14
109.4915217774
 24
57.1150428858
 34
0.0
 50
0.0
100
AcDbRotatedDimension
  0
DIMENSION
  5
3D0
330
1F
100
AcDbEntity
  8
SLD-0
 62
     7
100
AcDbDimension
  2
_D_9
 10
121.4915217774
 20
39.8661068945
 30
0.0
 11
109.4915217774
 21
39.8661068945
 31
0.0
 70
   160
  1
<>
 71
     2
 42
-1.0
  3
SLDDIMSTYLE0
100
AcDbAlignedDimension
 13
97.4915217774
 23
57.1150428858
 33
0.0
 14
121.4915217774
 24
58.6150428858
 34
0.0
 50
0.0
100
AcDbRotatedDimension
  0
DIMENSION
  5
3DA
330
1F
100
AcDbEntity
  8
SLD-0
 62
     7
100
AcDbDimension
  2
_D_10
 10
88.6599666974
 20
32.0031542208
 30
0.0
 11
105.0757442374
 21
32.0031542208
 31
0.0
 70
   160
  1
<>\PNOMINAL
 71
     2
 42
-1.0
  3
SLDDIMSTYLE3
100
AcDbAlignedDimension
 13
121.4915217774
 23
58.6150428858
 33
0.0
 14
88.6599666974
 24
60.6150428858
 34
0.0
 50
0.0
100
AcDbRotatedDimension
  0
INSERT
  5
3F1
330
1F
100
AcDbEntity
  8
SLD-0
100
AcDbBlockReference
  2
SW_CENTERMARKSYMBOL_2
 10
103.4915217774
 20
83.1150428858
 30
0.0
  0
LINE
  5
3F2
330
1F
100
AcDbEntity
  8
0
  6
Continuous
 62
     7
370
    30
100
AcDbLine
 10
209.4090722916
 20
147.8057683497
 30
0.0
 11
212.1338360491
 21
149.3787409852
 31
0.0
  0
LINE
  5
3F3
330
1F
100
AcDbEntity
  8
0
  6
Continuous
 62
     7
370
    30
100
AcDbLine
 10
209.6340392175
 20
153.7089852971
 30
0.0
 11
206.8014676873
 21
152.0737765591
 31
0.0
  0
LINE
  5
3F4
330
1F
100
AcDbEntity
  8
0
  6
Continuous
 62
     7
370
    30
100
AcDbLine
 10
197.3589276677
 20
146.622714235
 30
0.0
 11
197.0834444745
 21
146.4636811726
 31
0.0
  0
LINE
  5
3F5
330
1F
100
AcDbEntity
  8
0
  6
Continuous
 62
     7
370
    30
100
AcDbLine
 10
217.8535085133
 20
110.4961237535
 30
0.0
 11
218.12564968
 21
110.653227505
 31
0.0
  0
LINE
  5
3F6
330
1F
100
AcDbEntity
  8
0
  6
Continuous
 62
     7
370
    30
100
AcDbLine
 10
227.5667907346
 20
116.1034822239
 30
0.0
 11
230.4007612297
 21
117.7394985671
 31
0.0
  0
LINE
  5
3F7
330
1F
100
AcDbEntity
  8
0
  6
Continuous
 62
     7
370
    30
100
AcDbLine
 10
227.9009643981
 20
122.069742879
 30
0.0
 11
225.1793749108
 21
120.4986027106
 31
0.0
  0
LINE
  5
3F8
330
1F
100
AcDbEntity
  8
0
  6
Continuous
 62
     7
370
    30
100
AcDbLine
 10
216.5305055727
 20
122.4280019258
 30
0.0
 11
216.4977131349
 21
122.4469325972
 31
0.0
  0
LINE
  5
3F9
330
1F
100
AcDbEntity
  8
0
  6
Continuous
 62
     7
370
    30
100
AcDbLine
 10
214.8311819138
 20
119.560103056
 30
0.0
 11
214.8639743517
 21
119.5411723845
 31
0.0
  0
SPLINE
  5
3FA
330
1F
100
AcDbEntity
  8
0
  6
Continuous
 62
     7
370
    30
100
AcDbSpline
210
0.0
220
0.0
230
1.0
 70
     8
 71
     3
 72
    46
 73
    42
 74
     0
 42
0.000000001
 43
0.00000001
 40
0.0
 40
0.0
 40
0.0
 40
0.0
 40
0.0141503157367079
 40
0.0396178499844411
 40
0.06523571066604
 40
0.0910642428489611
 40
0.1170703001028363
 40
0.1432114215966742
 40
0.1694443820438474
 40
0.1957313492386034
 40
0.222042732221199
 40
0.2483538168563388
 40
0.2746515248346596
 40
0.3009296009928348
 40
0.327185512750087
 40
0.3534192525166517
 40
0.3796324587836103
 40
0.4058278058605106
 40
0.4320085982478399
 40
0.4581785117550424
 40
0.4843414353991852
 40
0.5105013797025996
 40
0.5366624261041028
 40
0.562827462500625
 40
0.5890005050854117
 40
0.6151857049671006
 40
0.6413871694205547
 40
0.6676088793576552
 40
0.6938545444735559
 40
0.7201273619613504
 40
0.7464296323046463
 40
0.7727621713212443
 40
0.7991234458832449
 40
0.825508362913422
 40
0.851906281492472
 40
0.8782928052221873
 40
0.9046386862957313
 40
0.9309049046795258
 40
0.9570446517555703
 40
0.983009052172518
 40
1.0
 40
1.0
 40
1.0
 40
1.0
 10
216.4432882637901
 20
116.9338082759459
 30
0.0
 10
216.5137810695921
 20
117.0339673772425
 30
0.0
 10
216.7111458109313
 20
117.3143913849874
 30
0.0
 10
216.9984675987334
 20
117.8144975994643
 30
0.0
 10
217.2908089331547
 20
118.4462055008461
 30
0.0
 10
217.5346295998831
 20
119.1250334855652
 30
0.0
 10
217.7295288944241
 20
119.8475270452816
 30
0.0
 10
217.8740933500355
 20
120.6102796469444
 30
0.0
 10
217.9676034065867
 20
121.4092149404802
 30
0.0
 10
218.0096776785298
 20
122.2401428135167
 30
0.0
 10
218.0003346923658
 20
123.0987360892497
 30
0.0
 10
217.9399192528743
 20
123.9806736303446
 30
0.0
 10
217.8290510737
 20
124.8816769723554
 30
0.0
 10
217.6685647029642
 20
125.797556589724
 30
0.0
 10
217.4594815910621
 20
126.7241520306783
 30
0.0
 10
217.2029979397119
 20
127.6573059803656
 30
0.0
 10
216.9004776309726
 20
128.5928611489372
 30
0.0
 10
216.5534480547984
 20
129.5266629644594
 30
0.0
 10
216.1635967287647
 20
130.4545672715492
 30
0.0
 10
215.7327673792583
 20
131.372451880875
 30
0.0
 10
215.262954777062
 20
132.2762307730385
 30
0.0
 10
214.7562980128666
 20
133.1618698972106
 30
0.0
 10
214.2150806529949
 20
134.0253900951534
 30
0.0
 10
213.6417155477515
 20
134.8628976219844
 30
0.0
 10
213.0387321373756
 20
135.6706025936727
 30
0.0
 10
212.4087529198113
 20
136.4448457021066
 30
0.0
 10
211.7544875438116
 20
137.1820986981569
 30
0.0
 10
211.0787204561481
 20
137.8789735414295
 30
0.0
 10
210.3842982768193
 20
138.532230203269
 30
0.0
 10
209.6741190835322
 20
139.1387812973409
 30
0.0
 10
208.9511253476326
 20
139.6956932625708
 30
0.0
 10
208.2183027488707
 20
140.2001847818838
 30
0.0
 10
207.4786882329774
 20
140.6496224753321
 30
0.0
 10
206.7353928349571
 20
141.0415198444851
 30
0.0
 10
205.9917031804403
 20
141.373504473036
 30
0.0
 10
205.2510787459743
 20
141.6434261513063
 30
0.0
 10
204.5172483010085
 20
141.8492662075588
 30
0.0
 10
203.7939976326707
 20
141.9898331639954
 30
0.0
 10
203.0858700025785
 20
142.0626990590094
 30
0.0
 10
202.4732018702724
 20
142.0713056399488
 30
0.0
 10
202.1025587554915
 20
142.0391084868519
 30
0.0
 10
201.9559512180546
 20
142.0263729330543
 30
0.0
  0
SPLINE
  5
3FB
330
1F
100
AcDbEntity
  8
0
  6
Continuous
 62
     7
370
    30
100
AcDbSpline
210
0.0
220
0.0
230
1.0
 70
     8
 71
     3
 72
    45
 73
    41
 74
     0
 42
0.000000001
 43
0.00000001
 40
0.0
 40
0.0
 40
0.0
 40
0.0
 40
0.01380059291279
 40
0.0410463038477526
 40
0.0681002090490867
 40
0.0949528261583384
 40
0.121663307550754
 40
0.1482855092812286
 40
0.1748608330084403
 40
0.2014179924457277
 40
0.2279728152983244
 40
0.2545355780936138
 40
0.2811132124749506
 40
0.3077086159377815
 40
0.3343220958364998
 40
0.3609523566409534
 40
0.3875971469513961
 40
0.4142536681074158
 40
0.440918821912626
 40
0.4675893531142403
 40
0.4942619254940077
 40
0.5209326948103714
 40
0.5475975922223096
 40
0.5742532071736577
 40
0.6008961586452298
 40
0.6275231669709782
 40
0.6541311904954644
 40
0.6807176650666661
 40
0.7072809012078776
 40
0.7338207152074216
 40
0.7603393937969126
 40
0.7868431078390417
 40
0.8133423250632553
 40
0.839851288486557
 40
0.8663975813422577
 40
0.8930213821838192
 40
0.9197757769113132
 40
0.9467216231787051
 40
0.9739121319828283
 40
1.0
 40
1.0
 40
1.0
 40
1.0
 10
198.8454359292437
 20
136.249813825268
 30
0.0
 10
198.9303632158079
 20
136.2640009645352
 30
0.0
 10
199.1829575232632
 20
136.3061969508071
 30
0.0
 10
199.6242812115717
 20
136.3307283577726
 30
0.0
 10
200.1752593161076
 20
136.3009768429209
 30
0.0
 10
200.7459258123307
 20
136.2086748699592
 30
0.0
 10
201.3322751837713
 20
136.0555495393388
 30
0.0
 10
201.9312695254497
 20
135.8421600059081
 30
0.0
 10
202.5395015247203
 20
135.5696122026046
 30
0.0
 10
203.1533766999574
 20
135.239239038199
 30
0.0
 10
203.7691100831632
 20
134.8527752897248
 30
0.0
 10
204.3828203693883
 20
134.4123437851478
 30
0.0
 10
204.9906035837936
 20
133.9204430310627
 30
0.0
 10
205.5885687749206
 20
133.379936363706
 30
0.0
 10
206.1728664195542
 20
132.7940434804198
 30
0.0
 10
206.7397297806202
 20
132.1663124391063
 30
0.0
 10
207.2855092879409
 20
131.5005893220259
 30
0.0
 10
207.8067016642373
 20
130.8009870107418
 30
0.0
 10
208.2999751740098
 20
130.0718539036474
 30
0.0
 10
208.7621920931215
 20
129.3177428247778
 30
0.0
 10
209.1904267057207
 20
128.5433846274035
 30
0.0
 10
209.5819845401255
 20
127.7536598738021
 30
0.0
 10
209.9344252866539
 20
126.953561386033
 30
0.0
 10
210.2455818591316
 20
126.1481573711845
 30
0.0
 10
210.5135763490173
 20
125.3425568513442
 30
0.0
 10
210.7368328507909
 20
124.5418831585851
 30
0.0
 10
210.9140929875269
 20
123.7512391626367
 30
0.0
 10
211.0444305993611
 20
122.9756699250373
 30
0.0
 10
211.1272648900245
 20
122.2201216186992
 30
0.0
 10
211.1623705064742
 20
121.4893954050242
 30
0.0
 10
211.1498820925689
 20
120.7880943723751
 30
0.0
 10
211.0902890737915
 20
120.1205769451771
 30
0.0
 10
210.9844255763951
 20
119.4909180567353
 30
0.0
 10
210.8334275517269
 20
118.9028163273027
 30
0.0
 10
210.63867905199
 20
118.3594631384629
 30
0.0
 10
210.4015642924381
 20
117.8636508975699
 30
0.0
 10
210.1236885241882
 20
117.4171467948522
 30
0.0
 10
209.8052401123665
 20
117.0233344983506
 30
0.0
 10
209.4564106679329
 20
116.6837735441253
 30
0.0
 10
209.1959628910253
 20
116.5061514600325
 30
0.0
 10
209.0684340953918
 20
116.4191784371439
 30
0.0
  0
SPLINE
  5
3FC
330
1F
100
AcDbEntity
  8
0
  6
Continuous
 62
     7
370
    30
100
AcDbSpline
210
0.0
220
0.0
230
1.0
 70
     8
 71
     3
 72
    40
 73
    36
 74
     0
 42
0.000000001
 43
0.00000001
 40
0.0
 40
0.0
 40
0.0
 40
0.0
 40
0.0117835466954126
 40
0.0442652571430194
 40
0.0763954334967777
 40
0.1082699845563692
 40
0.1399848462035886
 40
0.1716149029458477
 40
0.203211403118864
 40
0.2348027062115559
 40
0.266405402172298
 40
0.2980307169025242
 40
0.3296829121197328
 40
0.3613619544306036
 40
0.3930652695389297
 40
0.4247888430751136
 40
0.4565278827550036
 40
0.4882771971021582
 40
0.5200313974491099
 40
0.5517847595361053
 40
0.5835301380894923
 40
0.6152619687931947
 40
0.6469747264901913
 40
0.6786630529061349
 40
0.7103220141679292
 40
0.7419475714549262
 40
0.7735373886695339
 40
0.7976176941265537
 40
0.8141538022135245
 40
0.8456723529157218
 40
0.8771815546692198
 40
0.9087005591758642
 40
0.9402726032603376
 40
0.9719632275285898
 40
1.0
 40
1.0
 40
1.0
 40
1.0
 10
211.0253815046397
 20
119.786384974901
 30
0.0
 10
210.9693385965602
 20
119.7780371448312
 30
0.0
 10
210.7588116812514
 20
119.7466782633183
 30
0.0
 10
210.3647238090672
 20
119.7558138080912
 30
0.0
 10
209.848987532903
 20
119.8140980546476
 30
0.0
 10
209.3142254252405
 20
119.9374952593985
 30
0.0
 10
208.7662836906175
 20
120.1200571855887
 30
0.0
 10
208.2079999586309
 20
120.3621107886905
 30
0.0
 10
207.6433617322659
 20
120.6619488352316
 30
0.0
 10
207.0763801884188
 20
121.0178855488548
 30
0.0
 10
206.5112686704
 20
121.427646024558
 30
0.0
 10
205.9522637976469
 20
121.8885392132393
 30
0.0
 10
205.4035898565201
 20
122.397433772317
 30
0.0
 10
204.8694187981859
 20
122.95077810897
 30
0.0
 10
204.3538173128875
 20
123.5446348740558
 30
0.0
 10
203.8607022271106
 20
124.1747222996917
 30
0.0
 10
203.393803947385
 20
124.8364551529797
 30
0.0
 10
202.9566350636412
 20
125.5249856099916
 30
0.0
 10
202.5524636155242
 20
126.2352417110671
 30
0.0
 10
202.1842925766084
 20
126.9619564894572
 30
0.0
 10
201.8548269818487
 20
127.6997191213376
 30
0.0
 10
201.5664500970592
 20
128.4430180841399
 30
0.0
 10
201.321199178257
 20
129.1862939410274
 30
0.0
 10
201.1207503161025
 20
129.9239683567383
 30
0.0
 10
200.9663975915576
 20
130.6504935759298
 30
0.0
 10
200.8590332554182
 20
131.3603852561332
 30
0.0
 10
200.8038545531367
 20
131.9940807084316
 30
0.0
 10
200.7901132408633
 20
132.5004200615893
 30
0.0
 10
200.7995378249837
 20
132.9913325191406
 30
0.0
 10
200.8399913946319
 20
133.5119893499586
 30
0.0
 10
200.9341260344656
 20
134.0928778681489
 30
0.0
 10
201.0726838712061
 20
134.6323704203838
 30
0.0
 10
201.2552428879018
 20
135.125287610192
 30
0.0
 10
201.4668473144244
 20
135.5571515587865
 30
0.0
 10
201.6354277714217
 20
135.7973229972117
 30
0.0
 10
201.7145615052518
 20
135.9100624156499
 30
0.0
  0
SPLINE
  5
3FD
330
1F
100
AcDbEntity
  8
0
  6
Continuous
 62
     7
370
    30
100
AcDbSpline
210
0.0
220
0.0
230
1.0
 70
     8
 71
     3
 72
     9
 73
     5
 74
     0
 42
0.000000001
 43
0.00000001
 40
0.0
 40
0.0
 40
0.0
 40
0.0
 40
0.0432351556337981
 40
1.0
 40
1.0
 40
1.0
 40
1.0
 10
198.693054970838
 20
136.1909292817916
 30
0.0
 10
198.6948559213905
 20
136.1924609711624
 30
0.0
 10
198.7365106934415
 20
136.2278879136208
 30
0.0
 10
198.7921766750314
 20
136.2390930983983
 30
0.0
 10
198.8454359292437
 20
136.2498138252679
 30
0.0
  0
SPLINE
  5
3FE
330
1F
100
AcDbEntity
  8
0
  6
Continuous
 62
     7
370
    30
100
AcDbSpline
210
0.0
220
0.0
230
1.0
 70
     8
 71
     3
 72
    18
 73
    14
 74
     0
 42
0.000000001
 43
0.00000001
 40
0.0
 40
0.0
 40
0.0
 40
0.0
 40
0.0533530690800366
 40
0.1534027640155806
 40
0.2540629927069309
 40
0.3554002818061238
 40
0.4573164045818386
 40
0.5591983945554764
 40
0.6599530044057775
 40
0.7582848877088784
 40
0.8532917180785146
 40
0.9449835368999008
 40
1.0
 40
1.0
 40
1.0
 40
1.0
 10
208.8429048361875
 20
105.9632471501094
 30
0.0
 10
208.9121272423979
 20
105.8886126236465
 30
0.0
 10
209.1111581252988
 20
105.6740206077076
 30
0.0
 10
209.4587507176046
 20
105.3519228241334
 30
0.0
 10
209.88867899129
 20
105.0167639987093
 30
0.0
 10
210.3355290657721
 20
104.7353891641402
 30
0.0
 10
210.7941215639692
 20
104.5133107457391
 30
0.0
 10
211.2583411953391
 20
104.3570234700791
 30
0.0
 10
211.7194525006799
 20
104.272337838499
 30
0.0
 10
212.1676694782107
 20
104.261280408467
 30
0.0
 10
212.5900118914471
 20
104.3267531453647
 30
0.0
 10
212.9357885601312
 20
104.4355849252772
 30
0.0
 10
213.1230659322002
 20
104.5469495117269
 30
0.0
 10
213.1932960411959
 20
104.5887118824726
 30
0.0
  0
SPLINE
  5
3FF
330
1F
100
AcDbEntity
  8
0
  6
Continuous
 62
     7
370
    30
100
AcDbSpline
210
0.0
220
0.0
230
1.0
 70
     8
 71
     3
 72
    18
 73
    14
 74
     0
 42
0.000000001
 43
0.00000001
 40
0.0
 40
0.0
 40
0.0
 40
0.0
 40
0.055437725978829
 40
0.1435202559551834
 40
0.2317633194169377
 40
0.3215203320502653
 40
0.4137753179477412
 40
0.5089122660253934
 40
0.6066020590488562
 40
0.705991643811055
 40
0.8061414538469491
 40
0.9062581619518769
 40
1.0
 40
1.0
 40
1.0
 40
1.0
 10
189.6366066970663
 20
145.3820533929787
 30
0.0
 10
189.5649479770388
 20
145.341647505072
 30
0.0
 10
189.3794339131377
 20
145.2370425041982
 30
0.0
 10
189.1232822920364
 20
145.0028302875614
 30
0.0
 10
188.8703622226763
 20
144.6951792056912
 30
0.0
 10
188.6656242188322
 20
144.3394431896438
 30
0.0
 10
188.5082444521268
 20
143.9406760755169
 30
0.0
 10
188.4008173323287
 20
143.5001744441929
 30
0.0
 10
188.3457346984461
 20
143.0224168632715
 30
0.0
 10
188.3444328518934
 20
142.5141665200865
 30
0.0
 10
188.398102826823
 20
141.9843556968781
 30
0.0
 10
188.4988599024321
 20
141.452985745309
 30
0.0
 10
188.6044820884542
 20
141.0996266736275
 30
0.0
 10
188.6555565345019
 20
140.9287570909977
 30
0.0
  0
LINE
  5
400
330
1F
100
AcDbEntity
  8
0
  6
Continuous
 62
     7
370
    30
100
AcDbLine
 10
213.1883637604
 20
104.5761498132
 30
0.0
 11
216.7238976663
 21
106.6171700928
 31
0.0
  0
LINE
  5
401
330
1F
100
AcDbEntity
  8
0
  6
Continuous
 62
     7
370
    30
100
AcDbLine
 10
193.162750997
 20
147.4272114962
 30
0.0
 11
189.6272170911
 21
145.3861912167
 31
0.0
  0
SPLINE
  5
402
330
1F
100
AcDbEntity
  8
0
  6
Continuous
 62
     7
370
    30
100
AcDbSpline
210
0.0
220
0.0
230
1.0
 70
     8
 71
     3
 72
    11
 73
     7
 74
     0
 42
0.000000001
 43
0.00000001
 40
0.0
 40
0.0
 40
0.0
 40
0.0
 40
0.2240503212294185
 40
0.5561543179078471
 40
0.878449458729491
 40
0.9999999999999999
 40
0.9999999999999999
 40
0.9999999999999999
 40
0.9999999999999999
 10
197.2689770021626
 20
135.1914756925556
 30
0.0
 10
197.3275290804606
 20
135.1832655397701
 30
0.0
 10
197.4728713901224
 20
135.1628856898449
 30
0.0
 10
197.6991199070914
 20
135.1851353481269
 30
0.0
 10
197.8951400429956
 20
135.2390384848147
 30
0.0
 10
197.9881848203485
 20
135.3047978714404
 30
0.0
 10
198.0136658456371
 20
135.3228065833879
 30
0.0
  0
LINE
  5
403
330
1F
100
AcDbEntity
  8
0
  6
Continuous
 62
     7
370
    30
100
AcDbLine
 10
198.0004922739
 20
135.3055732009
 30
0.0
 11
199.7478726071
 21
136.3143143957
 31
0.0
  0
SPLINE
  5
404
330
1F
100
AcDbEntity
  8
0
  6
Continuous
 62
     7
370
    30
100
AcDbSpline
210
0.0
220
0.0
230
1.0
 70
     8
 71
     3
 72
    19
 73
    15
 74
     0
 42
0.000000001
 43
0.00000001
 40
0.0
 40
0.0
 40
0.0
 40
0.0
 40
0.0477221926328433
 40
0.1399324866342295
 40
0.232008108923167
 40
0.3237556726405628
 40
0.4150354961451211
 40
0.5057236669398044
 40
0.5957369765916731
 40
0.6850829406752798
 40
0.7739532310348304
 40
0.8627954367928313
 40
0.9524295914648736
 40
1.0
 40
1.0
 40
1.0
 40
1.0
 10
217.0311251745052
 20
112.5636831883544
 30
0.0
 10
216.9854296457443
 20
112.6449348650988
 30
0.0
 10
216.8514398054874
 20
112.8831835402489
 30
0.0
 10
216.6549886618343
 20
113.2900398297232
 30
0.0
 10
216.4580315285564
 20
113.7795627521986
 30
0.0
 10
216.3032732712797
 20
114.2658811465013
 30
0.0
 10
216.1921426852915
 20
114.7392952216412
 30
0.0
 10
216.125439169895
 20
115.1907344857487
 30
0.0
 10
216.1023671347376
 20
115.6113849329258
 30
0.0
 10
216.1206363278173
 20
115.9931119263133
 30
0.0
 10
216.1762351049738
 20
116.3292194819561
 30
0.0
 10
216.2638168457346
 20
116.6135937650359
 30
0.0
 10
216.3575479344933
 20
116.808805626066
 30
0.0
 10
216.4212143732944
 20
116.9016262814545
 30
0.0
 10
216.4432882637902
 20
116.9338082759459
 30
0.0
  0
SPLINE
  5
405
330
1F
100
AcDbEntity
  8
0
  6
Continuous
 62
     7
370
    30
100
AcDbSpline
210
0.0
220
0.0
230
1.0
 70
     8
 71
     3
 72
    19
 73
    15
 74
     0
 42
0.000000001
 43
0.00000001
 40
0.0
 40
0.0
 40
0.0
 40
0.0
 40
0.0458040963176529
 40
0.1333654470037172
 40
0.2264829657278572
 40
0.3170823531896521
 40
0.4069761314084225
 40
0.4969014052831913
 40
0.5872267039875133
 40
0.6780882969129141
 40
0.7694653525742379
 40
0.8612637502760594
 40
0.9533573884240806
 40
1.0
 40
1.0
 40
1.0
 40
1.0
 10
201.9559512180546
 20
142.0263729330543
 30
0.0
 10
201.9185361588849
 20
142.0234196880029
 30
0.0
 10
201.8095966427283
 20
142.0148208752755
 30
0.0
 10
201.5944520306682
 20
142.0300388626004
 30
0.0
 10
201.3006927955201
 20
142.096252118518
 30
0.0
 10
200.9736261718695
 20
142.2198682745048
 30
0.0
 10
200.6307468897158
 20
142.3978024423808
 30
0.0
 10
200.2777139536612
 20
142.6297183904431
 30
0.0
 10
199.9213362819046
 20
142.9135899094961
 30
0.0
 10
199.5686422399826
 20
143.2461097455938
 30
0.0
 10
199.2265038318302
 20
143.6225140859435
 30
0.0
 10
198.9022771190665
 20
144.0371483074105
 30
0.0
 10
198.6500747641678
 20
144.4086053025001
 30
0.0
 10
198.5119882664999
 20
144.6417842514388
 30
0.0
 10
198.4655640991505
 20
144.7201781475161
 30
0.0
  0
SPLINE
  5
406
330
1F
100
AcDbEntity
  8
0
  6
Continuous
 62
     7
370
    30
100
AcDbSpline
210
0.0
220
0.0
230
1.0
 70
     8
 71
     3
 72
    10
 73
     6
 74
     0
 42
0.000000001
 43
0.00000001
 40
0.0
 40
0.0
 40
0.0
 40
0.0
 40
0.2001178567101537
 40
0.6050144617943872
 40
1.0
 40
1.0
 40
1.0
 40
1.0
 10
196.8814222030554
 20
135.1385350469106
 30
0.0
 10
196.899596996418
 20
135.1506539791765
 30
0.0
 10
196.9545446807738
 20
135.1872930347957
 30
0.0
 10
197.0740623646998
 20
135.2114198666374
 30
0.0
 10
197.2045443757097
 20
135.1980686069475
 30
0.0
 10
197.2689770021626
 20
135.1914756925556
 30
0.0
  0
SPLINE
  5
407
330
1F
100
AcDbEntity
  8
0
  6
Continuous
 62
     7
370
    30
100
AcDbSpline
210
0.0
220
0.0
230
1.0
 70
     8
 71
     3
 72
    21
 73
    17
 74
     0
 42
0.000000001
 43
0.00000001
 40
0.0
 40
0.0
 40
0.0
 40
0.0
 40
0.0276388702689757
 40
0.0967731575457074
 40
0.1658391097621865
 40
0.2358989207557181
 40
0.3077964823288044
 40
0.3819380947194739
 40
0.4581733684557177
 40
0.5358906071576206
 40
0.6143387762783084
 40
0.6928582344248568
 40
0.771170109443398
 40
0.8492263784657824
 40
0.9270759044194183
 40
1.0
 40
1.0
 40
1.0
 40
1.0
 10
216.7249311072251
 20
106.6275643144523
 30
0.0
 10
216.771185359833
 20
106.6519592862492
 30
0.0
 10
216.9331373510404
 20
106.7373744434555
 30
0.0
 10
217.1721660810303
 20
106.945753754612
 30
0.0
 10
217.4347668436188
 20
107.2430464373616
 30
0.0
 10
217.6486442023455
 20
107.5902129930485
 30
0.0
 10
217.8156512431447
 20
107.9803906888945
 30
0.0
 10
217.9331125451693
 20
108.4129515728628
 30
0.0
 10
217.9987687216437
 20
108.8837895170713
 30
0.0
 10
218.0106250606437
 20
109.3866575122703
 30
0.0
 10
217.9682876586933
 20
109.9129450781897
 30
0.0
 10
217.872987118551
 20
110.4534172719103
 30
0.0
 10
217.7274588587279
 20
110.9996062186083
 30
0.0
 10
217.5338192688145
 20
111.5434665061071
 30
0.0
 10
217.3034556615773
 20
112.0689467694765
 30
0.0
 10
217.1199032573792
 20
112.4024021240558
 30
0.0
 10
217.0311251745052
 20
112.5636831883544
 30
0.0
  0
SPLINE
  5
408
330
1F
100
AcDbEntity
  8
0
  6
Continuous
 62
     7
370
    30
100
AcDbSpline
210
0.0
220
0.0
230
1.0
 70
     8
 71
     3
 72
    21
 73
    17
 74
     0
 42
0.000000001
 43
0.00000001
 40
0.0
 40
0.0
 40
0.0
 40
0.0
 40
0.0416481515617224
 40
0.1194558754211242
 40
0.1974419508764179
 40
0.2757000080139004
 40
0.3543531703597474
 40
0.4335016854183717
 40
0.5131802027419029
 40
0.5932724829010518
 40
0.6731781900861822
 40
0.7520001509498737
 40
0.8287369325038715
 40
0.9028022064733072
 40
0.974353531596132
 40
1.0
 40
1.0
 40
1.0
 40
1.0
 10
198.4655640991505
 20
144.7201781475161
 30
0.0
 10
198.4119479359733
 20
144.8104627831967
 30
0.0
 10
198.2581652236826
 20
145.069418578061
 30
0.0
 10
197.9764500767902
 20
145.4785751177563
 30
0.0
 10
197.6137940151889
 20
145.9323072220807
 30
0.0
 10
197.2231315399956
 20
146.3485600524948
 30
0.0
 10
196.8090594692939
 20
146.7218894995268
 30
0.0
 10
196.3752403807191
 20
147.0465572768107
 30
0.0
 10
195.9256948789395
 20
147.3168203969492
 30
0.0
 10
195.4654007529625
 20
147.5263578216183
 30
0.0
 10
195.0009841647199
 20
147.6689533581453
 30
0.0
 10
194.541707801042
 20
147.7389534147042
 30
0.0
 10
194.0972387070695
 20
147.7355745272575
 30
0.0
 10
193.6815789911875
 20
147.6548330055532
 30
0.0
 10
193.3717070716474
 20
147.5490616967449
 30
0.0
 10
193.2163708155724
 20
147.4509244132126
 30
0.0
 10
193.175384017016
 20
147.4250300523425
 30
0.0
  0
SPLINE
  5
409
330
1F
100
AcDbEntity
  8
0
  6
Continuous
 62
     7
370
    30
100
AcDbSpline
210
0.0
220
0.0
230
1.0
 70
     8
 71
     3
 72
    12
 73
     8
 74
     0
 42
0.000000001
 43
0.00000001
 40
0.0
 40
0.0
 40
0.0
 40
0.0
 40
0.1430395730790441
 40
0.4179226865392011
 40
0.6943478637294729
 40
0.958469827669296
 40
1.0
 40
1.0
 40
1.0
 40
1.0
 10
207.5716254991855
 20
107.0217390211694
 30
0.0
 10
207.6320609218531
 20
106.9855496977375
 30
0.0
 10
207.8086367718763
 20
106.8798143480917
 30
0.0
 10
208.1079465475591
 20
106.6636406364651
 30
0.0
 10
208.4573481175713
 20
106.3637029000899
 30
0.0
 10
208.701281527686
 20
106.1188263604274
 30
0.0
 10
208.8259637644152
 20
105.9818576358845
 30
0.0
 10
208.8429048361875
 20
105.9632471501094
 30
0.0
  0
SPLINE
  5
40A
330
1F
100
AcDbEntity
  8
0
  6
Continuous
 62
     7
370
    30
100
AcDbSpline
210
0.0
220
0.0
230
1.0
 70
     8
 71
     3
 72
    12
 73
     8
 74
     0
 42
0.000000001
 43
0.00000001
 40
0.0
 40
0.0
 40
0.0
 40
0.0
 40
0.1449860973123583
 40
0.4235121615071464
 40
0.7004172645137443
 40
0.960400600688032
 40
1.0
 40
1.0
 40
1.0
 40
1.0
 10
188.6555565345019
 20
140.9287570909977
 30
0.0
 10
188.6814674326592
 20
140.8451445944777
 30
0.0
 10
188.7571545550013
 20
140.6009080105112
 30
0.0
 10
188.8502530092948
 20
140.20367133343
 30
0.0
 10
188.9175444158868
 20
139.7596529069727
 30
0.0
 10
188.9358720533873
 20
139.4637416730182
 30
0.0
 10
188.9365662280612
 20
139.31771273396
 30
0.0
 10
188.9366579853517
 20
139.2984103590768
 30
0.0
  0
LINE
  5
40B
330
1F
100
AcDbEntity
  8
0
  6
Continuous
 62
     7
370
    30
100
AcDbLine
 10
194.4106897417
 20
114.6193855135
 30
0.0
 11
207.5716254992
 21
107.0217390212
 31
0.0
  0
LINE
  5
40C
330
1F
100
AcDbEntity
  8
0
  6
Continuous
 62
     7
370
    30
100
AcDbLine
 10
188.9366579854
 20
139.2984103591
 30
0.0
 11
188.9366579854
 21
124.1006475112
 31
0.0
  0
SPLINE
  5
40D
330
1F
100
AcDbEntity
  8
0
  6
Continuous
 62
     7
370
    30
100
AcDbSpline
210
0.0
220
0.0
230
1.0
 70
     8
 71
     3
 72
    27
 73
    23
 74
     0
 42
0.000000001
 43
0.00000001
 40
0.0
 40
0.0
 40
0.0
 40
0.0
 40
0.029186510400464
 40
0.077739302978076
 40
0.1272658185414519
 40
0.1779346511087029
 40
0.2292461554953335
 40
0.2807369556054702
 40
0.3321263262068985
 40
0.3833494126091828
 40
0.4344214213892861
 40
0.485396436470582
 40
0.5363457315134593
 40
0.5873424211440615
 40
0.6384478979708945
 40
0.6897457616915715
 40
0.7413152634609156
 40
0.7932172979196945
 40
0.8454625178179427
 40
0.8979386720771625
 40
0.9502020663756561
 40
1.0
 40
1.0
 40
1.0
 40
1.0
 10
188.7076522247211
 20
122.9667568998609
 30
0.0
 10
188.6701086972907
 20
122.8885072930885
 30
0.0
 10
188.5701101838087
 20
122.6800866972267
 30
0.0
 10
188.4532295523671
 20
122.3096712062749
 30
0.0
 10
188.3686728751415
 20
121.8504305399094
 30
0.0
 10
188.3384669979647
 20
121.3575459891937
 30
0.0
 10
188.3622920587441
 20
120.8382717121457
 30
0.0
 10
188.4397045190879
 20
120.3016195668098
 30
0.0
 10
188.5684611027587
 20
119.7565315376532
 30
0.0
 10
188.7456907266749
 20
119.2108935955377
 30
0.0
 10
188.9682199220131
 20
118.671774128189
 30
0.0
 10
189.2326769316386
 20
118.1458936040478
 30
0.0
 10
189.5354983097871
 20
117.6397762732616
 30
0.0
 10
189.8729139645519
 20
117.1598247193617
 30
0.0
 10
190.2410233205412
 20
116.712216387239
 30
0.0
 10
190.6358874358557
 20
116.3028877015107
 30
0.0
 10
191.0536463789467
 20
115.9374952140245
 30
0.0
 10
191.4904426728684
 20
115.6218237759641
 30
0.0
 10
191.9422445429116
 20
115.3612118294148
 30
0.0
 10
192.4036966871938
 20
115.1638883192363
 30
0.0
 10
192.8633632178084
 20
115.0305217274187
 30
0.0
 10
193.1664835932452
 20
115.0018442419326
 30
0.0
 10
193.3143825932229
 20
114.9878518753054
 30
0.0
  0
SPLINE
  5
40E
330
1F
100
AcDbEntity
  8
0
  6
Continuous
 62
     7
370
    30
100
AcDbSpline
210
0.0
220
0.0
230
1.0
 70
     8
 71
     3
 72
    11
 73
     7
 74
     0
 42
0.000000001
 43
0.00000001
 40
0.0
 40
0.0
 40
0.0
 40
0.0
 40
0.1429395720892422
 40
0.4315235352558484
 40
0.7139831207360338
 40
1.0
 40
1.0
 40
1.0
 40
1.0
 10
193.3143825932229
 20
114.9878518753054
 30
0.0
 10
193.35783816122
 20
114.9846698115927
 30
0.0
 10
193.4890271668578
 20
114.9750634068536
 30
0.0
 10
193.736203922718
 20
114.9212309940514
 30
0.0
 10
194.0614246444185
 20
114.8067091286704
 30
0.0
 10
194.2937833739043
 20
114.6820866640738
 30
0.0
 10
194.4106897417118
 20
114.6193855135062
 30
0.0
  0
SPLINE
  5
40F
330
1F
100
AcDbEntity
  8
0
  6
Continuous
 62
     7
370
    30
100
AcDbSpline
210
0.0
220
0.0
230
1.0
 70
     8
 71
     3
 72
    12
 73
     8
 74
     0
 42
0.000000001
 43
0.00000001
 40
0.0
 40
0.0
 40
0.0
 40
0.0
 40
0.145388814710112
 40
0.4224558726654282
 40
0.6988386722761236
 40
0.9680482813984942
 40
1.0
 40
1.0
 40
1.0
 40
1.0
 10
188.9366579853518
 20
124.1006475112212
 30
0.0
 10
188.9355399648699
 20
124.0324174730737
 30
0.0
 10
188.9322913358796
 20
123.8341616418732
 30
0.0
 10
188.8970210144341
 20
123.536239260205
 30
0.0
 10
188.8233661971686
 20
123.2321043383579
 30
0.0
 10
188.7526783885248
 20
123.0555762729631
 30
0.0
 10
188.7119710688235
 20
122.975276324864
 30
0.0
 10
188.7076522247211
 20
122.9667568998609
 30
0.0
  0
SPLINE
  5
410
330
1F
100
AcDbEntity
  8
0
  6
Continuous
 62
     7
370
    30
100
AcDbSpline
210
0.0
220
0.0
230
1.0
 70
     8
 71
     3
 72
    10
 73
     6
 74
     0
 42
0.000000001
 43
0.00000001
 40
0.0
 40
0.0
 40
0.0
 40
0.0
 40
0.0678768525433497
 40
0.5411893709984489
 40
1.0
 40
1.0
 40
1.0
 40
1.0
 10
216.2365841933016
 20
116.5021961683843
 30
0.0
 10
216.2515906806307
 20
116.4994111528533
 30
0.0
 10
216.3712390015865
 20
116.4772059275517
 30
0.0
 10
216.6154252148743
 20
116.3832037609178
 30
0.0
 10
216.8477215448952
 20
116.2603957372233
 30
0.0
 10
216.9620626870312
 20
116.1999470435593
 30
0.0
  0
SPLINE
  5
411
330
1F
100
AcDbEntity
  8
0
  6
Continuous
 62
     7
370
    30
100
AcDbSpline
210
0.0
220
0.0
230
1.0
 70
     8
 71
     3
 72
    26
 73
    22
 74
     0
 42
0.000000001
 43
0.00000001
 40
0.0
 40
0.0
 40
0.0
 40
0.0
 40
0.0280227344749809
 40
0.0817874249970893
 40
0.1357215104150435
 40
0.1898213642156793
 40
0.2440700261750431
 40
0.2984285288324421
 40
0.3528491276825432
 40
0.4072808720541633
 40
0.461657249540673
 40
0.5159227600500106
 40
0.5700262023850936
 40
0.6239225416855585
 40
0.6775845859277638
 40
0.7310278711348803
 40
0.784359103891588
 40
0.8377595086337454
 40
0.8916945612859226
 40
0.9470373975912262
 40
1.0
 40
1.0
 40
1.0
 40
1.0
 10
216.9620626870312
 20
116.1999470435593
 30
0.0
 10
217.0236066036873
 20
116.1630017851917
 30
0.0
 10
217.2032292765578
 20
116.0551729953054
 30
0.0
 10
217.5036304343362
 20
115.8349984265238
 30
0.0
 10
217.8559063148903
 20
115.5256973673128
 30
0.0
 10
218.1969543233429
 20
115.1701171235118
 30
0.0
 10
218.5199807545548
 20
114.7751971426767
 30
0.0
 10
218.8188086456547
 20
114.3475444407775
 30
0.0
 10
219.0877480265968
 20
113.8948802576345
 30
0.0
 10
219.3217736248806
 20
113.4254795071378
 30
0.0
 10
219.5166518292118
 20
112.9480887905619
 30
0.0
 10
219.6690618494678
 20
112.4717148406934
 30
0.0
 10
219.7767085224467
 20
112.0054148279573
 30
0.0
 10
219.8384197050881
 20
111.5581282046039
 30
0.0
 10
219.8542533152917
 20
111.1384494382632
 30
0.0
 10
219.825611152987
 20
110.7542424882226
 30
0.0
 10
219.7551642105938
 20
110.4125392550258
 30
0.0
 10
219.6470165843506
 20
110.1181725547353
 30
0.0
 10
219.5045116661214
 20
109.8751573621919
 30
0.0
 10
219.3381787731188
 20
109.6834202631063
 30
0.0
 10
219.2053766487917
 20
109.599193637199
 30
0.0
 10
219.1404348860023
 20
109.5580058505733
 30
0.0
  0
SPLINE
  5
412
330
1F
100
AcDbEntity
  8
0
  6
Continuous
 62
     7
370
    30
100
AcDbSpline
210
0.0
220
0.0
230
1.0
 70
     8
 71
     3
 72
    28
 73
    24
 74
     0
 42
0.000000001
 43
0.00000001
 40
0.0
 40
0.0
 40
0.0
 40
0.0
 40
0.0505487758650863
 40
0.0995854217551978
 40
0.1517179700723379
 40
0.2015723545452634
 40
0.2502465002369932
 40
0.2974293118681343
 40
0.322544608322582
 40
0.3707310600212834
 40
0.419069331415924
 40
0.4675561722543238
 40
0.516176381983781
 40
0.5648950361279502
 40
0.6136693438090649
 40
0.6624536406322938
 40
0.7111883150414582
 40
0.7598236252361418
 40
0.8083136822883883
 40
0.8566181238320667
 40
0.9047125790929486
 40
0.9526109721878417
 40
1.0
 40
1.0
 40
1.0
 40
1.0
 10
196.9113558725509
 20
148.0457044440759
 30
0.0
 10
196.9838920809287
 20
148.0837134905866
 30
0.0
 10
197.1267946296096
 20
148.1585945705436
 30
0.0
 10
197.3876186449727
 20
148.2077005464997
 30
0.0
 10
197.6815689584501
 20
148.2064943981929
 30
0.0
 10
198.0083387855591
 20
148.1433869004452
 30
0.0
 10
198.3473426990851
 20
148.0230882811387
 30
0.0
 10
198.6407167907262
 20
147.8750198470848
 30
0.0
 10
198.9364453701762
 20
147.6930370513198
 30
0.0
 10
199.2366576387055
 20
147.4747054087371
 30
0.0
 10
199.5889939512461
 20
147.1648147269698
 30
0.0
 10
199.9300256967315
 20
146.8093931907804
 30
0.0
 10
200.2530564887878
 20
146.414430528913
 30
0.0
 10
200.5518832626567
 20
145.9867892284076
 30
0.0
 10
200.8208227383307
 20
145.5341222483999
 30
0.0
 10
201.0548490770125
 20
145.0647212632887
 30
0.0
 10
201.2497242299087
 20
144.5873342770373
 30
0.0
 10
201.4021456802799
 20
144.1109456865561
 30
0.0
 10
201.5097498698157
 20
143.6447002669079
 30
0.0
 10
201.5716186970384
 20
143.1972110162439
 30
0.0
 10
201.586867690104
 20
142.7782836958146
 30
0.0
 10
201.5604706138292
 20
142.3923883702189
 30
0.0
 10
201.5084962134729
 20
142.1723143868453
 30
0.0
 10
201.4826479296118
 20
142.0628656052585
 30
0.0
  0
SPLINE
  5
413
330
1F
100
AcDbEntity
  8
0
  6
Continuous
 62
     7
370
    30
100
AcDbSpline
210
0.0
220
0.0
230
1.0
 70
     8
 71
     3
 72
    15
 73
    11
 74
     0
 42
0.000000001
 43
0.00000001
 40
0.0
 40
0.0
 40
0.0
 40
0.0
 40
0.0699418249331058
 40
0.2020543038592648
 40
0.334260735833698
 40
0.4665745770720374
 40
0.599067302813351
 40
0.7318078611661609
 40
0.8648553947112597
 40
1.0
 40
1.0
 40
1.0
 40
1.0
 10
226.8929625119208
 20
118.1926015928423
 30
0.0
 10
226.8394413363696
 20
118.2910947622126
 30
0.0
 10
226.6848244976172
 20
118.5756307861303
 30
0.0
 10
226.4011454755353
 20
119.0313497018925
 30
0.0
 10
226.0345868986164
 20
119.54592502457
 30
0.0
 10
225.639465879454
 20
120.0275687592493
 30
0.0
 10
225.2208033737101
 20
120.4712268261595
 30
0.0
 10
224.7827230533827
 20
120.8701622193819
 30
0.0
 10
224.3281999305936
 20
121.2263166884727
 30
0.0
 10
224.0172156376292
 20
121.4176656832252
 30
0.0
 10
223.860507653173
 20
121.5140882871116
 30
0.0
  0
SPLINE
  5
414
330
1F
100
AcDbEntity
  8
0
  6
Continuous
 62
     7
370
    30
100
AcDbSpline
210
0.0
220
0.0
230
1.0
 70
     8
 71
     3
 72
    15
 73
    11
 74
     0
 42
0.000000001
 43
0.00000001
 40
0.0
 40
0.0
 40
0.0
 40
0.0
 40
0.0705981984236131
 40
0.2036063837191465
 40
0.3364602491645751
 40
0.4691169350223558
 40
0.6015750347041958
 40
0.7338725082736113
 40
0.8660659181044162
 40
1.0
 40
1.0
 40
1.0
 40
1.0
 10
209.6320944679818
 20
146.1584423119773
 30
0.0
 10
209.6306242201343
 20
146.2538991214604
 30
0.0
 10
209.6263840007789
 20
146.5291981547812
 30
0.0
 10
209.5797581863758
 20
147.0015671346361
 30
0.0
 10
209.4768897779281
 20
147.5755029437231
 30
0.0
 10
209.3247704432503
 20
148.1583537700674
 30
0.0
 10
209.1267078120507
 20
148.7431237890092
 30
0.0
 10
208.8842336486086
 20
149.3226799879473
 30
0.0
 10
208.6022114158098
 20
149.8951928271446
 30
0.0
 10
208.3823794974778
 20
150.2612641510145
 30
0.0
 10
208.2717446060498
 20
150.4454970025427
 30
0.0
  0
LINE
  5
415
330
1F
100
AcDbEntity
  8
0
  6
Continuous
 62
     7
370
    30
100
AcDbLine
 10
220.0868087265
 20
107.936482987
 30
0.0
 11
226.5686208874
 21
111.6783534995
 31
0.0
  0
LINE
  5
416
330
1F
100
AcDbEntity
  8
0
  6
Continuous
 62
     7
370
    30
100
AcDbLine
 10
202.468836433
 20
153.4214993121
 30
0.0
 11
195.9870242722
 21
149.6796287995
 31
0.0
  0
SPLINE
  5
417
330
1F
100
AcDbEntity
  8
0
  6
Continuous
 62
     7
370
    30
100
AcDbSpline
210
0.0
220
0.0
230
1.0
 70
     8
 71
     3
 72
    14
 73
    10
 74
     0
 42
0.000000001
 43
0.00000001
 40
0.0
 40
0.0
 40
0.0
 40
0.0
 40
0.0617316128019221
 40
0.2520340621160666
 40
0.442292438131876
 40
0.6304719177946763
 40
0.8145292359895203
 40
0.9793440633227228
 40
0.9999999999999999
 40
0.9999999999999999
 40
0.9999999999999999
 40
0.9999999999999999
 10
217.8241881582913
 20
108.0505976955227
 30
0.0
 10
217.8675458700552
 20
108.026847249585
 30
0.0
 10
218.0445640901192
 20
107.9298803780739
 30
0.0
 10
218.3583876280647
 20
107.8030270356481
 30
0.0
 10
218.760118656653
 20
107.6988509418875
 30
0.0
 10
219.1514408836067
 20
107.6659351208706
 30
0.0
 10
219.5125436697492
 20
107.7029382672582
 30
0.0
 10
219.7475205285307
 20
107.7737698316947
 30
0.0
 10
219.8594877557706
 20
107.8221201232751
 30
0.0
 10
219.8719575806949
 20
107.8275049102875
 30
0.0
  0
SPLINE
  5
418
330
1F
100
AcDbEntity
  8
0
  6
Continuous
 62
     7
370
    30
100
AcDbSpline
210
0.0
220
0.0
230
1.0
 70
     8
 71
     3
 72
    14
 73
    10
 74
     0
 42
0.000000001
 43
0.00000001
 40
0.0
 40
0.0
 40
0.0
 40
0.0
 40
0.1045681274144915
 40
0.2774779728201259
 40
0.4521934182760004
 40
0.6310140096702396
 40
0.8142171655134182
 40
0.9937714616330033
 40
1.0
 40
1.0
 40
1.0
 40
1.0
 10
195.7847028702242
 20
149.547700115258
 30
0.0
 10
195.7306778443047
 20
149.5050224516207
 30
0.0
 10
195.5873191073323
 20
149.39177464004
 30
0.0
 10
195.3895379847595
 20
149.162144300236
 30
0.0
 10
195.2053213310766
 20
148.8527777998374
 30
0.0
 10
195.0681893669919
 20
148.497417035082
 30
0.0
 10
194.9823357817891
 20
148.104483323829
 30
0.0
 10
194.9546653043545
 20
147.8187792872538
 30
0.0
 10
194.952678819279
 20
147.6695007686878
 30
0.0
 10
194.9526122205615
 20
147.6644960706874
 30
0.0
  0
SPLINE
  5
419
330
1F
100
AcDbEntity
  8
0
  6
Continuous
 62
     7
370
    30
100
AcDbSpline
210
0.0
220
0.0
230
1.0
 70
     8
 71
     3
 72
    13
 73
     9
 74
     0
 42
0.000000001
 43
0.00000001
 40
0.0
 40
0.0
 40
0.0
 40
0.0
 40
0.0996792946328125
 40
0.2865477396005831
 40
0.4730704027647145
 40
0.6591714929026834
 40
0.8448845164692679
 40
1.0
 40
1.0
 40
1.0
 40
1.0
 10
227.6043918231399
 20
115.5894365520086
 30
0.0
 10
227.6028782460516
 20
115.6714725917994
 30
0.0
 10
227.5985271709868
 20
115.9073013248822
 30
0.0
 10
227.5509207220177
 20
116.3127695887641
 30
0.0
 10
227.4469791038458
 20
116.804015988833
 30
0.0
 10
227.2936741901477
 20
117.2996262766598
 30
0.0
 10
227.1087669122674
 20
117.7659598378914
 30
0.0
 10
226.960459254578
 20
118.0591616412264
 30
0.0
 10
226.8929625119208
 20
118.1926015928423
 30
0.0
  0
SPLINE
  5
41A
330
1F
100
AcDbEntity
  8
0
  6
Continuous
 62
     7
370
    30
100
AcDbSpline
210
0.0
220
0.0
230
1.0
 70
     8
 71
     3
 72
    13
 73
     9
 74
     0
 42
0.000000001
 43
0.00000001
 40
0.0
 40
0.0
 40
0.0
 40
0.0
 40
0.0983776997209944
 40
0.2838374763563764
 40
0.4696953099902748
 40
0.6560723984602714
 40
0.8431550637876928
 40
1.0
 40
1.0
 40
1.0
 40
1.0
 10
208.2717446060498
 20
150.4454970025427
 30
0.0
 10
208.2203844052976
 20
150.5252253256409
 30
0.0
 10
208.0722009266434
 20
150.7552559737093
 30
0.0
 10
207.802236581771
 20
151.1147342739845
 30
0.0
 10
207.4570665697
 20
151.5071622646522
 30
0.0
 10
207.0891354254094
 20
151.8568501003686
 30
0.0
 10
206.7258536145225
 20
152.1460470431468
 30
0.0
 10
206.4835807026481
 20
152.2951195733121
 30
0.0
 10
206.3730944280985
 20
152.363102693539
 30
0.0
  0
SPLINE
  5
41B
330
1F
100
AcDbEntity
  8
0
  6
Continuous
 62
     7
370
    30
100
AcDbSpline
210
0.0
220
0.0
230
1.0
 70
     8
 71
     3
 72
    14
 73
    10
 74
     0
 42
0.000000001
 43
0.00000001
 40
0.0
 40
0.0
 40
0.0
 40
0.0
 40
0.0911205546778026
 40
0.2650404701864822
 40
0.4387556854453037
 40
0.6134747982887206
 40
0.7922192797894622
 40
0.9802615657621601
 40
1.0
 40
1.0
 40
1.0
 40
1.0
 10
211.191511156914
 20
122.0243433570009
 30
0.0
 10
211.1372970219234
 20
122.0570234574482
 30
0.0
 10
210.9796054903094
 20
122.1520793887792
 30
0.0
 10
210.7590092127446
 20
122.3234286987793
 30
0.0
 10
210.553818635652
 20
122.5364067474789
 30
0.0
 10
210.4080231494738
 20
122.7531763278142
 30
0.0
 10
210.3261653054
 20
122.9701380687281
 30
0.0
 10
210.2921353779924
 20
123.1186421877647
 30
0.0
 10
210.30346000026
 20
123.1992500507992
 30
0.0
 10
210.3045357993605
 20
123.2069075129639
 30
0.0
  0
SPLINE
  5
41C
330
1F
100
AcDbEntity
  8
0
  6
Continuous
 62
     7
370
    30
100
AcDbSpline
210
0.0
220
0.0
230
1.0
 70
     8
 71
     3
 72
    13
 73
     9
 74
     0
 42
0.000000001
 43
0.00000001
 40
0.0
 40
0.0
 40
0.0
 40
0.0
 40
0.1939025896489368
 40
0.3826147721910899
 40
0.5629528254238496
 40
0.7547196627688207
 40
0.942316223345629
 40
0.9999999999999999
 40
0.9999999999999999
 40
0.9999999999999999
 40
0.9999999999999999
 10
204.2984769124499
 20
133.5844688700122
 30
0.0
 10
204.2399487215702
 20
133.6238843851959
 30
0.0
 10
204.1244590292421
 20
133.7016603364614
 30
0.0
 10
203.9845524123081
 20
133.8834828864183
 30
0.0
 10
203.8667126639771
 20
134.1140291730048
 30
0.0
 10
203.7851930120453
 20
134.4014015337345
 30
0.0
 10
203.7431416197849
 20
134.6558224258883
 30
0.0
 10
203.7448100388844
 20
134.8199765525221
 30
0.0
 10
203.7452024091649
 20
134.858581481415
 30
0.0
  0
LINE
  5
41D
330
1F
100
AcDbEntity
  8
0
  6
Continuous
 62
     7
370
    30
100
AcDbLine
 10
227.6043918231
 20
113.7891332824
 30
0.0
 11
227.6043918231
 21
115.589436552
 31
0.0
  0
LINE
  5
41E
330
1F
100
AcDbEntity
  8
0
  6
Continuous
 62
     7
370
    30
100
AcDbLine
 10
206.3730944281
 20
152.3631026935
 30
0.0
 11
204.8140705169
 21
153.2631080403
 31
0.0
  0
LINE
  5
41F
330
1F
100
AcDbEntity
  8
0
  6
Continuous
 62
     7
370
    30
100
AcDbLine
 10
223.8605076532
 20
121.5140882871
 30
0.0
 11
217.7980661302
 21
125.0138612835
 31
0.0
  0
LINE
  5
420
330
1F
100
AcDbEntity
  8
0
  6
Continuous
 62
     7
370
    30
100
AcDbLine
 10
209.632094468
 20
139.1612149372
 30
0.0
 11
209.632094468
 21
146.158442312
 31
0.0
  0
SPLINE
  5
421
330
1F
100
AcDbEntity
  8
0
  6
Continuous
 62
     7
370
    30
100
AcDbSpline
210
0.0
220
0.0
230
1.0
 70
     8
 71
     3
 72
    14
 73
    10
 74
     0
 42
0.000000001
 43
0.00000001
 40
0.0
 40
0.0
 40
0.0
 40
0.0
 40
0.1005757782392943
 40
0.2668840281515784
 40
0.4349289413735299
 40
0.6069222684931337
 40
0.7831308363465572
 40
0.9558298557796364
 40
1.0
 40
1.0
 40
1.0
 40
1.0
 10
226.7709422893277
 20
111.8102821837903
 30
0.0
 10
226.8249677270423
 20
111.8529596603162
 30
0.0
 10
226.9683275567386
 20
111.9662069753853
 30
0.0
 10
227.1660962839805
 20
112.1958429473768
 30
0.0
 10
227.3503648671607
 20
112.505185852063
 30
0.0
 10
227.4872971831149
 20
112.8606373328872
 30
0.0
 10
227.5739118306386
 20
113.2532252328287
 30
0.0
 10
227.6024496322164
 20
113.5706233426854
 30
0.0
 10
227.6040631873728
 20
113.7521594808712
 30
0.0
 10
227.6043918231399
 20
113.7891332823549
 30
0.0
  0
SPLINE
  5
422
330
1F
100
AcDbEntity
  8
0
  6
Continuous
 62
     7
370
    30
100
AcDbSpline
210
0.0
220
0.0
230
1.0
 70
     8
 71
     3
 72
    14
 73
    10
 74
     0
 42
0.000000001
 43
0.00000001
 40
0.0
 40
0.0
 40
0.0
 40
0.0
 40
0.0971026004286378
 40
0.2802309984032477
 40
0.463316984561572
 40
0.6444024449250283
 40
0.8215211417048207
 40
0.9801227540370235
 40
1.0
 40
1.0
 40
1.0
 40
1.0
 10
204.8140705169426
 20
153.2631080402967
 30
0.0
 10
204.7432212147864
 20
153.3022481010833
 30
0.0
 10
204.5387553138549
 20
153.4152034520559
 30
0.0
 10
204.1972983000941
 20
153.5555112902761
 30
0.0
 10
203.7955156991752
 20
153.6589840094556
 30
0.0
 10
203.4042071077397
 20
153.692085799901
 30
0.0
 10
203.0431007897496
 20
153.6550344840448
 30
0.0
 10
202.8081246464075
 20
153.5842126772027
 30
0.0
 10
202.6961574053231
 20
153.5358621968021
 30
0.0
 10
202.6836875788569
 20
153.5304773887608
 30
0.0
  0
ARC
  5
423
330
1F
100
AcDbEntity
  8
0
  6
Continuous
 62
     7
370
    30
100
AcDbCircle
 10
197.4700998064
 20
146.4290828562
 30
0.0
 40
1.261274221088898
100
AcDbArc
 50
91.1889007721
 51
150.8416240346
  0
LWPOLYLINE
  5
424
330
1F
100
AcDbEntity
  8
0
  6
Continuous
 62
     7
370
    30
100
AcDbPolyline
 90
       17
 70
   128
 43
0.0
 10
200.9968549456
 20
142.2079354842
 10
201.0683819894
 20
142.4932818609
 10
201.1111800829
 20
142.8979664762
 10
201.0980797231
 20
143.3374905502
 10
201.0293735503
 20
143.8020358415
 10
200.906596347
 20
144.2812251759
 10
200.732490753
 20
144.7643542554
 10
200.5109459994
 20
145.2406307749
 10
200.2469110301
 20
145.6994155038
 10
199.94628395
 20
146.1304599494
 10
199.6157802712
 20
146.5241352912
 10
199.2627828998
 20
146.8716474724
 10
198.8951772137
 20
147.1652336453
 10
198.5211749166
 20
147.3983355798
 10
198.1491306017
 20
147.5657461639
 10
197.7873551243
 20
147.6637257219
 10
197.4439299506
 20
147.6900855522
  0
ARC
  5
425
330
1F
100
AcDbEntity
  8
0
  6
Continuous
 62
     7
370
    30
100
AcDbCircle
 10
197.7699858703
 20
146.6991572981
 30
0.0
 40
1.598555220045768
100
AcDbArc
 50
121.9337778727
 51
164.396980201
  0
LWPOLYLINE
  5
426
330
1F
100
AcDbEntity
  8
0
  6
Continuous
 62
     7
370
    30
100
AcDbPolyline
 90
        3
 70
   128
 43
0.0
 10
197.7865464603
 20
146.7393521778
 10
197.5203403303
 20
146.6944427914
 10
197.3589276677
 20
146.622714235
  0
ARC
  5
427
330
1F
100
AcDbEntity
  8
0
  6
Continuous
 62
     7
370
    30
100
AcDbCircle
 10
197.1679770187
 20
143.6122177841
 30
0.0
 40
3.187726097049211
100
AcDbArc
 50
343.0112578878
 51
78.8109287872
  0
LWPOLYLINE
  5
428
330
1F
100
AcDbEntity
  8
0
  6
Continuous
 62
     7
370
    30
100
AcDbPolyline
 90
       22
 70
   128
 43
0.0
 10
217.994730537
 20
109.5851952942
 10
218.2798220355
 20
109.6131493324
 10
218.5732106477
 20
109.7121784515
 10
218.8286808223
 20
109.8805943025
 10
219.0405257778
 20
110.1146347538
 10
219.2040132477
 20
110.4090717283
 10
219.3154911923
 20
110.7573279906
 10
219.3724693784
 20
111.1516240714
 10
219.3736750076
 20
111.5831520476
 10
219.319081148
 20
112.0422722973
 10
219.2099073363
 20
112.518728833
 10
219.0485923351
 20
113.0018784028
 10
218.8387396548
 20
113.4809282439
 10
218.5850370576
 20
113.9451771742
 10
218.2931518403
 20
114.38425464
 10
217.9696042363
 20
114.788352376
 10
217.6216217645
 20
115.1484435068
 10
217.2569777781
 20
115.4564841914
 10
216.8838178215
 20
115.70559331
 10
216.5104776712
 20
115.8902061765
 10
216.1452971295
 20
116.0061988445
 10
216.120471805
 20
116.0116256312
  0
ARC
  5
429
330
1F
100
AcDbEntity
  8
0
  6
Continuous
 62
     7
370
    30
100
AcDbCircle
 10
218.3997577526
 20
110.9448585467
 30
0.0
 40
1.574444384705118
100
AcDbArc
 50
254.7929681209
 51
298.4324099917
  0
LWPOLYLINE
  5
42A
330
1F
100
AcDbEntity
  8
0
  6
Continuous
 62
     7
370
    30
100
AcDbPolyline
 90
       18
 70
   128
 43
0.0
 10
218.12564968
 20
110.653227505
 10
218.1856412563
 20
110.6913558525
 10
218.3765543061
 20
110.8732609936
 10
218.5192303114
 20
111.117682885
 10
218.6090835478
 20
111.4167656058
 10
218.6432260584
 20
111.7608963913
 10
218.6205604748
 20
112.1390145951
 10
218.5418152876
 20
112.5389671868
 10
218.4095214319
 20
112.9478993611
 10
218.2279309409
 20
113.3526677014
 10
218.0028802826
 20
113.7402626203
 10
217.7416027702
 20
114.0982264982
 10
217.4524960779
 20
114.4150540813
 10
217.1448523329
 20
114.6805622707
 10
216.828559458
 20
114.8862174145
 10
216.5137833666
 20
115.0254095873
 10
216.2106412213
 20
115.0936650381
 10
216.1393306725
 20
115.0992651932
  0
ARC
  5
42B
330
1F
100
AcDbEntity
  8
0
  6
Continuous
 62
     7
370
    30
100
AcDbCircle
 10
195.5553555696
 20
142.6818276071
 30
0.0
 40
3.850550774591809
100
AcDbArc
 50
13.371720941
 51
58.2671862221
  0
ARC
  5
42C
330
1F
100
AcDbEntity
  8
0
  6
Continuous
 62
     7
370
    30
100
AcDbCircle
 10
210.0995676716
 20
152.8645654605
 30
0.0
 40
0.964241464595123
100
AcDbArc
 50
77.976592558
 51
118.8679376516
  0
LWPOLYLINE
  5
42D
330
1F
100
AcDbEntity
  8
0
  6
Continuous
 62
     7
370
    30
100
AcDbPolyline
 90
       16
 70
   128
 43
0.0
 10
212.1338360491
 20
149.3787409852
 10
212.3368352522
 20
149.5422541139
 10
212.4932968856
 20
149.7701928048
 10
212.5980323884
 20
150.0551387196
 10
212.6476754754
 20
150.3879334623
 10
212.6406305769
 20
150.757880736
 10
212.5771241218
 20
151.1530901308
 10
212.4591972598
 20
151.5608592918
 10
212.2906402573
 20
151.9680821825
 10
212.076870675
 20
152.3616703241
 10
211.8247592433
 20
152.72897347
 10
211.5424090308
 20
153.0581861948
 10
211.2388950059
 20
153.3387273307
 10
210.9239723589
 20
153.5615800547
 10
210.6077629629
 20
153.719581697
 10
210.3004300481
 20
153.8076539546
  0
ARC
  5
42E
330
1F
100
AcDbEntity
  8
0
  6
Continuous
 62
     7
370
    30
100
AcDbCircle
 10
213.8166857286
 20
111.0650026152
 30
0.0
 40
3.844566012302968
100
AcDbArc
 50
1.6275025843
 51
46.6644555256
  0
LWPOLYLINE
  5
42F
330
1F
100
AcDbEntity
  8
0
  6
Continuous
 62
     7
370
    30
100
AcDbPolyline
 90
       20
 70
   128
 43
0.0
 10
230.4007612297
 20
117.7394985671
 10
230.4981815712
 20
117.8052785112
 10
230.6808764188
 20
117.9988537821
 10
230.8143953702
 20
118.2536819707
 10
230.8944470165
 20
118.5615726891
 10
230.9184584319
 20
118.9126300764
 10
230.8856578697
 20
119.2955708593
 10
230.7970995671
 20
119.6980870059
 10
230.6556298607
 20
120.1072413162
 10
230.4657957033
 20
120.5098832338
 10
230.2336985209
 20
120.8930715164
 10
229.9667981079
 20
121.2444901772
 10
229.6736728632
 20
121.5528443312
 10
229.3637440734
 20
121.8082232224
 10
229.0469731047
 20
122.0024187629
 10
228.7335412367
 20
122.1291893483
 10
228.4335224277
 20
122.1844604678
 10
228.1565595288
 20
122.166455662
 10
227.9115543557
 20
122.0757536202
 10
227.9009643981
 20
122.069742879
  0
LWPOLYLINE
  5
430
330
1F
100
AcDbEntity
  8
0
  6
Continuous
 62
     7
370
    30
100
AcDbPolyline
 90
       30
 70
   128
 43
0.0
 10
216.0164858997
 20
119.8588659179
 10
215.7651494485
 20
119.6651503766
 10
215.5106376252
 20
119.5331302326
 10
215.2648511198
 20
119.4689786012
 10
215.0392826361
 20
119.4756951412
 10
214.8444795057
 20
119.5529657948
 10
214.6895505065
 20
119.6971774721
 10
214.5817399462
 20
119.9015869953
 10
214.5260889269
 20
120.1566364024
 10
214.5251996284
 20
120.4503998664
 10
214.5791136333
 20
120.7691413343
 10
214.6853099826
 20
121.0979568094
 10
214.838823053
 20
121.4214712455
 10
215.0324747441
 20
121.724557467
 10
215.2572101179
 20
121.9930434992
 10
215.5025207982
 20
122.2143752335
 10
215.7569363302
 20
122.3782034441
 10
216.0085605264
 20
122.476867706
 10
216.245627719
 20
122.5057545878
 10
216.4570529096
 20
122.4635133712
 10
216.6329500912
 20
122.3521192084
 10
216.7650945071
 20
122.1767807666
 10
216.8473072314
 20
121.9456966767
 10
216.8757440884
 20
121.6696721737
 10
216.8490754022
 20
121.3616138567
 10
216.7685481711
 20
121.0359261901
 10
216.6379277588
 20
120.7078379673
 10
216.4633218306
 20
120.392690229
 10
216.2528947656
 20
120.1052189331
 10
216.0164858997
 20
119.8588659179
  0
LINE
  5
431
330
1F
100
AcDbEntity
  8
0
  6
Continuous
 62
     7
370
    30
100
AcDbLine
 10
215.003014209
 20
121.4643354113
 30
0.0
 11
214.6897756683
 21
120.1489851638
 31
0.0
  0
LINE
  5
432
330
1F
100
AcDbEntity
  8
0
  6
Continuous
 62
     7
370
    30
100
AcDbLine
 10
214.6897756683
 20
120.1489851638
 30
0.0
 11
215.3840014215
 21
119.6692369077
 31
0.0
  0
LINE
  5
433
330
1F
100
AcDbEntity
  8
0
  6
Continuous
 62
     7
370
    30
100
AcDbLine
 10
215.3840014215
 20
119.6692369077
 30
0.0
 11
216.3914657154
 21
120.5048388991
 31
0.0
  0
LINE
  5
434
330
1F
100
AcDbEntity
  8
0
  6
Continuous
 62
     7
370
    30
100
AcDbLine
 10
216.3914657154
 20
120.5048388991
 30
0.0
 11
216.7047042561
 21
121.8201891466
 31
0.0
  0
LINE
  5
435
330
1F
100
AcDbEntity
  8
0
  6
Continuous
 62
     7
370
    30
100
AcDbLine
 10
216.7047042561
 20
121.8201891466
 30
0.0
 11
216.0104785029
 21
122.2999374027
 31
0.0
  0
LINE
  5
436
330
1F
100
AcDbEntity
  8
0
  6
Continuous
 62
     7
370
    30
100
AcDbLine
 10
216.0104785029
 20
122.2999374027
 30
0.0
 11
215.003014209
 21
121.4643354113
 31
0.0
  0
LINE
  5
437
330
1F
100
AcDbEntity
  8
0
  6
Continuous
 62
     7
370
    30
100
AcDbLine
 10
215.8420541111
 20
121.012321935
 30
0.0
 11
216.0756045585
 21
121.9930462039
 31
0.0
  0
LINE
  5
438
330
1F
100
AcDbEntity
  8
0
  6
Continuous
 62
     7
370
    30
100
AcDbLine
 10
214.922895564
 20
120.1156958057
 30
0.0
 11
215.6740602709
 21
120.7387200942
 31
0.0
  0
LINE
  5
439
330
1F
100
AcDbEntity
  8
0
  6
Continuous
 62
     7
370
    30
100
AcDbLine
 10
216.7024231789
 20
121.8215059844
 30
0.0
 11
216.7047042561
 21
121.8201891466
 31
0.0
  0
LINE
  5
43A
330
1F
100
AcDbEntity
  8
0
  6
Continuous
 62
     7
370
    30
100
AcDbLine
 10
216.3640218725
 20
120.5206818924
 30
0.0
 11
216.3914657154
 21
120.5048388991
 31
0.0
  0
LWPOLYLINE
  5
43B
330
1F
100
AcDbEntity
  8
0
  6
Continuous
 62
     7
370
    30
100
AcDbPolyline
 90
       37
 70
   128
 43
0.0
 10
198.2088074447
 20
139.9155689213
 10
198.8921012731
 20
139.9505605154
 10
199.6008154371
 20
139.911888632
 10
200.3311374
 20
139.7997613071
 10
201.079138386
 20
139.614781731
 10
201.8407945147
 20
139.3579450036
 10
202.6120084475
 20
139.0306327812
 10
203.3886314296
 20
138.634605844
 10
204.1664856083
 20
138.1719946235
 10
204.9413865074
 20
137.6452877427
 10
205.7091655381
 20
137.0573186276
 10
206.4656924237
 20
136.4112502652
 10
207.2068974186
 20
135.7105581883
 10
207.9287932013
 20
134.9590117783
 10
208.6274963248
 20
134.1606539885
 10
209.299248107
 20
133.3197795943
 10
209.940434851
 20
132.4409120898
 10
210.5476072848
 20
131.5287793536
 10
211.1174991169
 20
130.5882882147
 10
211.6470446073
 20
129.6244980569
 10
212.1333950594
 20
128.642593601
 10
212.5739341451
 20
127.6478570142
 10
212.9662919789
 20
126.645639494
 10
213.3083578672
 20
125.6413324818
 10
213.5982916622
 20
124.6403386596
 10
213.8345336616
 20
123.6480428858
 10
214.0158129986
 20
122.6697832277
 10
214.1411544789
 20
121.7108222451
 10
214.2098838263
 20
120.7763186803
 10
214.2216313106
 20
119.8712997067
 10
214.176333736
 20
119.000633885
 10
214.0742347814
 20
118.1690049725
 10
213.9158836893
 20
117.3808867273
 10
213.7021323113
 20
116.640518841
 10
213.4341305257
 20
115.9518841317
 10
213.1133200513
 20
115.3186871183
 10
212.741426692
 20
114.7443340919
  0
ARC
  5
43C
330
1F
100
AcDbEntity
  8
0
  6
Continuous
 62
     7
370
    30
100
AcDbCircle
 10
212.3768840945
 20
115.5658907699
 30
0.0
 40
0.8988029153111707
100
AcDbArc
 50
215.5144309658
 51
293.9279042187
  0
LWPOLYLINE
  5
43D
330
1F
100
AcDbEntity
  8
0
  6
Continuous
 62
     7
370
    30
100
AcDbPolyline
 90
       36
 70
   128
 43
0.0
 10
211.6452861757
 20
115.0437689778
 10
212.005853478
 20
115.6025431496
 10
212.3153277974
 20
116.2200188094
 10
212.5719478671
 20
116.8926818067
 10
212.7742532223
 20
117.6167039111
 10
212.9210925115
 20
118.3879645995
 10
213.0116300493
 20
119.2020745067
 10
213.0453505725
 20
120.054400406
 10
213.0220621722
 20
120.9400915772
 10
212.9418973864
 20
121.8541074135
 10
212.8053124454
 20
122.7912461077
 10
212.6130846755
 20
123.7461742568
 10
212.3663080751
 20
124.7134572155
 10
212.0663870882
 20
125.6875900251
 10
211.7150286123
 20
126.6630287434
 10
211.3142322833
 20
127.6342219962
 10
210.8662790958
 20
128.5956425706
 10
210.3737184215
 20
129.5418188718
 10
209.8393535002
 20
130.4673660624
 10
209.2662254864
 20
131.3670167087
 10
208.6575961411
 20
132.2356507581
 10
208.0169292692
 20
133.0683246783
 10
207.347871006
 20
133.8602995919
 10
206.6542290668
 20
134.6070682456
 10
205.9399510764
 20
135.3043806622
 10
205.2091021025
 20
135.9482683278
 10
204.465841521
 20
136.535066777
 10
203.7143993441
 20
137.0614364478
 10
202.9590521468
 20
137.5243816883
 10
202.2040987281
 20
137.9212678046
 10
201.4538356459
 20
138.2498360558
 10
200.712532765
 20
138.5082165085
 10
199.9844089559
 20
138.6949386792
 10
199.2736080851
 20
138.8089399029
 10
198.5841754316
 20
138.8495713806
 10
197.9200346644
 20
138.8166018723
  0
ARC
  5
43E
330
1F
100
AcDbEntity
  8
0
  6
Continuous
 62
     7
370
    30
100
AcDbCircle
 10
198.7379135625
 20
139.1891134811
 30
0.0
 40
0.898716190266263
100
AcDbArc
 50
126.0673260861
 51
204.4873950625
  0
LWPOLYLINE
  5
43F
330
1F
100
AcDbEntity
  8
0
  6
Continuous
 62
     7
370
    30
100
AcDbPolyline
 90
       37
 70
   128
 43
0.0
 10
216.2769605979
 20
116.7853543714
 10
216.6488539572
 20
117.3597073979
 10
216.9696644316
 20
117.9929044112
 10
217.2376662173
 20
118.6815391205
 10
217.4514175952
 20
119.4219070068
 10
217.6097686873
 20
120.2100252521
 10
217.711867642
 20
121.0416541645
 10
217.7571652166
 20
121.9123199863
 10
217.7454177323
 20
122.8173389598
 10
217.6766883848
 20
123.7518425246
 10
217.5513469046
 20
124.7108035072
 10
217.3700675675
 20
125.6890631653
 10
217.1338255681
 20
126.6813589391
 10
216.8438917731
 20
127.6823527614
 10
216.5018258849
 20
128.6866597735
 10
216.109468051
 20
129.6888772937
 10
215.6689289653
 20
130.6836138806
 10
215.1825785132
 20
131.6655183365
 10
214.6530330229
 20
132.6293084943
 10
214.0831411907
 20
133.5697996331
 10
213.4759687569
 20
134.4819323694
 10
212.8347820129
 20
135.3607998739
 10
212.1630302307
 20
136.2016742681
 10
211.4643271073
 20
137.0000320579
 10
210.7424313245
 20
137.7515784678
 10
210.0012263297
 20
138.4522705448
 10
209.2446994441
 20
139.0983389072
 10
208.4769204133
 20
139.6863080223
 10
207.7020195142
 20
140.2130149031
 10
206.9241653355
 20
140.6756261235
 10
206.1475423534
 20
141.0716530608
 10
205.3763284206
 20
141.3989652832
 10
204.614672292
 20
141.6558020106
 10
203.8666713059
 20
141.8407815867
 10
203.136349343
 20
141.9529089116
 10
202.427635179
 20
141.9915807949
 10
201.7443413506
 20
141.9565892009
  0
LINE
  5
440
330
1F
100
AcDbEntity
  8
0
  6
Continuous
 62
     7
370
    30
100
AcDbLine
 10
216.2769605979
 20
116.7853543714
 30
0.0
 11
212.741426692
 21
114.7443340919
 31
0.0
  0
LINE
  5
441
330
1F
100
AcDbEntity
  8
0
  6
Continuous
 62
     7
370
    30
100
AcDbLine
 10
201.7443413506
 20
141.9565892009
 30
0.0
 11
198.2088074447
 21
139.9155689213
 31
0.0
  0
SPLINE
  5
442
330
1F
100
AcDbEntity
  8
0
  6
Continuous
 62
     7
370
    30
100
AcDbSpline
210
0.0
220
0.0
230
1.0
 70
     8
 71
     3
 72
    10
 73
     6
 74
     0
 42
0.000000001
 43
0.00000001
 40
0.0
 40
0.0
 40
0.0
 40
0.0
 40
0.3750906154762942
 40
0.7501434120608163
 40
1.0
 40
1.0
 40
1.0
 40
1.0
 10
214.7249681380602
 20
120.4233065782948
 30
0.0
 10
214.7351934065864
 20
120.5555813131333
 30
0.0
 10
214.7556429126657
 20
120.8201174460758
 30
0.0
 10
214.8842312057013
 20
121.2165933075699
 30
0.0
 10
215.0179236194457
 20
121.4340795923657
 30
0.0
 10
215.0713776579972
 20
121.5210368095054
 30
0.0
  0
LINE
  5
443
330
1F
100
AcDbEntity
  8
0
  6
Continuous
 62
     7
370
    30
100
AcDbLine
 10
215.9187119397
 20
122.2238252035
 30
0.0
 11
216.0714339556
 21
122.2578138254
 31
0.0
  0
SPLINE
  5
444
330
1F
100
AcDbEntity
  8
0
  6
Continuous
 62
     7
370
    30
100
AcDbSpline
210
0.0
220
0.0
230
1.0
 70
     8
 71
     3
 72
    13
 73
     9
 74
     0
 42
0.000000001
 43
0.00000001
 40
0.0
 40
0.0
 40
0.0
 40
0.0
 40
0.1947108473582835
 40
0.389473033298628
 40
0.5835305858081389
 40
0.7772597618864794
 40
0.9715416888274865
 40
1.0
 40
1.0
 40
1.0
 40
1.0
 10
216.3630519776503
 20
122.1878766862392
 30
0.0
 10
216.437728247626
 20
122.1270424571478
 30
0.0
 10
216.5871004771525
 20
122.0053579590622
 30
0.0
 10
216.6821629010894
 20
121.6765332223266
 30
0.0
 10
216.6629788763771
 20
121.2839534832945
 30
0.0
 10
216.5196673308101
 20
120.8681941101833
 30
0.0
 10
216.3607055316608
 20
120.564859983861
 30
0.0
 10
216.2454992642677
 20
120.4368321639543
 30
0.0
 10
216.2307799848314
 20
120.4204747443497
 30
0.0
  0
SPLINE
  5
445
330
1F
100
AcDbEntity
  8
0
  6
Continuous
 62
     7
370
    30
100
AcDbSpline
210
0.0
220
0.0
230
1.0
 70
     8
 71
     3
 72
     9
 73
     5
 74
     0
 42
0.000000001
 43
0.00000001
 40
0.0
 40
0.0
 40
0.0
 40
0.0
 40
0.5761622509793037
 40
1.0
 40
1.0
 40
1.0
 40
1.0
 10
215.4726103837306
 20
119.8164304859305
 30
0.0
 10
215.4242043088907
 20
119.792476490846
 30
0.0
 10
215.3401896502461
 20
119.7509014049325
 30
0.0
 10
215.2730868518309
 20
119.761181841501
 30
0.0
 10
215.2446461527975
 20
119.7655390785952
 30
0.0
  0
SPLINE
  5
446
330
1F
100
AcDbEntity
  8
0
  6
Continuous
 62
     7
370
    30
100
AcDbSpline
210
0.0
220
0.0
230
1.0
 70
     8
 71
     3
 72
    10
 73
     6
 74
     0
 42
0.000000001
 43
0.00000001
 40
0.0
 40
0.0
 40
0.0
 40
0.0
 40
0.2905397065369106
 40
0.7201840546393098
 40
1.0
 40
1.0
 40
1.0
 40
1.0
 10
214.9964035908302
 20
119.8211519389535
 30
0.0
 10
214.947607099535
 20
119.8496800658368
 30
0.0
 10
214.8266513259781
 20
119.9203950202056
 30
0.0
 10
214.7409248760006
 20
120.1451403418417
 30
0.0
 10
214.7294814878573
 20
120.3446274941665
 30
0.0
 10
214.7249681380603
 20
120.4233065782948
 30
0.0
  0
ARC
  5
447
330
1F
100
AcDbEntity
  8
0
  6
Continuous
 62
     7
370
    30
100
AcDbCircle
 10
185.862100448
 20
123.6726614556
 30
0.0
 40
3.319796887332267
100
AcDbArc
 50
334.5330224954
 51
1.5157775673
  0
LINE
  5
448
330
1F
100
AcDbEntity
  8
0
  6
Continuous
 62
     7
370
    30
100
AcDbLine
 10
189.1807356677
 20
138.9582403125
 30
0.0
 11
189.1807356677
 21
123.7604774646
 31
0.0
  0
ARC
  5
449
330
1F
100
AcDbEntity
  8
0
  6
Continuous
 62
     7
370
    30
100
AcDbCircle
 10
182.9689976984
 20
138.8704344043
 30
0.0
 40
6.212358527675446
100
AcDbArc
 50
0.8098495043
 51
18.5290660735
  0
LWPOLYLINE
  5
44A
330
1F
100
AcDbEntity
  8
0
  6
Continuous
 62
     7
370
    30
100
AcDbPolyline
 90
       21
 70
   128
 43
0.0
 10
193.6192942574
 20
141.9219618713
 10
193.3097252413
 20
142.4110005276
 10
192.9658514917
 20
142.8672201769
 10
192.5943302981
 20
143.2817885477
 10
192.2023541962
 20
143.6466797243
 10
191.7975117224
 20
143.9548295261
 10
191.387640502
 20
144.200272268
 10
190.9806755152
 20
144.3782562544
 10
190.5844954787
 20
144.4853357702
 10
190.2067703155
 20
144.519437789
 10
189.8548126684
 20
144.4799021063
 10
189.5354363286
 20
144.3674941207
 10
189.2548243236
 20
144.1843900161
 10
189.0184092152
 20
143.9341346315
 10
188.8307679268
 20
143.6215728338
 10
188.6955331359
 20
143.2527557229
 10
188.6153229463
 20
142.8348234843
 10
188.5916902025
 20
142.3758671572
 10
188.6250924271
 20
141.8847719943
 10
188.7148829635
 20
141.3710454464
 10
188.8593234944
 20
140.8446331008
  0
ARC
  5
44B
330
1F
100
AcDbEntity
  8
0
  6
Continuous
 62
     7
370
    30
100
AcDbCircle
 10
198.4226727491
 20
144.0435418446
 30
0.0
 40
5.251051943947878
100
AcDbArc
 50
203.8303258825
 51
264.5071573331
  0
ARC
  5
44C
330
1F
100
AcDbEntity
  8
0
  6
Continuous
 62
     7
370
    30
100
AcDbCircle
 10
216.4244139002
 20
112.8656698195
 30
0.0
 40
5.252064141874877
100
AcDbArc
 50
155.4987573873
 51
216.1673640014
  0
LWPOLYLINE
  5
44D
330
1F
100
AcDbEntity
  8
0
  6
Continuous
 62
     7
370
    30
100
AcDbPolyline
 90
       21
 70
   128
 43
0.0
 10
208.8718982667
 20
106.1818369067
 10
209.2555515074
 20
105.7935640112
 10
209.6555396768
 20
105.4589689588
 10
210.0641191274
 20
105.1845294064
 10
210.4733798872
 20
104.975558419
 10
210.8753987942
 20
104.8361016104
 10
211.2623928864
 20
104.7688588214
 10
211.6268700777
 20
104.7751318516
 10
211.9617742021
 20
104.8547992571
 10
212.2606216192
 20
105.0063187015
 10
212.5176267353
 20
105.2267568151
 10
212.7278140106
 20
105.5118459842
 10
212.8871142843
 20
105.8560669703
 10
212.9924435523
 20
106.2527557615
 10
213.0417626726
 20
106.6942325852
 10
213.0341168421
 20
107.1719505864
 10
212.9696540818
 20
107.676661292
 10
212.8496223708
 20
108.1985936586
 10
212.676345486
 20
108.7276432366
 10
212.4531780145
 20
109.2535677895
 10
212.1844404094
 20
109.7661855804
  0
ARC
  5
44E
330
1F
100
AcDbEntity
  8
0
  6
Continuous
 62
     7
370
    30
100
AcDbCircle
 10
204.2178937096
 20
102.0684975427
 30
0.0
 40
6.211225252775932
100
AcDbArc
 50
41.4711485855
 51
59.1925319717
  0
LINE
  5
44F
330
1F
100
AcDbEntity
  8
0
  6
Continuous
 62
     7
370
    30
100
AcDbLine
 10
194.238066896
 20
115.0009228522
 30
0.0
 11
207.3990026535
 21
107.4032763599
 31
0.0
  0
ARC
  5
450
330
1F
100
AcDbEntity
  8
0
  6
Continuous
 62
     7
370
    30
100
AcDbCircle
 10
192.50328882
 20
112.1715138418
 30
0.0
 40
3.318886909958542
100
AcDbArc
 50
58.4865462209
 51
85.4742735583
  0
LWPOLYLINE
  5
451
330
1F
100
AcDbEntity
  8
0
  6
Continuous
 62
     7
370
    30
100
AcDbPolyline
 90
       18
 70
   128
 43
0.0
 10
188.8593234944
 20
122.2451792725
 10
188.7117794689
 20
121.8752547227
 10
188.6218873704
 20
121.4524174213
 10
188.5914810601
 20
120.9852935424
 10
188.6211808479
 20
120.483412737
 10
188.7103808373
 20
119.9570137217
 10
188.8572612869
 20
119.4168354012
 10
189.0588257335
 20
118.8738977879
 10
189.3109621228
 20
118.3392771856
 10
189.6085266975
 20
117.8238802251
 10
189.945448934
 20
117.338221362
 10
190.3148553851
 20
116.8922083737
 10
190.7092099029
 20
116.4949402345
 10
191.1204673821
 20
116.1545214898
 10
191.5402378847
 20
115.8778969181
 10
191.9599578014
 20
115.6707098525
 10
192.3710645551
 20
115.5371870527
 10
192.7651712827
 20
115.4800524765
  0
ARC
  5
452
330
1F
100
AcDbEntity
  8
0
  6
Continuous
 62
     7
370
    30
100
AcDbCircle
 10
198.6601559018
 20
135.5874463583
 30
0.0
 40
0.9208194622720383
100
AcDbArc
 50
101.6557116832
 51
163.2141722425
  0
ARC
  5
453
330
1F
100
AcDbEntity
  8
0
  6
Continuous
 62
     7
370
    30
100
AcDbCircle
 10
197.1869194467
 20
136.0344378416
 30
0.0
 40
0.6187376847590975
100
AcDbArc
 50
257.0264432552
 51
342.9843084996
  0
ARC
  5
454
330
1F
100
AcDbEntity
  8
0
  6
Continuous
 62
     7
370
    30
100
AcDbCircle
 10
196.8376684431
 20
134.5351186436
 30
0.0
 40
0.9207244631504918
100
AcDbArc
 50
76.7939064049
 51
138.3567169395
  0
LWPOLYLINE
  5
455
330
1F
100
AcDbEntity
  8
0
  6
Continuous
 62
     7
370
    30
100
AcDbPolyline
 90
       15
 70
   128
 43
0.0
 10
196.1496144344
 20
124.6290699916
 10
195.793576063
 20
125.5157874957
 10
195.4880041437
 20
126.4053040833
 10
195.2350302368
 20
127.2914148048
 10
195.0364189978
 20
128.1679384688
 10
194.8935558677
 20
129.0287607597
 10
194.8074374086
 20
129.8678768891
 10
194.7786643521
 20
130.6794334831
 10
194.8074374086
 20
131.457769413
 10
194.8935558677
 20
132.197455286
 10
195.0364189978
 20
132.8933313179
 10
195.2350302368
 20
133.5405433264
 10
195.4880041437
 20
134.134576592
 10
195.793576063
 20
134.6712873513
 10
196.1496144344
 20
135.1469317018
  0
ARC
  5
456
330
1F
100
AcDbEntity
  8
0
  6
Continuous
 62
     7
370
    30
100
AcDbCircle
 10
199.9866981307
 20
126.2707709449
 30
0.0
 40
4.173534870252722
100
AcDbArc
 50
203.1637198487
 51
225.2411822226
  0
ARC
  5
457
330
1F
100
AcDbEntity
  8
0
  6
Continuous
 62
     7
370
    30
100
AcDbCircle
 10
195.0963054216
 20
121.33684378
 30
0.0
 40
2.773376795540734
100
AcDbArc
 50
14.7269797044
 51
45.2730204413
  0
ARC
  5
458
330
1F
100
AcDbEntity
  8
0
  6
Continuous
 62
     7
370
    30
100
AcDbCircle
 10
201.8145666042
 20
123.1051535939
 30
0.0
 40
4.173705798756737
100
AcDbArc
 50
194.7591801303
 51
216.8360335622
  0
LWPOLYLINE
  5
459
330
1F
100
AcDbEntity
  8
0
  6
Continuous
 62
     7
370
    30
100
AcDbPolyline
 90
       54
 70
   128
 43
0.0
 10
198.4741224528
 20
136.4892778492
 10
199.0480974226
 20
136.5589737917
 10
199.6483937069
 20
136.5582930829
 10
200.2710414548
 20
136.4872402245
 10
200.9119230014
 20
136.3462850998
 10
201.5668000989
 20
136.1363598666
 10
202.231341945
 20
135.8588527927
 10
202.9011538228
 20
135.5155990748
 10
203.5718061639
 20
135.1088687022
 10
204.2388638416
 20
134.6413514451
 10
204.8979155016
 20
134.1161390666
 10
205.5446027344
 20
133.5367048765
 10
206.1746488985
 20
132.9068807618
 10
206.783887402
 20
132.2308318458
 10
207.3682892577
 20
131.5130289432
 10
207.9239897266
 20
130.7582189945
 10
208.4473138766
 20
129.9713936734
 10
208.9348008849
 20
129.157756376
 10
209.3832269255
 20
128.3226878104
 10
209.7896264882
 20
127.4717104126
 10
210.1513119907
 20
126.6104518265
 10
210.4658915514
 20
125.7446076866
 10
210.7312848074
 20
124.8799039529
 10
210.9457366727
 20
124.0220590434
 10
211.1078289442
 20
123.1767460177
 10
211.2164896809
 20
122.3495550602
 10
211.2710002927
 20
121.5459565111
 10
211.2710002927
 20
120.7712646908
 10
211.2164896809
 20
120.0306027545
 10
211.1078289442
 20
119.3288688132
 10
210.9457366727
 20
118.6707035406
 10
210.7312848074
 20
118.0604594844
 10
210.4658915514
 20
117.5021722818
 10
210.1513119907
 20
116.9995339717
 10
209.7896264882
 20
116.5558685779
 10
209.3832269255
 20
116.1741101277
 10
208.9348008849
 20
115.8567832481
 10
208.4473138766
 20
115.6059864702
 10
207.9239897266
 20
115.4233783515
 10
207.3682892577
 20
115.3101665074
 10
206.783887402
 20
115.2670996252
 10
206.1746488985
 20
115.2944625128
 10
205.5446027344
 20
115.3920742152
 10
204.8979155016
 20
115.5592892113
 10
204.2388638416
 20
115.7950016827
 10
203.5718061638
 20
116.0976528268
 10
202.9011538228
 20
116.4652411653
 10
202.231341945
 20
116.8953357803
 10
201.5668000989
 20
117.3850923902
 10
200.9119230014
 20
117.9312721598
 10
200.2710414548
 20
118.5302631186
 10
199.6483937069
 20
119.1781040477
 10
199.0480974226
 20
119.8705106761
 10
198.4741224528
 20
120.6029040128
  0
ARC
  5
45A
330
1F
100
AcDbEntity
  8
0
  6
Continuous
 62
     7
370
    30
100
AcDbCircle
 10
199.955913381
 20
119.1905278673
 30
0.0
 40
2.047073699455661
100
AcDbArc
 50
120.03164778
 51
136.3739399346
  0
LINE
  5
45B
330
1F
100
AcDbEntity
  8
0
  6
Continuous
 62
     7
370
    30
100
AcDbLine
 10
208.9474141625
 20
116.3440881523
 30
0.0
 11
209.078906134
 21
116.42363146
 31
0.0
  0
LWPOLYLINE
  5
45C
330
1F
100
AcDbEntity
  8
0
  6
Continuous
 62
     7
370
    30
100
AcDbPolyline
 90
       15
 70
   128
 43
0.0
 10
201.8776757123
 20
122.6636302983
 10
202.442056101
 20
121.9441757117
 10
203.03272787
 20
121.2648669685
 10
203.6456332203
 20
120.6303707862
 10
204.2765616125
 20
120.045046029
 10
204.9211786925
 20
119.5129137629
 10
205.5750560674
 20
119.0376296323
 10
206.2337017283
 20
118.6224587456
 10
206.8925909086
 20
118.2702532454
 10
207.5471971693
 20
117.9834327142
 10
208.1930234938
 20
117.7639675528
 10
208.8256331822
 20
117.6133654437
 10
209.4406803301
 20
117.5326609938
 10
210.0339396844
 20
117.5224086269
 10
210.2148753641
 20
117.5337314865
  0
LINE
  5
45D
330
1F
100
AcDbEntity
  8
0
  6
Continuous
 62
     7
370
    30
100
AcDbLine
 10
201.8776757123
 20
122.6636302983
 30
0.0
 11
198.9313974574
 21
120.9627800653
 31
0.0
  0
ARC
  5
45E
330
1F
100
AcDbEntity
  8
0
  6
Continuous
 62
     7
370
    30
100
AcDbCircle
 10
204.6613791718
 20
124.7488382825
 30
0.0
 40
3.478088165631319
100
AcDbArc
 50
194.7591801303
 51
216.8360335622
  0
ARC
  5
45F
330
1F
100
AcDbEntity
  8
0
  6
Continuous
 62
     7
370
    30
100
AcDbCircle
 10
197.9452172486
 20
122.9814844746
 30
0.0
 40
3.466720994425685
100
AcDbArc
 50
14.7269797044
 51
45.2730204413
  0
ARC
  5
460
330
1F
100
AcDbEntity
  8
0
  6
Continuous
 62
     7
370
    30
100
AcDbCircle
 10
202.8337555843
 20
127.9140887627
 30
0.0
 40
3.477945725210868
100
AcDbArc
 50
203.1637198487
 51
225.2411822226
  0
LWPOLYLINE
  5
461
330
1F
100
AcDbEntity
  8
0
  6
Continuous
 62
     7
370
    30
100
AcDbPolyline
 90
       14
 70
   128
 43
0.0
 10
199.1267530543
 20
135.9557497101
 10
198.9982044856
 20
135.7120288568
 10
198.7542653611
 20
135.139211065
 10
198.5627473807
 20
134.515113771
 10
198.4249865053
 20
133.8440904546
 10
198.3419437054
 20
133.1308219342
 10
198.314198258
 20
132.380283716
 10
198.3419437054
 20
131.5977112862
 10
198.4249865053
 20
130.7885635899
 10
198.5627473807
 20
129.9584849523
 10
198.7542653611
 20
129.1132657049
 10
198.9982044856
 20
128.2588017949
 10
199.2928631221
 20
127.4010536568
 10
199.6361858374
 20
126.5460046349
  0
ARC
  5
462
330
1F
100
AcDbEntity
  8
0
  6
Continuous
 62
     7
370
    30
100
AcDbCircle
 10
216.7762936795
 20
112.9345903613
 30
0.0
 40
4.422140203302988
100
AcDbArc
 50
155.8425138199
 51
215.8236075687
  0
LWPOLYLINE
  5
463
330
1F
100
AcDbEntity
  8
0
  6
Continuous
 62
     7
370
    30
100
AcDbPolyline
 90
        9
 70
   128
 43
0.0
 10
213.1907218867
 20
110.3463479274
 10
213.0677507777
 20
110.2753726587
 10
212.9334793108
 20
110.1979021602
 10
212.7930674632
 20
110.1169135799
 10
212.6519111835
 20
110.0355192633
 10
212.5154350283
 20
109.9568471485
 10
212.3888836997
 20
109.8839205606
 10
212.2771204943
 20
109.8195420276
 10
212.1844404094
 20
109.7661855804
  0
ARC
  5
464
330
1F
100
AcDbEntity
  8
0
  6
Continuous
 62
     7
370
    30
100
AcDbCircle
 10
198.6007568864
 20
144.2340756734
 30
0.0
 40
4.336257018713848
100
AcDbArc
 50
203.5234630259
 51
264.8140201897
  0
LWPOLYLINE
  5
465
330
1F
100
AcDbEntity
  8
0
  6
Continuous
 62
     7
370
    30
100
AcDbPolyline
 90
        9
 70
   128
 43
0.0
 10
193.6192942574
 20
141.9219618713
 10
193.7118341447
 20
141.9755611479
 10
193.8234625402
 20
142.0401731784
 10
193.9498896272
 20
142.1133149589
 10
194.0862568839
 20
142.1921756916
 10
194.2273237929
 20
142.2737248029
 10
194.367669232
 20
142.354828406
 10
194.5018998048
 20
142.4323697352
 10
194.6248571055
 20
142.5033689205
  0
ARC
  5
466
330
1F
100
AcDbEntity
  8
0
  6
Continuous
 62
     7
370
    30
100
AcDbCircle
 10
220.2138319331
 20
114.9655994734
 30
0.0
 40
4.337103157486522
100
AcDbArc
 50
155.1920256395
 51
216.4740957491
  0
LINE
  5
467
330
1F
100
AcDbEntity
  8
0
  6
Continuous
 62
     7
370
    30
100
AcDbLine
 10
216.7262557927
 20
112.3873682069
 30
0.0
 11
213.1907218867
 21
110.3463479274
 31
0.0
  0
ARC
  5
468
330
1F
100
AcDbEntity
  8
0
  6
Continuous
 62
     7
370
    30
100
AcDbCircle
 10
202.1939567646
 20
146.3549599226
 30
0.0
 40
4.421291556299972
100
AcDbArc
 50
204.1741656879
 51
264.1633175277
  0
LINE
  5
469
330
1F
100
AcDbEntity
  8
0
  6
Continuous
 62
     7
370
    30
100
AcDbLine
 10
198.1603910115
 20
144.5443892
 30
0.0
 11
194.6248571055
 21
142.5033689205
 31
0.0
  0
ARC
  5
46A
330
1F
100
AcDbEntity
  8
0
  6
Continuous
 62
     7
370
    30
100
AcDbCircle
 10
198.1375668438
 20
136.2114130033
 30
0.0
 40
0.5070198899650671
100
AcDbArc
 50
224.9235631775
 51
294.9911597876
  0
ARC
  5
46B
330
1F
100
AcDbEntity
  8
0
  6
Continuous
 62
     7
370
    30
100
AcDbCircle
 10
196.5141077279
 20
135.386639532
 30
0.0
 40
0.4362513092922347
100
AcDbArc
 50
213.3307897593
 51
293.7645051631
  0
LWPOLYLINE
  5
46C
330
1F
100
AcDbEntity
  8
0
  6
Continuous
 62
     7
370
    30
100
AcDbPolyline
 90
       15
 70
   128
 43
0.0
 10
196.6899075824
 20
134.987378194
 10
196.3465848672
 20
134.5287211417
 10
196.0519262307
 20
134.0111786239
 10
195.8079871062
 20
133.438360832
 10
195.6164691257
 20
132.8142635381
 10
195.4787082503
 20
132.1432402216
 10
195.3956654505
 20
131.4299717013
 10
195.3679200031
 20
130.6794334831
 10
195.3956654505
 20
129.8968610532
 10
195.4787082503
 20
129.087713357
 10
195.6164691257
 20
128.2576347193
 10
195.8079871062
 20
127.4124154719
 10
196.0519262307
 20
126.5579515619
 10
196.3465848672
 20
125.7002034238
 10
196.6899075824
 20
124.845154402
  0
ARC
  5
46D
330
1F
100
AcDbEntity
  8
0
  6
Continuous
 62
     7
370
    30
100
AcDbCircle
 10
195.6667147724
 20
126.6200139791
 30
0.0
 40
2.048670311496495
100
AcDbArc
 50
283.6336967509
 51
299.9631161032
  0
LINE
  5
46E
330
1F
100
AcDbEntity
  8
0
  6
Continuous
 62
     7
370
    30
100
AcDbLine
 10
196.6899075824
 20
124.845154402
 30
0.0
 11
199.6361858374
 21
126.5460046349
 31
0.0
  0
ARC
  5
46F
330
1F
100
AcDbEntity
  8
0
  6
Continuous
 62
     7
370
    30
100
AcDbCircle
 10
194.9989389936
 20
121.2806342416
 30
0.0
 40
3.4667209944256
100
AcDbArc
 50
14.7269797044
 51
45.2730204413
  0
ARC
  5
470
330
1F
100
AcDbEntity
  8
0
  6
Continuous
 62
     7
370
    30
100
AcDbCircle
 10
197.875141395
 20
123.00924731
 30
0.0
 40
0.9721821862678485
100
AcDbArc
 50
264.2992400101
 51
299.3582382295
  0
ARC
  5
471
330
1F
100
AcDbEntity
  8
0
  6
Continuous
 62
     7
370
    30
100
AcDbCircle
 10
197.9338454054
 20
122.9074024745
 30
0.0
 40
0.9718902440935614
100
AcDbArc
 50
120.637046352
 51
155.7070841574
  0
LINE
  5
472
330
1F
100
AcDbEntity
  8
0
  6
Continuous
 62
     7
370
    30
100
AcDbLine
 10
198.3517718067
 20
122.1619211308
 30
0.0
 11
201.2980500616
 21
123.8627713638
 31
0.0
  0
LINE
  5
473
330
1F
100
AcDbEntity
  8
0
  6
Continuous
 62
     7
370
    30
100
AcDbLine
 10
200.3848504829
 20
125.4444794269
 30
0.0
 11
197.438572228
 21
123.7436291939
 31
0.0
  0
ARC
  5
474
330
1F
100
AcDbEntity
  8
0
  6
Continuous
 62
     7
370
    30
100
AcDbCircle
 10
201.7151009168
 20
123.0479880496
 30
0.0
 40
3.478088165630123
100
AcDbArc
 50
194.7591801303
 51
216.8360335622
  0
ARC
  5
475
330
1F
100
AcDbEntity
  8
0
  6
Continuous
 62
     7
370
    30
100
AcDbCircle
 10
199.8874773294
 20
126.2132385298
 30
0.0
 40
3.477945725210526
100
AcDbArc
 50
203.1637198487
 51
225.2411822226
  0
ARC
  5
476
330
1F
100
AcDbEntity
  8
0
  6
Continuous
 62
     7
370
    30
100
AcDbCircle
 10
196.8055817543
 20
147.5812404983
 30
0.0
 40
1.809882144214955
100
AcDbArc
 50
113.7930837401
 51
126.2176680147
  0
ARC
  5
477
330
1F
100
AcDbEntity
  8
0
  6
Continuous
 62
     7
370
    30
100
AcDbCircle
 10
196.7070332302
 20
147.3717481254
 30
0.0
 40
1.969573745249532
100
AcDbArc
 50
55.2630903594
 51
108.7046090824
  0
LINE
  5
478
330
1F
100
AcDbEntity
  8
0
  6
Continuous
 62
     7
370
    30
100
AcDbLine
 10
199.3883380391
 20
148.0902934651
 30
0.0
 11
197.8293141279
 21
148.9902988118
 31
0.0
  0
ARC
  5
479
330
1F
100
AcDbEntity
  8
0
  6
Continuous
 62
     7
370
    30
100
AcDbCircle
 10
196.5998650174
 20
143.5855687465
 30
0.0
 40
5.297936068142639
100
AcDbArc
 50
30.9756891852
 51
58.2420471762
  0
ARC
  5
47A
330
1F
100
AcDbEntity
  8
0
  6
Continuous
 62
     7
370
    30
100
AcDbCircle
 10
194.4830707371
 20
141.9487092472
 30
0.0
 40
7.961487801004956
100
AcDbArc
 50
2.1434908302
 51
33.2357275965
  0
ARC
  5
47B
330
1F
100
AcDbEntity
  8
0
  6
Continuous
 62
     7
370
    30
100
AcDbCircle
 10
209.4753949462
 20
129.6381194942
 30
0.0
 40
7.043688701372061
100
AcDbArc
 50
182.6054784857
 51
237.39452166
  0
ARC
  5
47C
330
1F
100
AcDbEntity
  8
0
  6
Continuous
 62
     7
370
    30
100
AcDbCircle
 10
212.6406018122
 20
110.5007957099
 30
0.0
 40
7.960565724627012
100
AcDbArc
 50
26.7635381737
 51
57.8582212109
  0
ARC
  5
47D
330
1F
100
AcDbEntity
  8
0
  6
Continuous
 62
     7
370
    30
100
AcDbCircle
 10
215.1151279517
 20
111.5147537203
 30
0.0
 40
5.298656570734817
100
AcDbArc
 50
1.7598901495
 51
29.023741634
  0
LINE
  5
47E
330
1F
100
AcDbEntity
  8
0
  6
Continuous
 62
     7
370
    30
100
AcDbLine
 10
220.4112851701
 20
109.8771777465
 30
0.0
 11
220.4112851701
 21
111.6774810162
 31
0.0
  0
ARC
  5
47F
330
1F
100
AcDbEntity
  8
0
  6
Continuous
 62
     7
370
    30
100
AcDbCircle
 10
218.4479555395
 20
109.7144164002
 30
0.0
 40
1.97006459141818
100
AcDbArc
 50
311.3066242876
 51
4.7390221239
  0
ARC
  5
480
330
1F
100
AcDbEntity
  8
0
  6
Continuous
 62
     7
370
    30
100
AcDbCircle
 10
218.6789955934
 20
109.6947012416
 30
0.0
 40
1.80988214421263
100
AcDbArc
 50
293.79308374
 51
306.2176680147
  0
ARC
  5
481
330
1F
100
AcDbEntity
  8
0
  6
Continuous
 62
     7
370
    30
100
AcDbCircle
 10
217.5154246397
 20
117.2121703702
 30
0.0
 40
0.6403353364882912
100
AcDbArc
 50
122.60547834
 51
177.3945215143
  0
ARC
  5
482
330
1F
100
AcDbEntity
  8
0
  6
Continuous
 62
     7
370
    30
100
AcDbCircle
 10
212.6094489106
 20
110.4926073523
 30
0.0
 40
8.57291693421298
100
AcDbArc
 50
26.7635381737
 51
57.8582212109
  0
ARC
  5
483
330
1F
100
AcDbEntity
  8
0
  6
Continuous
 62
     7
370
    30
100
AcDbCircle
 10
217.038095886
 20
119.9389107429
 30
0.0
 40
6.450415411714828
100
AcDbArc
 50
294.8453759043
 51
300.0068482287
  0
ARC
  5
484
330
1F
100
AcDbEntity
  8
0
  6
Continuous
 62
     7
370
    30
100
AcDbCircle
 10
204.8474411512
 20
141.0525376148
 30
0.0
 40
6.433771102320241
100
AcDbArc
 50
119.9877622213
 51
125.1626017205
  0
ARC
  5
485
330
1F
100
AcDbEntity
  8
0
  6
Continuous
 62
     7
370
    30
100
AcDbCircle
 10
194.4603327668
 20
141.9258032834
 30
0.0
 40
8.57390993954421
100
AcDbArc
 50
2.1434908302
 51
33.2357275965
  0
ARC
  5
486
330
1F
100
AcDbEntity
  8
0
  6
Continuous
 62
     7
370
    30
100
AcDbCircle
 10
202.7336156404
 20
142.8151163949
 30
0.0
 40
0.6404257949633094
100
AcDbArc
 50
242.6096722366
 51
297.3903277634
  0
LINE
  5
487
330
1F
100
AcDbEntity
  8
0
  6
Continuous
 62
     7
370
    30
100
AcDbLine
 10
217.1703790897
 20
117.7515894202
 30
0.0
 11
219.9398806493
 21
119.3503886392
 31
0.0
  0
SPLINE
  5
488
330
1F
100
AcDbEntity
  8
0
  6
Continuous
 62
     7
370
    30
100
AcDbSpline
210
0.0
220
0.0
230
1.0
 70
     8
 71
     3
 72
    17
 73
    13
 74
     0
 42
0.000000001
 43
0.00000001
 40
0.0
 40
0.0
 40
0.0
 40
0.0
 40
0.1068957233957625
 40
0.213774779368031
 40
0.3210874121168947
 40
0.4286952122433987
 40
0.5358278479653333
 40
0.6424558055154289
 40
0.7493368786748668
 40
0.8568323355720119
 40
0.9643487025497521
 40
1.0
 40
1.0
 40
1.0
 40
1.0
 10
220.8826896908932
 20
119.8946607137526
 30
0.0
 10
220.9303289770189
 20
119.8604790912685
 30
0.0
 10
221.0256001212447
 20
119.7921211759762
 30
0.0
 10
221.0856358285604
 20
119.6545413580579
 30
0.0
 10
221.0739908958263
 20
119.5128390829096
 30
0.0
 10
220.9865934441087
 20
119.3830786574825
 30
0.0
 10
220.8347305094543
 20
119.2838528371113
 30
0.0
 10
220.6359321169103
 20
119.2263664029596
 30
0.0
 10
220.4119402224477
 20
119.2146981489435
 30
0.0
 10
220.1878180078238
 20
119.2471740942797
 30
0.0
 10
220.0308452066557
 20
119.3009714306799
 30
0.0
 10
219.9580163350195
 20
119.3405362858421
 30
0.0
 10
219.9398806493111
 20
119.3503886392042
 30
0.0
  0
LINE
  5
489
330
1F
100
AcDbEntity
  8
0
  6
Continuous
 62
     7
370
    30
100
AcDbLine
 10
220.8826896909
 20
119.8946607138
 30
0.0
 11
223.6521912505
 21
121.4934599327
 31
0.0
  0
ARC
  5
48A
330
1F
100
AcDbEntity
  8
0
  6
Continuous
 62
     7
370
    30
100
AcDbCircle
 10
219.0912610715
 20
114.2344778648
 30
0.0
 40
8.572916934213005
100
AcDbArc
 50
26.7635381737
 51
57.8582212109
  0
LINE
  5
48B
330
1F
100
AcDbEntity
  8
0
  6
Continuous
 62
     7
370
    30
100
AcDbLine
 10
220.2639712574
 20
114.3530726615
 30
0.0
 11
226.7457834182
 21
118.094943174
 31
0.0
  0
SPLINE
  5
48C
330
1F
100
AcDbEntity
  8
0
  6
Continuous
 62
     7
370
    30
100
AcDbSpline
210
0.0
220
0.0
230
1.0
 70
     8
 71
     3
 72
    17
 73
    13
 74
     0
 42
0.000000001
 43
0.00000001
 40
0.0
 40
0.0
 40
0.0
 40
0.0
 40
0.1068957233957675
 40
0.2137747793680339
 40
0.321087412116895
 40
0.4286952122433978
 40
0.5358278479653305
 40
0.6424558055154239
 40
0.7493368786748577
 40
0.856832335572002
 40
0.96434870254975
 40
1.0
 40
1.0
 40
1.0
 40
1.0
 10
205.7977450255802
 20
143.8452859951463
 30
0.0
 10
205.8023140483862
 20
143.9096166305819
 30
0.0
 10
205.8114513815858
 20
144.0382678708747
 30
0.0
 10
205.8836526229721
 20
144.2522112707719
 30
0.0
 10
205.9932461404402
 20
144.4504764419448
 30
0.0
 10
206.1355774373104
 20
144.6119598103836
 30
0.0
 10
206.2953205426099
 20
144.7157362352793
 30
0.0
 10
206.4547587812303
 20
144.7504931496535
 30
0.0
 10
206.5950241798363
 20
144.7138114137998
 30
0.0
 10
206.6970551541684
 20
144.6108307832872
 30
0.0
 10
206.7371857951817
 20
144.4895599762486
 30
0.0
 10
206.7398825317445
 20
144.4094955398528
 30
0.0
 10
206.7405540671622
 20
144.3895580696948
 30
0.0
  0
LINE
  5
48D
330
1F
100
AcDbEntity
  8
0
  6
Continuous
 62
     7
370
    30
100
AcDbLine
 10
203.0282434659
 20
142.2464867762
 30
0.0
 11
205.7977450256
 21
143.8452859951
 31
0.0
  0
LINE
  5
48E
330
1F
100
AcDbEntity
  8
0
  6
Continuous
 62
     7
370
    30
100
AcDbLine
 10
208.1135579144
 20
150.36690431
 30
0.0
 11
201.6317457535
 21
146.6250337975
 31
0.0
  0
ARC
  5
48F
330
1F
100
AcDbEntity
  8
0
  6
Continuous
 62
     7
370
    30
100
AcDbCircle
 10
200.9421449276
 20
145.6676737959
 30
0.0
 40
8.57390993954384
100
AcDbArc
 50
2.1434908302
 51
33.2357275965
  0
LINE
  5
490
330
1F
100
AcDbEntity
  8
0
  6
Continuous
 62
     7
370
    30
100
AcDbLine
 10
206.7405540672
 20
144.3895580697
 30
0.0
 11
209.5100556268
 21
145.9883572887
 31
0.0
  0
ARC
  5
491
330
1F
100
AcDbEntity
  8
0
  6
Continuous
 62
     7
370
    30
100
AcDbCircle
 10
215.1159216896
 20
111.4966729097
 30
0.0
 40
5.887396189705281
100
AcDbArc
 50
1.7598901495
 51
29.023741634
  0
ARC
  5
492
330
1F
100
AcDbEntity
  8
0
  6
Continuous
 62
     7
370
    30
100
AcDbCircle
 10
220.7059129956
 20
112.2461106349
 30
0.0
 40
0.6404257949633729
100
AcDbArc
 50
242.6096722366
 51
297.3903277634
  0
ARC
  5
493
330
1F
100
AcDbEntity
  8
0
  6
Continuous
 62
     7
370
    30
100
AcDbCircle
 10
200.0280114147
 20
148.0611847766
 30
0.0
 40
0.6403353364882554
100
AcDbArc
 50
122.60547834
 51
177.3945215144
  0
ARC
  5
494
330
1F
100
AcDbEntity
  8
0
  6
Continuous
 62
     7
370
    30
100
AcDbCircle
 10
196.5846625072
 20
143.5953541394
 30
0.0
 40
5.886595631269807
100
AcDbArc
 50
30.9756891852
 51
58.2420471762
  0
ARC
  5
495
330
1F
100
AcDbEntity
  8
0
  6
Continuous
 62
     7
370
    30
100
AcDbCircle
 10
221.5977338504
 20
115.2385434222
 30
0.0
 40
5.887396189704765
100
AcDbArc
 50
1.7598901495
 51
29.023741634
  0
LINE
  5
496
330
1F
100
AcDbEntity
  8
0
  6
Continuous
 62
     7
370
    30
100
AcDbLine
 10
227.482352982
 20
115.4193515287
 30
0.0
 11
221.0005408211
 21
111.6774810162
 31
0.0
  0
LINE
  5
497
330
1F
100
AcDbEntity
  8
0
  6
Continuous
 62
     7
370
    30
100
AcDbLine
 10
199.6829658646
 20
148.6006038266
 30
0.0
 11
206.1647780255
 21
152.3424743392
 31
0.0
  0
ARC
  5
498
330
1F
100
AcDbEntity
  8
0
  6
Continuous
 62
     7
370
    30
100
AcDbCircle
 10
203.0664746681
 20
147.3372246519
 30
0.0
 40
5.886595631269783
100
AcDbArc
 50
30.9756891852
 51
58.2420471762
  0
LINE
  5
499
330
1F
100
AcDbEntity
  8
0
  6
Continuous
 62
     7
370
    30
100
AcDbLine
 10
221.0005408211
 20
111.6774810162
 30
0.0
 11
221.0005408211
 21
109.8771777465
 31
0.0
  0
ARC
  5
49A
330
1F
100
AcDbEntity
  8
0
  6
Continuous
 62
     7
370
    30
100
AcDbCircle
 10
220.7059129956
 20
110.4458073653
 30
0.0
 40
0.6404257949633225
100
AcDbArc
 50
242.6096722366
 51
297.3903277634
  0
ARC
  5
49B
330
1F
100
AcDbEntity
  8
0
  6
Continuous
 62
     7
370
    30
100
AcDbCircle
 10
198.4689875035
 20
148.9611901234
 30
0.0
 40
0.6403353364881912
100
AcDbArc
 50
122.60547834
 51
177.3945215144
  0
LINE
  5
49C
330
1F
100
AcDbEntity
  8
0
  6
Continuous
 62
     7
370
    30
100
AcDbLine
 10
198.1239419534
 20
149.5006091734
 30
0.0
 11
199.6829658646
 21
148.6006038266
 31
0.0
  0
LINE
  5
49D
330
1F
100
AcDbEntity
  8
0
  6
Continuous
 62
     7
370
    30
100
AcDbLine
 10
227.482352982
 20
113.6190482591
 30
0.0
 11
227.482352982
 21
115.4193515287
 31
0.0
  0
LINE
  5
49E
330
1F
100
AcDbEntity
  8
0
  6
Continuous
 62
     7
370
    30
100
AcDbLine
 10
221.0005408211
 20
109.8771777465
 30
0.0
 11
227.482352982
 21
113.6190482591
 31
0.0
  0
LINE
  5
49F
330
1F
100
AcDbEntity
  8
0
  6
Continuous
 62
     7
370
    30
100
AcDbLine
 10
204.6057541143
 20
153.2424796859
 30
0.0
 11
198.1239419534
 21
149.5006091734
 31
0.0
  0
LINE
  5
4A0
330
1F
100
AcDbEntity
  8
0
  6
Continuous
 62
     7
370
    30
100
AcDbLine
 10
206.1647780255
 20
152.3424743392
 30
0.0
 11
204.6057541143
 21
153.2424796859
 31
0.0
  0
ARC
  5
4A1
330
1F
100
AcDbEntity
  8
0
  6
Continuous
 62
     7
370
    30
100
AcDbCircle
 10
206.319567271
 20
123.6754012555
 30
0.0
 40
0.640335336488373
100
AcDbArc
 50
122.60547834
 51
177.3945215143
  0
ARC
  5
4A2
330
1F
100
AcDbEntity
  8
0
  6
Continuous
 62
     7
370
    30
100
AcDbCircle
 10
202.7336156404
 20
129.88655354
 30
0.0
 40
0.6404257949633598
100
AcDbArc
 50
242.6096722366
 51
297.3903277634
  0
LWPOLYLINE
  5
4A3
330
1F
100
AcDbEntity
  8
0
  6
Continuous
 62
     7
370
    30
100
AcDbPolyline
 90
       10
 70
   128
 43
0.0
 10
220.8826896909
 20
119.8946607138
 10
220.6930306779
 20
119.971324909
 10
220.4693889986
 20
120.0059186485
 10
220.23873914
 20
119.9942694167
 10
220.0289008792
 20
119.9377822828
 10
219.8651838072
 20
119.8432704289
 10
219.7673346192
 20
119.7221333794
 10
219.7471553714
 20
119.5889820503
 10
219.8070799787
 20
119.4598764569
 10
219.9398806493
 20
119.3503886392
  0
LWPOLYLINE
  5
4A4
330
1F
100
AcDbEntity
  8
0
  6
Continuous
 62
     7
370
    30
100
AcDbPolyline
 90
       10
 70
   128
 43
0.0
 10
205.7977450256
 20
143.8452859951
 10
205.8261741968
 20
143.675515536
 10
205.9080327328
 20
143.5590455222
 10
206.033447286
 20
143.5099239562
 10
206.1872910104
 20
143.534075624
 10
206.3510080824
 20
143.6285874779
 10
206.5048518068
 20
143.7820599935
 10
206.63026636
 20
143.9759821204
 10
206.712124896
 20
144.1869639882
 10
206.7405540672
 20
144.3895580697
  0
ARC
  5
4A5
330
1F
100
AcDbEntity
  8
0
  6
Continuous
 62
     7
370
    30
100
AcDbCircle
 10
218.8190634537
 20
109.6963318061
 30
0.0
 40
2.188960657131555
100
AcDbArc
 50
311.3066242876
 51
4.7390221239
  0
ARC
  5
4A6
330
1F
100
AcDbEntity
  8
0
  6
Continuous
 62
     7
370
    30
100
AcDbCircle
 10
220.1037935264
 20
108.4190448073
 30
0.0
 40
0.4004629338124288
100
AcDbArc
 50
207.4361010025
 51
293.5770166456
  0
ARC
  5
4A7
330
1F
100
AcDbEntity
  8
0
  6
Continuous
 62
     7
370
    30
100
AcDbCircle
 10
196.4128782893
 20
149.4528289635
 30
0.0
 40
0.4004210511571672
100
AcDbArc
 50
126.4175678693
 51
212.5653549268
  0
ARC
  5
4A8
330
1F
100
AcDbEntity
  8
0
  6
Continuous
 62
     7
370
    30
100
AcDbCircle
 10
196.8769631782
 20
147.7022195218
 30
0.0
 40
2.188415272499298
100
AcDbArc
 50
55.2630903594
 51
108.7046090824
  0
ARC
  5
4A9
330
1F
100
AcDbEntity
  8
0
  6
Continuous
 62
     7
370
    30
100
AcDbCircle
 10
225.3008756146
 20
113.4382023186
 30
0.0
 40
2.188960657131417
100
AcDbArc
 50
311.3066242876
 51
4.7390221239
  0
LINE
  5
4AA
330
1F
100
AcDbEntity
  8
0
  6
Continuous
 62
     7
370
    30
100
AcDbLine
 10
226.7457834182
 20
111.7938817302
 30
0.0
 11
220.2639712574
 21
108.0520112177
 31
0.0
  0
LINE
  5
4AB
330
1F
100
AcDbEntity
  8
0
  6
Continuous
 62
     7
370
    30
100
AcDbLine
 10
196.1751620645
 20
149.7750525111
 30
0.0
 11
202.6569742254
 21
153.5169230237
 31
0.0
  0
ARC
  5
4AC
330
1F
100
AcDbEntity
  8
0
  6
Continuous
 62
     7
370
    30
100
AcDbCircle
 10
203.3587753391
 20
151.4440900343
 30
0.0
 40
2.188415272499387
100
AcDbArc
 50
55.2630903594
 51
108.7046090824
  0
ARC
  5
4AD
330
1F
100
AcDbEntity
  8
0
  6
Continuous
 62
     7
370
    30
100
AcDbCircle
 10
219.1123345211
 20
109.6245056173
 30
0.0
 40
1.949103847613105
100
AcDbArc
 50
293.79308374
 51
306.2176680147
  0
ARC
  5
4AE
330
1F
100
AcDbEntity
  8
0
  6
Continuous
 62
     7
370
    30
100
AcDbCircle
 10
219.7499892931
 20
108.177863225
 30
0.0
 40
0.3681618269937779
100
AcDbArc
 50
202.2189524692
 51
293.8189950474
  0
ARC
  5
4AF
330
1F
100
AcDbEntity
  8
0
  6
Continuous
 62
     7
370
    30
100
AcDbCircle
 10
196.0271458736
 20
149.2669476959
 30
0.0
 40
0.3681198500275907
100
AcDbArc
 50
126.1750191267
 51
217.7823869934
  0
ARC
  5
4B0
330
1F
100
AcDbEntity
  8
0
  6
Continuous
 62
     7
370
    30
100
AcDbCircle
 10
196.9614984775
 20
147.9916061693
 30
0.0
 40
1.949103847614418
100
AcDbArc
 50
113.7930837401
 51
126.2176680147
  0
ARC
  5
4B1
330
1F
100
AcDbEntity
  8
0
  6
Continuous
 62
     7
370
    30
100
AcDbCircle
 10
225.5930191069
 20
113.3680422148
 30
0.0
 40
1.951114242866185
100
AcDbArc
 50
300.0015143364
 51
306.2154740815
  0
ARC
  5
4B2
330
1F
100
AcDbEntity
  8
0
  6
Continuous
 62
     7
370
    30
100
AcDbCircle
 10
203.4443501246
 20
151.7313508909
 30
0.0
 40
1.951468331276864
100
AcDbArc
 50
113.7958295338
 51
119.9925256818
  0
ARC
  5
4B3
330
1F
100
AcDbEntity
  8
0
  6
Continuous
 62
     7
370
    30
100
AcDbCircle
 10
209.4001806559
 20
129.5946945018
 30
0.0
 40
6.37794524174838
100
AcDbArc
 50
182.487128189
 51
237.5128719567
  0
LWPOLYLINE
  5
4B4
330
1F
100
AcDbEntity
  8
0
  6
Continuous
 62
     8
370
    30
100
AcDbPolyline
 90
        3
 70
   128
 43
0.0
 10
216.4433986633
 20
116.9339596559
 10
216.3821790221
 20
116.8640080848
 10
216.2769605979
 20
116.7853543714
  0
LWPOLYLINE
  5
4B5
330
1F
100
AcDbEntity
  8
0
  6
Continuous
 62
     8
370
    30
100
AcDbPolyline
 90
        3
 70
   128
 43
0.0
 10
201.9561393222
 20
142.0263930745
 10
201.8650731194
 20
142.0083730132
 10
201.7443413506
 20
141.9565892009
  0
LWPOLYLINE
  5
4B6
330
1F
100
AcDbEntity
  8
0
  6
Continuous
 62
     8
370
    30
100
AcDbPolyline
 90
       18
 70
   128
 43
0.0
 10
198.9313974574
 20
120.9627800653
 10
199.4957778461
 20
120.2433254788
 10
200.0864496151
 20
119.5640167355
 10
200.6993549654
 20
118.9295205532
 10
201.3302833576
 20
118.344195796
 10
201.9749004375
 20
117.81206353
 10
202.6287778125
 20
117.3367793993
 10
203.2874234733
 20
116.9216085126
 10
203.9463126537
 20
116.5694030124
 10
204.6009189144
 20
116.2825824812
 10
205.2467452389
 20
116.0631173198
 10
205.8793549272
 20
115.9125152107
 10
206.4944020751
 20
115.8318107609
 10
207.0876614294
 20
115.821558394
 10
207.6550574149
 20
115.8818285418
 10
208.1926921325
 20
116.0122071602
 10
208.6968721374
 20
116.2117985738
 10
208.9474141625
 20
116.3440881523
  0
ARC
  5
4B7
330
1F
100
AcDbEntity
  8
0
  6
Continuous
 62
     8
370
    30
100
AcDbCircle
 10
198.8050329794
 20
136.5946855993
 30
0.0
 40
0.3472932052251598
100
AcDbArc
 50
197.6686810687
 51
276.5299168665
  0
ARC
  5
4B8
330
1F
100
AcDbEntity
  8
0
  6
Continuous
 62
     8
370
    30
100
AcDbCircle
 10
204.5128807547
 20
132.2866466908
 30
0.0
 40
5.331103002170654
100
AcDbArc
 50
133.2395706815
 51
184.4821530495
  0
LWPOLYLINE
  5
4B9
330
1F
100
AcDbEntity
  8
0
  6
Continuous
 62
     8
370
    30
100
AcDbPolyline
 90
       27
 70
   128
 43
0.0
 10
210.8425475412
 20
118.9202290509
 10
210.5009878634
 20
118.8033362817
 10
209.9837599432
 20
118.6956309928
 10
209.4374601602
 20
118.659085726
 10
208.8663640509
 20
118.6939864976
 10
208.2749412166
 20
118.8000601617
 10
207.667820343
 20
118.9764765481
 10
207.049752974
 20
119.2218549595
 10
206.4255763248
 20
119.5342749769
 10
205.8001754239
 20
119.9112914902
 10
205.1784448815
 20
120.349953834
 10
204.5652505818
 20
120.8468288807
 10
203.9653916018
 20
121.3980279094
 10
203.3835626513
 20
121.9992370403
 10
202.8243173306
 20
122.6457509968
 10
202.2920324927
 20
123.3325099306
 10
201.7908739881
 20
124.054139022
 10
201.3247640617
 20
124.8049905448
 10
200.8973506555
 20
125.5791880679
 10
200.511978859
 20
126.370672446
 10
200.1716647289
 20
127.1732492406
 10
199.8790716849
 20
127.9806372002
 10
199.636489664
 20
128.7865174193
 10
199.4458171997
 20
129.5845827924
 10
199.3085465624
 20
130.3685873761
 10
199.225752081
 20
131.1323952715
 10
199.1980817345
 20
131.8700286461
  0
LWPOLYLINE
  5
4BA
330
1F
100
AcDbEntity
  8
0
  6
Continuous
 62
     8
370
    30
100
AcDbPolyline
 90
       27
 70
   128
 43
0.0
 10
199.7873373855
 20
131.8700286461
 10
199.8146173406
 20
131.1528362868
 10
199.8962375639
 20
130.4099215728
 10
200.0315408973
 20
129.6472660166
 10
200.2194379578
 20
128.8710100724
 10
200.4584159089
 20
128.0874036966
 10
200.7465506406
 20
127.3027560269
 10
201.0815222615
 20
126.5233845851
 10
201.460633777
 20
125.7555644117
 10
201.8808328042
 20
125.0054775433
 10
202.3387361475
 20
124.2791632383
 10
202.8306570384
 20
123.5824693524
 10
203.3526348192
 20
122.9210052552
 10
203.9004668317
 20
122.3000966666
 10
204.4697422547
 20
121.7247427775
 10
205.0558776172
 20
121.199575999
 10
205.6541537019
 20
120.7288246654
 10
206.2597535415
 20
120.3162789896
 10
206.8678012022
 20
119.9652605467
 10
207.4734010419
 20
119.6785955308
 10
208.0716771265
 20
119.4585920002
 10
208.657812489
 20
119.3070212939
 10
209.227087912
 20
119.22510377
 10
209.7749199245
 20
119.2134989804
 10
210.2968977053
 20
119.2723003599
 10
210.7888185963
 20
119.4010344745
 10
210.9913880889
 20
119.4781892203
  0
ARC
  5
4BB
330
1F
100
AcDbEntity
  8
0
  6
Continuous
 62
     8
370
    30
100
AcDbCircle
 10
204.8443150379
 20
132.2780847457
 30
0.0
 40
5.073414309677778
100
AcDbArc
 50
132.425462248
 51
184.61329828
  0
ARC
  5
4BC
330
1F
100
AcDbEntity
  8
0
  6
Continuous
 62
     8
370
    30
100
AcDbCircle
 10
206.1506156458
 20
132.717920224
 30
0.0
 40
5.489787391952163
100
AcDbArc
 50
144.2462122956
 51
183.5260679676
  0
LWPOLYLINE
  5
4BD
330
1F
100
AcDbEntity
  8
0
  6
Continuous
 62
     8
370
    30
100
AcDbPolyline
 90
       25
 70
   128
 43
0.0
 10
211.032229395
 20
119.7582588444
 10
210.658803401
 20
119.7237540503
 10
210.1109713885
 20
119.7353588399
 10
209.5416959655
 20
119.8172763637
 10
208.955560603
 20
119.9688470701
 10
208.3572845183
 20
120.1888506007
 10
207.7516846787
 20
120.4755156166
 10
207.143637018
 20
120.8265340595
 10
206.5380371784
 20
121.2390797353
 10
205.9397610937
 20
121.7098310689
 10
205.3536257312
 20
122.2349978474
 10
204.7843503082
 20
122.8103517365
 10
204.2365182957
 20
123.4312603251
 10
203.7145405149
 20
124.0927244223
 10
203.2226196239
 20
124.7894183082
 10
202.7647162807
 20
125.5157326132
 10
202.3445172535
 20
126.2658194816
 10
201.965405738
 20
127.033639655
 10
201.6304341171
 20
127.8130110968
 10
201.3422993854
 20
128.5976587665
 10
201.1033214343
 20
129.3812651423
 10
200.9154243738
 20
130.1575210865
 10
200.7801210404
 20
130.9201766427
 10
200.6985008171
 20
131.6630913566
 10
200.671220862
 20
132.380283716
  0
ARC
  5
4BE
330
1F
100
AcDbEntity
  8
0
  6
Continuous
 62
     8
370
    30
100
AcDbCircle
 10
199.1325774847
 20
135.4996295406
 30
0.0
 40
0.8205362061436164
100
AcDbArc
 50
123.0053599153
 51
162.0972776227
  0
LINE
  5
4BF
330
1F
100
AcDbEntity
  8
0
  6
Continuous
 62
     8
370
    30
100
AcDbLine
 10
199.3036176556
 20
136.3013527859
 30
0.0
 11
198.3517718067
 21
135.7518638735
 31
0.0
  0
LWPOLYLINE
  5
4C0
330
1F
100
AcDbEntity
  8
0
  6
Continuous
 62
     8
370
    30
100
AcDbPolyline
 90
       14
 70
   128
 43
0.0
 10
213.1907218867
 20
110.3463479274
 10
213.4860633051
 20
109.787970226
 10
213.736632937
 20
109.2154835745
 10
213.9384206075
 20
108.6380501832
 10
214.0881968593
 20
108.0649114311
 10
214.1835646383
 20
107.5052399648
 10
214.2229976564
 20
106.9679928976
 10
214.2058648182
 20
106.4617684571
 10
214.1324403216
 20
105.9946683777
 10
214.0038992696
 20
105.5741682384
 10
213.8222988632
 20
105.2069978218
 10
213.5905454778
 20
104.8990334091
 10
213.3123481487
 20
104.6552037348
 10
213.1952608988
 20
104.580153475
  0
LWPOLYLINE
  5
4C1
330
1F
100
AcDbEntity
  8
0
  6
Continuous
 62
     8
370
    30
100
AcDbPolyline
 90
        5
 70
   128
 43
0.0
 10
208.8429754605
 20
105.9631691292
 10
208.8348229235
 20
105.9742269892
 10
208.8228105576
 20
106.0252377162
 10
208.8353293689
 20
106.0953390065
 10
208.8718982667
 20
106.1818369067
  0
LWPOLYLINE
  5
4C2
330
1F
100
AcDbEntity
  8
0
  6
Continuous
 62
     8
370
    30
100
AcDbPolyline
 90
        5
 70
   128
 43
0.0
 10
188.8593234944
 20
140.8446331008
 10
188.7661385359
 20
140.8561970941
 10
188.6991793873
 20
140.8803892337
 10
188.6610192511
 20
140.9162798292
 10
188.6555361008
 20
140.9288204852
  0
LWPOLYLINE
  5
4C3
330
1F
100
AcDbEntity
  8
0
  6
Continuous
 62
     8
370
    30
100
AcDbPolyline
 90
       14
 70
   128
 43
0.0
 10
189.6309515851
 20
145.3883406635
 10
189.7572518861
 20
145.4538271191
 10
190.1074791987
 20
145.5728972025
 10
190.4900276175
 20
145.6196769567
 10
190.8987747482
 20
145.5934177073
 10
191.3271789059
 20
145.4945397137
 10
191.7683838104
 20
145.3246254424
 10
192.2153283151
 20
145.086394241
 10
192.6608594156
 20
144.7836588176
 10
193.0978467279
 20
144.4212642206
 10
193.5192966049
 20
144.0050102979
 10
193.9184640641
 20
143.5415588747
 10
194.2889607361
 20
143.0383271361
 10
194.6248571055
 20
142.5033689205
  0
LWPOLYLINE
  5
4C4
330
1F
100
AcDbEntity
  8
0
  6
Continuous
 62
     8
370
    30
100
AcDbPolyline
 90
       14
 70
   128
 43
0.0
 10
216.7238976663
 20
106.6171700928
 10
216.8478820546
 20
106.6962240143
 10
217.1260793837
 20
106.9400536886
 10
217.3578327692
 20
107.2480181013
 10
217.5394331756
 20
107.615188518
 10
217.6679742276
 20
108.0356886573
 10
217.7413987241
 20
108.5027887366
 10
217.7585315623
 20
109.0090131771
 10
217.7190985443
 20
109.5462602444
 10
217.6237307652
 20
110.1059317106
 10
217.4739545134
 20
110.6790704627
 10
217.272166843
 20
111.2565038541
 10
217.0215972111
 20
111.8289905056
 10
216.7262557927
 20
112.3873682069
  0
LWPOLYLINE
  5
4C5
330
1F
100
AcDbEntity
  8
0
  6
Continuous
 62
     8
370
    30
100
AcDbPolyline
 90
       14
 70
   128
 43
0.0
 10
198.1603910115
 20
144.5443892
 10
197.824494642
 20
145.0793474157
 10
197.45399797
 20
145.5825791543
 10
197.0548305108
 20
146.0460305775
 10
196.6333806338
 20
146.4622845001
 10
196.1963933215
 20
146.8246790971
 10
195.750862221
 20
147.1274145206
 10
195.3039177163
 20
147.3656457219
 10
194.8627128119
 20
147.5355599933
 10
194.4343086541
 20
147.6344379869
 10
194.0255615235
 20
147.6606972362
 10
193.6430131046
 20
147.6139174821
 10
193.292785792
 20
147.4948473987
 10
193.162750997
 20
147.4272114962
  0
ARC
  5
4C6
330
1F
100
AcDbEntity
  8
0
  6
Continuous
 62
     8
370
    30
100
AcDbCircle
 10
197.5698713598
 20
136.0052096671
 30
0.0
 40
0.8219199474321852
100
AcDbArc
 50
302.612292061
 51
342.0470092995
  0
ARC
  5
4C7
330
1F
100
AcDbEntity
  8
0
  6
Continuous
 62
     8
370
    30
100
AcDbCircle
 10
197.3407154071
 20
135.4792480855
 30
0.0
 40
0.2965732855244538
100
AcDbArc
 50
189.2660399297
 51
256.019862354
  0
ARC
  5
4C8
330
1F
100
AcDbEntity
  8
0
  6
Continuous
 62
     8
370
    30
100
AcDbCircle
 10
164.9823288588
 20
202.2107597507
 30
0.0
 40
103.6613507676415
100
AcDbArc
 50
299.9446502284
 51
300.1393085138
  0
ARC
  5
4C9
330
1F
100
AcDbEntity
  8
0
  6
Continuous
 62
     8
370
    30
100
AcDbCircle
 10
234.5985345821
 20
81.6401544743
 30
0.0
 40
72.69581180026542
100
AcDbArc
 50
119.8045830433
 51
120.0821581106
  0
ARC
  5
4CA
330
1F
100
AcDbEntity
  8
0
  6
Continuous
 62
     8
370
    30
100
AcDbCircle
 10
197.2359272054
 20
134.5237980931
 30
0.0
 40
0.7162708555911612
100
AcDbArc
 50
119.8738261943
 51
139.6681672954
  0
LINE
  5
4CB
330
1F
100
AcDbEntity
  8
0
  6
Continuous
 62
     8
370
    30
100
AcDbLine
 10
197.0522905215
 20
135.1965774118
 30
0.0
 11
196.6899075824
 21
134.987378194
 31
0.0
  0
ARC
  5
4CC
330
1F
100
AcDbEntity
  8
0
  6
Continuous
 62
     8
370
    30
100
AcDbCircle
 10
207.816685226
 20
107.3623023578
 30
0.0
 40
0.4196875031311615
100
AcDbArc
 50
174.3973005884
 51
234.0993226925
  0
ARC
  5
4CD
330
1F
100
AcDbEntity
  8
0
  6
Continuous
 62
     8
370
    30
100
AcDbCircle
 10
189.3540364657
 20
139.3403900662
 30
0.0
 40
0.4196088664908857
100
AcDbArc
 50
185.9138959114
 51
245.6062197896
  0
ARC
  5
4CE
330
1F
100
AcDbEntity
  8
0
  6
Continuous
 62
     8
370
    30
100
AcDbCircle
 10
194.6464018146
 20
114.9558505711
 30
0.0
 40
0.4108149416463653
100
AcDbArc
 50
173.7011524797
 51
234.9866671269
  0
ARC
  5
4CF
330
1F
100
AcDbEntity
  8
0
  6
Continuous
 62
     8
370
    30
100
AcDbCircle
 10
189.3537055374
 20
124.1422361586
 30
0.0
 40
0.4191160654113375
100
AcDbArc
 50
185.6947992512
 51
245.6253417064
  0
ARC
  5
4D0
330
1F
100
AcDbEntity
  8
0
  6
Continuous
 62
     8
370
    30
100
AcDbCircle
 10
193.3931309619
 20
115.6282598696
 30
0.0
 40
0.6452122054645579
100
AcDbArc
 50
193.2796062712
 51
263.0127808971
  0
ARC
  5
4D1
330
1F
100
AcDbEntity
  8
0
  6
Continuous
 62
     8
370
    30
100
AcDbCircle
 10
189.301580989
 20
122.7148479637
 30
0.0
 40
0.6451204313485007
100
AcDbArc
 50
156.9893420264
 51
226.7217107594
  0
LWPOLYLINE
  5
4D2
330
1F
100
AcDbEntity
  8
0
  6
Continuous
 62
     8
370
    30
100
AcDbPolyline
 90
       22
 70
   128
 43
0.0
 10
216.8757512642
 20
116.3907157129
 10
217.2880867454
 20
116.120805028
 10
217.6930640901
 20
115.7919619487
 10
218.0834564682
 20
115.4100546878
 10
218.4522973182
 20
114.9818983892
 10
218.7930046666
 20
114.5151335124
 10
219.0994985826
 20
114.0180894875
 10
219.366309675
 20
113.4996360769
 10
219.5886766935
 20
112.9690250942
 10
219.7626314935
 20
112.4357253048
 10
219.8850698474
 20
111.909253456
 10
219.95380684
 20
111.3990044506
 10
219.9676158578
 20
110.9140836941
 10
219.9262504787
 20
110.4631446089
 10
219.8304488689
 20
110.0542342136
 10
219.6819206103
 20
109.694649524
 10
219.4833161932
 20
109.3908073373
 10
219.2381797182
 20
109.1481297246
 10
218.9508856515
 20
108.9709472736
 10
218.6265607625
 20
108.8624218093
 10
218.2709926365
 20
108.8244899713
 10
217.9976541167
 20
108.841515454
  0
LWPOLYLINE
  5
4D3
330
1F
100
AcDbEntity
  8
0
  6
Continuous
 62
     8
370
    30
100
AcDbPolyline
 90
        3
 70
   128
 43
0.0
 10
216.2924804158
 20
116.6633611435
 10
216.463415783
 20
116.5968774411
 10
216.8757512642
 20
116.3907157129
  0
ARC
  5
4D4
330
1F
100
AcDbEntity
  8
0
  6
Continuous
 62
     8
370
    30
100
AcDbCircle
 10
195.2941123542
 20
142.5838148875
 30
0.0
 40
6.375562981921624
100
AcDbArc
 50
354.8948566399
 51
58.6738402534
  0
LWPOLYLINE
  5
4D5
330
1F
100
AcDbEntity
  8
0
  6
Continuous
 62
     8
370
    30
100
AcDbPolyline
 90
       11
 70
   128
 43
0.0
 10
195.7212651593
 20
147.4064388705
 10
195.7219458542
 20
147.4080886882
 10
195.8959006542
 20
147.7405445406
 10
196.1182676727
 20
148.0144160286
 10
196.3850787651
 20
148.2248159089
 10
196.6915726811
 20
148.3679895908
 10
197.0322800295
 20
148.4413821364
 10
197.4011208795
 20
148.443683854
 10
197.7915132575
 20
148.3748536695
 10
198.1964906023
 20
148.2361198592
 10
198.6088260835
 20
148.029958131
  0
ARC
  5
4D6
330
1F
100
AcDbEntity
  8
0
  6
Continuous
 62
     8
370
    30
100
AcDbCircle
 10
196.9669736201
 20
147.6128933927
 30
0.0
 40
1.885593455035373
100
AcDbArc
 50
130.7471649997
 51
179.3318744471
  0
LINE
  5
4D7
330
1F
100
AcDbEntity
  8
0
  6
Continuous
 62
     8
370
    30
100
AcDbLine
 10
202.4389878149
 20
129.3179239213
 30
0.0
 11
202.4389878149
 21
135.6054423783
 31
0.0
  0
LINE
  5
4D8
330
1F
100
AcDbEntity
  8
0
  6
Continuous
 62
     8
370
    30
100
AcDbLine
 10
202.4389878149
 20
142.0583183304
 30
0.0
 11
202.4389878149
 21
142.2464867762
 31
0.0
  0
LINE
  5
4D9
330
1F
100
AcDbEntity
  8
0
  6
Continuous
 62
     8
370
    30
100
AcDbLine
 10
216.8757512642
 20
117.2412790586
 30
0.0
 11
216.7097772774
 21
117.3370938017
 31
0.0
  0
LINE
  5
4DA
330
1F
100
AcDbEntity
  8
0
  6
Continuous
 62
     8
370
    30
100
AcDbLine
 10
211.1214785295
 20
120.5631500004
 30
0.0
 11
205.6798938954
 21
123.7045099439
 31
0.0
  0
ARC
  5
4DB
330
1F
100
AcDbEntity
  8
0
  6
Continuous
 62
     8
370
    30
100
AcDbCircle
 10
218.7873831732
 20
109.8167305018
 30
0.0
 40
1.88366787586087
100
AcDbArc
 50
240.7695185959
 51
289.2743032234
  0
ARC
  5
4DC
330
1F
100
AcDbEntity
  8
0
  6
Continuous
 62
     8
370
    30
100
AcDbCircle
 10
218.4007086295
 20
110.9493683765
 30
0.0
 40
1.578285621149707
100
AcDbArc
 50
255.45862105
 51
297.9096984875
  0
ARC
  5
4DD
330
1F
100
AcDbEntity
  8
0
  6
Continuous
 62
     8
370
    30
100
AcDbCircle
 10
197.7981399884
 20
146.6796917778
 30
0.0
 40
1.630880030709975
100
AcDbArc
 50
123.1526242765
 51
163.9240078707
  0
LINE
  5
4DE
330
1F
100
AcDbEntity
  8
0
  6
Continuous
 62
     8
370
    30
100
AcDbLine
 10
205.9745217209
 20
124.2148203055
 30
0.0
 11
211.1497126622
 21
121.2272461674
 31
0.0
  0
LINE
  5
4DF
330
1F
100
AcDbEntity
  8
0
  6
Continuous
 62
     8
370
    30
100
AcDbLine
 10
217.0030324154
 20
117.8481965989
 30
0.0
 11
217.1703790897
 21
117.7515894202
 31
0.0
  0
LINE
  5
4E0
330
1F
100
AcDbEntity
  8
0
  6
Continuous
 62
     8
370
    30
100
AcDbLine
 10
203.0282434659
 20
142.2464867762
 30
0.0
 11
203.0282434659
 21
142.0528439776
 31
0.0
  0
LINE
  5
4E1
330
1F
100
AcDbEntity
  8
0
  6
Continuous
 62
     8
370
    30
100
AcDbLine
 10
203.0282434659
 20
135.2974139168
 30
0.0
 11
203.0282434659
 21
129.3179239213
 31
0.0
  0
LINE
  5
4E2
330
1F
100
AcDbEntity
  8
0
  6
Continuous
 62
     8
370
    30
100
AcDbLine
 10
205.9745217209
 20
124.2148203055
 30
0.0
 11
210.0715385219
 21
126.5799777609
 31
0.0
  0
LINE
  5
4E3
330
1F
100
AcDbEntity
  8
0
  6
Continuous
 62
     8
370
    30
100
AcDbLine
 10
223.6521912505
 20
121.4934599327
 30
0.0
 11
217.8239883591
 21
124.8580098455
 31
0.0
  0
LWPOLYLINE
  5
4E4
330
1F
100
AcDbEntity
  8
0
  6
Continuous
 62
     8
370
    30
100
AcDbPolyline
 90
       12
 70
   128
 43
0.0
 10
211.1204601298
 20
121.9283782519
 10
210.9831947543
 20
122.0037150026
 10
210.6253690179
 20
122.2429090061
 10
210.3316850412
 20
122.5096306074
 10
210.1084021881
 20
122.7981950988
 10
209.960279345
 20
123.1024522291
 10
209.8904734932
 20
123.4159172858
 10
209.9004724231
 20
123.7319093054
 10
209.990063025
 20
124.0436934667
 10
210.1573358308
 20
124.3446246315
 10
210.3987257109
 20
124.6282889745
 10
210.645845334
 20
124.8418017256
  0
LINE
  5
4E5
330
1F
100
AcDbEntity
  8
0
  6
Continuous
 62
     8
370
    30
100
AcDbLine
 10
209.5100556268
 20
139.2552118424
 30
0.0
 11
209.5100556268
 21
145.9883572887
 31
0.0
  0
LINE
  5
4E6
330
1F
100
AcDbEntity
  8
0
  6
Continuous
 62
     8
370
    30
100
AcDbLine
 10
203.0282434659
 20
129.3179239213
 30
0.0
 11
207.1265618504
 21
131.6838327649
 31
0.0
  0
LWPOLYLINE
  5
4E7
330
1F
100
AcDbEntity
  8
0
  6
Continuous
 62
     8
370
    30
100
AcDbPolyline
 90
       12
 70
   128
 43
0.0
 10
205.8813412315
 20
133.0392589497
 10
205.5052114458
 20
132.9190272812
 10
205.1436387585
 20
132.8699878081
 10
204.8060543796
 20
132.893887683
 10
204.499653334
 20
132.9902175215
 10
204.2309660281
 20
133.1569242204
 10
204.0057190653
 20
133.3904547158
 10
203.8287131935
 20
133.6858317107
 10
203.7037209856
 20
134.0367597572
 10
203.6334064335
 20
134.4357594333
 10
203.6192681698
 20
134.8743267535
 10
203.6204428631
 20
134.9074167286
  0
ARC
  5
4E8
330
1F
100
AcDbEntity
  8
0
  6
Continuous
 62
     8
370
    30
100
AcDbCircle
 10
226.4580103021
 20
118.6883881974
 30
0.0
 40
0.6595379914727457
100
AcDbArc
 50
295.8696552005
 51
311.2603463196
  0
ARC
  5
4E9
330
1F
100
AcDbEntity
  8
0
  6
Continuous
 62
     8
370
    30
100
AcDbCircle
 10
223.7742472926
 20
121.3230759527
 30
0.0
 40
0.209590977999933
100
AcDbArc
 50
65.7081541856
 51
125.6162469381
  0
ARC
  5
4EA
330
1F
100
AcDbEntity
  8
0
  6
Continuous
 62
     8
370
    30
100
AcDbCircle
 10
209.4235588402
 20
146.1792506417
 30
0.0
 40
0.2095756815988391
100
AcDbArc
 50
294.3760293522
 51
354.2894703943
  0
ARC
  5
4EB
330
1F
100
AcDbEntity
  8
0
  6
Continuous
 62
     8
370
    30
100
AcDbCircle
 10
208.4827194207
 20
149.8223813645
 30
0.0
 40
0.6578643141887147
100
AcDbArc
 50
108.7051301994
 51
124.1354648457
  0
ARC
  5
4EC
330
1F
100
AcDbEntity
  8
0
  6
Continuous
 62
     8
370
    30
100
AcDbCircle
 10
227.3958562524
 20
115.6102448143
 30
0.0
 40
0.2095755966014703
100
AcDbArc
 50
294.3760227496
 51
354.2895461382
  0
ARC
  5
4ED
330
1F
100
AcDbEntity
  8
0
  6
Continuous
 62
     8
370
    30
100
AcDbCircle
 10
206.2868340565
 20
152.1720903898
 30
0.0
 40
0.2095909466000794
100
AcDbArc
 50
65.7081261937
 51
125.6162493768
  0
ARC
  5
4EE
330
1F
100
AcDbEntity
  8
0
  6
Continuous
 62
     8
370
    30
100
AcDbCircle
 10
211.7071568052
 20
123.1282653084
 30
0.0
 40
1.407945582319554
100
AcDbArc
 50
131.0470877362
 51
176.6369020229
  0
ARC
  5
4EF
330
1F
100
AcDbEntity
  8
0
  6
Continuous
 62
     8
370
    30
100
AcDbCircle
 10
204.9567024499
 20
134.8251990207
 30
0.0
 40
1.407270361247984
100
AcDbArc
 50
241.8873964581
 51
289.5702622515
  0
ARC
  5
4F0
330
1F
100
AcDbEntity
  8
0
  6
Continuous
 62
     8
370
    30
100
AcDbCircle
 10
227.3958680471
 20
113.8099276061
 30
0.0
 40
0.2095580327058176
100
AcDbArc
 50
294.3746582936
 51
354.3052007488
  0
ARC
  5
4F1
330
1F
100
AcDbEntity
  8
0
  6
Continuous
 62
     8
370
    30
100
AcDbCircle
 10
204.7278041372
 20
153.0721124655
 30
0.0
 40
0.2095738482922469
100
AcDbArc
 50
65.6928809539
 51
125.6175774752
  0
ENDSEC
  0
SECTION
  2
OBJECTS
  0
DICTIONARY
  5
C
330
0
100
AcDbDictionary
281
     1
  3
ACAD_GROUP
350
D
  3
ACAD_LAYOUT
350
1A
  3
ACAD_MLINESTYLE
350
17
  3
ACAD_PLOTSETTINGS
350
19
  3
ACAD_PLOTSTYLENAME
350
E
  3
ACAD_SCALELIST
350
47
  0
DICTIONARY
  5
D
102
{ACAD_REACTORS
330
C
102
}
330
C
100
AcDbDictionary
281
     1
  0
DICTIONARY
  5
1A
102
{ACAD_REACTORS
330
C
102
}
330
C
100
AcDbDictionary
281
     1
  3
Layout1
350
1E
  3
Layout2
350
26
  3
Model
350
22
  0
DICTIONARY
  5
17
102
{ACAD_REACTORS
330
C
102
}
330
C
100
AcDbDictionary
281
     1
  3
Standard
350
18
  0
DICTIONARY
  5
19
102
{ACAD_REACTORS
330
C
102
}
330
C
100
AcDbDictionary
281
     1
  0
ACDBDICTIONARYWDFLT
  5
E
102
{ACAD_REACTORS
330
C
102
}
330
C
100
AcDbDictionary
281
     1
  3
Normal
350
F
100
AcDbDictionaryWithDefault
340
F
  0
DICTIONARY
  5
47
102
{ACAD_REACTORS
330
C
102
}
330
C
100
AcDbDictionary
281
     1
  3
A0
350
48
  3
A1
350
49
  3
A2
350
4A
  3
A3
350
4B
  3
A4
350
4C
  3
A5
350
4D
  3
A6
350
4E
  3
A7
350
4F
  3
A8
350
50
  3
A9
350
51
  3
B0
350
52
  3
B1
350
53
  3
B2
350
54
  3
B3
350
55
  3
B4
350
56
  3
B5
350
57
  3
B6
350
58
  3
B7
350
59
  3
B8
350
5A
  3
B9
350
5B
  3
C0
350
5C
  3
C1
350
5D
  3
C2
350
5E
  3
C3
350
5F
  3
C4
350
60
  3
C5
350
61
  3
C6
350
62
  3
C7
350
63
  3
C8
350
64
  3
C9
350
65
  3
D0
350
66
  3
D1
350
67
  3
D2
350
68
  0
LAYOUT
  5
1E
102
{ACAD_REACTORS
330
1A
102
}
330
1A
100
AcDbPlotSettings
  1

  2
none_device
  4

  6

 40
0.0
 41
0.0
 42
0.0
 43
0.0
 44
0.0
 45
0.0
 46
0.0
 47
0.0
 48
0.0
 49
0.0
140
0.0
141
0.0
142
1.0
143
1.0
 70
   688
 72
     1
 73
     0
 74
     5
  7

 75
    16
147
1.0
148
0.0
149
0.0
100
AcDbLayout
  1
Layout1
 70
     1
 71
     1
 10
0.0
 20
0.0
 11
420.0
 21
297.0
 12
0.0
 22
0.0
 32
0.0
 14
1.0000000000E+20
 24
1.0000000000E+20
 34
1.0000000000E+20
 15
-1.0000000000E+20
 25
-1.0000000000E+20
 35
-1.0000000000E+20
146
0.0
 13
0.0
 23
0.0
 33
0.0
 16
1.0
 26
0.0
 36
0.0
 17
0.0
 27
1.0
 37
0.0
 76
     0
330
1B
  0
LAYOUT
  5
26
102
{ACAD_REACTORS
330
1A
102
}
330
1A
100
AcDbPlotSettings
  1

  2
none_device
  4

  6

 40
0.0
 41
0.0
 42
0.0
 43
0.0
 44
0.0
 45
0.0
 46
0.0
 47
0.0
 48
0.0
 49
0.0
140
0.0
141
0.0
142
1.0
143
1.0
 70
   688
 72
     1
 73
     0
 74
     5
  7

 75
    16
147
1.0
148
0.0
149
0.0
100
AcDbLayout
  1
Layout2
 70
     1
 71
     2
 10
0.0
 20
0.0
 11
0.0
 21
0.0
 12
0.0
 22
0.0
 32
0.0
 14
0.0
 24
0.0
 34
0.0
 15
0.0
 25
0.0
 35
0.0
146
0.0
 13
0.0
 23
0.0
 33
0.0
 16
1.0
 26
0.0
 36
0.0
 17
0.0
 27
1.0
 37
0.0
 76
     0
330
23
  0
LAYOUT
  5
22
102
{ACAD_REACTORS
330
1A
102
}
330
1A
100
AcDbPlotSettings
  1

  2
none_device
  4
Letter_(8.50_x_11.00_Inches)
  6

 40
6.35
 41
6.35
 42
6.35000508
 43
6.35000508
 44
215.9
 45
279.4
 46
0.0
 47
0.0
 48
0.0
 49
0.0
140
0.0
141
0.0
142
1.0
143
1.0
 70
  1712
 72
     1
 73
     0
 74
     0
  7

 75
     0
147
1.0
148
0.0
149
0.0
100
AcDbLayout
  1
Model
 70
     1
 71
     0
 10
0.0
 20
0.0
 11
247.5
 21
175.0
 12
0.0
 22
0.0
 32
0.0
 14
0.0
 24
0.0
 34
0.0
 15
247.5
 25
175.0
 35
0.0
146
0.0
 13
0.0
 23
0.0
 33
0.0
 16
1.0
 26
0.0
 36
0.0
 17
0.0
 27
1.0
 37
0.0
 76
     0
330
1F
331
29
  0
MLINESTYLE
  5
18
102
{ACAD_REACTORS
330
17
102
}
330
17
100
AcDbMlineStyle
  2
Standard
 70
     0
  3

 62
   256
 51
90.0
 52
90.0
 71
     2
 49
0.5
 62
   256
  6
BYLAYER
 49
-0.5
 62
   256
  6
BYLAYER
  0
ACDBPLACEHOLDER
  5
F
102
{ACAD_REACTORS
330
E
102
}
330
E
  0
SCALE
  5
48
102
{ACAD_REACTORS
330
47
102
}
330
47
100
AcDbScale
 70
     0
300
1:1
140
1.0
141
1.0
290
     1
  0
SCALE
  5
49
102
{ACAD_REACTORS
330
47
102
}
330
47
100
AcDbScale
 70
     0
300
1:2
140
1.0
141
2.0
290
     0
  0
SCALE
  5
4A
102
{ACAD_REACTORS
330
47
102
}
330
47
100
AcDbScale
 70
     0
300
1:4
140
1.0
141
4.0
290
     0
  0
SCALE
  5
4B
102
{ACAD_REACTORS
330
47
102
}
330
47
100
AcDbScale
 70
     0
300
1:5
140
1.0
141
5.0
290
     0
  0
SCALE
  5
4C
102
{ACAD_REACTORS
330
47
102
}
330
47
100
AcDbScale
 70
     0
300
1:8
140
1.0
141
8.0
290
     0
  0
SCALE
  5
4D
102
{ACAD_REACTORS
330
47
102
}
330
47
100
AcDbScale
 70
     0
300
1:10
140
1.0
141
10.0
290
     0
  0
SCALE
  5
4E
102
{ACAD_REACTORS
330
47
102
}
330
47
100
AcDbScale
 70
     0
300
1:16
140
1.0
141
16.0
290
     0
  0
SCALE
  5
4F
102
{ACAD_REACTORS
330
47
102
}
330
47
100
AcDbScale
 70
     0
300
1:20
140
1.0
141
20.0
290
     0
  0
SCALE
  5
50
102
{ACAD_REACTORS
330
47
102
}
330
47
100
AcDbScale
 70
     0
300
1:30
140
1.0
141
30.0
290
     0
  0
SCALE
  5
51
102
{ACAD_REACTORS
330
47
102
}
330
47
100
AcDbScale
 70
     0
300
1:40
140
1.0
141
40.0
290
     0
  0
SCALE
  5
52
102
{ACAD_REACTORS
330
47
102
}
330
47
100
AcDbScale
 70
     0
300
1:50
140
1.0
141
50.0
290
     0
  0
SCALE
  5
53
102
{ACAD_REACTORS
330
47
102
}
330
47
100
AcDbScale
 70
     0
300
1:100
140
1.0
141
100.0
290
     0
  0
SCALE
  5
54
102
{ACAD_REACTORS
330
47
102
}
330
47
100
AcDbScale
 70
     0
300
2:1
140
2.0
141
1.0
290
     0
  0
SCALE
  5
55
102
{ACAD_REACTORS
330
47
102
}
330
47
100
AcDbScale
 70
     0
300
4:1
140
4.0
141
1.0
290
     0
  0
SCALE
  5
56
102
{ACAD_REACTORS
330
47
102
}
330
47
100
AcDbScale
 70
     0
300
8:1
140
8.0
141
1.0
290
     0
  0
SCALE
  5
57
102
{ACAD_REACTORS
330
47
102
}
330
47
100
AcDbScale
 70
     0
300
10:1
140
10.0
141
1.0
290
     0
  0
SCALE
  5
58
102
{ACAD_REACTORS
330
47
102
}
330
47
100
AcDbScale
 70
     0
300
100:1
140
100.0
141
1.0
290
     0
  0
SCALE
  5
59
102
{ACAD_REACTORS
330
47
102
}
330
47
100
AcDbScale
 70
     0
300
1/128" = 1'-0"
140
0.0078125
141
12.0
290
     0
  0
SCALE
  5
5A
102
{ACAD_REACTORS
330
47
102
}
330
47
100
AcDbScale
 70
     0
300
1/64" = 1'-0"
140
0.015625
141
12.0
290
     0
  0
SCALE
  5
5B
102
{ACAD_REACTORS
330
47
102
}
330
47
100
AcDbScale
 70
     0
300
1/32" = 1'-0"
140
0.03125
141
12.0
290
     0
  0
SCALE
  5
5C
102
{ACAD_REACTORS
330
47
102
}
330
47
100
AcDbScale
 70
     0
300
1/16" = 1'-0"
140
0.0625
141
12.0
290
     0
  0
SCALE
  5
5D
102
{ACAD_REACTORS
330
47
102
}
330
47
100
AcDbScale
 70
     0
300
3/32" = 1'-0"
140
0.09375
141
12.0
290
     0
  0
SCALE
  5
5E
102
{ACAD_REACTORS
330
47
102
}
330
47
100
AcDbScale
 70
     0
300
1/8" = 1'-0"
140
0.125
141
12.0
290
     0
  0
SCALE
  5
5F
102
{ACAD_REACTORS
330
47
102
}
330
47
100
AcDbScale
 70
     0
300
3/16" = 1'-0"
140
0.1875
141
12.0
290
     0
  0
SCALE
  5
60
102
{ACAD_REACTORS
330
47
102
}
330
47
100
AcDbScale
 70
     0
300
1/4" = 1'-0"
140
0.25
141
12.0
290
     0
  0
SCALE
  5
61
102
{ACAD_REACTORS
330
47
102
}
330
47
100
AcDbScale
 70
     0
300
3/8" = 1'-0"
140
0.375
141
12.0
290
     0
  0
SCALE
  5
62
102
{ACAD_REACTORS
330
47
102
}
330
47
100
AcDbScale
 70
     0
300
1/2" = 1'-0"
140
0.5
141
12.0
290
     0
  0
SCALE
  5
63
102
{ACAD_REACTORS
330
47
102
}
330
47
100
AcDbScale
 70
     0
300
3/4" = 1'-0"
140
0.75
141
12.0
290
     0
  0
SCALE
  5
64
102
{ACAD_REACTORS
330
47
102
}
330
47
100
AcDbScale
 70
     0
300
1" = 1'-0"
140
1.0
141
12.0
290
     0
  0
SCALE
  5
65
102
{ACAD_REACTORS
330
47
102
}
330
47
100
AcDbScale
 70
     0
300
1-1/2" = 1'-0"
140
1.5
141
12.0
290
     0
  0
SCALE
  5
66
102
{ACAD_REACTORS
330
47
102
}
330
47
100
AcDbScale
 70
     0
300
3" = 1'-0"
140
3.0
141
12.0
290
     0
  0
SCALE
  5
67
102
{ACAD_REACTORS
330
47
102
}
330
47
100
AcDbScale
 70
     0
300
6" = 1'-0"
140
6.0
141
12.0
290
     0
  0
SCALE
  5
68
102
{ACAD_REACTORS
330
47
102
}
330
47
100
AcDbScale
 70
     0
300
1'-0" = 1'-0"
140
12.0
141
12.0
290
     0
  0
ENDSEC
  0
EOF
