  0
SECTION
  2
HEADER
  9
$ACADVER
  1
AC1018
  9
$ACADMAINTVER
 70
     0
  9
$DWGCODEPAGE
  3
ANSI_950
  9
$LASTSAVEDBY
  1
R2591
  9
$INSBASE
 10
0.0
 20
0.0
 30
0.0
  9
$EXTMIN
 10
0.0
 20
0.0
 30
0.0
  9
$EXTMAX
 10
297.0
 20
210.0
 30
0.0
  9
$LIMMIN
 10
0.0
 20
0.0
  9
$LIMMAX
 10
297.0
 20
210.0
  9
$ORTHOMODE
 70
     0
  9
$REGENMODE
 70
     1
  9
$FILLMODE
 70
     1
  9
$QTEXTMODE
 70
     0
  9
$MIRRTEXT
 70
     1
  9
$LTSCALE
 40
1.0
  9
$ATTMODE
 70
     1
  9
$TEXTSIZE
 40
2.5
  9
$TRACEWID
 40
1.0
  9
$TEXTSTYLE
  7
Standard
  9
$CLAYER
  8
0
  9
$CELTYPE
  6
ByLayer
  9
$CECOLOR
 62
   256
  9
$CELTSCALE
 40
1.0
  9
$DISPSILH
 70
     0
  9
$DIMSCALE
 40
1.0
  9
$DIMASZ
 40
2.0
  9
$DIMEXO
 40
1.0
  9
$DIMDLI
 40
3.75
  9
$DIMRND
 40
0.0
  9
$DIMDLE
 40
0.0
  9
$DIMEXE
 40
1.0
  9
$DIMTP
 40
0.0
  9
$DIMTM
 40
0.0
  9
$DIMTXT
 40
2.5
  9
$DIMCEN
 40
2.5
  9
$DIMTSZ
 40
0.0
  9
$DIMTOL
 70
     0
  9
$DIMLIM
 70
     0
  9
$DIMTIH
 70
     1
  9
$DIMTOH
 70
     1
  9
$DIMSE1
 70
     0
  9
$DIMSE2
 70
     0
  9
$DIMTAD
 70
     1
  9
$DIMZIN
 70
     0
  9
$DIMBLK
  1

  9
$DIMASO
 70
     1
  9
$DIMSHO
 70
     1
  9
$DIMPOST
  1

  9
$DIMAPOST
  1

  9
$DIMALT
 70
     0
  9
$DIMALTD
 70
     3
  9
$DIMALTF
 40
0.0393700787
  9
$DIMLFAC
 40
1.0
  9
$DIMTOFL
 70
     1
  9
$DIMTVP
 40
0.0
  9
$DIMTIX
 70
     0
  9
$DIMSOXD
 70
     0
  9
$DIMSAH
 70
     0
  9
$DIMBLK1
  1

  9
$DIMBLK2
  1

  9
$DIMSTYLE
  2
ISO-25
  9
$DIMCLRD
 70
     0
  9
$DIMCLRE
 70
     0
  9
$DIMCLRT
 70
     0
  9
$DIMTFAC
 40
1.0
  9
$DIMGAP
 40
1.0
  9
$DIMJUST
 70
     0
  9
$DIMSD1
 70
     0
  9
$DIMSD2
 70
     0
  9
$DIMTOLJ
 70
     0
  9
$DIMTZIN
 70
     0
  9
$DIMALTZ
 70
     0
  9
$DIMALTTZ
 70
     0
  9
$DIMUPT
 70
     0
  9
$DIMDEC
 70
     2
  9
$DIMTDEC
 70
     2
  9
$DIMALTU
 70
     2
  9
$DIMALTTD
 70
     3
  9
$DIMTXSTY
  7
Standard
  9
$DIMAUNIT
 70
     0
  9
$DIMADEC
 70
     1
  9
$DIMALTRND
 40
0.0
  9
$DIMAZIN
 70
     0
  9
$DIMDSEP
 70
    44
  9
$DIMATFIT
 70
     3
  9
$DIMFRAC
 70
     0
  9
$DIMLDRBLK
  1

  9
$DIMLUNIT
 70
     2
  9
$DIMLWD
 70
    -2
  9
$DIMLWE
 70
    -2
  9
$DIMTMOVE
 70
     0
  9
$LUNITS
 70
     2
  9
$LUPREC
 70
     2
  9
$SKETCHINC
 40
1.0
  9
$FILLETRAD
 40
0.0
  9
$AUNITS
 70
     0
  9
$AUPREC
 70
     1
  9
$MENU
  1
.
  9
$ELEVATION
 40
0.0
  9
$PELEVATION
 40
0.0
  9
$THICKNESS
 40
0.0
  9
$LIMCHECK
 70
     0
  9
$CHAMFERA
 40
0.0
  9
$CHAMFERB
 40
0.0
  9
$CHAMFERC
 40
0.0
  9
$CHAMFERD
 40
0.0
  9
$SKPOLY
 70
     0
  9
$TDCREATE
 40
2460113.361874884
  9
$TDUCREATE
 40
2460113.028541551
  9
$TDUPDATE
 40
2460113.361883241
  9
$TDUUPDATE
 40
2460113.028549907
  9
$TDINDWG
 40
0.0000000116
  9
$TDUSRTIMER
 40
0.0000000116
  9
$USRTIMER
 70
     1
  9
$ANGBASE
 50
0.0
  9
$ANGDIR
 70
     0
  9
$PDMODE
 70
     0
  9
$PDSIZE
 40
-1.0
  9
$PLINEWID
 40
0.0
  9
$SPLFRAME
 70
     0
  9
$SPLINETYPE
 70
     6
  9
$SPLINESEGS
 70
     8
  9
$HANDSEED
  5
451
  9
$SURFTAB1
 70
     6
  9
$SURFTAB2
 70
     6
  9
$SURFTYPE
 70
     6
  9
$SURFU
 70
     6
  9
$SURFV
 70
     6
  9
$UCSBASE
  2

  9
$UCSNAME
  2

  9
$UCSORG
 10
0.0
 20
0.0
 30
0.0
  9
$UCSXDIR
 10
1.0
 20
0.0
 30
0.0
  9
$UCSYDIR
 10
0.0
 20
1.0
 30
0.0
  9
$UCSORTHOREF
  2

  9
$UCSORTHOVIEW
 70
     0
  9
$UCSORGTOP
 10
0.0
 20
0.0
 30
0.0
  9
$UCSORGBOTTOM
 10
0.0
 20
0.0
 30
0.0
  9
$UCSORGLEFT
 10
0.0
 20
0.0
 30
0.0
  9
$UCSORGRIGHT
 10
0.0
 20
0.0
 30
0.0
  9
$UCSORGFRONT
 10
0.0
 20
0.0
 30
0.0
  9
$UCSORGBACK
 10
0.0
 20
0.0
 30
0.0
  9
$PUCSBASE
  2

  9
$PUCSNAME
  2

  9
$PUCSORG
 10
0.0
 20
0.0
 30
0.0
  9
$PUCSXDIR
 10
1.0
 20
0.0
 30
0.0
  9
$PUCSYDIR
 10
0.0
 20
1.0
 30
0.0
  9
$PUCSORTHOREF
  2

  9
$PUCSORTHOVIEW
 70
     0
  9
$PUCSORGTOP
 10
0.0
 20
0.0
 30
0.0
  9
$PUCSORGBOTTOM
 10
0.0
 20
0.0
 30
0.0
  9
$PUCSORGLEFT
 10
0.0
 20
0.0
 30
0.0
  9
$PUCSORGRIGHT
 10
0.0
 20
0.0
 30
0.0
  9
$PUCSORGFRONT
 10
0.0
 20
0.0
 30
0.0
  9
$PUCSORGBACK
 10
0.0
 20
0.0
 30
0.0
  9
$USERI1
 70
     0
  9
$USERI2
 70
     0
  9
$USERI3
 70
     0
  9
$USERI4
 70
     0
  9
$USERI5
 70
     0
  9
$USERR1
 40
0.0
  9
$USERR2
 40
0.0
  9
$USERR3
 40
0.0
  9
$USERR4
 40
0.0
  9
$USERR5
 40
0.0
  9
$WORLDVIEW
 70
     1
  9
$SHADEDGE
 70
     3
  9
$SHADEDIF
 70
    70
  9
$TILEMODE
 70
     1
  9
$MAXACTVP
 70
    64
  9
$PINSBASE
 10
0.0
 20
0.0
 30
0.0
  9
$PLIMCHECK
 70
     0
  9
$PEXTMIN
 10
1.0000000000E+20
 20
1.0000000000E+20
 30
1.0000000000E+20
  9
$PEXTMAX
 10
-1.0000000000E+20
 20
-1.0000000000E+20
 30
-1.0000000000E+20
  9
$PLIMMIN
 10
0.0
 20
0.0
  9
$PLIMMAX
 10
420.0
 20
297.0
  9
$UNITMODE
 70
     0
  9
$VISRETAIN
 70
     1
  9
$PLINEGEN
 70
     0
  9
$PSLTSCALE
 70
     1
  9
$TREEDEPTH
 70
  3020
  9
$CMLSTYLE
  2
Standard
  9
$CMLJUST
 70
     0
  9
$CMLSCALE
 40
20.0
  9
$PROXYGRAPHICS
 70
     1
  9
$MEASUREMENT
 70
     1
  9
$CELWEIGHT
370
    -1
  9
$ENDCAPS
280
     0
  9
$JOINSTYLE
280
     0
  9
$LWDISPLAY
290
     1
  9
$INSUNITS
 70
     4
  9
$HYPERLINKBASE
  1

  9
$STYLESHEET
  1

  9
$XEDIT
290
     1
  9
$CEPSNTYPE
380
     0
  9
$PSTYLEMODE
290
     1
  9
$FINGERPRINTGUID
  2
{59c7c405-a27a-4502-b3b5-bb3d5c0b04d5}
  9
$VERSIONGUID
  2
{FAEB1C32-E019-11D5-929B-00C0DF256EC4}
  9
$EXTNAMES
290
     1
  9
$PSVPSCALE
 40
0.0
  9
$OLESTARTUP
290
     0
  9
$SORTENTS
280
   127
  9
$INDEXCTL
280
     0
  9
$HIDETEXT
280
     1
  9
$XCLIPFRAME
290
     0
  9
$HALOGAP
280
     0
  9
$OBSCOLOR
 70
   257
  9
$OBSLTYPE
280
     0
  9
$INTERSECTIONDISPLAY
280
     0
  9
$INTERSECTIONCOLOR
 70
   257
  9
$DIMASSOC
280
     2
  9
$PROJECTNAME
  1

  0
ENDSEC
  0
SECTION
  2
CLASSES
  0
CLASS
  1
ACDBDICTIONARYWDFLT
  2
AcDbDictionaryWithDefault
  3
ObjectDBX Classes
 90
        0
 91
        3
280
     0
281
     0
  0
CLASS
  1
VISUALSTYLE
  2
AcDbVisualStyle
  3
ObjectDBX Classes
 90
     4095
 91
        3
280
     0
281
     0
  0
CLASS
  1
MATERIAL
  2
AcDbMaterial
  3
ObjectDBX Classes
 90
     1153
 91
        3
280
     0
281
     0
  0
CLASS
  1
SCALE
  2
AcDbScale
  3
ObjectDBX Classes
 90
     1153
 91
        3
280
     0
281
     0
  0
CLASS
  1
TABLESTYLE
  2
AcDbTableStyle
  3
ObjectDBX Classes
 90
     4095
 91
        3
280
     0
281
     0
  0
CLASS
  1
MLEADERSTYLE
  2
AcDbMLeaderStyle
  3
ACDB_MLEADERSTYLE_CLASS
 90
     4095
 91
        3
280
     0
281
     0
  0
CLASS
  1
SUN
  2
AcDbSun
  3
SCENEOE
 90
     1153
 91
        3
280
     0
281
     0
  0
CLASS
  1
DICTIONARYVAR
  2
AcDbDictionaryVar
  3
ObjectDBX Classes
 90
        0
 91
        3
280
     0
281
     0
  0
CLASS
  1
CELLSTYLEMAP
  2
AcDbCellStyleMap
  3
ObjectDBX Classes
 90
     1152
 91
        3
280
     0
281
     0
  0
ENDSEC
  0
SECTION
  2
TABLES
  0
TABLE
  2
VPORT
  5
8
330
0
100
AcDbSymbolTable
 70
     1
  0
VPORT
  5
29
330
8
100
AcDbSymbolTableRecord
100
AcDbViewportTableRecord
  2
*Active
 70
     0
 10
0.0
 20
0.0
 11
1.0
 21
1.0
 12
148.5
 22
105.0
 13
0.0
 23
0.0
 14
10.0
 24
10.0
 15
10.0
 25
10.0
 16
0.0
 26
0.0
 36
1.0
 17
0.0
 27
0.0
 37
0.0
 40
210.0
 41
1.4142857143
 42
50.0
 43
0.0
 44
0.0
 50
0.0
 51
0.0
 71
     0
 72
  2000
 73
     1
 74
     3
 75
     0
 76
     0
 77
     0
 78
     0
281
     0
 65
     1
110
0.0
120
0.0
130
0.0
111
1.0
121
0.0
131
0.0
112
0.0
122
1.0
132
0.0
 79
     0
146
0.0
  0
ENDTAB
  0
TABLE
  2
LTYPE
  5
5
330
0
100
AcDbSymbolTable
 70
     6
  0
LTYPE
  5
14
330
5
100
AcDbSymbolTableRecord
100
AcDbLinetypeTableRecord
  2
ByBlock
 70
     0
  3

 72
    65
 73
     0
 40
0.0
  0
LTYPE
  5
15
330
5
100
AcDbSymbolTableRecord
100
AcDbLinetypeTableRecord
  2
ByLayer
 70
     0
  3

 72
    65
 73
     0
 40
0.0
  0
LTYPE
  5
16
330
5
100
AcDbSymbolTableRecord
100
AcDbLinetypeTableRecord
  2
Continuous
 70
     0
  3
Solid line
 72
    65
 73
     0
 40
0.0
  0
LTYPE
  5
5E
330
5
100
AcDbSymbolTableRecord
100
AcDbLinetypeTableRecord
  2
HIDDEN
 70
     0
  3
Hidden __ __ __ __ __ __ __ __ __ __ __ __ __ __
 72
    65
 73
     2
 40
1.905
 49
1.27
 74
     0
 49
-0.635
 74
     0
  0
LTYPE
  5
5F
330
5
100
AcDbSymbolTableRecord
100
AcDbLinetypeTableRecord
  2
PHANTOM
 70
     0
  3
Phantom ______  __  __  ______  __  __  ______
 72
    65
 73
     6
 40
12.7
 49
6.35
 74
     0
 49
-1.27
 74
     0
 49
1.27
 74
     0
 49
-1.27
 74
     0
 49
1.27
 74
     0
 49
-1.27
 74
     0
  0
LTYPE
  5
60
330
5
100
AcDbSymbolTableRecord
100
AcDbLinetypeTableRecord
  2
CENTER
 70
     0
  3
Center ____ _ ____ _ ____ _ ____ _ ____ _ ____
 72
    65
 73
     4
 40
10.16
 49
6.35
 74
     0
 49
-1.27
 74
     0
 49
1.27
 74
     0
 49
-1.27
 74
     0
  0
LTYPE
  5
61
330
5
100
AcDbSymbolTableRecord
100
AcDbLinetypeTableRecord
  2
CENTERX2
 70
     0
  3
Center (2x) ________  __  ________  __  _____
 72
    65
 73
     4
 40
20.32
 49
12.7
 74
     0
 49
-2.54
 74
     0
 49
2.54
 74
     0
 49
-2.54
 74
     0
  0
LTYPE
  5
62
330
5
100
AcDbSymbolTableRecord
100
AcDbLinetypeTableRecord
  2
DOT2
 70
     0
  3
Dot (.5x) ........................................
 72
    65
 73
     2
 40
0.635
 49
0.0
 74
     0
 49
-0.635
 74
     0
  0
ENDTAB
  0
TABLE
  2
LAYER
  5
2
330
0
100
AcDbSymbolTable
 70
     3
  0
LAYER
  5
10
330
2
100
AcDbSymbolTableRecord
100
AcDbLayerTableRecord
  2
0
 70
     0
 62
     7
  6
Continuous
370
    -3
390
F
  0
LAYER
  5
63
330
2
100
AcDbSymbolTableRecord
100
AcDbLayerTableRecord
  2
SLD-0
 70
     0
 62
     7
  6
Continuous
370
    25
390
F
  0
LAYER
  5
64
330
2
100
AcDbSymbolTableRecord
100
AcDbLayerTableRecord
  2
DIM
 70
     0
 62
     7
  6
Continuous
370
    -3
390
F
  0
ENDTAB
  0
TABLE
  2
STYLE
  5
3
330
0
100
AcDbSymbolTable
 70
     2
  0
STYLE
  5
11
330
3
100
AcDbSymbolTableRecord
100
AcDbTextStyleTableRecord
  2
Standard
 70
     0
 40
0.0
 41
1.0
 50
0.0
 71
     0
 42
2.5
  3
txt
  4

  0
STYLE
  5
B5
330
3
100
AcDbSymbolTableRecord
100
AcDbTextStyleTableRecord
  2
SLDTEXTSTYLE0
 70
     0
 40
0.0
 41
0.605
 50
0.0
 71
     0
 42
2.5
  3
TXT
  4

  0
ENDTAB
  0
TABLE
  2
VIEW
  5
6
330
0
100
AcDbSymbolTable
 70
     0
  0
ENDTAB
  0
TABLE
  2
UCS
  5
7
330
0
100
AcDbSymbolTable
 70
     0
  0
ENDTAB
  0
TABLE
  2
APPID
  5
9
330
0
100
AcDbSymbolTable
 70
     2
  0
APPID
  5
12
330
9
100
AcDbSymbolTableRecord
100
AcDbRegAppTableRecord
  2
ACAD
 70
     0
  0
APPID
  5
449
330
9
100
AcDbSymbolTableRecord
100
AcDbRegAppTableRecord
  2
ACAD_MLEADERVER
 70
     0
  0
ENDTAB
  0
TABLE
  2
DIMSTYLE
  5
A
330
0
100
AcDbSymbolTable
 70
     7
100
AcDbDimStyleTable
  0
DIMSTYLE
105
27
330
A
100
AcDbSymbolTableRecord
100
AcDbDimStyleTableRecord
  2
ISO-25
 70
     0
 41
2.5
 42
0.625
 43
3.75
 44
1.25
 73
     0
 74
     0
 77
     1
 78
     8
140
2.5
141
2.5
143
0.0393700787
147
0.625
171
     3
172
     1
178
     0
271
     2
272
     2
274
     3
278
    44
283
     0
284
     8
340
11
  0
DIMSTYLE
105
163
102
{ACAD_REACTORS
330
162
330
16D
330
209
330
213
330
21D
330
227
330
28F
330
299
102
}
330
A
100
AcDbSymbolTableRecord
100
AcDbDimStyleTableRecord
  2
SLDDIMSTYLE0
 70
     0
 41
2.0
 44
0.0
 45
0.000000001
 73
     0
 74
     0
 77
     1
 78
    12
 79
     3
140
2.5
147
0.625
173
     1
178
     0
271
     2
272
     2
276
     2
284
    12
340
B5
  0
DIMSTYLE
105
178
102
{ACAD_REACTORS
330
177
102
}
330
A
100
AcDbSymbolTableRecord
100
AcDbDimStyleTableRecord
  2
SLDDIMSTYLE1
 70
     0
 41
2.0
 44
0.0
 45
0.000000001
 78
    12
 79
     3
140
2.5
141
0.0
147
0.625
173
     1
178
     0
271
     2
272
     2
276
     2
284
    12
340
B5
  0
DIMSTYLE
105
232
102
{ACAD_REACTORS
330
231
102
}
330
A
100
AcDbSymbolTableRecord
100
AcDbDimStyleTableRecord
  2
SLDDIMSTYLE2
 70
     0
  3
<>
 41
2.0
 44
0.0
 45
0.000000001
 78
    12
 79
     3
140
2.5
141
0.0
147
0.625
173
     1
178
     0
271
     2
272
     2
276
     2
284
    12
340
B5
  0
DIMSTYLE
105
23C
102
{ACAD_REACTORS
330
23B
102
}
330
A
100
AcDbSymbolTableRecord
100
AcDbDimStyleTableRecord
  2
SLDDIMSTYLE3
 70
     0
 41
2.0
 44
0.0
 45
0.000000001
 73
     0
 74
     0
 77
     1
 78
    12
 79
     3
140
2.5
147
0.625
173
     1
178
     0
271
     1
272
     1
276
     2
284
    12
340
B5
  0
DIMSTYLE
105
2A4
102
{ACAD_REACTORS
330
2A3
102
}
330
A
100
AcDbSymbolTableRecord
100
AcDbDimStyleTableRecord
  2
SLDDIMSTYLE4
 70
     0
 41
2.0
 44
0.0
 45
0.000000001
 78
    12
 79
     3
140
2.5
141
0.0
147
0.625
173
     1
178
     0
271
     2
272
     2
276
     2
284
    12
340
B5
  0
DIMSTYLE
105
2AF
102
{ACAD_REACTORS
330
2AE
102
}
330
A
100
AcDbSymbolTableRecord
100
AcDbDimStyleTableRecord
  2
SLDDIMSTYLE5
 70
     0
 41
2.0
 44
0.0
 45
0.000000001
 78
    12
 79
     3
140
2.5
141
0.0
147
0.625
172
     1
173
     1
178
     0
271
     2
272
     2
276
     2
284
    12
340
B5
  0
ENDTAB
  0
TABLE
  2
BLOCK_RECORD
  5
1
330
0
100
AcDbSymbolTable
 70
    17
  0
BLOCK_RECORD
  5
1F
330
1
100
AcDbSymbolTableRecord
100
AcDbBlockTableRecord
  2
*Model_Space
340
22
  0
BLOCK_RECORD
  5
1B
330
1
100
AcDbSymbolTableRecord
100
AcDbBlockTableRecord
  2
*Paper_Space
340
1E
  0
BLOCK_RECORD
  5
23
330
1
100
AcDbSymbolTableRecord
100
AcDbBlockTableRecord
  2
*Paper_Space0
340
26
  0
BLOCK_RECORD
  5
164
330
1
100
AcDbSymbolTableRecord
100
AcDbBlockTableRecord
  2
_D
340
0
  0
BLOCK_RECORD
  5
16E
330
1
100
AcDbSymbolTableRecord
100
AcDbBlockTableRecord
  2
_D_1
340
0
  0
BLOCK_RECORD
  5
179
330
1
100
AcDbSymbolTableRecord
100
AcDbBlockTableRecord
  2
_D_2
340
0
  0
BLOCK_RECORD
  5
180
330
1
100
AcDbSymbolTableRecord
100
AcDbBlockTableRecord
  2
SW_CENTERMARKSYMBOL_0
340
0
102
{BLKREFS
331
18B
102
}
  0
BLOCK_RECORD
  5
20A
330
1
100
AcDbSymbolTableRecord
100
AcDbBlockTableRecord
  2
_D_3
340
0
  0
BLOCK_RECORD
  5
214
330
1
100
AcDbSymbolTableRecord
100
AcDbBlockTableRecord
  2
_D_4
340
0
  0
BLOCK_RECORD
  5
21E
330
1
100
AcDbSymbolTableRecord
100
AcDbBlockTableRecord
  2
_D_5
340
0
  0
BLOCK_RECORD
  5
228
330
1
100
AcDbSymbolTableRecord
100
AcDbBlockTableRecord
  2
_D_6
340
0
  0
BLOCK_RECORD
  5
233
330
1
100
AcDbSymbolTableRecord
100
AcDbBlockTableRecord
  2
_D_7
340
0
  0
BLOCK_RECORD
  5
23D
330
1
100
AcDbSymbolTableRecord
100
AcDbBlockTableRecord
  2
_D_8
340
0
  0
BLOCK_RECORD
  5
247
330
1
100
AcDbSymbolTableRecord
100
AcDbBlockTableRecord
  2
SW_CENTERMARKSYMBOL_1
340
0
102
{BLKREFS
331
252
102
}
  0
BLOCK_RECORD
  5
290
330
1
100
AcDbSymbolTableRecord
100
AcDbBlockTableRecord
  2
_D_9
340
0
  0
BLOCK_RECORD
  5
29A
330
1
100
AcDbSymbolTableRecord
100
AcDbBlockTableRecord
  2
_D_10
340
0
  0
BLOCK_RECORD
  5
2A5
330
1
100
AcDbSymbolTableRecord
100
AcDbBlockTableRecord
  2
_D_11
340
0
  0
BLOCK_RECORD
  5
2B0
330
1
100
AcDbSymbolTableRecord
100
AcDbBlockTableRecord
  2
_D_12
340
0
  0
BLOCK_RECORD
  5
2BB
330
1
100
AcDbSymbolTableRecord
100
AcDbBlockTableRecord
  2
SW_CENTERMARKSYMBOL_2
340
0
102
{BLKREFS
331
2C6
102
}
  0
ENDTAB
  0
ENDSEC
  0
SECTION
  2
BLOCKS
  0
BLOCK
  5
20
330
1F
100
AcDbEntity
  8
0
100
AcDbBlockBegin
  2
*Model_Space
 70
     0
 10
0.0
 20
0.0
 30
0.0
  3
*Model_Space
  1

  0
ENDBLK
  5
21
330
1F
100
AcDbEntity
  8
0
100
AcDbBlockEnd
  0
BLOCK
  5
1C
330
1B
100
AcDbEntity
 67
     1
  8
0
100
AcDbBlockBegin
  2
*Paper_Space
 70
     0
 10
0.0
 20
0.0
 30
0.0
  3
*Paper_Space
  1

  0
ENDBLK
  5
1D
330
1B
100
AcDbEntity
 67
     1
  8
0
100
AcDbBlockEnd
  0
BLOCK
  5
24
330
23
100
AcDbEntity
  8
0
100
AcDbBlockBegin
  2
*Paper_Space0
 70
     0
 10
0.0
 20
0.0
 30
0.0
  3
*Paper_Space0
  1

  0
ENDBLK
  5
25
330
23
100
AcDbEntity
  8
0
100
AcDbBlockEnd
  0
BLOCK
  5
165
330
164
100
AcDbEntity
  8
0
100
AcDbBlockBegin
  2
_D
 70
     0
 10
0.0
 20
0.0
 30
0.0
  3
_D
  1

  0
SOLID
  5
167
330
164
100
AcDbEntity
  8
SLD-0
100
AcDbTrace
 10
57.8426064826
 20
57.9901116977
 30
0.0
 11
55.8426064826
 21
58.2401116977
 31
0.0
 12
55.8426064826
 22
57.7401116977
 32
0.0
 13
55.8426064826
 23
57.7401116977
 33
0.0
  0
SOLID
  5
168
330
164
100
AcDbEntity
  8
SLD-0
100
AcDbTrace
 10
32.8426064826
 20
57.9901116977
 30
0.0
 11
34.8426064826
 21
57.7401116977
 31
0.0
 12
34.8426064826
 22
58.2401116977
 32
0.0
 13
34.8426064826
 23
58.2401116977
 33
0.0
  0
LINE
  5
169
330
164
100
AcDbEntity
  8
SLD-0
100
AcDbLine
 10
57.8426064826
 20
78.0558424961
 30
0.0
 11
57.8426064826
 21
56.9901116977
 31
0.0
  0
LINE
  5
16A
330
164
100
AcDbEntity
  8
SLD-0
100
AcDbLine
 10
32.8426064826
 20
73.0558424961
 30
0.0
 11
32.8426064826
 21
56.9901116977
 31
0.0
  0
LINE
  5
16B
330
164
100
AcDbEntity
  8
SLD-0
100
AcDbLine
 10
57.8426064826
 20
57.9901116977
 30
0.0
 11
32.8426064826
 21
57.9901116977
 31
0.0
  0
MTEXT
  5
16C
330
164
100
AcDbEntity
  8
SLD-0
100
AcDbMText
 10
43.4328842578
 20
61.2127808725
 30
0.0
 40
2.5
 41
0.0
 71
     1
 72
     1
  1
25
  7
SLDTEXTSTYLE0
 73
     1
 44
1.0
  0
ENDBLK
  5
166
330
164
100
AcDbEntity
  8
0
100
AcDbBlockEnd
  0
BLOCK
  5
16F
330
16E
100
AcDbEntity
  8
0
100
AcDbBlockBegin
  2
_D_1
 70
     0
 10
0.0
 20
0.0
 30
0.0
  3
_D_1
  1

  0
SOLID
  5
171
330
16E
100
AcDbEntity
  8
SLD-0
100
AcDbTrace
 10
23.7463504332
 20
67.0558424961
 30
0.0
 11
23.9963504332
 21
69.0558424961
 31
0.0
 12
23.4963504332
 22
69.0558424961
 32
0.0
 13
23.4963504332
 23
69.0558424961
 33
0.0
  0
SOLID
  5
172
330
16E
100
AcDbEntity
  8
SLD-0
100
AcDbTrace
 10
23.7463504332
 20
92.0558424961
 30
0.0
 11
23.4963504332
 21
90.0558424961
 31
0.0
 12
23.9963504332
 22
90.0558424961
 32
0.0
 13
23.9963504332
 23
90.0558424961
 33
0.0
  0
LINE
  5
173
330
16E
100
AcDbEntity
  8
SLD-0
100
AcDbLine
 10
38.8426064826
 20
67.0558424961
 30
0.0
 11
22.7463504332
 21
67.0558424961
 31
0.0
  0
LINE
  5
174
330
16E
100
AcDbEntity
  8
SLD-0
100
AcDbLine
 10
43.8426064826
 20
92.0558424961
 30
0.0
 11
22.7463504332
 21
92.0558424961
 31
0.0
  0
LINE
  5
175
330
16E
100
AcDbEntity
  8
SLD-0
100
AcDbLine
 10
23.7463504332
 20
67.0558424961
 30
0.0
 11
23.7463504332
 21
92.0558424961
 31
0.0
  0
MTEXT
  5
176
330
16E
100
AcDbEntity
  8
SLD-0
100
AcDbMText
 10
20.5236812584
 20
77.6461202713
 30
0.0
 40
2.5
 41
0.0
 71
     1
 72
     1
  1
25
  7
SLDTEXTSTYLE0
 11
-7.044195017643634E-15
 21
1.0
 31
0.0
 73
     1
 44
1.0
  0
ENDBLK
  5
170
330
16E
100
AcDbEntity
  8
0
100
AcDbBlockEnd
  0
BLOCK
  5
17A
330
179
100
AcDbEntity
  8
0
100
AcDbBlockBegin
  2
_D_2
 70
     0
 10
0.0
 20
0.0
 30
0.0
  3
_D_2
  1

  0
SOLID
  5
17C
330
179
100
AcDbEntity
  8
SLD-0
 62
     7
100
AcDbTrace
 10
50.3812369602
 20
80.2098319926
 30
0.0
 11
51.6586827938
 21
81.7688804659
 31
0.0
 12
51.2356109901
 22
82.0353579488
 32
0.0
 13
51.2356109901
 23
82.0353579488
 33
0.0
  0
LINE
  5
17D
330
179
100
AcDbEntity
  8
SLD-0
 62
     7
100
AcDbLine
 10
50.3812369602
 20
80.2098319926
 30
0.0
 11
69.2955748929
 21
110.239097417
 31
0.0
  0
LINE
  5
17E
330
179
100
AcDbEntity
  8
SLD-0
 62
     7
100
AcDbLine
 10
69.2955748929
 20
110.239097417
 30
0.0
 11
76.8441858335
 21
110.239097417
 31
0.0
  0
MTEXT
  5
17F
330
179
100
AcDbEntity
  8
SLD-0
 62
     7
100
AcDbMText
 10
70.5455748929
 20
113.4617665918
 30
0.0
 40
2.5
 41
0.0
 71
     1
 72
     1
  1
R14
  7
SLDTEXTSTYLE0
 73
     1
 44
1.0
  0
ENDBLK
  5
17B
330
179
100
AcDbEntity
  8
0
100
AcDbBlockEnd
  0
BLOCK
  5
181
330
180
100
AcDbEntity
  8
0
100
AcDbBlockBegin
  2
SW_CENTERMARKSYMBOL_0
 70
     0
 10
0.0
 20
0.0
 30
0.0
  3
SW_CENTERMARKSYMBOL_0
  1

  0
LINE
  5
183
330
180
100
AcDbEntity
  8
SLD-0
 62
     0
100
AcDbLine
 10
0.0
 20
0.0
 30
0.0
 11
0.0
 21
-1.0
 31
0.0
  0
LINE
  5
184
330
180
100
AcDbEntity
  8
SLD-0
 62
     0
100
AcDbLine
 10
0.0
 20
0.0
 30
0.0
 11
1.0
 21
0.0
 31
0.0
  0
LINE
  5
185
330
180
100
AcDbEntity
  8
SLD-0
 62
     0
100
AcDbLine
 10
0.0
 20
0.0
 30
0.0
 11
0.0
 21
1.0
 31
0.0
  0
LINE
  5
186
330
180
100
AcDbEntity
  8
SLD-0
 62
     0
100
AcDbLine
 10
0.0
 20
0.0
 30
0.0
 11
-1.0
 21
0.0
 31
0.0
  0
LINE
  5
187
330
180
100
AcDbEntity
  8
SLD-0
 62
     0
100
AcDbLine
 10
0.0
 20
-2.0
 30
0.0
 11
0.0
 21
-13.0
 31
0.0
  0
LINE
  5
188
330
180
100
AcDbEntity
  8
SLD-0
 62
     0
100
AcDbLine
 10
2.0
 20
0.0
 30
0.0
 11
13.0
 21
0.0
 31
0.0
  0
LINE
  5
189
330
180
100
AcDbEntity
  8
SLD-0
 62
     0
100
AcDbLine
 10
0.0
 20
2.0
 30
0.0
 11
0.0
 21
13.0
 31
0.0
  0
LINE
  5
18A
330
180
100
AcDbEntity
  8
SLD-0
 62
     0
100
AcDbLine
 10
-2.0
 20
0.0
 30
0.0
 11
-13.0
 21
0.0
 31
0.0
  0
ENDBLK
  5
182
330
180
100
AcDbEntity
  8
0
100
AcDbBlockEnd
  0
BLOCK
  5
20B
330
20A
100
AcDbEntity
  8
0
100
AcDbBlockBegin
  2
_D_3
 70
     0
 10
0.0
 20
0.0
 30
0.0
  3
_D_3
  1

  0
SOLID
  5
20D
330
20A
100
AcDbEntity
  8
SLD-0
 62
     7
100
AcDbTrace
 10
114.1983736569
 20
59.4013875418
 30
0.0
 11
112.1983736569
 21
59.6513875418
 31
0.0
 12
112.1983736569
 22
59.1513875418
 32
0.0
 13
112.1983736569
 23
59.1513875418
 33
0.0
  0
SOLID
  5
20E
330
20A
100
AcDbEntity
  8
SLD-0
 62
     7
100
AcDbTrace
 10
109.1983736569
 20
59.4013875418
 30
0.0
 11
111.1983736569
 21
59.1513875418
 31
0.0
 12
111.1983736569
 22
59.6513875418
 32
0.0
 13
111.1983736569
 23
59.6513875418
 33
0.0
  0
LINE
  5
20F
330
20A
100
AcDbEntity
  8
SLD-0
 62
     7
100
AcDbLine
 10
114.1983736569
 20
86.3558424961
 30
0.0
 11
114.1983736569
 21
58.4013875418
 31
0.0
  0
LINE
  5
210
330
20A
100
AcDbEntity
  8
SLD-0
 62
     7
100
AcDbLine
 10
109.1983736569
 20
66.0558424961
 30
0.0
 11
109.1983736569
 21
58.4013875418
 31
0.0
  0
LINE
  5
211
330
20A
100
AcDbEntity
  8
SLD-0
 62
     7
100
AcDbLine
 10
114.1983736569
 20
59.4013875418
 30
0.0
 11
109.1983736569
 21
59.4013875418
 31
0.0
  0
MTEXT
  5
212
330
20A
100
AcDbEntity
  8
SLD-0
 62
     7
100
AcDbMText
 10
110.7435125445
 20
62.6240567166
 30
0.0
 40
2.5
 41
0.0
 71
     1
 72
     1
  1
5
  7
SLDTEXTSTYLE0
 73
     1
 44
1.0
  0
ENDBLK
  5
20C
330
20A
100
AcDbEntity
  8
0
100
AcDbBlockEnd
  0
BLOCK
  5
215
330
214
100
AcDbEntity
  8
0
100
AcDbBlockBegin
  2
_D_4
 70
     0
 10
0.0
 20
0.0
 30
0.0
  3
_D_4
  1

  0
SOLID
  5
217
330
214
100
AcDbEntity
  8
SLD-0
 62
     7
100
AcDbTrace
 10
109.1983736569
 20
53.5321623339
 30
0.0
 11
111.1983736569
 21
53.2821623339
 31
0.0
 12
111.1983736569
 22
53.7821623339
 32
0.0
 13
111.1983736569
 23
53.7821623339
 33
0.0
  0
SOLID
  5
218
330
214
100
AcDbEntity
  8
SLD-0
 62
     7
100
AcDbTrace
 10
119.1983736569
 20
53.5321623339
 30
0.0
 11
117.1983736569
 21
53.7821623339
 31
0.0
 12
117.1983736569
 22
53.2821623339
 32
0.0
 13
117.1983736569
 23
53.2821623339
 33
0.0
  0
LINE
  5
219
330
214
100
AcDbEntity
  8
SLD-0
 62
     7
100
AcDbLine
 10
109.1983736569
 20
66.0558424961
 30
0.0
 11
109.1983736569
 21
52.5321623339
 31
0.0
  0
LINE
  5
21A
330
214
100
AcDbEntity
  8
SLD-0
 62
     7
100
AcDbLine
 10
119.1983736569
 20
66.0558424961
 30
0.0
 11
119.1983736569
 21
52.5321623339
 31
0.0
  0
LINE
  5
21B
330
214
100
AcDbEntity
  8
SLD-0
 62
     7
100
AcDbLine
 10
109.1983736569
 20
53.5321623339
 30
0.0
 11
119.1983736569
 21
53.5321623339
 31
0.0
  0
MTEXT
  5
21C
330
214
100
AcDbEntity
  8
SLD-0
 62
     7
100
AcDbMText
 10
112.2886514321
 20
56.7548315087
 30
0.0
 40
2.5
 41
0.0
 71
     1
 72
     1
  1
10
  7
SLDTEXTSTYLE0
 73
     1
 44
1.0
  0
ENDBLK
  5
216
330
214
100
AcDbEntity
  8
0
100
AcDbBlockEnd
  0
BLOCK
  5
21F
330
21E
100
AcDbEntity
  8
0
100
AcDbBlockBegin
  2
_D_5
 70
     0
 10
0.0
 20
0.0
 30
0.0
  3
_D_5
  1

  0
SOLID
  5
221
330
21E
100
AcDbEntity
  8
SLD-0
 62
     7
100
AcDbTrace
 10
121.6983736569
 20
53.5321623339
 30
0.0
 11
123.6983736569
 21
53.2821623339
 31
0.0
 12
123.6983736569
 22
53.7821623339
 32
0.0
 13
123.6983736569
 23
53.7821623339
 33
0.0
  0
SOLID
  5
222
330
21E
100
AcDbEntity
  8
SLD-0
 62
     7
100
AcDbTrace
 10
128.6983736569
 20
53.5321623339
 30
0.0
 11
126.6983736569
 21
53.7821623339
 31
0.0
 12
126.6983736569
 22
53.2821623339
 32
0.0
 13
126.6983736569
 23
53.2821623339
 33
0.0
  0
LINE
  5
223
330
21E
100
AcDbEntity
  8
SLD-0
 62
     7
100
AcDbLine
 10
121.6983736569
 20
67.2558424961
 30
0.0
 11
121.6983736569
 21
52.5321623339
 31
0.0
  0
LINE
  5
224
330
21E
100
AcDbEntity
  8
SLD-0
 62
     7
100
AcDbLine
 10
128.6983736569
 20
67.2558424961
 30
0.0
 11
128.6983736569
 21
52.5321623339
 31
0.0
  0
LINE
  5
225
330
21E
100
AcDbEntity
  8
SLD-0
 62
     7
100
AcDbLine
 10
121.6983736569
 20
53.5321623339
 30
0.0
 11
128.6983736569
 21
53.5321623339
 31
0.0
  0
MTEXT
  5
226
330
21E
100
AcDbEntity
  8
SLD-0
 62
     7
100
AcDbMText
 10
124.2435125445
 20
56.7548315087
 30
0.0
 40
2.5
 41
0.0
 71
     1
 72
     1
  1
7
  7
SLDTEXTSTYLE0
 73
     1
 44
1.0
  0
ENDBLK
  5
220
330
21E
100
AcDbEntity
  8
0
100
AcDbBlockEnd
  0
BLOCK
  5
229
330
228
100
AcDbEntity
  8
0
100
AcDbBlockBegin
  2
_D_6
 70
     0
 10
0.0
 20
0.0
 30
0.0
  3
_D_6
  1

  0
SOLID
  5
22B
330
228
100
AcDbEntity
  8
SLD-0
 62
     7
100
AcDbTrace
 10
109.1983736569
 20
46.0558424961
 30
0.0
 11
111.1983736569
 21
45.8058424961
 31
0.0
 12
111.1983736569
 22
46.3058424961
 32
0.0
 13
111.1983736569
 23
46.3058424961
 33
0.0
  0
SOLID
  5
22C
330
228
100
AcDbEntity
  8
SLD-0
 62
     7
100
AcDbTrace
 10
128.6983736569
 20
46.0558424961
 30
0.0
 11
126.6983736569
 21
46.3058424961
 31
0.0
 12
126.6983736569
 22
45.8058424961
 32
0.0
 13
126.6983736569
 23
45.8058424961
 33
0.0
  0
LINE
  5
22D
330
228
100
AcDbEntity
  8
SLD-0
 62
     7
100
AcDbLine
 10
109.1983736569
 20
66.0558424961
 30
0.0
 11
109.1983736569
 21
45.0558424961
 31
0.0
  0
LINE
  5
22E
330
228
100
AcDbEntity
  8
SLD-0
 62
     7
100
AcDbLine
 10
128.6983736569
 20
67.2558424961
 30
0.0
 11
128.6983736569
 21
45.0558424961
 31
0.0
  0
LINE
  5
22F
330
228
100
AcDbEntity
  8
SLD-0
 62
     7
100
AcDbLine
 10
109.1983736569
 20
46.0558424961
 30
0.0
 11
128.6983736569
 21
46.0558424961
 31
0.0
  0
MTEXT
  5
230
330
228
100
AcDbEntity
  8
SLD-0
 62
     7
100
AcDbMText
 10
115.6063598508
 20
49.2785116709
 30
0.0
 40
2.5
 41
0.0
 71
     1
 72
     1
  1
19.5
  7
SLDTEXTSTYLE0
 73
     1
 44
1.0
  0
ENDBLK
  5
22A
330
228
100
AcDbEntity
  8
0
100
AcDbBlockEnd
  0
BLOCK
  5
234
330
233
100
AcDbEntity
  8
0
100
AcDbBlockBegin
  2
_D_7
 70
     0
 10
0.0
 20
0.0
 30
0.0
  3
_D_7
  1

  0
SOLID
  5
236
330
233
100
AcDbEntity
  8
SLD-0
 62
     7
100
AcDbTrace
 10
113.8037248224
 20
95.7347353047
 30
0.0
 11
113.8389749665
 21
97.7499914739
 31
0.0
 12
113.3418272896
 22
97.6966605503
 32
0.0
 13
113.3418272896
 23
97.6966605503
 33
0.0
  0
LINE
  5
237
330
233
100
AcDbEntity
  8
SLD-0
 62
     7
100
AcDbLine
 10
113.8037248224
 20
95.7347353047
 30
0.0
 11
110.8158982426
 21
123.5870758073
 31
0.0
  0
LINE
  5
238
330
233
100
AcDbEntity
  8
SLD-0
 62
     7
100
AcDbLine
 10
110.8158982426
 20
123.5870758073
 30
0.0
 11
77.6839586228
 21
123.5870758073
 31
0.0
  0
MTEXT
  5
239
330
233
100
AcDbEntity
  8
SLD-0
 62
     7
100
AcDbMText
 10
77.6839586228
 20
130.6465504487
 30
0.0
 40
2.5
 41
0.0
 71
     1
 72
     1
  1
2 HOLES for both of
  7
SLDTEXTSTYLE0
 73
     1
 44
1.0
  0
MTEXT
  5
23A
330
233
100
AcDbEntity
  8
SLD-0
 62
     7
100
AcDbMText
 10
78.6214586228
 20
126.8097449821
 30
0.0
 40
2.5
 41
0.0
 71
     1
 72
     1
  1
M4 and 8-32 CLR
  7
SLDTEXTSTYLE0
 73
     1
 44
1.0
  0
ENDBLK
  5
235
330
233
100
AcDbEntity
  8
0
100
AcDbBlockEnd
  0
BLOCK
  5
23E
330
23D
100
AcDbEntity
  8
0
100
AcDbBlockBegin
  2
_D_8
 70
     0
 10
0.0
 20
0.0
 30
0.0
  3
_D_8
  1

  0
SOLID
  5
240
330
23D
100
AcDbEntity
  8
SLD-0
100
AcDbTrace
 10
105.6979585805
 20
35.0061838631
 30
0.0
 11
107.6979585805
 21
34.7561838631
 31
0.0
 12
107.6979585805
 22
35.2561838631
 32
0.0
 13
107.6979585805
 23
35.2561838631
 33
0.0
  0
SOLID
  5
241
330
23D
100
AcDbEntity
  8
SLD-0
100
AcDbTrace
 10
128.6983736569
 20
35.0061838631
 30
0.0
 11
126.6983736569
 21
35.2561838631
 31
0.0
 12
126.6983736569
 22
34.7561838631
 32
0.0
 13
126.6983736569
 23
34.7561838631
 33
0.0
  0
LINE
  5
242
330
23D
100
AcDbEntity
  8
SLD-0
100
AcDbLine
 10
105.6979585805
 20
70.0558424961
 30
0.0
 11
105.6979585805
 21
34.0061838631
 31
0.0
  0
LINE
  5
243
330
23D
100
AcDbEntity
  8
SLD-0
100
AcDbLine
 10
128.6983736569
 20
67.2558424961
 30
0.0
 11
128.6983736569
 21
34.0061838631
 31
0.0
  0
LINE
  5
244
330
23D
100
AcDbEntity
  8
SLD-0
100
AcDbLine
 10
105.6979585805
 20
35.0061838631
 30
0.0
 11
128.6983736569
 21
35.0061838631
 31
0.0
  0
MTEXT
  5
245
330
23D
100
AcDbEntity
  8
SLD-0
100
AcDbMText
 10
115.2884438939
 20
42.0656585045
 30
0.0
 40
2.5
 41
0.0
 71
     1
 72
     1
  1
23
  7
SLDTEXTSTYLE0
 73
     1
 44
1.0
  0
MTEXT
  5
246
330
23D
100
AcDbEntity
  8
SLD-0
100
AcDbMText
 10
109.3752492757
 20
38.2288530379
 30
0.0
 40
2.5
 41
0.0
 71
     1
 72
     1
  1
NOMINAL
  7
SLDTEXTSTYLE0
 73
     1
 44
1.0
  0
ENDBLK
  5
23F
330
23D
100
AcDbEntity
  8
0
100
AcDbBlockEnd
  0
BLOCK
  5
248
330
247
100
AcDbEntity
  8
0
100
AcDbBlockBegin
  2
SW_CENTERMARKSYMBOL_1
 70
     0
 10
0.0
 20
0.0
 30
0.0
  3
SW_CENTERMARKSYMBOL_1
  1

  0
LINE
  5
24A
330
247
100
AcDbEntity
  8
SLD-0
 62
     0
100
AcDbLine
 10
0.0
 20
0.0
 30
0.0
 11
0.0
 21
1.0
 31
0.0
  0
LINE
  5
24B
330
247
100
AcDbEntity
  8
SLD-0
 62
     0
100
AcDbLine
 10
0.0
 20
0.0
 30
0.0
 11
-1.0
 21
0.0
 31
0.0
  0
LINE
  5
24C
330
247
100
AcDbEntity
  8
SLD-0
 62
     0
100
AcDbLine
 10
0.0
 20
0.0
 30
0.0
 11
0.0
 21
-1.0
 31
0.0
  0
LINE
  5
24D
330
247
100
AcDbEntity
  8
SLD-0
 62
     0
100
AcDbLine
 10
0.0
 20
0.0
 30
0.0
 11
1.0
 21
0.0
 31
0.0
  0
LINE
  5
24E
330
247
100
AcDbEntity
  8
SLD-0
 62
     0
100
AcDbLine
 10
0.0
 20
2.0
 30
0.0
 11
0.0
 21
4.7
 31
0.0
  0
LINE
  5
24F
330
247
100
AcDbEntity
  8
SLD-0
 62
     0
100
AcDbLine
 10
-2.0
 20
0.0
 30
0.0
 11
-4.7
 21
0.0
 31
0.0
  0
LINE
  5
250
330
247
100
AcDbEntity
  8
SLD-0
 62
     0
100
AcDbLine
 10
0.0
 20
-2.0
 30
0.0
 11
0.0
 21
-4.7
 31
0.0
  0
LINE
  5
251
330
247
100
AcDbEntity
  8
SLD-0
 62
     0
100
AcDbLine
 10
2.0
 20
0.0
 30
0.0
 11
4.7
 21
0.0
 31
0.0
  0
ENDBLK
  5
249
330
247
100
AcDbEntity
  8
0
100
AcDbBlockEnd
  0
BLOCK
  5
291
330
290
100
AcDbEntity
  8
0
100
AcDbBlockBegin
  2
_D_9
 70
     0
 10
0.0
 20
0.0
 30
0.0
  3
_D_9
  1

  0
SOLID
  5
293
330
290
100
AcDbEntity
  8
SLD-0
 62
     7
100
AcDbTrace
 10
198.3303713818
 20
57.7862342794
 30
0.0
 11
196.3303713818
 21
58.0362342794
 31
0.0
 12
196.3303713818
 22
57.5362342794
 32
0.0
 13
196.3303713818
 23
57.5362342794
 33
0.0
  0
SOLID
  5
294
330
290
100
AcDbEntity
  8
SLD-0
 62
     7
100
AcDbTrace
 10
148.3303713818
 20
57.7862342794
 30
0.0
 11
150.3303713818
 21
57.5362342794
 31
0.0
 12
150.3303713818
 22
58.0362342794
 32
0.0
 13
150.3303713818
 23
58.0362342794
 33
0.0
  0
LINE
  5
295
330
290
100
AcDbEntity
  8
SLD-0
 62
     7
100
AcDbLine
 10
198.3303713818
 20
73.0558424961
 30
0.0
 11
198.3303713818
 21
56.7862342794
 31
0.0
  0
LINE
  5
296
330
290
100
AcDbEntity
  8
SLD-0
 62
     7
100
AcDbLine
 10
148.3303713818
 20
73.0558424961
 30
0.0
 11
148.3303713818
 21
56.7862342794
 31
0.0
  0
LINE
  5
297
330
290
100
AcDbEntity
  8
SLD-0
 62
     7
100
AcDbLine
 10
198.3303713818
 20
57.7862342794
 30
0.0
 11
148.3303713818
 21
57.7862342794
 31
0.0
  0
MTEXT
  5
298
330
290
100
AcDbEntity
  8
SLD-0
 62
     7
100
AcDbMText
 10
171.420649157
 20
61.0089034542
 30
0.0
 40
2.5
 41
0.0
 71
     1
 72
     1
  1
50
  7
SLDTEXTSTYLE0
 73
     1
 44
1.0
  0
ENDBLK
  5
292
330
290
100
AcDbEntity
  8
0
100
AcDbBlockEnd
  0
BLOCK
  5
29B
330
29A
100
AcDbEntity
  8
0
100
AcDbBlockBegin
  2
_D_10
 70
     0
 10
0.0
 20
0.0
 30
0.0
  3
_D_10
  1

  0
SOLID
  5
29D
330
29A
100
AcDbEntity
  8
SLD-0
 62
     7
100
AcDbTrace
 10
208.2503617642
 20
67.0558424961
 30
0.0
 11
208.5003617642
 21
69.0558424961
 31
0.0
 12
208.0003617642
 22
69.0558424961
 32
0.0
 13
208.0003617642
 23
69.0558424961
 33
0.0
  0
SOLID
  5
29E
330
29A
100
AcDbEntity
  8
SLD-0
 62
     7
100
AcDbTrace
 10
208.2503617642
 20
117.0558424961
 30
0.0
 11
208.0003617642
 21
115.0558424961
 31
0.0
 12
208.5003617642
 22
115.0558424961
 32
0.0
 13
208.5003617642
 23
115.0558424961
 33
0.0
  0
LINE
  5
29F
330
29A
100
AcDbEntity
  8
SLD-0
 62
     7
100
AcDbLine
 10
192.3303713818
 20
67.0558424961
 30
0.0
 11
209.2503617642
 21
67.0558424961
 31
0.0
  0
LINE
  5
2A0
330
29A
100
AcDbEntity
  8
SLD-0
 62
     7
100
AcDbLine
 10
192.3303713818
 20
117.0558424961
 30
0.0
 11
209.2503617642
 21
117.0558424961
 31
0.0
  0
LINE
  5
2A1
330
29A
100
AcDbEntity
  8
SLD-0
 62
     7
100
AcDbLine
 10
208.2503617642
 20
67.0558424961
 30
0.0
 11
208.2503617642
 21
117.0558424961
 31
0.0
  0
MTEXT
  5
2A2
330
29A
100
AcDbEntity
  8
SLD-0
 62
     7
100
AcDbMText
 10
205.0276925894
 20
90.1461202713
 30
0.0
 40
2.5
 41
0.0
 71
     1
 72
     1
  1
50
  7
SLDTEXTSTYLE0
 11
6.944615092633338E-15
 21
1.0
 31
0.0
 73
     1
 44
1.0
  0
ENDBLK
  5
29C
330
29A
100
AcDbEntity
  8
0
100
AcDbBlockEnd
  0
BLOCK
  5
2A6
330
2A5
100
AcDbEntity
  8
0
100
AcDbBlockBegin
  2
_D_11
 70
     0
 10
0.0
 20
0.0
 30
0.0
  3
_D_11
  1

  0
SOLID
  5
2A8
330
2A5
100
AcDbEntity
  8
SLD-0
 62
     7
100
AcDbTrace
 10
170.2245428406
 20
103.6469524116
 30
0.0
 11
169.948386207
 21
105.6435088254
 31
0.0
 12
169.4654232938
 22
105.5140993029
 32
0.0
 13
169.4654232938
 23
105.5140993029
 33
0.0
  0
LINE
  5
2A9
330
2A5
100
AcDbEntity
  8
SLD-0
 62
     7
100
AcDbLine
 10
170.2245428406
 20
103.6469524116
 30
0.0
 11
164.1312681085
 21
126.3873632961
 31
0.0
  0
LINE
  5
2AA
330
2A5
100
AcDbEntity
  8
SLD-0
 62
     7
100
AcDbLine
 10
164.1312681085
 20
126.3873632961
 30
0.0
 11
142.3682457901
 21
126.3873632961
 31
0.0
  0
MTEXT
  5
2AB
330
2A5
100
AcDbEntity
  8
SLD-0
 62
     7
100
AcDbMText
 10
142.3682457901
 20
133.4537828099
 30
0.0
 40
2.5
 41
0.0
 71
     1
 72
     1
  1
ACCEPTS
  7
SLDTEXTSTYLE0
 73
     1
 44
1.0
  0
MTEXT
  5
2AC
330
2A5
100
AcDbEntity
  8
SLD-0
 62
     7
100
AcDbMText
 10
142.3682457901
 20
129.6100328784
 30
0.0
 40
2.5
 41
0.0
 71
     1
 72
     1
  1
%%c
  7
SLDTEXTSTYLE0
 73
     1
 44
1.0
  0
MTEXT
  5
2AD
330
2A5
100
AcDbEntity
  8
SLD-0
 62
     7
100
AcDbMText
 10
146.0132111463
 20
129.6169773434
 30
0.0
 40
2.5
 41
0.0
 71
     1
 72
     1
  1
1" OPTICS
  7
SLDTEXTSTYLE0
 73
     1
 44
1.0
  0
ENDBLK
  5
2A7
330
2A5
100
AcDbEntity
  8
0
100
AcDbBlockEnd
  0
BLOCK
  5
2B1
330
2B0
100
AcDbEntity
  8
0
100
AcDbBlockBegin
  2
_D_12
 70
     0
 10
0.0
 20
0.0
 30
0.0
  3
_D_12
  1

  0
SOLID
  5
2B3
330
2B0
100
AcDbEntity
  8
SLD-0
100
AcDbTrace
 10
181.9952828618
 20
83.7540770788
 30
0.0
 11
180.7240843947
 21
85.3182236375
 31
0.0
 12
180.3781775023
 22
84.9571856592
 32
0.0
 13
180.3781775023
 23
84.9571856592
 33
0.0
  0
SOLID
  5
2B4
330
2B0
100
AcDbEntity
  8
SLD-0
100
AcDbTrace
 10
164.6654599019
 20
100.3576079134
 30
0.0
 11
165.936658369
 21
98.7934613547
 31
0.0
 12
166.2825652614
 22
99.154499333
 32
0.0
 13
166.2825652614
 23
99.154499333
 33
0.0
  0
LINE
  5
2B5
330
2B0
100
AcDbEntity
  8
SLD-0
100
AcDbLine
 10
164.6654599019
 20
100.3576079134
 30
0.0
 11
150.54674423
 21
113.8846088266
 31
0.0
  0
LINE
  5
2B6
330
2B0
100
AcDbEntity
  8
SLD-0
100
AcDbLine
 10
181.9952828618
 20
83.7540770788
 30
0.0
 11
164.6654599019
 21
100.3576079134
 31
0.0
  0
LINE
  5
2B7
330
2B0
100
AcDbEntity
  8
SLD-0
100
AcDbLine
 10
150.54674423
 20
113.8846088266
 30
0.0
 11
135.1517778512
 21
113.8846088266
 31
0.0
  0
MTEXT
  5
2B8
330
2B0
100
AcDbEntity
  8
SLD-0
100
AcDbMText
 10
135.1517778512
 20
117.114222641
 30
0.0
 40
2.5
 41
0.0
 71
     1
 72
     1
  1
C.A.
  7
SLDTEXTSTYLE0
 73
     1
 44
1.0
  0
MTEXT
  5
2B9
330
2B0
100
AcDbEntity
  8
SLD-0
100
AcDbMText
 10
141.8323334928
 20
117.107278176
 30
0.0
 40
2.5
 41
0.0
 71
     1
 72
     1
  1
%%c
  7
SLDTEXTSTYLE0
 73
     1
 44
1.0
  0
MTEXT
  5
2BA
330
2B0
100
AcDbEntity
  8
SLD-0
100
AcDbMText
 10
145.4772990819
 20
117.114222641
 30
0.0
 40
2.5
 41
0.0
 71
     1
 72
     1
  1
24
  7
SLDTEXTSTYLE0
 73
     1
 44
1.0
  0
ENDBLK
  5
2B2
330
2B0
100
AcDbEntity
  8
0
100
AcDbBlockEnd
  0
BLOCK
  5
2BC
330
2BB
100
AcDbEntity
  8
0
100
AcDbBlockBegin
  2
SW_CENTERMARKSYMBOL_2
 70
     0
 10
0.0
 20
0.0
 30
0.0
  3
SW_CENTERMARKSYMBOL_2
  1

  0
LINE
  5
2BE
330
2BB
100
AcDbEntity
  8
SLD-0
 62
     0
100
AcDbLine
 10
0.0
 20
0.0
 30
0.0
 11
0.0
 21
1.0
 31
0.0
  0
LINE
  5
2BF
330
2BB
100
AcDbEntity
  8
SLD-0
 62
     0
100
AcDbLine
 10
0.0
 20
0.0
 30
0.0
 11
-1.0
 21
0.0
 31
0.0
  0
LINE
  5
2C0
330
2BB
100
AcDbEntity
  8
SLD-0
 62
     0
100
AcDbLine
 10
0.0
 20
0.0
 30
0.0
 11
0.0
 21
-1.0
 31
0.0
  0
LINE
  5
2C1
330
2BB
100
AcDbEntity
  8
SLD-0
 62
     0
100
AcDbLine
 10
0.0
 20
0.0
 30
0.0
 11
1.0
 21
0.0
 31
0.0
  0
LINE
  5
2C2
330
2BB
100
AcDbEntity
  8
SLD-0
 62
     0
100
AcDbLine
 10
0.0
 20
2.0
 30
0.0
 11
0.0
 21
13.0
 31
0.0
  0
LINE
  5
2C3
330
2BB
100
AcDbEntity
  8
SLD-0
 62
     0
100
AcDbLine
 10
-2.0
 20
0.0
 30
0.0
 11
-13.0
 21
0.0
 31
0.0
  0
LINE
  5
2C4
330
2BB
100
AcDbEntity
  8
SLD-0
 62
     0
100
AcDbLine
 10
0.0
 20
-2.0
 30
0.0
 11
0.0
 21
-13.0
 31
0.0
  0
LINE
  5
2C5
330
2BB
100
AcDbEntity
  8
SLD-0
 62
     0
100
AcDbLine
 10
2.0
 20
0.0
 30
0.0
 11
13.0
 21
0.0
 31
0.0
  0
ENDBLK
  5
2BD
330
2BB
100
AcDbEntity
  8
0
100
AcDbBlockEnd
  0
ENDSEC
  0
SECTION
  2
ENTITIES
  0
HATCH
  5
65
330
1F
100
AcDbEntity
  8
DIM
 62
     7
100
AcDbHatch
 10
0.0
 20
0.0
 30
0.0
210
0.0
220
0.0
230
1.0
  2
SOLID
 70
     1
 71
     0
 91
        1
 92
        0
 93
       10
 72
     2
 10
191.8380813263968
 20
35.92737635461573
 40
3.045751395731247
 50
249.211220914341
 51
308.9221353953366
 73
     1
 72
     1
 10
193.7516162876314
 20
33.55778028846186
 11
194.7164359488485
 21
32.7104935048195
 72
     1
 10
194.7164359488485
 20
32.7104935048195
 11
191.5062959756927
 21
29.5934537920571
 72
     1
 10
191.5062959756927
 20
29.5934537920571
 11
190.5654955201987
 21
30.4034508621671
 72
     1
 10
190.5654955201987
 20
30.4034508621671
 11
191.1965474406139
 21
31.01935125263813
 72
     1
 10
191.1965474406139
 20
31.01935125263813
 11
187.1873451304183
 21
34.50395509291281
 72
     2
 10
188.202286559959
 20
35.65151546867332
 40
1.531992467805808
 50
131.4906380929588
 51
229.7089352075133
 73
     0
 72
     1
 10
187.2115917124434
 20
36.82007211707337
 11
188.5182199673251
 21
38.08165919358088
 72
     1
 10
188.5182199673251
 20
38.08165919358088
 11
189.5334138147276
 21
37.1861272927631
 72
     2
 10
191.5066841181003
 20
35.5387346053683
 40
2.570544369711283
 50
140.1430462780655
 51
253.045252507401
 73
     1
 97
        0
 75
     0
 76
     1
 98
        1
 10
0.0
 20
0.0
  0
HATCH
  5
66
330
1F
100
AcDbEntity
  8
DIM
 62
     1
100
AcDbHatch
 10
0.0
 20
0.0
 30
0.0
210
0.0
220
0.0
230
1.0
  2
SOLID
 70
     1
 71
     0
 91
        1
 92
        0
 93
       10
 72
     2
 10
191.9712467653607
 20
35.17317671591369
 40
3.18163670452787
 50
234.1674444878508
 51
314.4407074583991
 73
     0
 72
     2
 10
192.2889030560852
 20
35.71399852139186
 40
2.57756748834625
 50
317.818499299578
 51
398.0564711573085
 73
     0
 72
     1
 10
194.3184888991326
 20
34.12508837205022
 11
195.3039377921155
 21
33.26639143216073
 72
     1
 10
195.3039377921155
 20
33.26639143216073
 11
196.5456191069092
 21
34.47082437456795
 72
     2
 10
195.6522267812471
 20
35.69877110638888
 40
1.518552937418266
 50
306.0377529468135
 51
403.4396461533867
 73
     1
 72
     1
 10
196.7548466459194
 20
36.74291307842702
 11
192.6280907875761
 21
40.33208934706097
 72
     1
 10
192.6280907875761
 20
40.33208934706097
 11
193.2523420895034
 21
40.94114777789829
 72
     1
 10
193.2523420895034
 20
40.94114777789829
 11
192.3218355793193
 21
41.77133999774283
 72
     1
 10
192.3218355793193
 20
41.77133999774283
 11
189.0862501309095
 21
38.64441975112872
 72
     1
 10
189.0862501309095
 20
38.64441975112872
 11
190.108658008258
 21
37.75262922400792
 97
        0
 75
     0
 76
     1
 98
        1
 10
0.0
 20
0.0
  0
LINE
  5
67
330
1F
100
AcDbEntity
  8
0
  6
Continuous
 62
     7
370
    18
100
AcDbLine
 10
167.8593775185
 20
17.7745192513
 30
0.0
 11
168.8593775185
 21
17.7745192513
 31
0.0
  0
LINE
  5
68
330
1F
100
AcDbEntity
  8
0
  6
Continuous
 62
     7
370
    18
100
AcDbLine
 10
164.8593775185
 20
17.7745192513
 30
0.0
 11
167.3593775185
 21
17.7745192513
 31
0.0
  0
LINE
  5
69
330
1F
100
AcDbEntity
  8
0
  6
Continuous
 62
     7
370
    18
100
AcDbLine
 10
181.3593775185
 20
15.2745192513
 30
0.0
 11
181.3593775185
 21
20.2745192513
 31
0.0
  0
LINE
  5
6A
330
1F
100
AcDbEntity
  8
0
  6
Continuous
 62
     7
370
    18
100
AcDbLine
 10
174.3593775185
 20
16.2745192513
 30
0.0
 11
181.3593775185
 21
15.2745192513
 31
0.0
  0
LINE
  5
6B
330
1F
100
AcDbEntity
  8
0
  6
Continuous
 62
     7
370
    18
100
AcDbLine
 10
168.3593775185
 20
16.7745192513
 30
0.0
 11
168.3593775185
 21
14.2745192513
 31
0.0
  0
LINE
  5
6C
330
1F
100
AcDbEntity
  8
0
  6
Continuous
 62
     7
370
    18
100
AcDbLine
 10
181.3593775185
 20
20.2745192513
 30
0.0
 11
174.3593775185
 21
19.2745192513
 31
0.0
  0
LINE
  5
6D
330
1F
100
AcDbEntity
  8
0
  6
Continuous
 62
     7
370
    18
100
AcDbLine
 10
173.3593775185
 20
17.7745192513
 30
0.0
 11
182.3593775185
 21
17.7745192513
 31
0.0
  0
LINE
  5
6E
330
1F
100
AcDbEntity
  8
0
  6
Continuous
 62
     7
370
    18
100
AcDbLine
 10
168.3593775185
 20
18.2745192513
 30
0.0
 11
168.3593775185
 21
17.2745192513
 31
0.0
  0
LINE
  5
6F
330
1F
100
AcDbEntity
  8
0
  6
Continuous
 62
     7
370
    18
100
AcDbLine
 10
169.3593775185
 20
17.7745192513
 30
0.0
 11
171.8593775185
 21
17.7745192513
 31
0.0
  0
LINE
  5
70
330
1F
100
AcDbEntity
  8
0
  6
Continuous
 62
     7
370
    18
100
AcDbLine
 10
168.3593775185
 20
21.2745192513
 30
0.0
 11
168.3593775185
 21
18.7745192513
 31
0.0
  0
LINE
  5
71
330
1F
100
AcDbEntity
  8
0
  6
Continuous
 62
     7
370
    18
100
AcDbLine
 10
174.3593775185
 20
19.2745192513
 30
0.0
 11
174.3593775185
 21
16.2745192513
 31
0.0
  0
LINE
  5
72
330
1F
100
AcDbEntity
  8
0
370
    18
100
AcDbLine
 10
194.7164359488
 20
32.7104935048
 30
0.0
 11
191.5062959757
 21
29.5934537921
 31
0.0
  0
LINE
  5
73
330
1F
100
AcDbEntity
  8
0
370
    18
100
AcDbLine
 10
191.5062959757
 20
29.5934537921
 30
0.0
 11
190.5654955202
 21
30.4034508622
 31
0.0
  0
LINE
  5
74
330
1F
100
AcDbEntity
  8
0
370
    18
100
AcDbLine
 10
190.5654955202
 20
30.4034508622
 30
0.0
 11
191.1965474406
 21
31.0193512526
 31
0.0
  0
LINE
  5
75
330
1F
100
AcDbEntity
  8
0
370
    18
100
AcDbLine
 10
187.1873451304
 20
34.5039550929
 30
0.0
 11
191.1965474406
 21
31.0193512526
 31
0.0
  0
LINE
  5
76
330
1F
100
AcDbEntity
  8
0
370
    18
100
AcDbLine
 10
188.5182199673
 20
38.0816591936
 30
0.0
 11
187.2115917124
 21
36.8200721171
 31
0.0
  0
LINE
  5
77
330
1F
100
AcDbEntity
  8
0
370
    18
100
AcDbLine
 10
188.5182199673
 20
38.0816591936
 30
0.0
 11
189.5334138147
 21
37.1861272928
 31
0.0
  0
LINE
  5
78
330
1F
100
AcDbEntity
  8
0
370
    18
100
AcDbLine
 10
193.7516162876
 20
33.5577802885
 30
0.0
 11
194.7164359488
 21
32.7104935048
 31
0.0
  0
LINE
  5
79
330
1F
100
AcDbEntity
  8
0
 62
     1
370
    18
100
AcDbLine
 10
190.1086580083
 20
37.752629224
 30
0.0
 11
189.0862501309
 21
38.6444197511
 31
0.0
  0
LINE
  5
7A
330
1F
100
AcDbEntity
  8
0
 62
     1
370
    18
100
AcDbLine
 10
189.0862501309
 20
38.6444197511
 30
0.0
 11
192.3218355793
 21
41.7713399977
 31
0.0
  0
LINE
  5
7B
330
1F
100
AcDbEntity
  8
0
 62
     1
370
    18
100
AcDbLine
 10
192.3218355793
 20
41.7713399977
 30
0.0
 11
193.2523420895
 21
40.9411477779
 31
0.0
  0
LINE
  5
7C
330
1F
100
AcDbEntity
  8
0
 62
     1
370
    18
100
AcDbLine
 10
193.2523420895
 20
40.9411477779
 30
0.0
 11
192.6280907876
 21
40.3320893471
 31
0.0
  0
LINE
  5
7D
330
1F
100
AcDbEntity
  8
0
 62
     1
370
    18
100
AcDbLine
 10
192.6280907876
 20
40.3320893471
 30
0.0
 11
196.7548466459
 21
36.7429130784
 31
0.0
  0
LINE
  5
7E
330
1F
100
AcDbEntity
  8
0
 62
     1
370
    18
100
AcDbLine
 10
194.3184888991
 20
34.1250883721
 30
0.0
 11
195.3039377921
 21
33.2663914322
 31
0.0
  0
LINE
  5
7F
330
1F
100
AcDbEntity
  8
0
 62
     1
370
    18
100
AcDbLine
 10
195.3039377921
 20
33.2663914322
 30
0.0
 11
196.5456191069
 21
34.4708243746
 31
0.0
  0
LINE
  5
80
330
1F
100
AcDbEntity
  8
0
  6
Continuous
 62
     7
370
    18
100
AcDbLine
 10
185.6907965209
 20
13.1152464079
 30
0.0
 11
285.6907965209
 21
13.1152464079
 31
0.0
  0
LINE
  5
81
330
1F
100
AcDbEntity
  8
0
  6
Continuous
 62
     7
370
    18
100
AcDbLine
 10
185.6907965209
 20
18.1152464079
 30
0.0
 11
235.6907965209
 21
18.1152464079
 31
0.0
  0
LINE
  5
82
330
1F
100
AcDbEntity
  8
0
  6
Continuous
 62
     7
370
    18
100
AcDbLine
 10
185.6907965209
 20
23.1152464079
 30
0.0
 11
235.6907965209
 21
23.1152464079
 31
0.0
  0
LINE
  5
83
330
1F
100
AcDbEntity
  8
0
  6
Continuous
 62
     7
370
    18
100
AcDbLine
 10
185.6907965209
 20
28.1152464079
 30
0.0
 11
285.6907965209
 21
28.1152464079
 31
0.0
  0
LINE
  5
84
330
1F
100
AcDbEntity
  8
0
  6
Continuous
 62
     7
370
    18
100
AcDbLine
 10
235.6907965209
 20
33.1152464079
 30
0.0
 11
285.6907965209
 21
33.1152464079
 31
0.0
  0
LINE
  5
85
330
1F
100
AcDbEntity
  8
0
  6
Continuous
 62
     7
370
    25
100
AcDbLine
 10
235.6907965209
 20
18.1152464079
 30
0.0
 11
285.6907965209
 21
18.1152464079
 31
0.0
  0
LINE
  5
86
330
1F
100
AcDbEntity
  8
0
  6
Continuous
 62
     7
370
    18
100
AcDbLine
 10
185.6907965209
 20
43.1152464079
 30
0.0
 11
285.6907965209
 21
43.1152464079
 31
0.0
  0
LINE
  5
87
330
1F
100
AcDbEntity
  8
0
  6
Continuous
 62
     7
370
    18
100
AcDbLine
 10
251.237217675
 20
8.1152464079
 30
0.0
 11
251.237217675
 21
18.1152464079
 31
0.0
  0
LINE
  5
88
330
1F
100
AcDbEntity
  8
0
  6
Continuous
 62
     7
370
    18
100
AcDbLine
 10
235.6907965209
 20
8.1152464079
 30
0.0
 11
235.6907965209
 21
43.1152464079
 31
0.0
  0
LINE
  5
89
330
1F
100
AcDbEntity
  8
0
  6
Continuous
 62
     7
370
    18
100
AcDbLine
 10
251.237217675
 20
28.1152464079
 30
0.0
 11
251.237217675
 21
33.1152464079
 31
0.0
  0
LINE
  5
8A
330
1F
100
AcDbEntity
  8
0
  6
Continuous
 62
     7
370
    18
100
AcDbLine
 10
214.4164086353
 20
8.1152464079
 30
0.0
 11
214.4164086353
 21
28.1152464079
 31
0.0
  0
LINE
  5
8B
330
1F
100
AcDbEntity
  8
0
  6
Continuous
 62
     7
370
    18
100
AcDbLine
 10
199.7785887506
 20
8.1152464079
 30
0.0
 11
199.7785887506
 21
28.1152464079
 31
0.0
  0
LINE
  5
8C
330
1F
100
AcDbEntity
  8
0
  6
Continuous
 62
     7
370
    18
100
AcDbLine
 10
185.6907965209
 20
8.1152464079
 30
0.0
 11
185.6907965209
 21
43.1152464079
 31
0.0
  0
LINE
  5
8D
330
1F
100
AcDbEntity
  8
0
  6
Continuous
 62
     7
370
    25
100
AcDbLine
 10
8.6907965209
 20
104.7436369915
 30
0.0
 11
14.6907965209
 21
104.7436369915
 31
0.0
  0
LINE
  5
8E
330
1F
100
AcDbEntity
  8
0
  6
Continuous
 62
     7
370
    25
100
AcDbLine
 10
285.6907965209
 20
104.7436369915
 30
0.0
 11
279.6907965209
 21
104.7436369915
 31
0.0
  0
LINE
  5
8F
330
1F
100
AcDbEntity
  8
0
  6
Continuous
 62
     7
370
    25
100
AcDbLine
 10
147.1907965209
 20
8.1152464079
 30
0.0
 11
147.1907965209
 21
14.1152464079
 31
0.0
  0
LINE
  5
90
330
1F
100
AcDbEntity
  8
0
  6
Continuous
 62
     7
370
    25
100
AcDbLine
 10
147.1907965209
 20
201.3720275751
 30
0.0
 11
147.1907965209
 21
195.3720275751
 31
0.0
  0
LINE
  5
91
330
1F
100
AcDbEntity
  8
0
  6
Continuous
 62
     7
370
    25
100
AcDbLine
 10
43.3207965209
 20
201.3720275751
 30
0.0
 11
43.3207965209
 21
202.8720275751
 31
0.0
  0
LINE
  5
92
330
1F
100
AcDbEntity
  8
0
  6
Continuous
 62
     7
370
    25
100
AcDbLine
 10
77.9507965209
 20
201.3720275751
 30
0.0
 11
77.9507965209
 21
202.8720275751
 31
0.0
  0
LINE
  5
93
330
1F
100
AcDbEntity
  8
0
  6
Continuous
 62
     7
370
    25
100
AcDbLine
 10
112.5807965209
 20
201.3720275751
 30
0.0
 11
112.5807965209
 21
202.8720275751
 31
0.0
  0
LINE
  5
94
330
1F
100
AcDbEntity
  8
0
  6
Continuous
 62
     7
370
    25
100
AcDbLine
 10
147.2107965209
 20
201.3720275751
 30
0.0
 11
147.2107965209
 21
202.8720275751
 31
0.0
  0
LINE
  5
95
330
1F
100
AcDbEntity
  8
0
  6
Continuous
 62
     7
370
    25
100
AcDbLine
 10
181.8407965209
 20
201.3720275751
 30
0.0
 11
181.8407965209
 21
202.8720275751
 31
0.0
  0
LINE
  5
96
330
1F
100
AcDbEntity
  8
0
  6
Continuous
 62
     7
370
    25
100
AcDbLine
 10
216.4707965209
 20
201.3720275751
 30
0.0
 11
216.4707965209
 21
202.8720275751
 31
0.0
  0
LINE
  5
97
330
1F
100
AcDbEntity
  8
0
  6
Continuous
 62
     7
370
    25
100
AcDbLine
 10
251.1007965209
 20
201.3720275751
 30
0.0
 11
251.1007965209
 21
202.8720275751
 31
0.0
  0
LINE
  5
98
330
1F
100
AcDbEntity
  8
0
  6
Continuous
 62
     7
370
    25
100
AcDbLine
 10
43.3157965209
 20
8.1152464079
 30
0.0
 11
43.3157965209
 21
6.6152464079
 31
0.0
  0
LINE
  5
99
330
1F
100
AcDbEntity
  8
0
  6
Continuous
 62
     7
370
    25
100
AcDbLine
 10
77.9407965209
 20
8.1152464079
 30
0.0
 11
77.9407965209
 21
6.6152464079
 31
0.0
  0
LINE
  5
9A
330
1F
100
AcDbEntity
  8
0
  6
Continuous
 62
     7
370
    25
100
AcDbLine
 10
112.5657965209
 20
8.1152464079
 30
0.0
 11
112.5657965209
 21
6.6152464079
 31
0.0
  0
LINE
  5
9B
330
1F
100
AcDbEntity
  8
0
  6
Continuous
 62
     7
370
    25
100
AcDbLine
 10
147.1907965209
 20
8.1152464079
 30
0.0
 11
147.1907965209
 21
6.6152464079
 31
0.0
  0
LINE
  5
9C
330
1F
100
AcDbEntity
  8
0
  6
Continuous
 62
     7
370
    25
100
AcDbLine
 10
181.8157965209
 20
8.1152464079
 30
0.0
 11
181.8157965209
 21
6.6152464079
 31
0.0
  0
LINE
  5
9D
330
1F
100
AcDbEntity
  8
0
  6
Continuous
 62
     7
370
    25
100
AcDbLine
 10
216.4407965209
 20
8.1152464079
 30
0.0
 11
216.4407965209
 21
6.6152464079
 31
0.0
  0
LINE
  5
9E
330
1F
100
AcDbEntity
  8
0
  6
Continuous
 62
     7
370
    18
100
AcDbLine
 10
285.6907965209
 20
201.3720275751
 30
0.0
 11
8.6907965209
 21
201.3720275751
 31
0.0
  0
LINE
  5
9F
330
1F
100
AcDbEntity
  8
0
  6
Continuous
 62
     7
370
    18
100
AcDbLine
 10
285.6907965209
 20
8.1152464079
 30
0.0
 11
285.6907965209
 21
201.3720275751
 31
0.0
  0
LINE
  5
A0
330
1F
100
AcDbEntity
  8
0
  6
Continuous
 62
     7
370
    18
100
AcDbLine
 10
8.6907965209
 20
201.3720275751
 30
0.0
 11
8.6907965209
 21
8.1152464079
 31
0.0
  0
LINE
  5
A1
330
1F
100
AcDbEntity
  8
0
  6
Continuous
 62
     7
370
    18
100
AcDbLine
 10
8.6907965209
 20
8.1152464079
 30
0.0
 11
285.6907965209
 21
8.1152464079
 31
0.0
  0
LINE
  5
A2
330
1F
100
AcDbEntity
  8
0
  6
Continuous
 62
     7
370
    25
100
AcDbLine
 10
251.0657965209
 20
8.1152464079
 30
0.0
 11
251.0657965209
 21
6.6152464079
 31
0.0
  0
LINE
  5
A3
330
1F
100
AcDbEntity
  8
0
  6
Continuous
 62
     7
370
    25
100
AcDbLine
 10
8.6907965209
 20
40.3252464079
 30
0.0
 11
7.1907965209
 21
40.3252464079
 31
0.0
  0
LINE
  5
A4
330
1F
100
AcDbEntity
  8
0
  6
Continuous
 62
     7
370
    25
100
AcDbLine
 10
8.6907965209
 20
72.5352464079
 30
0.0
 11
7.1907965209
 21
72.5352464079
 31
0.0
  0
LINE
  5
A5
330
1F
100
AcDbEntity
  8
0
  6
Continuous
 62
     7
370
    25
100
AcDbLine
 10
8.6907965209
 20
104.7452464079
 30
0.0
 11
7.1907965209
 21
104.7452464079
 31
0.0
  0
LINE
  5
A6
330
1F
100
AcDbEntity
  8
0
  6
Continuous
 62
     7
370
    25
100
AcDbLine
 10
8.6907965209
 20
136.9552464079
 30
0.0
 11
7.1907965209
 21
136.9552464079
 31
0.0
  0
LINE
  5
A7
330
1F
100
AcDbEntity
  8
0
  6
Continuous
 62
     7
370
    25
100
AcDbLine
 10
8.6907965209
 20
169.1652464079
 30
0.0
 11
7.1907965209
 21
169.1652464079
 31
0.0
  0
LINE
  5
A8
330
1F
100
AcDbEntity
  8
0
  6
Continuous
 62
     7
370
    25
100
AcDbLine
 10
285.6907965209
 20
40.3252464079
 30
0.0
 11
287.1907965209
 21
40.3252464079
 31
0.0
  0
LINE
  5
A9
330
1F
100
AcDbEntity
  8
0
  6
Continuous
 62
     7
370
    25
100
AcDbLine
 10
285.6907965209
 20
72.5352464079
 30
0.0
 11
287.1907965209
 21
72.5352464079
 31
0.0
  0
LINE
  5
AA
330
1F
100
AcDbEntity
  8
0
  6
Continuous
 62
     7
370
    25
100
AcDbLine
 10
285.6907965209
 20
104.7452464079
 30
0.0
 11
287.1907965209
 21
104.7452464079
 31
0.0
  0
LINE
  5
AB
330
1F
100
AcDbEntity
  8
0
  6
Continuous
 62
     7
370
    25
100
AcDbLine
 10
285.6907965209
 20
136.9552464079
 30
0.0
 11
287.1907965209
 21
136.9552464079
 31
0.0
  0
LINE
  5
AC
330
1F
100
AcDbEntity
  8
0
  6
Continuous
 62
     7
370
    25
100
AcDbLine
 10
285.6907965209
 20
169.1652464079
 30
0.0
 11
287.1907965209
 21
169.1652464079
 31
0.0
  0
CIRCLE
  5
AD
330
1F
100
AcDbEntity
  8
0
  6
Continuous
 62
     7
370
    18
100
AcDbCircle
 10
168.3593775185
 20
17.7745192513
 30
0.0
 40
1.5
  0
CIRCLE
  5
AE
330
1F
100
AcDbEntity
  8
0
  6
Continuous
 62
     7
370
    18
100
AcDbCircle
 10
168.3593775185
 20
17.7745192513
 30
0.0
 40
2.5
  0
ARC
  5
AF
330
1F
100
AcDbEntity
  8
0
370
    18
100
AcDbCircle
 10
188.20228656
 20
35.6515154687
 30
0.0
 40
1.531992467805816
100
AcDbArc
 50
130.2910647925
 51
228.509361907
  0
ARC
  5
B0
330
1F
100
AcDbEntity
  8
0
370
    18
100
AcDbCircle
 10
191.5066841181
 20
35.5387346054
 30
0.0
 40
2.570544369711281
100
AcDbArc
 50
140.1430462781
 51
253.0452525074
  0
ARC
  5
B1
330
1F
100
AcDbEntity
  8
0
370
    18
100
AcDbCircle
 10
191.8380813264
 20
35.9273763546
 30
0.0
 40
3.045751395731247
100
AcDbArc
 50
249.2112209143
 51
308.9221353953
  0
ARC
  5
B2
330
1F
100
AcDbEntity
  8
0
 62
     1
370
    18
100
AcDbCircle
 10
195.6522267812
 20
35.6987711064
 30
0.0
 40
1.518552937418275
100
AcDbArc
 50
306.0377529468
 51
43.4396461534
  0
ARC
  5
B3
330
1F
100
AcDbEntity
  8
0
 62
     1
370
    18
100
AcDbCircle
 10
191.9712467654
 20
35.1731767159
 30
0.0
 40
3.18163670452787
100
AcDbArc
 50
45.5592925416
 51
125.8325555121
  0
ARC
  5
B4
330
1F
100
AcDbEntity
  8
0
 62
     1
370
    18
100
AcDbCircle
 10
192.2889030561
 20
35.7139985214
 30
0.0
 40
2.57756748834625
100
AcDbArc
 50
321.9435288427
 51
42.1815007004
  0
MTEXT
  5
B6
330
1F
100
AcDbEntity
  8
0
  6
Continuous
 62
     7
370
     0
100
AcDbMText
 10
165.5426850804
 20
13.2208440369
 30
0.0
 40
2.6458333333
 41
0.0
 71
     1
 72
     1
  1
UNIT:m/m
  7
SLDTEXTSTYLE0
 73
     1
 44
1.0
  0
MTEXT
  5
B7
330
1F
100
AcDbEntity
  8
0
  6
Continuous
 62
     7
370
     0
100
AcDbMText
 10
12.2315076053
 20
197.3010888199
 30
0.0
 40
2.6458333333
 41
0.0
 71
     1
 72
     1
  1
PROPRIETARY AND CONFIDENTIAL
  7
SLDTEXTSTYLE0
 73
     1
 44
1.0
  0
MTEXT
  5
B8
330
1F
100
AcDbEntity
  8
0
  6
Continuous
 62
     7
370
     0
100
AcDbMText
 10
12.2315076053
 20
193.8084469451
 30
0.0
 40
1.8520833333
 41
0.0
 71
     1
 72
     1
  1
THE INFORMATION CONTAINED IN THIS DRAWING IS THE SOLE PROPERTY OF UNICE E-O SERVICES INC. ANY REPRODUCTION IN PART OR AS A WHOLE WITHOUT THE WRITTEN PERMISSION OF UNICE E-O SERVICES INC IS
  7
SLDTEXTSTYLE0
 73
     1
 44
1.0
  0
MTEXT
  5
B9
330
1F
100
AcDbEntity
  8
0
  6
Continuous
 62
     7
370
     0
100
AcDbMText
 10
12.2315076053
 20
191.3390025305
 30
0.0
 40
1.8520833333
 41
0.0
 71
     1
 72
     1
  1
PROHIBITED.
  7
SLDTEXTSTYLE0
 73
     1
 44
1.0
  0
MTEXT
  5
BA
330
1F
100
AcDbEntity
  8
0
  6
Continuous
 62
     7
370
     0
100
AcDbMText
 10
198.7251893935
 20
40.4406774139
 30
0.0
 40
2.38125
 41
0.0
 71
     1
 72
     1
  1
Unice E-O Services Inc.
  7
SLDTEXTSTYLE0
 73
     1
 44
1.0
  0
MTEXT
  5
BB
330
1F
100
AcDbEntity
  8
0
  6
Continuous
 62
     7
370
     0
100
AcDbMText
 10
217.5590538149
 20
21.5867148511
 30
0.0
 40
1.8520833333
 41
0.0
 71
     1
 72
     1
  1
2023/06/17
  7
SLDTEXTSTYLE0
 73
     1
 44
1.0
  0
MTEXT
  5
BC
330
1F
100
AcDbEntity
  8
0
  6
Continuous
 62
     7
370
     0
100
AcDbMText
 10
252.6088982507
 20
16.87117774
 30
0.0
 40
2.5
 41
0.0
 71
     1
 72
     1
  1
1:1
  7
SLDTEXTSTYLE0
 73
     1
 44
1.0
  0
MTEXT
  5
BD
330
1F
100
AcDbEntity
  8
0
  6
Continuous
 62
     7
370
     0
100
AcDbMText
 10
252.3075599985
 20
32.1519195438
 30
0.0
 40
2.5
 41
0.0
 71
     1
 72
     1
  1
04PMS-1(M)-H
  7
SLDTEXTSTYLE0
 73
     1
 44
1.0
  0
MTEXT
  5
BE
330
1F
100
AcDbEntity
  8
0
  6
Continuous
 62
     7
370
     0
100
AcDbMText
 10
252.3075599985
 20
38.1082117879
 30
0.0
 40
2.5
 41
0.0
 71
     1
 72
     1
  1
04PMS-1(M)-H
  7
SLDTEXTSTYLE0
 73
     1
 44
1.0
  0
MTEXT
  5
BF
330
1F
100
AcDbEntity
  8
0
  6
Continuous
 62
     7
370
     0
100
AcDbMText
 10
236.3921866786
 20
16.5064795728
 30
0.0
 40
2.1166666667
 41
0.0
 71
     1
 72
     1
  1
SCALE:
  7
SLDTEXTSTYLE0
 73
     1
 44
1.0
  0
MTEXT
  5
C0
330
1F
100
AcDbEntity
  8
0
  6
Continuous
 62
     7
370
     0
100
AcDbMText
 10
186.3336086789
 20
21.5867148511
 30
0.0
 40
1.8520833333
 41
0.0
 71
     1
 72
     1
  1
DRAWN
  7
SLDTEXTSTYLE0
 73
     1
 44
1.0
  0
MTEXT
  5
C1
330
1F
100
AcDbEntity
  8
0
  6
Continuous
 62
     7
370
     0
100
AcDbMText
 10
203.2228367937
 20
26.683208308
 30
0.0
 40
1.8520833333
 41
0.0
 71
     1
 72
     1
  1
NAME
  7
SLDTEXTSTYLE0
 73
     1
 44
1.0
  0
MTEXT
  5
C2
330
1F
100
AcDbEntity
  8
0
  6
Continuous
 62
     7
370
     0
100
AcDbMText
 10
220.8710155758
 20
26.683208308
 30
0.0
 40
1.8520833333
 41
0.0
 71
     1
 72
     1
  1
DATE
  7
SLDTEXTSTYLE0
 73
     1
 44
1.0
  0
MTEXT
  5
C3
330
1F
100
AcDbEntity
  8
0
  6
Continuous
 62
     7
370
     0
100
AcDbMText
 10
236.2756316645
 20
31.7872213766
 30
0.0
 40
2.1166666667
 41
0.0
 71
     1
 72
     1
  1
DWG. NO.
  7
SLDTEXTSTYLE0
 73
     1
 44
1.0
  0
MTEXT
  5
C4
330
1F
100
AcDbEntity
  8
0
  6
Continuous
 62
     7
370
     0
100
AcDbMText
 10
236.3629907088
 20
41.8840658243
 30
0.0
 40
2.1166666667
 41
0.0
 71
     1
 72
     1
  1
TITLE:
  7
SLDTEXTSTYLE0
 73
     1
 44
1.0
  0
MTEXT
  5
C5
330
1F
100
AcDbEntity
  8
0
  6
Continuous
 62
     7
370
     0
100
AcDbMText
 10
203.0314209802
 20
16.2403789724
 30
0.0
 40
1.8520833333
 41
0.0
 71
     1
 72
     1
  1
Johnny
  7
SLDTEXTSTYLE0
 73
     1
 44
1.0
  0
MTEXT
  5
C6
330
1F
100
AcDbEntity
  8
0
  6
Continuous
 62
     7
370
     0
100
AcDbMText
 10
217.5590538149
 20
16.2403789724
 30
0.0
 40
1.8520833333
 41
0.0
 71
     1
 72
     1
  1
2023/06/17
  7
SLDTEXTSTYLE0
 73
     1
 44
1.0
  0
MTEXT
  5
C7
330
1F
100
AcDbEntity
  8
0
  6
Continuous
 62
     7
370
     0
100
AcDbMText
 10
186.3336086789
 20
16.2403789724
 30
0.0
 40
1.8520833333
 41
0.0
 71
     1
 72
     1
  1
ENG APPR.
  7
SLDTEXTSTYLE0
 73
     1
 44
1.0
  0
MTEXT
  5
C8
330
1F
100
AcDbEntity
  8
0
  6
Continuous
 62
     7
370
     0
100
AcDbMText
 10
236.3921866786
 20
11.6853389288
 30
0.0
 40
2.1166666667
 41
0.0
 71
     1
 72
     1
  1
REV
  7
SLDTEXTSTYLE0
 73
     1
 44
1.0
  0
MTEXT
  5
C9
330
1F
100
AcDbEntity
  8
0
  6
Continuous
 62
     7
370
     0
100
AcDbMText
 10
236.3629907088
 20
26.9493089085
 30
0.0
 40
2.1166666667
 41
0.0
 71
     1
 72
     1
  1
MATERIAL:
  7
SLDTEXTSTYLE0
 73
     1
 44
1.0
  0
MTEXT
  5
CA
330
1F
100
AcDbEntity
  8
0
  6
Continuous
 62
     7
370
     0
100
AcDbMText
 10
252.6088982507
 20
22.2175136187
 30
0.0
 40
2.5
 41
0.0
 71
     1
 72
     1
  1
N/A
  7
SLDTEXTSTYLE0
 73
     1
 44
1.0
  0
MTEXT
  5
CB
330
1F
100
AcDbEntity
  8
0
  6
Continuous
 62
     7
370
     0
100
AcDbMText
 10
26.6029931533
 20
204.453351657
 30
0.0
 40
2.1166666667
 41
0.0
 71
     1
 72
     1
  1
1
  7
SLDTEXTSTYLE0
 73
     1
 44
1.0
  0
MTEXT
  5
CC
330
1F
100
AcDbEntity
  8
0
  6
Continuous
 62
     7
370
     0
100
AcDbMText
 10
60.7170995724
 20
204.453351657
 30
0.0
 40
2.1166666667
 41
0.0
 71
     1
 72
     1
  1
2
  7
SLDTEXTSTYLE0
 73
     1
 44
1.0
  0
MTEXT
  5
CD
330
1F
100
AcDbEntity
  8
0
  6
Continuous
 62
     7
370
     0
100
AcDbMText
 10
94.9009943906
 20
204.453351657
 30
0.0
 40
2.1166666667
 41
0.0
 71
     1
 72
     1
  1
3
  7
SLDTEXTSTYLE0
 73
     1
 44
1.0
  0
MTEXT
  5
CE
330
1F
100
AcDbEntity
  8
0
  6
Continuous
 62
     7
370
     0
100
AcDbMText
 10
129.2533362851
 20
204.2992584364
 30
0.0
 40
2.1166666667
 41
0.0
 71
     1
 72
     1
  1
4
  7
SLDTEXTSTYLE0
 73
     1
 44
1.0
  0
MTEXT
  5
CF
330
1F
100
AcDbEntity
  8
0
  6
Continuous
 62
     7
370
     0
100
AcDbMText
 10
163.702323464
 20
204.453351657
 30
0.0
 40
2.1166666667
 41
0.0
 71
     1
 72
     1
  1
5
  7
SLDTEXTSTYLE0
 73
     1
 44
1.0
  0
MTEXT
  5
D0
330
1F
100
AcDbEntity
  8
0
  6
Continuous
 62
     7
370
     0
100
AcDbMText
 10
198.6382170415
 20
204.453351657
 30
0.0
 40
2.1166666667
 41
0.0
 71
     1
 72
     1
  1
6
  7
SLDTEXTSTYLE0
 73
     1
 44
1.0
  0
MTEXT
  5
D1
330
1F
100
AcDbEntity
  8
0
  6
Continuous
 62
     7
370
     0
100
AcDbMText
 10
234.3630657407
 20
204.453351657
 30
0.0
 40
2.1166666667
 41
0.0
 71
     1
 72
     1
  1
7
  7
SLDTEXTSTYLE0
 73
     1
 44
1.0
  0
MTEXT
  5
D2
330
1F
100
AcDbEntity
  8
0
  6
Continuous
 62
     7
370
     0
100
AcDbMText
 10
266.2787820494
 20
204.453351657
 30
0.0
 40
2.1166666667
 41
0.0
 71
     1
 72
     1
  1
8
  7
SLDTEXTSTYLE0
 73
     1
 44
1.0
  0
MTEXT
  5
D3
330
1F
100
AcDbEntity
  8
0
  6
Continuous
 62
     7
370
     0
100
AcDbMText
 10
5.3568236555
 20
185.8113022879
 30
0.0
 40
2.1166666667
 41
0.0
 71
     1
 72
     1
  1
A
  7
SLDTEXTSTYLE0
 73
     1
 44
1.0
  0
MTEXT
  5
D4
330
1F
100
AcDbEntity
  8
0
  6
Continuous
 62
     7
370
     0
100
AcDbMText
 10
5.5910431831
 20
154.2993048238
 30
0.0
 40
2.1166666667
 41
0.0
 71
     1
 72
     1
  1
B
  7
SLDTEXTSTYLE0
 73
     1
 44
1.0
  0
MTEXT
  5
D5
330
1F
100
AcDbEntity
  8
0
  6
Continuous
 62
     7
370
     0
100
AcDbMText
 10
5.5910431831
 20
121.274351423
 30
0.0
 40
2.1166666667
 41
0.0
 71
     1
 72
     1
  1
C
  7
SLDTEXTSTYLE0
 73
     1
 44
1.0
  0
MTEXT
  5
D6
330
1F
100
AcDbEntity
  8
0
  6
Continuous
 62
     7
370
     0
100
AcDbMText
 10
5.5910431831
 20
88.7453220221
 30
0.0
 40
2.1166666667
 41
0.0
 71
     1
 72
     1
  1
D
  7
SLDTEXTSTYLE0
 73
     1
 44
1.0
  0
MTEXT
  5
D7
330
1F
100
AcDbEntity
  8
0
  6
Continuous
 62
     7
370
     0
100
AcDbMText
 10
5.5910431831
 20
57.5558849197
 30
0.0
 40
2.1166666667
 41
0.0
 71
     1
 72
     1
  1
E
  7
SLDTEXTSTYLE0
 73
     1
 44
1.0
  0
MTEXT
  5
D8
330
1F
100
AcDbEntity
  8
0
  6
Continuous
 62
     7
370
     0
100
AcDbMText
 10
5.5910431831
 20
25.5694212252
 30
0.0
 40
2.1166666667
 41
0.0
 71
     1
 72
     1
  1
F
  7
SLDTEXTSTYLE0
 73
     1
 44
1.0
  0
MTEXT
  5
D9
330
1F
100
AcDbEntity
  8
0
  6
Continuous
 62
     7
370
     0
100
AcDbMText
 10
266.1858616964
 20
6.6236223963
 30
0.0
 40
2.1166666667
 41
0.0
 71
     1
 72
     1
  1
8
  7
SLDTEXTSTYLE0
 73
     1
 44
1.0
  0
MTEXT
  5
DA
330
1F
100
AcDbEntity
  8
0
  6
Continuous
 62
     7
370
     0
100
AcDbMText
 10
234.2701453876
 20
6.6236223963
 30
0.0
 40
2.1166666667
 41
0.0
 71
     1
 72
     1
  1
7
  7
SLDTEXTSTYLE0
 73
     1
 44
1.0
  0
MTEXT
  5
DB
330
1F
100
AcDbEntity
  8
0
  6
Continuous
 62
     7
370
     0
100
AcDbMText
 10
198.5452966885
 20
6.6236223963
 30
0.0
 40
2.1166666667
 41
0.0
 71
     1
 72
     1
  1
6
  7
SLDTEXTSTYLE0
 73
     1
 44
1.0
  0
MTEXT
  5
DC
330
1F
100
AcDbEntity
  8
0
  6
Continuous
 62
     7
370
     0
100
AcDbMText
 10
163.6094031109
 20
6.6236223963
 30
0.0
 40
2.1166666667
 41
0.0
 71
     1
 72
     1
  1
5
  7
SLDTEXTSTYLE0
 73
     1
 44
1.0
  0
MTEXT
  5
DD
330
1F
100
AcDbEntity
  8
0
  6
Continuous
 62
     7
370
     0
100
AcDbMText
 10
129.1604159321
 20
6.4695291758
 30
0.0
 40
2.1166666667
 41
0.0
 71
     1
 72
     1
  1
4
  7
SLDTEXTSTYLE0
 73
     1
 44
1.0
  0
MTEXT
  5
DE
330
1F
100
AcDbEntity
  8
0
  6
Continuous
 62
     7
370
     0
100
AcDbMText
 10
94.8080740376
 20
6.6236223963
 30
0.0
 40
2.1166666667
 41
0.0
 71
     1
 72
     1
  1
3
  7
SLDTEXTSTYLE0
 73
     1
 44
1.0
  0
MTEXT
  5
DF
330
1F
100
AcDbEntity
  8
0
  6
Continuous
 62
     7
370
     0
100
AcDbMText
 10
60.6241792194
 20
6.6236223963
 30
0.0
 40
2.1166666667
 41
0.0
 71
     1
 72
     1
  1
2
  7
SLDTEXTSTYLE0
 73
     1
 44
1.0
  0
MTEXT
  5
E0
330
1F
100
AcDbEntity
  8
0
  6
Continuous
 62
     7
370
     0
100
AcDbMText
 10
26.5100728003
 20
6.6236223963
 30
0.0
 40
2.1166666667
 41
0.0
 71
     1
 72
     1
  1
1
  7
SLDTEXTSTYLE0
 73
     1
 44
1.0
  0
MTEXT
  5
E1
330
1F
100
AcDbEntity
  8
0
  6
Continuous
 62
     7
370
     0
100
AcDbMText
 10
287.1023846145
 20
186.6424909092
 30
0.0
 40
2.1166666667
 41
0.0
 71
     1
 72
     1
  1
A
  7
SLDTEXTSTYLE0
 73
     1
 44
1.0
  0
MTEXT
  5
E2
330
1F
100
AcDbEntity
  8
0
  6
Continuous
 62
     7
370
     0
100
AcDbMText
 10
287.3366041421
 20
155.1304934451
 30
0.0
 40
2.1166666667
 41
0.0
 71
     1
 72
     1
  1
B
  7
SLDTEXTSTYLE0
 73
     1
 44
1.0
  0
MTEXT
  5
E3
330
1F
100
AcDbEntity
  8
0
  6
Continuous
 62
     7
370
     0
100
AcDbMText
 10
287.3366041421
 20
122.1055400442
 30
0.0
 40
2.1166666667
 41
0.0
 71
     1
 72
     1
  1
C
  7
SLDTEXTSTYLE0
 73
     1
 44
1.0
  0
MTEXT
  5
E4
330
1F
100
AcDbEntity
  8
0
  6
Continuous
 62
     7
370
     0
100
AcDbMText
 10
287.3366041421
 20
89.5765106433
 30
0.0
 40
2.1166666667
 41
0.0
 71
     1
 72
     1
  1
D
  7
SLDTEXTSTYLE0
 73
     1
 44
1.0
  0
MTEXT
  5
E5
330
1F
100
AcDbEntity
  8
0
  6
Continuous
 62
     7
370
     0
100
AcDbMText
 10
287.3366041421
 20
58.3870735409
 30
0.0
 40
2.1166666667
 41
0.0
 71
     1
 72
     1
  1
E
  7
SLDTEXTSTYLE0
 73
     1
 44
1.0
  0
MTEXT
  5
E6
330
1F
100
AcDbEntity
  8
0
  6
Continuous
 62
     7
370
     0
100
AcDbMText
 10
287.3366041421
 20
26.4006098464
 30
0.0
 40
2.1166666667
 41
0.0
 71
     1
 72
     1
  1
F
  7
SLDTEXTSTYLE0
 73
     1
 44
1.0
  0
MTEXT
  5
E7
330
1F
100
AcDbEntity
  8
0
  6
Continuous
 62
     7
370
     0
100
AcDbMText
 10
203.1553128802
 20
21.5867148511
 30
0.0
 40
1.8520833333
 41
0.0
 71
     1
 72
     1
  1
John
  7
SLDTEXTSTYLE0
 73
     1
 44
1.0
  0
MTEXT
  5
E8
330
1F
100
AcDbEntity
  8
0
  6
Continuous
 62
     7
370
     0
100
AcDbMText
 10
252.8482239645
 20
12.0500370959
 30
0.0
 40
2.5
 41
0.0
 71
     1
 72
     1
  1
0
  7
SLDTEXTSTYLE0
 73
     1
 44
1.0
  0
MTEXT
  5
E9
330
1F
100
AcDbEntity
  8
SLD-0
 62
     7
100
AcDbMText
 10
198.7251893935
 20
35.5571006707
 30
0.0
 40
1.5875
 41
0.0
 71
     1
 72
     1
  1
No.5, Andong Rd., Chung Li District,
  7
SLDTEXTSTYLE0
 73
     1
 44
1.0
  0
MTEXT
  5
EA
330
1F
100
AcDbEntity
  8
SLD-0
 62
     7
100
AcDbMText
 10
198.7251893935
 20
33.4404340296
 30
0.0
 40
1.5875
 41
0.0
 71
     1
 72
     1
  1
Taoyuan City 32063, Taiwan, R.O.C.
  7
SLDTEXTSTYLE0
 73
     1
 44
1.0
  0
LINE
  5
EB
330
1F
100
AcDbEntity
  8
0
  6
Continuous
 62
     7
370
    35
100
AcDbLine
 10
43.0048841428
 20
100.3058424961
 30
0.0
 11
40.6218539068
 21
100.3058424961
 31
0.0
  0
LINE
  5
EC
330
1F
100
AcDbEntity
  8
0
  6
Continuous
 62
     7
370
    35
100
AcDbLine
 10
39.1218539068
 20
100.3058424961
 30
0.0
 11
36.6803288224
 21
100.3058424961
 31
0.0
  0
LINE
  5
ED
330
1F
100
AcDbEntity
  8
0
  6
Continuous
 62
     7
370
    35
100
AcDbLine
 10
36.6803288224
 20
98.8058424961
 30
0.0
 11
39.1218539068
 21
98.8058424961
 31
0.0
  0
LINE
  5
EE
330
1F
100
AcDbEntity
  8
0
  6
Continuous
 62
     7
370
    35
100
AcDbLine
 10
40.6218539068
 20
98.8058424961
 30
0.0
 11
43.0048841428
 21
98.8058424961
 31
0.0
  0
LINE
  5
EF
330
1F
100
AcDbEntity
  8
0
  6
Continuous
 62
     7
370
    35
100
AcDbLine
 10
64.5926064826
 20
77.2181201563
 30
0.0
 11
64.5926064826
 21
74.7769313085
 31
0.0
  0
LINE
  5
F0
330
1F
100
AcDbEntity
  8
0
  6
Continuous
 62
     7
370
    35
100
AcDbLine
 10
64.5926064826
 20
73.2769313085
 30
0.0
 11
64.5926064826
 21
70.8935648359
 31
0.0
  0
LINE
  5
F1
330
1F
100
AcDbEntity
  8
0
  6
Continuous
 62
     7
370
    35
100
AcDbLine
 10
66.0926064826
 20
70.8935648359
 30
0.0
 11
66.0926064826
 21
73.2769313085
 31
0.0
  0
LINE
  5
F2
330
1F
100
AcDbEntity
  8
0
  6
Continuous
 62
     7
370
    35
100
AcDbLine
 10
66.0926064826
 20
74.7769313085
 30
0.0
 11
66.0926064826
 21
77.2181201563
 31
0.0
  0
ARC
  5
F3
330
1F
100
AcDbEntity
  8
0
  6
Continuous
 62
     7
370
    35
100
AcDbCircle
 10
39.2218539068
 20
94.6207939599
 30
0.0
 40
0.1000000000000085
100
AcDbArc
 50
180.0
 51
270.0
  0
ARC
  5
F4
330
1F
100
AcDbEntity
  8
0
  6
Continuous
 62
     7
370
    35
100
AcDbCircle
 10
40.5218539068
 20
94.6207939599
 30
0.0
 40
0.1000000000000085
100
AcDbArc
 50
270.0
 51
0.0
  0
ARC
  5
F5
330
1F
100
AcDbEntity
  8
0
  6
Continuous
 62
     7
370
    35
100
AcDbCircle
 10
39.2218539068
 20
104.4207939599
 30
0.0
 40
0.1000000000000227
100
AcDbArc
 50
90.0
 51
180.0
  0
ARC
  5
F6
330
1F
100
AcDbEntity
  8
0
  6
Continuous
 62
     7
370
    35
100
AcDbCircle
 10
40.5218539068
 20
104.4207939599
 30
0.0
 40
0.1000000000000227
100
AcDbArc
 50
0.0
 51
90.0
  0
LINE
  5
F7
330
1F
100
AcDbEntity
  8
0
  6
Continuous
 62
     7
370
    35
100
AcDbLine
 10
40.6218539068
 20
94.6207939599
 30
0.0
 11
40.6218539068
 21
104.4207939599
 31
0.0
  0
LINE
  5
F8
330
1F
100
AcDbEntity
  8
0
  6
Continuous
 62
     7
370
    35
100
AcDbLine
 10
39.1218539068
 20
104.4207939599
 30
0.0
 11
39.1218539068
 21
94.6207939599
 31
0.0
  0
LINE
  5
F9
330
1F
100
AcDbEntity
  8
0
  6
Continuous
 62
     7
370
    35
100
AcDbLine
 10
60.4149178494
 20
73.2769313085
 30
0.0
 11
70.2149178494
 21
73.2769313085
 31
0.0
  0
LINE
  5
FA
330
1F
100
AcDbEntity
  8
0
  6
Continuous
 62
     7
370
    35
100
AcDbLine
 10
70.2149178494
 20
74.7769313085
 30
0.0
 11
60.4149178494
 21
74.7769313085
 31
0.0
  0
ARC
  5
FB
330
1F
100
AcDbEntity
  8
0
  6
Continuous
 62
     7
370
    35
100
AcDbCircle
 10
60.4149178494
 20
74.6769313085
 30
0.0
 40
0.1000000000000085
100
AcDbArc
 50
90.0
 51
180.0
  0
ARC
  5
FC
330
1F
100
AcDbEntity
  8
0
  6
Continuous
 62
     7
370
    35
100
AcDbCircle
 10
60.4149178494
 20
73.3769313085
 30
0.0
 40
0.1000000000000014
100
AcDbArc
 50
180.0
 51
270.0
  0
ARC
  5
FD
330
1F
100
AcDbEntity
  8
0
  6
Continuous
 62
     7
370
    35
100
AcDbCircle
 10
70.2149178494
 20
74.6769313085
 30
0.0
 40
0.1000000000000085
100
AcDbArc
 50
0.0
 51
90.0
  0
ARC
  5
FE
330
1F
100
AcDbEntity
  8
0
  6
Continuous
 62
     7
370
    35
100
AcDbCircle
 10
70.2149178494
 20
73.3769313085
 30
0.0
 40
0.1000000000000085
100
AcDbArc
 50
270.0
 51
360.0
  0
LINE
  5
FF
330
1F
100
AcDbEntity
  8
0
  6
Continuous
 62
     7
370
    35
100
AcDbLine
 10
71.4190566814
 20
102.8038655701
 30
0.0
 11
71.8786760891
 21
103.2634849779
 31
0.0
  0
LINE
  5
100
330
1F
100
AcDbEntity
  8
0
  6
Continuous
 62
     7
370
    35
100
AcDbLine
 10
69.0502489644
 20
106.0919121026
 30
0.0
 11
68.5906295566
 21
105.6322926949
 31
0.0
  0
LINE
  5
101
330
1F
100
AcDbEntity
  8
0
  6
Continuous
 62
     7
370
    35
100
AcDbLine
 10
71.8786760891
 20
103.2634849779
 30
0.0
 11
71.8786760893
 21
103.4756170123
 31
0.0
  0
LINE
  5
102
330
1F
100
AcDbEntity
  8
0
  6
Continuous
 62
     7
370
    35
100
AcDbLine
 10
69.2623809988
 20
106.0919121028
 30
0.0
 11
69.0502489645
 21
106.0919121026
 31
0.0
  0
CIRCLE
  5
103
330
1F
100
AcDbEntity
  8
0
  6
Continuous
 62
     7
370
    35
100
AcDbCircle
 10
39.8426064826
 20
110.0558424961
 30
0.0
 40
4.250000000000007
  0
CIRCLE
  5
104
330
1F
100
AcDbEntity
  8
0
  6
Continuous
 62
     7
370
    35
100
AcDbCircle
 10
75.8426064826
 20
74.0558424961
 30
0.0
 40
4.249999999999993
  0
CIRCLE
  5
105
330
1F
100
AcDbEntity
  8
0
  6
Continuous
 62
     7
370
    35
100
AcDbCircle
 10
39.8426064826
 20
110.0558424961
 30
0.0
 40
2.999999999999998
  0
LINE
  5
106
330
1F
100
AcDbEntity
  8
0
  6
Continuous
 62
     7
370
    35
100
AcDbLine
 10
38.8601336169
 20
110.662538797
 30
0.0
 11
38.8259556408
 21
109.5083441863
 31
0.0
  0
LINE
  5
107
330
1F
100
AcDbEntity
  8
0
  6
Continuous
 62
     7
370
    35
100
AcDbLine
 10
38.8259556408
 20
109.5083441863
 30
0.0
 11
39.8084285065
 21
108.9016478854
 31
0.0
  0
LINE
  5
108
330
1F
100
AcDbEntity
  8
0
  6
Continuous
 62
     7
370
    35
100
AcDbLine
 10
39.8084285065
 20
108.9016478854
 30
0.0
 11
40.8250793483
 21
109.4491461952
 31
0.0
  0
LINE
  5
109
330
1F
100
AcDbEntity
  8
0
  6
Continuous
 62
     7
370
    35
100
AcDbLine
 10
40.8250793483
 20
109.4491461952
 30
0.0
 11
40.8592573244
 21
110.6033408059
 31
0.0
  0
LINE
  5
10A
330
1F
100
AcDbEntity
  8
0
  6
Continuous
 62
     7
370
    35
100
AcDbLine
 10
40.8592573244
 20
110.6033408059
 30
0.0
 11
39.8767844587
 21
111.2100371068
 31
0.0
  0
LINE
  5
10B
330
1F
100
AcDbEntity
  8
0
  6
Continuous
 62
     7
370
    35
100
AcDbLine
 10
39.8767844587
 20
111.2100371068
 30
0.0
 11
38.8601336169
 21
110.662538797
 31
0.0
  0
CIRCLE
  5
10C
330
1F
100
AcDbEntity
  8
0
  6
Continuous
 62
     7
370
    35
100
AcDbCircle
 10
75.8426064826
 20
74.0558424961
 30
0.0
 40
2.999999999999999
  0
LINE
  5
10D
330
1F
100
AcDbEntity
  8
0
  6
Continuous
 62
     7
370
    35
100
AcDbLine
 10
74.8601336169
 20
74.662538797
 30
0.0
 11
74.8259556408
 21
73.5083441863
 31
0.0
  0
LINE
  5
10E
330
1F
100
AcDbEntity
  8
0
  6
Continuous
 62
     7
370
    35
100
AcDbLine
 10
74.8259556408
 20
73.5083441863
 30
0.0
 11
75.8084285065
 21
72.9016478854
 31
0.0
  0
LINE
  5
10F
330
1F
100
AcDbEntity
  8
0
  6
Continuous
 62
     7
370
    35
100
AcDbLine
 10
75.8084285065
 20
72.9016478854
 30
0.0
 11
76.8250793483
 21
73.4491461952
 31
0.0
  0
LINE
  5
110
330
1F
100
AcDbEntity
  8
0
  6
Continuous
 62
     7
370
    35
100
AcDbLine
 10
76.8250793483
 20
73.4491461952
 30
0.0
 11
76.8592573244
 21
74.6033408059
 31
0.0
  0
LINE
  5
111
330
1F
100
AcDbEntity
  8
0
  6
Continuous
 62
     7
370
    35
100
AcDbLine
 10
76.8592573244
 20
74.6033408059
 30
0.0
 11
75.8767844587
 21
75.2100371068
 31
0.0
  0
LINE
  5
112
330
1F
100
AcDbEntity
  8
0
  6
Continuous
 62
     7
370
    35
100
AcDbLine
 10
75.8767844587
 20
75.2100371068
 30
0.0
 11
74.8601336169
 21
74.662538797
 31
0.0
  0
SPLINE
  5
113
330
1F
100
AcDbEntity
  8
0
  6
Continuous
 62
     7
370
    35
100
AcDbSpline
210
0.0
220
0.0
230
1.0
 70
     8
 71
     3
 72
    12
 73
     8
 74
     0
 42
0.00000001
 43
0.00000001
 40
0.0
 40
0.0
 40
0.0
 40
0.0
 40
0.2145308349204412
 40
0.4290599870525051
 40
0.6436384639016556
 40
0.8583325859118665
 40
1.0
 40
1.0
 40
1.0
 40
1.0
 10
39.50015994328339
 20
94.62079395991633
 30
0.0
 10
39.50067534948146
 20
94.60955638788225
 30
0.0
 10
39.50170615783475
 20
94.58708133196207
 30
0.0
 10
39.50974413300371
 20
94.5571252116349
 30
0.0
 10
39.52157545719912
 20
94.53451018871216
 30
0.0
 10
39.5346981481358
 20
94.52250773696657
 30
0.0
 10
39.54337639875921
 20
94.52128145439418
 30
0.0
 10
39.54682633709454
 20
94.52079395991633
 30
0.0
  0
LINE
  5
114
330
1F
100
AcDbEntity
  8
0
  6
Continuous
 62
     7
370
    35
100
AcDbLine
 10
39.5468263371
 20
94.5207939599
 30
0.0
 11
39.2218539068
 21
94.5207939599
 31
0.0
  0
LINE
  5
115
330
1F
100
AcDbEntity
  8
0
  6
Continuous
 62
     7
370
    35
100
AcDbLine
 10
40.5218539068
 20
94.5207939599
 30
0.0
 11
39.5910559643
 21
94.5207939599
 31
0.0
  0
SPLINE
  5
116
330
1F
100
AcDbEntity
  8
0
  6
Continuous
 62
     7
370
    35
100
AcDbSpline
210
0.0
220
0.0
230
1.0
 70
     8
 71
     3
 72
    12
 73
     8
 74
     0
 42
0.00000001
 43
0.00000001
 40
0.0
 40
0.0
 40
0.0
 40
0.0
 40
0.2148733023998682
 40
0.4297498598686013
 40
0.6445409327060386
 40
0.8591995937977949
 40
1.0
 40
1.0
 40
1.0
 40
1.0
 10
39.59105596431766
 20
94.52079395991633
 30
0.0
 10
39.58580681687652
 20
94.52190028572235
 30
0.0
 10
39.57530844247606
 20
94.52411295409388
 30
0.0
 10
39.56131770229016
 20
94.54137098370231
 30
0.0
 10
39.55076476948267
 20
94.56676771733751
 30
0.0
 10
39.54518295808254
 20
94.59488120871207
 30
0.0
 10
39.54461467309689
 20
94.61344190702819
 30
0.0
 10
39.54438957050652
 20
94.62079395991633
 30
0.0
  0
LINE
  5
117
330
1F
100
AcDbEntity
  8
0
  6
Continuous
 62
     7
370
    35
100
AcDbLine
 10
39.5910559643
 20
104.5207939599
 30
0.0
 11
40.5218539068
 21
104.5207939599
 31
0.0
  0
LINE
  5
118
330
1F
100
AcDbEntity
  8
0
  6
Continuous
 62
     7
370
    35
100
AcDbLine
 10
39.2218539068
 20
104.5207939599
 30
0.0
 11
39.5468263371
 21
104.5207939599
 31
0.0
  0
SPLINE
  5
119
330
1F
100
AcDbEntity
  8
0
  6
Continuous
 62
     7
370
    35
100
AcDbSpline
210
0.0
220
0.0
230
1.0
 70
     8
 71
     3
 72
    12
 73
     8
 74
     0
 42
0.00000001
 43
0.00000001
 40
0.0
 40
0.0
 40
0.0
 40
0.0
 40
0.2148733023998462
 40
0.4297498598685326
 40
0.6445409327060082
 40
0.8591995937977959
 40
1.0
 40
1.0
 40
1.0
 40
1.0
 10
39.54682633709454
 20
104.5207939599163
 30
0.0
 10
39.5415771896534
 20
104.5196876341103
 30
0.0
 10
39.53107881525294
 20
104.5174749657388
 30
0.0
 10
39.51708807506704
 20
104.5002169361304
 30
0.0
 10
39.50653514225951
 20
104.4748202024952
 30
0.0
 10
39.50095333085942
 20
104.4467067111206
 30
0.0
 10
39.50038504587376
 20
104.4281460128045
 30
0.0
 10
39.50015994328339
 20
104.4207939599163
 30
0.0
  0
SPLINE
  5
11A
330
1F
100
AcDbEntity
  8
0
  6
Continuous
 62
     7
370
    35
100
AcDbSpline
210
0.0
220
0.0
230
1.0
 70
     8
 71
     3
 72
    12
 73
     8
 74
     0
 42
0.00000001
 43
0.00000001
 40
0.0
 40
0.0
 40
0.0
 40
0.0
 40
0.214530834920486
 40
0.4290599870525093
 40
0.643638463901694
 40
0.8583325859118941
 40
1.0
 40
1.0
 40
1.0
 40
1.0
 10
39.54438957050652
 20
104.4207939599163
 30
0.0
 10
39.5449049767046
 20
104.4320315319504
 30
0.0
 10
39.54593578505789
 20
104.4545065878706
 30
0.0
 10
39.5539737602268
 20
104.4844627081978
 30
0.0
 10
39.56580508442229
 20
104.5070777311205
 30
0.0
 10
39.57892777535893
 20
104.5190801828661
 30
0.0
 10
39.58760602598232
 20
104.5203064654385
 30
0.0
 10
39.59105596431766
 20
104.5207939599163
 30
0.0
  0
LINE
  5
11B
330
1F
100
AcDbEntity
  8
0
  6
Continuous
 62
     7
370
    35
100
AcDbLine
 10
39.5001599433
 20
104.4207939599
 30
0.0
 11
39.5001599433
 21
94.6207939599
 31
0.0
  0
LINE
  5
11C
330
1F
100
AcDbEntity
  8
0
  6
Continuous
 62
     7
370
    35
100
AcDbLine
 10
39.5443895705
 20
94.6207939599
 30
0.0
 11
39.5443895705
 21
104.4207939599
 31
0.0
  0
LINE
  5
11D
330
1F
100
AcDbEntity
  8
0
  6
Continuous
 62
     7
370
    35
100
AcDbLine
 10
39.5468263371
 20
104.5207939599
 30
0.0
 11
39.5910559643
 21
104.5207939599
 31
0.0
  0
LINE
  5
11E
330
1F
100
AcDbEntity
  8
0
  6
Continuous
 62
     7
370
    35
100
AcDbLine
 10
39.5468263371
 20
94.5207939599
 30
0.0
 11
39.5910559643
 21
94.5207939599
 31
0.0
  0
LINE
  5
11F
330
1F
100
AcDbEntity
  8
0
  6
Continuous
 62
     7
370
    35
100
AcDbLine
 10
60.3149178494
 20
73.3769313085
 30
0.0
 11
60.3149178494
 21
74.6769313085
 31
0.0
  0
LINE
  5
120
330
1F
100
AcDbEntity
  8
0
  6
Continuous
 62
     7
370
    35
100
AcDbLine
 10
70.3149178494
 20
74.6769313085
 30
0.0
 11
70.3149178494
 21
73.3769313085
 31
0.0
  0
LINE
  5
121
330
1F
100
AcDbEntity
  8
0
  6
Continuous
 62
     7
370
    35
100
AcDbLine
 10
70.1217766125
 20
105.0203844546
 30
0.0
 11
69.0502489644
 21
106.0919121026
 31
0.0
  0
LINE
  5
122
330
1F
100
AcDbEntity
  8
0
  6
Continuous
 62
     7
370
    35
100
AcDbLine
 10
71.8786760891
 20
103.2634849779
 30
0.0
 11
70.1217766125
 21
105.0203844546
 31
0.0
  0
LINE
  5
123
330
1F
100
AcDbEntity
  8
0
  6
Continuous
 62
     7
370
    35
100
AcDbLine
 10
70.2535440733
 20
105.1007490283
 30
0.0
 11
69.2623809988
 21
106.0919121028
 31
0.0
  0
LINE
  5
124
330
1F
100
AcDbEntity
  8
0
  6
Continuous
 62
     7
370
    35
100
AcDbLine
 10
71.8786760893
 20
103.4756170123
 30
0.0
 11
70.2535440733
 21
105.1007490283
 31
0.0
  0
CIRCLE
  5
125
330
1F
100
AcDbEntity
  8
0
  6
Continuous
 62
     7
370
    35
100
AcDbCircle
 10
39.8426064826
 20
110.0558424961
 30
0.0
 40
4.749999999999986
  0
CIRCLE
  5
126
330
1F
100
AcDbEntity
  8
0
  6
Continuous
 62
     7
370
    35
100
AcDbCircle
 10
75.8426064826
 20
74.0558424961
 30
0.0
 40
4.75
  0
LINE
  5
127
330
1F
100
AcDbEntity
  8
0
  6
Continuous
 62
     7
370
    35
100
AcDbLine
 10
62.2502772634
 20
75.0558424961
 30
0.0
 11
60.8426064826
 21
75.0558424961
 31
0.0
  0
ARC
  5
128
330
1F
100
AcDbEntity
  8
0
  6
Continuous
 62
     7
370
    35
100
AcDbCircle
 10
60.8426064826
 20
74.0558424961
 30
0.0
 40
1.0
100
AcDbArc
 50
90.0
 51
270.0
  0
LINE
  5
129
330
1F
100
AcDbEntity
  8
0
  6
Continuous
 62
     7
370
    35
100
AcDbLine
 10
60.8426064826
 20
73.0558424961
 30
0.0
 11
62.2502772634
 21
73.0558424961
 31
0.0
  0
ARC
  5
12A
330
1F
100
AcDbEntity
  8
0
  6
Continuous
 62
     7
370
    35
100
AcDbCircle
 10
65.3426064826
 20
74.0558424961
 30
0.0
 40
3.249999999999996
100
AcDbArc
 50
197.9202131394
 51
342.0797868606
  0
LINE
  5
12B
330
1F
100
AcDbEntity
  8
0
  6
Continuous
 62
     7
370
    35
100
AcDbLine
 10
68.4349357018
 20
73.0558424961
 30
0.0
 11
69.8426064826
 21
73.0558424961
 31
0.0
  0
ARC
  5
12C
330
1F
100
AcDbEntity
  8
0
  6
Continuous
 62
     7
370
    35
100
AcDbCircle
 10
69.8426064826
 20
74.0558424961
 30
0.0
 40
1.0
100
AcDbArc
 50
270.0
 51
90.0
  0
LINE
  5
12D
330
1F
100
AcDbEntity
  8
0
  6
Continuous
 62
     7
370
    35
100
AcDbLine
 10
69.8426064826
 20
75.0558424961
 30
0.0
 11
68.4349357018
 21
75.0558424961
 31
0.0
  0
ARC
  5
12E
330
1F
100
AcDbEntity
  8
0
  6
Continuous
 62
     7
370
    35
100
AcDbCircle
 10
65.3426064826
 20
74.0558424961
 30
0.0
 40
3.249999999999996
100
AcDbArc
 50
17.9202131394
 51
162.0797868606
  0
ARC
  5
12F
330
1F
100
AcDbEntity
  8
0
  6
Continuous
 62
     7
370
    35
100
AcDbCircle
 10
75.8426064826
 20
74.0558424961
 30
0.0
 40
7.0
100
AcDbArc
 50
270.0
 51
90.0
  0
LINE
  5
130
330
1F
100
AcDbEntity
  8
0
  6
Continuous
 62
     7
370
    35
100
AcDbLine
 10
32.8426064826
 20
74.0558424961
 30
0.0
 11
32.8426064826
 21
110.0558424961
 31
0.0
  0
ARC
  5
131
330
1F
100
AcDbEntity
  8
0
  6
Continuous
 62
     7
370
    35
100
AcDbCircle
 10
39.8426064826
 20
110.0558424961
 30
0.0
 40
7.0
100
AcDbArc
 50
0.0
 51
180.0
  0
LINE
  5
132
330
1F
100
AcDbEntity
  8
0
  6
Continuous
 62
     7
370
    35
100
AcDbLine
 10
46.8426064826
 20
110.0558424961
 30
0.0
 11
46.8426064826
 21
100.7160965339
 31
0.0
  0
ARC
  5
133
330
1F
100
AcDbEntity
  8
0
  6
Continuous
 62
     7
370
    35
100
AcDbCircle
 10
57.8426064826
 20
92.0558424961
 30
0.0
 40
14.00000000000001
100
AcDbArc
 50
141.7867892983
 51
308.2132107017
  0
LINE
  5
134
330
1F
100
AcDbEntity
  8
0
  6
Continuous
 62
     7
370
    35
100
AcDbLine
 10
66.5028605204
 20
81.0558424961
 30
0.0
 11
75.8426064826
 21
81.0558424961
 31
0.0
  0
ARC
  5
135
330
1F
100
AcDbEntity
  8
0
  6
Continuous
 62
     7
370
    35
100
AcDbCircle
 10
39.8426064826
 20
95.0558424961
 30
0.0
 40
1.0
100
AcDbArc
 50
180.0
 51
0.0
  0
LINE
  5
136
330
1F
100
AcDbEntity
  8
0
  6
Continuous
 62
     7
370
    35
100
AcDbLine
 10
40.8426064826
 20
96.4635132769
 30
0.0
 11
40.8426064826
 21
95.0558424961
 31
0.0
  0
ARC
  5
137
330
1F
100
AcDbEntity
  8
0
  6
Continuous
 62
     7
370
    35
100
AcDbCircle
 10
39.8426064826
 20
99.5558424961
 30
0.0
 40
3.250000000000009
100
AcDbArc
 50
287.9202131394
 51
72.0797868606
  0
LINE
  5
138
330
1F
100
AcDbEntity
  8
0
  6
Continuous
 62
     7
370
    35
100
AcDbLine
 10
40.8426064826
 20
104.0558424961
 30
0.0
 11
40.8426064826
 21
102.6481717153
 31
0.0
  0
ARC
  5
139
330
1F
100
AcDbEntity
  8
0
  6
Continuous
 62
     7
370
    35
100
AcDbCircle
 10
39.8426064826
 20
104.0558424961
 30
0.0
 40
1.0
100
AcDbArc
 50
0.0
 51
180.0
  0
LINE
  5
13A
330
1F
100
AcDbEntity
  8
0
  6
Continuous
 62
     7
370
    35
100
AcDbLine
 10
38.8426064826
 20
102.6481717153
 30
0.0
 11
38.8426064826
 21
104.0558424961
 31
0.0
  0
ARC
  5
13B
330
1F
100
AcDbEntity
  8
0
  6
Continuous
 62
     7
370
    35
100
AcDbCircle
 10
39.8426064826
 20
99.5558424961
 30
0.0
 40
3.250000000000009
100
AcDbArc
 50
107.9202131394
 51
252.0797868606
  0
LINE
  5
13C
330
1F
100
AcDbEntity
  8
0
  6
Continuous
 62
     7
370
    35
100
AcDbLine
 10
38.8426064826
 20
95.0558424961
 30
0.0
 11
38.8426064826
 21
96.4635132769
 31
0.0
  0
LINE
  5
13D
330
1F
100
AcDbEntity
  8
0
  6
Continuous
 62
     7
370
    35
100
AcDbLine
 10
75.8426064826
 20
67.0558424961
 30
0.0
 11
39.8426064826
 21
67.0558424961
 31
0.0
  0
ARC
  5
13E
330
1F
100
AcDbEntity
  8
0
  6
Continuous
 62
     7
370
    35
100
AcDbCircle
 10
39.8426064826
 20
74.0558424961
 30
0.0
 40
7.000000000000007
100
AcDbArc
 50
180.0
 51
270.0
  0
LINE
  5
13F
330
1F
100
AcDbEntity
  8
0
  6
Continuous
 62
     7
370
    35
100
AcDbLine
 10
62.2502772634
 20
73.0558424961
 30
0.0
 11
62.1873256137
 21
73.2769313085
 31
0.0
  0
LWPOLYLINE
  5
140
330
1F
100
AcDbEntity
  8
0
  6
Continuous
 62
     7
370
    35
100
AcDbPolyline
 90
        3
 70
   128
 43
0.0
 10
62.1736112279
 20
74.7769313085
 10
62.1816135757
 20
74.8112389763
 10
62.2502772634
 20
75.0558424961
  0
LWPOLYLINE
  5
141
330
1F
100
AcDbEntity
  8
0
  6
Continuous
 62
     7
370
    35
100
AcDbPolyline
 90
        3
 70
   128
 43
0.0
 10
68.4349357018
 20
75.0558424961
 10
68.5035993895
 20
74.8112389763
 10
68.5116017373
 20
74.7769313085
  0
LINE
  5
142
330
1F
100
AcDbEntity
  8
0
  6
Continuous
 62
     7
370
    35
100
AcDbLine
 10
68.4978873515
 20
73.2769313085
 30
0.0
 11
68.4349357018
 21
73.0558424961
 31
0.0
  0
LINE
  5
143
330
1F
100
AcDbEntity
  8
0
  6
Continuous
 62
     7
370
    35
100
AcDbLine
 10
40.8426064826
 20
96.4635132769
 30
0.0
 11
40.6218539068
 21
96.4006446494
 31
0.0
  0
LWPOLYLINE
  5
144
330
1F
100
AcDbEntity
  8
0
  6
Continuous
 62
     7
370
    35
100
AcDbPolyline
 90
        3
 70
   128
 43
0.0
 10
39.1218539068
 20
96.3867707512
 10
39.0872100024
 20
96.3948495892
 10
38.8426064826
 20
96.4635132769
  0
LWPOLYLINE
  5
145
330
1F
100
AcDbEntity
  8
0
  6
Continuous
 62
     7
370
    35
100
AcDbPolyline
 90
        3
 70
   128
 43
0.0
 10
38.8426064826
 20
102.6481717153
 10
39.0872100024
 20
102.716835403
 10
39.1218539068
 20
102.724914241
  0
LINE
  5
146
330
1F
100
AcDbEntity
  8
0
  6
Continuous
 62
     7
370
    35
100
AcDbLine
 10
40.6218539068
 20
102.7110403428
 30
0.0
 11
40.8426064826
 21
102.6481717153
 31
0.0
  0
CIRCLE
  5
147
330
1F
100
AcDbEntity
  8
0
  6
Continuous
 62
     7
370
    35
100
AcDbCircle
 10
57.8426064826
 20
92.0558424961
 30
0.0
 40
12.0
  0
LINE
  5
148
330
1F
100
AcDbEntity
  8
0
  6
Continuous
 62
     7
370
    35
100
AcDbLine
 10
67.752866193
 20
105.8558424961
 30
0.0
 11
50.7669250221
 21
105.8558424961
 31
0.0
  0
ARC
  5
149
330
1F
100
AcDbEntity
  8
0
  6
Continuous
 62
     7
370
    35
100
AcDbCircle
 10
67.752866193
 20
105.0558424961
 30
0.0
 40
0.7999999999999984
100
AcDbArc
 50
45.0
 51
90.0
  0
LINE
  5
14A
330
1F
100
AcDbEntity
  8
0
  6
Continuous
 62
     7
370
    35
100
AcDbLine
 10
71.4082919075
 20
102.5317876315
 30
0.0
 11
68.318551618
 21
105.621527921
 31
0.0
  0
ARC
  5
14B
330
1F
100
AcDbEntity
  8
0
  6
Continuous
 62
     7
370
    35
100
AcDbCircle
 10
70.8426064826
 20
101.9661022065
 30
0.0
 40
0.8000000000000186
100
AcDbArc
 50
0.0
 51
45.0
  0
LINE
  5
14C
330
1F
100
AcDbEntity
  8
0
  6
Continuous
 62
     7
370
    35
100
AcDbLine
 10
71.6426064826
 20
84.9801610356
 30
0.0
 11
71.6426064826
 21
101.9661022065
 31
0.0
  0
ARC
  5
14D
330
1F
100
AcDbEntity
  8
0
  6
Continuous
 62
     7
370
    35
100
AcDbCircle
 10
76.8426064826
 20
84.9801610356
 30
0.0
 40
5.000000000000001
100
AcDbArc
 50
180.0
 51
231.7080746668
  0
LINE
  5
14E
330
1F
100
AcDbEntity
  8
0
  6
Continuous
 62
     7
370
    35
100
AcDbLine
 10
71.8426064826
 20
84.9801610356
 30
0.0
 11
71.6426064826
 21
84.9801610356
 31
0.0
  0
LINE
  5
14F
330
1F
100
AcDbEntity
  8
0
  6
Continuous
 62
     7
370
    35
100
AcDbLine
 10
71.8426064826
 20
101.9661022065
 30
0.0
 11
71.8426064826
 21
84.9801610356
 31
0.0
  0
LINE
  5
150
330
1F
100
AcDbEntity
  8
0
  6
Continuous
 62
     7
370
    35
100
AcDbLine
 10
71.8426064826
 20
101.9661022065
 30
0.0
 11
71.6426064826
 21
101.9661022065
 31
0.0
  0
ARC
  5
151
330
1F
100
AcDbEntity
  8
0
  6
Continuous
 62
     7
370
    35
100
AcDbCircle
 10
70.8426064826
 20
101.9661022065
 30
0.0
 40
1.000000000000014
100
AcDbArc
 50
0.0
 51
45.0
  0
LINE
  5
152
330
1F
100
AcDbEntity
  8
0
  6
Continuous
 62
     7
370
    35
100
AcDbLine
 10
71.5497132638
 20
102.6732089877
 30
0.0
 11
71.4082919075
 21
102.5317876315
 31
0.0
  0
LINE
  5
153
330
1F
100
AcDbEntity
  8
0
  6
Continuous
 62
     7
370
    35
100
AcDbLine
 10
68.4599729742
 20
105.7629492773
 30
0.0
 11
71.5497132638
 21
102.6732089877
 31
0.0
  0
LINE
  5
154
330
1F
100
AcDbEntity
  8
0
  6
Continuous
 62
     7
370
    35
100
AcDbLine
 10
68.4599729742
 20
105.7629492773
 30
0.0
 11
68.318551618
 21
105.621527921
 31
0.0
  0
ARC
  5
155
330
1F
100
AcDbEntity
  8
0
  6
Continuous
 62
     7
370
    35
100
AcDbCircle
 10
50.7669250221
 20
111.0558424961
 30
0.0
 40
5.000000000000014
100
AcDbArc
 50
218.2919253332
 51
270.0
  0
LINE
  5
156
330
1F
100
AcDbEntity
  8
0
  6
Continuous
 62
     7
370
    35
100
AcDbLine
 10
50.7669250221
 20
105.8558424961
 30
0.0
 11
50.7669250221
 21
106.0558424961
 31
0.0
  0
LINE
  5
157
330
1F
100
AcDbEntity
  8
0
  6
Continuous
 62
     7
370
    35
100
AcDbLine
 10
50.7669250221
 20
106.0558424961
 30
0.0
 11
67.752866193
 21
106.0558424961
 31
0.0
  0
LINE
  5
158
330
1F
100
AcDbEntity
  8
0
  6
Continuous
 62
     7
370
    35
100
AcDbLine
 10
67.752866193
 20
106.0558424961
 30
0.0
 11
67.752866193
 21
105.8558424961
 31
0.0
  0
ARC
  5
159
330
1F
100
AcDbEntity
  8
0
  6
Continuous
 62
     7
370
    35
100
AcDbCircle
 10
67.752866193
 20
105.0558424961
 30
0.0
 40
1.0
100
AcDbArc
 50
45.0
 51
90.0
  0
LINE
  5
15A
330
1F
100
AcDbEntity
  8
0
  6
Continuous
 62
     7
370
    35
100
AcDbLine
 10
39.5443895705
 20
94.6207939599
 30
0.0
 11
40.6218539068
 21
94.6207939599
 31
0.0
  0
LINE
  5
15B
330
1F
100
AcDbEntity
  8
0
  6
Continuous
 62
     7
370
    35
100
AcDbLine
 10
39.1218539068
 20
94.6207939599
 30
0.0
 11
39.5001599433
 21
94.6207939599
 31
0.0
  0
LINE
  5
15C
330
1F
100
AcDbEntity
  8
0
  6
Continuous
 62
     7
370
    35
100
AcDbLine
 10
39.5001599433
 20
104.4207939599
 30
0.0
 11
39.1218539068
 21
104.4207939599
 31
0.0
  0
LINE
  5
15D
330
1F
100
AcDbEntity
  8
0
  6
Continuous
 62
     7
370
    35
100
AcDbLine
 10
40.6218539068
 20
104.4207939599
 30
0.0
 11
39.5443895705
 21
104.4207939599
 31
0.0
  0
LINE
  5
15E
330
1F
100
AcDbEntity
  8
0
  6
Continuous
 62
     7
370
    35
100
AcDbLine
 10
70.2149178494
 20
73.2769313085
 30
0.0
 11
70.2149178494
 21
74.7769313085
 31
0.0
  0
LINE
  5
15F
330
1F
100
AcDbEntity
  8
0
  6
Continuous
 62
     7
370
    35
100
AcDbLine
 10
60.4149178494
 20
74.7769313085
 30
0.0
 11
60.4149178494
 21
73.2769313085
 31
0.0
  0
ARC
  5
160
330
1F
100
AcDbEntity
  8
0
  6
Continuous
 62
     7
370
    35
100
AcDbCircle
 10
50.7669250221
 20
111.0558424961
 30
0.0
 40
5.200000000000017
100
AcDbArc
 50
221.0028765009
 51
270.0
  0
ARC
  5
161
330
1F
100
AcDbEntity
  8
0
  6
Continuous
 62
     7
370
    35
100
AcDbCircle
 10
76.8426064826
 20
84.9801610356
 30
0.0
 40
5.200000000000003
100
AcDbArc
 50
180.0
 51
228.9971234991
  0
DIMENSION
  5
162
330
1F
100
AcDbEntity
  8
SLD-0
100
AcDbDimension
  2
_D
 10
32.8426064826
 20
57.9901116977
 30
0.0
 11
45.3426064826
 21
57.9901116977
 31
0.0
 70
   160
  1
<>
 71
     2
 42
-1.0
  3
SLDDIMSTYLE0
100
AcDbAlignedDimension
 13
57.8426064826
 23
79.0558424961
 33
0.0
 14
32.8426064826
 24
74.0558424961
 34
0.0
 50
0.0
100
AcDbRotatedDimension
  0
DIMENSION
  5
16D
330
1F
100
AcDbEntity
  8
SLD-0
100
AcDbDimension
  2
_D_1
 10
23.7463504332
 20
92.0558424961
 30
0.0
 11
23.7463504332
 21
79.5558424961
 31
0.0
 70
   160
  1
<>
 71
     2
 42
-1.0
  3
SLDDIMSTYLE0
100
AcDbAlignedDimension
 13
39.8426064826
 23
67.0558424961
 33
0.0
 14
44.8426064826
 24
92.0558424961
 34
0.0
 50
90.0
100
AcDbRotatedDimension
  0
DIMENSION
  5
177
330
1F
100
AcDbEntity
  8
SLD-0
 62
     7
100
AcDbDimension
  2
_D_2
 10
57.8426064826
 20
92.0558424961
 30
0.0
 11
73.6948803632
 21
112.1575001503
 31
0.0
 70
   164
  1
<>
 71
     1
 42
-1.0
  3
SLDDIMSTYLE1
100
AcDbRadialDimension
 15
50.3812369602
 25
80.2098319926
 35
0.0
 40
0.0
  0
INSERT
  5
18B
330
1F
100
AcDbEntity
  8
SLD-0
100
AcDbBlockReference
  2
SW_CENTERMARKSYMBOL_0
 10
57.8426064826
 20
92.0558424961
 30
0.0
  0
LINE
  5
18C
330
1F
100
AcDbEntity
  8
0
  6
Continuous
 62
     7
370
    35
100
AcDbLine
 10
121.2604999717
 20
107.0558424961
 30
0.0
 11
121.6983736569
 21
107.3185667072
 31
0.0
  0
LINE
  5
18D
330
1F
100
AcDbEntity
  8
0
  6
Continuous
 62
     7
370
    35
100
AcDbLine
 10
121.6983736569
 20
112.7931182849
 30
0.0
 11
121.2604999717
 21
113.0558424961
 31
0.0
  0
LINE
  5
18E
330
1F
100
AcDbEntity
  8
0
  6
Continuous
 62
     7
370
    35
100
AcDbLine
 10
121.2604999717
 20
113.0558424961
 30
0.0
 11
119.1983736569
 21
113.0558424961
 31
0.0
  0
LINE
  5
18F
330
1F
100
AcDbEntity
  8
0
  6
Continuous
 62
     7
370
    35
100
AcDbLine
 10
109.1983736569
 20
113.0558424961
 30
0.0
 11
105.6604999717
 21
113.0558424961
 31
0.0
  0
LINE
  5
190
330
1F
100
AcDbEntity
  8
0
  6
Continuous
 62
     7
370
    35
100
AcDbLine
 10
105.6604999717
 20
107.0558424961
 30
0.0
 11
109.1983736569
 21
107.0558424961
 31
0.0
  0
LINE
  5
191
330
1F
100
AcDbEntity
  8
0
  6
Continuous
 62
     7
370
    35
100
AcDbLine
 10
119.1983736569
 20
107.0558424961
 30
0.0
 11
121.2604999717
 21
107.0558424961
 31
0.0
  0
LINE
  5
192
330
1F
100
AcDbEntity
  8
0
  6
Continuous
 62
     7
370
    35
100
AcDbLine
 10
121.2979585805
 20
71.0558424961
 30
0.0
 11
121.6983736569
 21
71.2960915419
 31
0.0
  0
LINE
  5
193
330
1F
100
AcDbEntity
  8
0
  6
Continuous
 62
     7
370
    35
100
AcDbLine
 10
121.6983736569
 20
76.8155934502
 30
0.0
 11
121.2979585805
 21
77.0558424961
 31
0.0
  0
LINE
  5
194
330
1F
100
AcDbEntity
  8
0
  6
Continuous
 62
     7
370
    35
100
AcDbLine
 10
121.2979585805
 20
77.0558424961
 30
0.0
 11
119.1983736569
 21
77.0558424961
 31
0.0
  0
LINE
  5
195
330
1F
100
AcDbEntity
  8
0
  6
Continuous
 62
     7
370
    35
100
AcDbLine
 10
109.1983736569
 20
77.0558424961
 30
0.0
 11
105.6979585805
 21
77.0558424961
 31
0.0
  0
LINE
  5
196
330
1F
100
AcDbEntity
  8
0
  6
Continuous
 62
     7
370
    35
100
AcDbLine
 10
105.6979585805
 20
71.0558424961
 30
0.0
 11
109.1983736569
 21
71.0558424961
 31
0.0
  0
LINE
  5
197
330
1F
100
AcDbEntity
  8
0
  6
Continuous
 62
     7
370
    35
100
AcDbLine
 10
119.1983736569
 20
71.0558424961
 30
0.0
 11
121.2979585805
 21
71.0558424961
 31
0.0
  0
ARC
  5
198
330
1F
100
AcDbEntity
  8
0
  6
Continuous
 62
     7
370
    35
100
AcDbCircle
 10
108.8983736569
 20
94.6207939599
 30
0.0
 40
0.1000000000000085
100
AcDbArc
 50
180.0
 51
270.0
  0
LINE
  5
199
330
1F
100
AcDbEntity
  8
0
  6
Continuous
 62
     7
370
    35
100
AcDbLine
 10
108.7983736569
 20
104.4207939599
 30
0.0
 11
108.7983736569
 21
94.6207939599
 31
0.0
  0
ARC
  5
19A
330
1F
100
AcDbEntity
  8
0
  6
Continuous
 62
     7
370
    35
100
AcDbCircle
 10
108.8983736569
 20
104.4207939599
 30
0.0
 40
0.1000000000000085
100
AcDbArc
 50
90.0
 51
180.0
  0
LINE
  5
19B
330
1F
100
AcDbEntity
  8
0
  6
Continuous
 62
     7
370
    35
100
AcDbLine
 10
125.1984967762
 20
106.0919120999
 30
0.0
 11
125.1984875422
 21
106.0919121003
 31
0.0
  0
LINE
  5
19C
330
1F
100
AcDbEntity
  8
0
  6
Continuous
 62
     7
370
    35
100
AcDbLine
 10
125.1982597716
 20
106.0919121003
 30
0.0
 11
125.1982505377
 21
106.0919120999
 31
0.0
  0
LINE
  5
19D
330
1F
100
AcDbEntity
  8
0
  6
Continuous
 62
     7
370
    35
100
AcDbLine
 10
127.1983736569
 20
104.2180791325
 30
0.0
 11
127.1983736569
 21
104.6776985403
 31
0.0
  0
LINE
  5
19E
330
1F
100
AcDbEntity
  8
0
  6
Continuous
 62
     7
370
    35
100
AcDbLine
 10
123.1983736569
 20
104.6776985403
 30
0.0
 11
123.1983736569
 21
104.2180791325
 31
0.0
  0
ARC
  5
19F
330
1F
100
AcDbEntity
  8
0
  6
Continuous
 62
     7
370
    35
100
AcDbCircle
 10
120.6983736569
 20
74.0558424961
 30
0.0
 40
4.000000000000016
100
AcDbArc
 50
90.0
 51
112.024312837
  0
ARC
  5
1A0
330
1F
100
AcDbEntity
  8
0
  6
Continuous
 62
     7
370
    35
100
AcDbCircle
 10
120.6983736569
 20
74.0558424961
 30
0.0
 40
3.999999999999992
100
AcDbArc
 50
247.975687163
 51
284.4775121859
  0
ARC
  5
1A1
330
1F
100
AcDbEntity
  8
0
  6
Continuous
 62
     7
370
    35
100
AcDbCircle
 10
120.6983736569
 20
74.0558424961
 30
0.0
 40
4.000000000000013
100
AcDbArc
 50
75.5224878141
 51
90.0
  0
LINE
  5
1A2
330
1F
100
AcDbEntity
  8
0
  6
Continuous
 62
     7
370
    35
100
AcDbLine
 10
119.1983736569
 20
117.0558424961
 30
0.0
 11
109.1983736569
 21
117.0558424961
 31
0.0
  0
ARC
  5
1A3
330
1F
100
AcDbEntity
  8
0
  6
Continuous
 62
     7
370
    35
100
AcDbCircle
 10
128.4983736569
 20
116.8558424961
 30
0.0
 40
0.1999999999999886
100
AcDbArc
 50
0.0
 51
90.0
  0
LINE
  5
1A4
330
1F
100
AcDbEntity
  8
0
  6
Continuous
 62
     7
370
    35
100
AcDbLine
 10
128.4983736569
 20
117.0558424961
 30
0.0
 11
121.8983736569
 21
117.0558424961
 31
0.0
  0
ARC
  5
1A5
330
1F
100
AcDbEntity
  8
0
  6
Continuous
 62
     7
370
    35
100
AcDbCircle
 10
121.8983736569
 20
116.8558424961
 30
0.0
 40
0.1999999999999886
100
AcDbArc
 50
90.0
 51
180.0
  0
LINE
  5
1A6
330
1F
100
AcDbEntity
  8
0
  6
Continuous
 62
     7
370
    35
100
AcDbLine
 10
121.2604999717
 20
113.0558424961
 30
0.0
 11
121.2604999717
 21
107.0558424961
 31
0.0
  0
LINE
  5
1A7
330
1F
100
AcDbEntity
  8
0
  6
Continuous
 62
     7
370
    35
100
AcDbLine
 10
105.6604999717
 20
113.0558424961
 30
0.0
 11
105.6604999717
 21
107.0558424961
 31
0.0
  0
LINE
  5
1A8
330
1F
100
AcDbEntity
  8
0
  6
Continuous
 62
     7
370
    35
100
AcDbLine
 10
121.2979585805
 20
77.0558424961
 30
0.0
 11
121.2979585805
 21
71.0558424961
 31
0.0
  0
LINE
  5
1A9
330
1F
100
AcDbEntity
  8
0
  6
Continuous
 62
     7
370
    35
100
AcDbLine
 10
105.6979585805
 20
77.0558424961
 30
0.0
 11
105.6979585805
 21
71.0558424961
 31
0.0
  0
LINE
  5
1AA
330
1F
100
AcDbEntity
  8
0
  6
Continuous
 62
     7
370
    35
100
AcDbLine
 10
109.1983736569
 20
94.5207939599
 30
0.0
 11
108.8983736569
 21
94.5207939599
 31
0.0
  0
LINE
  5
1AB
330
1F
100
AcDbEntity
  8
0
  6
Continuous
 62
     7
370
    35
100
AcDbLine
 10
108.8983736569
 20
104.5207939599
 30
0.0
 11
109.1983736569
 21
104.5207939599
 31
0.0
  0
LWPOLYLINE
  5
1AC
330
1F
100
AcDbEntity
  8
0
  6
Continuous
 62
     7
370
    35
100
AcDbPolyline
 90
       36
 70
   128
 43
0.0
 10
123.2579786641
 20
105.0203844546
 10
123.3756958285
 20
105.2598692771
 10
123.5519953579
 20
105.4806426531
 10
123.7812108406
 20
105.6756087447
 10
124.0559751022
 20
105.8385011812
 10
124.3674569934
 20
105.9640844657
 10
124.7056452298
 20
106.0483222481
 10
125.0596701632
 20
106.0885070568
 10
125.4181531411
 20
106.083347319
 10
125.7695722255
 20
106.0330088729
 10
126.1026325179
 20
105.9391096375
 10
126.4066291866
 20
105.8046676115
 10
126.6717915283
 20
105.6340038724
 10
126.8895970073
 20
105.432603693
 10
127.0530451763
 20
105.2069402408
 10
127.1568826766
 20
104.964266525
 10
127.1977720856
 20
104.7123822783
 10
127.174399184
 20
104.4593832677
 10
127.087515196
 20
104.2134010897
 10
126.9399126446
 20
103.9823418137
 10
126.7363355972
 20
103.7736318751
 10
126.4833271876
 20
103.5939793829
 10
126.1890193142
 20
103.4491585162
 10
125.8628712743
 20
103.3438239366
 10
125.5153657343
 20
103.2813611844
 10
125.157671808
 20
103.2637778637
 10
124.8012860727
 20
103.2916391169
 10
124.457663059
 20
103.3640494604
 10
124.1378470934
 20
103.4786815662
 10
123.8521173242
 20
103.6318510641
 10
123.6096573412
 20
103.8186349605
 10
123.4182600078
 20
104.0330298671
 10
123.2840769918
 20
104.2681449553
 10
123.2114210457
 20
104.5164234327
 10
123.2026273913
 20
104.7698854248
 10
123.2579786641
 20
105.0203844546
  0
LWPOLYLINE
  5
1AD
330
1F
100
AcDbEntity
  8
0
  6
Continuous
 62
     7
370
    35
100
AcDbPolyline
 90
       35
 70
   128
 43
0.0
 10
123.4035082884
 20
105.1007490283
 10
123.5164412028
 20
105.3285595741
 10
123.6866503096
 20
105.537817779
 10
123.9083393419
 20
105.7213976058
 10
124.1739589455
 20
105.8730474637
 10
124.4744637635
 20
105.9876030988
 10
124.7996204647
 20
106.0611634561
 10
125.1383562276
 20
106.091223526
 10
125.4791358121
 20
106.0767596489
 10
125.8103543781
 20
106.0182643747
 10
126.1207326747
 20
105.9177296899
 10
126.3997011411
 20
105.7785791825
 10
126.6377598409
 20
105.6055514562
 10
126.8268019706
 20
105.4045387627
 10
126.9603899271
 20
105.1823863482
 10
127.0339745328
 20
104.9466593467
 10
127.0450499523
 20
104.7053851585
 10
126.9932390254
 20
104.4667800868
 10
126.8803061111
 20
104.238969541
 10
126.7100970043
 20
104.0297113361
 10
126.488407972
 20
103.8461315093
 10
126.2227883683
 20
103.6944816513
 10
125.9222835503
 20
103.5799260163
 10
125.5971268491
 20
103.506365659
 10
125.2583910862
 20
103.476305589
 10
124.9176115017
 20
103.4907694662
 10
124.5863929357
 20
103.5492647403
 10
124.2760146392
 20
103.6497994252
 10
123.9970461727
 20
103.7889499326
 10
123.7589874729
 20
103.9619776588
 10
123.5699453433
 20
104.1629903523
 10
123.4363573867
 20
104.3851427669
 10
123.362772781
 20
104.6208697684
 10
123.3516973615
 20
104.8621439565
 10
123.4035082884
 20
105.1007490283
  0
LINE
  5
1AE
330
1F
100
AcDbEntity
  8
0
  6
Continuous
 62
     7
370
    35
100
AcDbLine
 10
124.0780860855
 20
104.9816143623
 30
0.0
 11
124.3959143374
 21
104.1966562311
 31
0.0
  0
LINE
  5
1AF
330
1F
100
AcDbEntity
  8
0
  6
Continuous
 62
     7
370
    35
100
AcDbLine
 10
125.5162019088
 20
103.9988064262
 30
0.0
 11
124.3959143374
 21
104.1966562311
 31
0.0
  0
LINE
  5
1B0
330
1F
100
AcDbEntity
  8
0
  6
Continuous
 62
     7
370
    35
100
AcDbLine
 10
126.3186612284
 20
104.5859147526
 30
0.0
 11
125.5162019088
 21
103.9988064262
 31
0.0
  0
LINE
  5
1B1
330
1F
100
AcDbEntity
  8
0
  6
Continuous
 62
     7
370
    35
100
AcDbLine
 10
126.0008329765
 20
105.3708728838
 30
0.0
 11
126.3186612284
 21
104.5859147526
 31
0.0
  0
LINE
  5
1B2
330
1F
100
AcDbEntity
  8
0
  6
Continuous
 62
     7
370
    35
100
AcDbLine
 10
124.880545405
 20
105.5687226887
 30
0.0
 11
126.0008329765
 21
105.3708728838
 31
0.0
  0
LINE
  5
1B3
330
1F
100
AcDbEntity
  8
0
  6
Continuous
 62
     7
370
    35
100
AcDbLine
 10
124.0780860855
 20
104.9816143623
 30
0.0
 11
124.880545405
 21
105.5687226887
 31
0.0
  0
LINE
  5
1B4
330
1F
100
AcDbEntity
  8
0
  6
Continuous
 62
     7
370
    35
100
AcDbLine
 10
126.0008329765
 20
105.3708728838
 30
0.0
 11
126.0008329765
 21
104.3533800826
 31
0.0
  0
LINE
  5
1B5
330
1F
100
AcDbEntity
  8
0
  6
Continuous
 62
     7
370
    35
100
AcDbLine
 10
124.6806884319
 20
104.1463633416
 30
0.0
 11
124.8805453889
 21
104.3262697796
 31
0.0
  0
LINE
  5
1B6
330
1F
100
AcDbEntity
  8
0
  6
Continuous
 62
     7
370
    35
100
AcDbLine
 10
124.880545405
 20
105.5687226887
 30
0.0
 11
124.8805453889
 21
104.3262697796
 31
0.0
  0
SPLINE
  5
1B7
330
1F
100
AcDbEntity
  8
0
  6
Continuous
 62
     7
370
    35
100
AcDbSpline
210
0.0
220
0.0
230
1.0
 70
     8
 71
     3
 72
     9
 73
     5
 74
     0
 42
0.00000001
 43
0.00000001
 40
0.0
 40
0.0
 40
0.0
 40
0.0
 40
0.3623619874070651
 40
1.0
 40
1.0
 40
1.0
 40
1.0
 10
125.6998854929843
 20
104.1331959946812
 30
0.0
 10
125.5999988730879
 20
104.1429958931962
 30
0.0
 10
125.3243446285266
 20
104.170040392497
 30
0.0
 10
125.0533450326572
 20
104.2654396113036
 30
0.0
 10
124.8805453889336
 20
104.3262697795864
 30
0.0
  0
LINE
  5
1B8
330
1F
100
AcDbEntity
  8
0
  6
Continuous
 62
     7
370
    35
100
AcDbLine
 10
119.1983736569
 20
81.0558424961
 30
0.0
 11
109.1983736569
 21
81.0558424961
 31
0.0
  0
LINE
  5
1B9
330
1F
100
AcDbEntity
  8
0
  6
Continuous
 62
     7
370
    35
100
AcDbLine
 10
119.1983736569
 20
67.0558424961
 30
0.0
 11
109.1983736569
 21
67.0558424961
 31
0.0
  0
LINE
  5
1BA
330
1F
100
AcDbEntity
  8
0
  6
Continuous
 62
     7
370
    35
100
AcDbLine
 10
109.1983736569
 20
81.0558424961
 30
0.0
 11
109.1983736569
 21
67.0558424961
 31
0.0
  0
LINE
  5
1BB
330
1F
100
AcDbEntity
  8
0
  6
Continuous
 62
     7
370
    35
100
AcDbLine
 10
119.1983736569
 20
81.0558424961
 30
0.0
 11
119.1983736569
 21
67.0558424961
 31
0.0
  0
LINE
  5
1BC
330
1F
100
AcDbEntity
  8
0
  6
Continuous
 62
     7
370
    35
100
AcDbLine
 10
109.1983736569
 20
100.7160965339
 30
0.0
 11
119.1983736569
 21
100.7160965339
 31
0.0
  0
SPLINE
  5
1BD
330
1F
100
AcDbEntity
  8
0
  6
Continuous
 62
     7
370
    35
100
AcDbSpline
210
0.0
220
0.0
230
1.0
 70
    11
 71
     3
 72
    45
 73
    41
 74
     0
 42
0.00000001
 43
0.00000001
 40
0.0
 40
0.0
 40
0.0
 40
0.0
 40
0.026219934367427
 40
0.0524422843527674
 40
0.0786358200946843
 40
0.1048329296677684
 40
0.1315681173205185
 40
0.1583027595075756
 40
0.1854889646800937
 40
0.2126703757582713
 40
0.2392457948183614
 40
0.2658199377758962
 40
0.291665483225854
 40
0.3175146108050452
 40
0.3436515555262332
 40
0.3697911982772102
 40
0.3967704211845374
 40
0.4237472991059312
 40
0.4508380665544569
 40
0.4779246371312655
 40
0.5042396645066525
 40
0.5305551201337053
 40
0.5564260961599963
 40
0.5823007351819117
 40
0.6086768902705791
 40
0.6350547266911806
 40
0.6621650038988852
 40
0.6892716865068172
 40
0.7162171841160457
 40
0.7431589842456839
 40
0.7692306597478324
 40
0.7953043870991531
 40
0.8211830273240656
 40
0.8470654726119137
 40
0.8737003880390792
 40
0.9003352962681804
 40
0.9275230859638517
 40
0.9547065250303158
 40
0.9773538615113297
 40
1.0
 40
1.0
 40
1.0
 40
1.0
 10
110.4983736569212
 20
92.05584249609016
 30
0.0
 10
110.5083662854192
 20
91.85177730559505
 30
0.0
 10
110.5283524630265
 20
91.44362812427057
 30
0.0
 10
110.6838068240317
 20
90.84907764323242
 30
0.0
 10
110.928463818642
 20
90.28985058100054
 30
0.0
 10
111.262836933615
 20
89.77544543319831
 30
0.0
 10
111.6805586833157
 20
89.3219800603873
 30
0.0
 10
112.1730507330484
 20
88.93793467556645
 30
0.0
 10
112.7284667300613
 20
88.64156406632037
 30
0.0
 10
113.3262055139076
 20
88.44146022880412
 30
0.0
 10
113.9463217539874
 20
88.34780825803116
 30
0.0
 10
114.5635420088987
 20
88.35653968621324
 30
0.0
 10
115.1639489667408
 20
88.46780888302412
 30
0.0
 10
115.7343282262771
 20
88.6712729505676
 30
0.0
 10
116.2635198904709
 20
88.96661671175615
 30
0.0
 10
116.7445632850241
 20
89.34738061285763
 30
0.0
 10
117.1589936750521
 20
89.80855595148644
 30
0.0
 10
117.496310143337
 20
90.33879583968545
 30
0.0
 10
117.7383285737331
 20
90.92180173566072
 30
0.0
 10
117.879460300915
 20
91.5336905613674
 30
0.0
 10
117.9133220935825
 20
92.1555286263085
 30
0.0
 10
117.8471776052237
 20
92.7650340037211
 30
0.0
 10
117.681331441319
 20
93.35020504983733
 30
0.0
 10
117.4252587834065
 20
93.90044398607264
 30
0.0
 10
117.0799817314949
 20
94.40243084070302
 30
0.0
 10
116.6522657342484
 20
94.84853398953855
 30
0.0
 10
116.1500559158478
 20
95.21935728746037
 30
0.0
 10
115.5880626955583
 20
95.50458661554353
 30
0.0
 10
114.9845507449797
 20
95.68876282690648
 30
0.0
 10
114.3653423814196
 20
95.76979005251776
 30
0.0
 10
113.7480388179161
 20
95.74443752856116
 30
0.0
 10
113.1517917212012
 20
95.6223199566156
 30
0.0
 10
112.587216045824
 20
95.40402933859181
 30
0.0
 10
112.0621910810521
 20
95.09769625087951
 30
0.0
 10
111.5917979332988
 20
94.7050446831631
 30
0.0
 10
111.1850696015869
 20
94.2334841019952
 30
0.0
 10
110.8614774388368
 20
93.69452490651065
 30
0.0
 10
110.6445428951575
 20
93.13632770468675
 30
0.0
 10
110.5206258726127
 20
92.58448609282762
 30
0.0
 10
110.5057909313592
 20
92.23205392111106
 30
0.0
 10
110.4983736569212
 20
92.05584249609016
 30
0.0
  0
LINE
  5
1BE
330
1F
100
AcDbEntity
  8
0
  6
Continuous
 62
     7
370
    35
100
AcDbLine
 10
109.1983736569
 20
100.7160965339
 30
0.0
 11
109.1983736569
 21
81.0558424961
 31
0.0
  0
LINE
  5
1BF
330
1F
100
AcDbEntity
  8
0
  6
Continuous
 62
     7
370
    35
100
AcDbLine
 10
119.1983736569
 20
100.7160965339
 30
0.0
 11
119.1983736569
 21
81.0558424961
 31
0.0
  0
LINE
  5
1C0
330
1F
100
AcDbEntity
  8
0
  6
Continuous
 62
     7
370
    35
100
AcDbLine
 10
119.1983736569
 20
110.0558424961
 30
0.0
 11
109.1983736569
 21
110.0558424961
 31
0.0
  0
LINE
  5
1C1
330
1F
100
AcDbEntity
  8
0
  6
Continuous
 62
     7
370
    35
100
AcDbLine
 10
109.1983736569
 20
110.0558424961
 30
0.0
 11
109.1983736569
 21
100.7160965339
 31
0.0
  0
LINE
  5
1C2
330
1F
100
AcDbEntity
  8
0
  6
Continuous
 62
     7
370
    35
100
AcDbLine
 10
119.1983736569
 20
110.0558424961
 30
0.0
 11
119.1983736569
 21
100.7160965339
 31
0.0
  0
LINE
  5
1C3
330
1F
100
AcDbEntity
  8
0
  6
Continuous
 62
     7
370
    35
100
AcDbLine
 10
109.1983736569
 20
117.0558424961
 30
0.0
 11
109.1983736569
 21
110.0558424961
 31
0.0
  0
LINE
  5
1C4
330
1F
100
AcDbEntity
  8
0
  6
Continuous
 62
     7
370
    35
100
AcDbLine
 10
119.1983736569
 20
117.0558424961
 30
0.0
 11
119.1983736569
 21
110.0558424961
 31
0.0
  0
CIRCLE
  5
1C5
330
1F
100
AcDbEntity
  8
0
  6
Continuous
 62
     7
370
    35
100
AcDbCircle
 10
114.1983736569
 20
92.0558424961
 30
0.0
 40
2.249999999999986
  0
LINE
  5
1C6
330
1F
100
AcDbEntity
  8
0
  6
Continuous
 62
     7
370
    35
100
AcDbLine
 10
128.6983736569
 20
79.7801610356
 30
0.0
 11
128.6983736569
 21
68.2558424961
 31
0.0
  0
ARC
  5
1C7
330
1F
100
AcDbEntity
  8
0
  6
Continuous
 62
     7
370
    35
100
AcDbCircle
 10
128.4983736569
 20
68.2558424961
 30
0.0
 40
0.2000000000000171
100
AcDbArc
 50
270.0
 51
360.0
  0
LINE
  5
1C8
330
1F
100
AcDbEntity
  8
0
  6
Continuous
 62
     7
370
    35
100
AcDbLine
 10
128.4983736569
 20
68.0558424961
 30
0.0
 11
128.4983736569
 21
79.9801610356
 31
0.0
  0
SPLINE
  5
1C9
330
1F
100
AcDbEntity
  8
0
  6
Continuous
 62
     7
370
    35
100
AcDbSpline
210
0.0
220
0.0
230
1.0
 70
     8
 71
     3
 72
    13
 73
     9
 74
     0
 42
0.00000001
 43
0.00000001
 40
0.0
 40
0.0
 40
0.0
 40
0.0
 40
0.0224989078492111
 40
0.1435312471936206
 40
0.3582801350398566
 40
0.572384129778051
 40
0.7861868575476336
 40
1.0
 40
1.0
 40
1.0
 40
1.0
 10
128.6983736569211
 20
79.7801610356011
 30
0.0
 10
128.6983473917331
 20
79.78250326898838
 30
0.0
 10
128.6981798335911
 20
79.79744549114193
 30
0.0
 10
128.6932264081633
 20
79.83463860541742
 30
0.0
 10
128.6709487349307
 20
79.88871746627666
 30
0.0
 10
128.6254174615177
 20
79.9392435059608
 30
0.0
 10
128.5656834015889
 20
79.9735583487339
 30
0.0
 10
128.5208106027728
 20
79.97796010424344
 30
0.0
 10
128.4983736569211
 20
79.9801610356011
 30
0.0
  0
LINE
  5
1CA
330
1F
100
AcDbEntity
  8
0
  6
Continuous
 62
     7
370
    35
100
AcDbLine
 10
121.8983736569
 20
79.9801610356
 30
0.0
 11
121.8983736569
 21
68.0558424961
 31
0.0
  0
LINE
  5
1CB
330
1F
100
AcDbEntity
  8
0
  6
Continuous
 62
     7
370
    35
100
AcDbLine
 10
121.8983736569
 20
79.9801610356
 30
0.0
 11
128.4983736569
 21
79.9801610356
 31
0.0
  0
LINE
  5
1CC
330
1F
100
AcDbEntity
  8
0
  6
Continuous
 62
     7
370
    35
100
AcDbLine
 10
121.8983736569
 20
68.0558424961
 30
0.0
 11
128.4983736569
 21
68.0558424961
 31
0.0
  0
LINE
  5
1CD
330
1F
100
AcDbEntity
  8
0
  6
Continuous
 62
     7
370
    35
100
AcDbLine
 10
121.6983736569
 20
68.2558424961
 30
0.0
 11
121.6983736569
 21
79.7801610356
 31
0.0
  0
SPLINE
  5
1CE
330
1F
100
AcDbEntity
  8
0
  6
Continuous
 62
     7
370
    35
100
AcDbSpline
210
0.0
220
0.0
230
1.0
 70
     8
 71
     3
 72
    13
 73
     9
 74
     0
 42
0.00000001
 43
0.00000001
 40
0.0
 40
0.0
 40
0.0
 40
0.0
 40
0.2138131424523667
 40
0.4276158702219452
 40
0.6417198649601453
 40
0.8564687528063749
 40
0.977501092150785
 40
1.0
 40
1.0
 40
1.0
 40
1.0
 10
121.8983736569211
 20
79.98016103560117
 30
0.0
 10
121.8759367110694
 20
79.97796010424351
 30
0.0
 10
121.8310639122533
 20
79.97355834873397
 30
0.0
 10
121.7713298523245
 20
79.93924350596089
 30
0.0
 10
121.7257985789115
 20
79.88871746627672
 30
0.0
 10
121.703520905679
 20
79.83463860541751
 30
0.0
 10
121.6985674802511
 20
79.79744549114199
 30
0.0
 10
121.6983999221091
 20
79.78250326898845
 30
0.0
 10
121.6983736569211
 20
79.78016103560117
 30
0.0
  0
ARC
  5
1CF
330
1F
100
AcDbEntity
  8
0
  6
Continuous
 62
     7
370
    35
100
AcDbCircle
 10
121.8983736569
 20
68.2558424961
 30
0.0
 40
0.2000000000000028
100
AcDbArc
 50
180.0
 51
270.0
  0
LINE
  5
1D0
330
1F
100
AcDbEntity
  8
0
  6
Continuous
 62
     7
370
    35
100
AcDbLine
 10
128.4983736569
 20
79.9801610356
 30
0.0
 11
128.4983736569
 21
84.9801610356
 31
0.0
  0
LINE
  5
1D1
330
1F
100
AcDbEntity
  8
0
  6
Continuous
 62
     7
370
    35
100
AcDbLine
 10
121.8983736569
 20
84.9801610356
 30
0.0
 11
121.8983736569
 21
79.9801610356
 31
0.0
  0
LINE
  5
1D2
330
1F
100
AcDbEntity
  8
0
  6
Continuous
 62
     7
370
    35
100
AcDbLine
 10
121.8983736569
 20
84.9801610356
 30
0.0
 11
128.4983736569
 21
84.9801610356
 31
0.0
  0
LINE
  5
1D3
330
1F
100
AcDbEntity
  8
0
  6
Continuous
 62
     7
370
    35
100
AcDbLine
 10
128.4983736569
 20
84.9801610356
 30
0.0
 11
128.6983736569
 21
84.9801610356
 31
0.0
  0
LINE
  5
1D4
330
1F
100
AcDbEntity
  8
0
  6
Continuous
 62
     7
370
    35
100
AcDbLine
 10
128.6983736569
 20
84.9801610356
 30
0.0
 11
128.6983736569
 21
79.7801610356
 31
0.0
  0
LINE
  5
1D5
330
1F
100
AcDbEntity
  8
0
  6
Continuous
 62
     7
370
    35
100
AcDbLine
 10
121.8983736569
 20
84.9801610356
 30
0.0
 11
121.6983736569
 21
84.9801610356
 31
0.0
  0
LINE
  5
1D6
330
1F
100
AcDbEntity
  8
0
  6
Continuous
 62
     7
370
    35
100
AcDbLine
 10
121.6983736569
 20
79.7801610356
 30
0.0
 11
121.6983736569
 21
84.9801610356
 31
0.0
  0
LINE
  5
1D7
330
1F
100
AcDbEntity
  8
0
  6
Continuous
 62
     7
370
    35
100
AcDbLine
 10
121.8983736569
 20
101.9661022065
 30
0.0
 11
121.8983736569
 21
84.9801610356
 31
0.0
  0
LINE
  5
1D8
330
1F
100
AcDbEntity
  8
0
  6
Continuous
 62
     7
370
    35
100
AcDbLine
 10
128.4983736569
 20
101.9661022065
 30
0.0
 11
121.8983736569
 21
101.9661022065
 31
0.0
  0
LINE
  5
1D9
330
1F
100
AcDbEntity
  8
0
  6
Continuous
 62
     7
370
    35
100
AcDbLine
 10
128.4983736569
 20
84.9801610356
 30
0.0
 11
128.4983736569
 21
101.9661022065
 31
0.0
  0
LINE
  5
1DA
330
1F
100
AcDbEntity
  8
0
  6
Continuous
 62
     7
370
    35
100
AcDbLine
 10
128.4983736569
 20
101.9661022065
 30
0.0
 11
128.6983736569
 21
101.9661022065
 31
0.0
  0
LINE
  5
1DB
330
1F
100
AcDbEntity
  8
0
  6
Continuous
 62
     7
370
    35
100
AcDbLine
 10
128.6983736569
 20
101.9661022065
 30
0.0
 11
128.6983736569
 21
84.9801610356
 31
0.0
  0
LINE
  5
1DC
330
1F
100
AcDbEntity
  8
0
  6
Continuous
 62
     7
370
    35
100
AcDbLine
 10
121.8983736569
 20
101.9661022065
 30
0.0
 11
121.6983736569
 21
101.9661022065
 31
0.0
  0
LINE
  5
1DD
330
1F
100
AcDbEntity
  8
0
  6
Continuous
 62
     7
370
    35
100
AcDbLine
 10
121.6983736569
 20
84.9801610356
 30
0.0
 11
121.6983736569
 21
101.9661022065
 31
0.0
  0
LINE
  5
1DE
330
1F
100
AcDbEntity
  8
0
  6
Continuous
 62
     7
370
    35
100
AcDbLine
 10
121.8983736569
 20
102.6732089877
 30
0.0
 11
121.8983736569
 21
101.9661022065
 31
0.0
  0
LINE
  5
1DF
330
1F
100
AcDbEntity
  8
0
  6
Continuous
 62
     7
370
    35
100
AcDbLine
 10
121.8983736569
 20
102.6732089877
 30
0.0
 11
128.4983736569
 21
102.6732089877
 31
0.0
  0
LINE
  5
1E0
330
1F
100
AcDbEntity
  8
0
  6
Continuous
 62
     7
370
    35
100
AcDbLine
 10
128.4983736569
 20
101.9661022065
 30
0.0
 11
128.4983736569
 21
102.6732089877
 31
0.0
  0
ARC
  5
1E1
330
1F
100
AcDbEntity
  8
0
  6
Continuous
 62
     7
370
    35
100
AcDbCircle
 10
128.5233736569
 20
102.4964322924
 30
0.0
 40
0.1785357107135785
100
AcDbArc
 50
11.421753659
 51
98.0494669755
  0
LINE
  5
1E2
330
1F
100
AcDbEntity
  8
0
  6
Continuous
 62
     7
370
    35
100
AcDbLine
 10
128.6983736569
 20
102.5317876315
 30
0.0
 11
128.6983736569
 21
101.9661022065
 31
0.0
  0
ARC
  5
1E3
330
1F
100
AcDbEntity
  8
0
  6
Continuous
 62
     7
370
    35
100
AcDbCircle
 10
121.8733736569
 20
102.4964322924
 30
0.0
 40
0.1785357107135759
100
AcDbArc
 50
81.9505330245
 51
168.578246341
  0
LINE
  5
1E4
330
1F
100
AcDbEntity
  8
0
  6
Continuous
 62
     7
370
    35
100
AcDbLine
 10
121.6983736569
 20
101.9661022065
 30
0.0
 11
121.6983736569
 21
102.5317876315
 31
0.0
  0
LINE
  5
1E5
330
1F
100
AcDbEntity
  8
0
  6
Continuous
 62
     7
370
    35
100
AcDbLine
 10
121.8983736569
 20
105.7629492773
 30
0.0
 11
121.8983736569
 21
102.6732089877
 31
0.0
  0
LINE
  5
1E6
330
1F
100
AcDbEntity
  8
0
  6
Continuous
 62
     7
370
    35
100
AcDbLine
 10
128.4983736569
 20
102.6732089877
 30
0.0
 11
128.4983736569
 21
105.7629492773
 31
0.0
  0
ARC
  5
1E7
330
1F
100
AcDbEntity
  8
0
  6
Continuous
 62
     7
370
    35
100
AcDbCircle
 10
128.5233736569
 20
105.586172582
 30
0.0
 40
0.1785357107135835
100
AcDbArc
 50
11.421753659
 51
98.0494669755
  0
LINE
  5
1E8
330
1F
100
AcDbEntity
  8
0
  6
Continuous
 62
     7
370
    35
100
AcDbLine
 10
128.6983736569
 20
105.621527921
 30
0.0
 11
128.6983736569
 21
102.5317876315
 31
0.0
  0
ARC
  5
1E9
330
1F
100
AcDbEntity
  8
0
  6
Continuous
 62
     7
370
    35
100
AcDbCircle
 10
121.8733736569
 20
105.586172582
 30
0.0
 40
0.1785357107135996
100
AcDbArc
 50
81.9505330245
 51
168.578246341
  0
LINE
  5
1EA
330
1F
100
AcDbEntity
  8
0
  6
Continuous
 62
     7
370
    35
100
AcDbLine
 10
121.6983736569
 20
102.5317876315
 30
0.0
 11
121.6983736569
 21
105.621527921
 31
0.0
  0
LINE
  5
1EB
330
1F
100
AcDbEntity
  8
0
  6
Continuous
 62
     7
370
    35
100
AcDbLine
 10
121.8983736569
 20
106.0558424961
 30
0.0
 11
121.8983736569
 21
105.7629492773
 31
0.0
  0
LINE
  5
1EC
330
1F
100
AcDbEntity
  8
0
  6
Continuous
 62
     7
370
    35
100
AcDbLine
 10
121.8983736569
 20
106.0558424961
 30
0.0
 11
124.74955468
 21
106.0558424961
 31
0.0
  0
LINE
  5
1ED
330
1F
100
AcDbEntity
  8
0
  6
Continuous
 62
     7
370
    35
100
AcDbLine
 10
125.6471926339
 20
106.0558424961
 30
0.0
 11
128.4983736569
 21
106.0558424961
 31
0.0
  0
LINE
  5
1EE
330
1F
100
AcDbEntity
  8
0
  6
Continuous
 62
     7
370
    35
100
AcDbLine
 10
128.4983736569
 20
105.7629492773
 30
0.0
 11
128.4983736569
 21
106.0558424961
 31
0.0
  0
ARC
  5
1EF
330
1F
100
AcDbEntity
  8
0
  6
Continuous
 62
     7
370
    35
100
AcDbCircle
 10
128.4983736569
 20
105.8558424961
 30
0.0
 40
0.2000000000000028
100
AcDbArc
 50
0.0
 51
90.0
  0
LINE
  5
1F0
330
1F
100
AcDbEntity
  8
0
  6
Continuous
 62
     7
370
    35
100
AcDbLine
 10
128.6983736569
 20
105.8558424961
 30
0.0
 11
128.6983736569
 21
105.621527921
 31
0.0
  0
ARC
  5
1F1
330
1F
100
AcDbEntity
  8
0
  6
Continuous
 62
     7
370
    35
100
AcDbCircle
 10
121.8983736569
 20
105.8558424961
 30
0.0
 40
0.2000000000000028
100
AcDbArc
 50
90.0
 51
180.0
  0
LINE
  5
1F2
330
1F
100
AcDbEntity
  8
0
  6
Continuous
 62
     7
370
    35
100
AcDbLine
 10
121.6983736569
 20
105.621527921
 30
0.0
 11
121.6983736569
 21
105.8558424961
 31
0.0
  0
LINE
  5
1F3
330
1F
100
AcDbEntity
  8
0
  6
Continuous
 62
     7
370
    35
100
AcDbLine
 10
121.8983736569
 20
111.0558424961
 30
0.0
 11
121.8983736569
 21
106.0558424961
 31
0.0
  0
LINE
  5
1F4
330
1F
100
AcDbEntity
  8
0
  6
Continuous
 62
     7
370
    35
100
AcDbLine
 10
121.8983736569
 20
111.0558424961
 30
0.0
 11
128.4983736569
 21
111.0558424961
 31
0.0
  0
LINE
  5
1F5
330
1F
100
AcDbEntity
  8
0
  6
Continuous
 62
     7
370
    35
100
AcDbLine
 10
128.4983736569
 20
106.0558424961
 30
0.0
 11
128.4983736569
 21
111.0558424961
 31
0.0
  0
LINE
  5
1F6
330
1F
100
AcDbEntity
  8
0
  6
Continuous
 62
     7
370
    35
100
AcDbLine
 10
128.4983736569
 20
111.0558424961
 30
0.0
 11
128.6983736569
 21
111.0558424961
 31
0.0
  0
LINE
  5
1F7
330
1F
100
AcDbEntity
  8
0
  6
Continuous
 62
     7
370
    35
100
AcDbLine
 10
128.6983736569
 20
111.0558424961
 30
0.0
 11
128.6983736569
 21
105.8558424961
 31
0.0
  0
LINE
  5
1F8
330
1F
100
AcDbEntity
  8
0
  6
Continuous
 62
     7
370
    35
100
AcDbLine
 10
121.6983736569
 20
111.0558424961
 30
0.0
 11
121.8983736569
 21
111.0558424961
 31
0.0
  0
LINE
  5
1F9
330
1F
100
AcDbEntity
  8
0
  6
Continuous
 62
     7
370
    35
100
AcDbLine
 10
121.6983736569
 20
105.8558424961
 30
0.0
 11
121.6983736569
 21
111.0558424961
 31
0.0
  0
LINE
  5
1FA
330
1F
100
AcDbEntity
  8
0
  6
Continuous
 62
     7
370
    35
100
AcDbLine
 10
121.8983736569
 20
112.005816097
 30
0.0
 11
121.8983736569
 21
111.0558424961
 31
0.0
  0
LINE
  5
1FB
330
1F
100
AcDbEntity
  8
0
  6
Continuous
 62
     7
370
    35
100
AcDbLine
 10
121.8983736569
 20
112.005816097
 30
0.0
 11
128.4983736569
 21
112.005816097
 31
0.0
  0
LINE
  5
1FC
330
1F
100
AcDbEntity
  8
0
  6
Continuous
 62
     7
370
    35
100
AcDbLine
 10
128.4983736569
 20
111.0558424961
 30
0.0
 11
128.4983736569
 21
112.005816097
 31
0.0
  0
SPLINE
  5
1FD
330
1F
100
AcDbEntity
  8
0
  6
Continuous
 62
     7
370
    35
100
AcDbSpline
210
0.0
220
0.0
230
1.0
 70
     8
 71
     3
 72
    13
 73
     9
 74
     0
 42
0.00000001
 43
0.00000001
 40
0.0
 40
0.0
 40
0.0
 40
0.0
 40
0.0224989078492181
 40
0.1435312471936049
 40
0.3582801350398533
 40
0.5723841297780562
 40
0.7861868575476358
 40
1.0
 40
1.0
 40
1.0
 40
1.0
 10
128.6983736569215
 20
111.9897468050047
 30
0.0
 10
128.6983473917334
 20
111.9899365772794
 30
0.0
 10
128.6981798335915
 20
111.9911472249892
 30
0.0
 10
128.6932264081636
 20
111.9941543209366
 30
0.0
 10
128.670948734931
 20
111.9985067312863
 30
0.0
 10
128.6254174615181
 20
112.0025527745296
 30
0.0
 10
128.5656834015892
 20
112.0052903369846
 30
0.0
 10
128.5208106027732
 20
112.0056408408087
 30
0.0
 10
128.4983736569215
 20
112.005816096989
 30
0.0
  0
LINE
  5
1FE
330
1F
100
AcDbEntity
  8
0
  6
Continuous
 62
     7
370
    35
100
AcDbLine
 10
128.6983736569
 20
111.989746805
 30
0.0
 11
128.6983736569
 21
111.0558424961
 31
0.0
  0
LINE
  5
1FF
330
1F
100
AcDbEntity
  8
0
  6
Continuous
 62
     7
370
    35
100
AcDbLine
 10
128.6983736569
 20
116.8558424961
 30
0.0
 11
128.6983736569
 21
111.989746805
 31
0.0
  0
SPLINE
  5
200
330
1F
100
AcDbEntity
  8
0
  6
Continuous
 62
     7
370
    35
100
AcDbSpline
210
0.0
220
0.0
230
1.0
 70
     8
 71
     3
 72
    13
 73
     9
 74
     0
 42
0.00000001
 43
0.00000001
 40
0.0
 40
0.0
 40
0.0
 40
0.0
 40
0.0224989078492151
 40
0.14353124719362
 40
0.3582801350398518
 40
0.5723841297780552
 40
0.7861868575476353
 40
1.0
 40
1.0
 40
1.0
 40
1.0
 10
121.6983736569215
 20
111.9897468050048
 30
0.0
 10
121.6983999221095
 20
111.9899365772794
 30
0.0
 10
121.6985674802514
 20
111.991147224989
 30
0.0
 10
121.7035209056793
 20
111.9941543209369
 30
0.0
 10
121.7257985789119
 20
111.9985067312863
 30
0.0
 10
121.7713298523249
 20
112.0025527745296
 30
0.0
 10
121.8310639122537
 20
112.0052903369847
 30
0.0
 10
121.8759367110698
 20
112.0056408408088
 30
0.0
 10
121.8983736569214
 20
112.0058160969891
 30
0.0
  0
LINE
  5
201
330
1F
100
AcDbEntity
  8
0
  6
Continuous
 62
     7
370
    35
100
AcDbLine
 10
121.6983736569
 20
111.0558424961
 30
0.0
 11
121.6983736569
 21
111.989746805
 31
0.0
  0
LINE
  5
202
330
1F
100
AcDbEntity
  8
0
  6
Continuous
 62
     7
370
    35
100
AcDbLine
 10
121.6983736569
 20
111.989746805
 30
0.0
 11
121.6983736569
 21
116.8558424961
 31
0.0
  0
LINE
  5
203
330
1F
100
AcDbEntity
  8
0
  6
Continuous
 62
     7
370
    35
100
AcDbLine
 10
108.7983736569
 20
94.6207939599
 30
0.0
 11
109.1983736569
 21
94.6207939599
 31
0.0
  0
LINE
  5
204
330
1F
100
AcDbEntity
  8
0
  6
Continuous
 62
     7
370
    35
100
AcDbLine
 10
109.1983736569
 20
104.4207939599
 30
0.0
 11
108.7983736569
 21
104.4207939599
 31
0.0
  0
LINE
  5
205
330
1F
100
AcDbEntity
  8
0
  6
Continuous
 62
     7
370
    35
100
AcDbLine
 10
128.4983736569
 20
105.7629492773
 30
0.0
 11
126.4807393129
 21
105.7629492773
 31
0.0
  0
LINE
  5
206
330
1F
100
AcDbEntity
  8
0
  6
Continuous
 62
     7
370
    35
100
AcDbLine
 10
123.9160080009
 20
105.7629492773
 30
0.0
 11
121.8983736569
 21
105.7629492773
 31
0.0
  0
LINE
  5
207
330
1F
100
AcDbEntity
  8
0
  6
Continuous
 62
     7
370
    35
100
AcDbLine
 10
128.4983736569
 20
112.005816097
 30
0.0
 11
128.4983736569
 21
117.0558424961
 31
0.0
  0
LINE
  5
208
330
1F
100
AcDbEntity
  8
0
  6
Continuous
 62
     7
370
    35
100
AcDbLine
 10
121.8983736569
 20
117.0558424961
 30
0.0
 11
121.8983736569
 21
112.005816097
 31
0.0
  0
DIMENSION
  5
209
330
1F
100
AcDbEntity
  8
SLD-0
 62
     7
100
AcDbDimension
  2
_D_3
 10
109.1983736569
 20
59.4013875418
 30
0.0
 11
111.6983736569
 21
59.4013875418
 31
0.0
 70
   160
  1
<>
 71
     2
 42
-1.0
  3
SLDDIMSTYLE0
100
AcDbAlignedDimension
 13
114.1983736569
 23
87.3558424961
 33
0.0
 14
109.1983736569
 24
67.0558424961
 34
0.0
 50
0.0
100
AcDbRotatedDimension
  0
DIMENSION
  5
213
330
1F
100
AcDbEntity
  8
SLD-0
 62
     7
100
AcDbDimension
  2
_D_4
 10
119.1983736569
 20
53.5321623339
 30
0.0
 11
114.1983736569
 21
53.5321623339
 31
0.0
 70
   160
  1
<>
 71
     2
 42
-1.0
  3
SLDDIMSTYLE0
100
AcDbAlignedDimension
 13
109.1983736569
 23
67.0558424961
 33
0.0
 14
119.1983736569
 24
67.0558424961
 34
0.0
 50
0.0
100
AcDbRotatedDimension
  0
DIMENSION
  5
21D
330
1F
100
AcDbEntity
  8
SLD-0
 62
     7
100
AcDbDimension
  2
_D_5
 10
128.6983736569
 20
53.5321623339
 30
0.0
 11
125.1983736569
 21
53.5321623339
 31
0.0
 70
   160
  1
<>
 71
     2
 42
-1.0
  3
SLDDIMSTYLE0
100
AcDbAlignedDimension
 13
121.6983736569
 23
68.2558424961
 33
0.0
 14
128.6983736569
 24
68.2558424961
 34
0.0
 50
0.0
100
AcDbRotatedDimension
  0
DIMENSION
  5
227
330
1F
100
AcDbEntity
  8
SLD-0
 62
     7
100
AcDbDimension
  2
_D_6
 10
128.6983736569
 20
46.0558424961
 30
0.0
 11
118.9483736569
 21
46.0558424961
 31
0.0
 70
   160
  1
<>
 71
     2
 42
-1.0
  3
SLDDIMSTYLE0
100
AcDbAlignedDimension
 13
109.1983736569
 23
67.0558424961
 33
0.0
 14
128.6983736569
 24
68.2558424961
 34
0.0
 50
0.0
100
AcDbRotatedDimension
  0
DIMENSION
  5
231
330
1F
100
AcDbEntity
  8
SLD-0
 62
     7
100
AcDbDimension
  2
_D_7
 10
114.5930224914
 20
88.3769496875
 30
0.0
 11
93.6249284327
 21
127.4238812739
 31
0.0
 70
   163
  1
2 HOLES for both of \P M4 and 8-32 CLR
 71
     1
 42
-1.0
  3
SLDDIMSTYLE2
100
AcDbDiametricDimension
 15
113.8037248224
 25
95.7347353047
 35
0.0
 40
0.0
  0
DIMENSION
  5
23B
330
1F
100
AcDbEntity
  8
SLD-0
100
AcDbDimension
  2
_D_8
 10
128.6983736569
 20
35.0061838631
 30
0.0
 11
117.1981661187
 21
35.0061838631
 31
0.0
 70
   160
  1
<>\PNOMINAL
 71
     2
 42
-1.0
  3
SLDDIMSTYLE3
100
AcDbAlignedDimension
 13
105.6979585805
 23
71.0558424961
 33
0.0
 14
128.6983736569
 24
68.2558424961
 34
0.0
 50
0.0
100
AcDbRotatedDimension
  0
INSERT
  5
252
330
1F
100
AcDbEntity
  8
SLD-0
 62
     7
100
AcDbBlockReference
  2
SW_CENTERMARKSYMBOL_1
 10
114.1983736569
 20
92.0558424961
 30
0.0
  0
LINE
  5
253
330
1F
100
AcDbEntity
  8
0
  6
Continuous
 62
     7
370
    35
100
AcDbLine
 10
162.5823483078
 20
105.6322926949
 30
0.0
 11
162.1227289
 21
106.0919121026
 31
0.0
  0
LINE
  5
254
330
1F
100
AcDbEntity
  8
0
  6
Continuous
 62
     7
370
    35
100
AcDbLine
 10
159.2943017753
 20
103.2634849779
 30
0.0
 11
159.7539211831
 21
102.8038655701
 31
0.0
  0
LINE
  5
255
330
1F
100
AcDbEntity
  8
0
  6
Continuous
 62
     7
370
    35
100
AcDbLine
 10
162.1227289
 20
106.0919121026
 30
0.0
 11
161.9105968657
 21
106.0919121028
 31
0.0
  0
LINE
  5
256
330
1F
100
AcDbEntity
  8
0
  6
Continuous
 62
     7
370
    35
100
AcDbLine
 10
159.2943017751
 20
103.4756170123
 30
0.0
 11
159.2943017753
 21
103.2634849779
 31
0.0
  0
LINE
  5
257
330
1F
100
AcDbEntity
  8
0
  6
Continuous
 62
     7
370
    35
100
AcDbLine
 10
162.1227289
 20
106.0919121026
 30
0.0
 11
159.2943017753
 21
103.2634849779
 31
0.0
  0
LINE
  5
258
330
1F
100
AcDbEntity
  8
0
  6
Continuous
 62
     7
370
    35
100
AcDbLine
 10
161.9105968657
 20
106.0919121028
 30
0.0
 11
159.2943017751
 21
103.4756170123
 31
0.0
  0
LINE
  5
259
330
1F
100
AcDbEntity
  8
0
  6
Continuous
 62
     7
370
    35
100
AcDbLine
 10
184.3303713818
 20
110.0558424961
 30
0.0
 11
184.3303713818
 21
107.9575003587
 31
0.0
  0
ARC
  5
25A
330
1F
100
AcDbEntity
  8
0
  6
Continuous
 62
     7
370
    35
100
AcDbCircle
 10
191.3303713818
 20
110.0558424961
 30
0.0
 40
7.0
100
AcDbArc
 50
0.0
 51
180.0
  0
LINE
  5
25B
330
1F
100
AcDbEntity
  8
0
  6
Continuous
 62
     7
370
    35
100
AcDbLine
 10
198.3303713818
 20
74.0558424961
 30
0.0
 11
198.3303713818
 21
110.0558424961
 31
0.0
  0
ARC
  5
25C
330
1F
100
AcDbEntity
  8
0
  6
Continuous
 62
     7
370
    35
100
AcDbCircle
 10
191.3303713818
 20
74.0558424961
 30
0.0
 40
7.0
100
AcDbArc
 50
270.0
 51
0.0
  0
LINE
  5
25D
330
1F
100
AcDbEntity
  8
0
  6
Continuous
 62
     7
370
    35
100
AcDbLine
 10
155.3303713818
 20
67.0558424961
 30
0.0
 11
191.3303713818
 21
67.0558424961
 31
0.0
  0
ARC
  5
25E
330
1F
100
AcDbEntity
  8
0
  6
Continuous
 62
     7
370
    35
100
AcDbCircle
 10
155.3303713818
 20
74.0558424961
 30
0.0
 40
7.0
100
AcDbArc
 50
90.0
 51
270.0
  0
LINE
  5
25F
330
1F
100
AcDbEntity
  8
0
  6
Continuous
 62
     7
370
    35
100
AcDbLine
 10
157.4287135193
 20
81.0558424961
 30
0.0
 11
155.3303713818
 21
81.0558424961
 31
0.0
  0
ARC
  5
260
330
1F
100
AcDbEntity
  8
0
  6
Continuous
 62
     7
370
    35
100
AcDbCircle
 10
191.3303713818
 20
111.0558424961
 30
0.0
 40
5.800000000000011
100
AcDbArc
 50
0.0
 51
170.7340114027
  0
SPLINE
  5
261
330
1F
100
AcDbEntity
  8
0
  6
Continuous
 62
     7
370
    35
100
AcDbSpline
210
0.0
220
0.0
230
1.0
 70
     8
 71
     3
 72
    13
 73
     9
 74
     0
 42
0.00000001
 43
0.00000001
 40
0.0
 40
0.0
 40
0.0
 40
0.0
 40
0.0224989078492181
 40
0.1435312471936049
 40
0.3582801350398533
 40
0.5723841297780562
 40
0.7861868575476358
 40
1.0
 40
1.0
 40
1.0
 40
1.0
 10
185.6060528423314
 20
111.9897468050047
 30
0.0
 10
185.6037106089441
 20
111.9899365772794
 30
0.0
 10
185.5887683867906
 20
111.9911472249892
 30
0.0
 10
185.551575272515
 20
111.9941543209366
 30
0.0
 10
185.4974964116559
 20
111.9985067312863
 30
0.0
 10
185.4469703719717
 20
112.0025527745296
 30
0.0
 10
185.4126555291986
 20
112.0052903369846
 30
0.0
 10
185.408253773689
 20
112.0056408408087
 30
0.0
 10
185.4060528423314
 20
112.005816096989
 30
0.0
  0
ARC
  5
262
330
1F
100
AcDbEntity
  8
0
  6
Continuous
 62
     7
370
    35
100
AcDbCircle
 10
191.3303713818
 20
111.0558424961
 30
0.0
 40
6.000000000000021
100
AcDbArc
 50
0.0
 51
170.8900851604
  0
LINE
  5
263
330
1F
100
AcDbEntity
  8
0
  6
Continuous
 62
     7
370
    35
100
AcDbLine
 10
197.1303713818
 20
111.0558424961
 30
0.0
 11
197.3303713818
 21
111.0558424961
 31
0.0
  0
ARC
  5
264
330
1F
100
AcDbEntity
  8
0
  6
Continuous
 62
     7
370
    35
100
AcDbCircle
 10
173.3303713818
 20
76.7823360225
 30
0.0
 40
2.5
100
AcDbArc
 50
67.4522108954
 51
112.5477891046
  0
ARC
  5
265
330
1F
100
AcDbEntity
  8
0
  6
Continuous
 62
     7
370
    35
100
AcDbCircle
 10
173.3303713818
 20
92.0558424961
 30
0.0
 40
13.00000000000002
100
AcDbArc
 50
274.2288941723
 51
355.7711058277
  0
ARC
  5
266
330
1F
100
AcDbEntity
  8
0
  6
Continuous
 62
     7
370
    35
100
AcDbCircle
 10
188.6038778555
 20
92.0558424961
 30
0.0
 40
2.50000000000002
100
AcDbArc
 50
157.4522108954
 51
202.5477891046
  0
ARC
  5
267
330
1F
100
AcDbEntity
  8
0
  6
Continuous
 62
     7
370
    35
100
AcDbCircle
 10
173.3303713818
 20
92.0558424961
 30
0.0
 40
13.00000000000002
100
AcDbArc
 50
4.2288941723
 51
265.7711058277
  0
LINE
  5
268
330
1F
100
AcDbEntity
  8
0
  6
Continuous
 62
     7
370
    35
100
AcDbLine
 10
197.1303713818
 20
74.0558424961
 30
0.0
 11
197.1303713818
 21
111.0558424961
 31
0.0
  0
ARC
  5
269
330
1F
100
AcDbEntity
  8
0
  6
Continuous
 62
     7
370
    35
100
AcDbCircle
 10
191.3303713818
 20
74.0558424961
 30
0.0
 40
5.800000000000011
100
AcDbArc
 50
270.0
 51
0.0
  0
LINE
  5
26A
330
1F
100
AcDbEntity
  8
0
  6
Continuous
 62
     7
370
    35
100
AcDbLine
 10
154.3303713818
 20
68.2558424961
 30
0.0
 11
191.3303713818
 21
68.2558424961
 31
0.0
  0
ARC
  5
26B
330
1F
100
AcDbEntity
  8
0
  6
Continuous
 62
     7
370
    35
100
AcDbCircle
 10
154.3303713818
 20
74.0558424961
 30
0.0
 40
5.800000000000014
100
AcDbArc
 50
99.2659885973
 51
270.0
  0
LINE
  5
26C
330
1F
100
AcDbEntity
  8
0
  6
Continuous
 62
     7
370
    35
100
AcDbLine
 10
154.3303713818
 20
79.7801610356
 30
0.0
 11
153.3964670729
 21
79.7801610356
 31
0.0
  0
ARC
  5
26D
330
1F
100
AcDbEntity
  8
0
  6
Continuous
 62
     7
370
    35
100
AcDbCircle
 10
154.3303713818
 20
84.9801610356
 30
0.0
 40
5.200000000000017
100
AcDbArc
 50
270.0
 51
0.0
  0
LINE
  5
26E
330
1F
100
AcDbEntity
  8
0
  6
Continuous
 62
     7
370
    35
100
AcDbLine
 10
159.5303713818
 20
101.9661022065
 30
0.0
 11
159.5303713818
 21
84.9801610356
 31
0.0
  0
ARC
  5
26F
330
1F
100
AcDbEntity
  8
0
  6
Continuous
 62
     7
370
    35
100
AcDbCircle
 10
160.3303713818
 20
101.9661022065
 30
0.0
 40
0.7999999999999984
100
AcDbArc
 50
135.0
 51
180.0
  0
LINE
  5
270
330
1F
100
AcDbEntity
  8
0
  6
Continuous
 62
     7
370
    35
100
AcDbLine
 10
162.8544262464
 20
105.621527921
 30
0.0
 11
159.7646859569
 21
102.5317876315
 31
0.0
  0
ARC
  5
271
330
1F
100
AcDbEntity
  8
0
  6
Continuous
 62
     7
370
    35
100
AcDbCircle
 10
163.4201116714
 20
105.0558424961
 30
0.0
 40
0.8000000000000186
100
AcDbArc
 50
90.0
 51
135.0
  0
LINE
  5
272
330
1F
100
AcDbEntity
  8
0
  6
Continuous
 62
     7
370
    35
100
AcDbLine
 10
180.4060528423
 20
105.8558424961
 30
0.0
 11
163.4201116714
 21
105.8558424961
 31
0.0
  0
ARC
  5
273
330
1F
100
AcDbEntity
  8
0
  6
Continuous
 62
     7
370
    35
100
AcDbCircle
 10
180.4060528423
 20
111.0558424961
 30
0.0
 40
5.200000000000017
100
AcDbArc
 50
270.0
 51
0.0
  0
LINE
  5
274
330
1F
100
AcDbEntity
  8
0
  6
Continuous
 62
     7
370
    35
100
AcDbLine
 10
185.6060528423
 20
111.989746805
 30
0.0
 11
185.6060528423
 21
111.0558424961
 31
0.0
  0
LINE
  5
275
330
1F
100
AcDbEntity
  8
0
  6
Continuous
 62
     7
370
    35
100
AcDbLine
 10
197.3303713818
 20
111.0558424961
 30
0.0
 11
197.3303713818
 21
74.0558424961
 31
0.0
  0
LINE
  5
276
330
1F
100
AcDbEntity
  8
0
  6
Continuous
 62
     7
370
    35
100
AcDbLine
 10
197.1303713818
 20
74.0558424961
 30
0.0
 11
197.3303713818
 21
74.0558424961
 31
0.0
  0
LINE
  5
277
330
1F
100
AcDbEntity
  8
0
  6
Continuous
 62
     7
370
    35
100
AcDbLine
 10
185.4060528423
 20
111.0558424961
 30
0.0
 11
185.6060528423
 21
111.0558424961
 31
0.0
  0
LINE
  5
278
330
1F
100
AcDbEntity
  8
0
  6
Continuous
 62
     7
370
    35
100
AcDbLine
 10
185.4060528423
 20
111.0558424961
 30
0.0
 11
185.4060528423
 21
112.005816097
 31
0.0
  0
ARC
  5
279
330
1F
100
AcDbEntity
  8
0
  6
Continuous
 62
     7
370
    35
100
AcDbCircle
 10
180.4060528423
 20
111.0558424961
 30
0.0
 40
5.000000000000014
100
AcDbArc
 50
270.0
 51
0.0
  0
LINE
  5
27A
330
1F
100
AcDbEntity
  8
0
  6
Continuous
 62
     7
370
    35
100
AcDbLine
 10
180.4060528423
 20
106.0558424961
 30
0.0
 11
180.4060528423
 21
105.8558424961
 31
0.0
  0
LINE
  5
27B
330
1F
100
AcDbEntity
  8
0
  6
Continuous
 62
     7
370
    35
100
AcDbLine
 10
163.4201116714
 20
106.0558424961
 30
0.0
 11
180.4060528423
 21
106.0558424961
 31
0.0
  0
LINE
  5
27C
330
1F
100
AcDbEntity
  8
0
  6
Continuous
 62
     7
370
    35
100
AcDbLine
 10
163.4201116714
 20
106.0558424961
 30
0.0
 11
163.4201116714
 21
105.8558424961
 31
0.0
  0
ARC
  5
27D
330
1F
100
AcDbEntity
  8
0
  6
Continuous
 62
     7
370
    35
100
AcDbCircle
 10
163.4201116714
 20
105.0558424961
 30
0.0
 40
1.000000000000008
100
AcDbArc
 50
90.0
 51
135.0
  0
LINE
  5
27E
330
1F
100
AcDbEntity
  8
0
  6
Continuous
 62
     7
370
    35
100
AcDbLine
 10
162.7130048902
 20
105.7629492773
 30
0.0
 11
162.8544262464
 21
105.621527921
 31
0.0
  0
LINE
  5
27F
330
1F
100
AcDbEntity
  8
0
  6
Continuous
 62
     7
370
    35
100
AcDbLine
 10
159.6232646007
 20
102.6732089877
 30
0.0
 11
162.7130048902
 21
105.7629492773
 31
0.0
  0
LINE
  5
280
330
1F
100
AcDbEntity
  8
0
  6
Continuous
 62
     7
370
    35
100
AcDbLine
 10
159.6232646007
 20
102.6732089877
 30
0.0
 11
159.7646859569
 21
102.5317876315
 31
0.0
  0
ARC
  5
281
330
1F
100
AcDbEntity
  8
0
  6
Continuous
 62
     7
370
    35
100
AcDbCircle
 10
160.3303713818
 20
101.9661022065
 30
0.0
 40
1.0
100
AcDbArc
 50
135.0
 51
180.0
  0
LINE
  5
282
330
1F
100
AcDbEntity
  8
0
  6
Continuous
 62
     7
370
    35
100
AcDbLine
 10
159.3303713818
 20
101.9661022065
 30
0.0
 11
159.5303713818
 21
101.9661022065
 31
0.0
  0
LINE
  5
283
330
1F
100
AcDbEntity
  8
0
  6
Continuous
 62
     7
370
    35
100
AcDbLine
 10
159.3303713818
 20
84.9801610356
 30
0.0
 11
159.3303713818
 21
101.9661022065
 31
0.0
  0
LINE
  5
284
330
1F
100
AcDbEntity
  8
0
  6
Continuous
 62
     7
370
    35
100
AcDbLine
 10
159.3303713818
 20
84.9801610356
 30
0.0
 11
159.5303713818
 21
84.9801610356
 31
0.0
  0
ARC
  5
285
330
1F
100
AcDbEntity
  8
0
  6
Continuous
 62
     7
370
    35
100
AcDbCircle
 10
191.3303713818
 20
74.0558424961
 30
0.0
 40
6.0
100
AcDbArc
 50
270.0
 51
0.0
  0
LINE
  5
286
330
1F
100
AcDbEntity
  8
0
  6
Continuous
 62
     7
370
    35
100
AcDbLine
 10
191.3303713818
 20
68.2558424961
 30
0.0
 11
191.3303713818
 21
68.0558424961
 31
0.0
  0
LINE
  5
287
330
1F
100
AcDbEntity
  8
0
  6
Continuous
 62
     7
370
    35
100
AcDbLine
 10
191.3303713818
 20
68.0558424961
 30
0.0
 11
154.3303713818
 21
68.0558424961
 31
0.0
  0
LINE
  5
288
330
1F
100
AcDbEntity
  8
0
  6
Continuous
 62
     7
370
    35
100
AcDbLine
 10
154.3303713818
 20
68.2558424961
 30
0.0
 11
154.3303713818
 21
68.0558424961
 31
0.0
  0
LINE
  5
289
330
1F
100
AcDbEntity
  8
0
  6
Continuous
 62
     7
370
    35
100
AcDbLine
 10
154.3303713818
 20
79.7801610356
 30
0.0
 11
154.3303713818
 21
79.9801610356
 31
0.0
  0
ARC
  5
28A
330
1F
100
AcDbEntity
  8
0
  6
Continuous
 62
     7
370
    35
100
AcDbCircle
 10
154.3303713818
 20
84.9801610356
 30
0.0
 40
5.0
100
AcDbArc
 50
270.0
 51
0.0
  0
SPLINE
  5
28B
330
1F
100
AcDbEntity
  8
0
  6
Continuous
 62
     7
370
    35
100
AcDbSpline
210
0.0
220
0.0
230
1.0
 70
     8
 71
     3
 72
    13
 73
     9
 74
     0
 42
0.00000001
 43
0.00000001
 40
0.0
 40
0.0
 40
0.0
 40
0.0
 40
0.0224989078492111
 40
0.1435312471936206
 40
0.3582801350398566
 40
0.572384129778051
 40
0.7861868575476336
 40
1.0
 40
1.0
 40
1.0
 40
1.0
 10
153.3964670729277
 20
79.7801610356011
 30
0.0
 10
153.3962773006531
 20
79.78250326898838
 30
0.0
 10
153.3950666529435
 20
79.79744549114193
 30
0.0
 10
153.3920595569957
 20
79.83463860541742
 30
0.0
 10
153.3877071466462
 20
79.88871746627666
 30
0.0
 10
153.3836611034029
 20
79.9392435059608
 30
0.0
 10
153.3809235409478
 20
79.9735583487339
 30
0.0
 10
153.3805730371238
 20
79.97796010424344
 30
0.0
 10
153.3803977809434
 20
79.9801610356011
 30
0.0
  0
LINE
  5
28C
330
1F
100
AcDbEntity
  8
0
  6
Continuous
 62
     7
370
    35
100
AcDbLine
 10
153.3803977809
 20
79.9801610356
 30
0.0
 11
154.3303713818
 21
79.9801610356
 31
0.0
  0
ARC
  5
28D
330
1F
100
AcDbEntity
  8
0
  6
Continuous
 62
     7
370
    35
100
AcDbCircle
 10
154.3303713818
 20
74.0558424961
 30
0.0
 40
6.000000000000015
100
AcDbArc
 50
99.1099148396
 51
270.0
  0
CIRCLE
  5
28E
330
1F
100
AcDbEntity
  8
0
  6
Continuous
 62
     7
370
    35
100
AcDbCircle
 10
173.3303713818
 20
92.0558424961
 30
0.0
 40
11.99999999999999
  0
DIMENSION
  5
28F
330
1F
100
AcDbEntity
  8
SLD-0
 62
     7
100
AcDbDimension
  2
_D_9
 10
148.3303713818
 20
57.7862342794
 30
0.0
 11
173.3303713818
 21
57.7862342794
 31
0.0
 70
   160
  1
<>
 71
     2
 42
-1.0
  3
SLDDIMSTYLE0
100
AcDbAlignedDimension
 13
198.3303713818
 23
74.0558424961
 33
0.0
 14
148.3303713818
 24
74.0558424961
 34
0.0
 50
0.0
100
AcDbRotatedDimension
  0
DIMENSION
  5
299
330
1F
100
AcDbEntity
  8
SLD-0
 62
     7
100
AcDbDimension
  2
_D_10
 10
208.2503617642
 20
117.0558424961
 30
0.0
 11
208.2503617642
 21
92.0558424961
 31
0.0
 70
   160
  1
<>
 71
     2
 42
-1.0
  3
SLDDIMSTYLE0
100
AcDbAlignedDimension
 13
191.3303713818
 23
67.0558424961
 33
0.0
 14
191.3303713818
 24
117.0558424961
 34
0.0
 50
90.0
100
AcDbRotatedDimension
  0
DIMENSION
  5
2A3
330
1F
100
AcDbEntity
  8
SLD-0
 62
     7
100
AcDbDimension
  2
_D_11
 10
176.4361999231
 20
80.4647325806
 30
0.0
 11
152.6247569493
 21
130.2276411989
 31
0.0
 70
   163
  1
ACCEPTS\P%%c1" OPTICS
 71
     1
 42
-1.0
  3
SLDDIMSTYLE4
100
AcDbDiametricDimension
 15
170.2245428406
 25
103.6469524116
 35
0.0
 40
0.0
  0
DIMENSION
  5
2AE
330
1F
100
AcDbEntity
  8
SLD-0
100
AcDbDimension
  2
_D_12
 10
164.6654599019
 20
100.3576079134
 30
0.0
 11
142.2242610406
 21
115.8064838797
 31
0.0
 70
   163
  1
C.A.<>
 71
     1
 42
-1.0
  3
SLDDIMSTYLE5
100
AcDbDiametricDimension
 15
181.9952828618
 25
83.7540770788
 35
0.0
 40
0.0
  0
INSERT
  5
2C6
330
1F
100
AcDbEntity
  8
SLD-0
 62
     7
100
AcDbBlockReference
  2
SW_CENTERMARKSYMBOL_2
 10
173.3303713818
 20
92.0558424961
 30
0.0
  0
LINE
  5
2C7
330
1F
100
AcDbEntity
  8
0
  6
Continuous
 62
     7
370
    35
100
AcDbLine
 10
223.0484067206
 20
166.2851743926
 30
0.0
 11
223.0484067206
 21
165.8769703367
 31
0.0
  0
LINE
  5
2C8
330
1F
100
AcDbEntity
  8
0
  6
Continuous
 62
     7
370
    35
100
AcDbLine
 10
226.0531221105
 20
160.6720866591
 30
0.0
 11
226.4066180388
 21
160.4679514589
 31
0.0
  0
LINE
  5
2C9
330
1F
100
AcDbEntity
  8
0
  6
Continuous
 62
     7
370
    35
100
AcDbLine
 10
248.5042508433
 20
122.1943591519
 30
0.0
 11
248.5042508433
 21
121.786155096
 31
0.0
  0
LINE
  5
2CA
330
1F
100
AcDbEntity
  8
0
  6
Continuous
 62
     7
370
    35
100
AcDbLine
 10
251.5089662333
 20
116.5812714185
 30
0.0
 11
251.8624621615
 21
116.3771362182
 31
0.0
  0
LWPOLYLINE
  5
2CB
330
1F
100
AcDbEntity
  8
0
  6
Continuous
 62
     7
370
    35
100
AcDbPolyline
 90
        3
 70
   128
 43
0.0
 10
237.4549923153
 20
170.3145818812
 10
237.265455731
 20
170.7033124274
 10
237.0625830772
 20
170.9722338923
  0
LWPOLYLINE
  5
2CC
330
1F
100
AcDbEntity
  8
0
  6
Continuous
 62
     7
370
    35
100
AcDbPolyline
 90
        3
 70
   128
 43
0.0
 10
236.0110641997
 20
171.5890169614
 10
235.8564248444
 20
171.6173921189
 10
235.6877807315
 20
171.6342744541
  0
ARC
  5
2CD
330
1F
100
AcDbEntity
  8
0
  6
Continuous
 62
     7
370
    35
100
AcDbCircle
 10
235.5730648504
 20
169.6375670979
 30
0.0
 40
1.999999999999994
100
AcDbArc
 50
333.2827960437
 51
358.0555137119
  0
LWPOLYLINE
  5
2CE
330
1F
100
AcDbEntity
  8
0
  6
Continuous
 62
     7
370
    35
100
AcDbPolyline
 90
        3
 70
   128
 43
0.0
 10
237.5719131943
 20
169.7054294452
 10
237.556532063
 20
169.8941948762
 10
237.4549923153
 20
170.3145818812
  0
LWPOLYLINE
  5
2CF
330
1F
100
AcDbEntity
  8
0
  6
Continuous
 62
     7
370
    35
100
AcDbPolyline
 90
        3
 70
   128
 43
0.0
 10
261.4538299615
 20
127.5219534645
 10
261.3387562034
 20
127.5418676342
 10
261.1301320327
 20
127.5606457646
  0
LINE
  5
2D0
330
1F
100
AcDbEntity
  8
0
  6
Continuous
 62
     7
370
    35
100
AcDbLine
 10
262.8235175153
 20
124.6272982376
 30
0.0
 11
262.9518860855
 21
124.9269629726
 31
0.0
  0
LINE
  5
2D1
330
1F
100
AcDbEntity
  8
0
  6
Continuous
 62
     7
370
    35
100
AcDbLine
 10
224.5537324417
 20
166.7402496863
 30
0.0
 11
222.0520779679
 21
165.2960752986
 31
0.0
  0
LINE
  5
2D2
330
1F
100
AcDbEntity
  8
0
  6
Continuous
 62
     7
370
    35
100
AcDbLine
 10
225.0518341658
 20
160.0997821244
 30
0.0
 11
227.5534886396
 21
161.543956512
 31
0.0
  0
LINE
  5
2D3
330
1F
100
AcDbEntity
  8
0
  6
Continuous
 62
     7
370
    35
100
AcDbLine
 10
250.0095765644
 20
122.6494344456
 30
0.0
 11
247.5344093269
 21
121.220550814
 31
0.0
  0
LINE
  5
2D4
330
1F
100
AcDbEntity
  8
0
  6
Continuous
 62
     7
370
    35
100
AcDbLine
 10
250.5341655248
 20
116.0242576397
 30
0.0
 11
253.0093327623
 21
117.4531412713
 31
0.0
  0
SPLINE
  5
2D5
330
1F
100
AcDbEntity
  8
0
  6
Continuous
 62
     7
370
    35
100
AcDbSpline
210
0.0
220
0.0
230
1.0
 70
     8
 71
     3
 72
    11
 73
     7
 74
     0
 42
0.00000001
 43
0.00000001
 40
0.0
 40
0.0
 40
0.0
 40
0.0
 40
0.3014605137007931
 40
0.6377004904166198
 40
0.9207411289243327
 40
1.0
 40
1.0
 40
1.0
 40
1.0
 10
225.9638311917407
 20
160.0887548082177
 30
0.0
 10
225.8977737409741
 20
160.0625560508827
 30
0.0
 10
225.7580377993332
 20
160.0071359887469
 30
0.0
 10
225.6291864190348
 20
159.8741716083005
 30
0.0
 10
225.5660187489762
 20
159.7495128446909
 30
0.0
 10
225.5770937738695
 20
159.6830822206585
 30
0.0
 10
225.5795166144943
 20
159.6685494483903
 30
0.0
  0
LINE
  5
2D6
330
1F
100
AcDbEntity
  8
0
  6
Continuous
 62
     7
370
    35
100
AcDbLine
 10
227.071778966
 20
152.814779572
 30
0.0
 11
227.071778966
 21
157.3597359374
 31
0.0
  0
LINE
  5
2D7
330
1F
100
AcDbEntity
  8
0
  6
Continuous
 62
     7
370
    35
100
AcDbLine
 10
225.571778966
 20
159.6717884948
 30
0.0
 11
225.571778966
 21
151.6696885383
 31
0.0
  0
SPLINE
  5
2D8
330
1F
100
AcDbEntity
  8
0
  6
Continuous
 62
     7
370
    35
100
AcDbSpline
210
0.0
220
0.0
230
1.0
 70
     8
 71
     3
 72
     9
 73
     5
 74
     0
 42
0.00000001
 43
0.00000001
 40
0.0
 40
0.0
 40
0.0
 40
0.0
 40
0.7859060048061072
 40
1.0
 40
1.0
 40
1.0
 40
1.0
 10
225.5792415112881
 20
151.6687646581865
 30
0.0
 10
225.582587183927
 20
151.6310441243384
 30
0.0
 10
225.5868442739842
 20
151.5830478835445
 30
0.0
 10
225.5966091742649
 20
151.5351564852992
 30
0.0
 10
225.5986997807787
 20
151.5249032245134
 30
0.0
  0
SPLINE
  5
2D9
330
1F
100
AcDbEntity
  8
0
  6
Continuous
 62
     7
370
    35
100
AcDbSpline
210
0.0
220
0.0
230
1.0
 70
     8
 71
     3
 72
     9
 73
     5
 74
     0
 42
0.00000001
 43
0.00000001
 40
0.0
 40
0.0
 40
0.0
 40
0.0
 40
0.5575678222574164
 40
1.0
 40
1.0
 40
1.0
 40
1.0
 10
226.3253687069932
 20
151.1961473176917
 30
0.0
 10
226.4042291822223
 20
151.1989272678275
 30
0.0
 10
226.5456657430873
 20
151.2039131189201
 30
0.0
 10
226.6655422270359
 20
151.2500628361769
 30
0.0
 10
226.7185794408894
 20
151.270480956085
 30
0.0
  0
SPLINE
  5
2DA
330
1F
100
AcDbEntity
  8
0
  6
Continuous
 62
     7
370
    35
100
AcDbSpline
210
0.0
220
0.0
230
1.0
 70
     8
 71
     3
 72
    12
 73
     8
 74
     0
 42
0.00000001
 43
0.00000001
 40
0.0
 40
0.0
 40
0.0
 40
0.0
 40
0.1541531585621872
 40
0.4214260339480614
 40
0.6995408710721224
 40
0.9800698090007461
 40
1.0
 40
1.0
 40
1.0
 40
1.0
 10
225.621864984952
 20
151.4953678626534
 30
0.0
 10
225.6418777165254
 20
151.4672528024369
 30
0.0
 10
225.6965887985046
 20
151.3903914625084
 30
0.0
 10
225.8416334333377
 20
151.2903982860949
 30
0.0
 10
226.0570052366779
 20
151.2180181215418
 30
0.0
 10
226.2312435076576
 20
151.1869024808784
 30
0.0
 10
226.3195135392834
 20
151.1955722318446
 30
0.0
 10
226.3253687069932
 20
151.1961473176917
 30
0.0
  0
LINE
  5
2DB
330
1F
100
AcDbEntity
  8
0
  6
Continuous
 62
     7
370
    35
100
AcDbLine
 10
248.0696702091
 20
122.0201510394
 30
0.0
 11
248.0464966142
 21
122.0411376726
 31
0.0
  0
SPLINE
  5
2DC
330
1F
100
AcDbEntity
  8
0
  6
Continuous
 62
     7
370
    35
100
AcDbSpline
210
0.0
220
0.0
230
1.0
 70
     8
 71
     3
 72
    12
 73
     8
 74
     0
 42
0.00000001
 43
0.00000001
 40
0.0
 40
0.0
 40
0.0
 40
0.0
 40
0.0809536001206522
 40
0.3760136991489562
 40
0.6689947688151476
 40
0.9828180492738583
 40
0.9999999999999999
 40
0.9999999999999999
 40
0.9999999999999999
 40
0.9999999999999999
 10
247.3901835798313
 20
121.835039828525
 30
0.0
 10
247.4013064477106
 20
121.8249781937693
 30
0.0
 10
247.4529700017736
 20
121.7782438607888
 30
0.0
 10
247.5866941569671
 20
121.7645545339082
 30
0.0
 10
247.757909454211
 20
121.8078925456894
 30
0.0
 10
247.882640443848
 20
121.8708422455748
 30
0.0
 10
247.9386653010477
 20
121.9294646424518
 30
0.0
 10
247.9415734615393
 20
121.9325076370624
 30
0.0
  0
LINE
  5
2DD
330
1F
100
AcDbEntity
  8
0
  6
Continuous
 62
     7
370
    35
100
AcDbLine
 10
240.4729492615
 20
125.8186605401
 30
0.0
 11
247.4025957171
 21
121.8182607921
 31
0.0
  0
LINE
  5
2DE
330
1F
100
AcDbEntity
  8
0
  6
Continuous
 62
     7
370
    35
100
AcDbLine
 10
246.1649374342
 20
124.2647496023
 30
0.0
 11
242.1681064943
 21
126.5720709911
 31
0.0
  0
SPLINE
  5
2DF
330
1F
100
AcDbEntity
  8
0
  6
Continuous
 62
     7
370
    35
100
AcDbSpline
210
0.0
220
0.0
230
1.0
 70
     8
 71
     3
 72
    12
 73
     8
 74
     0
 42
0.00000001
 43
0.00000001
 40
0.0
 40
0.0
 40
0.0
 40
0.0
 40
0.2011827675619465
 40
0.4219455597308526
 40
0.646398724646406
 40
0.8444096331317824
 40
1.0
 40
1.0
 40
1.0
 40
1.0
 10
240.4413265516672
 20
126.7106613564051
 30
0.0
 10
240.4054239272852
 20
126.6424205351273
 30
0.0
 10
240.3301244713516
 20
126.4992973845737
 30
0.0
 10
240.2811976575046
 20
126.2687045448211
 30
0.0
 10
240.2926263642429
 20
126.063626857453
 30
0.0
 10
240.3576635085371
 20
125.9041113599298
 30
0.0
 10
240.4382919549304
 20
125.848855981529
 30
0.0
 10
240.4737697951667
 20
125.8245427078049
 30
0.0
  0
SPLINE
  5
2E0
330
1F
100
AcDbEntity
  8
0
  6
Continuous
 62
     7
370
    35
100
AcDbSpline
210
0.0
220
0.0
230
1.0
 70
     8
 71
     3
 72
    10
 73
     6
 74
     0
 42
0.00000001
 43
0.00000001
 40
0.0
 40
0.0
 40
0.0
 40
0.0
 40
0.4298707813662885
 40
0.9567833891301883
 40
0.9999999999999999
 40
0.9999999999999999
 40
0.9999999999999999
 40
0.9999999999999999
 10
240.7433249229428
 20
127.0455762041838
 30
0.0
 10
240.6948517540322
 20
127.0082204137263
 30
0.0
 10
240.5869627677542
 20
126.9250758936825
 30
0.0
 10
240.4820899348156
 20
126.7981465489123
 30
0.0
 10
240.4441987571711
 20
126.7168256006856
 30
0.0
 10
240.4413265516672
 20
126.7106613564051
 30
0.0
  0
LINE
  5
2E1
330
1F
100
AcDbEntity
  8
0
  6
Continuous
 62
     7
370
    35
100
AcDbLine
 10
259.6954036093
 20
151.8622916537
 30
0.0
 11
260.0204036093
 21
152.0499711516
 31
0.0
  0
LINE
  5
2E2
330
1F
100
AcDbEntity
  8
0
  6
Continuous
 62
     7
370
    35
100
AcDbLine
 10
258.0200785927
 20
155.513885098
 30
0.0
 11
257.6950785927
 21
155.3262056
 31
0.0
  0
LINE
  5
2E3
330
1F
100
AcDbEntity
  8
0
  6
Continuous
 62
     7
370
    35
100
AcDbLine
 10
237.5719131943
 20
170.4895211372
 30
0.0
 11
237.5719131943
 21
168.1661558635
 31
0.0
  0
LINE
  5
2E4
330
1F
100
AcDbEntity
  8
0
  6
Continuous
 62
     7
370
    35
100
AcDbLine
 10
255.0091702276
 20
113.9889458217
 30
0.0
 11
262.0802380395
 21
118.0709863809
 31
0.0
  0
LINE
  5
2E5
330
1F
100
AcDbEntity
  8
0
  6
Continuous
 62
     7
370
    35
100
AcDbLine
 10
229.6249627883
 20
174.2864856949
 30
0.0
 11
222.5538949765
 21
170.2044451358
 31
0.0
  0
LINE
  5
2E6
330
1F
100
AcDbEntity
  8
0
  6
Continuous
 62
     7
370
    35
100
AcDbLine
 10
262.194286715
 20
153.0915026925
 30
0.0
 11
260.0095104041
 21
156.875646255
 31
0.0
  0
SPLINE
  5
2E7
330
1F
100
AcDbEntity
  8
0
  6
Continuous
 62
     7
370
    35
100
AcDbSpline
210
0.0
220
0.0
230
1.0
 70
     8
 71
     3
 72
    10
 73
     6
 74
     0
 42
0.00000001
 43
0.00000001
 40
0.0
 40
0.0
 40
0.0
 40
0.0
 40
0.2172716130993877
 40
0.616863320309086
 40
1.0
 40
1.0
 40
1.0
 40
1.0
 10
262.3867670593086
 20
152.4339492962393
 30
0.0
 10
262.3847182152641
 20
152.4803962321659
 30
0.0
 10
262.3789012715684
 20
152.6122653277424
 30
0.0
 10
262.3225515169456
 20
152.8398530891765
 30
0.0
 10
262.2364382055442
 20
153.0088034194755
 30
0.0
 10
262.1942867149892
 20
153.0915026925142
 30
0.0
  0
SPLINE
  5
2E8
330
1F
100
AcDbEntity
  8
0
  6
Continuous
 62
     7
370
    35
100
AcDbSpline
210
0.0
220
0.0
230
1.0
 70
     8
 71
     3
 72
    10
 73
     6
 74
     0
 42
0.00000001
 43
0.00000001
 40
0.0
 40
0.0
 40
0.0
 40
0.0
 40
0.2117267863102771
 40
0.6114621517914421
 40
1.0
 40
1.0
 40
1.0
 40
1.0
 10
260.009510404139
 20
156.8756462549737
 30
0.0
 10
259.9826112858283
 20
156.9191228355892
 30
0.0
 10
259.9049272428685
 20
157.0446822133089
 30
0.0
 10
259.7475206865881
 20
157.2274044386058
 30
0.0
 10
259.6060350866355
 20
157.3236562527353
 30
0.0
 10
259.5362971967728
 20
157.3710985254125
 30
0.0
  0
LINE
  5
2E9
330
1F
100
AcDbEntity
  8
0
  6
Continuous
 62
     7
370
    35
100
AcDbLine
 10
262.3867670593
 20
138.5642351019
 30
0.0
 11
262.3867670593
 21
152.4339492962
 31
0.0
  0
LINE
  5
2EA
330
1F
100
AcDbEntity
  8
0
  6
Continuous
 62
     7
370
    35
100
AcDbLine
 10
259.5362971968
 20
157.3710985254
 30
0.0
 11
247.52542301
 21
164.3048286049
 31
0.0
  0
LINE
  5
2EB
330
1F
100
AcDbEntity
  8
0
  6
Continuous
 62
     7
370
    35
100
AcDbLine
 10
264.1965737636
 20
119.6309821383
 30
0.0
 11
268.8634785194
 21
122.3251289073
 31
0.0
  0
LINE
  5
2EC
330
1F
100
AcDbEntity
  8
0
  6
Continuous
 62
     7
370
    35
100
AcDbLine
 10
236.7010152197
 20
178.0332753644
 30
0.0
 11
232.0341104638
 21
175.3391285954
 31
0.0
  0
SPLINE
  5
2ED
330
1F
100
AcDbEntity
  8
0
  6
Continuous
 62
     7
370
    35
100
AcDbSpline
210
0.0
220
0.0
230
1.0
 70
     8
 71
     3
 72
    23
 73
    19
 74
     0
 42
0.00000001
 43
0.00000001
 40
0.0
 40
0.0
 40
0.0
 40
0.0
 40
0.0365105380020774
 40
0.101728758596263
 40
0.1673904198871806
 40
0.2332924839206821
 40
0.2992781590907855
 40
0.3652417419407721
 40
0.4311565841868834
 40
0.497020185784026
 40
0.5628419683917635
 40
0.6286367179050065
 40
0.694421476543205
 40
0.7602137444604159
 40
0.8260264419030605
 40
0.8918783043148855
 40
0.9577877362630222
 40
1.0
 40
1.0
 40
1.0
 40
1.0
 10
269.8074166325528
 20
123.401366917181
 30
0.0
 10
269.8463150502389
 20
123.4808010863806
 30
0.0
 10
269.9546971218023
 20
123.7021273079318
 30
0.0
 10
270.0688037861258
 20
124.1244172105376
 30
0.0
 10
270.1531367039906
 20
124.6564325716906
 30
0.0
 10
270.1743315036312
 20
125.2316819772015
 30
0.0
 10
270.1356034335518
 20
125.8382793697116
 30
0.0
 10
270.0368463925398
 20
126.4682248411972
 30
0.0
 10
269.8800202575863
 20
127.1123423629078
 30
0.0
 10
269.6674956518656
 20
127.7618156048997
 30
0.0
 10
269.4024099985239
 20
128.4077477428204
 30
0.0
 10
269.0885175831442
 20
129.0413179078434
 30
0.0
 10
268.7301877149353
 20
129.6539108260066
 30
0.0
 10
268.3323106780866
 20
130.2369742351513
 30
0.0
 10
267.9003852155338
 20
130.7830445494712
 30
0.0
 10
267.4398396037827
 20
131.2824945066761
 30
0.0
 10
267.0160606617536
 20
131.6816362403247
 30
0.0
 10
266.7439723928732
 20
131.8930847164098
 30
0.0
 10
266.6377452227115
 20
131.975637240052
 30
0.0
  0
SPLINE
  5
2EE
330
1F
100
AcDbEntity
  8
0
  6
Continuous
 62
     7
370
    35
100
AcDbSpline
210
0.0
220
0.0
230
1.0
 70
     8
 71
     3
 72
    23
 73
    19
 74
     0
 42
0.00000001
 43
0.00000001
 40
0.0
 40
0.0
 40
0.0
 40
0.0
 40
0.0243183564603137
 40
0.0900905756728928
 40
0.1558305900630312
 40
0.221523869131367
 40
0.2871833553885224
 40
0.352825310296111
 40
0.4184673709375936
 40
0.4841238784712176
 40
0.5498113266116076
 40
0.6155483394214595
 40
0.6813524923923595
 40
0.747237667050115
 40
0.8132081971074014
 40
0.8792473225625702
 40
0.9452731396798186
 40
1.0
 40
1.0
 40
1.0
 40
1.0
 10
243.9462671811901
 20
171.2801211426107
 30
0.0
 10
243.9361837389268
 20
171.3568560232685
 30
0.0
 10
243.8988282901838
 20
171.6411305622953
 30
0.0
 10
243.79135852011
 20
172.1469842259965
 30
0.0
 10
243.6038792777515
 20
172.7947169528662
 30
0.0
 10
243.3609223799816
 20
173.443394913352
 30
0.0
 10
243.0678387638486
 20
174.0833884750337
 30
0.0
 10
242.7282398216992
 20
174.7061518318303
 30
0.0
 10
242.3469406309706
 20
175.303107768666
 30
0.0
 10
241.9291049319809
 20
175.8660675452869
 30
0.0
 10
241.4803777300825
 20
176.3872700326191
 30
0.0
 10
241.0067381045504
 20
176.8594838298384
 30
0.0
 10
240.5144074625941
 20
177.2761570922938
 30
0.0
 10
240.0098475059758
 20
177.6311352826617
 30
0.0
 10
239.499413220669
 20
177.9199154002462
 30
0.0
 10
238.9905093617992
 20
178.1350298083327
 30
0.0
 10
238.5158884140684
 20
178.27495594594
 30
0.0
 10
238.2210739639013
 20
178.3043215859705
 30
0.0
 10
238.0874597900621
 20
178.3176305188593
 30
0.0
  0
SPLINE
  5
2EF
330
1F
100
AcDbEntity
  8
0
  6
Continuous
 62
     7
370
    35
100
AcDbSpline
210
0.0
220
0.0
230
1.0
 70
     8
 71
     3
 72
    13
 73
     9
 74
     0
 42
0.00000001
 43
0.00000001
 40
0.0
 40
0.0
 40
0.0
 40
0.0
 40
0.0969660797346869
 40
0.2848176449257153
 40
0.4725165780983815
 40
0.6599939882019908
 40
0.847190235712657
 40
1.0
 40
1.0
 40
1.0
 40
1.0
 10
263.1869101441073
 20
135.5182264602751
 30
0.0
 10
263.1364315903252
 20
135.6171846239201
 30
0.0
 10
262.9881613617378
 20
135.9078536000471
 30
0.0
 10
262.7932665031224
 20
136.4040490150847
 30
0.0
 10
262.6038705862092
 20
136.9933731345719
 30
0.0
 10
262.4727173312721
 20
137.5730754197492
 30
0.0
 10
262.3987787213999
 20
138.1010468219971
 30
0.0
 10
262.3904915732993
 20
138.4206120782196
 30
0.0
 10
262.3867670593086
 20
138.5642351018819
 30
0.0
  0
SPLINE
  5
2F0
330
1F
100
AcDbEntity
  8
0
  6
Continuous
 62
     7
370
    35
100
AcDbSpline
210
0.0
220
0.0
230
1.0
 70
     8
 71
     3
 72
    15
 73
    11
 74
     0
 42
0.00000001
 43
0.00000001
 40
0.0
 40
0.0
 40
0.0
 40
0.0
 40
0.0744798709588933
 40
0.216807617119736
 40
0.3593367044585722
 40
0.5020205549205669
 40
0.6448488634525572
 40
0.7877849180253579
 40
0.9307812150968047
 40
1.0
 40
1.0
 40
1.0
 40
1.0
 10
265.9637141947422
 20
132.3687715618131
 30
0.0
 10
265.88531151795
 20
132.4158508963655
 30
0.0
 10
265.6570847861862
 20
132.5528967613552
 30
0.0
 10
265.2790951252967
 20
132.8304050921629
 30
0.0
 10
264.8391232368993
 20
133.2173718153974
 30
0.0
 10
264.4160065179976
 20
133.6597621796957
 30
0.0
 10
264.0164365610501
 20
134.1487846551141
 30
0.0
 10
263.6504282021818
 20
134.6776806749508
 30
0.0
 10
263.3708101114422
 20
135.1378269819023
 30
0.0
 10
263.2321404229784
 20
135.4246670391476
 30
0.0
 10
263.1869101441073
 20
135.5182264602751
 30
0.0
  0
SPLINE
  5
2F1
330
1F
100
AcDbEntity
  8
0
  6
Continuous
 62
     7
370
    35
100
AcDbSpline
210
0.0
220
0.0
230
1.0
 70
     8
 71
     3
 72
    13
 73
     9
 74
     0
 42
0.00000001
 43
0.00000001
 40
0.0
 40
0.0
 40
0.0
 40
0.0
 40
0.0969660797346896
 40
0.2848176449257154
 40
0.4725165780983731
 40
0.659993988202005
 40
0.8471902357126835
 40
1.0
 40
1.0
 40
1.0
 40
1.0
 10
244.7486189593353
 20
167.4542835033211
 30
0.0
 10
244.6981404055531
 20
167.5532416669661
 30
0.0
 10
244.5498701769658
 20
167.8439106430931
 30
0.0
 10
244.3549753183503
 20
168.3401060581307
 30
0.0
 10
244.1655794014372
 20
168.9294301776178
 30
0.0
 10
244.0344261465
 20
169.5091324627952
 30
0.0
 10
243.9604875366279
 20
170.037103865043
 30
0.0
 10
243.9522003885273
 20
170.3566691212655
 30
0.0
 10
243.9484758745366
 20
170.5002921449278
 30
0.0
  0
SPLINE
  5
2F2
330
1F
100
AcDbEntity
  8
0
  6
Continuous
 62
     7
370
    35
100
AcDbSpline
210
0.0
220
0.0
230
1.0
 70
     8
 71
     3
 72
    15
 73
    11
 74
     0
 42
0.00000001
 43
0.00000001
 40
0.0
 40
0.0
 40
0.0
 40
0.0
 40
0.0744798709588914
 40
0.2168076171197507
 40
0.3593367044585803
 40
0.5020205549205806
 40
0.644848863452569
 40
0.7877849180253559
 40
0.9307812150968181
 40
1.0
 40
1.0
 40
1.0
 40
1.0
 10
247.5254230099703
 20
164.304828604859
 30
0.0
 10
247.447020333178
 20
164.3519079394113
 30
0.0
 10
247.2187936014142
 20
164.4889538044011
 30
0.0
 10
246.8408039405246
 20
164.7664621352089
 30
0.0
 10
246.4008320521272
 20
165.1534288584434
 30
0.0
 10
245.9777153332255
 20
165.5958192227417
 30
0.0
 10
245.5781453762781
 20
166.0848416981601
 30
0.0
 10
245.2121370174096
 20
166.6137377179968
 30
0.0
 10
244.9325189266702
 20
167.0738840249483
 30
0.0
 10
244.7938492382063
 20
167.3607240821936
 30
0.0
 10
244.7486189593353
 20
167.4542835033211
 30
0.0
  0
LINE
  5
2F3
330
1F
100
AcDbEntity
  8
0
  6
Continuous
 62
     7
370
    35
100
AcDbLine
 10
266.6321123911
 20
131.9829134963
 30
0.0
 11
265.9637141947
 21
132.3687715618
 31
0.0
  0
LINE
  5
2F4
330
1F
100
AcDbEntity
  8
0
  6
Continuous
 62
     7
370
    35
100
AcDbLine
 10
243.9484758745
 20
170.5002921449
 30
0.0
 11
243.9484758745
 21
171.2721329817
 31
0.0
  0
LWPOLYLINE
  5
2F5
330
1F
100
AcDbEntity
  8
0
  6
Continuous
 62
     7
370
    35
100
AcDbPolyline
 90
       17
 70
   128
 43
0.0
 10
228.1310856946
 20
165.450352918
 10
227.7842389723
 20
165.9801271481
 10
227.3987328707
 20
166.4688429583
 10
226.983178959
 20
166.9055832448
 10
226.5468600248
 20
167.2805919514
 10
226.0995227123
 20
167.5854920032
 10
225.6511597977
 20
167.8134724369
 10
225.2117869677
 20
167.9594405464
 10
224.7912190852
 20
168.0201356452
 10
224.3988509418
 20
167.9942019053
 10
224.0434473935
 20
167.8822186434
 10
223.7329475681
 20
167.6866873806
 10
223.4742875188
 20
167.4119759622
 10
223.2732452836
 20
167.0642209873
 10
223.1343118138
 20
166.6511907275
 10
223.0605906536
 20
166.1821115962
 10
223.0484067206
 20
165.8769703367
  0
LWPOLYLINE
  5
2F6
330
1F
100
AcDbEntity
  8
0
  6
Continuous
 62
     7
370
    35
100
AcDbPolyline
 90
       17
 70
   128
 43
0.0
 10
226.0531221105
 20
160.6720866591
 10
226.4560612837
 20
160.4707337613
 10
226.8954341137
 20
160.3247656519
 10
227.3160019961
 20
160.264070553
 10
227.7083701395
 20
160.290004293
 10
228.0637736879
 20
160.4019875548
 10
228.3742735132
 20
160.5975188176
 10
228.6329335626
 20
160.872230236
 10
228.8339757978
 20
161.2199852109
 10
228.9729092676
 20
161.6330154707
 10
229.0466304278
 20
162.102094602
 10
229.0534924696
 20
162.6167441521
 10
228.9933421062
 20
163.1654677005
 10
228.8675229974
 20
163.7360076699
 10
228.6788457342
 20
164.3156191401
 10
228.4315250548
 20
164.8913545487
 10
228.1310856946
 20
165.450352918
  0
ARC
  5
2F7
330
1F
100
AcDbEntity
  8
0
  6
Continuous
 62
     7
370
    35
100
AcDbCircle
 10
227.8333541965
 20
162.5279422148
 30
0.0
 40
2.505820819294298
100
AcDbArc
 50
235.2937789993
 51
287.7816511899
  0
ARC
  5
2F8
330
1F
100
AcDbEntity
  8
0
  6
Continuous
 62
     7
370
    35
100
AcDbCircle
 10
225.6016907161
 20
166.4684692828
 30
0.0
 40
2.559854718219226
100
AcDbArc
 50
132.8077170962
 51
184.1060996263
  0
LWPOLYLINE
  5
2F9
330
1F
100
AcDbEntity
  8
0
  6
Continuous
 62
     7
370
    35
100
AcDbPolyline
 90
       10
 70
   128
 43
0.0
 10
227.5200635905
 20
165.0655735595
 10
227.2228027711
 20
165.5111026658
 10
226.8879631514
 20
165.9126309995
 10
226.5263067523
 20
166.2572531098
 10
226.149457508
 20
166.5338925584
 10
225.7695276633
 20
166.7336579258
 10
225.398728476
 20
166.8501285887
 10
225.0489777372
 20
166.8795610842
 10
224.7315167232
 20
166.8210094277
 10
224.5537324417
 20
166.7402496863
  0
LWPOLYLINE
  5
2FA
330
1F
100
AcDbEntity
  8
0
  6
Continuous
 62
     7
370
    35
100
AcDbPolyline
 90
       10
 70
   128
 43
0.0
 10
227.5534886396
 20
161.543956512
 10
227.7693979222
 20
161.7111176821
 10
227.9645611719
 20
161.9753812461
 10
228.0983048959
 20
162.3092850333
 10
228.166330461
 20
162.7020971012
 10
228.1664514695
 20
163.1411921466
 10
228.0986640321
 20
163.6124572937
 10
227.9651468928
 20
164.1007456927
 10
227.7701914023
 20
164.5903633528
 10
227.5200635905
 20
165.0655735595
  0
LWPOLYLINE
  5
2FB
330
1F
100
AcDbEntity
  8
0
  6
Continuous
 62
     7
370
    35
100
AcDbPolyline
 90
       19
 70
   128
 43
0.0
 10
254.1824917502
 20
120.0940839521
 10
253.9479471742
 20
120.6718228012
 10
253.658930705
 20
121.2356999251
 10
253.3218984929
 20
121.7731192406
 10
252.9443792806
 20
122.2720756883
 10
252.5348062235
 20
122.7214234056
 10
252.1023285069
 20
123.1111247071
 10
251.6566069683
 20
123.4324743095
 10
251.2075982904
 20
123.6782937939
 10
250.7653325851
 20
123.8430919592
 10
250.3396893374
 20
123.9231874866
 10
249.9401767141
 20
123.9167911744
 10
249.575719167
 20
123.8240459057
 10
249.2544580755
 20
123.6470234565
 10
248.9835698815
 20
123.3896782159
 10
248.7691057796
 20
123.0577588511
 10
248.6158565435
 20
122.6586798925
 10
248.5272455079
 20
122.2013561044
 10
248.5042508433
 20
121.786155096
  0
LWPOLYLINE
  5
2FC
330
1F
100
AcDbEntity
  8
0
  6
Continuous
 62
     7
370
    35
100
AcDbPolyline
 90
       15
 70
   128
 43
0.0
 10
251.5089662333
 20
116.5812714185
 10
251.8113110363
 20
116.4242819229
 10
252.2535767417
 20
116.2594837576
 10
252.6792199894
 20
116.1793882302
 10
253.0787326127
 20
116.1857845424
 10
253.4431901598
 20
116.2785298111
 10
253.7644512513
 20
116.4555522603
 10
254.0353394453
 20
116.712897501
 10
254.2498035472
 20
117.0448168657
 10
254.4030527833
 20
117.4438958243
 10
254.4916638189
 20
117.9012196125
 10
254.5136572299
 20
118.4065723723
 10
254.4685417199
 20
118.9486653583
 10
254.3573250948
 20
119.5153891089
 10
254.1824917502
 20
120.0940839521
  0
ARC
  5
2FD
330
1F
100
AcDbEntity
  8
0
  6
Continuous
 62
     7
370
    35
100
AcDbCircle
 10
253.2986304943
 20
118.5005245717
 30
0.0
 40
2.563465931160052
100
AcDbArc
 50
235.927274392
 51
287.1481557527
  0
ARC
  5
2FE
330
1F
100
AcDbEntity
  8
0
  6
Continuous
 62
     7
370
    35
100
AcDbCircle
 10
250.998066237
 20
122.4011310286
 30
0.0
 40
2.502372839293666
100
AcDbArc
 50
132.1740438547
 51
184.7397729352
  0
LWPOLYLINE
  5
2FF
330
1F
100
AcDbEntity
  8
0
  6
Continuous
 62
     7
370
    35
100
AcDbPolyline
 90
       12
 70
   128
 43
0.0
 10
253.3963043718
 20
120.0814968657
 10
253.1928831737
 20
120.5699904356
 10
252.9353551983
 20
121.041812478
 10
252.6319976064
 20
121.481798244
 10
252.2925605606
 20
121.8758062292
 10
251.927953847
 20
122.2111726928
 10
251.5498962253
 20
122.4771186806
 10
251.1705387786
 20
122.6650964698
 10
250.8020743672
 20
122.7690642996
 10
250.4563457406
 20
122.7856805584
 10
250.1444649012
 20
122.7144111859
 10
250.0095765644
 20
122.6494344456
  0
LWPOLYLINE
  5
300
330
1F
100
AcDbEntity
  8
0
  6
Continuous
 62
     7
370
    35
100
AcDbPolyline
 90
        9
 70
   128
 43
0.0
 10
253.0093327623
 20
117.4531412713
 10
253.0145077996
 20
117.4561494403
 10
253.2572509966
 20
117.65408724
 10
253.4438185813
 20
117.92907304
 10
253.5682141182
 20
118.2722685704
 10
253.6264394321
 20
118.6726432446
 10
253.6166231138
 20
119.117328691
 10
253.5390806676
 20
119.5920323534
 10
253.3963043718
 20
120.0814968657
  0
LWPOLYLINE
  5
301
330
1F
100
AcDbEntity
  8
0
  6
Continuous
 62
     7
370
    35
100
AcDbPolyline
 90
       36
 70
   128
 43
0.0
 10
221.6842492101
 20
162.6146507111
 10
221.5346681781
 20
163.1047716794
 10
221.4499244386
 20
163.58181638
 10
221.4327417253
 20
164.0304522036
 10
221.4836723045
 20
164.4362596259
 10
221.6010792257
 20
164.7861956622
 10
221.7811889337
 20
165.0690130805
 10
222.0182125544
 20
165.2756218962
 10
222.3045319535
 20
165.3993815321
 10
222.6309445901
 20
165.4363142515
 10
222.9869592933
 20
165.3852330066
 10
223.3611334576
 20
165.2477795904
 10
223.7414408177
 20
165.028371869
 10
224.115657982
 20
164.734061787
 10
224.4717573029
 20
164.3743087127
 10
224.7982934552
 20
163.9606754057
 10
225.0847712984
 20
163.506456381
 10
225.3219831989
 20
163.0262506118
 10
225.5023049709
 20
162.5354923065
 10
225.6199409244
 20
162.049954841
 10
225.6711101431
 20
161.5852437888
 10
225.6541680061
 20
161.1562953455
 10
225.5696590476
 20
160.7768962671
 10
225.4202994552
 20
160.4592407521
 10
225.210889769
 20
160.2135385101
 10
224.9481605887
 20
160.0476866133
 10
224.6405562462
 20
159.9670156782
 10
224.2979633983
 20
159.974118535
 10
223.9313932609
 20
160.068766892
 10
223.5526276998
 20
160.2479186731
 10
223.173840552
 20
160.5058157928
 10
222.8072063479
 20
160.8341692254
 10
222.4645090126
 20
161.2224254213
 10
222.1567631203
 20
161.6581055071
 10
221.8938598773
 20
162.1272063662
 10
221.6842492101
 20
162.6146507111
  0
LINE
  5
302
330
1F
100
AcDbEntity
  8
0
  6
Continuous
 62
     7
370
    35
100
AcDbLine
 10
222.8572428412
 20
163.5943704102
 30
0.0
 11
222.8330753625
 21
162.6658749942
 31
0.0
  0
LINE
  5
303
330
1F
100
AcDbEntity
  8
0
  6
Continuous
 62
     7
370
    35
100
AcDbLine
 10
222.8330753625
 20
162.6658749942
 30
0.0
 11
223.5277885882
 21
161.7694332955
 31
0.0
  0
LINE
  5
304
330
1F
100
AcDbEntity
  8
0
  6
Continuous
 62
     7
370
    35
100
AcDbLine
 10
223.5277885882
 20
161.7694332955
 30
0.0
 11
224.2466692925
 21
161.8014870128
 31
0.0
  0
LINE
  5
305
330
1F
100
AcDbEntity
  8
0
  6
Continuous
 62
     7
370
    35
100
AcDbLine
 10
224.2466692925
 20
161.8014870128
 30
0.0
 11
224.2708367712
 21
162.7299824288
 31
0.0
  0
LINE
  5
306
330
1F
100
AcDbEntity
  8
0
  6
Continuous
 62
     7
370
    35
100
AcDbLine
 10
224.2708367712
 20
162.7299824288
 30
0.0
 11
223.5761235455
 21
163.6264241275
 31
0.0
  0
LINE
  5
307
330
1F
100
AcDbEntity
  8
0
  6
Continuous
 62
     7
370
    35
100
AcDbLine
 10
223.5761235455
 20
163.6264241275
 30
0.0
 11
222.8572428412
 21
163.5943704102
 31
0.0
  0
LINE
  5
308
330
1F
100
AcDbEntity
  8
0
  6
Continuous
 62
     7
370
    35
100
AcDbLine
 10
224.2567889499
 20
162.1902762464
 30
0.0
 11
223.5277885882
 21
161.7694332955
 31
0.0
  0
LINE
  5
309
330
1F
100
AcDbEntity
  8
0
  6
Continuous
 62
     7
370
    35
100
AcDbLine
 10
223.8607552863
 20
163.2591419861
 30
0.0
 11
222.8330753625
 21
162.6658749942
 31
0.0
  0
ARC
  5
30A
330
1F
100
AcDbEntity
  8
0
  6
Continuous
 62
     7
370
    35
100
AcDbCircle
 10
233.6842392231
 20
168.5471712729
 30
0.0
 40
3.47641583362595
100
AcDbArc
 50
15.3618850784
 51
44.6327383888
  0
LWPOLYLINE
  5
30B
330
1F
100
AcDbEntity
  8
0
  6
Continuous
 62
     7
370
    35
100
AcDbPolyline
 90
       36
 70
   128
 43
0.0
 10
247.1665805692
 20
118.5391262264
 10
247.0169995371
 20
119.0292471948
 10
246.9322557977
 20
119.5062918953
 10
246.9150730843
 20
119.954927719
 10
246.9660036635
 20
120.3607351412
 10
247.0834105847
 20
120.7106711775
 10
247.2635202927
 20
120.9934885958
 10
247.5005439134
 20
121.2000974116
 10
247.7868633126
 20
121.3238570474
 10
248.1132759491
 20
121.3607897669
 10
248.4692906523
 20
121.3097085219
 10
248.8434648167
 20
121.1722551058
 10
249.2237721767
 20
120.9528473844
 10
249.597989341
 20
120.6585373024
 10
249.9540886619
 20
120.298784228
 10
250.2806248142
 20
119.8851509211
 10
250.5671026574
 20
119.4309318964
 10
250.8043145579
 20
118.9507261272
 10
250.9846363299
 20
118.4599678219
 10
251.1022722834
 20
117.9744303563
 10
251.1534415021
 20
117.5097193041
 10
251.1364993651
 20
117.0807708609
 10
251.0519904067
 20
116.7013717825
 10
250.9026308143
 20
116.3837162674
 10
250.6932211281
 20
116.1380140254
 10
250.4304919477
 20
115.9721621286
 10
250.1228876052
 20
115.8914911935
 10
249.7802947573
 20
115.8985940503
 10
249.4137246199
 20
115.9932424073
 10
249.0349590589
 20
116.1723941885
 10
248.656171911
 20
116.4302913082
 10
248.2895377069
 20
116.7586447407
 10
247.9468403716
 20
117.1469009367
 10
247.6390944793
 20
117.5825810224
 10
247.3761912363
 20
118.0516818815
 10
247.1665805692
 20
118.5391262264
  0
LINE
  5
30C
330
1F
100
AcDbEntity
  8
0
  6
Continuous
 62
     7
370
    35
100
AcDbLine
 10
248.3395742002
 20
119.5188459255
 30
0.0
 11
248.3154067216
 21
118.5903505095
 31
0.0
  0
LINE
  5
30D
330
1F
100
AcDbEntity
  8
0
  6
Continuous
 62
     7
370
    35
100
AcDbLine
 10
248.3154067216
 20
118.5903505095
 30
0.0
 11
249.0101199472
 21
117.6939088108
 31
0.0
  0
LINE
  5
30E
330
1F
100
AcDbEntity
  8
0
  6
Continuous
 62
     7
370
    35
100
AcDbLine
 10
249.0101199472
 20
117.6939088108
 30
0.0
 11
249.7290006516
 21
117.7259625282
 31
0.0
  0
LINE
  5
30F
330
1F
100
AcDbEntity
  8
0
  6
Continuous
 62
     7
370
    35
100
AcDbLine
 10
249.7290006516
 20
117.7259625282
 30
0.0
 11
249.7531681302
 21
118.6544579442
 31
0.0
  0
LINE
  5
310
330
1F
100
AcDbEntity
  8
0
  6
Continuous
 62
     7
370
    35
100
AcDbLine
 10
249.7531681302
 20
118.6544579442
 30
0.0
 11
249.0584549046
 21
119.5508996428
 31
0.0
  0
LINE
  5
311
330
1F
100
AcDbEntity
  8
0
  6
Continuous
 62
     7
370
    35
100
AcDbLine
 10
249.0584549046
 20
119.5508996428
 30
0.0
 11
248.3395742002
 21
119.5188459255
 31
0.0
  0
LINE
  5
312
330
1F
100
AcDbEntity
  8
0
  6
Continuous
 62
     7
370
    35
100
AcDbLine
 10
249.739120309
 20
118.1147517618
 30
0.0
 11
249.0101199472
 21
117.6939088108
 31
0.0
  0
LINE
  5
313
330
1F
100
AcDbEntity
  8
0
  6
Continuous
 62
     7
370
    35
100
AcDbLine
 10
249.3430866453
 20
119.1836175015
 30
0.0
 11
248.3154067216
 21
118.5903505095
 31
0.0
  0
ARC
  5
314
330
1F
100
AcDbEntity
  8
0
  6
Continuous
 62
     7
370
    35
100
AcDbCircle
 10
259.2237594582
 20
124.5046612238
 30
0.0
 40
3.412125538915101
100
AcDbArc
 50
12.5809885248
 51
47.4136349425
  0
SPLINE
  5
315
330
1F
100
AcDbEntity
  8
0
  6
Continuous
 62
     7
370
    35
100
AcDbSpline
210
0.0
220
0.0
230
1.0
 70
     8
 71
     3
 72
    16
 73
    12
 74
     0
 42
0.00000001
 43
0.00000001
 40
0.0
 40
0.0
 40
0.0
 40
0.0
 40
0.1059543154508804
 40
0.2149801878073132
 40
0.3209348495892563
 40
0.4299644989445013
 40
0.535876485814829
 40
0.6448636231190545
 40
0.7507105898526801
 40
0.8596300565750961
 40
1.0
 40
1.0
 40
1.0
 40
1.0
 10
225.6939189401659
 20
159.6563418425448
 30
0.0
 10
225.6886185590366
 20
159.6551763132044
 30
0.0
 10
225.6778641416655
 20
159.6528114664738
 30
0.0
 10
225.6622560706367
 20
159.646458416535
 30
0.0
 10
225.6474086587431
 20
159.6381651962963
 30
0.0
 10
225.6340106278056
 20
159.6281068278019
 30
0.0
 10
225.6222055537691
 20
159.616444579947
 30
0.0
 10
225.6125222444332
 20
159.6037035959117
 30
0.0
 10
225.605133121989
 20
159.5900302227529
 30
0.0
 10
225.5995587440077
 20
159.5745045303698
 30
0.0
 10
225.5987729870773
 20
159.5636925751084
 30
0.0
 10
225.5983305428684
 20
159.5576045766353
 30
0.0
  0
ARC
  5
316
330
1F
100
AcDbEntity
  8
0
  6
Continuous
 62
     7
370
    35
100
AcDbCircle
 10
226.3212050159
 20
160.1947989386
 30
0.0
 40
0.971238648964016
100
AcDbArc
 50
223.1926416002
 51
291.0212471102
  0
SPLINE
  5
317
330
1F
100
AcDbEntity
  8
0
  6
Continuous
 62
     7
370
    35
100
AcDbSpline
210
0.0
220
0.0
230
1.0
 70
     8
 71
     3
 72
    16
 73
    12
 74
     0
 42
0.00000001
 43
0.00000001
 40
0.0
 40
0.0
 40
0.0
 40
0.0
 40
0.1057855591854543
 40
0.2146394715541054
 40
0.3204248736547691
 40
0.4292767675067036
 40
0.5350871833761467
 40
0.6439629269420368
 40
0.7498305592745299
 40
0.8587646645227315
 40
0.9999999999999999
 40
0.9999999999999999
 40
0.9999999999999999
 40
0.9999999999999999
 10
225.6131171302318
 20
159.5300312653761
 30
0.0
 10
225.6133721899344
 20
159.5346002552511
 30
0.0
 10
225.6138897074499
 20
159.5438707604113
 30
0.0
 10
225.6180535214044
 20
159.5579347826948
 30
0.0
 10
225.6246417482996
 20
159.5717826515879
 30
0.0
 10
225.6335945023055
 20
159.5848191606493
 30
0.0
 10
225.6447540186488
 20
159.5968938691649
 30
0.0
 10
225.6576232563373
 20
159.607470165836
 30
0.0
 10
225.67206678827
 20
159.6163734376414
 30
0.0
 10
225.6891032055236
 20
159.624206765215
 30
0.0
 10
225.7016321837867
 20
159.6271224538728
 30
0.0
 10
225.7087055275294
 20
159.6287685312855
 30
0.0
  0
LINE
  5
318
330
1F
100
AcDbEntity
  8
0
  6
Continuous
 62
     7
370
    35
100
AcDbLine
 10
225.5983305429
 20
159.5576045766
 30
0.0
 11
225.5983305429
 21
151.5555046202
 31
0.0
  0
LINE
  5
319
330
1F
100
AcDbEntity
  8
0
  6
Continuous
 62
     7
370
    35
100
AcDbLine
 10
225.6131171302
 20
151.5279313089
 30
0.0
 11
225.6131171302
 21
159.5300312654
 31
0.0
  0
ARC
  5
31A
330
1F
100
AcDbEntity
  8
0
  6
Continuous
 62
     7
370
    35
100
AcDbCircle
 10
226.3295466752
 20
160.1399904148
 30
0.0
 40
0.6809693559816319
100
AcDbArc
 50
225.4864583785
 51
290.66418166
  0
LWPOLYLINE
  5
31B
330
1F
100
AcDbEntity
  8
0
  6
Continuous
 62
     7
370
    35
100
AcDbPolyline
 90
        5
 70
   128
 43
0.0
 10
226.1199233076
 20
160.0175189218
 10
226.0459427041
 20
159.9941891029
 10
225.9019704571
 20
159.9102278138
 10
225.8283263548
 20
159.8000011807
 10
225.8373475772
 20
159.6819748479
  0
LINE
  5
31C
330
1F
100
AcDbEntity
  8
0
  6
Continuous
 62
     7
370
    35
100
AcDbLine
 10
225.6939189402
 20
159.6563418425
 30
0.0
 11
225.8373475772
 21
159.6819748479
 31
0.0
  0
LINE
  5
31D
330
1F
100
AcDbEntity
  8
0
  6
Continuous
 62
     7
370
    35
100
AcDbLine
 10
225.7087055275
 20
159.6287685313
 30
0.0
 11
225.8521341646
 21
159.6544015367
 31
0.0
  0
LINE
  5
31E
330
1F
100
AcDbEntity
  8
0
  6
Continuous
 62
     7
370
    35
100
AcDbLine
 10
225.8373475772
 20
159.6517589356
 30
0.0
 11
225.8373475772
 21
159.6819748479
 31
0.0
  0
SPLINE
  5
31F
330
1F
100
AcDbEntity
  8
0
  6
Continuous
 62
     7
370
    35
100
AcDbSpline
210
0.0
220
0.0
230
1.0
 70
     8
 71
     3
 72
    12
 73
     8
 74
     0
 42
0.00000001
 43
0.00000001
 40
0.0
 40
0.0
 40
0.0
 40
0.0
 40
0.2193892857330456
 40
0.445142046957586
 40
0.6645310069116601
 40
0.8902795819227924
 40
1.0
 40
1.0
 40
1.0
 40
1.0
 10
225.5983305428684
 20
151.5555046201549
 30
0.0
 10
225.5985869851897
 20
151.551028161709
 30
0.0
 10
225.5991073080464
 20
151.5419454033188
 30
0.0
 10
225.6032498177908
 20
151.5293486312167
 30
0.0
 10
225.6099180301103
 20
151.5179345660378
 30
0.0
 10
225.6171401319766
 20
151.5094727124979
 30
0.0
 10
225.6228410458204
 20
151.5055805820473
 30
0.0
 10
225.6247056194866
 20
151.5043075994795
 30
0.0
  0
LWPOLYLINE
  5
320
330
1F
100
AcDbEntity
  8
0
  6
Continuous
 62
     7
370
    35
100
AcDbPolyline
 90
        3
 70
   128
 43
0.0
 10
247.4025957171
 20
121.8182607921
 10
247.3919438092
 20
121.8247696808
 10
247.3894824873
 20
121.8263798262
  0
LINE
  5
321
330
1F
100
AcDbEntity
  8
0
  6
Continuous
 62
     7
370
    35
100
AcDbLine
 10
247.5733313642
 20
122.5249281079
 30
0.0
 11
247.9520821772
 21
122.3062799177
 31
0.0
  0
LWPOLYLINE
  5
322
330
1F
100
AcDbEntity
  8
0
  6
Continuous
 62
     7
370
    35
100
AcDbPolyline
 90
       10
 70
   128
 43
0.0
 10
247.7714610231
 20
122.7811506174
 10
247.686329891
 20
122.6964094005
 10
247.5739823399
 20
122.526230988
 10
247.5075856406
 20
122.3394251219
 10
247.4982628567
 20
122.1672863323
 10
247.5475757813
 20
122.0386520568
 10
247.6472632991
 20
121.975071668
 10
247.7806253243
 20
121.9871964287
 10
247.9253204711
 20
122.0729951464
 10
247.973587875
 20
122.11755244
  0
LINE
  5
323
330
1F
100
AcDbEntity
  8
0
  6
Continuous
 62
     7
370
    35
100
AcDbLine
 10
247.9449751192
 20
122.3402519166
 30
0.0
 11
247.5852338353
 21
122.5479261393
 31
0.0
  0
LINE
  5
324
330
1F
100
AcDbEntity
  8
0
  6
Continuous
 62
     7
370
    35
100
AcDbLine
 10
247.5629546948
 20
122.5033635285
 30
0.0
 11
247.9577156243
 21
122.2754728947
 31
0.0
  0
LWPOLYLINE
  5
325
330
1F
100
AcDbEntity
  8
0
  6
Continuous
 62
     7
370
    35
100
AcDbPolyline
 90
       30
 70
   128
 43
0.0
 10
257.4058591096
 20
153.4095538335
 10
257.3087060224
 20
153.8220300562
 10
257.2915824132
 20
154.2326311573
 10
257.355288963
 20
154.6221578854
 10
257.4968468243
 20
154.9723964038
 10
257.7096369089
 20
155.2669699486
 10
257.9837093888
 20
155.4921045882
 10
258.3062489396
 20
155.6372732771
 10
258.6621739704
 20
155.6956880887
 10
259.0348418221
 20
155.6646176114
 10
259.4068269604
 20
155.5455146662
 10
259.7607357736
 20
155.3439483744
 10
260.0800198789
 20
155.0693437518
 10
260.3497499064
 20
154.7345410053
 10
260.5573135798
 20
154.3551951393
 10
260.6930054524
 20
153.9490439448
 10
260.7504807231
 20
153.5350786004
 10
260.727051912
 20
153.1326556653
 10
260.6238145245
 20
152.7605919888
 10
260.4455958259
 20
152.4362848549
 10
260.2007291245
 20
152.1748985047
 10
259.9006641152
 20
151.9886550735
 10
259.5594315043
 20
151.8862630971
 10
259.1929869493
 20
151.8725103105
 10
258.8184649905
 20
151.9480397787
 10
258.4533778584
 20
152.1093198278
 10
258.1147966215
 20
152.3488091818
 10
257.8185529621
 20
152.6553095849
 10
257.5784989044
 20
153.0144894187
 10
257.4058591096
 20
153.4095538335
  0
LWPOLYLINE
  5
326
330
1F
100
AcDbEntity
  8
0
  6
Continuous
 62
     7
370
    35
100
AcDbPolyline
 90
       29
 70
   128
 43
0.0
 10
257.6019377589
 20
153.4807925587
 10
257.5102161129
 20
153.8760342436
 10
257.4979742382
 20
154.2687288318
 10
257.5658259937
 20
154.6391849768
 10
257.7103690089
 20
154.9688264607
 10
257.9243552936
 20
155.2411236829
 10
258.1970546818
 20
155.4424225239
 10
258.5147928876
 20
155.562629019
 10
258.8616371905
 20
155.5957155128
 10
259.220195369
 20
155.5400229102
 10
259.5724878188
 20
155.398343871
 10
259.9008491252
 20
155.1777827736
 10
260.1888138815
 20
154.8893994726
 10
260.4219423321
 20
154.5476547109
 10
260.5885444432
 20
154.1696849977
 10
260.6802660893
 20
153.7744433128
 10
260.6925079639
 20
153.3817487247
 10
260.6246562085
 20
153.0112925796
 10
260.4801131933
 20
152.6816510958
 10
260.2661269086
 20
152.4093538735
 10
259.9934275204
 20
152.2080550326
 10
259.6756893146
 20
152.0878485374
 10
259.3288450116
 20
152.0547620436
 10
258.9702868331
 20
152.1104546462
 10
258.6179943834
 20
152.2521336855
 10
258.2896330769
 20
152.4726947828
 10
258.0016683207
 20
152.7610780838
 10
257.76853987
 20
153.1028228455
 10
257.6019377589
 20
153.4807925587
  0
LINE
  5
327
330
1F
100
AcDbEntity
  8
0
  6
Continuous
 62
     7
370
    35
100
AcDbLine
 10
258.1631772237
 20
153.6102483808
 30
0.0
 11
258.9429649534
 21
152.7786137197
 31
0.0
  0
LINE
  5
328
330
1F
100
AcDbEntity
  8
0
  6
Continuous
 62
     7
370
    35
100
AcDbLine
 10
259.8750288307
 20
152.993604117
 30
0.0
 11
258.9429649534
 21
152.7786137197
 31
0.0
  0
LINE
  5
329
330
1F
100
AcDbEntity
  8
0
  6
Continuous
 62
     7
370
    35
100
AcDbLine
 10
260.0273049784
 20
154.0402291755
 30
0.0
 11
259.8750288307
 21
152.993604117
 31
0.0
  0
LINE
  5
32A
330
1F
100
AcDbEntity
  8
0
  6
Continuous
 62
     7
370
    35
100
AcDbLine
 10
259.2475172486
 20
154.8718638367
 30
0.0
 11
260.0273049784
 21
154.0402291755
 31
0.0
  0
LINE
  5
32B
330
1F
100
AcDbEntity
  8
0
  6
Continuous
 62
     7
370
    35
100
AcDbLine
 10
258.3154533713
 20
154.6568734393
 30
0.0
 11
259.2475172486
 21
154.8718638367
 31
0.0
  0
LINE
  5
32C
330
1F
100
AcDbEntity
  8
0
  6
Continuous
 62
     7
370
    35
100
AcDbLine
 10
258.1631772237
 20
153.6102483808
 30
0.0
 11
258.3154533713
 21
154.6568734393
 31
0.0
  0
LINE
  5
32D
330
1F
100
AcDbEntity
  8
0
  6
Continuous
 62
     7
370
    35
100
AcDbLine
 10
258.3689703669
 20
154.3645246437
 30
0.0
 11
258.2689458623
 21
154.3372178331
 31
0.0
  0
LINE
  5
32E
330
1F
100
AcDbEntity
  8
0
  6
Continuous
 62
     7
370
    35
100
AcDbLine
 10
259.2475172486
 20
154.8718638367
 30
0.0
 11
258.3689703669
 21
154.3645246437
 31
0.0
  0
SPLINE
  5
32F
330
1F
100
AcDbEntity
  8
0
  6
Continuous
 62
     7
370
    35
100
AcDbSpline
210
0.0
220
0.0
230
1.0
 70
     8
 71
     3
 72
     9
 73
     5
 74
     0
 42
0.00000001
 43
0.00000001
 40
0.0
 40
0.0
 40
0.0
 40
0.0
 40
0.3209639710300892
 40
1.0
 40
1.0
 40
1.0
 40
1.0
 10
259.0083046985791
 20
152.7936850233742
 30
0.0
 10
259.0151869645815
 20
152.8687397039685
 30
0.0
 10
259.0366294522859
 20
153.1025811546254
 30
0.0
 10
259.1034110116541
 20
153.3588644151039
 30
0.0
 10
259.1487580965359
 20
153.5328899825907
 30
0.0
  0
LINE
  5
330
330
1F
100
AcDbEntity
  8
0
  6
Continuous
 62
     7
370
    35
100
AcDbLine
 10
259.1487580965
 20
153.5328899826
 30
0.0
 11
260.0273049784
 21
154.0402291755
 31
0.0
  0
SPLINE
  5
331
330
1F
100
AcDbEntity
  8
0
  6
Continuous
 62
     7
370
    35
100
AcDbSpline
210
0.0
220
0.0
230
1.0
 70
     8
 71
     3
 72
    10
 73
     6
 74
     0
 42
0.00000001
 43
0.00000001
 40
0.0
 40
0.0
 40
0.0
 40
0.0
 40
0.2648736353894765
 40
0.5354914484003098
 40
1.0
 40
1.0
 40
1.0
 40
1.0
 10
259.1487580965359
 20
153.5328899825907
 30
0.0
 10
259.0683164523492
 20
153.5976383761561
 30
0.0
 10
258.9056886676175
 20
153.7285393282306
 30
0.0
 10
258.6259396244408
 20
154.0032860383866
 30
0.0
 10
258.46847098666
 20
154.2246500709883
 30
0.0
 10
258.3689703669309
 20
154.3645246437287
 30
0.0
  0
LINE
  5
332
330
1F
100
AcDbEntity
  8
0
  6
Continuous
 62
     7
370
    35
100
AcDbLine
 10
222.69485333
 20
166.0810723647
 30
0.0
 11
222.7122178282
 21
165.6771659282
 31
0.0
  0
LWPOLYLINE
  5
333
330
1F
100
AcDbEntity
  8
0
  6
Continuous
 62
     7
370
    35
100
AcDbPolyline
 90
       36
 70
   128
 43
0.0
 10
225.7119740261
 20
160.4808727539
 10
226.0536105407
 20
160.2635342427
 10
226.5316115299
 20
160.0270683837
 10
226.9998817974
 20
159.8743727648
 10
227.448888711
 20
159.8085558284
 10
227.8694917847
 20
159.8309574175
 10
228.2531287528
 20
159.9411215004
 10
228.591989873
 20
160.136805454
 10
228.87917691
 20
160.4140257173
 10
229.1088435641
 20
160.7671388852
 10
229.2763144844
 20
161.1889565919
 10
229.3781804458
 20
161.6708918454
 10
229.4123677513
 20
162.2031338335
 10
229.3781804458
 20
162.7748476444
 10
229.2763144844
 20
163.3743948335
 10
229.1088435641
 20
163.9895703491
 10
228.87917691
 20
164.6078509915
 10
228.591989873
 20
165.21665035
 10
228.2531287528
 20
165.8035750251
 10
227.8694917847
 20
166.3566769232
 10
227.448888711
 20
166.8646964845
 10
226.9998817974
 20
167.3172918957
 10
226.5316115299
 20
167.7052496196
 10
226.0536105407
 20
168.0206719556
 10
225.5756095514
 20
168.2571378145
 10
225.1073392839
 20
168.4098334334
 10
224.6583323703
 20
168.4756503698
 10
224.2377292967
 20
168.4532487807
 10
223.8540923286
 20
168.3430846978
 10
223.5152312084
 20
168.1474007443
 10
223.2280441713
 20
167.8701804809
 10
222.9983775173
 20
167.517067313
 10
222.830906597
 20
167.0952496063
 10
222.7290406355
 20
166.6133143529
 10
222.69485333
 20
166.0810723647
 10
222.69485333
 20
166.0810723647
  0
LINE
  5
334
330
1F
100
AcDbEntity
  8
0
  6
Continuous
 62
     7
370
    35
100
AcDbLine
 10
248.1506974528
 20
121.990257124
 30
0.0
 11
248.1680619509
 21
121.5863506875
 31
0.0
  0
LWPOLYLINE
  5
335
330
1F
100
AcDbEntity
  8
0
  6
Continuous
 62
     7
370
    35
100
AcDbPolyline
 90
       36
 70
   128
 43
0.0
 10
251.1678181488
 20
116.3900575132
 10
251.5094546634
 20
116.172719002
 10
251.9874556526
 20
115.936253143
 10
252.4557259202
 20
115.7835575241
 10
252.9047328337
 20
115.7177405877
 10
253.3253359074
 20
115.7401421768
 10
253.7089728755
 20
115.8503062597
 10
254.0478339957
 20
116.0459902133
 10
254.3350210328
 20
116.3232104766
 10
254.5646876868
 20
116.6763236445
 10
254.7321586071
 20
117.0981413512
 10
254.8340245686
 20
117.5800766047
 10
254.868211874
 20
118.1123185928
 10
254.8340245686
 20
118.6840324037
 10
254.7321586071
 20
119.2835795929
 10
254.5646876868
 20
119.8987551084
 10
254.3350210328
 20
120.5170357508
 10
254.0478339957
 20
121.1258351093
 10
253.7089728755
 20
121.7127597844
 10
253.3253359074
 20
122.2658616825
 10
252.9047328337
 20
122.7738812438
 10
252.4557259202
 20
123.226476655
 10
251.9874556526
 20
123.6144343789
 10
251.5094546634
 20
123.9298567149
 10
251.0314536742
 20
124.1663225738
 10
250.5631834066
 20
124.3190181927
 10
250.1141764931
 20
124.3848351291
 10
249.6935734194
 20
124.36243354
 10
249.3099364513
 20
124.2522694571
 10
248.9710753311
 20
124.0565855036
 10
248.683888294
 20
123.7793652402
 10
248.45422164
 20
123.4262520723
 10
248.2867507197
 20
123.0044343656
 10
248.1848847582
 20
122.5224991122
 10
248.1506974528
 20
121.990257124
 10
248.1506974528
 20
121.990257124
  0
LINE
  5
336
330
1F
100
AcDbEntity
  8
0
  6
Continuous
 62
     7
370
    35
100
AcDbLine
 10
241.8982265004
 20
126.4162725869
 30
0.0
 11
240.9028529456
 21
126.990889509
 31
0.0
  0
LWPOLYLINE
  5
337
330
1F
100
AcDbEntity
  8
0
  6
Continuous
 62
     7
370
    35
100
AcDbPolyline
 90
       11
 70
   128
 43
0.0
 10
240.9028529456
 20
126.990889509
 10
240.6843449334
 20
127.0770671475
 10
240.4872260078
 20
127.0748804145
 10
240.3307915428
 20
126.9845433626
 10
240.2303544336
 20
126.8148988119
 10
240.1957461644
 20
126.582552753
 10
240.2303544336
 20
126.310248837
 10
240.3307915428
 20
126.0246420684
 10
240.4872260078
 20
125.7536896277
 10
240.6843449334
 20
125.5239142276
 10
240.9028529456
 20
125.3578078852
  0
LINE
  5
338
330
1F
100
AcDbEntity
  8
0
  6
Continuous
 62
     7
370
    35
100
AcDbLine
 10
240.9028529456
 20
125.3578078852
 30
0.0
 11
241.8982265004
 21
124.7831909631
 31
0.0
  0
LWPOLYLINE
  5
339
330
1F
100
AcDbEntity
  8
0
  6
Continuous
 62
     7
370
    35
100
AcDbPolyline
 90
       15
 70
   128
 43
0.0
 10
246.2714404215
 20
122.2585883041
 10
246.1098258385
 20
121.9136848699
 10
245.8829823952
 20
121.6468548958
 10
245.5982171509
 20
121.4666934832
 10
245.2647029363
 20
121.3790039743
 10
244.8931828794
 20
121.3866110151
 10
244.4956243485
 20
121.4892695685
 10
244.0848334609
 20
121.6836728069
 10
243.6740425734
 20
121.9635586318
 10
243.2764840425
 20
122.3199113878
 10
242.9049639855
 20
122.7412522743
 10
242.571449771
 20
123.214009099
 10
242.2866845267
 20
123.7229534643
 10
242.0598410834
 20
124.2516913032
 10
241.8982265004
 20
124.7831909631
  0
LINE
  5
33A
330
1F
100
AcDbEntity
  8
0
  6
Continuous
 62
     7
370
    35
100
AcDbLine
 10
246.2714404215
 20
122.2585883041
 30
0.0
 11
247.2668139763
 21
121.683971382
 31
0.0
  0
LWPOLYLINE
  5
33B
330
1F
100
AcDbEntity
  8
0
  6
Continuous
 62
     7
370
    35
100
AcDbPolyline
 90
       11
 70
   128
 43
0.0
 10
247.2668139763
 20
121.683971382
 10
247.4853219885
 20
121.5977937435
 10
247.682440914
 20
121.5999804765
 10
247.8388753791
 20
121.6903175284
 10
247.9393124882
 20
121.8599620791
 10
247.9739207575
 20
122.092308138
 10
247.9393124882
 20
122.364612054
 10
247.8388753791
 20
122.6502188226
 10
247.682440914
 20
122.9211712633
 10
247.4853219885
 20
123.1509466634
 10
247.2668139763
 20
123.3170530058
  0
LINE
  5
33C
330
1F
100
AcDbEntity
  8
0
  6
Continuous
 62
     7
370
    35
100
AcDbLine
 10
247.2668139763
 20
123.3170530058
 30
0.0
 11
246.2714404215
 21
123.8916699279
 31
0.0
  0
LWPOLYLINE
  5
33D
330
1F
100
AcDbEntity
  8
0
  6
Continuous
 62
     7
370
    35
100
AcDbPolyline
 90
       15
 70
   128
 43
0.0
 10
241.8982265004
 20
126.4162725869
 10
242.0598410834
 20
126.761176021
 10
242.2866845267
 20
127.0280059952
 10
242.571449771
 20
127.2081674078
 10
242.9049639855
 20
127.2958569167
 10
243.2764840425
 20
127.2882498758
 10
243.6740425734
 20
127.1855913225
 10
244.0848334609
 20
126.9911880841
 10
244.4956243485
 20
126.7113022592
 10
244.8931828794
 20
126.3549495031
 10
245.2647029363
 20
125.9336086166
 10
245.5982171509
 20
125.460851792
 10
245.8829823952
 20
124.9519074267
 10
246.1098258385
 20
124.4231695878
 10
246.2714404215
 20
123.8916699279
  0
LWPOLYLINE
  5
33E
330
1F
100
AcDbEntity
  8
0
  6
Continuous
 62
     7
370
    35
100
AcDbPolyline
 90
       28
 70
   128
 43
0.0
 10
251.5094546634
 20
125.7670735416
 10
252.0840852712
 20
125.3966982547
 10
252.6509449858
 20
124.9540354622
 10
253.2023680019
 20
124.4450714189
 10
253.7308972694
 20
123.8766889905
 10
254.2293853364
 20
123.2565745741
 10
254.6910910071
 20
122.5931141535
 10
255.1097705043
 20
121.8952798928
 10
255.479761906
 20
121.1725088031
 10
255.7960617133
 20
120.4345751236
 10
256.0543925138
 20
119.6914581413
 10
256.2512608266
 20
118.9532072387
 10
256.3840043456
 20
118.2298059927
 10
256.4508279424
 20
117.5310371643
 10
256.4508279424
 20
116.866350403
 10
256.3840043456
 20
116.2447344571
 10
256.2512608266
 20
115.6745956159
 10
256.0543925138
 20
115.1636440291
 10
255.7960617133
 20
114.7187894404
 10
255.479761906
 20
114.346047745
 10
255.1097705043
 20
114.0504596349
 10
254.6910910071
 20
113.8360224322
 10
254.2293853364
 20
113.7056360322
 10
253.7308972694
 20
113.6610636873
 10
253.2023680019
 20
113.702908162
 10
252.6509449858
 20
113.8306035815
 10
252.0840852712
 20
114.0424230844
 10
251.5094546634
 20
114.3355021752
  0
LINE
  5
33F
330
1F
100
AcDbEntity
  8
0
  6
Continuous
 62
     7
370
    35
100
AcDbLine
 10
251.5094546634
 20
114.3355021752
 30
0.0
 11
226.0536105407
 21
129.030848188
 31
0.0
  0
ARC
  5
340
330
1F
100
AcDbEntity
  8
0
  6
Continuous
 62
     7
370
    35
100
AcDbCircle
 10
231.8203093669
 20
138.0757293756
 30
0.0
 40
10.72682110644323
100
AcDbArc
 50
182.520154907
 51
237.4798452386
  0
LINE
  5
341
330
1F
100
AcDbEntity
  8
0
  6
Continuous
 62
     7
370
    35
100
AcDbLine
 10
221.1038630724
 20
137.6040622626
 30
0.0
 11
221.1038630724
 21
166.9995314905
 31
0.0
  0
LWPOLYLINE
  5
342
330
1F
100
AcDbEntity
  8
0
  6
Continuous
 62
     7
370
    35
100
AcDbPolyline
 90
       28
 70
   128
 43
0.0
 10
221.1038630724
 20
166.9995314905
 10
221.137331494
 20
167.6437727984
 10
221.237284156
 20
168.2406600307
 10
221.40236937
 20
168.7821213115
 10
221.6303546416
 20
169.2608343059
 10
221.9181568613
 20
169.6703252417
 10
222.2618839977
 20
170.0050564567
 10
222.656887731
 20
170.2605012853
 10
223.0978263132
 20
170.4332052745
 10
223.5787368065
 20
170.520832899
 10
224.0931157215
 20
170.5221991456
 10
224.6340069657
 20
170.4372855381
 10
225.1940959129
 20
170.2672403875
 10
225.765808321
 20
170.0143632625
 10
226.3414127604
 20
169.6820738926
 10
226.9131251685
 20
169.2748659215
 10
227.4732141157
 20
168.7982461384
 10
228.0141053599
 20
168.2586600082
 10
228.5284842748
 20
167.6634045077
 10
229.0093947681
 20
167.0205294463
 10
229.4503333504
 20
166.3387286066
 10
229.8453370836
 20
165.6272221751
 10
230.18906422
 20
164.8956320558
 10
230.4768664397
 20
164.15385175
 10
230.7048517114
 20
163.4119125639
 10
230.8699369254
 20
162.6798479521
 10
230.9698895873
 20
161.9675578328
 10
231.003358009
 20
161.2846747077
  0
LINE
  5
343
330
1F
100
AcDbEntity
  8
0
  6
Continuous
 62
     7
370
    35
100
AcDbLine
 10
231.003358009
 20
161.2846747077
 30
0.0
 11
231.003358009
 21
153.658390957
 31
0.0
  0
LWPOLYLINE
  5
344
330
1F
100
AcDbEntity
  8
0
  6
Continuous
 62
     7
370
    35
100
AcDbPolyline
 90
       36
 70
   128
 43
0.0
 10
231.003358009
 20
153.658390957
 10
230.5224973034
 20
153.1670809464
 10
230.0984882692
 20
152.5995671308
 10
229.7342496033
 20
151.9597560328
 10
229.4322885691
 20
151.2520518389
 10
229.1946837375
 20
150.4813260823
 10
229.0230706786
 20
149.65288411
 10
228.9186307035
 20
148.7724285627
 10
228.8820827322
 20
147.8460201203
 10
228.9136783454
 20
146.8800357828
 10
229.0132000524
 20
145.8811249737
 10
229.1799627883
 20
144.8561637685
 10
229.4128186297
 20
143.8122075622
 10
229.7101646963
 20
142.7564425035
 10
230.0699541849
 20
141.6961360281
 10
230.4897104584
 20
140.6385868328
 10
230.9665440937
 20
139.5910746346
 10
231.4971727719
 20
138.5608100602
 10
232.0779438717
 20
137.5548850106
 10
232.7048596131
 20
136.5802238443
 10
233.3736045757
 20
135.6435357125
 10
234.079575405
 20
134.7512683762
 10
234.8179124993
 20
133.9095638225
 10
235.5835334613
 20
133.1242159862
 10
236.3711680834
 20
132.4006308662
 10
237.1753946254
 20
131.7437893135
 10
237.9906771351
 20
131.1582127448
 10
238.8114035561
 20
130.647932019
 10
239.6319243582
 20
130.2164596908
 10
240.4465914267
 20
129.8667658312
 10
241.2497969414
 20
129.6012575835
 10
242.0360119787
 20
129.421762593
 10
242.79982457
 20
129.3295164267
 10
243.5359769558
 20
129.3251540676
 10
244.2394017775
 20
129.4087055445
 10
244.905256959
 20
129.5795957245
  0
LINE
  5
345
330
1F
100
AcDbEntity
  8
0
  6
Continuous
 62
     7
370
    35
100
AcDbLine
 10
244.905256959
 20
129.5795957245
 30
0.0
 11
251.5094546634
 21
125.7670735416
 31
0.0
  0
LWPOLYLINE
  5
346
330
1F
100
AcDbEntity
  8
0
  6
Continuous
 62
     7
370
    35
100
AcDbPolyline
 90
        8
 70
   128
 43
0.0
 10
226.7607173219
 20
151.4857868649
 10
226.7261090526
 20
151.253440806
 10
226.6256719435
 20
151.0837962553
 10
226.4692374785
 20
150.9934592034
 10
226.2721185529
 20
150.9912724704
 10
226.0536105407
 20
151.0774501089
 10
225.8351025285
 20
151.2435564513
 10
225.6966610223
 20
151.3951871593
  0
ARC
  5
347
330
1F
100
AcDbEntity
  8
0
  6
Continuous
 62
     7
370
    35
100
AcDbCircle
 10
226.848463385
 20
152.3654175967
 30
0.0
 40
1.503289664782676
100
AcDbArc
 50
182.410352485
 51
215.6125103778
  0
LINE
  5
348
330
1F
100
AcDbEntity
  8
0
  6
Continuous
 62
     7
370
    35
100
AcDbLine
 10
226.7607173219
 20
152.6352075071
 30
0.0
 11
226.7607173219
 21
151.4857868649
 31
0.0
  0
LWPOLYLINE
  5
349
330
1F
100
AcDbEntity
  8
0
  6
Continuous
 62
     7
370
    35
100
AcDbPolyline
 90
       15
 70
   128
 43
0.0
 10
226.7607173219
 20
157.6852335297
 10
227.1401904369
 20
157.2795418079
 10
227.4846627445
 20
156.818731742
 10
227.7830381358
 20
156.3176469015
 10
228.0257053713
 20
155.7924281832
 10
228.2048476772
 20
155.2599938822
 10
228.3146945388
 20
154.737494721
 10
228.3517075795
 20
154.2417613926
 10
228.3146945388
 20
153.7887624114
 10
228.2048476772
 20
153.393089737
 10
228.0257053713
 20
153.0674887398
 10
227.7830381358
 20
152.8224476479
 10
227.4846627445
 20
152.6658597013
 10
227.1401904369
 20
152.6027688961
 10
226.7607173219
 20
152.6352075071
  0
LINE
  5
34A
330
1F
100
AcDbEntity
  8
0
  6
Continuous
 62
     7
370
    35
100
AcDbLine
 10
226.7607173219
 20
158.8346541719
 30
0.0
 11
226.7607173219
 21
157.6852335297
 31
0.0
  0
LWPOLYLINE
  5
34B
330
1F
100
AcDbEntity
  8
0
  6
Continuous
 62
     7
370
    35
100
AcDbPolyline
 90
       11
 70
   128
 43
0.0
 10
225.3465037595
 20
159.6510622837
 10
225.3811120287
 20
159.8834083426
 10
225.4815491379
 20
160.0530528933
 10
225.6379836029
 20
160.1433899452
 10
225.8351025285
 20
160.1455766782
 10
226.0536105407
 20
160.0593990397
 10
226.2721185529
 20
159.8932926973
 10
226.4692374785
 20
159.6635172972
 10
226.6256719435
 20
159.3925648565
 10
226.7261090526
 20
159.1069580879
 10
226.7607173219
 20
158.8346541719
  0
LINE
  5
34C
330
1F
100
AcDbEntity
  8
0
  6
Continuous
 62
     7
370
    35
100
AcDbLine
 10
225.3465037595
 20
158.5016416415
 30
0.0
 11
225.3465037595
 21
159.6510622837
 31
0.0
  0
LWPOLYLINE
  5
34D
330
1F
100
AcDbEntity
  8
0
  6
Continuous
 62
     7
370
    35
100
AcDbPolyline
 90
       15
 70
   128
 43
0.0
 10
225.3465037595
 20
153.4516156189
 10
224.9670306444
 20
153.8573073407
 10
224.6225583368
 20
154.3181174066
 10
224.3241829455
 20
154.8192022471
 10
224.08151571
 20
155.3444209654
 10
223.9023734041
 20
155.8768552664
 10
223.7925265425
 20
156.3993544276
 10
223.7555135018
 20
156.895087756
 10
223.7925265425
 20
157.3480867373
 10
223.9023734041
 20
157.7437594116
 10
224.08151571
 20
158.0693604088
 10
224.3241829455
 20
158.3144015007
 10
224.6225583368
 20
158.4709894473
 10
224.9670306444
 20
158.5340802525
 10
225.3465037595
 20
158.5016416415
  0
LINE
  5
34E
330
1F
100
AcDbEntity
  8
0
  6
Continuous
 62
     7
370
    35
100
AcDbLine
 10
225.3465037595
 20
152.3021949767
 30
0.0
 11
225.3465037595
 21
153.4516156189
 31
0.0
  0
LINE
  5
34F
330
1F
100
AcDbEntity
  8
0
  6
Continuous
 62
     7
370
    35
100
AcDbLine
 10
231.003358009
 20
153.658390957
 30
0.0
 11
238.0744258208
 21
157.7404315161
 31
0.0
  0
LINE
  5
350
330
1F
100
AcDbEntity
  8
0
  6
Continuous
 62
     7
370
    35
100
AcDbLine
 10
251.9763247709
 20
133.6616362837
 30
0.0
 11
244.905256959
 21
129.5795957245
 31
0.0
  0
SPLINE
  5
351
330
1F
100
AcDbEntity
  8
0
  6
Continuous
 62
     7
370
    35
100
AcDbSpline
210
0.0
220
0.0
230
1.0
 70
    11
 71
     3
 72
    45
 73
    41
 74
     0
 42
0.00000001
 43
0.00000001
 40
0.0
 40
0.0
 40
0.0
 40
0.0
 40
0.0258388764184963
 40
0.052442646326659
 40
0.078277294180201
 40
0.1048330525138144
 40
0.1311984064600799
 40
0.158302479320707
 40
0.185081405198696
 40
0.2126703455818655
 40
0.2388442732194458
 40
0.2658205823156509
 40
0.2913055615279652
 40
0.3175153346933153
 40
0.3433019500098738
 40
0.3697914766422939
 40
0.3963877661971176
 40
0.4237473308706828
 40
0.4504272526816555
 40
0.4779251290926189
 40
0.5038513279505483
 40
0.5305561139678852
 40
0.556071951797245
 40
0.5823016351527959
 40
0.6083210151625741
 40
0.6350551754870372
 40
0.6617725834265221
 40
0.6892720342257523
 40
0.7158058611122611
 40
0.7431599617802314
 40
0.7688539418819224
 40
0.795305764187866
 40
0.8208357701102039
 40
0.8470665612183885
 40
0.8733359322088932
 40
0.900335951133824
 40
0.9271198699052581
 40
0.9547073436636484
 40
0.9771084231523415
 40
1.0
 40
1.0
 40
1.0
 40
1.0
 10
229.8012764809647
 20
148.3422175342057
 30
0.0
 10
229.8097917245254
 20
148.1808367772389
 30
0.0
 10
229.8270742835348
 20
147.8532980009984
 30
0.0
 10
229.965147394385
 20
147.416849447214
 30
0.0
 10
230.180367043758
 20
147.0327148938324
 30
0.0
 10
230.4692016243732
 20
146.7198977025546
 30
0.0
 10
230.8241536663548
 20
146.4836662188423
 30
0.0
 10
231.2290494827815
 20
146.3383017842363
 30
0.0
 10
231.6740745750061
 20
146.2916150904639
 30
0.0
 10
232.1316840293278
 20
146.3508912501188
 30
0.0
 10
232.5906807137012
 20
146.5159470897433
 30
0.0
 10
233.0234717420489
 20
146.77525820453
 30
0.0
 10
233.4291991174759
 20
147.1238391467255
 30
0.0
 10
233.7934527515883
 20
147.5428141446849
 30
0.0
 10
234.119790661535
 20
148.0301567631965
 30
0.0
 10
234.4008743573141
 20
148.5683052673381
 30
0.0
 10
234.6366573343787
 20
149.1502173841799
 30
0.0
 10
234.8198305206033
 20
149.7493322817212
 30
0.0
 10
234.9501622784655
 20
150.3516274492312
 30
0.0
 10
235.0234152272182
 20
150.921178702988
 30
0.0
 10
235.042072782178
 20
151.4499667774768
 30
0.0
 10
235.0076718212089
 20
151.9112901187568
 30
0.0
 10
234.9210292503458
 20
152.3071178761962
 30
0.0
 10
234.7844808046435
 20
152.6248031096644
 30
0.0
 10
234.5946221617306
 20
152.864831739026
 30
0.0
 10
234.3524950854235
 20
153.0193000681041
 30
0.0
 10
234.0546494830157
 20
153.085657231646
 30
0.0
 10
233.7082804323943
 20
153.0604407376327
 30
0.0
 10
233.31487125533
 20
152.9457093144038
 30
0.0
 10
232.8945285450441
 20
152.750597394544
 30
0.0
 10
232.4511455769547
 20
152.4806954727817
 30
0.0
 10
232.0079939294715
 20
152.1522752071203
 30
0.0
 10
231.5668376346727
 20
151.7655011903898
 30
0.0
 10
231.1462280955332
 20
151.3324908527668
 30
0.0
 10
230.7531134737326
 20
150.8519435585
 30
0.0
 10
230.4082851583543
 20
150.3373650118218
 30
0.0
 10
230.124052774057
 20
149.7936449209985
 30
0.0
 10
229.9330963359853
 20
149.2729275314032
 30
0.0
 10
229.8211204679634
 20
148.7821587529238
 30
0.0
 10
229.8079387272368
 20
148.489919543108
 30
0.0
 10
229.8012764809647
 20
148.3422175342057
 30
0.0
  0
SPLINE
  5
352
330
1F
100
AcDbEntity
  8
0
  6
Continuous
 62
     7
370
    35
100
AcDbSpline
210
0.0
220
0.0
230
1.0
 70
    11
 71
     3
 72
    45
 73
    41
 74
     0
 42
0.00000001
 43
0.00000001
 40
0.0
 40
0.0
 40
0.0
 40
0.0
 40
0.0258388764184966
 40
0.0524426463266592
 40
0.0782772941802009
 40
0.1048330525138144
 40
0.1311984064600801
 40
0.1583024793207072
 40
0.185081405198696
 40
0.2126703455818657
 40
0.238844273219446
 40
0.2658205823156511
 40
0.2913055615279654
 40
0.3175153346933156
 40
0.3433019500098741
 40
0.3697914766422941
 40
0.396387766197118
 40
0.423747330870683
 40
0.450427252681656
 40
0.477925129092619
 40
0.5038513279505481
 40
0.5305561139678849
 40
0.5560719517972448
 40
0.5823016351527954
 40
0.6083210151625742
 40
0.6350551754870373
 40
0.6617725834265222
 40
0.6892720342257523
 40
0.7158058611122612
 40
0.7431599617802315
 40
0.7688539418819224
 40
0.795305764187866
 40
0.8208357701102039
 40
0.8470665612183887
 40
0.8733359322088933
 40
0.900335951133824
 40
0.9271198699052583
 40
0.9547073436636486
 40
0.9771084231523415
 40
1.0
 40
1.0
 40
1.0
 40
1.0
 10
239.7007714175764
 20
131.1957893850463
 30
0.0
 10
239.849718953611
 20
131.1196356293532
 30
0.0
 10
240.1520232344542
 20
130.965073781865
 30
0.0
 10
240.6801707564002
 20
130.8196018679035
 30
0.0
 10
241.2507387713482
 20
130.738715248655
 30
0.0
 10
241.8482877650357
 20
130.727248866489
 30
0.0
 10
242.4669374530752
 20
130.7799400112519
 30
0.0
 10
243.0837150234782
 20
130.8913755823021
 30
0.0
 10
243.6891951539867
 20
131.055663991749
 30
0.0
 10
244.2505619269819
 20
131.2599453955843
 30
0.0
 10
244.7589132333167
 20
131.4964302127801
 30
0.0
 10
245.1870658892265
 20
131.7489524967672
 30
0.0
 10
245.5361228166324
 20
132.015885103017
 30
0.0
 10
245.7941717139435
 20
132.2874679464517
 30
0.0
 10
245.9618270224594
 20
132.5674549246383
 30
0.0
 10
246.0321426060815
 20
132.8513841624363
 30
0.0
 10
246.0007080727085
 20
133.1417490116174
 30
0.0
 10
245.8646596715367
 20
133.4317652036813
 30
0.0
 10
245.6243077192949
 20
133.7209872314048
 30
0.0
 10
245.2926286518861
 20
133.9970326873221
 30
0.0
 10
244.8762393986339
 20
134.2589493700252
 30
0.0
 10
244.4002834924422
 20
134.4939966950518
 30
0.0
 10
243.8674700697533
 20
134.7015535915893
 30
0.0
 10
243.2997012497709
 20
134.8716723188379
 30
0.0
 10
242.6982460281858
 20
134.9996891164907
 30
0.0
 10
242.0832713238463
 20
135.0751635614464
 30
0.0
 10
241.4630550981187
 20
135.089332440948
 30
0.0
 10
240.8669610824008
 20
135.0335502323761
 30
0.0
 10
240.3064596696962
 20
134.9029067907515
 30
0.0
 10
239.8137401193198
 20
134.7020332977158
 30
0.0
 10
239.3916726798428
 20
134.4337676984948
 30
0.0
 10
239.0581214886717
 20
134.1146663154613
 30
0.0
 10
238.810592166125
 20
133.7482063004323
 30
0.0
 10
238.6569152178295
 20
133.351287084331
 30
0.0
 10
238.6000521637513
 20
132.9302220005523
 30
0.0
 10
238.6459430707398
 20
132.5055884198769
 30
0.0
 10
238.7970516576088
 20
132.0901775618868
 30
0.0
 10
239.0378972604261
 20
131.7306595810827
 30
0.0
 10
239.3412275314276
 20
131.4262618137456
 30
0.0
 10
239.5800613044675
 20
131.2731661782794
 30
0.0
 10
239.7007714175764
 20
131.1957893850463
 30
0.0
  0
LWPOLYLINE
  5
353
330
1F
100
AcDbEntity
  8
0
  6
Continuous
 62
     7
370
    35
100
AcDbPolyline
 90
       36
 70
   128
 43
0.0
 10
238.0744258208
 20
157.7404315161
 10
237.5935651153
 20
157.2491215055
 10
237.169556081
 20
156.6816076899
 10
236.8053174151
 20
156.0417965919
 10
236.503356381
 20
155.334092398
 10
236.2657515494
 20
154.5633666414
 10
236.0941384905
 20
153.7349246691
 10
235.9896985153
 20
152.8544691218
 10
235.953150544
 20
151.9280606794
 10
235.9847461572
 20
150.9620763419
 10
236.0842678643
 20
149.9631655328
 10
236.2510306002
 20
148.9382043276
 10
236.4838864415
 20
147.8942481213
 10
236.7812325082
 20
146.8384830626
 10
237.1410219968
 20
145.7781765872
 10
237.5607782702
 20
144.7206273919
 10
238.0376119056
 20
143.6731151938
 10
238.5682405837
 20
142.6428506193
 10
239.1490116836
 20
141.6369255697
 10
239.775927425
 20
140.6622644034
 10
240.4446723876
 20
139.7255762716
 10
241.1506432169
 20
138.8333089353
 10
241.8889803111
 20
137.9916043816
 10
242.6546012732
 20
137.2062565453
 10
243.4422358953
 20
136.4826714253
 10
244.2464624373
 20
135.8258298726
 10
245.061744947
 20
135.2402533039
 10
245.882471368
 20
134.7299725781
 10
246.7029921701
 20
134.2985002499
 10
247.5176592385
 20
133.9488063903
 10
248.3208647533
 20
133.6832981426
 10
249.1070797905
 20
133.5038031522
 10
249.8708923819
 20
133.4115569858
 10
250.6070447677
 20
133.4071946267
 10
251.3104695894
 20
133.4907461036
 10
251.9763247709
 20
133.6616362837
  0
LINE
  5
354
330
1F
100
AcDbEntity
  8
0
  6
Continuous
 62
     7
370
    35
100
AcDbLine
 10
258.5805224753
 20
129.8491141007
 30
0.0
 11
251.5094546634
 21
125.7670735416
 31
0.0
  0
LWPOLYLINE
  5
355
330
1F
100
AcDbEntity
  8
0
  6
Continuous
 62
     7
370
    35
100
AcDbPolyline
 90
       22
 70
   128
 43
0.0
 10
258.5805224753
 20
129.8491141007
 10
259.155153083
 20
129.4787388139
 10
259.7220127976
 20
129.0360760213
 10
260.2734358138
 20
128.5271119781
 10
260.8019650812
 20
127.9587295496
 10
261.3004531483
 20
127.3386151332
 10
261.762158819
 20
126.6751547127
 10
262.1808383161
 20
125.9773204519
 10
262.5508297179
 20
125.2545493622
 10
262.8671295251
 20
124.5166156827
 10
263.1254603256
 20
123.7734987004
 10
263.3223286385
 20
123.0352477978
 10
263.4550721575
 20
122.3118465518
 10
263.5218957542
 20
121.6130777234
 10
263.5218957542
 20
120.9483909621
 10
263.4550721575
 20
120.3267750162
 10
263.3223286385
 20
119.756636175
 10
263.1254603256
 20
119.2456845882
 10
262.8671295251
 20
118.8008299995
 10
262.5508297179
 20
118.4280883041
 10
262.1808383161
 20
118.132500194
 10
262.0802380395
 20
118.0709863809
  0
LINE
  5
356
330
1F
100
AcDbEntity
  8
0
  6
Continuous
 62
     7
370
    35
100
AcDbLine
 10
238.0744258208
 20
165.3667152668
 30
0.0
 11
231.003358009
 21
161.2846747077
 31
0.0
  0
LWPOLYLINE
  5
357
330
1F
100
AcDbEntity
  8
0
  6
Continuous
 62
     7
370
    35
100
AcDbPolyline
 90
       22
 70
   128
 43
0.0
 10
229.6249627883
 20
174.2864856949
 10
229.7279555429
 20
174.3425418445
 10
230.1688941251
 20
174.5152458336
 10
230.6498046184
 20
174.6028734582
 10
231.1641835333
 20
174.6042397047
 10
231.7050747775
 20
174.5193260973
 10
232.2651637248
 20
174.3492809466
 10
232.8368761328
 20
174.0964038216
 10
233.4124805722
 20
173.7641144518
 10
233.9841929803
 20
173.3569064806
 10
234.5442819276
 20
172.8802866975
 10
235.0851731717
 20
172.3407005673
 10
235.5995520867
 20
171.7454450668
 10
236.08046258
 20
171.1025700054
 10
236.5214011622
 20
170.4207691657
 10
236.9164048955
 20
169.7092627342
 10
237.2601320319
 20
168.9776726149
 10
237.5479342516
 20
168.2358923091
 10
237.7759195233
 20
167.493953123
 10
237.9410047372
 20
166.7618885113
 10
238.0409573992
 20
166.0495983919
 10
238.0744258208
 20
165.3667152668
  0
LINE
  5
358
330
1F
100
AcDbEntity
  8
0
  6
Continuous
 62
     7
370
    35
100
AcDbLine
 10
251.9763247709
 20
133.6616362837
 30
0.0
 11
258.5805224753
 21
129.8491141007
 31
0.0
  0
LINE
  5
359
330
1F
100
AcDbEntity
  8
0
  6
Continuous
 62
     7
370
    35
100
AcDbLine
 10
238.0744258208
 20
165.3667152668
 30
0.0
 11
238.0744258208
 21
157.7404315161
 31
0.0
  0
LINE
  5
35A
330
1F
100
AcDbEntity
  8
0
  6
Continuous
 62
     7
370
    35
100
AcDbLine
 10
246.2714404215
 20
122.2585883041
 30
0.0
 11
246.4556419351
 21
122.3649255744
 31
0.0
  0
LINE
  5
35B
330
1F
100
AcDbEntity
  8
0
  6
Continuous
 62
     7
370
    35
100
AcDbLine
 10
242.0824280139
 20
124.8895282334
 30
0.0
 11
241.8982265004
 21
124.7831909631
 31
0.0
  0
ARC
  5
35C
330
1F
100
AcDbEntity
  8
0
  6
Continuous
 62
     7
370
    35
100
AcDbCircle
 10
244.787622981
 20
126.1797474909
 30
0.0
 40
2.220077511968001
100
AcDbArc
 50
162.013353803
 51
175.9068957976
  0
LINE
  5
35D
330
1F
100
AcDbEntity
  8
0
  6
Continuous
 62
     7
370
    35
100
AcDbLine
 10
241.8982265004
 20
126.4162725869
 30
0.0
 11
242.6760439597
 21
126.8652970484
 31
0.0
  0
LINE
  5
35E
330
1F
100
AcDbEntity
  8
0
  6
Continuous
 62
     7
370
    35
100
AcDbLine
 10
226.7607173219
 20
152.6352075071
 30
0.0
 11
227.5385347812
 21
153.0842319686
 31
0.0
  0
ARC
  5
35F
330
1F
100
AcDbEntity
  8
0
  6
Continuous
 62
     7
370
    35
100
AcDbCircle
 10
227.9942564844
 20
155.2334706306
 30
0.0
 40
2.197022780207251
100
AcDbArc
 50
245.173229939
 51
258.0283934192
  0
LINE
  5
360
330
1F
100
AcDbEntity
  8
0
  6
Continuous
 62
     7
370
    35
100
AcDbLine
 10
225.571778966
 20
153.5816642275
 30
0.0
 11
225.3465037595
 21
153.4516156189
 31
0.0
  0
LINE
  5
361
330
1F
100
AcDbEntity
  8
0
  6
Continuous
 62
     7
370
    35
100
AcDbLine
 10
225.3465037595
 20
158.5016416415
 30
0.0
 11
225.571778966
 21
158.6316902501
 31
0.0
  0
ARC
  5
362
330
1F
100
AcDbEntity
  8
0
  6
Continuous
 62
     7
370
    35
100
AcDbCircle
 10
242.329632286
 20
125.676457728
 30
0.0
 40
5.906012502804763
100
AcDbArc
 50
71.2953832965
 51
113.7063290053
  0
ARC
  5
363
330
1F
100
AcDbEntity
  8
0
  6
Continuous
 62
     7
370
    35
100
AcDbCircle
 10
226.3389708607
 20
153.3763141281
 30
0.0
 40
5.903070566323951
100
AcDbArc
 50
306.2288041848
 51
348.7600841987
  0
LWPOLYLINE
  5
364
330
1F
100
AcDbEntity
  8
0
  6
Continuous
 62
     7
370
    35
100
AcDbPolyline
 90
       72
 70
   128
 43
0.0
 10
247.6203673669
 20
156.9977359203
 10
246.8704373115
 20
157.3923180924
 10
246.1263764756
 20
157.7071256566
 10
245.394008144
 20
157.9396948167
 10
244.679064092
 20
158.0882054037
 10
243.987139726
 20
158.151495121
 10
243.3236502925
 20
158.1290686408
 10
242.6937884957
 20
158.0211014805
 10
242.1024838584
 20
157.8284386297
 10
241.5543641409
 20
157.5525879364
 10
241.0537191232
 20
157.1957083062
 10
240.6044670315
 20
156.7605928062
 10
240.2101238724
 20
156.250646805
 10
239.8737759158
 20
155.6698613216
 10
239.5980555405
 20
155.0227817898
 10
239.3851206323
 20
154.3144724843
 10
239.2366376956
 20
153.5504768858
 10
239.1537688106
 20
152.7367742957
 10
239.1371625388
 20
151.8797330399
 10
239.1869488467
 20
150.9860606285
 10
239.302738089
 20
150.0627512596
 10
239.4836240578
 20
149.117031081
 10
239.7281910753
 20
148.1563016352
 10
240.0345250728
 20
147.1880819329
 10
240.4002285716
 20
146.219949606
 10
240.8224394458
 20
145.2594816024
 10
241.297853323
 20
144.3141948868
 10
241.822749445
 20
143.3914876091
 10
242.3930197879
 20
142.4985812051
 10
243.0042012131
 20
141.6424638778
 10
243.6515103973
 20
140.8298359062
 10
244.3298812685
 20
140.0670572059
 10
245.0340046547
 20
139.3600975545
 10
245.758369836
 20
138.7144898698
 10
246.4973076725
 20
138.1352869073
 10
247.2450349738
 20
137.6270217154
 10
247.99569976
 20
137.1936721585
 10
248.7434270613
 20
136.8386297843
 10
249.4823648978
 20
136.5646732808
 10
250.206730079
 20
136.3739467291
 10
250.9108534653
 20
136.2679428231
 10
251.5892243364
 20
136.2474911871
 10
252.2365335206
 20
136.3127518828
 10
252.8477149459
 20
136.4632141568
 10
253.4179852888
 20
136.6977004378
 10
253.9428814107
 20
137.0143755527
 10
254.4182952879
 20
137.4107610895
 10
254.8405061622
 20
137.8837547938
 10
255.2062096609
 20
138.4296548486
 10
255.5125436584
 20
139.0441888457
 10
255.7571106759
 20
139.7225472236
 10
255.9379966447
 20
140.459420908
 10
256.053785887
 20
141.2490428634
 10
256.1035721949
 20
142.0852332273
 10
256.0869659231
 20
142.9614476763
 10
256.0040970381
 20
143.8708286445
 10
255.8556141014
 20
144.8062589926
 10
255.6426791932
 20
145.7604177101
 10
255.366958818
 20
146.7258372111
 10
255.0306108614
 20
147.6949617792
 10
254.6362677022
 20
148.6602067005
 10
254.1870156105
 20
149.614017625
 10
253.6863705928
 20
150.5489296887
 10
253.1382508754
 20
151.4576259374
 10
252.546946238
 20
152.3329945907
 10
251.9170844413
 20
153.1681847021
 10
251.2535950077
 20
153.9566597765
 10
250.5616706418
 20
154.6922489275
 10
249.8467265897
 20
155.3691951725
 10
249.1143582582
 20
155.9822004895
 10
248.3702974223
 20
156.5264672806
 10
247.6203673669
 20
156.9977359203
  0
LINE
  5
365
330
1F
100
AcDbEntity
  8
0
  6
Continuous
 62
     7
370
    35
100
AcDbLine
 10
237.8269384474
 20
167.294340194
 30
0.0
 11
237.8269384474
 21
169.7144401175
 31
0.0
  0
ARC
  5
366
330
1F
100
AcDbEntity
  8
0
  6
Continuous
 62
     7
370
    35
100
AcDbCircle
 10
236.2917223461
 20
169.6445792652
 30
0.0
 40
1.536804807572132
100
AcDbArc
 50
2.6054784857
 51
57.39452166
  0
LINE
  5
367
330
1F
100
AcDbEntity
  8
0
  6
Continuous
 62
     7
370
    35
100
AcDbLine
 10
237.1198316662
 20
170.9391849853
 30
0.0
 11
235.4892604688
 21
171.8804937013
 31
0.0
  0
ARC
  5
368
330
1F
100
AcDbEntity
  8
0
  6
Continuous
 62
     7
370
    35
100
AcDbCircle
 10
229.4820221381
 20
166.9459916638
 30
0.0
 40
9.595250367987116
100
AcDbArc
 50
12.7752816176
 51
39.7137994219
  0
LINE
  5
369
330
1F
100
AcDbEntity
  8
0
  6
Continuous
 62
     7
370
    35
100
AcDbLine
 10
238.9401497625
 20
167.7245045647
 30
0.0
 11
238.9401497625
 21
168.4870755474
 31
0.0
  0
ARC
  5
36A
330
1F
100
AcDbEntity
  8
0
  6
Continuous
 62
     7
370
    35
100
AcDbCircle
 10
246.8923840291
 20
168.0699469581
 30
0.0
 40
7.959733681384421
100
AcDbArc
 50
182.4873457163
 51
237.5126544293
  0
LINE
  5
36B
330
1F
100
AcDbEntity
  8
0
  6
Continuous
 62
     7
370
    35
100
AcDbLine
 10
254.6279792114
 20
154.4221011727
 30
0.0
 11
242.6171050246
 21
161.3558312522
 31
0.0
  0
ARC
  5
36C
330
1F
100
AcDbEntity
  8
0
  6
Continuous
 62
     7
370
    35
100
AcDbCircle
 10
254.0171740555
 20
153.4428856087
 30
0.0
 40
1.154099674836589
100
AcDbArc
 50
28.8556088792
 51
58.0453283505
  0
LINE
  5
36D
330
1F
100
AcDbEntity
  8
0
  6
Continuous
 62
     7
370
    35
100
AcDbLine
 10
257.2127555223
 20
150.2157151121
 30
0.0
 11
255.0279792114
 21
153.9998586746
 31
0.0
  0
ARC
  5
36E
330
1F
100
AcDbEntity
  8
0
  6
Continuous
 62
     7
370
    35
100
AcDbCircle
 10
256.2248688272
 20
149.6187549752
 30
0.0
 40
1.15424500319963
100
AcDbArc
 50
1.956498643
 51
31.1437277994
  0
LINE
  5
36F
330
1F
100
AcDbEntity
  8
0
  6
Continuous
 62
     7
370
    35
100
AcDbLine
 10
257.3784409472
 20
135.7884475217
 30
0.0
 11
257.3784409472
 21
149.658161716
 31
0.0
  0
ARC
  5
370
330
1F
100
AcDbEntity
  8
0
  6
Continuous
 62
     7
370
    35
100
AcDbCircle
 10
265.3306752139
 20
136.1338899151
 30
0.0
 40
7.959733681384456
100
AcDbArc
 50
182.4873457163
 51
237.5126544293
  0
LINE
  5
371
330
1F
100
AcDbEntity
  8
0
  6
Continuous
 62
     7
370
    35
100
AcDbLine
 10
261.7157662792
 20
129.0385506824
 30
0.0
 11
261.0553962094
 21
129.4197742091
 31
0.0
  0
ARC
  5
372
330
1F
100
AcDbEntity
  8
0
  6
Continuous
 62
     7
370
    35
100
AcDbCircle
 10
257.0402382739
 20
123.2441412749
 30
0.0
 40
6.146143178187907
100
AcDbArc
 50
3.3622639648
 51
56.6323595025
  0
LINE
  5
373
330
1F
100
AcDbEntity
  8
0
  6
Continuous
 62
     7
370
    35
100
AcDbLine
 10
255.2694005677
 20
154.1392470236
 30
0.0
 11
257.4541768785
 21
150.3551034611
 31
0.0
  0
LWPOLYLINE
  5
374
330
1F
100
AcDbEntity
  8
0
  6
Continuous
 62
     7
370
    35
100
AcDbPolyline
 90
        9
 70
   128
 43
0.0
 10
257.4541768785
 20
150.3551034611
 10
257.4246654686
 20
150.3380665262
 10
257.3924452218
 20
150.3194651057
 10
257.3587543439
 20
150.3000140417
 10
257.3248875566
 20
150.2804608277
 10
257.2921463416
 20
150.2615568827
 10
257.2617889253
 20
150.2440286748
 10
257.2349819262
 20
150.2285498031
 10
257.2127555223
 20
150.2157151121
  0
LWPOLYLINE
  5
375
330
1F
100
AcDbEntity
  8
0
  6
Continuous
 62
     7
370
    35
100
AcDbPolyline
 90
        9
 70
   128
 43
0.0
 10
255.2694005677
 20
154.1392470236
 10
255.2398891578
 20
154.1222100887
 10
255.2076689109
 20
154.1036086681
 10
255.1739780331
 20
154.0841576041
 10
255.1401112458
 20
154.0646043901
 10
255.1073700307
 20
154.0457004452
 10
255.0770126144
 20
154.0281722373
 10
255.0502056153
 20
154.0126933656
 10
255.0279792114
 20
153.9998586746
  0
LINE
  5
376
330
1F
100
AcDbEntity
  8
0
  6
Continuous
 62
     7
370
    35
100
AcDbLine
 10
259.9363053235
 20
156.8333937926
 30
0.0
 11
255.2694005677
 21
154.1392470236
 31
0.0
  0
LINE
  5
377
330
1F
100
AcDbEntity
  8
0
  6
Continuous
 62
     7
370
    35
100
AcDbLine
 10
262.1210816344
 20
153.0492502301
 30
0.0
 11
259.9363053235
 21
156.8333937926
 31
0.0
  0
LINE
  5
378
330
1F
100
AcDbEntity
  8
0
  6
Continuous
 62
     7
370
    35
100
AcDbLine
 10
257.4541768785
 20
150.3551034611
 30
0.0
 11
262.1210816344
 21
153.0492502301
 31
0.0
  0
LINE
  5
379
330
1F
100
AcDbEntity
  8
0
  6
Continuous
 62
     7
370
    35
100
AcDbLine
 10
239.9743961193
 20
154.1524951414
 30
0.0
 11
243.4027537241
 21
156.1316438593
 31
0.0
  0
LINE
  5
37A
330
1F
100
AcDbEntity
  8
0
  6
Continuous
 62
     7
370
    35
100
AcDbLine
 10
249.819804271
 20
137.1001866707
 30
0.0
 11
253.2479719429
 21
139.0792257427
 31
0.0
  0
ARC
  5
37B
330
1F
100
AcDbEntity
  8
0
  6
Continuous
 62
     7
370
    35
100
AcDbCircle
 10
252.4384734725
 20
155.6015141133
 30
0.0
 40
9.05125786398185
100
AcDbArc
 50
163.6238599556
 51
176.6422799608
  0
ARC
  5
37C
330
1F
100
AcDbEntity
  8
0
  6
Continuous
 62
     7
370
    35
100
AcDbCircle
 10
257.305476012
 20
147.1682239503
 30
0.0
 40
9.049598403978957
100
AcDbArc
 50
243.3613030822
 51
256.3715982948
  0
ARC
  5
37D
330
1F
100
AcDbEntity
  8
0
  6
Continuous
 62
     7
370
    35
100
AcDbCircle
 10
256.2193185096
 20
149.60890329
 30
0.0
 40
1.442806253999317
100
AcDbArc
 50
1.956498643
 51
31.1437277994
  0
ARC
  5
37E
330
1F
100
AcDbEntity
  8
0
  6
Continuous
 62
     7
370
    35
100
AcDbCircle
 10
257.5198623035
 20
149.931103933
 30
0.0
 40
0.3074043815825104
100
AcDbArc
 50
242.6096722366
 51
297.3903277634
  0
ARC
  5
37F
330
1F
100
AcDbEntity
  8
0
  6
Continuous
 62
     7
370
    35
100
AcDbCircle
 10
254.0058941227
 20
153.4430306912
 30
0.0
 40
1.44262459354772
100
AcDbArc
 50
28.8556088792
 51
58.0453283505
  0
ARC
  5
380
330
1F
100
AcDbEntity
  8
0
  6
Continuous
 62
     7
370
    35
100
AcDbCircle
 10
254.9350224317
 20
154.4081290023
 30
0.0
 40
0.3073609615144388
100
AcDbArc
 50
122.60547834
 51
177.3945215144
  0
ARC
  5
381
330
1F
100
AcDbEntity
  8
0
  6
Continuous
 62
     7
370
    35
100
AcDbCircle
 10
260.8862232655
 20
152.303050059
 30
0.0
 40
1.442806253998403
100
AcDbArc
 50
1.956498643
 51
31.1437277994
  0
LINE
  5
382
330
1F
100
AcDbEntity
  8
0
  6
Continuous
 62
     7
370
    35
100
AcDbLine
 10
262.3281884155
 20
152.3523084851
 30
0.0
 11
257.6612836597
 21
149.658161716
 31
0.0
  0
LINE
  5
383
330
1F
100
AcDbEntity
  8
0
  6
Continuous
 62
     7
370
    35
100
AcDbLine
 10
254.7694005677
 20
154.6670501463
 30
0.0
 11
259.4363053235
 21
157.3611969153
 31
0.0
  0
ARC
  5
384
330
1F
100
AcDbEntity
  8
0
  6
Continuous
 62
     7
370
    35
100
AcDbCircle
 10
258.6727988785
 20
156.1371774602
 30
0.0
 40
1.442624593546639
100
AcDbArc
 50
28.8556088792
 51
58.0453283505
  0
ARC
  5
385
330
1F
100
AcDbEntity
  8
0
  6
Continuous
 62
     7
370
    35
100
AcDbCircle
 10
251.8934675933
 20
142.8238604597
 30
0.0
 40
6.153497456607853
100
AcDbArc
 50
234.5841409431
 51
289.6528078126
  0
LWPOLYLINE
  5
386
330
1F
100
AcDbEntity
  8
0
  6
Continuous
 62
     7
370
    35
100
AcDbPolyline
 90
       27
 70
   128
 43
0.0
 10
241.9848315435
 20
157.7778791173
 10
241.529546227
 20
157.3959353217
 10
241.1073353527
 20
156.9229416174
 10
240.741631854
 20
156.3770415627
 10
240.4352978565
 20
155.7625075655
 10
240.190730839
 20
155.0841491876
 10
240.0098448702
 20
154.3472755032
 10
239.8940556279
 20
153.5576535478
 10
239.84426932
 20
152.721463184
 10
239.8608755918
 20
151.8452487349
 10
239.9437444768
 20
150.9358677668
 10
240.0922274135
 20
150.0004374186
 10
240.3051623217
 20
149.0462787012
 10
240.580882697
 20
148.0808592001
 10
240.9172306536
 20
147.1117346321
 10
241.3115738127
 20
146.1464897107
 10
241.7608259044
 20
145.1926787863
 10
242.2614709221
 20
144.2577667225
 10
242.8095906396
 20
143.3490704738
 10
243.4008952769
 20
142.4737018205
 10
244.0307570737
 20
141.6385117092
 10
244.6942465072
 20
140.8500366347
 10
245.3861708731
 20
140.1144474837
 10
246.1011149252
 20
139.4375012387
 10
246.8334832567
 20
138.8244959217
 10
247.5775440927
 20
138.2802291306
 10
248.3274741481
 20
137.8089604909
  0
LINE
  5
387
330
1F
100
AcDbEntity
  8
0
  6
Continuous
 62
     7
370
    35
100
AcDbLine
 10
257.6612836597
 20
149.658161716
 30
0.0
 11
257.6612836597
 21
135.7884475217
 31
0.0
  0
ARC
  5
388
330
1F
100
AcDbEntity
  8
0
  6
Continuous
 62
     7
370
    35
100
AcDbCircle
 10
257.5198623035
 20
136.0613897387
 30
0.0
 40
0.3074043815822328
100
AcDbArc
 50
242.6096722366
 51
297.3903277634
  0
ARC
  5
389
330
1F
100
AcDbEntity
  8
0
  6
Continuous
 62
     7
370
    35
100
AcDbCircle
 10
242.9241482449
 20
161.3418590817
 30
0.0
 40
0.3073609615144025
100
AcDbArc
 50
122.60547834
 51
177.3945215144
  0
LINE
  5
38A
330
1F
100
AcDbEntity
  8
0
  6
Continuous
 62
     7
370
    35
100
AcDbLine
 10
242.7585263809
 20
161.6007802257
 30
0.0
 11
254.7694005677
 21
154.6670501463
 31
0.0
  0
LINE
  5
38B
330
1F
100
AcDbEntity
  8
0
  6
Continuous
 62
     7
370
    35
100
AcDbLine
 10
262.3281884155
 20
138.4825942907
 30
0.0
 11
262.3281884155
 21
152.3523084851
 31
0.0
  0
LINE
  5
38C
330
1F
100
AcDbEntity
  8
0
  6
Continuous
 62
     7
370
    35
100
AcDbLine
 10
257.6612836597
 20
135.7884475217
 30
0.0
 11
262.3281884155
 21
138.4825942907
 31
0.0
  0
LINE
  5
38D
330
1F
100
AcDbEntity
  8
0
  6
Continuous
 62
     7
370
    35
100
AcDbLine
 10
247.4254311367
 20
164.2949269948
 30
0.0
 11
242.7585263809
 21
161.6007802257
 31
0.0
  0
LINE
  5
38E
330
1F
100
AcDbEntity
  8
0
  6
Continuous
 62
     7
370
    35
100
AcDbLine
 10
259.4363053235
 20
157.3611969153
 30
0.0
 11
247.4254311367
 21
164.2949269948
 31
0.0
  0
SPLINE
  5
38F
330
1F
100
AcDbEntity
  8
0
  6
Continuous
 62
     7
370
    35
100
AcDbSpline
210
0.0
220
0.0
230
1.0
 70
     8
 71
     3
 72
    13
 73
     9
 74
     0
 42
0.00000001
 43
0.00000001
 40
0.0
 40
0.0
 40
0.0
 40
0.0
 40
0.2138131424523667
 40
0.4276158702219452
 40
0.6417198649601453
 40
0.8564687528063749
 40
0.977501092150785
 40
1.0
 40
1.0
 40
1.0
 40
1.0
 10
261.8685503407914
 20
129.2769401058035
 30
0.0
 10
261.852561099397
 20
129.2660556435105
 30
0.0
 10
261.8205833954324
 20
129.2442872490988
 30
0.0
 10
261.7764092876131
 20
129.1930015780796
 30
0.0
 10
261.7413528308123
 20
129.1348105653989
 30
0.0
 10
261.722522518128
 20
129.0833358034349
 30
0.0
 10
261.7168935794814
 20
129.0521716081199
 30
0.0
 10
261.7159190407779
 20
129.0403964673035
 30
0.0
 10
261.7157662792231
 20
129.0385506824077
 30
0.0
  0
ARC
  5
390
330
1F
100
AcDbEntity
  8
0
  6
Continuous
 62
     7
370
    35
100
AcDbCircle
 10
263.1188725617
 20
121.5074371736
 30
0.0
 40
2.156981237009186
100
AcDbArc
 50
271.451143578
 51
336.4869360767
  0
ARC
  5
391
330
1F
100
AcDbEntity
  8
0
  6
Continuous
 62
     7
370
    35
100
AcDbCircle
 10
233.118670102
 20
173.4692198739
 30
0.0
 40
2.15481950855861
100
AcDbArc
 50
83.9934567733
 51
148.5640200579
  0
SPLINE
  5
392
330
1F
100
AcDbEntity
  8
0
  6
Continuous
 62
     7
370
    35
100
AcDbSpline
210
0.0
220
0.0
230
1.0
 70
     8
 71
     3
 72
    13
 73
     9
 74
     0
 42
0.00000001
 43
0.00000001
 40
0.0
 40
0.0
 40
0.0
 40
0.0
 40
0.0224989078492151
 40
0.14353124719362
 40
0.3582801350398518
 40
0.5723841297780552
 40
0.7861868575476353
 40
1.0
 40
1.0
 40
1.0
 40
1.0
 10
238.9401497624681
 20
168.4870755473555
 30
0.0
 10
238.9418245438719
 20
168.4862851165504
 30
0.0
 10
238.9525087719811
 20
168.4812425820398
 30
0.0
 10
238.9823108760089
 20
168.4705376268576
 30
0.0
 10
239.0363030990531
 20
168.4611101737659
 30
0.0
 10
239.1042258765267
 20
168.4623750493506
 30
0.0
 10
239.1707284933903
 20
168.4749866083612
 30
0.0
 10
239.2055708648939
 20
168.491793253063
 30
0.0
 10
239.2229924749427
 20
168.5001967800788
 30
0.0
  0
LINE
  5
393
330
1F
100
AcDbEntity
  8
0
  6
Continuous
 62
     7
370
    35
100
AcDbLine
 10
261.8685503408
 20
129.2769401058
 30
0.0
 11
266.5354550966
 21
131.9710868748
 31
0.0
  0
ARC
  5
394
330
1F
100
AcDbEntity
  8
0
  6
Continuous
 62
     7
370
    35
100
AcDbCircle
 10
267.7077628504
 20
124.2559184963
 30
0.0
 40
2.25025046259995
100
AcDbArc
 50
300.9035380285
 51
335.9850536996
  0
ARC
  5
395
330
1F
100
AcDbEntity
  8
0
  6
Continuous
 62
     7
370
    35
100
AcDbCircle
 10
237.7937453641
 20
176.070526248
 30
0.0
 40
2.246429002324657
100
AcDbArc
 50
84.3730818622
 51
119.1061954683
  0
LINE
  5
396
330
1F
100
AcDbEntity
  8
0
  6
Continuous
 62
     7
370
    35
100
AcDbLine
 10
239.2229924749
 20
168.5001967801
 30
0.0
 11
243.8898972308
 21
171.1943435491
 31
0.0
  0
ARC
  5
397
330
1F
100
AcDbEntity
  8
0
  6
Continuous
 62
     7
370
    35
100
AcDbCircle
 10
265.3076082876
 20
136.1205722182
 30
0.0
 40
7.653534290097813
100
AcDbArc
 50
182.487128189
 51
237.5128719567
  0
ARC
  5
398
330
1F
100
AcDbEntity
  8
0
  6
Continuous
 62
     7
370
    35
100
AcDbCircle
 10
261.3624394297
 20
129.4058020387
 30
0.0
 40
0.3073609615142374
100
AcDbArc
 50
122.60547834
 51
177.3945215144
  0
ARC
  5
399
330
1F
100
AcDbEntity
  8
0
  6
Continuous
 62
     7
370
    35
100
AcDbCircle
 10
239.0815711187
 20
167.9974467817
 30
0.0
 40
0.3074043815824478
100
AcDbArc
 50
242.6096722366
 51
297.3903277634
  0
ARC
  5
39A
330
1F
100
AcDbEntity
  8
0
  6
Continuous
 62
     7
370
    35
100
AcDbCircle
 10
246.8693171029
 20
168.0566292613
 30
0.0
 40
7.653534290097873
100
AcDbArc
 50
182.487128189
 51
237.5128719567
  0
ARC
  5
39B
330
1F
100
AcDbEntity
  8
0
  6
Continuous
 62
     7
370
    35
100
AcDbCircle
 10
269.9745675181
 20
138.8147504382
 30
0.0
 40
7.653590078254178
100
AcDbArc
 50
182.4873457163
 51
237.5126544293
  0
LINE
  5
39C
330
1F
100
AcDbEntity
  8
0
  6
Continuous
 62
     7
370
    35
100
AcDbLine
 10
265.8637223215
 20
132.3588699517
 30
0.0
 11
261.1968175656
 21
129.6647231827
 31
0.0
  0
LINE
  5
39D
330
1F
100
AcDbEntity
  8
0
  6
Continuous
 62
     7
370
    35
100
AcDbLine
 10
239.2229924749
 20
167.7245045647
 30
0.0
 11
243.8898972308
 21
170.4186513337
 31
0.0
  0
ARC
  5
39E
330
1F
100
AcDbEntity
  8
0
  6
Continuous
 62
     7
370
    35
100
AcDbCircle
 10
251.5362763333
 20
170.7508074812
 30
0.0
 40
7.653590078254187
100
AcDbArc
 50
182.4873457163
 51
237.5126544293
  0
LINE
  5
39F
330
1F
100
AcDbEntity
  8
0
  6
Continuous
 62
     7
370
    35
100
AcDbLine
 10
261.1968175656
 20
129.6647231827
 30
0.0
 11
261.8685503408
 21
129.2769401058
 31
0.0
  0
LINE
  5
3A0
330
1F
100
AcDbEntity
  8
0
  6
Continuous
 62
     7
370
    35
100
AcDbLine
 10
239.2229924749
 20
168.5001967801
 30
0.0
 11
239.2229924749
 21
167.7245045647
 31
0.0
  0
LINE
  5
3A1
330
1F
100
AcDbEntity
  8
0
  6
Continuous
 62
     7
370
    35
100
AcDbLine
 10
266.5354550966
 20
131.9710868748
 30
0.0
 11
265.8637223215
 21
132.3588699517
 31
0.0
  0
LINE
  5
3A2
330
1F
100
AcDbEntity
  8
0
  6
Continuous
 62
     7
370
    35
100
AcDbLine
 10
243.8898972308
 20
170.4186513337
 30
0.0
 11
243.8898972308
 21
171.1943435491
 31
0.0
  0
SPLINE
  5
3A3
330
1F
100
AcDbEntity
  8
0
  6
Continuous
 62
     7
370
    35
100
AcDbSpline
210
0.0
220
0.0
230
1.0
 70
     8
 71
     3
 72
    13
 73
     9
 74
     0
 42
0.00000001
 43
0.00000001
 40
0.0
 40
0.0
 40
0.0
 40
0.0
 40
0.0305799638278009
 40
0.2268731541130202
 40
0.4173959040783063
 40
0.6134244242747876
 40
0.803947420099919
 40
1.0
 40
1.0
 40
1.0
 40
1.0
 10
266.639318946376
 20
131.9775011470292
 30
0.0
 10
266.6386580216146
 20
131.9781904316531
 30
0.0
 10
266.6337546121105
 20
131.9833042433497
 30
0.0
 10
266.6215716389735
 20
131.9882954721639
 30
0.0
 10
266.6029564657524
 20
131.9919297876342
 30
0.0
 10
266.5819842650316
 20
131.9900452788222
 30
0.0
 10
266.5592787390241
 20
131.9835892962894
 30
0.0
 10
266.543471678915
 20
131.9752939011365
 30
0.0
 10
266.5354550966226
 20
131.9710868748184
 30
0.0
  0
SPLINE
  5
3A4
330
1F
100
AcDbEntity
  8
0
  6
Continuous
 62
     7
370
    35
100
AcDbSpline
210
0.0
220
0.0
230
1.0
 70
     8
 71
     3
 72
    13
 73
     9
 74
     0
 42
0.00000001
 43
0.00000001
 40
0.0
 40
0.0
 40
0.0
 40
0.0
 40
0.0227393387014716
 40
0.2206201393748024
 40
0.4126838286695824
 40
0.6102978186145318
 40
0.8023617557576402
 40
1.0
 40
1.0
 40
1.0
 40
1.0
 10
243.9475885271816
 20
171.2803469002414
 30
0.0
 10
243.9477819763808
 20
171.2796703017114
 30
0.0
 10
243.9496588466734
 20
171.2731058512695
 30
0.0
 10
243.9478413947866
 20
171.2603046250775
 30
0.0
 10
243.9417096322903
 20
171.2423724400436
 30
0.0
 10
243.9295815654746
 20
171.2251544477059
 30
0.0
 10
243.912638264532
 20
171.2087218968285
 30
0.0
 10
243.8975495185922
 20
171.1991818188218
 30
0.0
 10
243.8898972307739
 20
171.1943435490936
 30
0.0
  0
LINE
  5
3A5
330
1F
100
AcDbEntity
  8
0
  6
Continuous
 62
     7
370
    35
100
AcDbLine
 10
237.5629294344
 20
168.192462892
 30
0.0
 11
237.5719131943
 21
168.1872766778
 31
0.0
  0
LWPOLYLINE
  5
3A6
330
1F
100
AcDbEntity
  8
0
  6
Continuous
 62
     7
370
    35
100
AcDbPolyline
 90
        3
 70
   128
 43
0.0
 10
237.4824153842
 20
169.0422684006
 10
237.495785372
 20
169.022772987
 10
237.5719131943
 20
168.8635837244
  0
LINE
  5
3A7
330
1F
100
AcDbEntity
  8
0
  6
Continuous
 62
     7
370
    35
100
AcDbLine
 10
235.9177501382
 20
171.6331318803
 30
0.0
 11
235.9177501382
 21
171.6076412214
 31
0.0
  0
LINE
  5
3A8
330
1F
100
AcDbEntity
  8
0
  6
Continuous
 62
     7
370
    35
100
AcDbLine
 10
248.3318087507
 20
137.8064594566
 30
0.0
 11
251.8922577275
 21
139.8618629004
 31
0.0
  0
LINE
  5
3A9
330
1F
100
AcDbEntity
  8
0
  6
Continuous
 62
     7
370
    35
100
AcDbLine
 10
239.8421937705
 20
152.5106476129
 30
0.0
 11
243.4027537241
 21
154.5661151222
 31
0.0
  0
ARC
  5
3AA
330
1F
100
AcDbEntity
  8
0
  6
Continuous
 62
     7
370
    35
100
AcDbCircle
 10
263.7203850626
 20
156.4936702503
 30
0.0
 40
20.4088611142735
100
AcDbArc
 50
185.419490508
 51
234.5805096376
  0
ARC
  5
3AB
330
1F
100
AcDbEntity
  8
0
  6
Continuous
 62
     7
370
    35
100
AcDbCircle
 10
251.4819308359
 20
137.5855501038
 30
0.0
 40
2.312999806716124
100
AcDbArc
 50
40.2237484403
 51
79.7816280924
  0
ARC
  5
3AC
330
1F
100
AcDbEntity
  8
0
  6
Continuous
 62
     7
370
    35
100
AcDbCircle
 10
241.2256538418
 20
155.3488794907
 30
0.0
 40
2.313543592405925
100
AcDbArc
 50
340.2242290904
 51
19.7757709096
  0
ARC
  5
3AD
330
1F
100
AcDbEntity
  8
0
  6
Continuous
 62
     7
370
    35
100
AcDbCircle
 10
226.3285792342
 20
160.2427760727
 30
0.0
 40
0.8724956579018971
100
AcDbArc
 50
224.7276042741
 51
289.0672330697
  0
LWPOLYLINE
  5
3AE
330
1F
100
AcDbEntity
  8
0
  6
Continuous
 62
     7
370
    35
100
AcDbPolyline
 90
        5
 70
   128
 43
0.0
 10
226.010394926
 20
160.0828204934
 10
225.9187109244
 20
160.047823172
 10
225.7557784182
 20
159.9379430241
 10
225.6769432684
 20
159.8006494754
 10
225.6939189402
 20
159.6563418425
  0
LINE
  5
3AF
330
1F
100
AcDbEntity
  8
0
  6
Continuous
 62
     7
370
    35
100
AcDbLine
 10
225.5983305429
 20
159.5576045766
 30
0.0
 11
225.5717959475
 21
159.6688749413
 31
0.0
  0
ARC
  5
3B0
330
1F
100
AcDbEntity
  8
0
  6
Continuous
 62
     7
370
    35
100
AcDbCircle
 10
226.3323510806
 20
152.225196303
 30
0.0
 40
1.001736466041407
100
AcDbArc
 50
224.1114518191
 51
294.1556013286
  0
LINE
  5
3B1
330
1F
100
AcDbEntity
  8
0
  6
Continuous
 62
     7
370
    35
100
AcDbLine
 10
225.571778966
 20
151.6696885383
 30
0.0
 11
225.5983305429
 21
151.5555046202
 31
0.0
  0
LWPOLYLINE
  5
3B2
330
1F
100
AcDbEntity
  8
0
  6
Continuous
 62
     7
370
    35
100
AcDbPolyline
 90
       11
 70
   128
 43
0.0
 10
247.7212636772
 20
122.8637381194
 10
247.71507827
 20
122.8580591936
 10
247.558589094
 20
122.6718048026
 10
247.4451420958
 20
122.4491734712
 10
247.3915934299
 20
122.223244154
 10
247.4058994512
 20
122.0275858262
 10
247.4859345459
 20
121.891269746
 10
247.6198069589
 20
121.8345499964
 10
247.7876256918
 20
121.8658540973
 10
247.9644559422
 20
121.9805308304
 10
247.9670644671
 20
121.9828331231
  0
LWPOLYLINE
  5
3B3
330
1F
100
AcDbEntity
  8
0
  6
Continuous
 62
     7
370
    35
100
AcDbPolyline
 90
        7
 70
   128
 43
0.0
 10
247.3894824873
 20
121.8263798262
 10
247.2872560819
 20
121.9513631725
 10
247.2474049263
 20
122.1462479182
 10
247.2776601038
 20
122.3836531187
 10
247.3740207876
 20
122.6321852361
 10
247.5237446166
 20
122.8589793521
 10
247.6394556671
 20
122.9793429789
  0
LWPOLYLINE
  5
3B4
330
1F
100
AcDbEntity
  8
0
  6
Continuous
 62
     7
370
    35
100
AcDbPolyline
 90
        9
 70
   128
 43
0.0
 10
240.7918897858
 20
127.0448305851
 10
240.7773862399
 20
127.034444845
 10
240.594098161
 20
126.8593791
 10
240.4443743319
 20
126.632584984
 10
240.3480136481
 20
126.3840528666
 10
240.3177584707
 20
126.1466476661
 10
240.3576096263
 20
125.9517629205
 10
240.4622973535
 20
125.8251694287
 10
240.4729492615
 20
125.8186605401
  0
LINE
  5
3B5
330
1F
100
AcDbEntity
  8
0
  6
Continuous
 62
     7
370
    35
100
AcDbLine
 10
247.4653325504
 20
121.7985737155
 30
0.0
 11
247.2668139763
 21
121.683971382
 31
0.0
  0
LINE
  5
3B6
330
1F
100
AcDbEntity
  8
0
  6
Continuous
 62
     7
370
    35
100
AcDbLine
 10
225.6087689259
 20
159.8024647416
 30
0.0
 11
225.3465037595
 21
159.6510622837
 31
0.0
  0
LINE
  5
3B7
330
1F
100
AcDbEntity
  8
0
  6
Continuous
 62
     7
370
    35
100
AcDbLine
 10
241.0870544592
 20
125.4641451555
 30
0.0
 11
240.9028529456
 21
125.3578078852
 31
0.0
  0
LINE
  5
3B8
330
1F
100
AcDbEntity
  8
0
  6
Continuous
 62
     7
370
    35
100
AcDbLine
 10
225.571778966
 20
152.4322435853
 30
0.0
 11
225.3465037595
 21
152.3021949767
 31
0.0
  0
LINE
  5
3B9
330
1F
100
AcDbEntity
  8
0
  6
Continuous
 62
     7
370
    35
100
AcDbLine
 10
238.9401497625
 20
168.4870755474
 30
0.0
 11
238.8397405804
 21
169.0677680844
 31
0.0
  0
LWPOLYLINE
  5
3BA
330
1F
100
AcDbEntity
  8
0
  6
Continuous
 62
     7
370
    35
100
AcDbPolyline
 90
       13
 70
   128
 43
0.0
 10
236.8631271135
 20
173.0769066825
 10
236.3854367704
 20
173.6102888231
 10
235.879413698
 20
174.0881838458
 10
235.3568468429
 20
174.4985775835
 10
234.8264955865
 20
174.8345909254
 10
234.2972497938
 20
175.0905915415
 10
233.7779808
 20
175.2622882928
 10
233.277392707
 20
175.3468031603
 10
232.8038764832
 20
175.3427194871
 10
232.3653693124
 20
175.2501057247
 10
231.9692215489
 20
175.0705142855
 10
231.6220735091
 20
174.8069555208
 10
231.4119726211
 20
174.5755753729
  0
LWPOLYLINE
  5
3BB
330
1F
100
AcDbEntity
  8
0
  6
Continuous
 62
     7
370
    35
100
AcDbPolyline
 90
       20
 70
   128
 43
0.0
 10
263.2242886753
 20
119.4740706451
 10
263.5302029318
 20
119.5404543484
 10
263.931984965
 20
119.7093842609
 10
264.2855489806
 20
119.962732915
 10
264.5849684604
 20
120.2962536243
 10
264.8252244686
 20
120.7043558409
 10
265.0022897811
 20
121.1801988651
 10
265.1131963897
 20
121.7158065107
 10
265.1560852533
 20
122.3022008039
 10
265.1302374593
 20
122.9295524737
 10
265.0360862742
 20
123.5873457124
 10
264.875209881
 20
124.2645544443
 10
264.6503049253
 20
124.9498271466
 10
264.3651413139
 20
125.6316771266
 10
264.0244990224
 20
126.2986750639
 10
263.6340879721
 20
126.9396405915
 10
263.2004523197
 20
127.5438297033
 10
262.7308607618
 20
128.1011148477
 10
262.2331846962
 20
128.6021546876
 10
261.7157662792
 20
129.0385506824
  0
LWPOLYLINE
  5
3BC
330
1F
100
AcDbEntity
  8
0
  6
Continuous
 62
     7
370
    35
100
AcDbPolyline
 90
        6
 70
   128
 43
0.0
 10
259.9363053235
 20
156.8333937926
 10
259.9619737895
 20
156.848211522
 10
259.9828128868
 20
156.8602406089
 10
259.9980217806
 20
156.8690187821
 10
260.0070160016
 20
156.8742087016
 10
260.0095104041
 20
156.875646255
  0
LWPOLYLINE
  5
3BD
330
1F
100
AcDbEntity
  8
0
  6
Continuous
 62
     7
370
    35
100
AcDbPolyline
 90
        6
 70
   128
 43
0.0
 10
262.1210816344
 20
153.0492502301
 10
262.1467501003
 20
153.0640679595
 10
262.1675891976
 20
153.0760970464
 10
262.1827980914
 20
153.0848752197
 10
262.1917923125
 20
153.0900651391
 10
262.194286715
 20
153.0915026925
  0
ARC
  5
3BE
330
1F
100
AcDbEntity
  8
0
  6
Continuous
 62
     7
370
    35
100
AcDbCircle
 10
262.291132945
 20
152.4407302156
 30
0.0
 40
0.0958723647560502
100
AcDbArc
 50
292.7374130965
 51
355.9598039751
  0
ARC
  5
3BF
330
1F
100
AcDbEntity
  8
0
  6
Continuous
 62
     7
370
    35
100
AcDbCircle
 10
259.4943466662
 20
157.2848800983
 30
0.0
 40
0.0958804152012157
100
AcDbArc
 50
64.0362214876
 51
127.2541319314
  0
ARC
  5
3C0
330
1F
100
AcDbEntity
  8
0
  6
Continuous
 62
     7
370
    35
100
AcDbCircle
 10
262.2866756468
 20
138.5742163773
 30
0.0
 40
0.1005878556988452
100
AcDbArc
 50
294.3746582936
 51
354.3052007488
  0
ARC
  5
3C1
330
1F
100
AcDbEntity
  8
0
  6
Continuous
 62
     7
370
    35
100
AcDbCircle
 10
247.4840151477
 20
164.2131507289
 30
0.0
 40
0.1005954471802471
100
AcDbArc
 50
65.6928809538
 51
125.6175774752
  0
LWPOLYLINE
  5
3C2
330
1F
100
AcDbEntity
  8
0
  6
Continuous
 62
     7
370
    35
100
AcDbPolyline
 90
       16
 70
   128
 43
0.0
 10
261.8685503408
 20
129.2769401058
 10
262.404626496
 20
128.8265441425
 10
262.9204201112
 20
128.3089891046
 10
263.4072695477
 20
127.7329662102
 10
263.8569992215
 20
127.1081485186
 10
264.2620568952
 20
126.4450284921
 10
264.6156405005
 20
125.7547417982
 10
264.9118123654
 20
125.0488803096
 10
265.1455989234
 20
124.3392974442
 10
265.3130742349
 20
123.6379091121
 10
265.4114259139
 20
122.9564936143
 10
265.4390023567
 20
122.3064938509
 10
265.3953404765
 20
121.6988251629
 10
265.2811734801
 20
121.1436920322
 10
265.0984185555
 20
120.6504167197
 10
265.0967577752
 20
120.6468919167
  0
LWPOLYLINE
  5
3C3
330
1F
100
AcDbEntity
  8
0
  6
Continuous
 62
     7
370
    35
100
AcDbPolyline
 90
       16
 70
   128
 43
0.0
 10
233.3441548065
 20
175.6122093191
 10
233.3672804156
 20
175.6103599987
 10
233.8858088391
 20
175.5220585529
 10
234.423616412
 20
175.3434246832
 10
234.9716718185
 20
175.0774581592
 10
235.520771653
 20
174.7286253138
 10
236.0616949707
 20
174.3027840404
 10
236.5853581339
 20
173.8070854228
 10
237.0829673518
 20
173.2498536476
 10
237.5461663532
 20
172.6404462179
 10
237.9671767123
 20
171.9890968141
 10
238.3389284702
 20
171.3067434414
 10
238.6551788597
 20
170.6048447495
 10
238.9106171393
 20
169.8951876097
 10
239.1009537751
 20
169.1896891796
 10
239.2229924749
 20
168.5001967801
  0
LWPOLYLINE
  5
3C4
330
1F
100
AcDbEntity
  8
0
  6
Continuous
 62
     7
370
    35
100
AcDbPolyline
 90
       16
 70
   128
 43
0.0
 10
269.7632301126
 20
123.3401229523
 10
269.7653233114
 20
123.3445634887
 10
269.9480782359
 20
123.8378388012
 10
270.0622452323
 20
124.3929719319
 10
270.1059071125
 20
125.0006406199
 10
270.0783306698
 20
125.6506403833
 10
269.9799789907
 20
126.3320558811
 10
269.8125036793
 20
127.0334442132
 10
269.5787171212
 20
127.7430270786
 10
269.2825452564
 20
128.4488885672
 10
268.928961651
 20
129.1391752612
 10
268.5239039774
 20
129.8022952876
 10
268.0741743035
 20
130.4271129792
 10
267.587324867
 20
131.0031358736
 10
267.0715312518
 20
131.5206909115
 10
266.5354550966
 20
131.9710868748
  0
LWPOLYLINE
  5
3C5
330
1F
100
AcDbEntity
  8
0
  6
Continuous
 62
     7
370
    35
100
AcDbPolyline
 90
       16
 70
   128
 43
0.0
 10
243.8898972308
 20
171.1943435491
 10
243.7678585309
 20
171.8838359486
 10
243.5775218951
 20
172.5893343787
 10
243.3220836155
 20
173.2989915185
 10
243.005833226
 20
174.0008902104
 10
242.6340814681
 20
174.6832435831
 10
242.2130711091
 20
175.3345929869
 10
241.7498721076
 20
175.9440004166
 10
241.2522628898
 20
176.5012321918
 10
240.7285997266
 20
176.9969308094
 10
240.1876764088
 20
177.4227720828
 10
239.6385765743
 20
177.7716049282
 10
239.0905211678
 20
178.0375714522
 10
238.552713595
 20
178.2162053219
 10
238.0341851715
 20
178.3045067677
 10
238.0140087542
 20
178.306130708
  0
ARC
  5
3C6
330
1F
100
AcDbEntity
  8
0
  6
Continuous
 62
     7
370
    35
100
AcDbCircle
 10
265.922327958
 20
132.2770334704
 30
0.0
 40
0.1006569933376322
100
AcDbArc
 50
65.8070743679
 51
125.6076229896
  0
ARC
  5
3C7
330
1F
100
AcDbEntity
  8
0
  6
Continuous
 62
     7
370
    35
100
AcDbCircle
 10
243.8483440487
 20
170.5103211783
 30
0.0
 40
0.1006480369746386
100
AcDbArc
 50
294.3843935483
 51
354.1935769319
  0
LINE
  5
3C8
330
1F
100
AcDbEntity
  8
0
  6
Continuous
 62
     7
370
    35
100
AcDbLine
 10
36.8426064826
 20
167.5804821599
 30
0.0
 11
36.8426064826
 21
165.5183558451
 31
0.0
  0
LINE
  5
3C9
330
1F
100
AcDbEntity
  8
0
  6
Continuous
 62
     7
370
    35
100
AcDbLine
 10
36.8426064826
 20
155.5183558451
 30
0.0
 11
36.8426064826
 21
151.9804821599
 31
0.0
  0
LINE
  5
3CA
330
1F
100
AcDbEntity
  8
0
  6
Continuous
 62
     7
370
    35
100
AcDbLine
 10
42.8426064826
 20
151.9804821599
 30
0.0
 11
42.8426064826
 21
155.5183558451
 31
0.0
  0
LINE
  5
3CB
330
1F
100
AcDbEntity
  8
0
  6
Continuous
 62
     7
370
    35
100
AcDbLine
 10
42.8426064826
 20
165.5183558451
 30
0.0
 11
42.8426064826
 21
167.5804821599
 31
0.0
  0
LINE
  5
3CC
330
1F
100
AcDbEntity
  8
0
  6
Continuous
 62
     7
370
    35
100
AcDbLine
 10
42.8426064826
 20
167.5804821599
 30
0.0
 11
42.5798822715
 21
168.0183558451
 31
0.0
  0
LINE
  5
3CD
330
1F
100
AcDbEntity
  8
0
  6
Continuous
 62
     7
370
    35
100
AcDbLine
 10
37.1053306937
 20
168.0183558451
 30
0.0
 11
36.8426064826
 21
167.5804821599
 31
0.0
  0
LINE
  5
3CE
330
1F
100
AcDbEntity
  8
0
  6
Continuous
 62
     7
370
    35
100
AcDbLine
 10
72.8426064826
 20
167.6179407687
 30
0.0
 11
72.8426064826
 21
165.5183558451
 31
0.0
  0
LINE
  5
3CF
330
1F
100
AcDbEntity
  8
0
  6
Continuous
 62
     7
370
    35
100
AcDbLine
 10
72.8426064826
 20
155.5183558451
 30
0.0
 11
72.8426064826
 21
152.0179407687
 31
0.0
  0
LINE
  5
3D0
330
1F
100
AcDbEntity
  8
0
  6
Continuous
 62
     7
370
    35
100
AcDbLine
 10
78.8426064826
 20
152.0179407687
 30
0.0
 11
78.8426064826
 21
155.5183558451
 31
0.0
  0
LINE
  5
3D1
330
1F
100
AcDbEntity
  8
0
  6
Continuous
 62
     7
370
    35
100
AcDbLine
 10
78.8426064826
 20
165.5183558451
 30
0.0
 11
78.8426064826
 21
167.6179407687
 31
0.0
  0
LINE
  5
3D2
330
1F
100
AcDbEntity
  8
0
  6
Continuous
 62
     7
370
    35
100
AcDbLine
 10
78.8426064826
 20
167.6179407687
 30
0.0
 11
78.6023574367
 21
168.0183558451
 31
0.0
  0
LINE
  5
3D3
330
1F
100
AcDbEntity
  8
0
  6
Continuous
 62
     7
370
    35
100
AcDbLine
 10
73.0828555284
 20
168.0183558451
 30
0.0
 11
72.8426064826
 21
167.6179407687
 31
0.0
  0
LINE
  5
3D4
330
1F
100
AcDbEntity
  8
0
  6
Continuous
 62
     7
370
    35
100
AcDbLine
 10
60.4149178494
 20
155.1183558451
 30
0.0
 11
70.2149178494
 21
155.1183558451
 31
0.0
  0
ARC
  5
3D5
330
1F
100
AcDbEntity
  8
0
  6
Continuous
 62
     7
370
    35
100
AcDbCircle
 10
70.2149178494
 20
155.2183558451
 30
0.0
 40
0.0999999999999943
100
AcDbArc
 50
270.0
 51
360.0
  0
ARC
  5
3D6
330
1F
100
AcDbEntity
  8
0
  6
Continuous
 62
     7
370
    35
100
AcDbCircle
 10
60.4149178494
 20
155.2183558451
 30
0.0
 40
0.1000000000000227
100
AcDbArc
 50
180.0
 51
270.0
  0
LINE
  5
3D7
330
1F
100
AcDbEntity
  8
0
  6
Continuous
 62
     7
370
    35
100
AcDbLine
 10
71.8786760864
 20
171.5182327267
 30
0.0
 11
71.8786760868
 21
171.5182419606
 31
0.0
  0
LINE
  5
3D8
330
1F
100
AcDbEntity
  8
0
  6
Continuous
 62
     7
370
    35
100
AcDbLine
 10
71.8786760868
 20
171.5184697296
 30
0.0
 11
71.8786760864
 21
171.5184789635
 31
0.0
  0
LINE
  5
3D9
330
1F
100
AcDbEntity
  8
0
  6
Continuous
 62
     7
370
    35
100
AcDbLine
 10
70.004843119
 20
169.5183558451
 30
0.0
 11
70.4644625268
 21
169.5183558451
 31
0.0
  0
LINE
  5
3DA
330
1F
100
AcDbEntity
  8
0
  6
Continuous
 62
     7
370
    35
100
AcDbLine
 10
70.4644625268
 20
173.5183558451
 30
0.0
 11
70.004843119
 21
173.5183558451
 31
0.0
  0
ARC
  5
3DB
330
1F
100
AcDbEntity
  8
0
  6
Continuous
 62
     7
370
    35
100
AcDbCircle
 10
39.8426064826
 20
167.0183558451
 30
0.0
 40
4.000000000000012
100
AcDbArc
 50
165.5224878141
 51
202.024312837
  0
ARC
  5
3DC
330
1F
100
AcDbEntity
  8
0
  6
Continuous
 62
     7
370
    35
100
AcDbCircle
 10
39.8426064826
 20
167.0183558451
 30
0.0
 40
4.000000000000012
100
AcDbArc
 50
337.975687163
 51
14.4775121859
  0
LINE
  5
3DD
330
1F
100
AcDbEntity
  8
0
  6
Continuous
 62
     7
370
    35
100
AcDbLine
 10
82.8426064826
 20
155.5183558451
 30
0.0
 11
82.8426064826
 21
165.5183558451
 31
0.0
  0
ARC
  5
3DE
330
1F
100
AcDbEntity
  8
0
  6
Continuous
 62
     7
370
    35
100
AcDbCircle
 10
82.6426064826
 20
168.2183558451
 30
0.0
 40
0.1999999999999886
100
AcDbArc
 50
270.0
 51
0.0
  0
LINE
  5
3DF
330
1F
100
AcDbEntity
  8
0
  6
Continuous
 62
     7
370
    35
100
AcDbLine
 10
82.8426064826
 20
168.2183558451
 30
0.0
 11
82.8426064826
 21
174.8183558451
 31
0.0
  0
ARC
  5
3E0
330
1F
100
AcDbEntity
  8
0
  6
Continuous
 62
     7
370
    35
100
AcDbCircle
 10
82.6426064826
 20
174.8183558451
 30
0.0
 40
0.2000000000000171
100
AcDbArc
 50
0.0
 51
90.0
  0
LINE
  5
3E1
330
1F
100
AcDbEntity
  8
0
  6
Continuous
 62
     7
370
    35
100
AcDbLine
 10
36.8426064826
 20
151.9804821599
 30
0.0
 11
42.8426064826
 21
151.9804821599
 31
0.0
  0
LINE
  5
3E2
330
1F
100
AcDbEntity
  8
0
  6
Continuous
 62
     7
370
    35
100
AcDbLine
 10
36.8426064826
 20
167.5804821599
 30
0.0
 11
42.8426064826
 21
167.5804821599
 31
0.0
  0
LINE
  5
3E3
330
1F
100
AcDbEntity
  8
0
  6
Continuous
 62
     7
370
    35
100
AcDbLine
 10
72.8426064826
 20
152.0179407687
 30
0.0
 11
78.8426064826
 21
152.0179407687
 31
0.0
  0
LINE
  5
3E4
330
1F
100
AcDbEntity
  8
0
  6
Continuous
 62
     7
370
    35
100
AcDbLine
 10
72.8426064826
 20
167.6179407687
 30
0.0
 11
78.8426064826
 21
167.6179407687
 31
0.0
  0
LINE
  5
3E5
330
1F
100
AcDbEntity
  8
0
  6
Continuous
 62
     7
370
    35
100
AcDbLine
 10
70.3149178494
 20
155.5183558451
 30
0.0
 11
70.3149178494
 21
155.2183558451
 31
0.0
  0
LINE
  5
3E6
330
1F
100
AcDbEntity
  8
0
  6
Continuous
 62
     7
370
    35
100
AcDbLine
 10
60.3149178494
 20
155.2183558451
 30
0.0
 11
60.3149178494
 21
155.5183558451
 31
0.0
  0
LWPOLYLINE
  5
3E7
330
1F
100
AcDbEntity
  8
0
  6
Continuous
 62
     7
370
    35
100
AcDbPolyline
 90
       36
 70
   128
 43
0.0
 10
70.1217766125
 20
169.5779608522
 10
69.88229179
 20
169.6956780166
 10
69.6615184139
 20
169.8719775461
 10
69.4665523224
 20
170.1011930288
 10
69.3036598859
 20
170.3759572904
 10
69.1780766014
 20
170.6874391815
 10
69.0938388189
 20
171.0256274179
 10
69.0536540102
 20
171.3796523514
 10
69.058813748
 20
171.7381353293
 10
69.1091521942
 20
172.0895544137
 10
69.2030514296
 20
172.4226147061
 10
69.3374934555
 20
172.7266113747
 10
69.5081571947
 20
172.9917737165
 10
69.7095573741
 20
173.2095791955
 10
69.9352208262
 20
173.3730273645
 10
70.1778945421
 20
173.4768648648
 10
70.4297787888
 20
173.5177542738
 10
70.6827777993
 20
173.4943813721
 10
70.9287599774
 20
173.4074973842
 10
71.1598192533
 20
173.2598948328
 10
71.368529192
 20
173.0563177854
 10
71.5481816841
 20
172.8033093757
 10
71.6930025509
 20
172.5090015024
 10
71.7983371304
 20
172.1828534625
 10
71.8607998827
 20
171.8353479224
 10
71.8783832034
 20
171.4776539962
 10
71.8505219502
 20
171.1212682609
 10
71.7781116067
 20
170.7776452472
 10
71.6634795008
 20
170.4578292816
 10
71.5103100029
 20
170.1720995124
 10
71.3235261066
 20
169.9296395294
 10
71.1091311999
 20
169.738242196
 10
70.8740161117
 20
169.60405918
 10
70.6257376343
 20
169.5314032338
 10
70.3722756422
 20
169.5226095795
 10
70.1217766125
 20
169.5779608522
  0
LWPOLYLINE
  5
3E8
330
1F
100
AcDbEntity
  8
0
  6
Continuous
 62
     7
370
    35
100
AcDbPolyline
 90
       35
 70
   128
 43
0.0
 10
70.2535440733
 20
169.7234904766
 10
70.0257335275
 20
169.8364233909
 10
69.8164753226
 20
170.0066324978
 10
69.6328954958
 20
170.22832153
 10
69.4812456378
 20
170.4939411337
 10
69.3666900028
 20
170.7944459517
 10
69.2931296455
 20
171.1196026529
 10
69.2630695755
 20
171.4583384158
 10
69.2775334527
 20
171.7991180003
 10
69.3360287269
 20
172.1303365663
 10
69.4365634117
 20
172.4407148629
 10
69.5757139191
 20
172.7196833293
 10
69.7487416454
 20
172.9577420291
 10
69.9497543388
 20
173.1467841588
 10
70.1719067534
 20
173.2803721153
 10
70.4076337549
 20
173.353956721
 10
70.648907943
 20
173.3650321405
 10
70.8875130148
 20
173.3132212136
 10
71.1153235606
 20
173.2002882992
 10
71.3245817655
 20
173.0300791924
 10
71.5081615923
 20
172.8083901601
 10
71.6598114502
 20
172.5427705565
 10
71.7743670853
 20
172.2422657385
 10
71.8479274426
 20
171.9171090373
 10
71.8779875125
 20
171.5783732744
 10
71.8635236354
 20
171.2375936899
 10
71.8050283612
 20
170.9063751239
 10
71.7044936764
 20
170.5959968273
 10
71.565343169
 20
170.3170283609
 10
71.3923154427
 20
170.0789696611
 10
71.1913027492
 20
169.8899275314
 10
70.9691503347
 20
169.7563395749
 10
70.7334233332
 20
169.6827549692
 10
70.492149145
 20
169.6716795497
 10
70.2535440733
 20
169.7234904766
  0
LINE
  5
3E9
330
1F
100
AcDbEntity
  8
0
  6
Continuous
 62
     7
370
    35
100
AcDbLine
 10
70.3726787391
 20
170.3980682736
 30
0.0
 11
71.1576368703
 21
170.7158965255
 31
0.0
  0
LINE
  5
3EA
330
1F
100
AcDbEntity
  8
0
  6
Continuous
 62
     7
370
    35
100
AcDbLine
 10
71.3554866752
 20
171.836184097
 30
0.0
 11
71.1576368703
 21
170.7158965255
 31
0.0
  0
LINE
  5
3EB
330
1F
100
AcDbEntity
  8
0
  6
Continuous
 62
     7
370
    35
100
AcDbLine
 10
70.7683783488
 20
172.6386434166
 30
0.0
 11
71.3554866752
 21
171.836184097
 31
0.0
  0
LINE
  5
3EC
330
1F
100
AcDbEntity
  8
0
  6
Continuous
 62
     7
370
    35
100
AcDbLine
 10
69.9834202176
 20
172.3208151646
 30
0.0
 11
70.7683783488
 21
172.6386434166
 31
0.0
  0
LINE
  5
3ED
330
1F
100
AcDbEntity
  8
0
  6
Continuous
 62
     7
370
    35
100
AcDbLine
 10
69.7855704127
 20
171.2005275932
 30
0.0
 11
69.9834202176
 21
172.3208151646
 31
0.0
  0
LINE
  5
3EE
330
1F
100
AcDbEntity
  8
0
  6
Continuous
 62
     7
370
    35
100
AcDbLine
 10
70.3726787391
 20
170.3980682736
 30
0.0
 11
69.7855704127
 21
171.2005275932
 31
0.0
  0
LINE
  5
3EF
330
1F
100
AcDbEntity
  8
0
  6
Continuous
 62
     7
370
    35
100
AcDbLine
 10
70.1401440411
 20
170.7158965638
 30
0.0
 11
71.1576368703
 21
170.7158965255
 31
0.0
  0
LINE
  5
3F0
330
1F
100
AcDbEntity
  8
0
  6
Continuous
 62
     7
370
    35
100
AcDbLine
 10
70.1130337598
 20
171.8361840971
 30
0.0
 11
69.9312677454
 21
172.0255115303
 31
0.0
  0
LINE
  5
3F1
330
1F
100
AcDbEntity
  8
0
  6
Continuous
 62
     7
370
    35
100
AcDbLine
 10
70.1130337598
 20
171.8361840971
 30
0.0
 11
71.3554866752
 21
171.836184097
 31
0.0
  0
SPLINE
  5
3F2
330
1F
100
AcDbEntity
  8
0
  6
Continuous
 62
     7
370
    35
100
AcDbSpline
210
0.0
220
0.0
230
1.0
 70
     8
 71
     3
 72
    10
 73
     6
 74
     0
 42
0.00000001
 43
0.00000001
 40
0.0
 40
0.0
 40
0.0
 40
0.0
 40
0.355549635771761
 40
0.7188098926214956
 40
0.9999999999999999
 40
0.9999999999999999
 40
0.9999999999999999
 40
0.9999999999999999
 10
70.11303375981434
 20
171.8361840970514
 30
0.0
 10
70.07815925748864
 20
171.7390514313547
 30
0.0
 10
70.00765394754069
 20
171.5426796340725
 30
0.0
 10
69.93682457678257
 20
171.2579830391978
 30
0.0
 10
69.93287170233206
 20
171.0794515048635
 30
0.0
 10
69.9311469625338
 20
171.0015536494251
 30
0.0
  0
LINE
  5
3F3
330
1F
100
AcDbEntity
  8
0
  6
Continuous
 62
     7
370
    35
100
AcDbLine
 10
32.8426064826
 20
165.5183558451
 30
0.0
 11
32.8426064826
 21
155.5183558451
 31
0.0
  0
LINE
  5
3F4
330
1F
100
AcDbEntity
  8
0
  6
Continuous
 62
     7
370
    35
100
AcDbLine
 10
46.8426064826
 20
165.5183558451
 30
0.0
 11
46.8426064826
 21
155.5183558451
 31
0.0
  0
LINE
  5
3F5
330
1F
100
AcDbEntity
  8
0
  6
Continuous
 62
     7
370
    35
100
AcDbLine
 10
32.8426064826
 20
165.5183558451
 30
0.0
 11
46.8426064826
 21
165.5183558451
 31
0.0
  0
LINE
  5
3F6
330
1F
100
AcDbEntity
  8
0
  6
Continuous
 62
     7
370
    35
100
AcDbLine
 10
32.8426064826
 20
155.5183558451
 30
0.0
 11
46.8426064826
 21
155.5183558451
 31
0.0
  0
LINE
  5
3F7
330
1F
100
AcDbEntity
  8
0
  6
Continuous
 62
     7
370
    35
100
AcDbLine
 10
66.5028605204
 20
165.5183558451
 30
0.0
 11
66.5028605204
 21
155.5183558451
 31
0.0
  0
SPLINE
  5
3F8
330
1F
100
AcDbEntity
  8
0
  6
Continuous
 62
     7
370
    35
100
AcDbSpline
210
0.0
220
0.0
230
1.0
 70
    11
 71
     3
 72
    66
 73
    62
 74
     0
 42
0.00000001
 43
0.00000001
 40
0.0
 40
0.0
 40
0.0
 40
0.0
 40
0.0128786291457589
 40
0.0390837125659049
 40
0.0524405571430341
 40
0.0653187134781775
 40
0.0914987577467314
 40
0.1048275851225309
 40
0.1179706267979412
 40
0.1446883488916765
 40
0.1582938790679106
 40
0.1716411186361454
 40
0.1850834481656854
 40
0.1988307264250189
 40
0.2126858302959265
 40
0.2257307633974638
 40
0.2522876465392804
 40
0.2658349212362145
 40
0.2785382536941682
 40
0.3043704368396459
 40
0.3175266837016206
 40
0.3303816943400428
 40
0.3565045347454471
 40
0.3697990061344533
 40
0.3830566247819496
 40
0.4100165142502327
 40
0.4237523160536922
 40
0.4370497194147985
 40
0.4641190517170709
 40
0.4779291377717299
 40
0.4908510781473042
 40
0.5171493587678198
 40
0.5305584307082267
 40
0.5432776190259341
 40
0.5691353675736012
 40
0.582300618222139
 40
0.5952715471257164
 40
0.6216325155943643
 40
0.6350505251034381
 40
0.648368023819505
 40
0.6754576783836027
 40
0.689265340092867
 40
0.7024896131517827
 40
0.7294141558617453
 40
0.743152452175746
 40
0.7559590359275551
 40
0.7820156581594977
 40
0.795296092416997
 40
0.8080228671055251
 40
0.8338885022750542
 40
0.8470531739154619
 40
0.8601485349925987
 40
0.8867665568982985
 40
0.9003192539593944
 40
0.9136692039351724
 40
0.9271136590220654
 40
0.9408606120273775
 40
0.9547142965846837
 40
0.9658872996380754
 40
0.9885200012577452
 40
1.0
 40
1.0
 40
1.0
 40
1.0
 10
57.84260648259676
 20
156.8183558450952
 30
0.0
 10
57.94279596973169
 20
156.8208122522358
 30
0.0
 10
58.24684829339041
 20
156.8282668896464
 30
0.0
 10
58.65123647294072
 20
156.89802565644
 30
0.0
 10
59.041640305635
 20
157.0135265743554
 30
0.0
 10
59.42044593297437
 20
157.1610221474466
 30
0.0
 10
59.7789400674913
 20
157.3539939134366
 30
0.0
 10
60.11049895452628
 20
157.5895488582234
 30
0.0
 10
60.4244126498976
 20
157.8541207969341
 30
0.0
 10
60.70557578516143
 20
158.1585278601306
 30
0.0
 10
60.94623567340569
 20
158.4959872966649
 30
0.0
 10
61.10556774160264
 20
158.7646997617673
 30
0.0
 10
61.24245334954508
 20
159.0471946689234
 30
0.0
 10
61.35635789756613
 20
159.3444804138229
 30
0.0
 10
61.44334934637976
 20
159.6480739527673
 30
0.0
 10
61.52366799951749
 20
160.0558784553148
 30
0.0
 10
61.55254681653336
 20
160.4707204182094
 30
0.0
 10
61.5290093553312
 20
160.8812216218477
 30
0.0
 10
61.47251620840532
 20
161.2824971933699
 30
0.0
 10
61.36821896967442
 20
161.6721407289025
 30
0.0
 10
61.21760600477731
 20
162.0447063341053
 30
0.0
 10
61.0364417973384
 20
162.4052538151944
 30
0.0
 10
60.81150155882367
 20
162.7426954256293
 30
0.0
 10
60.54612031136251
 20
163.0506313031271
 30
0.0
 10
60.25161177028028
 20
163.3400364507832
 30
0.0
 10
59.91866398378607
 20
163.5935820820812
 30
0.0
 10
59.55687665430744
 20
163.8022609270848
 30
0.0
 10
59.17748779532283
 20
163.9802237415209
 30
0.0
 10
58.77519340854108
 20
164.1098629457621
 30
0.0
 10
58.36364422598849
 20
164.1859023258652
 30
0.0
 10
57.95288195657632
 20
164.2265441965279
 30
0.0
 10
57.5412343954446
 20
164.2161284281016
 30
0.0
 10
57.1379302661977
 20
164.1548820287483
 30
0.0
 10
56.74478495191234
 20
164.0616481280007
 30
0.0
 10
56.36670626930567
 20
163.9217065427578
 30
0.0
 10
56.00918449844021
 20
163.7369179594199
 30
0.0
 10
55.66509460742517
 20
163.5217769947885
 30
0.0
 10
55.3476400223821
 20
163.2639796787932
 30
0.0
 10
55.06411111122565
 20
162.9682150028678
 30
0.0
 10
54.80259502389178
 20
162.6453983937683
 30
0.0
 10
54.58097835071977
 20
162.287477652158
 30
0.0
 10
54.40775984371383
 20
161.9056840319442
 30
0.0
 10
54.26769288408522
 20
161.5112542481486
 30
0.0
 10
54.17794305324792
 20
161.0999190087328
 30
0.0
 10
54.14204802586856
 20
160.6851854886168
 30
0.0
 10
54.14090484077327
 20
160.2756196771466
 30
0.0
 10
54.18972970593128
 20
159.8708316201367
 30
0.0
 10
54.2875103349101
 20
159.4782578398431
 30
0.0
 10
54.4163156068968
 20
159.0969268061787
 30
0.0
 10
54.5903554263955
 20
158.7340611879728
 30
0.0
 10
54.80756166553083
 20
158.3948497899603
 30
0.0
 10
55.05511566360879
 20
158.0702462442059
 30
0.0
 10
55.34421551785531
 20
157.7755805862983
 30
0.0
 10
55.66828496634147
 20
157.5192443679134
 30
0.0
 10
55.92827965452883
 20
157.3469923747354
 30
0.0
 10
56.20345270964208
 20
157.1962413168408
 30
0.0
 10
56.49447775468852
 20
157.0677343581268
 30
0.0
 10
56.77936953643812
 20
156.9703390061162
 30
0.0
 10
57.13803476966876
 20
156.8789462437436
 30
0.0
 10
57.48792244345591
 20
156.8260935210808
 30
0.0
 10
57.75329893109754
 20
156.8203041506864
 30
0.0
 10
57.84260648259676
 20
156.8183558450952
 30
0.0
  0
LINE
  5
3F9
330
1F
100
AcDbEntity
  8
0
  6
Continuous
 62
     7
370
    35
100
AcDbLine
 10
46.8426064826
 20
165.5183558451
 30
0.0
 11
66.5028605204
 21
165.5183558451
 31
0.0
  0
LINE
  5
3FA
330
1F
100
AcDbEntity
  8
0
  6
Continuous
 62
     7
370
    35
100
AcDbLine
 10
46.8426064826
 20
155.5183558451
 30
0.0
 11
66.5028605204
 21
155.5183558451
 31
0.0
  0
LINE
  5
3FB
330
1F
100
AcDbEntity
  8
0
  6
Continuous
 62
     7
370
    35
100
AcDbLine
 10
75.8426064826
 20
165.5183558451
 30
0.0
 11
75.8426064826
 21
155.5183558451
 31
0.0
  0
LINE
  5
3FC
330
1F
100
AcDbEntity
  8
0
  6
Continuous
 62
     7
370
    35
100
AcDbLine
 10
75.8426064826
 20
165.5183558451
 30
0.0
 11
82.8426064826
 21
165.5183558451
 31
0.0
  0
LINE
  5
3FD
330
1F
100
AcDbEntity
  8
0
  6
Continuous
 62
     7
370
    35
100
AcDbLine
 10
75.8426064826
 20
155.5183558451
 30
0.0
 11
82.8426064826
 21
155.5183558451
 31
0.0
  0
LINE
  5
3FE
330
1F
100
AcDbEntity
  8
0
  6
Continuous
 62
     7
370
    35
100
AcDbLine
 10
66.5028605204
 20
165.5183558451
 30
0.0
 11
75.8426064826
 21
165.5183558451
 31
0.0
  0
LINE
  5
3FF
330
1F
100
AcDbEntity
  8
0
  6
Continuous
 62
     7
370
    35
100
AcDbLine
 10
66.5028605204
 20
155.5183558451
 30
0.0
 11
75.8426064826
 21
155.5183558451
 31
0.0
  0
CIRCLE
  5
400
330
1F
100
AcDbEntity
  8
0
  6
Continuous
 62
     7
370
    35
100
AcDbCircle
 10
57.8426064826
 20
160.5183558451
 30
0.0
 40
2.249999999999972
  0
LINE
  5
401
330
1F
100
AcDbEntity
  8
0
  6
Continuous
 62
     7
370
    35
100
AcDbLine
 10
33.8426064826
 20
168.2183558451
 30
0.0
 11
45.7669250221
 21
168.2183558451
 31
0.0
  0
LINE
  5
402
330
1F
100
AcDbEntity
  8
0
  6
Continuous
 62
     7
370
    35
100
AcDbLine
 10
33.8426064826
 20
168.2183558451
 30
0.0
 11
33.8426064826
 21
174.8183558451
 31
0.0
  0
LINE
  5
403
330
1F
100
AcDbEntity
  8
0
  6
Continuous
 62
     7
370
    35
100
AcDbLine
 10
45.7669250221
 20
174.8183558451
 30
0.0
 11
33.8426064826
 21
174.8183558451
 31
0.0
  0
LINE
  5
404
330
1F
100
AcDbEntity
  8
0
  6
Continuous
 62
     7
370
    35
100
AcDbLine
 10
45.7669250221
 20
168.2183558451
 30
0.0
 11
45.7669250221
 21
174.8183558451
 31
0.0
  0
LINE
  5
405
330
1F
100
AcDbEntity
  8
0
  6
Continuous
 62
     7
370
    35
100
AcDbLine
 10
45.5669250221
 20
168.0183558451
 30
0.0
 11
34.0426064826
 21
168.0183558451
 31
0.0
  0
ARC
  5
406
330
1F
100
AcDbEntity
  8
0
  6
Continuous
 62
     7
370
    35
100
AcDbCircle
 10
34.0426064826
 20
168.2183558451
 30
0.0
 40
0.2000000000000028
100
AcDbArc
 50
180.0
 51
270.0
  0
SPLINE
  5
407
330
1F
100
AcDbEntity
  8
0
  6
Continuous
 62
     7
370
    35
100
AcDbSpline
210
0.0
220
0.0
230
1.0
 70
     8
 71
     3
 72
    13
 73
     9
 74
     0
 42
0.00000001
 43
0.00000001
 40
0.0
 40
0.0
 40
0.0
 40
0.0
 40
0.0224989078492151
 40
0.14353124719362
 40
0.3582801350398518
 40
0.5723841297780552
 40
0.7861868575476353
 40
1.0
 40
1.0
 40
1.0
 40
1.0
 10
45.56692502210787
 20
168.0183558450952
 30
0.0
 10
45.56926725549514
 20
168.0183821102833
 30
0.0
 10
45.58420947764871
 20
168.0185496684252
 30
0.0
 10
45.62140259192416
 20
168.0235030938531
 30
0.0
 10
45.67548145278342
 20
168.0457807670856
 30
0.0
 10
45.72600749246759
 20
168.0913120404986
 30
0.0
 10
45.76032233524067
 20
168.1510461004274
 30
0.0
 10
45.76472409075022
 20
168.1959188992435
 30
0.0
 10
45.76692502210786
 20
168.2183558450952
 30
0.0
  0
LINE
  5
408
330
1F
100
AcDbEntity
  8
0
  6
Continuous
 62
     7
370
    35
100
AcDbLine
 10
34.0426064826
 20
175.0183558451
 30
0.0
 11
45.5669250221
 21
175.0183558451
 31
0.0
  0
SPLINE
  5
409
330
1F
100
AcDbEntity
  8
0
  6
Continuous
 62
     7
370
    35
100
AcDbSpline
210
0.0
220
0.0
230
1.0
 70
     8
 71
     3
 72
    25
 73
    21
 74
     0
 42
0.00000001
 43
0.00000001
 40
0.0
 40
0.0
 40
0.0
 40
0.0
 40
0.0224126243410474
 40
0.0824948499853083
 40
0.1431150928933373
 40
0.1958873397076094
 40
0.2490233817156919
 40
0.3033075336968092
 40
0.3579888515097415
 40
0.410603015711243
 40
0.4635795887771808
 40
0.5177003430340577
 40
0.5722170880148116
 40
0.6247548151277708
 40
0.6780391479809403
 40
0.7317029888628149
 40
0.7861470047891261
 40
0.8914950361285072
 40
0.9455484607836606
 40
1.0
 40
1.0
 40
1.0
 40
1.0
 10
45.56692502210787
 20
175.0183558450952
 30
0.0
 10
45.56926727861492
 20
175.0183304891516
 30
0.0
 10
45.57788849566818
 20
175.0182371607339
 30
0.0
 10
45.59281888574412
 20
175.0169619025491
 30
0.0
 10
45.61069381030055
 20
175.0137812846297
 30
0.0
 10
45.62750871403338
 20
175.0091998524816
 30
0.0
 10
45.64326595854047
 20
175.0034691031383
 30
0.0
 10
45.65867006142865
 20
174.996345750027
 30
0.0
 10
45.67336602088057
 20
174.9879582571738
 30
0.0
 10
45.68719364141521
 20
174.9784406998515
 30
0.0
 10
45.70014411221918
 20
174.9678452241305
 30
0.0
 10
45.71230592730673
 20
174.9560569061448
 30
0.0
 10
45.72339207648002
 20
174.9433058619954
 30
0.0
 10
45.73331757053875
 20
174.9297371106281
 30
0.0
 10
45.7420381404385
 20
174.9154633715713
 30
0.0
 10
45.74961918138724
 20
174.9003238053511
 30
0.0
 10
45.75791982773185
 20
174.8795245508307
 30
0.0
 10
45.76353361390508
 20
174.8577056062021
 30
0.0
 10
45.76650065877707
 20
174.8354477137526
 30
0.0
 10
45.7667832220808
 20
174.8240670535395
 30
0.0
 10
45.76692502210786
 20
174.8183558450952
 30
0.0
  0
ARC
  5
40A
330
1F
100
AcDbEntity
  8
0
  6
Continuous
 62
     7
370
    35
100
AcDbCircle
 10
34.0426064826
 20
174.8183558451
 30
0.0
 40
0.2000000000000171
100
AcDbArc
 50
90.0
 51
180.0
  0
LINE
  5
40B
330
1F
100
AcDbEntity
  8
0
  6
Continuous
 62
     7
370
    35
100
AcDbLine
 10
45.7669250221
 20
168.2183558451
 30
0.0
 11
50.7669250221
 21
168.2183558451
 31
0.0
  0
LINE
  5
40C
330
1F
100
AcDbEntity
  8
0
  6
Continuous
 62
     7
370
    35
100
AcDbLine
 10
50.7669250221
 20
174.8183558451
 30
0.0
 11
45.7669250221
 21
174.8183558451
 31
0.0
  0
LINE
  5
40D
330
1F
100
AcDbEntity
  8
0
  6
Continuous
 62
     7
370
    35
100
AcDbLine
 10
50.7669250221
 20
174.8183558451
 30
0.0
 11
50.7669250221
 21
168.2183558451
 31
0.0
  0
LINE
  5
40E
330
1F
100
AcDbEntity
  8
0
  6
Continuous
 62
     7
370
    35
100
AcDbLine
 10
50.7669250221
 20
168.0183558451
 30
0.0
 11
50.7669250221
 21
168.2183558451
 31
0.0
  0
LINE
  5
40F
330
1F
100
AcDbEntity
  8
0
  6
Continuous
 62
     7
370
    35
100
AcDbLine
 10
50.7669250221
 20
168.0183558451
 30
0.0
 11
45.5669250221
 21
168.0183558451
 31
0.0
  0
LINE
  5
410
330
1F
100
AcDbEntity
  8
0
  6
Continuous
 62
     7
370
    35
100
AcDbLine
 10
50.7669250221
 20
174.8183558451
 30
0.0
 11
50.7669250221
 21
175.0183558451
 31
0.0
  0
LINE
  5
411
330
1F
100
AcDbEntity
  8
0
  6
Continuous
 62
     7
370
    35
100
AcDbLine
 10
45.5669250221
 20
175.0183558451
 30
0.0
 11
50.7669250221
 21
175.0183558451
 31
0.0
  0
LINE
  5
412
330
1F
100
AcDbEntity
  8
0
  6
Continuous
 62
     7
370
    35
100
AcDbLine
 10
67.752866193
 20
168.2183558451
 30
0.0
 11
68.4599729742
 21
168.2183558451
 31
0.0
  0
ARC
  5
413
330
1F
100
AcDbEntity
  8
0
  6
Continuous
 62
     7
370
    35
100
AcDbCircle
 10
68.2831962789
 20
168.1933558451
 30
0.0
 40
0.1785357107135813
100
AcDbArc
 50
281.421753659
 51
8.0494669755
  0
LINE
  5
414
330
1F
100
AcDbEntity
  8
0
  6
Continuous
 62
     7
370
    35
100
AcDbLine
 10
67.752866193
 20
168.2183558451
 30
0.0
 11
67.752866193
 21
168.0183558451
 31
0.0
  0
LINE
  5
415
330
1F
100
AcDbEntity
  8
0
  6
Continuous
 62
     7
370
    35
100
AcDbLine
 10
68.318551618
 20
168.0183558451
 30
0.0
 11
67.752866193
 21
168.0183558451
 31
0.0
  0
LINE
  5
416
330
1F
100
AcDbEntity
  8
0
  6
Continuous
 62
     7
370
    35
100
AcDbLine
 10
67.752866193
 20
168.2183558451
 30
0.0
 11
67.752866193
 21
174.8183558451
 31
0.0
  0
LINE
  5
417
330
1F
100
AcDbEntity
  8
0
  6
Continuous
 62
     7
370
    35
100
AcDbLine
 10
68.4599729742
 20
174.8183558451
 30
0.0
 11
67.752866193
 21
174.8183558451
 31
0.0
  0
LINE
  5
418
330
1F
100
AcDbEntity
  8
0
  6
Continuous
 62
     7
370
    35
100
AcDbLine
 10
68.4599729742
 20
174.8183558451
 30
0.0
 11
68.4599729742
 21
168.2183558451
 31
0.0
  0
LINE
  5
419
330
1F
100
AcDbEntity
  8
0
  6
Continuous
 62
     7
370
    35
100
AcDbLine
 10
50.7669250221
 20
168.2183558451
 30
0.0
 11
67.752866193
 21
168.2183558451
 31
0.0
  0
LINE
  5
41A
330
1F
100
AcDbEntity
  8
0
  6
Continuous
 62
     7
370
    35
100
AcDbLine
 10
67.752866193
 20
174.8183558451
 30
0.0
 11
50.7669250221
 21
174.8183558451
 31
0.0
  0
LINE
  5
41B
330
1F
100
AcDbEntity
  8
0
  6
Continuous
 62
     7
370
    35
100
AcDbLine
 10
67.752866193
 20
168.0183558451
 30
0.0
 11
50.7669250221
 21
168.0183558451
 31
0.0
  0
LINE
  5
41C
330
1F
100
AcDbEntity
  8
0
  6
Continuous
 62
     7
370
    35
100
AcDbLine
 10
67.752866193
 20
174.8183558451
 30
0.0
 11
67.752866193
 21
175.0183558451
 31
0.0
  0
ARC
  5
41D
330
1F
100
AcDbEntity
  8
0
  6
Continuous
 62
     7
370
    35
100
AcDbCircle
 10
68.2831962789
 20
174.8433558451
 30
0.0
 40
0.1785357107136427
100
AcDbArc
 50
351.9505330245
 51
78.578246341
  0
LINE
  5
41E
330
1F
100
AcDbEntity
  8
0
  6
Continuous
 62
     7
370
    35
100
AcDbLine
 10
67.752866193
 20
175.0183558451
 30
0.0
 11
68.318551618
 21
175.0183558451
 31
0.0
  0
LINE
  5
41F
330
1F
100
AcDbEntity
  8
0
  6
Continuous
 62
     7
370
    35
100
AcDbLine
 10
50.7669250221
 20
175.0183558451
 30
0.0
 11
67.752866193
 21
175.0183558451
 31
0.0
  0
LINE
  5
420
330
1F
100
AcDbEntity
  8
0
  6
Continuous
 62
     7
370
    35
100
AcDbLine
 10
68.4599729742
 20
168.2183558451
 30
0.0
 11
71.5497132638
 21
168.2183558451
 31
0.0
  0
LINE
  5
421
330
1F
100
AcDbEntity
  8
0
  6
Continuous
 62
     7
370
    35
100
AcDbLine
 10
71.5497132638
 20
174.8183558451
 30
0.0
 11
68.4599729742
 21
174.8183558451
 31
0.0
  0
ARC
  5
422
330
1F
100
AcDbEntity
  8
0
  6
Continuous
 62
     7
370
    35
100
AcDbCircle
 10
71.3729365685
 20
168.1933558451
 30
0.0
 40
0.1785357107135841
100
AcDbArc
 50
281.421753659
 51
8.0494669755
  0
LINE
  5
423
330
1F
100
AcDbEntity
  8
0
  6
Continuous
 62
     7
370
    35
100
AcDbLine
 10
71.4082919075
 20
168.0183558451
 30
0.0
 11
68.318551618
 21
168.0183558451
 31
0.0
  0
ARC
  5
424
330
1F
100
AcDbEntity
  8
0
  6
Continuous
 62
     7
370
    35
100
AcDbCircle
 10
71.3729365685
 20
174.8433558451
 30
0.0
 40
0.1785357107136427
100
AcDbArc
 50
351.9505330245
 51
78.578246341
  0
LINE
  5
425
330
1F
100
AcDbEntity
  8
0
  6
Continuous
 62
     7
370
    35
100
AcDbLine
 10
68.318551618
 20
175.0183558451
 30
0.0
 11
71.4082919075
 21
175.0183558451
 31
0.0
  0
LINE
  5
426
330
1F
100
AcDbEntity
  8
0
  6
Continuous
 62
     7
370
    35
100
AcDbLine
 10
71.5497132638
 20
168.2183558451
 30
0.0
 11
71.8426064826
 21
168.2183558451
 31
0.0
  0
ARC
  5
427
330
1F
100
AcDbEntity
  8
0
  6
Continuous
 62
     7
370
    35
100
AcDbCircle
 10
71.6426064826
 20
168.2183558451
 30
0.0
 40
0.2000000000000171
100
AcDbArc
 50
270.0
 51
0.0
  0
LINE
  5
428
330
1F
100
AcDbEntity
  8
0
  6
Continuous
 62
     7
370
    35
100
AcDbLine
 10
71.6426064826
 20
168.0183558451
 30
0.0
 11
71.4082919075
 21
168.0183558451
 31
0.0
  0
LINE
  5
429
330
1F
100
AcDbEntity
  8
0
  6
Continuous
 62
     7
370
    35
100
AcDbLine
 10
71.8426064826
 20
174.8183558451
 30
0.0
 11
71.5497132638
 21
174.8183558451
 31
0.0
  0
LINE
  5
42A
330
1F
100
AcDbEntity
  8
0
  6
Continuous
 62
     7
370
    35
100
AcDbLine
 10
71.8426064826
 20
174.8183558451
 30
0.0
 11
71.8426064826
 21
171.967174822
 31
0.0
  0
LINE
  5
42B
330
1F
100
AcDbEntity
  8
0
  6
Continuous
 62
     7
370
    35
100
AcDbLine
 10
71.8426064826
 20
171.0695368681
 30
0.0
 11
71.8426064826
 21
168.2183558451
 31
0.0
  0
ARC
  5
42C
330
1F
100
AcDbEntity
  8
0
  6
Continuous
 62
     7
370
    35
100
AcDbCircle
 10
71.6426064826
 20
174.8183558451
 30
0.0
 40
0.2000000000000171
100
AcDbArc
 50
0.0
 51
90.0
  0
LINE
  5
42D
330
1F
100
AcDbEntity
  8
0
  6
Continuous
 62
     7
370
    35
100
AcDbLine
 10
71.4082919075
 20
175.0183558451
 30
0.0
 11
71.6426064826
 21
175.0183558451
 31
0.0
  0
LINE
  5
42E
330
1F
100
AcDbEntity
  8
0
  6
Continuous
 62
     7
370
    35
100
AcDbLine
 10
76.8426064826
 20
174.8183558451
 30
0.0
 11
71.8426064826
 21
174.8183558451
 31
0.0
  0
LINE
  5
42F
330
1F
100
AcDbEntity
  8
0
  6
Continuous
 62
     7
370
    35
100
AcDbLine
 10
76.8426064826
 20
174.8183558451
 30
0.0
 11
76.8426064826
 21
168.2183558451
 31
0.0
  0
LINE
  5
430
330
1F
100
AcDbEntity
  8
0
  6
Continuous
 62
     7
370
    35
100
AcDbLine
 10
71.8426064826
 20
168.2183558451
 30
0.0
 11
76.8426064826
 21
168.2183558451
 31
0.0
  0
LINE
  5
431
330
1F
100
AcDbEntity
  8
0
  6
Continuous
 62
     7
370
    35
100
AcDbLine
 10
76.8426064826
 20
168.2183558451
 30
0.0
 11
76.8426064826
 21
168.0183558451
 31
0.0
  0
LINE
  5
432
330
1F
100
AcDbEntity
  8
0
  6
Continuous
 62
     7
370
    35
100
AcDbLine
 10
76.8426064826
 20
168.0183558451
 30
0.0
 11
71.6426064826
 21
168.0183558451
 31
0.0
  0
LINE
  5
433
330
1F
100
AcDbEntity
  8
0
  6
Continuous
 62
     7
370
    35
100
AcDbLine
 10
76.8426064826
 20
175.0183558451
 30
0.0
 11
76.8426064826
 21
174.8183558451
 31
0.0
  0
LINE
  5
434
330
1F
100
AcDbEntity
  8
0
  6
Continuous
 62
     7
370
    35
100
AcDbLine
 10
71.6426064826
 20
175.0183558451
 30
0.0
 11
76.8426064826
 21
175.0183558451
 31
0.0
  0
SPLINE
  5
435
330
1F
100
AcDbEntity
  8
0
  6
Continuous
 62
     7
370
    35
100
AcDbSpline
210
0.0
220
0.0
230
1.0
 70
     8
 71
     3
 72
    13
 73
     9
 74
     0
 42
0.00000001
 43
0.00000001
 40
0.0
 40
0.0
 40
0.0
 40
0.0
 40
0.2138131424523667
 40
0.4276158702219452
 40
0.6417198649601453
 40
0.8564687528063749
 40
0.977501092150785
 40
1.0
 40
1.0
 40
1.0
 40
1.0
 10
77.79258008349585
 20
168.2183558450952
 30
0.0
 10
77.79240482731551
 20
168.1959188992435
 30
0.0
 10
77.7920543234914
 20
168.1510461004274
 30
0.0
 10
77.78931676103639
 20
168.0913120404986
 30
0.0
 10
77.78527071779303
 20
168.0457807670856
 30
0.0
 10
77.78091830744357
 20
168.0235030938531
 30
0.0
 10
77.77791121149575
 20
168.0185496684252
 30
0.0
 10
77.77670056378616
 20
168.0183821102833
 30
0.0
 10
77.77651079151155
 20
168.0183558450952
 30
0.0
  0
LINE
  5
436
330
1F
100
AcDbEntity
  8
0
  6
Continuous
 62
     7
370
    35
100
AcDbLine
 10
82.6426064826
 20
168.0183558451
 30
0.0
 11
77.7765107915
 21
168.0183558451
 31
0.0
  0
LINE
  5
437
330
1F
100
AcDbEntity
  8
0
  6
Continuous
 62
     7
370
    35
100
AcDbLine
 10
77.7925800835
 20
168.2183558451
 30
0.0
 11
77.7925800835
 21
174.8183558451
 31
0.0
  0
LINE
  5
438
330
1F
100
AcDbEntity
  8
0
  6
Continuous
 62
     7
370
    35
100
AcDbLine
 10
76.8426064826
 20
168.2183558451
 30
0.0
 11
77.7925800835
 21
168.2183558451
 31
0.0
  0
LINE
  5
439
330
1F
100
AcDbEntity
  8
0
  6
Continuous
 62
     7
370
    35
100
AcDbLine
 10
77.7765107915
 20
168.0183558451
 30
0.0
 11
76.8426064826
 21
168.0183558451
 31
0.0
  0
LINE
  5
43A
330
1F
100
AcDbEntity
  8
0
  6
Continuous
 62
     7
370
    35
100
AcDbLine
 10
77.7925800835
 20
174.8183558451
 30
0.0
 11
76.8426064826
 21
174.8183558451
 31
0.0
  0
SPLINE
  5
43B
330
1F
100
AcDbEntity
  8
0
  6
Continuous
 62
     7
370
    35
100
AcDbSpline
210
0.0
220
0.0
230
1.0
 70
     8
 71
     3
 72
    25
 73
    21
 74
     0
 42
0.00000001
 43
0.00000001
 40
0.0
 40
0.0
 40
0.0
 40
0.0
 40
0.0224126243410405
 40
0.0824948499852964
 40
0.1431150928933523
 40
0.1958873397076263
 40
0.2490233817156949
 40
0.3033075336968217
 40
0.3579888515097436
 40
0.4106030157112379
 40
0.4635795887771685
 40
0.5177003430340428
 40
0.572217088014806
 40
0.6247548151277629
 40
0.6780391479809256
 40
0.7317029888628149
 40
0.7861470047891252
 40
0.8914950361285073
 40
0.9455484607836598
 40
1.0
 40
1.0
 40
1.0
 40
1.0
 10
77.77651079151157
 20
175.0183558450952
 30
0.0
 10
77.77670056695843
 20
175.0183304891516
 30
0.0
 10
77.77739907940311
 20
175.0182371607339
 30
0.0
 10
77.77860721326019
 20
175.0169619025491
 30
0.0
 10
77.78005135678279
 20
175.0137812846297
 30
0.0
 10
77.78140780619869
 20
175.0091998524816
 30
0.0
 10
77.78267720961249
 20
175.0034691031383
 30
0.0
 10
77.78391650280639
 20
174.996345750027
 30
0.0
 10
77.78509728679909
 20
174.9879582571738
 30
0.0
 10
77.78620695161054
 20
174.9784406998515
 30
0.0
 10
77.78724505218402
 20
174.9678452241305
 30
0.0
 10
77.78821889326879
 20
174.9560569061448
 30
0.0
 10
77.7891057179836
 20
174.9433058619954
 30
0.0
 10
77.789898994334
 20
174.9297371106281
 30
0.0
 10
77.79059542358885
 20
174.9154633715713
 30
0.0
 10
77.79120043324907
 20
174.9003238053511
 30
0.0
 10
77.79186247910175
 20
174.8795245508307
 30
0.0
 10
77.79230987924879
 20
174.8577056062021
 30
0.0
 10
77.7925462770781
 20
174.8354477137526
 30
0.0
 10
77.79256878715942
 20
174.8240670535395
 30
0.0
 10
77.79258008349585
 20
174.8183558450952
 30
0.0
  0
LINE
  5
43C
330
1F
100
AcDbEntity
  8
0
  6
Continuous
 62
     7
370
    35
100
AcDbLine
 10
77.7765107915
 20
175.0183558451
 30
0.0
 11
82.6426064826
 21
175.0183558451
 31
0.0
  0
LINE
  5
43D
330
1F
100
AcDbEntity
  8
0
  6
Continuous
 62
     7
370
    35
100
AcDbLine
 10
76.8426064826
 20
175.0183558451
 30
0.0
 11
77.7765107915
 21
175.0183558451
 31
0.0
  0
LINE
  5
43E
330
1F
100
AcDbEntity
  8
0
  6
Continuous
 62
     7
370
    35
100
AcDbLine
 10
70.2149178494
 20
155.1183558451
 30
0.0
 11
70.2149178494
 21
155.5183558451
 31
0.0
  0
LINE
  5
43F
330
1F
100
AcDbEntity
  8
0
  6
Continuous
 62
     7
370
    35
100
AcDbLine
 10
60.4149178494
 20
155.5183558451
 30
0.0
 11
60.4149178494
 21
155.1183558451
 31
0.0
  0
LINE
  5
440
330
1F
100
AcDbEntity
  8
0
  6
Continuous
 62
     7
370
    35
100
AcDbLine
 10
71.5497132638
 20
168.2183558451
 30
0.0
 11
71.5497132638
 21
170.2359901891
 31
0.0
  0
LINE
  5
441
330
1F
100
AcDbEntity
  8
0
  6
Continuous
 62
     7
370
    35
100
AcDbLine
 10
71.5497132638
 20
172.8007215011
 30
0.0
 11
71.5497132638
 21
174.8183558451
 31
0.0
  0
LINE
  5
442
330
1F
100
AcDbEntity
  8
0
  6
Continuous
 62
     7
370
    35
100
AcDbLine
 10
77.7925800835
 20
168.2183558451
 30
0.0
 11
82.8426064826
 21
168.2183558451
 31
0.0
  0
LINE
  5
443
330
1F
100
AcDbEntity
  8
0
  6
Continuous
 62
     7
370
    35
100
AcDbLine
 10
82.8426064826
 20
174.8183558451
 30
0.0
 11
77.7925800835
 21
174.8183558451
 31
0.0
  0
ENDSEC
  0
SECTION
  2
OBJECTS
  0
DICTIONARY
  5
C
330
0
100
AcDbDictionary
281
     1
  3
ACAD_DETAILVIEWSTYLE
350
44D
  3
ACAD_GROUP
350
D
  3
ACAD_LAYOUT
350
1A
  3
ACAD_MATERIAL
350
43
  3
ACAD_MLEADERSTYLE
350
5B
  3
ACAD_MLINESTYLE
350
17
  3
ACAD_PLOTSETTINGS
350
19
  3
ACAD_PLOTSTYLENAME
350
E
  3
ACAD_SCALELIST
350
47
  3
ACAD_SECTIONVIEWSTYLE
350
44E
  3
ACAD_TABLESTYLE
350
59
  3
ACDB_RECOMPOSE_DATA
350
44A
  3
AcDbVariableDictionary
350
444
  0
DICTIONARY
  5
44D
102
{ACAD_REACTORS
330
C
102
}
330
C
100
AcDbDictionary
281
     1
  0
DICTIONARY
  5
D
102
{ACAD_REACTORS
330
C
102
}
330
C
100
AcDbDictionary
281
     1
  0
DICTIONARY
  5
1A
102
{ACAD_REACTORS
330
C
102
}
330
C
100
AcDbDictionary
281
     1
  3
Layout1
350
1E
  3
Layout2
350
26
  3
Model
350
22
  0
DICTIONARY
  5
43
102
{ACAD_REACTORS
330
C
102
}
330
C
100
AcDbDictionary
281
     1
  3
ByBlock
350
45
  3
ByLayer
350
44
  3
Global
350
46
  0
DICTIONARY
  5
5B
102
{ACAD_REACTORS
330
C
102
}
330
C
100
AcDbDictionary
281
     1
  3
Standard
350
5C
  0
DICTIONARY
  5
17
102
{ACAD_REACTORS
330
C
102
}
330
C
100
AcDbDictionary
281
     1
  3
Standard
350
18
  0
DICTIONARY
  5
19
102
{ACAD_REACTORS
330
C
102
}
330
C
100
AcDbDictionary
281
     1
  0
ACDBDICTIONARYWDFLT
  5
E
102
{ACAD_REACTORS
330
C
102
}
330
C
100
AcDbDictionary
281
     1
  3
Normal
350
F
100
AcDbDictionaryWithDefault
340
F
  0
DICTIONARY
  5
47
102
{ACAD_REACTORS
330
C
102
}
330
C
100
AcDbDictionary
281
     1
  3
A0
350
48
  3
A1
350
49
  3
A2
350
4A
  3
A3
350
4B
  3
A4
350
4C
  3
A5
350
4D
  3
A6
350
4E
  3
A7
350
4F
  3
A8
350
50
  3
A9
350
51
  3
B0
350
52
  3
B1
350
53
  3
B2
350
54
  3
B3
350
55
  3
B4
350
56
  3
B5
350
57
  3
B6
350
58
  0
DICTIONARY
  5
44E
102
{ACAD_REACTORS
330
C
102
}
330
C
100
AcDbDictionary
281
     1
  0
DICTIONARY
  5
59
102
{ACAD_REACTORS
330
C
102
}
330
C
100
AcDbDictionary
281
     1
  3
Standard
350
5A
  0
XRECORD
  5
44A
102
{ACAD_REACTORS
330
C
102
}
330
C
100
AcDbXrecord
280
     1
 90
        1
330
5A
  0
DICTIONARY
  5
444
102
{ACAD_REACTORS
330
C
102
}
330
C
100
AcDbDictionary
281
     1
  3
CANNOSCALE
350
445
  3
CENTEREXE
350
44F
  3
CENTERLTYPEFILE
350
450
  3
CMLEADERSTYLE
350
44C
  3
CTABLESTYLE
350
44B
  0
LAYOUT
  5
1E
102
{ACAD_REACTORS
330
1A
102
}
330
1A
100
AcDbPlotSettings
  1

  2
none_device
  4

  6

 40
0.0
 41
0.0
 42
0.0
 43
0.0
 44
0.0
 45
0.0
 46
0.0
 47
0.0
 48
0.0
 49
0.0
140
0.0
141
0.0
142
1.0
143
1.0
 70
   688
 72
     1
 73
     0
 74
     5
  7

 75
    16
 76
     0
 77
     2
 78
   300
147
1.0
148
0.0
149
0.0
100
AcDbLayout
  1
Layout1
 70
     1
 71
     1
 10
0.0
 20
0.0
 11
420.0
 21
297.0
 12
0.0
 22
0.0
 32
0.0
 14
1.0000000000E+20
 24
1.0000000000E+20
 34
1.0000000000E+20
 15
-1.0000000000E+20
 25
-1.0000000000E+20
 35
-1.0000000000E+20
146
0.0
 13
0.0
 23
0.0
 33
0.0
 16
1.0
 26
0.0
 36
0.0
 17
0.0
 27
1.0
 37
0.0
 76
     0
330
1B
  0
LAYOUT
  5
26
102
{ACAD_REACTORS
330
1A
102
}
330
1A
100
AcDbPlotSettings
  1

  2
none_device
  4

  6

 40
0.0
 41
0.0
 42
0.0
 43
0.0
 44
0.0
 45
0.0
 46
0.0
 47
0.0
 48
0.0
 49
0.0
140
0.0
141
0.0
142
1.0
143
1.0
 70
   688
 72
     1
 73
     0
 74
     5
  7

 75
    16
 76
     0
 77
     2
 78
   300
147
1.0
148
0.0
149
0.0
100
AcDbLayout
  1
Layout2
 70
     1
 71
     2
 10
0.0
 20
0.0
 11
0.0
 21
0.0
 12
0.0
 22
0.0
 32
0.0
 14
0.0
 24
0.0
 34
0.0
 15
0.0
 25
0.0
 35
0.0
146
0.0
 13
0.0
 23
0.0
 33
0.0
 16
1.0
 26
0.0
 36
0.0
 17
0.0
 27
1.0
 37
0.0
 76
     0
330
23
  0
LAYOUT
  5
22
102
{ACAD_REACTORS
330
1A
102
}
330
1A
100
AcDbPlotSettings
  1

  2
none_device
  4
Letter_(8.50_x_11.00_Inches)
  6

 40
6.35
 41
6.35
 42
6.35000508
 43
6.35000508
 44
215.9
 45
279.4
 46
0.0
 47
0.0
 48
0.0
 49
0.0
140
0.0
141
0.0
142
1.0
143
1.0
 70
  1712
 72
     1
 73
     0
 74
     0
  7

 75
     0
 76
     0
 77
     2
 78
   300
147
1.0
148
0.0
149
0.0
100
AcDbLayout
  1
Model
 70
     1
 71
     0
 10
0.0
 20
0.0
 11
297.0
 21
210.0
 12
0.0
 22
0.0
 32
0.0
 14
0.0
 24
0.0
 34
0.0
 15
297.0
 25
210.0
 35
0.0
146
0.0
 13
0.0
 23
0.0
 33
0.0
 16
1.0
 26
0.0
 36
0.0
 17
0.0
 27
1.0
 37
0.0
 76
     0
330
1F
331
29
  0
MATERIAL
  5
45
102
{ACAD_REACTORS
330
43
102
}
330
43
100
AcDbMaterial
  1
ByBlock
  0
MATERIAL
  5
44
102
{ACAD_REACTORS
330
43
102
}
330
43
100
AcDbMaterial
  1
ByLayer
  0
MATERIAL
  5
46
102
{ACAD_REACTORS
330
43
102
}
330
43
100
AcDbMaterial
  1
Global
  0
MLEADERSTYLE
  5
5C
102
{ACAD_REACTORS
330
5B
102
}
330
5B
100
AcDbMLeaderStyle
170
     2
171
     1
172
     0
 90
        2
 40
0.0
 41
0.0
173
     1
 91
-1056964608
340
14
 92
       -2
290
     1
 42
2.0
291
     1
 43
8.0
  3
Standard
341
0
 44
4.0
300

342
11
174
     1
178
     6
175
     1
176
     0
 93
-1056964608
 45
4.0
292
     0
297
     0
 46
4.0
343
0
 94
-1056964608
 47
1.0
 49
1.0
140
1.0
293
     1
141
0.0
294
     1
177
     0
142
1.0
295
     0
296
     0
143
3.75
1001
ACAD_MLEADERVER
1070
     2
  0
MLINESTYLE
  5
18
102
{ACAD_REACTORS
330
17
102
}
330
17
100
AcDbMlineStyle
  2
Standard
 70
     0
  3

 62
   256
 51
90.0
 52
90.0
 71
     2
 49
0.5
 62
   256
  6
BYLAYER
 49
-0.5
 62
   256
  6
BYLAYER
  0
ACDBPLACEHOLDER
  5
F
102
{ACAD_REACTORS
330
E
102
}
330
E
  0
SCALE
  5
48
102
{ACAD_REACTORS
330
47
102
}
330
47
100
AcDbScale
 70
     0
300
1:1
140
1.0
141
1.0
290
     1
  0
SCALE
  5
49
102
{ACAD_REACTORS
330
47
102
}
330
47
100
AcDbScale
 70
     0
300
1:2
140
1.0
141
2.0
290
     0
  0
SCALE
  5
4A
102
{ACAD_REACTORS
330
47
102
}
330
47
100
AcDbScale
 70
     0
300
1:4
140
1.0
141
4.0
290
     0
  0
SCALE
  5
4B
102
{ACAD_REACTORS
330
47
102
}
330
47
100
AcDbScale
 70
     0
300
1:5
140
1.0
141
5.0
290
     0
  0
SCALE
  5
4C
102
{ACAD_REACTORS
330
47
102
}
330
47
100
AcDbScale
 70
     0
300
1:8
140
1.0
141
8.0
290
     0
  0
SCALE
  5
4D
102
{ACAD_REACTORS
330
47
102
}
330
47
100
AcDbScale
 70
     0
300
1:10
140
1.0
141
10.0
290
     0
  0
SCALE
  5
4E
102
{ACAD_REACTORS
330
47
102
}
330
47
100
AcDbScale
 70
     0
300
1:16
140
1.0
141
16.0
290
     0
  0
SCALE
  5
4F
102
{ACAD_REACTORS
330
47
102
}
330
47
100
AcDbScale
 70
     0
300
1:20
140
1.0
141
20.0
290
     0
  0
SCALE
  5
50
102
{ACAD_REACTORS
330
47
102
}
330
47
100
AcDbScale
 70
     0
300
1:30
140
1.0
141
30.0
290
     0
  0
SCALE
  5
51
102
{ACAD_REACTORS
330
47
102
}
330
47
100
AcDbScale
 70
     0
300
1:40
140
1.0
141
40.0
290
     0
  0
SCALE
  5
52
102
{ACAD_REACTORS
330
47
102
}
330
47
100
AcDbScale
 70
     0
300
1:50
140
1.0
141
50.0
290
     0
  0
SCALE
  5
53
102
{ACAD_REACTORS
330
47
102
}
330
47
100
AcDbScale
 70
     0
300
1:100
140
1.0
141
100.0
290
     0
  0
SCALE
  5
54
102
{ACAD_REACTORS
330
47
102
}
330
47
100
AcDbScale
 70
     0
300
2:1
140
2.0
141
1.0
290
     0
  0
SCALE
  5
55
102
{ACAD_REACTORS
330
47
102
}
330
47
100
AcDbScale
 70
     0
300
4:1
140
4.0
141
1.0
290
     0
  0
SCALE
  5
56
102
{ACAD_REACTORS
330
47
102
}
330
47
100
AcDbScale
 70
     0
300
8:1
140
8.0
141
1.0
290
     0
  0
SCALE
  5
57
102
{ACAD_REACTORS
330
47
102
}
330
47
100
AcDbScale
 70
     0
300
10:1
140
10.0
141
1.0
290
     0
  0
SCALE
  5
58
102
{ACAD_REACTORS
330
47
102
}
330
47
100
AcDbScale
 70
     0
300
100:1
140
100.0
141
1.0
290
     0
  0
TABLESTYLE
  5
5A
102
{ACAD_REACTORS
330
59
102
}
102
{ACAD_XDICTIONARY
360
446
102
}
330
59
100
AcDbTableStyle
  3
Standard
 70
     0
 71
     0
 40
0.06
 41
0.06
280
     0
281
     0
  7
Standard
140
4.5
170
     2
 62
     0
 63
   257
283
     0
274
    -2
284
     1
 64
     0
275
    -2
285
     1
 65
     0
276
    -2
286
     1
 66
     0
277
    -2
287
     1
 67
     0
278
    -2
288
     1
 68
     0
279
    -2
289
     1
 69
     0
  7
Standard
140
6.0
170
     5
 62
     0
 63
   257
283
     0
274
    -2
284
     1
 64
     0
275
    -2
285
     1
 65
     0
276
    -2
286
     1
 66
     0
277
    -2
287
     1
 67
     0
278
    -2
288
     1
 68
     0
279
    -2
289
     1
 69
     0
  7
Standard
140
4.5
170
     5
 62
     0
 63
   257
283
     0
274
    -2
284
     1
 64
     0
275
    -2
285
     1
 65
     0
276
    -2
286
     1
 66
     0
277
    -2
287
     1
 67
     0
278
    -2
288
     1
 68
     0
279
    -2
289
     1
 69
     0
  0
DICTIONARYVAR
  5
445
102
{ACAD_REACTORS
330
444
102
}
330
444
100
DictionaryVariables
280
     0
  1
1:1
  0
DICTIONARYVAR
  5
44F
102
{ACAD_REACTORS
330
444
102
}
330
444
100
DictionaryVariables
280
     0
  1
3.500000
  0
DICTIONARYVAR
  5
450
102
{ACAD_REACTORS
330
444
102
}
330
444
100
DictionaryVariables
280
     0
  1
acadiso.lin
  0
DICTIONARYVAR
  5
44C
102
{ACAD_REACTORS
330
444
102
}
330
444
100
DictionaryVariables
280
     0
  1
Standard
  0
DICTIONARYVAR
  5
44B
102
{ACAD_REACTORS
330
444
102
}
330
444
100
DictionaryVariables
280
     0
  1
Standard
  0
DICTIONARY
  5
446
330
5A
100
AcDbDictionary
280
     1
281
     1
  3
ACAD_ROUNDTRIP_2008_TABLESTYLE_CELLSTYLEMAP
360
448
  3
ACAD_XREC_ROUNDTRIP
360
447
  0
CELLSTYLEMAP
  5
448
102
{ACAD_REACTORS
330
446
102
}
330
446
100
AcDbCellStyleMap
 90
        3
300
CELLSTYLE
  1
TABLEFORMAT_BEGIN
 90
        5
170
     1
 91
        0
 92
    32768
 62
   257
 93
        1
300
CONTENTFORMAT
  1
CONTENTFORMAT_BEGIN
 90
        0
 91
        0
 92
        4
 93
        0
300

 40
0.0
140
1.0
 94
        5
 62
     0
340
11
144
6.0
309
CONTENTFORMAT_END
171
     1
301
MARGIN
  1
CELLMARGIN_BEGIN
 40
1.5
 40
1.5
 40
1.5
 40
1.5
 40
1.5
 40
1.5
309
CELLMARGIN_END
 94
        6
 95
        1
302
GRIDFORMAT
  1
GRIDFORMAT_BEGIN
 90
        0
 91
        1
 62
     0
 92
       -2
340
14
 93
        0
 40
0.045
309
GRIDFORMAT_END
 95
        2
302
GRIDFORMAT
  1
GRIDFORMAT_BEGIN
 90
        0
 91
        1
 62
     0
 92
       -2
340
14
 93
        0
 40
0.045
309
GRIDFORMAT_END
 95
        4
302
GRIDFORMAT
  1
GRIDFORMAT_BEGIN
 90
        0
 91
        1
 62
     0
 92
       -2
340
14
 93
        0
 40
0.045
309
GRIDFORMAT_END
 95
        8
302
GRIDFORMAT
  1
GRIDFORMAT_BEGIN
 90
        0
 91
        1
 62
     0
 92
       -2
340
14
 93
        0
 40
0.045
309
GRIDFORMAT_END
 95
       16
302
GRIDFORMAT
  1
GRIDFORMAT_BEGIN
 90
        0
 91
        1
 62
     0
 92
       -2
340
14
 93
        0
 40
0.045
309
GRIDFORMAT_END
 95
       32
302
GRIDFORMAT
  1
GRIDFORMAT_BEGIN
 90
        0
 91
        1
 62
     0
 92
       -2
340
14
 93
        0
 40
0.045
309
GRIDFORMAT_END
309
TABLEFORMAT_END
  1
CELLSTYLE_BEGIN
 90
        1
 91
        1
300
_TITLE
309
CELLSTYLE_END
300
CELLSTYLE
  1
TABLEFORMAT_BEGIN
 90
        5
170
     1
 91
        0
 92
        0
 62
   257
 93
        1
300
CONTENTFORMAT
  1
CONTENTFORMAT_BEGIN
 90
        0
 91
        0
 92
        4
 93
        0
300

 40
0.0
140
1.0
 94
        5
 62
     0
340
11
144
4.5
309
CONTENTFORMAT_END
171
     1
301
MARGIN
  1
CELLMARGIN_BEGIN
 40
1.5
 40
1.5
 40
1.5
 40
1.5
 40
1.5
 40
1.5
309
CELLMARGIN_END
 94
        6
 95
        1
302
GRIDFORMAT
  1
GRIDFORMAT_BEGIN
 90
        0
 91
        1
 62
     0
 92
       -2
340
14
 93
        0
 40
0.045
309
GRIDFORMAT_END
 95
        2
302
GRIDFORMAT
  1
GRIDFORMAT_BEGIN
 90
        0
 91
        1
 62
     0
 92
       -2
340
14
 93
        0
 40
0.045
309
GRIDFORMAT_END
 95
        4
302
GRIDFORMAT
  1
GRIDFORMAT_BEGIN
 90
        0
 91
        1
 62
     0
 92
       -2
340
14
 93
        0
 40
0.045
309
GRIDFORMAT_END
 95
        8
302
GRIDFORMAT
  1
GRIDFORMAT_BEGIN
 90
        0
 91
        1
 62
     0
 92
       -2
340
14
 93
        0
 40
0.045
309
GRIDFORMAT_END
 95
       16
302
GRIDFORMAT
  1
GRIDFORMAT_BEGIN
 90
        0
 91
        1
 62
     0
 92
       -2
340
14
 93
        0
 40
0.045
309
GRIDFORMAT_END
 95
       32
302
GRIDFORMAT
  1
GRIDFORMAT_BEGIN
 90
        0
 91
        1
 62
     0
 92
       -2
340
14
 93
        0
 40
0.045
309
GRIDFORMAT_END
309
TABLEFORMAT_END
  1
CELLSTYLE_BEGIN
 90
        2
 91
        1
300
_HEADER
309
CELLSTYLE_END
300
CELLSTYLE
  1
TABLEFORMAT_BEGIN
 90
        5
170
     1
 91
        0
 92
        0
 62
   257
 93
        1
300
CONTENTFORMAT
  1
CONTENTFORMAT_BEGIN
 90
        0
 91
        0
 92
        4
 93
        0
300

 40
0.0
140
1.0
 94
        2
 62
     0
340
11
144
4.5
309
CONTENTFORMAT_END
171
     1
301
MARGIN
  1
CELLMARGIN_BEGIN
 40
1.5
 40
1.5
 40
1.5
 40
1.5
 40
1.5
 40
1.5
309
CELLMARGIN_END
 94
        6
 95
        1
302
GRIDFORMAT
  1
GRIDFORMAT_BEGIN
 90
        0
 91
        1
 62
     0
 92
       -2
340
14
 93
        0
 40
0.045
309
GRIDFORMAT_END
 95
        2
302
GRIDFORMAT
  1
GRIDFORMAT_BEGIN
 90
        0
 91
        1
 62
     0
 92
       -2
340
14
 93
        0
 40
0.045
309
GRIDFORMAT_END
 95
        4
302
GRIDFORMAT
  1
GRIDFORMAT_BEGIN
 90
        0
 91
        1
 62
     0
 92
       -2
340
14
 93
        0
 40
0.045
309
GRIDFORMAT_END
 95
        8
302
GRIDFORMAT
  1
GRIDFORMAT_BEGIN
 90
        0
 91
        1
 62
     0
 92
       -2
340
14
 93
        0
 40
0.045
309
GRIDFORMAT_END
 95
       16
302
GRIDFORMAT
  1
GRIDFORMAT_BEGIN
 90
        0
 91
        1
 62
     0
 92
       -2
340
14
 93
        0
 40
0.045
309
GRIDFORMAT_END
 95
       32
302
GRIDFORMAT
  1
GRIDFORMAT_BEGIN
 90
        0
 91
        1
 62
     0
 92
       -2
340
14
 93
        0
 40
0.045
309
GRIDFORMAT_END
309
TABLEFORMAT_END
  1
CELLSTYLE_BEGIN
 90
        3
 91
        2
300
_DATA
309
CELLSTYLE_END
  0
XRECORD
  5
447
102
{ACAD_REACTORS
330
446
102
}
330
446
100
AcDbXrecord
280
     1
102
ACAD_ROUNDTRIP_PRE2007_TABLESTYLE
 90
        4
 91
        0
  1

 92
        4
 93
        0
  2

 94
        4
 95
        0
  3

  0
ENDSEC
  0
EOF
