  0
SECTION
  2
HEADER
  9
$ACADVER
  1
AC1015
  9
$ACADMAINTVER
 70
     6
  9
$DWGCODEPAGE
  3
ANSI_950
  9
$INSBASE
 10
0.0
 20
0.0
 30
0.0
  9
$EXTMIN
 10
0.0
 20
0.0
 30
0.0
  9
$EXTMAX
 10
297.0
 20
210.0
 30
0.0
  9
$LIMMIN
 10
0.0
 20
0.0
  9
$LIMMAX
 10
297.0
 20
210.0
  9
$ORTHOMODE
 70
     0
  9
$REGENMODE
 70
     1
  9
$FILLMODE
 70
     1
  9
$QTEXTMODE
 70
     0
  9
$MIRRTEXT
 70
     1
  9
$LTSCALE
 40
1.0
  9
$ATTMODE
 70
     1
  9
$TEXTSIZE
 40
2.5
  9
$TRACEWID
 40
1.0
  9
$TEXTSTYLE
  7
Standard
  9
$CLAYER
  8
0
  9
$CELTYPE
  6
ByLayer
  9
$CECOLOR
 62
   256
  9
$CELTSCALE
 40
1.0
  9
$DISPSILH
 70
     0
  9
$DIMSCALE
 40
1.0
  9
$DIMASZ
 40
2.0
  9
$DIMEXO
 40
1.0
  9
$DIMDLI
 40
3.75
  9
$DIMRND
 40
0.0
  9
$DIMDLE
 40
0.0
  9
$DIMEXE
 40
1.0
  9
$DIMTP
 40
0.0
  9
$DIMTM
 40
0.0
  9
$DIMTXT
 40
2.5
  9
$DIMCEN
 40
2.5
  9
$DIMTSZ
 40
0.0
  9
$DIMTOL
 70
     0
  9
$DIMLIM
 70
     0
  9
$DIMTIH
 70
     1
  9
$DIMTOH
 70
     1
  9
$DIMSE1
 70
     0
  9
$DIMSE2
 70
     0
  9
$DIMTAD
 70
     1
  9
$DIMZIN
 70
     0
  9
$DIMBLK
  1

  9
$DIMASO
 70
     1
  9
$DIMSHO
 70
     1
  9
$DIMPOST
  1

  9
$DIMAPOST
  1

  9
$DIMALT
 70
     0
  9
$DIMALTD
 70
     3
  9
$DIMALTF
 40
0.0393700787
  9
$DIMLFAC
 40
1.0
  9
$DIMTOFL
 70
     1
  9
$DIMTVP
 40
0.0
  9
$DIMTIX
 70
     0
  9
$DIMSOXD
 70
     0
  9
$DIMSAH
 70
     0
  9
$DIMBLK1
  1

  9
$DIMBLK2
  1

  9
$DIMSTYLE
  2
ISO-25
  9
$DIMCLRD
 70
     0
  9
$DIMCLRE
 70
     0
  9
$DIMCLRT
 70
     0
  9
$DIMTFAC
 40
1.0
  9
$DIMGAP
 40
1.0
  9
$DIMJUST
 70
     0
  9
$DIMSD1
 70
     0
  9
$DIMSD2
 70
     0
  9
$DIMTOLJ
 70
     0
  9
$DIMTZIN
 70
     0
  9
$DIMALTZ
 70
     0
  9
$DIMALTTZ
 70
     0
  9
$DIMUPT
 70
     0
  9
$DIMDEC
 70
     2
  9
$DIMTDEC
 70
     2
  9
$DIMALTU
 70
     2
  9
$DIMALTTD
 70
     3
  9
$DIMTXSTY
  7
Standard
  9
$DIMAUNIT
 70
     0
  9
$DIMADEC
 70
     1
  9
$DIMALTRND
 40
0.0
  9
$DIMAZIN
 70
     0
  9
$DIMDSEP
 70
    44
  9
$DIMATFIT
 70
     3
  9
$DIMFRAC
 70
     0
  9
$DIMLDRBLK
  1

  9
$DIMLUNIT
 70
     2
  9
$DIMLWD
 70
    -2
  9
$DIMLWE
 70
    -2
  9
$DIMTMOVE
 70
     0
  9
$LUNITS
 70
     2
  9
$LUPREC
 70
     2
  9
$SKETCHINC
 40
1.0
  9
$FILLETRAD
 40
10.0
  9
$AUNITS
 70
     0
  9
$AUPREC
 70
     1
  9
$MENU
  1
.
  9
$ELEVATION
 40
0.0
  9
$PELEVATION
 40
0.0
  9
$THICKNESS
 40
0.0
  9
$LIMCHECK
 70
     0
  9
$CHAMFERA
 40
0.0
  9
$CHAMFERB
 40
0.0
  9
$CHAMFERC
 40
0.0
  9
$CHAMFERD
 40
0.0
  9
$SKPOLY
 70
     0
  9
$TDCREATE
 40
2457465.416407245
  9
$TDUCREATE
 40
2457465.083073912
  9
$TDUPDATE
 40
2457465.416411227
  9
$TDUUPDATE
 40
2457465.083077894
  9
$TDINDWG
 40
0.0000000116
  9
$TDUSRTIMER
 40
0.0000000116
  9
$USRTIMER
 70
     1
  9
$ANGBASE
 50
0.0
  9
$ANGDIR
 70
     0
  9
$PDMODE
 70
     0
  9
$PDSIZE
 40
-1.0
  9
$PLINEWID
 40
0.0
  9
$SPLFRAME
 70
     0
  9
$SPLINETYPE
 70
     6
  9
$SPLINESEGS
 70
     8
  9
$HANDSEED
  5
267
  9
$SURFTAB1
 70
     6
  9
$SURFTAB2
 70
     6
  9
$SURFTYPE
 70
     6
  9
$SURFU
 70
     6
  9
$SURFV
 70
     6
  9
$UCSBASE
  2

  9
$UCSNAME
  2

  9
$UCSORG
 10
0.0
 20
0.0
 30
0.0
  9
$UCSXDIR
 10
1.0
 20
0.0
 30
0.0
  9
$UCSYDIR
 10
0.0
 20
1.0
 30
0.0
  9
$UCSORTHOREF
  2

  9
$UCSORTHOVIEW
 70
     0
  9
$UCSORGTOP
 10
0.0
 20
0.0
 30
0.0
  9
$UCSORGBOTTOM
 10
0.0
 20
0.0
 30
0.0
  9
$UCSORGLEFT
 10
0.0
 20
0.0
 30
0.0
  9
$UCSORGRIGHT
 10
0.0
 20
0.0
 30
0.0
  9
$UCSORGFRONT
 10
0.0
 20
0.0
 30
0.0
  9
$UCSORGBACK
 10
0.0
 20
0.0
 30
0.0
  9
$PUCSBASE
  2

  9
$PUCSNAME
  2

  9
$PUCSORG
 10
0.0
 20
0.0
 30
0.0
  9
$PUCSXDIR
 10
1.0
 20
0.0
 30
0.0
  9
$PUCSYDIR
 10
0.0
 20
1.0
 30
0.0
  9
$PUCSORTHOREF
  2

  9
$PUCSORTHOVIEW
 70
     0
  9
$PUCSORGTOP
 10
0.0
 20
0.0
 30
0.0
  9
$PUCSORGBOTTOM
 10
0.0
 20
0.0
 30
0.0
  9
$PUCSORGLEFT
 10
0.0
 20
0.0
 30
0.0
  9
$PUCSORGRIGHT
 10
0.0
 20
0.0
 30
0.0
  9
$PUCSORGFRONT
 10
0.0
 20
0.0
 30
0.0
  9
$PUCSORGBACK
 10
0.0
 20
0.0
 30
0.0
  9
$USERI1
 70
     0
  9
$USERI2
 70
     0
  9
$USERI3
 70
     0
  9
$USERI4
 70
     0
  9
$USERI5
 70
     0
  9
$USERR1
 40
0.0
  9
$USERR2
 40
0.0
  9
$USERR3
 40
0.0
  9
$USERR4
 40
0.0
  9
$USERR5
 40
0.0
  9
$WORLDVIEW
 70
     1
  9
$SHADEDGE
 70
     3
  9
$SHADEDIF
 70
    70
  9
$TILEMODE
 70
     1
  9
$MAXACTVP
 70
    64
  9
$PINSBASE
 10
0.0
 20
0.0
 30
0.0
  9
$PLIMCHECK
 70
     0
  9
$PEXTMIN
 10
1.0000000000E+20
 20
1.0000000000E+20
 30
1.0000000000E+20
  9
$PEXTMAX
 10
-1.0000000000E+20
 20
-1.0000000000E+20
 30
-1.0000000000E+20
  9
$PLIMMIN
 10
0.0
 20
0.0
  9
$PLIMMAX
 10
420.0
 20
297.0
  9
$UNITMODE
 70
     0
  9
$VISRETAIN
 70
     1
  9
$PLINEGEN
 70
     0
  9
$PSLTSCALE
 70
     1
  9
$TREEDEPTH
 70
  3020
  9
$CMLSTYLE
  2
Standard
  9
$CMLJUST
 70
     0
  9
$CMLSCALE
 40
20.0
  9
$PROXYGRAPHICS
 70
     1
  9
$MEASUREMENT
 70
     1
  9
$CELWEIGHT
370
    -1
  9
$ENDCAPS
280
     0
  9
$JOINSTYLE
280
     0
  9
$LWDISPLAY
290
     1
  9
$INSUNITS
 70
     4
  9
$HYPERLINKBASE
  1

  9
$STYLESHEET
  1

  9
$XEDIT
290
     1
  9
$CEPSNTYPE
380
     0
  9
$PSTYLEMODE
290
     1
  9
$FINGERPRINTGUID
  2
{25147EA9-678F-4880-A406-0E0595CB7BF1}
  9
$VERSIONGUID
  2
{FAEB1C32-E019-11D5-929B-00C0DF256EC4}
  9
$EXTNAMES
290
     1
  9
$PSVPSCALE
 40
0.0
  9
$OLESTARTUP
290
     0
  0
ENDSEC
  0
SECTION
  2
CLASSES
  0
CLASS
  1
ACDBDICTIONARYWDFLT
  2
AcDbDictionaryWithDefault
  3
ObjectDBX Classes
 90
        0
280
     0
281
     0
  0
CLASS
  1
VISUALSTYLE
  2
AcDbVisualStyle
  3
ObjectDBX Classes
 90
     4095
280
     0
281
     0
  0
CLASS
  1
MATERIAL
  2
AcDbMaterial
  3
ObjectDBX Classes
 90
     1153
280
     0
281
     0
  0
CLASS
  1
SCALE
  2
AcDbScale
  3
ObjectDBX Classes
 90
     1153
280
     0
281
     0
  0
CLASS
  1
TABLESTYLE
  2
AcDbTableStyle
  3
ObjectDBX Classes
 90
     4095
280
     0
281
     0
  0
CLASS
  1
MLEADERSTYLE
  2
AcDbMLeaderStyle
  3
ACDB_MLEADERSTYLE_CLASS
 90
     4095
280
     0
281
     0
  0
CLASS
  1
SUN
  2
AcDbSun
  3
SCENEOE
 90
     1153
280
     0
281
     0
  0
CLASS
  1
ACDBPLACEHOLDER
  2
AcDbPlaceHolder
  3
ObjectDBX Classes
 90
        0
280
     0
281
     0
  0
CLASS
  1
LAYOUT
  2
AcDbLayout
  3
ObjectDBX Classes
 90
        0
280
     0
281
     0
  0
ENDSEC
  0
SECTION
  2
TABLES
  0
TABLE
  2
VPORT
  5
8
330
0
100
AcDbSymbolTable
 70
     1
  0
VPORT
  5
29
330
8
100
AcDbSymbolTableRecord
100
AcDbViewportTableRecord
  2
*Active
 70
     0
 10
0.0
 20
0.0
 11
1.0
 21
1.0
 12
148.5
 22
105.0
 13
0.0
 23
0.0
 14
10.0
 24
10.0
 15
10.0
 25
10.0
 16
0.0
 26
0.0
 36
1.0
 17
0.0
 27
0.0
 37
0.0
 40
210.0
 41
1.4142857143
 42
50.0
 43
0.0
 44
0.0
 50
0.0
 51
0.0
 71
     0
 72
  2000
 73
     1
 74
     3
 75
     0
 76
     0
 77
     0
 78
     0
281
     0
 65
     1
110
0.0
120
0.0
130
0.0
111
1.0
121
0.0
131
0.0
112
0.0
122
1.0
132
0.0
 79
     0
146
0.0
  0
ENDTAB
  0
TABLE
  2
LTYPE
  5
5
330
0
100
AcDbSymbolTable
 70
     6
  0
LTYPE
  5
14
330
5
100
AcDbSymbolTableRecord
100
AcDbLinetypeTableRecord
  2
ByBlock
 70
     0
  3

 72
    65
 73
     0
 40
0.0
  0
LTYPE
  5
15
330
5
100
AcDbSymbolTableRecord
100
AcDbLinetypeTableRecord
  2
ByLayer
 70
     0
  3

 72
    65
 73
     0
 40
0.0
  0
LTYPE
  5
16
330
5
100
AcDbSymbolTableRecord
100
AcDbLinetypeTableRecord
  2
Continuous
 70
     0
  3
Solid line
 72
    65
 73
     0
 40
0.0
  0
LTYPE
  5
6E
330
5
100
AcDbSymbolTableRecord
100
AcDbLinetypeTableRecord
  2
HIDDEN
 70
     0
  3
Hidden __ __ __ __ __ __ __ __ __ __ __ __ __ __
 72
    65
 73
     2
 40
1.905
 49
1.27
 74
     0
 49
-0.635
 74
     0
  0
LTYPE
  5
6F
330
5
100
AcDbSymbolTableRecord
100
AcDbLinetypeTableRecord
  2
PHANTOM
 70
     0
  3
Phantom ______  __  __  ______  __  __  ______
 72
    65
 73
     6
 40
12.7
 49
6.35
 74
     0
 49
-1.27
 74
     0
 49
1.27
 74
     0
 49
-1.27
 74
     0
 49
1.27
 74
     0
 49
-1.27
 74
     0
  0
LTYPE
  5
70
330
5
100
AcDbSymbolTableRecord
100
AcDbLinetypeTableRecord
  2
CENTER
 70
     0
  3
Center ____ _ ____ _ ____ _ ____ _ ____ _ ____
 72
    65
 73
     4
 40
10.16
 49
6.35
 74
     0
 49
-1.27
 74
     0
 49
1.27
 74
     0
 49
-1.27
 74
     0
  0
LTYPE
  5
71
330
5
100
AcDbSymbolTableRecord
100
AcDbLinetypeTableRecord
  2
CENTERX2
 70
     0
  3
Center (2x) ________  __  ________  __  _____
 72
    65
 73
     4
 40
20.32
 49
12.7
 74
     0
 49
-2.54
 74
     0
 49
2.54
 74
     0
 49
-2.54
 74
     0
  0
LTYPE
  5
72
330
5
100
AcDbSymbolTableRecord
100
AcDbLinetypeTableRecord
  2
DOT2
 70
     0
  3
Dot (.5x) ........................................
 72
    65
 73
     2
 40
0.635
 49
0.0
 74
     0
 49
-0.635
 74
     0
  0
ENDTAB
  0
TABLE
  2
LAYER
  5
2
330
0
100
AcDbSymbolTable
 70
     3
  0
LAYER
  5
10
330
2
100
AcDbSymbolTableRecord
100
AcDbLayerTableRecord
  2
0
 70
     0
 62
     7
  6
Continuous
370
    -3
390
F
  0
LAYER
  5
73
330
2
100
AcDbSymbolTableRecord
100
AcDbLayerTableRecord
  2
SLD-0
 70
     0
 62
   179
  6
Continuous
370
    15
390
F
  0
LAYER
  5
74
330
2
100
AcDbSymbolTableRecord
100
AcDbLayerTableRecord
  2
DIM
 70
     0
 62
     7
  6
Continuous
370
    -3
390
F
  0
ENDTAB
  0
TABLE
  2
STYLE
  5
3
330
0
100
AcDbSymbolTable
 70
     3
  0
STYLE
  5
11
330
3
100
AcDbSymbolTableRecord
100
AcDbTextStyleTableRecord
  2
Standard
 70
     0
 40
0.0
 41
1.0
 50
0.0
 71
     0
 42
2.5
  3
txt
  4

  0
STYLE
  5
C5
330
3
100
AcDbSymbolTableRecord
100
AcDbTextStyleTableRecord
  2
SLDTEXTSTYLE0
 70
     0
 40
0.0
 41
0.605
 50
0.0
 71
     0
 42
2.5
  3
TXT
  4

  0
STYLE
  5
CE
330
3
100
AcDbSymbolTableRecord
100
AcDbTextStyleTableRecord
  2
SLDTEXTSTYLE1
 70
     0
 40
0.0
 41
0.7
 50
0.0
 71
     0
 42
2.5
  3
TXT
  4

  0
ENDTAB
  0
TABLE
  2
VIEW
  5
6
330
0
100
AcDbSymbolTable
 70
     0
  0
ENDTAB
  0
TABLE
  2
UCS
  5
7
330
0
100
AcDbSymbolTable
 70
     0
  0
ENDTAB
  0
TABLE
  2
APPID
  5
9
330
0
100
AcDbSymbolTable
 70
     1
  0
APPID
  5
12
330
9
100
AcDbSymbolTableRecord
100
AcDbRegAppTableRecord
  2
ACAD
 70
     0
  0
ENDTAB
  0
TABLE
  2
DIMSTYLE
  5
A
330
0
100
AcDbSymbolTable
 70
     3
100
AcDbDimStyleTable
  0
DIMSTYLE
105
27
330
A
100
AcDbSymbolTableRecord
100
AcDbDimStyleTableRecord
  2
ISO-25
 70
     0
 41
2.5
 42
0.625
 43
3.75
 44
1.25
 73
     0
 74
     0
 77
     1
 78
     8
140
2.5
141
2.5
143
0.0393700787
147
0.625
171
     3
172
     1
178
     0
271
     2
272
     2
274
     3
278
    44
283
     0
284
     8
340
11
  0
DIMSTYLE
105
156
102
{ACAD_REACTORS
330
155
330
160
330
174
330
231
330
23B
330
245
330
24F
330
259
102
}
330
A
100
AcDbSymbolTableRecord
100
AcDbDimStyleTableRecord
  2
SLDDIMSTYLE0
 70
     0
 41
2.0
 44
0.0
 45
0.000000001
 73
     0
 74
     0
 77
     1
 78
    12
 79
     3
140
2.5
147
0.625
173
     1
178
     0
271
     2
272
     2
276
     2
284
    12
340
C5
  0
DIMSTYLE
105
16B
102
{ACAD_REACTORS
330
16A
102
}
330
A
100
AcDbSymbolTableRecord
100
AcDbDimStyleTableRecord
  2
SLDDIMSTYLE1
 70
     0
  3
<>
 41
2.0
 44
0.0
 45
0.000000001
 78
    12
 79
     3
140
2.5
141
0.0
147
0.625
173
     1
178
     0
271
     2
272
     2
276
     2
284
    12
340
C5
  0
ENDTAB
  0
TABLE
  2
BLOCK_RECORD
  5
1
330
0
100
AcDbSymbolTable
 70
    14
  0
BLOCK_RECORD
  5
1F
330
1
100
AcDbSymbolTableRecord
100
AcDbBlockTableRecord
  2
*Model_Space
340
22
  0
BLOCK_RECORD
  5
1B
330
1
100
AcDbSymbolTableRecord
100
AcDbBlockTableRecord
  2
*Paper_Space
340
1E
  0
BLOCK_RECORD
  5
23
330
1
100
AcDbSymbolTableRecord
100
AcDbBlockTableRecord
  2
*Paper_Space0
340
26
  0
BLOCK_RECORD
  5
C7
330
1
100
AcDbSymbolTableRecord
100
AcDbBlockTableRecord
  2
SW_NOTE_0
340
0
102
{BLKREFS
331
CD
102
}
  0
BLOCK_RECORD
  5
FE
330
1
100
AcDbSymbolTableRecord
100
AcDbBlockTableRecord
  2
SW_NOTE_1
340
0
102
{BLKREFS
331
103
102
}
  0
BLOCK_RECORD
  5
157
330
1
100
AcDbSymbolTableRecord
100
AcDbBlockTableRecord
  2
_D
340
0
  0
BLOCK_RECORD
  5
161
330
1
100
AcDbSymbolTableRecord
100
AcDbBlockTableRecord
  2
_D_1
340
0
  0
BLOCK_RECORD
  5
16C
330
1
100
AcDbSymbolTableRecord
100
AcDbBlockTableRecord
  2
_D_2
340
0
  0
BLOCK_RECORD
  5
175
330
1
100
AcDbSymbolTableRecord
100
AcDbBlockTableRecord
  2
_D_3
340
0
  0
BLOCK_RECORD
  5
17E
330
1
100
AcDbSymbolTableRecord
100
AcDbBlockTableRecord
  2
SW_CENTERMARKSYMBOL_0
340
0
102
{BLKREFS
331
189
102
}
  0
BLOCK_RECORD
  5
18A
330
1
100
AcDbSymbolTableRecord
100
AcDbBlockTableRecord
  2
SW_CENTERMARKSYMBOL_1
340
0
102
{BLKREFS
331
195
102
}
  0
BLOCK_RECORD
  5
232
330
1
100
AcDbSymbolTableRecord
100
AcDbBlockTableRecord
  2
_D_4
340
0
  0
BLOCK_RECORD
  5
23C
330
1
100
AcDbSymbolTableRecord
100
AcDbBlockTableRecord
  2
_D_5
340
0
  0
BLOCK_RECORD
  5
246
330
1
100
AcDbSymbolTableRecord
100
AcDbBlockTableRecord
  2
_D_6
340
0
  0
BLOCK_RECORD
  5
250
330
1
100
AcDbSymbolTableRecord
100
AcDbBlockTableRecord
  2
_D_7
340
0
  0
BLOCK_RECORD
  5
25A
330
1
100
AcDbSymbolTableRecord
100
AcDbBlockTableRecord
  2
_D_8
340
0
  0
ENDTAB
  0
ENDSEC
  0
SECTION
  2
BLOCKS
  0
BLOCK
  5
20
330
1F
100
AcDbEntity
  8
0
100
AcDbBlockBegin
  2
*Model_Space
 70
     0
 10
0.0
 20
0.0
 30
0.0
  3
*Model_Space
  1

  0
ENDBLK
  5
21
330
1F
100
AcDbEntity
  8
0
100
AcDbBlockEnd
  0
BLOCK
  5
1C
330
1B
100
AcDbEntity
 67
     1
  8
0
100
AcDbBlockBegin
  2
*Paper_Space
 70
     0
 10
0.0
 20
0.0
 30
0.0
  3
*Paper_Space
  1

  0
ENDBLK
  5
1D
330
1B
100
AcDbEntity
 67
     1
  8
0
100
AcDbBlockEnd
  0
BLOCK
  5
24
330
23
100
AcDbEntity
  8
0
100
AcDbBlockBegin
  2
*Paper_Space0
 70
     0
 10
0.0
 20
0.0
 30
0.0
  3
*Paper_Space0
  1

  0
ENDBLK
  5
25
330
23
100
AcDbEntity
  8
0
100
AcDbBlockEnd
  0
BLOCK
  5
C8
330
C7
100
AcDbEntity
  8
0
100
AcDbBlockBegin
  2
SW_NOTE_0
 70
     0
 10
0.0
 20
0.0
 30
0.0
  3
SW_NOTE_0
  1

  0
MTEXT
  5
CA
330
C7
100
AcDbEntity
  8
0
  6
Continuous
 62
     0
370
     0
100
AcDbMText
 10
0.0
 20
3.4106583948
 30
0.0
 40
2.6458333333
 41
0.0
 71
     1
 72
     1
  1
PROPRIETARY AND CONFIDENTIAL
  7
SLDTEXTSTYLE0
 73
     1
 44
1.0
  0
MTEXT
  5
CB
330
C7
100
AcDbEntity
  8
0
  6
Continuous
 62
     0
370
     0
100
AcDbMText
 10
0.0
 20
-0.08198348
 30
0.0
 40
1.8520833333
 41
0.0
 71
     1
 72
     1
  1
THE INFORMATION CONTAINED IN THIS DRAWING IS THE SOLE PROPERTY OF UNICE E-O SERVICES INC. ANY REPRODUCTION IN PART OR AS A WHOLE WITHOUT THE WRITTEN PERMISSION OF UNICE E-O SERVICES INC IS
  7
SLDTEXTSTYLE0
 73
     1
 44
1.0
  0
MTEXT
  5
CC
330
C7
100
AcDbEntity
  8
0
  6
Continuous
 62
     0
370
     0
100
AcDbMText
 10
0.0
 20
-2.5514278946
 30
0.0
 40
1.8520833333
 41
0.0
 71
     1
 72
     1
  1
PROHIBITED.
  7
SLDTEXTSTYLE0
 73
     1
 44
1.0
  0
ENDBLK
  5
C9
330
C7
100
AcDbEntity
  8
0
100
AcDbBlockEnd
  0
BLOCK
  5
FF
330
FE
100
AcDbEntity
  8
0
100
AcDbBlockBegin
  2
SW_NOTE_1
 70
     0
 10
0.0
 20
0.0
 30
0.0
  3
SW_NOTE_1
  1

  0
MTEXT
  5
101
330
FE
100
AcDbEntity
  8
SLD-0
 62
     0
100
AcDbMText
 10
0.0
 20
2.3874608764
 30
0.0
 40
1.8520833333
 41
0.0
 71
     1
 72
     1
  1
No.5, Andong Rd., Chung Li District,
  7
SLDTEXTSTYLE1
 73
     1
 44
1.0
  0
MTEXT
  5
102
330
FE
100
AcDbEntity
  8
SLD-0
 62
     0
100
AcDbMText
 10
0.0
 20
-0.0819835382
 30
0.0
 40
1.8520833333
 41
0.0
 71
     1
 72
     1
  1
Taoyuan City 32063, Taiwan, R.O.C.
  7
SLDTEXTSTYLE1
 73
     1
 44
1.0
  0
ENDBLK
  5
100
330
FE
100
AcDbEntity
  8
0
100
AcDbBlockEnd
  0
BLOCK
  5
158
330
157
100
AcDbEntity
  8
0
100
AcDbBlockBegin
  2
_D
 70
     0
 10
0.0
 20
0.0
 30
0.0
  3
_D
  1

  0
SOLID
  5
15A
330
157
100
AcDbEntity
  8
SLD-0
100
AcDbTrace
 10
35.1402174501
 20
89.0800000155
 30
0.0
 11
35.3902174501
 21
91.0800000155
 31
0.0
 12
34.8902174501
 22
91.0800000155
 32
0.0
 13
34.8902174501
 23
91.0800000155
 33
0.0
  0
SOLID
  5
15B
330
157
100
AcDbEntity
  8
SLD-0
100
AcDbTrace
 10
35.1402174501
 20
104.0800000155
 30
0.0
 11
34.8902174501
 21
102.0800000155
 31
0.0
 12
35.3902174501
 22
102.0800000155
 32
0.0
 13
35.3902174501
 23
102.0800000155
 33
0.0
  0
LINE
  5
15C
330
157
100
AcDbEntity
  8
SLD-0
100
AcDbLine
 10
44.7220696894
 20
89.0800000155
 30
0.0
 11
34.1402174501
 21
89.0800000155
 31
0.0
  0
LINE
  5
15D
330
157
100
AcDbEntity
  8
SLD-0
100
AcDbLine
 10
73.7220696894
 20
104.0800000155
 30
0.0
 11
34.1402174501
 21
104.0800000155
 31
0.0
  0
LINE
  5
15E
330
157
100
AcDbEntity
  8
SLD-0
100
AcDbLine
 10
35.1402174501
 20
89.0800000155
 30
0.0
 11
35.1402174501
 21
104.0800000155
 31
0.0
  0
MTEXT
  5
15F
330
157
100
AcDbEntity
  8
SLD-0
100
AcDbMText
 10
31.9175482753
 20
94.6713971473
 30
0.0
 40
2.5
 41
0.0
 71
     1
 72
     1
  1
15
  7
SLDTEXTSTYLE0
 11
-1.608122649676637E-16
 21
1.0
 31
0.0
 73
     1
 44
1.0
  0
ENDBLK
  5
159
330
157
100
AcDbEntity
  8
0
100
AcDbBlockEnd
  0
BLOCK
  5
162
330
161
100
AcDbEntity
  8
0
100
AcDbBlockBegin
  2
_D_1
 70
     0
 10
0.0
 20
0.0
 30
0.0
  3
_D_1
  1

  0
SOLID
  5
164
330
161
100
AcDbEntity
  8
SLD-0
100
AcDbTrace
 10
74.7220696894
 20
124.905947331
 30
0.0
 11
72.7220696894
 21
125.155947331
 31
0.0
 12
72.7220696894
 22
124.655947331
 32
0.0
 13
72.7220696894
 23
124.655947331
 33
0.0
  0
SOLID
  5
165
330
161
100
AcDbEntity
  8
SLD-0
100
AcDbTrace
 10
44.7220696894
 20
124.905947331
 30
0.0
 11
46.7220696894
 21
124.655947331
 31
0.0
 12
46.7220696894
 22
125.155947331
 32
0.0
 13
46.7220696894
 23
125.155947331
 33
0.0
  0
LINE
  5
166
330
161
100
AcDbEntity
  8
SLD-0
100
AcDbLine
 10
74.7220696894
 20
105.0800000155
 30
0.0
 11
74.7220696894
 21
125.905947331
 31
0.0
  0
LINE
  5
167
330
161
100
AcDbEntity
  8
SLD-0
100
AcDbLine
 10
44.7220696894
 20
119.0800000155
 30
0.0
 11
44.7220696894
 21
125.905947331
 31
0.0
  0
LINE
  5
168
330
161
100
AcDbEntity
  8
SLD-0
100
AcDbLine
 10
74.7220696894
 20
124.905947331
 30
0.0
 11
44.7220696894
 21
124.905947331
 31
0.0
  0
MTEXT
  5
169
330
161
100
AcDbEntity
  8
SLD-0
100
AcDbMText
 10
57.8134668211
 20
128.1286165058
 30
0.0
 40
2.5
 41
0.0
 71
     1
 72
     1
  1
30
  7
SLDTEXTSTYLE0
 73
     1
 44
1.0
  0
ENDBLK
  5
163
330
161
100
AcDbEntity
  8
0
100
AcDbBlockEnd
  0
BLOCK
  5
16D
330
16C
100
AcDbEntity
  8
0
100
AcDbBlockBegin
  2
_D_2
 70
     0
 10
0.0
 20
0.0
 30
0.0
  3
_D_2
  1

  0
SOLID
  5
16F
330
16C
100
AcDbEntity
  8
SLD-0
 62
     7
100
AcDbTrace
 10
77.1659873762
 20
100.9134141032
 30
0.0
 11
78.1900346001
 21
99.1773762916
 31
0.0
 12
78.5858578391
 22
99.4828660025
 32
0.0
 13
78.5858578391
 23
99.4828660025
 33
0.0
  0
LINE
  5
170
330
16C
100
AcDbEntity
  8
SLD-0
 62
     7
100
AcDbLine
 10
77.1659873762
 20
100.9134141032
 30
0.0
 11
98.0731299125
 21
73.8240144154
 31
0.0
  0
LINE
  5
171
330
16C
100
AcDbEntity
  8
SLD-0
 62
     7
100
AcDbLine
 10
98.0731299125
 20
73.8240144154
 30
0.0
 11
127.9585423671
 21
73.8240144154
 31
0.0
  0
MTEXT
  5
172
330
16C
100
AcDbEntity
  8
SLD-0
 62
     7
100
AcDbMText
 10
99.3231299125
 20
80.8834890568
 30
0.0
 40
2.5
 41
0.0
 71
     1
 72
     1
  1
1 HOLE for both of
  7
SLDTEXTSTYLE0
 73
     1
 44
1.0
  0
MTEXT
  5
173
330
16C
100
AcDbEntity
  8
SLD-0
 62
     7
100
AcDbMText
 10
100.2606299125
 20
77.0466835902
 30
0.0
 40
2.5
 41
0.0
 71
     1
 72
     1
  1
M4 and 8-32 CLR
  7
SLDTEXTSTYLE0
 73
     1
 44
1.0
  0
ENDBLK
  5
16E
330
16C
100
AcDbEntity
  8
0
100
AcDbBlockEnd
  0
BLOCK
  5
176
330
175
100
AcDbEntity
  8
0
100
AcDbBlockBegin
  2
_D_3
 70
     0
 10
0.0
 20
0.0
 30
0.0
  3
_D_3
  1

  0
SOLID
  5
178
330
175
100
AcDbEntity
  8
SLD-0
 62
     7
100
AcDbTrace
 10
44.7220696894
 20
131.2940794001
 30
0.0
 11
46.7220696894
 21
131.0440794001
 31
0.0
 12
46.7220696894
 22
131.5440794001
 32
0.0
 13
46.7220696894
 23
131.5440794001
 33
0.0
  0
SOLID
  5
179
330
175
100
AcDbEntity
  8
SLD-0
 62
     7
100
AcDbTrace
 10
104.7220696894
 20
131.2940794001
 30
0.0
 11
102.7220696894
 21
131.5440794001
 31
0.0
 12
102.7220696894
 22
131.0440794001
 32
0.0
 13
102.7220696894
 23
131.0440794001
 33
0.0
  0
LINE
  5
17A
330
175
100
AcDbEntity
  8
SLD-0
 62
     7
100
AcDbLine
 10
44.7220696894
 20
119.0800000155
 30
0.0
 11
44.7220696894
 21
132.2940794001
 31
0.0
  0
LINE
  5
17B
330
175
100
AcDbEntity
  8
SLD-0
 62
     7
100
AcDbLine
 10
104.7220696894
 20
119.0800000155
 30
0.0
 11
104.7220696894
 21
132.2940794001
 31
0.0
  0
LINE
  5
17C
330
175
100
AcDbEntity
  8
SLD-0
 62
     7
100
AcDbLine
 10
44.7220696894
 20
131.2940794001
 30
0.0
 11
104.7220696894
 21
131.2940794001
 31
0.0
  0
MTEXT
  5
17D
330
175
100
AcDbEntity
  8
SLD-0
 62
     7
100
AcDbMText
 10
72.8123474646
 20
134.5167485749
 30
0.0
 40
2.5
 41
0.0
 71
     1
 72
     1
  1
60
  7
SLDTEXTSTYLE0
 73
     1
 44
1.0
  0
ENDBLK
  5
177
330
175
100
AcDbEntity
  8
0
100
AcDbBlockEnd
  0
BLOCK
  5
17F
330
17E
100
AcDbEntity
  8
0
100
AcDbBlockBegin
  2
SW_CENTERMARKSYMBOL_0
 70
     0
 10
0.0
 20
0.0
 30
0.0
  3
SW_CENTERMARKSYMBOL_0
  1

  0
LINE
  5
181
330
17E
100
AcDbEntity
  8
SLD-0
 62
     0
100
AcDbLine
 10
0.0
 20
0.0
 30
0.0
 11
0.0
 21
1.0
 31
0.0
  0
LINE
  5
182
330
17E
100
AcDbEntity
  8
SLD-0
 62
     0
100
AcDbLine
 10
0.0
 20
0.0
 30
0.0
 11
-1.0
 21
0.0
 31
0.0
  0
LINE
  5
183
330
17E
100
AcDbEntity
  8
SLD-0
 62
     0
100
AcDbLine
 10
0.0
 20
0.0
 30
0.0
 11
0.0
 21
-1.0
 31
0.0
  0
LINE
  5
184
330
17E
100
AcDbEntity
  8
SLD-0
 62
     0
100
AcDbLine
 10
0.0
 20
0.0
 30
0.0
 11
1.0
 21
0.0
 31
0.0
  0
LINE
  5
185
330
17E
100
AcDbEntity
  8
SLD-0
 62
     0
100
AcDbLine
 10
0.0
 20
2.0
 30
0.0
 11
0.0
 21
5.0
 31
0.0
  0
LINE
  5
186
330
17E
100
AcDbEntity
  8
SLD-0
 62
     0
100
AcDbLine
 10
-2.0
 20
0.0
 30
0.0
 11
-5.0
 21
0.0
 31
0.0
  0
LINE
  5
187
330
17E
100
AcDbEntity
  8
SLD-0
 62
     0
100
AcDbLine
 10
0.0
 20
-2.0
 30
0.0
 11
0.0
 21
-5.0
 31
0.0
  0
LINE
  5
188
330
17E
100
AcDbEntity
  8
SLD-0
 62
     0
100
AcDbLine
 10
2.0
 20
0.0
 30
0.0
 11
5.0
 21
0.0
 31
0.0
  0
ENDBLK
  5
180
330
17E
100
AcDbEntity
  8
0
100
AcDbBlockEnd
  0
BLOCK
  5
18B
330
18A
100
AcDbEntity
  8
0
100
AcDbBlockBegin
  2
SW_CENTERMARKSYMBOL_1
 70
     0
 10
0.0
 20
0.0
 30
0.0
  3
SW_CENTERMARKSYMBOL_1
  1

  0
LINE
  5
18D
330
18A
100
AcDbEntity
  8
SLD-0
 62
     0
100
AcDbLine
 10
0.0
 20
0.0
 30
0.0
 11
0.0
 21
1.0
 31
0.0
  0
LINE
  5
18E
330
18A
100
AcDbEntity
  8
SLD-0
 62
     0
100
AcDbLine
 10
0.0
 20
0.0
 30
0.0
 11
-1.0
 21
0.0
 31
0.0
  0
LINE
  5
18F
330
18A
100
AcDbEntity
  8
SLD-0
 62
     0
100
AcDbLine
 10
0.0
 20
0.0
 30
0.0
 11
0.0
 21
-1.0
 31
0.0
  0
LINE
  5
190
330
18A
100
AcDbEntity
  8
SLD-0
 62
     0
100
AcDbLine
 10
0.0
 20
0.0
 30
0.0
 11
1.0
 21
0.0
 31
0.0
  0
LINE
  5
191
330
18A
100
AcDbEntity
  8
SLD-0
 62
     0
100
AcDbLine
 10
0.0
 20
2.0
 30
0.0
 11
0.0
 21
5.0
 31
0.0
  0
LINE
  5
192
330
18A
100
AcDbEntity
  8
SLD-0
 62
     0
100
AcDbLine
 10
-2.0
 20
0.0
 30
0.0
 11
-5.0
 21
0.0
 31
0.0
  0
LINE
  5
193
330
18A
100
AcDbEntity
  8
SLD-0
 62
     0
100
AcDbLine
 10
0.0
 20
-2.0
 30
0.0
 11
0.0
 21
-5.0
 31
0.0
  0
LINE
  5
194
330
18A
100
AcDbEntity
  8
SLD-0
 62
     0
100
AcDbLine
 10
2.0
 20
0.0
 30
0.0
 11
5.0
 21
0.0
 31
0.0
  0
ENDBLK
  5
18C
330
18A
100
AcDbEntity
  8
0
100
AcDbBlockEnd
  0
BLOCK
  5
233
330
232
100
AcDbEntity
  8
0
100
AcDbBlockBegin
  2
_D_4
 70
     0
 10
0.0
 20
0.0
 30
0.0
  3
_D_4
  1

  0
SOLID
  5
235
330
232
100
AcDbEntity
  8
SLD-0
 62
     7
100
AcDbTrace
 10
146.1361256653
 20
122.3607523748
 30
0.0
 11
148.1361256653
 21
122.1107523748
 31
0.0
 12
148.1361256653
 22
122.6107523748
 32
0.0
 13
148.1361256653
 23
122.6107523748
 33
0.0
  0
SOLID
  5
236
330
232
100
AcDbEntity
  8
SLD-0
 62
     7
100
AcDbTrace
 10
153.1361256653
 20
122.3607523748
 30
0.0
 11
151.1361256653
 21
122.6107523748
 31
0.0
 12
151.1361256653
 22
122.1107523748
 32
0.0
 13
151.1361256653
 23
122.1107523748
 33
0.0
  0
LINE
  5
237
330
232
100
AcDbEntity
  8
SLD-0
 62
     7
100
AcDbLine
 10
146.1361256653
 20
97.0800000155
 30
0.0
 11
146.1361256653
 21
123.3607523748
 31
0.0
  0
LINE
  5
238
330
232
100
AcDbEntity
  8
SLD-0
 62
     7
100
AcDbLine
 10
153.1361256653
 20
102.5800000155
 30
0.0
 11
153.1361256653
 21
123.3607523748
 31
0.0
  0
LINE
  5
239
330
232
100
AcDbEntity
  8
SLD-0
 62
     7
100
AcDbLine
 10
146.1361256653
 20
122.3607523748
 30
0.0
 11
153.1361256653
 21
122.3607523748
 31
0.0
  0
MTEXT
  5
23A
330
232
100
AcDbEntity
  8
SLD-0
 62
     7
100
AcDbMText
 10
148.6812645529
 20
125.5834215496
 30
0.0
 40
2.5
 41
0.0
 71
     1
 72
     1
  1
7
  7
SLDTEXTSTYLE0
 73
     1
 44
1.0
  0
ENDBLK
  5
234
330
232
100
AcDbEntity
  8
0
100
AcDbBlockEnd
  0
BLOCK
  5
23D
330
23C
100
AcDbEntity
  8
0
100
AcDbBlockBegin
  2
_D_5
 70
     0
 10
0.0
 20
0.0
 30
0.0
  3
_D_5
  1

  0
SOLID
  5
23F
330
23C
100
AcDbEntity
  8
SLD-0
 62
     7
100
AcDbTrace
 10
160.1361256653
 20
128.5560125481
 30
0.0
 11
158.1361256653
 21
128.8060125481
 31
0.0
 12
158.1361256653
 22
128.3060125481
 32
0.0
 13
158.1361256653
 23
128.3060125481
 33
0.0
  0
SOLID
  5
240
330
23C
100
AcDbEntity
  8
SLD-0
 62
     7
100
AcDbTrace
 10
146.1361256653
 20
128.5560125481
 30
0.0
 11
148.1361256653
 21
128.3060125481
 31
0.0
 12
148.1361256653
 22
128.8060125481
 32
0.0
 13
148.1361256653
 23
128.8060125481
 33
0.0
  0
LINE
  5
241
330
23C
100
AcDbEntity
  8
SLD-0
 62
     7
100
AcDbLine
 10
160.1361256653
 20
117.0800000155
 30
0.0
 11
160.1361256653
 21
129.5560125481
 31
0.0
  0
LINE
  5
242
330
23C
100
AcDbEntity
  8
SLD-0
 62
     7
100
AcDbLine
 10
146.1361256653
 20
120.0800000155
 30
0.0
 11
146.1361256653
 21
129.5560125481
 31
0.0
  0
LINE
  5
243
330
23C
100
AcDbEntity
  8
SLD-0
 62
     7
100
AcDbLine
 10
160.1361256653
 20
128.5560125481
 30
0.0
 11
146.1361256653
 21
128.5560125481
 31
0.0
  0
MTEXT
  5
244
330
23C
100
AcDbEntity
  8
SLD-0
 62
     7
100
AcDbMText
 10
151.2264034405
 20
131.778681723
 30
0.0
 40
2.5
 41
0.0
 71
     1
 72
     1
  1
14
  7
SLDTEXTSTYLE0
 73
     1
 44
1.0
  0
ENDBLK
  5
23E
330
23C
100
AcDbEntity
  8
0
100
AcDbBlockEnd
  0
BLOCK
  5
247
330
246
100
AcDbEntity
  8
0
100
AcDbBlockBegin
  2
_D_6
 70
     0
 10
0.0
 20
0.0
 30
0.0
  3
_D_6
  1

  0
SOLID
  5
249
330
246
100
AcDbEntity
  8
SLD-0
 62
     7
100
AcDbTrace
 10
146.1361256653
 20
134.1040067332
 30
0.0
 11
148.1361256653
 21
133.8540067332
 31
0.0
 12
148.1361256653
 22
134.3540067332
 32
0.0
 13
148.1361256653
 23
134.3540067332
 33
0.0
  0
SOLID
  5
24A
330
246
100
AcDbEntity
  8
SLD-0
 62
     7
100
AcDbTrace
 10
166.1361256653
 20
134.1040067332
 30
0.0
 11
164.1361256653
 21
134.3540067332
 31
0.0
 12
164.1361256653
 22
133.8540067332
 32
0.0
 13
164.1361256653
 23
133.8540067332
 33
0.0
  0
LINE
  5
24B
330
246
100
AcDbEntity
  8
SLD-0
 62
     7
100
AcDbLine
 10
146.1361256653
 20
120.0800000155
 30
0.0
 11
146.1361256653
 21
135.1040067332
 31
0.0
  0
LINE
  5
24C
330
246
100
AcDbEntity
  8
SLD-0
 62
     7
100
AcDbLine
 10
166.1361256653
 20
120.0800000155
 30
0.0
 11
166.1361256653
 21
135.1040067332
 31
0.0
  0
LINE
  5
24D
330
246
100
AcDbEntity
  8
SLD-0
 62
     7
100
AcDbLine
 10
146.1361256653
 20
134.1040067332
 30
0.0
 11
166.1361256653
 21
134.1040067332
 31
0.0
  0
MTEXT
  5
24E
330
246
100
AcDbEntity
  8
SLD-0
 62
     7
100
AcDbMText
 10
154.2264034405
 20
137.326675908
 30
0.0
 40
2.5
 41
0.0
 71
     1
 72
     1
  1
20
  7
SLDTEXTSTYLE0
 73
     1
 44
1.0
  0
ENDBLK
  5
248
330
246
100
AcDbEntity
  8
0
100
AcDbBlockEnd
  0
BLOCK
  5
251
330
250
100
AcDbEntity
  8
0
100
AcDbBlockBegin
  2
_D_7
 70
     0
 10
0.0
 20
0.0
 30
0.0
  3
_D_7
  1

  0
SOLID
  5
253
330
250
100
AcDbEntity
  8
SLD-0
 62
     7
100
AcDbTrace
 10
132.1361256653
 20
119.0800000155
 30
0.0
 11
131.8861256653
 21
117.0800000155
 31
0.0
 12
132.3861256653
 22
117.0800000155
 32
0.0
 13
132.3861256653
 23
117.0800000155
 33
0.0
  0
SOLID
  5
254
330
250
100
AcDbEntity
  8
SLD-0
 62
     7
100
AcDbTrace
 10
132.1361256653
 20
89.0800000155
 30
0.0
 11
132.3861256653
 21
91.0800000155
 31
0.0
 12
131.8861256653
 22
91.0800000155
 32
0.0
 13
131.8861256653
 23
91.0800000155
 33
0.0
  0
LINE
  5
255
330
250
100
AcDbEntity
  8
SLD-0
 62
     7
100
AcDbLine
 10
145.1361256653
 20
119.0800000155
 30
0.0
 11
131.1361256653
 21
119.0800000155
 31
0.0
  0
LINE
  5
256
330
250
100
AcDbEntity
  8
SLD-0
 62
     7
100
AcDbLine
 10
145.1361256653
 20
89.0800000155
 30
0.0
 11
131.1361256653
 21
89.0800000155
 31
0.0
  0
LINE
  5
257
330
250
100
AcDbEntity
  8
SLD-0
 62
     7
100
AcDbLine
 10
132.1361256653
 20
119.0800000155
 30
0.0
 11
132.1361256653
 21
89.0800000155
 31
0.0
  0
MTEXT
  5
258
330
250
100
AcDbEntity
  8
SLD-0
 62
     7
100
AcDbMText
 10
128.9134564905
 20
102.1702777907
 30
0.0
 40
2.5
 41
0.0
 71
     1
 72
     1
  1
30
  7
SLDTEXTSTYLE0
 11
-1.059690869644414E-14
 21
1.0
 31
0.0
 73
     1
 44
1.0
  0
ENDBLK
  5
252
330
250
100
AcDbEntity
  8
0
100
AcDbBlockEnd
  0
BLOCK
  5
25B
330
25A
100
AcDbEntity
  8
0
100
AcDbBlockBegin
  2
_D_8
 70
     0
 10
0.0
 20
0.0
 30
0.0
  3
_D_8
  1

  0
SOLID
  5
25D
330
25A
100
AcDbEntity
  8
SLD-0
 62
     7
100
AcDbTrace
 10
140.2028865948
 20
116.0800000155
 30
0.0
 11
139.9528865948
 21
114.0800000155
 31
0.0
 12
140.4528865948
 22
114.0800000155
 32
0.0
 13
140.4528865948
 23
114.0800000155
 33
0.0
  0
SOLID
  5
25E
330
25A
100
AcDbEntity
  8
SLD-0
 62
     7
100
AcDbTrace
 10
140.2028865948
 20
102.9300000155
 30
0.0
 11
140.4528865948
 21
104.9300000155
 31
0.0
 12
139.9528865948
 22
104.9300000155
 32
0.0
 13
139.9528865948
 23
104.9300000155
 33
0.0
  0
LINE
  5
25F
330
25A
100
AcDbEntity
  8
SLD-0
 62
     7
100
AcDbLine
 10
145.1361256653
 20
116.0800000155
 30
0.0
 11
139.2028865948
 21
116.0800000155
 31
0.0
  0
LINE
  5
260
330
25A
100
AcDbEntity
  8
SLD-0
 62
     7
100
AcDbLine
 10
145.2361256653
 20
102.9300000155
 30
0.0
 11
139.2028865948
 21
102.9300000155
 31
0.0
  0
LINE
  5
261
330
25A
100
AcDbEntity
  8
SLD-0
 62
     7
100
AcDbLine
 10
140.2028865948
 20
116.0800000155
 30
0.0
 11
140.2028865948
 21
102.9300000155
 31
0.0
  0
MTEXT
  5
262
330
25A
100
AcDbEntity
  8
SLD-0
 62
     7
100
AcDbMText
 10
136.98021742
 20
103.8730553852
 30
0.0
 40
2.5
 41
0.0
 71
     1
 72
     1
  1
Max:
  7
SLDTEXTSTYLE0
 11
-1.059690869644414E-14
 21
1.0
 31
0.0
 73
     1
 44
1.0
  0
MTEXT
  5
263
330
25A
100
AcDbEntity
  8
SLD-0
 62
     7
100
AcDbMText
 10
136.98021742
 20
111.3174999634
 30
0.0
 40
2.5
 41
0.0
 71
     1
 72
     1
  1
10
  7
SLDTEXTSTYLE0
 11
-1.059690869644414E-14
 21
1.0
 31
0.0
 73
     1
 44
1.0
  0
ENDBLK
  5
25C
330
25A
100
AcDbEntity
  8
0
100
AcDbBlockEnd
  0
ENDSEC
  0
SECTION
  2
ENTITIES
  0
HATCH
  5
75
330
1F
100
AcDbEntity
  8
DIM
 62
     7
100
AcDbHatch
 10
0.0
 20
0.0
 30
0.0
210
0.0
220
0.0
230
1.0
  2
SOLID
 70
     1
 71
     0
 91
        1
 92
        0
 93
       10
 72
     2
 10
192.1273934808217
 20
35.89218955767875
 40
3.045751395731247
 50
249.211220914341
 51
308.9221353953366
 73
     1
 72
     1
 10
194.0409284420563
 20
33.52259349152488
 11
195.0057481032734
 21
32.67530670788253
 72
     1
 10
195.0057481032734
 20
32.67530670788253
 11
191.7956081301176
 21
29.55826699512013
 72
     1
 10
191.7956081301176
 20
29.55826699512013
 11
190.8548076746236
 21
30.36826406523013
 72
     1
 10
190.8548076746236
 20
30.36826406523013
 11
191.4858595950388
 21
30.98416445570115
 72
     1
 10
191.4858595950388
 20
30.98416445570115
 11
187.4766572848432
 21
34.46876829597583
 72
     2
 10
188.4915987143839
 20
35.61632867173635
 40
1.531992467805808
 50
131.4906380929588
 51
229.7089352075141
 73
     0
 72
     1
 10
187.5009038668684
 20
36.78488532013639
 11
188.80753212175
 21
38.04647239664391
 72
     1
 10
188.80753212175
 20
38.04647239664391
 11
189.8227259691525
 21
37.15094049582612
 72
     2
 10
191.7959962725252
 20
35.50354780843134
 40
2.570544369711283
 50
140.1430462780656
 51
253.0452525074004
 73
     1
 97
        0
 75
     0
 76
     1
 98
        1
 10
0.0
 20
0.0
  0
HATCH
  5
76
330
1F
100
AcDbEntity
  8
DIM
 62
     1
100
AcDbHatch
 10
0.0
 20
0.0
 30
0.0
210
0.0
220
0.0
230
1.0
  2
SOLID
 70
     1
 71
     0
 91
        1
 92
        0
 93
       10
 72
     2
 10
192.2605589197856
 20
35.13798991897672
 40
3.18163670452787
 50
234.1674444878508
 51
314.4407074583992
 73
     0
 72
     2
 10
192.5782152105101
 20
35.67881172445489
 40
2.57756748834625
 50
317.8184992995781
 51
398.056471157308
 73
     0
 72
     1
 10
194.6078010535576
 20
34.08990157511325
 11
195.5932499465404
 21
33.23120463522376
 72
     1
 10
195.5932499465404
 20
33.23120463522376
 11
196.8349312613341
 21
34.43563757763098
 72
     2
 10
195.941538935672
 20
35.66358430945191
 40
1.518552937418265
 50
306.0377529468128
 51
403.4396461533869
 73
     1
 72
     1
 10
197.0441588003443
 20
36.70772628149005
 11
192.917402942001
 21
40.296902550124
 72
     1
 10
192.917402942001
 20
40.296902550124
 11
193.5416542439283
 21
40.90596098096132
 72
     1
 10
193.5416542439283
 20
40.90596098096132
 11
192.6111477337442
 21
41.73615320080586
 72
     1
 10
192.6111477337442
 20
41.73615320080586
 11
189.3755622853344
 21
38.60923295419175
 72
     1
 10
189.3755622853344
 20
38.60923295419175
 11
190.3979701626829
 21
37.71744242707095
 97
        0
 75
     0
 76
     1
 98
        1
 10
0.0
 20
0.0
  0
LINE
  5
77
330
1F
100
AcDbEntity
  8
0
  6
Continuous
 62
     7
370
     0
100
AcDbLine
 10
167.8593775185
 20
17.7745192513
 30
0.0
 11
168.8593775185
 21
17.7745192513
 31
0.0
  0
LINE
  5
78
330
1F
100
AcDbEntity
  8
0
  6
Continuous
 62
     7
370
     0
100
AcDbLine
 10
164.8593775185
 20
17.7745192513
 30
0.0
 11
167.3593775185
 21
17.7745192513
 31
0.0
  0
LINE
  5
79
330
1F
100
AcDbEntity
  8
0
  6
Continuous
 62
     7
370
     0
100
AcDbLine
 10
181.3593775185
 20
15.2745192513
 30
0.0
 11
181.3593775185
 21
20.2745192513
 31
0.0
  0
LINE
  5
7A
330
1F
100
AcDbEntity
  8
0
  6
Continuous
 62
     7
370
     0
100
AcDbLine
 10
174.3593775185
 20
16.2745192513
 30
0.0
 11
181.3593775185
 21
15.2745192513
 31
0.0
  0
LINE
  5
7B
330
1F
100
AcDbEntity
  8
0
  6
Continuous
 62
     7
370
     0
100
AcDbLine
 10
168.3593775185
 20
16.7745192513
 30
0.0
 11
168.3593775185
 21
14.2745192513
 31
0.0
  0
LINE
  5
7C
330
1F
100
AcDbEntity
  8
0
  6
Continuous
 62
     7
370
     0
100
AcDbLine
 10
181.3593775185
 20
20.2745192513
 30
0.0
 11
174.3593775185
 21
19.2745192513
 31
0.0
  0
LINE
  5
7D
330
1F
100
AcDbEntity
  8
0
  6
Continuous
 62
     7
370
     0
100
AcDbLine
 10
173.3593775185
 20
17.7745192513
 30
0.0
 11
182.3593775185
 21
17.7745192513
 31
0.0
  0
LINE
  5
7E
330
1F
100
AcDbEntity
  8
0
  6
Continuous
 62
     7
370
     0
100
AcDbLine
 10
168.3593775185
 20
18.2745192513
 30
0.0
 11
168.3593775185
 21
17.2745192513
 31
0.0
  0
LINE
  5
7F
330
1F
100
AcDbEntity
  8
0
  6
Continuous
 62
     7
370
     0
100
AcDbLine
 10
169.3593775185
 20
17.7745192513
 30
0.0
 11
171.8593775185
 21
17.7745192513
 31
0.0
  0
LINE
  5
80
330
1F
100
AcDbEntity
  8
0
  6
Continuous
 62
     7
370
     0
100
AcDbLine
 10
168.3593775185
 20
21.2745192513
 30
0.0
 11
168.3593775185
 21
18.7745192513
 31
0.0
  0
LINE
  5
81
330
1F
100
AcDbEntity
  8
0
  6
Continuous
 62
     7
370
     0
100
AcDbLine
 10
174.3593775185
 20
19.2745192513
 30
0.0
 11
174.3593775185
 21
16.2745192513
 31
0.0
  0
LINE
  5
82
330
1F
100
AcDbEntity
  8
0
370
     0
100
AcDbLine
 10
195.0057481033
 20
32.6753067079
 30
0.0
 11
191.7956081301
 21
29.5582669951
 31
0.0
  0
LINE
  5
83
330
1F
100
AcDbEntity
  8
0
370
     0
100
AcDbLine
 10
191.7956081301
 20
29.5582669951
 30
0.0
 11
190.8548076746
 21
30.3682640652
 31
0.0
  0
LINE
  5
84
330
1F
100
AcDbEntity
  8
0
370
     0
100
AcDbLine
 10
190.8548076746
 20
30.3682640652
 30
0.0
 11
191.485859595
 21
30.9841644557
 31
0.0
  0
LINE
  5
85
330
1F
100
AcDbEntity
  8
0
370
     0
100
AcDbLine
 10
187.4766572848
 20
34.468768296
 30
0.0
 11
191.485859595
 21
30.9841644557
 31
0.0
  0
LINE
  5
86
330
1F
100
AcDbEntity
  8
0
370
     0
100
AcDbLine
 10
188.8075321218
 20
38.0464723966
 30
0.0
 11
187.5009038669
 21
36.7848853201
 31
0.0
  0
LINE
  5
87
330
1F
100
AcDbEntity
  8
0
370
     0
100
AcDbLine
 10
188.8075321218
 20
38.0464723966
 30
0.0
 11
189.8227259692
 21
37.1509404958
 31
0.0
  0
LINE
  5
88
330
1F
100
AcDbEntity
  8
0
370
     0
100
AcDbLine
 10
194.0409284421
 20
33.5225934915
 30
0.0
 11
195.0057481033
 21
32.6753067079
 31
0.0
  0
LINE
  5
89
330
1F
100
AcDbEntity
  8
0
 62
     1
370
     0
100
AcDbLine
 10
190.3979701627
 20
37.7174424271
 30
0.0
 11
189.3755622853
 21
38.6092329542
 31
0.0
  0
LINE
  5
8A
330
1F
100
AcDbEntity
  8
0
 62
     1
370
     0
100
AcDbLine
 10
189.3755622853
 20
38.6092329542
 30
0.0
 11
192.6111477337
 21
41.7361532008
 31
0.0
  0
LINE
  5
8B
330
1F
100
AcDbEntity
  8
0
 62
     1
370
     0
100
AcDbLine
 10
192.6111477337
 20
41.7361532008
 30
0.0
 11
193.5416542439
 21
40.905960981
 31
0.0
  0
LINE
  5
8C
330
1F
100
AcDbEntity
  8
0
 62
     1
370
     0
100
AcDbLine
 10
193.5416542439
 20
40.905960981
 30
0.0
 11
192.917402942
 21
40.2969025501
 31
0.0
  0
LINE
  5
8D
330
1F
100
AcDbEntity
  8
0
 62
     1
370
     0
100
AcDbLine
 10
192.917402942
 20
40.2969025501
 30
0.0
 11
197.0441588003
 21
36.7077262815
 31
0.0
  0
LINE
  5
8E
330
1F
100
AcDbEntity
  8
0
 62
     1
370
     0
100
AcDbLine
 10
194.6078010536
 20
34.0899015751
 30
0.0
 11
195.5932499465
 21
33.2312046352
 31
0.0
  0
LINE
  5
8F
330
1F
100
AcDbEntity
  8
0
 62
     1
370
     0
100
AcDbLine
 10
195.5932499465
 20
33.2312046352
 30
0.0
 11
196.8349312613
 21
34.4356375776
 31
0.0
  0
LINE
  5
90
330
1F
100
AcDbEntity
  8
0
  6
Continuous
 62
     7
370
     0
100
AcDbLine
 10
185.6907965209
 20
13.1152464079
 30
0.0
 11
285.6907965209
 21
13.1152464079
 31
0.0
  0
LINE
  5
91
330
1F
100
AcDbEntity
  8
0
  6
Continuous
 62
     7
370
     0
100
AcDbLine
 10
185.6907965209
 20
18.1152464079
 30
0.0
 11
235.6907965209
 21
18.1152464079
 31
0.0
  0
LINE
  5
92
330
1F
100
AcDbEntity
  8
0
  6
Continuous
 62
     7
370
     0
100
AcDbLine
 10
185.6907965209
 20
23.1152464079
 30
0.0
 11
235.6907965209
 21
23.1152464079
 31
0.0
  0
LINE
  5
93
330
1F
100
AcDbEntity
  8
0
  6
Continuous
 62
     7
370
     0
100
AcDbLine
 10
185.6907965209
 20
28.1152464079
 30
0.0
 11
285.6907965209
 21
28.1152464079
 31
0.0
  0
LINE
  5
94
330
1F
100
AcDbEntity
  8
0
  6
Continuous
 62
     7
370
     0
100
AcDbLine
 10
235.6907965209
 20
33.1152464079
 30
0.0
 11
285.6907965209
 21
33.1152464079
 31
0.0
  0
LINE
  5
95
330
1F
100
AcDbEntity
  8
0
  6
Continuous
 62
     7
370
    15
100
AcDbLine
 10
235.6907965209
 20
18.1152464079
 30
0.0
 11
285.6907965209
 21
18.1152464079
 31
0.0
  0
LINE
  5
96
330
1F
100
AcDbEntity
  8
0
  6
Continuous
 62
     7
370
     0
100
AcDbLine
 10
185.6907965209
 20
43.1152464079
 30
0.0
 11
285.6907965209
 21
43.1152464079
 31
0.0
  0
LINE
  5
97
330
1F
100
AcDbEntity
  8
0
  6
Continuous
 62
     7
370
     0
100
AcDbLine
 10
251.237217675
 20
8.1152464079
 30
0.0
 11
251.237217675
 21
18.1152464079
 31
0.0
  0
LINE
  5
98
330
1F
100
AcDbEntity
  8
0
  6
Continuous
 62
     7
370
     0
100
AcDbLine
 10
235.6907965209
 20
8.1152464079
 30
0.0
 11
235.6907965209
 21
43.1152464079
 31
0.0
  0
LINE
  5
99
330
1F
100
AcDbEntity
  8
0
  6
Continuous
 62
     7
370
     0
100
AcDbLine
 10
251.237217675
 20
28.1152464079
 30
0.0
 11
251.237217675
 21
33.1152464079
 31
0.0
  0
LINE
  5
9A
330
1F
100
AcDbEntity
  8
0
  6
Continuous
 62
     7
370
     0
100
AcDbLine
 10
214.4164086353
 20
8.1152464079
 30
0.0
 11
214.4164086353
 21
28.1152464079
 31
0.0
  0
LINE
  5
9B
330
1F
100
AcDbEntity
  8
0
  6
Continuous
 62
     7
370
     0
100
AcDbLine
 10
199.7785887506
 20
8.1152464079
 30
0.0
 11
199.7785887506
 21
28.1152464079
 31
0.0
  0
LINE
  5
9C
330
1F
100
AcDbEntity
  8
0
  6
Continuous
 62
     7
370
     0
100
AcDbLine
 10
185.6907965209
 20
8.1152464079
 30
0.0
 11
185.6907965209
 21
43.1152464079
 31
0.0
  0
LINE
  5
9D
330
1F
100
AcDbEntity
  8
0
  6
Continuous
 62
     7
370
    15
100
AcDbLine
 10
8.6907965209
 20
104.7436369915
 30
0.0
 11
14.6907965209
 21
104.7436369915
 31
0.0
  0
LINE
  5
9E
330
1F
100
AcDbEntity
  8
0
  6
Continuous
 62
     7
370
    15
100
AcDbLine
 10
285.6907965209
 20
104.7436369915
 30
0.0
 11
279.6907965209
 21
104.7436369915
 31
0.0
  0
LINE
  5
9F
330
1F
100
AcDbEntity
  8
0
  6
Continuous
 62
     7
370
    15
100
AcDbLine
 10
147.1907965209
 20
8.1152464079
 30
0.0
 11
147.1907965209
 21
14.1152464079
 31
0.0
  0
LINE
  5
A0
330
1F
100
AcDbEntity
  8
0
  6
Continuous
 62
     7
370
    15
100
AcDbLine
 10
147.1907965209
 20
201.3720275751
 30
0.0
 11
147.1907965209
 21
195.3720275751
 31
0.0
  0
LINE
  5
A1
330
1F
100
AcDbEntity
  8
0
  6
Continuous
 62
     7
370
    15
100
AcDbLine
 10
43.3207965209
 20
201.3720275751
 30
0.0
 11
43.3207965209
 21
202.8720275751
 31
0.0
  0
LINE
  5
A2
330
1F
100
AcDbEntity
  8
0
  6
Continuous
 62
     7
370
    15
100
AcDbLine
 10
77.9507965209
 20
201.3720275751
 30
0.0
 11
77.9507965209
 21
202.8720275751
 31
0.0
  0
LINE
  5
A3
330
1F
100
AcDbEntity
  8
0
  6
Continuous
 62
     7
370
    15
100
AcDbLine
 10
112.5807965209
 20
201.3720275751
 30
0.0
 11
112.5807965209
 21
202.8720275751
 31
0.0
  0
LINE
  5
A4
330
1F
100
AcDbEntity
  8
0
  6
Continuous
 62
     7
370
    15
100
AcDbLine
 10
147.2107965209
 20
201.3720275751
 30
0.0
 11
147.2107965209
 21
202.8720275751
 31
0.0
  0
LINE
  5
A5
330
1F
100
AcDbEntity
  8
0
  6
Continuous
 62
     7
370
    15
100
AcDbLine
 10
181.8407965209
 20
201.3720275751
 30
0.0
 11
181.8407965209
 21
202.8720275751
 31
0.0
  0
LINE
  5
A6
330
1F
100
AcDbEntity
  8
0
  6
Continuous
 62
     7
370
    15
100
AcDbLine
 10
216.4707965209
 20
201.3720275751
 30
0.0
 11
216.4707965209
 21
202.8720275751
 31
0.0
  0
LINE
  5
A7
330
1F
100
AcDbEntity
  8
0
  6
Continuous
 62
     7
370
    15
100
AcDbLine
 10
251.1007965209
 20
201.3720275751
 30
0.0
 11
251.1007965209
 21
202.8720275751
 31
0.0
  0
LINE
  5
A8
330
1F
100
AcDbEntity
  8
0
  6
Continuous
 62
     7
370
    15
100
AcDbLine
 10
43.3157965209
 20
8.1152464079
 30
0.0
 11
43.3157965209
 21
6.6152464079
 31
0.0
  0
LINE
  5
A9
330
1F
100
AcDbEntity
  8
0
  6
Continuous
 62
     7
370
    15
100
AcDbLine
 10
77.9407965209
 20
8.1152464079
 30
0.0
 11
77.9407965209
 21
6.6152464079
 31
0.0
  0
LINE
  5
AA
330
1F
100
AcDbEntity
  8
0
  6
Continuous
 62
     7
370
    15
100
AcDbLine
 10
112.5657965209
 20
8.1152464079
 30
0.0
 11
112.5657965209
 21
6.6152464079
 31
0.0
  0
LINE
  5
AB
330
1F
100
AcDbEntity
  8
0
  6
Continuous
 62
     7
370
    15
100
AcDbLine
 10
147.1907965209
 20
8.1152464079
 30
0.0
 11
147.1907965209
 21
6.6152464079
 31
0.0
  0
LINE
  5
AC
330
1F
100
AcDbEntity
  8
0
  6
Continuous
 62
     7
370
    15
100
AcDbLine
 10
181.8157965209
 20
8.1152464079
 30
0.0
 11
181.8157965209
 21
6.6152464079
 31
0.0
  0
LINE
  5
AD
330
1F
100
AcDbEntity
  8
0
  6
Continuous
 62
     7
370
    15
100
AcDbLine
 10
216.4407965209
 20
8.1152464079
 30
0.0
 11
216.4407965209
 21
6.6152464079
 31
0.0
  0
LINE
  5
AE
330
1F
100
AcDbEntity
  8
0
  6
Continuous
 62
     7
370
     0
100
AcDbLine
 10
285.6907965209
 20
201.3720275751
 30
0.0
 11
8.6907965209
 21
201.3720275751
 31
0.0
  0
LINE
  5
AF
330
1F
100
AcDbEntity
  8
0
  6
Continuous
 62
     7
370
     0
100
AcDbLine
 10
285.6907965209
 20
8.1152464079
 30
0.0
 11
285.6907965209
 21
201.3720275751
 31
0.0
  0
LINE
  5
B0
330
1F
100
AcDbEntity
  8
0
  6
Continuous
 62
     7
370
     0
100
AcDbLine
 10
8.6907965209
 20
201.3720275751
 30
0.0
 11
8.6907965209
 21
8.1152464079
 31
0.0
  0
LINE
  5
B1
330
1F
100
AcDbEntity
  8
0
  6
Continuous
 62
     7
370
     0
100
AcDbLine
 10
8.6907965209
 20
8.1152464079
 30
0.0
 11
285.6907965209
 21
8.1152464079
 31
0.0
  0
LINE
  5
B2
330
1F
100
AcDbEntity
  8
0
  6
Continuous
 62
     7
370
    15
100
AcDbLine
 10
251.0657965209
 20
8.1152464079
 30
0.0
 11
251.0657965209
 21
6.6152464079
 31
0.0
  0
LINE
  5
B3
330
1F
100
AcDbEntity
  8
0
  6
Continuous
 62
     7
370
    15
100
AcDbLine
 10
8.6907965209
 20
40.3252464079
 30
0.0
 11
7.1907965209
 21
40.3252464079
 31
0.0
  0
LINE
  5
B4
330
1F
100
AcDbEntity
  8
0
  6
Continuous
 62
     7
370
    15
100
AcDbLine
 10
8.6907965209
 20
72.5352464079
 30
0.0
 11
7.1907965209
 21
72.5352464079
 31
0.0
  0
LINE
  5
B5
330
1F
100
AcDbEntity
  8
0
  6
Continuous
 62
     7
370
    15
100
AcDbLine
 10
8.6907965209
 20
104.7452464079
 30
0.0
 11
7.1907965209
 21
104.7452464079
 31
0.0
  0
LINE
  5
B6
330
1F
100
AcDbEntity
  8
0
  6
Continuous
 62
     7
370
    15
100
AcDbLine
 10
8.6907965209
 20
136.9552464079
 30
0.0
 11
7.1907965209
 21
136.9552464079
 31
0.0
  0
LINE
  5
B7
330
1F
100
AcDbEntity
  8
0
  6
Continuous
 62
     7
370
    15
100
AcDbLine
 10
8.6907965209
 20
169.1652464079
 30
0.0
 11
7.1907965209
 21
169.1652464079
 31
0.0
  0
LINE
  5
B8
330
1F
100
AcDbEntity
  8
0
  6
Continuous
 62
     7
370
    15
100
AcDbLine
 10
285.6907965209
 20
40.3252464079
 30
0.0
 11
287.1907965209
 21
40.3252464079
 31
0.0
  0
LINE
  5
B9
330
1F
100
AcDbEntity
  8
0
  6
Continuous
 62
     7
370
    15
100
AcDbLine
 10
285.6907965209
 20
72.5352464079
 30
0.0
 11
287.1907965209
 21
72.5352464079
 31
0.0
  0
LINE
  5
BA
330
1F
100
AcDbEntity
  8
0
  6
Continuous
 62
     7
370
    15
100
AcDbLine
 10
285.6907965209
 20
104.7452464079
 30
0.0
 11
287.1907965209
 21
104.7452464079
 31
0.0
  0
LINE
  5
BB
330
1F
100
AcDbEntity
  8
0
  6
Continuous
 62
     7
370
    15
100
AcDbLine
 10
285.6907965209
 20
136.9552464079
 30
0.0
 11
287.1907965209
 21
136.9552464079
 31
0.0
  0
LINE
  5
BC
330
1F
100
AcDbEntity
  8
0
  6
Continuous
 62
     7
370
    15
100
AcDbLine
 10
285.6907965209
 20
169.1652464079
 30
0.0
 11
287.1907965209
 21
169.1652464079
 31
0.0
  0
CIRCLE
  5
BD
330
1F
100
AcDbEntity
  8
0
  6
Continuous
 62
     7
370
     0
100
AcDbCircle
 10
168.3593775185
 20
17.7745192513
 30
0.0
 40
1.5
  0
CIRCLE
  5
BE
330
1F
100
AcDbEntity
  8
0
  6
Continuous
 62
     7
370
     0
100
AcDbCircle
 10
168.3593775185
 20
17.7745192513
 30
0.0
 40
2.5
  0
ARC
  5
BF
330
1F
100
AcDbEntity
  8
0
370
     0
100
AcDbCircle
 10
188.4915987144
 20
35.6163286717
 30
0.0
 40
1.531992467805807
100
AcDbArc
 50
130.2910647925
 51
228.509361907
  0
ARC
  5
C0
330
1F
100
AcDbEntity
  8
0
370
     0
100
AcDbCircle
 10
191.7959962725
 20
35.5035478084
 30
0.0
 40
2.570544369711294
100
AcDbArc
 50
140.1430462781
 51
253.0452525074
  0
ARC
  5
C1
330
1F
100
AcDbEntity
  8
0
370
     0
100
AcDbCircle
 10
192.1273934808
 20
35.8921895577
 30
0.0
 40
3.045751395731247
100
AcDbArc
 50
249.2112209143
 51
308.9221353953
  0
ARC
  5
C2
330
1F
100
AcDbEntity
  8
0
 62
     1
370
     0
100
AcDbCircle
 10
195.9415389357
 20
35.6635843095
 30
0.0
 40
1.518552937418275
100
AcDbArc
 50
306.0377529468
 51
43.4396461534
  0
ARC
  5
C3
330
1F
100
AcDbEntity
  8
0
 62
     1
370
     0
100
AcDbCircle
 10
192.2605589198
 20
35.137989919
 30
0.0
 40
3.18163670452787
100
AcDbArc
 50
45.5592925416
 51
125.8325555121
  0
ARC
  5
C4
330
1F
100
AcDbEntity
  8
0
 62
     1
370
     0
100
AcDbCircle
 10
192.5782152105
 20
35.6788117245
 30
0.0
 40
2.577567488346255
100
AcDbArc
 50
321.9435288427
 51
42.1815007004
  0
MTEXT
  5
C6
330
1F
100
AcDbEntity
  8
0
  6
Continuous
 62
     7
370
     0
100
AcDbMText
 10
165.5426850804
 20
13.2208440369
 30
0.0
 40
2.6458333333
 41
0.0
 71
     1
 72
     1
  1
UNIT:m/m
  7
SLDTEXTSTYLE0
 73
     1
 44
1.0
  0
INSERT
  5
CD
330
1F
100
AcDbEntity
  8
0
  6
Continuous
 62
     7
370
     0
100
AcDbBlockReference
  2
SW_NOTE_0
 10
12.2315076053
 20
193.8904304251
 30
0.0
  0
MTEXT
  5
CF
330
1F
100
AcDbEntity
  8
0
  6
Continuous
 62
     7
370
     0
100
AcDbMText
 10
198.7251893935
 20
40.4406774139
 30
0.0
 40
2.38125
 41
0.0
 71
     1
 72
     1
  1
Unice E-O Services Inc.
  7
SLDTEXTSTYLE1
 73
     1
 44
1.0
  0
MTEXT
  5
D0
330
1F
100
AcDbEntity
  8
0
  6
Continuous
 62
     7
370
     0
100
AcDbMText
 10
217.5590538149
 20
21.5867148511
 30
0.0
 40
1.8520833333
 41
0.0
 71
     1
 72
     1
  1
2010/12/30
  7
SLDTEXTSTYLE0
 73
     1
 44
1.0
  0
MTEXT
  5
D1
330
1F
100
AcDbEntity
  8
0
  6
Continuous
 62
     7
370
     0
100
AcDbMText
 10
252.6088982507
 20
16.87117774
 30
0.0
 40
2.5
 41
0.0
 71
     1
 72
     1
  1
1:1
  7
SLDTEXTSTYLE0
 73
     1
 44
1.0
  0
MTEXT
  5
D2
330
1F
100
AcDbEntity
  8
0
  6
Continuous
 62
     7
370
     0
100
AcDbMText
 10
252.3075599985
 20
32.1519195438
 30
0.0
 40
2.5
 41
0.0
 71
     1
 72
     1
  1
04PHF-1(M)
  7
SLDTEXTSTYLE0
 73
     1
 44
1.0
  0
MTEXT
  5
D3
330
1F
100
AcDbEntity
  8
0
  6
Continuous
 62
     7
370
     0
100
AcDbMText
 10
252.3075599985
 20
38.1082117879
 30
0.0
 40
2.5
 41
0.0
 71
     1
 72
     1
  1
04PHF-1(M)
  7
SLDTEXTSTYLE0
 73
     1
 44
1.0
  0
MTEXT
  5
D4
330
1F
100
AcDbEntity
  8
0
  6
Continuous
 62
     7
370
     0
100
AcDbMText
 10
236.3921866786
 20
16.5064795728
 30
0.0
 40
2.1166666667
 41
0.0
 71
     1
 72
     1
  1
SCALE:
  7
SLDTEXTSTYLE0
 73
     1
 44
1.0
  0
MTEXT
  5
D5
330
1F
100
AcDbEntity
  8
0
  6
Continuous
 62
     7
370
     0
100
AcDbMText
 10
186.3336086789
 20
21.5867148511
 30
0.0
 40
1.8520833333
 41
0.0
 71
     1
 72
     1
  1
DRAWN
  7
SLDTEXTSTYLE0
 73
     1
 44
1.0
  0
MTEXT
  5
D6
330
1F
100
AcDbEntity
  8
0
  6
Continuous
 62
     7
370
     0
100
AcDbMText
 10
203.2228367937
 20
26.683208308
 30
0.0
 40
1.8520833333
 41
0.0
 71
     1
 72
     1
  1
NAME
  7
SLDTEXTSTYLE0
 73
     1
 44
1.0
  0
MTEXT
  5
D7
330
1F
100
AcDbEntity
  8
0
  6
Continuous
 62
     7
370
     0
100
AcDbMText
 10
220.8710155758
 20
26.683208308
 30
0.0
 40
1.8520833333
 41
0.0
 71
     1
 72
     1
  1
DATE
  7
SLDTEXTSTYLE0
 73
     1
 44
1.0
  0
MTEXT
  5
D8
330
1F
100
AcDbEntity
  8
0
  6
Continuous
 62
     7
370
     0
100
AcDbMText
 10
236.2756316645
 20
31.7872213766
 30
0.0
 40
2.1166666667
 41
0.0
 71
     1
 72
     1
  1
DWG. NO.
  7
SLDTEXTSTYLE0
 73
     1
 44
1.0
  0
MTEXT
  5
D9
330
1F
100
AcDbEntity
  8
0
  6
Continuous
 62
     7
370
     0
100
AcDbMText
 10
236.3629907088
 20
41.8840658243
 30
0.0
 40
2.1166666667
 41
0.0
 71
     1
 72
     1
  1
TITLE:
  7
SLDTEXTSTYLE0
 73
     1
 44
1.0
  0
MTEXT
  5
DA
330
1F
100
AcDbEntity
  8
0
  6
Continuous
 62
     7
370
     0
100
AcDbMText
 10
203.0314209802
 20
16.2403789724
 30
0.0
 40
1.8520833333
 41
0.0
 71
     1
 72
     1
  1
Johnny
  7
SLDTEXTSTYLE0
 73
     1
 44
1.0
  0
MTEXT
  5
DB
330
1F
100
AcDbEntity
  8
0
  6
Continuous
 62
     7
370
     0
100
AcDbMText
 10
217.5590538149
 20
16.2403789724
 30
0.0
 40
1.8520833333
 41
0.0
 71
     1
 72
     1
  1
2010/12/30
  7
SLDTEXTSTYLE0
 73
     1
 44
1.0
  0
MTEXT
  5
DC
330
1F
100
AcDbEntity
  8
0
  6
Continuous
 62
     7
370
     0
100
AcDbMText
 10
186.3336086789
 20
16.2403789724
 30
0.0
 40
1.8520833333
 41
0.0
 71
     1
 72
     1
  1
ENG APPR.
  7
SLDTEXTSTYLE0
 73
     1
 44
1.0
  0
MTEXT
  5
DD
330
1F
100
AcDbEntity
  8
0
  6
Continuous
 62
     7
370
     0
100
AcDbMText
 10
236.3921866786
 20
11.6853389288
 30
0.0
 40
2.1166666667
 41
0.0
 71
     1
 72
     1
  1
REV
  7
SLDTEXTSTYLE0
 73
     1
 44
1.0
  0
MTEXT
  5
DE
330
1F
100
AcDbEntity
  8
0
  6
Continuous
 62
     7
370
     0
100
AcDbMText
 10
236.3629907088
 20
26.9493089085
 30
0.0
 40
2.1166666667
 41
0.0
 71
     1
 72
     1
  1
MATERIAL:
  7
SLDTEXTSTYLE0
 73
     1
 44
1.0
  0
MTEXT
  5
DF
330
1F
100
AcDbEntity
  8
0
  6
Continuous
 62
     7
370
     0
100
AcDbMText
 10
252.6088982507
 20
22.2175136187
 30
0.0
 40
2.5
 41
0.0
 71
     1
 72
     1
  1
N/A
  7
SLDTEXTSTYLE0
 73
     1
 44
1.0
  0
MTEXT
  5
E0
330
1F
100
AcDbEntity
  8
0
  6
Continuous
 62
     7
370
     0
100
AcDbMText
 10
26.6029931533
 20
204.453351657
 30
0.0
 40
2.1166666667
 41
0.0
 71
     1
 72
     1
  1
1
  7
SLDTEXTSTYLE0
 73
     1
 44
1.0
  0
MTEXT
  5
E1
330
1F
100
AcDbEntity
  8
0
  6
Continuous
 62
     7
370
     0
100
AcDbMText
 10
60.7170995724
 20
204.453351657
 30
0.0
 40
2.1166666667
 41
0.0
 71
     1
 72
     1
  1
2
  7
SLDTEXTSTYLE0
 73
     1
 44
1.0
  0
MTEXT
  5
E2
330
1F
100
AcDbEntity
  8
0
  6
Continuous
 62
     7
370
     0
100
AcDbMText
 10
94.9009943906
 20
204.453351657
 30
0.0
 40
2.1166666667
 41
0.0
 71
     1
 72
     1
  1
3
  7
SLDTEXTSTYLE0
 73
     1
 44
1.0
  0
MTEXT
  5
E3
330
1F
100
AcDbEntity
  8
0
  6
Continuous
 62
     7
370
     0
100
AcDbMText
 10
129.2533362851
 20
204.2992584364
 30
0.0
 40
2.1166666667
 41
0.0
 71
     1
 72
     1
  1
4
  7
SLDTEXTSTYLE0
 73
     1
 44
1.0
  0
MTEXT
  5
E4
330
1F
100
AcDbEntity
  8
0
  6
Continuous
 62
     7
370
     0
100
AcDbMText
 10
163.702323464
 20
204.453351657
 30
0.0
 40
2.1166666667
 41
0.0
 71
     1
 72
     1
  1
5
  7
SLDTEXTSTYLE0
 73
     1
 44
1.0
  0
MTEXT
  5
E5
330
1F
100
AcDbEntity
  8
0
  6
Continuous
 62
     7
370
     0
100
AcDbMText
 10
198.6382170415
 20
204.453351657
 30
0.0
 40
2.1166666667
 41
0.0
 71
     1
 72
     1
  1
6
  7
SLDTEXTSTYLE0
 73
     1
 44
1.0
  0
MTEXT
  5
E6
330
1F
100
AcDbEntity
  8
0
  6
Continuous
 62
     7
370
     0
100
AcDbMText
 10
234.3630657407
 20
204.453351657
 30
0.0
 40
2.1166666667
 41
0.0
 71
     1
 72
     1
  1
7
  7
SLDTEXTSTYLE0
 73
     1
 44
1.0
  0
MTEXT
  5
E7
330
1F
100
AcDbEntity
  8
0
  6
Continuous
 62
     7
370
     0
100
AcDbMText
 10
266.2787820494
 20
204.453351657
 30
0.0
 40
2.1166666667
 41
0.0
 71
     1
 72
     1
  1
8
  7
SLDTEXTSTYLE0
 73
     1
 44
1.0
  0
MTEXT
  5
E8
330
1F
100
AcDbEntity
  8
0
  6
Continuous
 62
     7
370
     0
100
AcDbMText
 10
5.3568236555
 20
185.8113022879
 30
0.0
 40
2.1166666667
 41
0.0
 71
     1
 72
     1
  1
A
  7
SLDTEXTSTYLE0
 73
     1
 44
1.0
  0
MTEXT
  5
E9
330
1F
100
AcDbEntity
  8
0
  6
Continuous
 62
     7
370
     0
100
AcDbMText
 10
5.5910431831
 20
154.2993048238
 30
0.0
 40
2.1166666667
 41
0.0
 71
     1
 72
     1
  1
B
  7
SLDTEXTSTYLE0
 73
     1
 44
1.0
  0
MTEXT
  5
EA
330
1F
100
AcDbEntity
  8
0
  6
Continuous
 62
     7
370
     0
100
AcDbMText
 10
5.5910431831
 20
121.274351423
 30
0.0
 40
2.1166666667
 41
0.0
 71
     1
 72
     1
  1
C
  7
SLDTEXTSTYLE0
 73
     1
 44
1.0
  0
MTEXT
  5
EB
330
1F
100
AcDbEntity
  8
0
  6
Continuous
 62
     7
370
     0
100
AcDbMText
 10
5.5910431831
 20
88.7453220221
 30
0.0
 40
2.1166666667
 41
0.0
 71
     1
 72
     1
  1
D
  7
SLDTEXTSTYLE0
 73
     1
 44
1.0
  0
MTEXT
  5
EC
330
1F
100
AcDbEntity
  8
0
  6
Continuous
 62
     7
370
     0
100
AcDbMText
 10
5.5910431831
 20
57.5558849197
 30
0.0
 40
2.1166666667
 41
0.0
 71
     1
 72
     1
  1
E
  7
SLDTEXTSTYLE0
 73
     1
 44
1.0
  0
MTEXT
  5
ED
330
1F
100
AcDbEntity
  8
0
  6
Continuous
 62
     7
370
     0
100
AcDbMText
 10
5.5910431831
 20
25.5694212252
 30
0.0
 40
2.1166666667
 41
0.0
 71
     1
 72
     1
  1
F
  7
SLDTEXTSTYLE0
 73
     1
 44
1.0
  0
MTEXT
  5
EE
330
1F
100
AcDbEntity
  8
0
  6
Continuous
 62
     7
370
     0
100
AcDbMText
 10
266.1858616964
 20
6.6236223963
 30
0.0
 40
2.1166666667
 41
0.0
 71
     1
 72
     1
  1
8
  7
SLDTEXTSTYLE0
 73
     1
 44
1.0
  0
MTEXT
  5
EF
330
1F
100
AcDbEntity
  8
0
  6
Continuous
 62
     7
370
     0
100
AcDbMText
 10
234.2701453876
 20
6.6236223963
 30
0.0
 40
2.1166666667
 41
0.0
 71
     1
 72
     1
  1
7
  7
SLDTEXTSTYLE0
 73
     1
 44
1.0
  0
MTEXT
  5
F0
330
1F
100
AcDbEntity
  8
0
  6
Continuous
 62
     7
370
     0
100
AcDbMText
 10
198.5452966885
 20
6.6236223963
 30
0.0
 40
2.1166666667
 41
0.0
 71
     1
 72
     1
  1
6
  7
SLDTEXTSTYLE0
 73
     1
 44
1.0
  0
MTEXT
  5
F1
330
1F
100
AcDbEntity
  8
0
  6
Continuous
 62
     7
370
     0
100
AcDbMText
 10
163.6094031109
 20
6.6236223963
 30
0.0
 40
2.1166666667
 41
0.0
 71
     1
 72
     1
  1
5
  7
SLDTEXTSTYLE0
 73
     1
 44
1.0
  0
MTEXT
  5
F2
330
1F
100
AcDbEntity
  8
0
  6
Continuous
 62
     7
370
     0
100
AcDbMText
 10
129.1604159321
 20
6.4695291758
 30
0.0
 40
2.1166666667
 41
0.0
 71
     1
 72
     1
  1
4
  7
SLDTEXTSTYLE0
 73
     1
 44
1.0
  0
MTEXT
  5
F3
330
1F
100
AcDbEntity
  8
0
  6
Continuous
 62
     7
370
     0
100
AcDbMText
 10
94.8080740376
 20
6.6236223963
 30
0.0
 40
2.1166666667
 41
0.0
 71
     1
 72
     1
  1
3
  7
SLDTEXTSTYLE0
 73
     1
 44
1.0
  0
MTEXT
  5
F4
330
1F
100
AcDbEntity
  8
0
  6
Continuous
 62
     7
370
     0
100
AcDbMText
 10
60.6241792194
 20
6.6236223963
 30
0.0
 40
2.1166666667
 41
0.0
 71
     1
 72
     1
  1
2
  7
SLDTEXTSTYLE0
 73
     1
 44
1.0
  0
MTEXT
  5
F5
330
1F
100
AcDbEntity
  8
0
  6
Continuous
 62
     7
370
     0
100
AcDbMText
 10
26.5100728003
 20
6.6236223963
 30
0.0
 40
2.1166666667
 41
0.0
 71
     1
 72
     1
  1
1
  7
SLDTEXTSTYLE0
 73
     1
 44
1.0
  0
MTEXT
  5
F6
330
1F
100
AcDbEntity
  8
0
  6
Continuous
 62
     7
370
     0
100
AcDbMText
 10
287.1023846145
 20
186.6424909092
 30
0.0
 40
2.1166666667
 41
0.0
 71
     1
 72
     1
  1
A
  7
SLDTEXTSTYLE0
 73
     1
 44
1.0
  0
MTEXT
  5
F7
330
1F
100
AcDbEntity
  8
0
  6
Continuous
 62
     7
370
     0
100
AcDbMText
 10
287.3366041421
 20
155.1304934451
 30
0.0
 40
2.1166666667
 41
0.0
 71
     1
 72
     1
  1
B
  7
SLDTEXTSTYLE0
 73
     1
 44
1.0
  0
MTEXT
  5
F8
330
1F
100
AcDbEntity
  8
0
  6
Continuous
 62
     7
370
     0
100
AcDbMText
 10
287.3366041421
 20
122.1055400442
 30
0.0
 40
2.1166666667
 41
0.0
 71
     1
 72
     1
  1
C
  7
SLDTEXTSTYLE0
 73
     1
 44
1.0
  0
MTEXT
  5
F9
330
1F
100
AcDbEntity
  8
0
  6
Continuous
 62
     7
370
     0
100
AcDbMText
 10
287.3366041421
 20
89.5765106433
 30
0.0
 40
2.1166666667
 41
0.0
 71
     1
 72
     1
  1
D
  7
SLDTEXTSTYLE0
 73
     1
 44
1.0
  0
MTEXT
  5
FA
330
1F
100
AcDbEntity
  8
0
  6
Continuous
 62
     7
370
     0
100
AcDbMText
 10
287.3366041421
 20
58.3870735409
 30
0.0
 40
2.1166666667
 41
0.0
 71
     1
 72
     1
  1
E
  7
SLDTEXTSTYLE0
 73
     1
 44
1.0
  0
MTEXT
  5
FB
330
1F
100
AcDbEntity
  8
0
  6
Continuous
 62
     7
370
     0
100
AcDbMText
 10
287.3366041421
 20
26.4006098464
 30
0.0
 40
2.1166666667
 41
0.0
 71
     1
 72
     1
  1
F
  7
SLDTEXTSTYLE0
 73
     1
 44
1.0
  0
MTEXT
  5
FC
330
1F
100
AcDbEntity
  8
0
  6
Continuous
 62
     7
370
     0
100
AcDbMText
 10
203.1553128802
 20
21.5867148511
 30
0.0
 40
1.8520833333
 41
0.0
 71
     1
 72
     1
  1
Jimmy
  7
SLDTEXTSTYLE0
 73
     1
 44
1.0
  0
MTEXT
  5
FD
330
1F
100
AcDbEntity
  8
0
  6
Continuous
 62
     7
370
     0
100
AcDbMText
 10
252.8482239645
 20
12.0500370959
 30
0.0
 40
2.5
 41
0.0
 71
     1
 72
     1
  1
0
  7
SLDTEXTSTYLE0
 73
     1
 44
1.0
  0
INSERT
  5
103
330
1F
100
AcDbEntity
  8
SLD-0
 62
     7
100
AcDbBlockReference
  2
SW_NOTE_1
 10
198.7251893935
 20
32.9714667844
 30
0.0
  0
ARC
  5
104
330
1F
100
AcDbEntity
  8
0
  6
Continuous
 62
     7
370
    30
100
AcDbCircle
 10
70.7220696894
 20
64.5800000153
 30
0.0
 40
1.0
100
AcDbArc
 50
180.0
 51
270.0
  0
ARC
  5
105
330
1F
100
AcDbEntity
  8
0
  6
Continuous
 62
     7
370
    30
100
AcDbCircle
 10
78.7220696894
 20
64.5800000153
 30
0.0
 40
1.0
100
AcDbArc
 50
270.0
 51
0.0
  0
LINE
  5
106
330
1F
100
AcDbEntity
  8
0
  6
Continuous
 62
     7
370
    30
100
AcDbLine
 10
79.7220695776
 20
68.680000546
 30
0.0
 11
79.6220697475
 21
69.5800008798
 31
0.0
  0
LINE
  5
107
330
1F
100
AcDbEntity
  8
0
  6
Continuous
 62
     7
370
    30
100
AcDbLine
 10
69.8220696313
 20
69.5800008798
 30
0.0
 11
69.7220698011
 21
68.680000546
 31
0.0
  0
LINE
  5
108
330
1F
100
AcDbEntity
  8
0
  6
Continuous
 62
     7
370
    30
100
AcDbLine
 10
69.7220698011
 20
68.680000546
 30
0.0
 11
69.7220698011
 21
64.5799981976
 31
0.0
  0
LINE
  5
109
330
1F
100
AcDbEntity
  8
0
  6
Continuous
 62
     7
370
    30
100
AcDbLine
 10
79.7220695776
 20
64.5799981976
 30
0.0
 11
79.7220695776
 21
68.680000546
 31
0.0
  0
LINE
  5
10A
330
1F
100
AcDbEntity
  8
0
  6
Continuous
 62
     7
370
    30
100
AcDbLine
 10
71.7220696633
 20
89.0800003508
 30
0.0
 11
71.7220696633
 21
69.5800008798
 31
0.0
  0
LINE
  5
10B
330
1F
100
AcDbEntity
  8
0
  6
Continuous
 62
     7
370
    30
100
AcDbLine
 10
77.7220697155
 20
69.5800008798
 30
0.0
 11
77.7220697155
 21
89.0800003508
 31
0.0
  0
LINE
  5
10C
330
1F
100
AcDbEntity
  8
0
  6
Continuous
 62
     7
370
    30
100
AcDbLine
 10
77.2220696335
 20
98.5800000453
 30
0.0
 11
77.2220696335
 21
99.4799999135
 31
0.0
  0
LINE
  5
10D
330
1F
100
AcDbEntity
  8
0
  6
Continuous
 62
     7
370
    30
100
AcDbLine
 10
72.2220697453
 20
99.4799999135
 30
0.0
 11
72.2220697453
 21
98.5800000453
 31
0.0
  0
LINE
  5
10E
330
1F
100
AcDbEntity
  8
0
  6
Continuous
 62
     7
370
    30
100
AcDbLine
 10
77.2220696335
 20
99.4799999135
 30
0.0
 11
77.1220698034
 21
99.5800002093
 31
0.0
  0
LINE
  5
10F
330
1F
100
AcDbEntity
  8
0
  6
Continuous
 62
     7
370
    30
100
AcDbLine
 10
72.3220695754
 20
99.5800002093
 30
0.0
 11
72.2220697453
 21
99.4799999135
 31
0.0
  0
LINE
  5
110
330
1F
100
AcDbEntity
  8
0
  6
Continuous
 62
     7
370
    30
100
AcDbLine
 10
77.2220696335
 20
96.8800001392
 30
0.0
 11
77.2220696335
 21
96.9300000543
 31
0.0
  0
LINE
  5
111
330
1F
100
AcDbEntity
  8
0
  6
Continuous
 62
     7
370
    30
100
AcDbLine
 10
77.2220696335
 20
97.7300000923
 30
0.0
 11
77.2220696335
 21
97.7800000073
 31
0.0
  0
LINE
  5
112
330
1F
100
AcDbEntity
  8
0
  6
Continuous
 62
     7
370
    30
100
AcDbLine
 10
72.2220697453
 20
97.7800000073
 30
0.0
 11
72.2220697453
 21
97.7300000923
 31
0.0
  0
LINE
  5
113
330
1F
100
AcDbEntity
  8
0
  6
Continuous
 62
     7
370
    30
100
AcDbLine
 10
72.2220697453
 20
96.9300000543
 30
0.0
 11
72.2220697453
 21
96.8800001392
 31
0.0
  0
LINE
  5
114
330
1F
100
AcDbEntity
  8
0
  6
Continuous
 62
     7
370
    30
100
AcDbLine
 10
76.7220697844
 20
97.7800000073
 30
0.0
 11
76.7220697844
 21
98.5800000453
 31
0.0
  0
LINE
  5
115
330
1F
100
AcDbEntity
  8
0
  6
Continuous
 62
     7
370
    30
100
AcDbLine
 10
72.7220695944
 20
98.5800000453
 30
0.0
 11
72.7220695944
 21
97.7800000073
 31
0.0
  0
LINE
  5
116
330
1F
100
AcDbEntity
  8
0
  6
Continuous
 62
     7
370
    30
100
AcDbLine
 10
76.7220697844
 20
96.0799996356
 30
0.0
 11
76.7220697844
 21
96.8800001392
 31
0.0
  0
LINE
  5
117
330
1F
100
AcDbEntity
  8
0
  6
Continuous
 62
     7
370
    30
100
AcDbLine
 10
72.7220695944
 20
96.8800001392
 30
0.0
 11
72.7220695944
 21
96.0799996356
 31
0.0
  0
SPLINE
  5
118
330
1F
100
AcDbEntity
  8
0
  6
Continuous
 62
     7
370
    30
100
AcDbSpline
210
0.0
220
0.0
230
1.0
 70
    24
 71
     3
 72
    14
 73
    10
 74
     0
 42
0.000000001
 43
0.00000001
 40
0.0
 40
0.0
 40
0.0
 40
0.0
 40
0.1216688900224972
 40
0.2423384524830978
 40
0.363948121851727
 40
0.5588238985657217
 40
0.7578351386327044
 40
0.9568463627047183
 40
1.0
 40
1.0
 40
1.0
 40
1.0
 10
76.75914713306013
 20
63.57999989632923
 30
0.0
 10
76.90073255775853
 20
63.57999989632922
 30
0.0
 10
77.18274049511399
 20
63.57999989632921
 30
0.0
 10
77.5587441811795
 20
63.57999989632923
 30
0.0
 10
77.95843922986234
 20
63.57999989632922
 30
0.0
 10
78.33940101431645
 20
63.57999989632923
 30
0.0
 10
78.62063016617978
 20
63.57999989632923
 30
0.0
 10
78.72364205969888
 20
63.57999989632921
 30
0.0
 10
78.71805893084769
 20
63.57999989632923
 30
0.0
 10
78.71706402053717
 20
63.57999989632923
 30
0.0
  0
SPLINE
  5
119
330
1F
100
AcDbEntity
  8
0
  6
Continuous
 62
     7
370
    30
100
AcDbSpline
210
0.0
220
0.0
230
1.0
 70
    24
 71
     3
 72
    21
 73
    17
 74
     0
 42
0.000000001
 43
0.00000001
 40
0.0
 40
0.0
 40
0.0
 40
0.0
 40
0.0267548378023571
 40
0.0748169784604026
 40
0.1642994297918453
 40
0.2538449515505743
 40
0.3137017945704848
 40
0.3731082470197588
 40
0.4330209872456166
 40
0.5289595317713444
 40
0.6269340671229517
 40
0.7249085659333344
 40
0.7729081303346215
 40
0.8209702884169834
 40
0.9105015127066209
 40
1.0
 40
1.0
 40
1.0
 40
1.0
 10
70.72707535823467
 20
63.57999989632923
 30
0.0
 10
70.72633633279905
 20
63.57999989632923
 30
0.0
 10
70.7242697289756
 20
63.57999989632922
 30
0.0
 10
70.77968251497342
 20
63.57999989632923
 30
0.0
 10
70.93455623592182
 20
63.57999989632922
 30
0.0
 10
71.22418493364927
 20
63.57999989632923
 30
0.0
 10
71.55306357595633
 20
63.57999989632922
 30
0.0
 10
71.88641169958072
 20
63.57999989632922
 30
0.0
 10
72.34067127899839
 20
63.57999989632923
 30
0.0
 10
72.94830159387593
 20
63.57999989632922
 30
0.0
 10
73.72116838110273
 20
63.57999989632923
 30
0.0
 10
74.40279510255564
 20
63.57999989632921
 30
0.0
 10
74.94770861400735
 20
63.57999989632925
 30
0.0
 10
75.46525676038922
 20
63.57999989632922
 30
0.0
 10
76.08994379040647
 20
63.57999989632922
 30
0.0
 10
76.53610654696978
 20
63.57999989632922
 30
0.0
 10
76.75914713306013
 20
63.57999989632923
 30
0.0
  0
LINE
  5
11A
330
1F
100
AcDbEntity
  8
0
  6
Continuous
 62
     7
370
    30
100
AcDbLine
 10
77.2174893891
 20
69.5800008798
 30
0.0
 11
79.6220697475
 21
69.5800008798
 31
0.0
  0
LINE
  5
11B
330
1F
100
AcDbEntity
  8
0
  6
Continuous
 62
     7
370
    30
100
AcDbLine
 10
69.8220696313
 20
69.5800008798
 30
0.0
 11
77.2174893891
 21
69.5800008798
 31
0.0
  0
LINE
  5
11C
330
1F
100
AcDbEntity
  8
0
  6
Continuous
 62
     7
370
    30
100
AcDbLine
 10
77.2684164358
 20
68.680000546
 30
0.0
 11
69.7220698011
 21
68.680000546
 31
0.0
  0
LINE
  5
11D
330
1F
100
AcDbEntity
  8
0
  6
Continuous
 62
     7
370
    30
100
AcDbLine
 10
79.7220695776
 20
68.680000546
 30
0.0
 11
77.2684164358
 21
68.680000546
 31
0.0
  0
LINE
  5
11E
330
1F
100
AcDbEntity
  8
0
  6
Continuous
 62
     7
370
    30
100
AcDbLine
 10
77.2220696335
 20
98.5800000453
 30
0.0
 11
72.2220697453
 21
98.5800000453
 31
0.0
  0
LINE
  5
11F
330
1F
100
AcDbEntity
  8
0
  6
Continuous
 62
     7
370
    30
100
AcDbLine
 10
77.2220696335
 20
99.4799999135
 30
0.0
 11
72.2220697453
 21
99.4799999135
 31
0.0
  0
LINE
  5
120
330
1F
100
AcDbEntity
  8
0
  6
Continuous
 62
     7
370
    30
100
AcDbLine
 10
75.9443161323
 20
99.5800002093
 30
0.0
 11
72.3220695754
 21
99.5800002093
 31
0.0
  0
LINE
  5
121
330
1F
100
AcDbEntity
  8
0
  6
Continuous
 62
     7
370
    30
100
AcDbLine
 10
77.1220698034
 20
99.5800002093
 30
0.0
 11
75.9443161323
 21
99.5800002093
 31
0.0
  0
LINE
  5
122
330
1F
100
AcDbEntity
  8
0
  6
Continuous
 62
     7
370
    30
100
AcDbLine
 10
77.2220696335
 20
96.8800001392
 30
0.0
 11
72.2220697453
 21
96.8800001392
 31
0.0
  0
LINE
  5
123
330
1F
100
AcDbEntity
  8
0
  6
Continuous
 62
     7
370
    30
100
AcDbLine
 10
77.2220696335
 20
97.7800000073
 30
0.0
 11
72.2220697453
 21
97.7800000073
 31
0.0
  0
ARC
  5
124
330
1F
100
AcDbEntity
  8
0
  6
Continuous
 62
     7
370
    30
100
AcDbCircle
 10
63.5220696894
 20
101.9300000155
 30
0.0
 40
1.000000000000007
100
AcDbArc
 50
0.0
 51
90.0
  0
LINE
  5
125
330
1F
100
AcDbEntity
  8
0
  6
Continuous
 62
     7
370
    30
100
AcDbLine
 10
64.5220693213
 20
98.2300001742
 30
0.0
 11
64.5220693213
 21
101.9299999425
 31
0.0
  0
ARC
  5
126
330
1F
100
AcDbEntity
  8
0
  6
Continuous
 62
     7
370
    30
100
AcDbCircle
 10
65.0220696894
 20
98.2300000155
 30
0.0
 40
0.5
100
AcDbArc
 50
180.0
 51
270.0
  0
LINE
  5
127
330
1F
100
AcDbEntity
  8
0
  6
Continuous
 62
     7
370
    30
100
AcDbLine
 10
84.4220699755
 20
97.7300000923
 30
0.0
 11
65.0220694033
 21
97.7300000923
 31
0.0
  0
ARC
  5
128
330
1F
100
AcDbEntity
  8
0
  6
Continuous
 62
     7
370
    30
100
AcDbCircle
 10
84.4220696894
 20
98.2300000155
 30
0.0
 40
0.5
100
AcDbArc
 50
270.0
 51
0.0
  0
LINE
  5
129
330
1F
100
AcDbEntity
  8
0
  6
Continuous
 62
     7
370
    30
100
AcDbLine
 10
84.9220700574
 20
101.9299999425
 30
0.0
 11
84.9220700574
 21
98.2300001742
 31
0.0
  0
ARC
  5
12A
330
1F
100
AcDbEntity
  8
0
  6
Continuous
 62
     7
370
    30
100
AcDbCircle
 10
85.9220696894
 20
101.9300000155
 30
0.0
 40
1.0
100
AcDbArc
 50
90.0
 51
180.0
  0
LINE
  5
12B
330
1F
100
AcDbEntity
  8
0
  6
Continuous
 62
     7
370
    30
100
AcDbLine
 10
102.2220695404
 20
102.92999999
 30
0.0
 11
85.92206929
 21
102.92999999
 31
0.0
  0
LINE
  5
12C
330
1F
100
AcDbEntity
  8
0
  6
Continuous
 62
     7
370
    30
100
AcDbLine
 10
102.2220695404
 20
102.1300000684
 30
0.0
 11
102.2220695404
 21
102.92999999
 31
0.0
  0
LINE
  5
12D
330
1F
100
AcDbEntity
  8
0
  6
Continuous
 62
     7
370
    30
100
AcDbLine
 10
86.2220697117
 20
102.1300000684
 30
0.0
 11
102.2220695404
 21
102.1300000684
 31
0.0
  0
ARC
  5
12E
330
1F
100
AcDbEntity
  8
0
  6
Continuous
 62
     7
370
    30
100
AcDbCircle
 10
86.2220696894
 20
101.6300000155
 30
0.0
 40
0.5
100
AcDbArc
 50
90.0
 51
180.0
  0
LINE
  5
12F
330
1F
100
AcDbEntity
  8
0
  6
Continuous
 62
     7
370
    30
100
AcDbLine
 10
85.7220696298
 20
97.9300002182
 30
0.0
 11
85.7220696298
 21
101.6299999865
 31
0.0
  0
ARC
  5
130
330
1F
100
AcDbEntity
  8
0
  6
Continuous
 62
     7
370
    30
100
AcDbCircle
 10
84.7220696894
 20
97.9300000155
 30
0.0
 40
1.000000000000014
100
AcDbArc
 50
270.0
 51
0.0
  0
LINE
  5
131
330
1F
100
AcDbEntity
  8
0
  6
Continuous
 62
     7
370
    30
100
AcDbLine
 10
64.7220699129
 20
96.9300000543
 30
0.0
 11
84.7220694659
 21
96.9300000543
 31
0.0
  0
ARC
  5
132
330
1F
100
AcDbEntity
  8
0
  6
Continuous
 62
     7
370
    30
100
AcDbCircle
 10
64.7220696894
 20
97.9300000155
 30
0.0
 40
1.000000000000014
100
AcDbArc
 50
180.0
 51
270.0
  0
LINE
  5
133
330
1F
100
AcDbEntity
  8
0
  6
Continuous
 62
     7
370
    30
100
AcDbLine
 10
63.722069749
 20
101.6299999865
 30
0.0
 11
63.722069749
 21
97.9300002182
 31
0.0
  0
ARC
  5
134
330
1F
100
AcDbEntity
  8
0
  6
Continuous
 62
     7
370
    30
100
AcDbCircle
 10
63.2220696894
 20
101.6300000155
 30
0.0
 40
0.5
100
AcDbArc
 50
0.0
 51
90.0
  0
LINE
  5
135
330
1F
100
AcDbEntity
  8
0
  6
Continuous
 62
     7
370
    30
100
AcDbLine
 10
47.2220698384
 20
102.1300000684
 30
0.0
 11
63.222069667
 21
102.1300000684
 31
0.0
  0
LINE
  5
136
330
1F
100
AcDbEntity
  8
0
  6
Continuous
 62
     7
370
    30
100
AcDbLine
 10
47.2220698384
 20
102.92999999
 30
0.0
 11
47.2220698384
 21
102.1300000684
 31
0.0
  0
LINE
  5
137
330
1F
100
AcDbEntity
  8
0
  6
Continuous
 62
     7
370
    30
100
AcDbLine
 10
63.5220700887
 20
102.92999999
 30
0.0
 11
47.2220698384
 21
102.92999999
 31
0.0
  0
LINE
  5
138
330
1F
100
AcDbEntity
  8
0
  6
Continuous
 62
     7
370
    30
100
AcDbLine
 10
104.2220698682
 20
102.92999999
 30
0.0
 11
104.2220698682
 21
102.1300000684
 31
0.0
  0
LINE
  5
139
330
1F
100
AcDbEntity
  8
0
  6
Continuous
 62
     7
370
    30
100
AcDbLine
 10
104.2220698682
 20
102.1300000684
 30
0.0
 11
102.2220695404
 21
102.1300000684
 31
0.0
  0
LINE
  5
13A
330
1F
100
AcDbEntity
  8
0
  6
Continuous
 62
     7
370
    30
100
AcDbLine
 10
102.2220695404
 20
102.92999999
 30
0.0
 11
104.2220698682
 21
102.92999999
 31
0.0
  0
LINE
  5
13B
330
1F
100
AcDbEntity
  8
0
  6
Continuous
 62
     7
370
    30
100
AcDbLine
 10
45.2220695106
 20
102.1300000684
 30
0.0
 11
45.2220695106
 21
102.92999999
 31
0.0
  0
LINE
  5
13C
330
1F
100
AcDbEntity
  8
0
  6
Continuous
 62
     7
370
    30
100
AcDbLine
 10
47.2220698384
 20
102.1300000684
 30
0.0
 11
45.2220695106
 21
102.1300000684
 31
0.0
  0
LINE
  5
13D
330
1F
100
AcDbEntity
  8
0
  6
Continuous
 62
     7
370
    30
100
AcDbLine
 10
45.2220695106
 20
102.92999999
 30
0.0
 11
47.2220698384
 21
102.92999999
 31
0.0
  0
LINE
  5
13E
330
1F
100
AcDbEntity
  8
0
  6
Continuous
 62
     7
370
    30
100
AcDbLine
 10
104.7220690188
 20
118.0800004477
 30
0.0
 11
103.7220688549
 21
119.0799996803
 31
0.0
  0
LINE
  5
13F
330
1F
100
AcDbEntity
  8
0
  6
Continuous
 62
     7
370
    30
100
AcDbLine
 10
104.7220690188
 20
118.0800004477
 30
0.0
 11
104.7220690188
 21
116.0800001198
 31
0.0
  0
LINE
  5
140
330
1F
100
AcDbEntity
  8
0
  6
Continuous
 62
     7
370
    30
100
AcDbLine
 10
104.7220690188
 20
116.0800001198
 30
0.0
 11
44.7220703599
 21
116.0800001198
 31
0.0
  0
LINE
  5
141
330
1F
100
AcDbEntity
  8
0
  6
Continuous
 62
     7
370
    30
100
AcDbLine
 10
44.7220703599
 20
118.0800004477
 30
0.0
 11
44.7220703599
 21
116.0800001198
 31
0.0
  0
LINE
  5
142
330
1F
100
AcDbEntity
  8
0
  6
Continuous
 62
     7
370
    30
100
AcDbLine
 10
45.7220705239
 20
119.0799996803
 30
0.0
 11
44.7220703599
 21
118.0800004477
 31
0.0
  0
LINE
  5
143
330
1F
100
AcDbEntity
  8
0
  6
Continuous
 62
     7
370
    30
100
AcDbLine
 10
103.7220688549
 20
119.0799996803
 30
0.0
 11
45.7220705239
 21
119.0799996803
 31
0.0
  0
LINE
  5
144
330
1F
100
AcDbEntity
  8
0
  6
Continuous
 62
     7
370
    30
100
AcDbLine
 10
104.7220690188
 20
96.0799996356
 30
0.0
 11
44.7220703599
 21
96.0799996356
 31
0.0
  0
LINE
  5
145
330
1F
100
AcDbEntity
  8
0
  6
Continuous
 62
     7
370
    30
100
AcDbLine
 10
103.7220688549
 20
89.0800003508
 30
0.0
 11
104.7220690188
 21
90.0799995834
 31
0.0
  0
LINE
  5
146
330
1F
100
AcDbEntity
  8
0
  6
Continuous
 62
     7
370
    30
100
AcDbLine
 10
103.7220688549
 20
89.0800003508
 30
0.0
 11
45.7220705239
 21
89.0800003508
 31
0.0
  0
LINE
  5
147
330
1F
100
AcDbEntity
  8
0
  6
Continuous
 62
     7
370
    30
100
AcDbLine
 10
44.7220703599
 20
90.0799995834
 30
0.0
 11
45.7220705239
 21
89.0800003508
 31
0.0
  0
LINE
  5
148
330
1F
100
AcDbEntity
  8
0
  6
Continuous
 62
     7
370
    30
100
AcDbLine
 10
104.7220690188
 20
96.0799996356
 30
0.0
 11
104.7220690188
 21
90.0799995834
 31
0.0
  0
LINE
  5
149
330
1F
100
AcDbEntity
  8
0
  6
Continuous
 62
     7
370
    30
100
AcDbLine
 10
44.7220703599
 20
96.0799996356
 30
0.0
 11
44.7220703599
 21
90.0799995834
 31
0.0
  0
CIRCLE
  5
14A
330
1F
100
AcDbEntity
  8
0
  6
Continuous
 62
     7
370
    30
100
AcDbCircle
 10
74.7220696894
 20
104.0800000155
 30
0.0
 40
4.0
  0
LINE
  5
14B
330
1F
100
AcDbEntity
  8
0
  6
Continuous
 62
     7
370
    30
100
AcDbLine
 10
104.7220690188
 20
116.0800001198
 30
0.0
 11
104.7220690188
 21
96.0799996356
 31
0.0
  0
LINE
  5
14C
330
1F
100
AcDbEntity
  8
0
  6
Continuous
 62
     7
370
    30
100
AcDbLine
 10
44.7220703599
 20
116.0800001198
 30
0.0
 11
44.7220703599
 21
96.0799996356
 31
0.0
  0
CIRCLE
  5
14D
330
1F
100
AcDbEntity
  8
0
  6
Continuous
 62
     7
370
    30
100
AcDbCircle
 10
74.7220696894
 20
104.0800000155
 30
0.0
 40
2.25
  0
LINE
  5
14E
330
1F
100
AcDbEntity
  8
0
  6
Continuous
 62
     8
370
    30
100
AcDbLine
 10
77.2684164358
 20
64.5799981976
 30
0.0
 11
79.7220695776
 21
64.5799981976
 31
0.0
  0
LINE
  5
14F
330
1F
100
AcDbEntity
  8
0
  6
Continuous
 62
     8
370
    30
100
AcDbLine
 10
69.7220698011
 20
64.5799981976
 30
0.0
 11
77.2684164358
 21
64.5799981976
 31
0.0
  0
LINE
  5
150
330
1F
100
AcDbEntity
  8
SLD-0
 62
     7
370
     0
100
AcDbLine
 10
71.7220696894
 20
69.5800000153
 30
0.0
 11
77.7220696894
 21
69.5800000153
 31
0.0
  0
LINE
  5
151
330
1F
100
AcDbEntity
  8
SLD-0
 62
     7
370
     0
100
AcDbLine
 10
71.7220696894
 20
69.5800000153
 30
0.0
 11
71.7220696894
 21
89.0800000155
 31
0.0
  0
LINE
  5
152
330
1F
100
AcDbEntity
  8
SLD-0
 62
     7
370
     0
100
AcDbLine
 10
71.7220696894
 20
89.0800000155
 30
0.0
 11
77.7220696894
 21
89.0800000155
 31
0.0
  0
LINE
  5
153
330
1F
100
AcDbEntity
  8
SLD-0
 62
     7
370
     0
100
AcDbLine
 10
77.7220696894
 20
69.5800000153
 30
0.0
 11
77.7220696894
 21
89.0800000155
 31
0.0
  0
HATCH
  5
154
330
1F
100
AcDbEntity
  8
0
  6
Continuous
 62
     7
100
AcDbHatch
 10
0.0
 20
0.0
 30
0.0
210
0.0
220
0.0
230
1.0
  2
LINE
 70
     0
 71
     0
 91
        1
 92
        0
 93
        4
 72
     1
 10
71.72206968938593
 20
69.58000001525289
 11
77.72206968938595
 21
69.58000001525289
 72
     1
 10
77.72206968938595
 20
69.58000001525289
 11
77.72206968938595
 21
89.08000001553843
 72
     1
 10
77.72206968938595
 20
89.08000001553843
 11
71.72206968938593
 21
89.08000001553843
 72
     1
 10
71.72206968938593
 20
89.08000001553843
 11
71.72206968938593
 21
69.58000001525289
 97
        0
 75
     0
 76
     1
 52
0.0
 41
0.2
 77
     0
 78
     1
 53
0.0
 43
0.0
 44
0.0
 45
0.0
 46
0.635
 79
     0
 98
        1
 10
0.0
 20
0.0
  0
DIMENSION
  5
155
330
1F
100
AcDbEntity
  8
SLD-0
100
AcDbDimension
  2
_D
 10
35.1402174501
 20
104.0800000155
 30
0.0
 11
35.1402174501
 21
96.5800000155
 31
0.0
 70
   160
  1
<>
 71
     2
 42
-1.0
  3
SLDDIMSTYLE0
100
AcDbAlignedDimension
 13
45.7220696894
 23
89.0800000155
 33
0.0
 14
74.7220696894
 24
104.0800000155
 34
0.0
 50
90.0
100
AcDbRotatedDimension
  0
DIMENSION
  5
160
330
1F
100
AcDbEntity
  8
SLD-0
100
AcDbDimension
  2
_D_1
 10
44.7220696894
 20
124.905947331
 30
0.0
 11
59.7220696894
 21
124.905947331
 31
0.0
 70
   160
  1
<>
 71
     2
 42
-1.0
  3
SLDDIMSTYLE0
100
AcDbAlignedDimension
 13
74.7220696894
 23
104.0800000155
 33
0.0
 14
44.7220696894
 24
118.0800000155
 34
0.0
100
AcDbRotatedDimension
  0
DIMENSION
  5
16A
330
1F
100
AcDbEntity
  8
SLD-0
 62
     7
100
AcDbDimension
  2
_D_2
 10
72.2781520026
 20
107.2465859279
 30
0.0
 11
113.6408361398
 21
77.660819882
 31
0.0
 70
   163
  1
1 HOLE for both of\P M4 and 8-32 CLR
 71
     1
 42
-1.0
  3
SLDDIMSTYLE1
100
AcDbDiametricDimension
 15
77.1659873762
 25
100.9134141032
 35
0.0
 40
0.0
  0
DIMENSION
  5
174
330
1F
100
AcDbEntity
  8
SLD-0
 62
     7
100
AcDbDimension
  2
_D_3
 10
104.7220696894
 20
131.2940794001
 30
0.0
 11
74.7220696894
 21
131.2940794001
 31
0.0
 70
   160
  1
<>
 71
     2
 42
-1.0
  3
SLDDIMSTYLE0
100
AcDbAlignedDimension
 13
44.7220696894
 23
118.0800000155
 33
0.0
 14
104.7220696894
 24
118.0800000155
 34
0.0
100
AcDbRotatedDimension
  0
INSERT
  5
189
330
1F
100
AcDbEntity
  8
SLD-0
 62
     7
100
AcDbBlockReference
  2
SW_CENTERMARKSYMBOL_0
 10
74.7220696894
 20
104.0800000155
 30
0.0
  0
INSERT
  5
195
330
1F
100
AcDbEntity
  8
SLD-0
 62
     7
100
AcDbBlockReference
  2
SW_CENTERMARKSYMBOL_1
 10
74.7220696894
 20
104.0800000155
 30
0.0
  0
SPLINE
  5
196
330
1F
100
AcDbEntity
  8
0
  6
Continuous
 62
     7
370
    30
100
AcDbSpline
210
0.0
220
0.0
230
1.0
 70
     8
 71
     3
 72
    21
 73
    17
 74
     0
 42
0.000000001
 43
0.00000001
 40
0.0
 40
0.0
 40
0.0
 40
0.0
 40
0.0481126514204145
 40
0.1288109696818925
 40
0.2048633853803013
 40
0.2831672020697426
 40
0.3635775815158848
 40
0.4451046044133954
 40
0.5264406708891984
 40
0.6063670946744485
 40
0.684003835657436
 40
0.757653535468867
 40
0.8271617149087447
 40
0.877252561336327
 40
0.9309048342154539
 40
1.0
 40
1.0
 40
1.0
 40
1.0
 10
201.157175680112
 20
140.3694690942773
 30
0.0
 10
201.0751505652258
 20
140.3230200532276
 30
0.0
 10
200.8555464844939
 20
140.1986630319084
 30
0.0
 10
200.5636897278278
 20
139.916787855513
 30
0.0
 10
200.2848889046179
 20
139.5464205664972
 30
0.0
 10
200.0729986340593
 20
139.1274652928992
 30
0.0
 10
199.9223840792403
 20
138.6621284325444
 30
0.0
 10
199.8356460042854
 20
138.1600232325918
 30
0.0
 10
199.8115502946047
 20
137.6343828308694
 30
0.0
 10
199.8460132726541
 20
137.0986228258889
 30
0.0
 10
199.9321302132331
 20
136.5679507260298
 30
0.0
 10
200.0608045706218
 20
136.0554672372329
 30
0.0
 10
200.2099806572012
 20
135.6066598483909
 30
0.0
 10
200.3700959705922
 20
135.2080436775544
 30
0.0
 10
200.5498127413064
 20
134.8146423314714
 30
0.0
 10
200.6992314493978
 20
134.5442846662631
 30
0.0
 10
200.7833400101896
 20
134.3920989432691
 30
0.0
  0
SPLINE
  5
197
330
1F
100
AcDbEntity
  8
0
  6
Continuous
 62
     7
370
    30
100
AcDbSpline
210
0.0
220
0.0
230
1.0
 70
     8
 71
     3
 72
    22
 73
    18
 74
     0
 42
0.000000001
 43
0.00000001
 40
0.0
 40
0.0
 40
0.0
 40
0.0
 40
0.0890068279502413
 40
0.1254236700350307
 40
0.1855701863681551
 40
0.2476228057612682
 40
0.3138403551893864
 40
0.3825720567089764
 40
0.4532357556812108
 40
0.5253791846102377
 40
0.5986131363293435
 40
0.6724390979279763
 40
0.7464111916345388
 40
0.8202497961942802
 40
0.8941198767402743
 40
0.96876832970983
 40
1.0
 40
1.0
 40
1.0
 40
1.0
 10
200.7833400101896
 20
134.3920989432691
 30
0.0
 10
200.9000607269903
 20
134.2003167981319
 30
0.0
 10
201.0645373295995
 20
133.930067638104
 30
0.0
 10
201.3375876460941
 20
133.5548265562539
 30
0.0
 10
201.5828792041243
 20
133.2470740900242
 30
0.0
 10
201.8919788022212
 20
132.9057377376683
 30
0.0
 10
202.2315163511075
 20
132.5781931692519
 30
0.0
 10
202.6011709888998
 20
132.2721694028092
 30
0.0
 10
202.9947784003308
 20
131.9988545592288
 30
0.0
 10
203.4079450304093
 20
131.7666771204777
 30
0.0
 10
203.8361505431185
 20
131.583309347888
 30
0.0
 10
204.274617716145
 20
131.455736822384
 30
0.0
 10
204.7175352962475
 20
131.3909158430444
 30
0.0
 10
205.1595117604799
 20
131.3932060734847
 30
0.0
 10
205.5901399179125
 20
131.4733034305003
 30
0.0
 10
205.9283980231795
 20
131.5862784604546
 30
0.0
 10
206.1031068286756
 20
131.6985949353833
 30
0.0
 10
206.1546410320941
 20
131.7317251491112
 30
0.0
  0
LINE
  5
198
330
1F
100
AcDbEntity
  8
0
  6
Continuous
 62
     7
370
    30
100
AcDbLine
 10
204.0488923654
 20
142.0506084966
 30
0.0
 11
201.1497545625
 21
140.3769718673
 31
0.0
  0
LINE
  5
199
330
1F
100
AcDbEntity
  8
0
  6
Continuous
 62
     7
370
    30
100
AcDbLine
 10
206.1493482257
 20
131.7164832435
 30
0.0
 11
209.0484860285
 21
133.3901198728
 31
0.0
  0
LINE
  5
19A
330
1F
100
AcDbEntity
  8
0
  6
Continuous
 62
     7
370
    30
100
AcDbLine
 10
209.2372078786
 20
133.5169161366
 30
0.0
 11
209.8198336081
 21
133.9683687478
 31
0.0
  0
LINE
  5
19B
330
1F
100
AcDbEntity
  8
0
  6
Continuous
 62
     7
370
    30
100
AcDbLine
 10
204.9353799203
 20
142.4294074734
 30
0.0
 11
204.2530714626
 21
142.1506291217
 31
0.0
  0
LINE
  5
19C
330
1F
100
AcDbEntity
  8
0
  6
Continuous
 62
     7
370
    30
100
AcDbLine
 10
219.4737894344
 20
148.6458735125
 30
0.0
 11
207.6225016771
 21
141.8042707179
 31
0.0
  0
LINE
  5
19D
330
1F
100
AcDbEntity
  8
0
  6
Continuous
 62
     7
370
    30
100
AcDbLine
 10
210.622257875
 20
136.6079775436
 30
0.0
 11
222.4735456323
 21
143.4495803382
 31
0.0
  0
LINE
  5
19E
330
1F
100
AcDbEntity
  8
0
  6
Continuous
 62
     7
370
    30
100
AcDbLine
 10
250.6467662431
 20
134.4160306145
 30
0.0
 11
251.2124516681
 21
134.7425938592
 31
0.0
  0
LINE
  5
19F
330
1F
100
AcDbEntity
  8
0
  6
Continuous
 62
     7
370
    30
100
AcDbLine
 10
219.160494735
 20
159.3765049813
 30
0.0
 11
219.160494735
 21
158.5250917677
 31
0.0
  0
LINE
  5
1A0
330
1F
100
AcDbEntity
  8
0
  6
Continuous
 62
     7
370
    30
100
AcDbLine
 10
223.1403937223
 20
157.4929642903
 30
0.0
 11
223.1403937223
 21
161.4991660721
 31
0.0
  0
LINE
  5
1A1
330
1F
100
AcDbEntity
  8
0
  6
Continuous
 62
     7
370
    30
100
AcDbLine
 10
210.3217412375
 20
168.6601123403
 30
0.0
 11
209.7560558126
 21
168.3335490956
 31
0.0
  0
SPLINE
  5
1A2
330
1F
100
AcDbEntity
  8
0
  6
Continuous
 62
     7
370
    30
100
AcDbSpline
210
0.0
220
0.0
230
1.0
 70
    11
 71
     3
 72
    43
 73
    39
 74
     0
 42
0.000000001
 43
0.00000001
 40
0.0
 40
0.0
 40
0.0
 40
0.0
 40
0.03000298369651
 40
0.0599949648408902
 40
0.0921457303822368
 40
0.1249787812970062
 40
0.1578118322117754
 40
0.1738973644482313
 40
0.1900038774416429
 40
0.2199910800685891
 40
0.249999415864495
 40
0.2799866241117522
 40
0.3099949645924756
 40
0.3421457301338223
 40
0.3749787810485917
 40
0.407811831963361
 40
0.4238973641998459
 40
0.4400038771932281
 40
0.4699910798201743
 40
0.4999994156160802
 40
0.5299866238633407
 40
0.5599949643440609
 40
0.5921457298854076
 40
0.6249787808001769
 40
0.6578118317149463
 40
0.6738973639514876
 40
0.6900038769448138
 40
0.7199910795718156
 40
0.7499994153676638
 40
0.7799866236149243
 40
0.8099949640956446
 40
0.8421457296369912
 40
0.8749787805517605
 40
0.9078118314665299
 40
0.9238973637030061
 40
0.940003876696398
 40
0.9700074282934392
 40
1.0
 40
1.0
 40
1.0
 40
1.0
 10
204.3828758437133
 20
137.6178638209761
 30
0.0
 10
204.5310330107629
 20
137.4183492523313
 30
0.0
 10
204.8272930133672
 20
137.0193932800797
 30
0.0
 10
205.199002302009
 20
136.3367570375005
 30
0.0
 10
205.4997826592167
 20
135.610956151271
 30
0.0
 10
205.7016735154559
 20
134.8628337562957
 30
0.0
 10
205.7734197567923
 20
134.2649102862952
 30
0.0
 10
205.7712649964706
 20
133.8213026466936
 30
0.0
 10
205.7318043112778
 20
133.4211743657659
 30
0.0
 10
205.6200123664324
 20
132.9786408428073
 30
0.0
 10
205.3907702645785
 20
132.5522855131206
 30
0.0
 10
205.0768813029123
 20
132.2323748517349
 30
0.0
 10
204.6763500500568
 20
132.0311077994443
 30
0.0
 10
204.1967299714702
 20
131.9615249590453
 30
0.0
 10
203.6501880274824
 20
132.043639671605
 30
0.0
 10
203.1681725020457
 20
132.2391148036338
 30
0.0
 10
202.7829526226422
 20
132.4639776454783
 30
0.0
 10
202.4167201555962
 20
132.7209688115414
 30
0.0
 10
201.9776100747229
 20
133.1035539859595
 30
0.0
 10
201.4937926872296
 20
133.6475764191376
 30
0.0
 10
201.0598380720581
 20
134.2605603978728
 30
0.0
 10
200.6853120227951
 20
134.9392884118794
 30
0.0
 10
200.3852837217895
 20
135.6663386216227
 30
0.0
 10
200.18316673282
 20
136.4141447415069
 30
0.0
 10
200.111475398475
 20
137.0121450058474
 30
0.0
 10
200.1136231448423
 20
137.4557428355512
 30
0.0
 10
200.1530854953249
 20
137.8558734455947
 30
0.0
 10
200.2648766517294
 20
138.2984058658309
 30
0.0
 10
200.4941190666302
 20
138.7247616333012
 30
0.0
 10
200.8080077089433
 20
139.0446718482268
 30
0.0
 10
201.2085399497351
 20
139.2459402815233
 30
0.0
 10
201.6881561223313
 20
139.3155176619082
 30
0.0
 10
202.2347131317759
 20
139.2334240086811
 30
0.0
 10
202.7166818217038
 20
139.0378834073787
 30
0.0
 10
203.1019957468957
 20
138.8131520279566
 30
0.0
 10
203.4679570335424
 20
138.5555796135622
 30
0.0
 10
203.9096776538797
 20
138.1766163266495
 30
0.0
 10
204.2251623593873
 20
137.8040919309708
 30
0.0
 10
204.3828758437133
 20
137.6178638209761
 30
0.0
  0
LWPOLYLINE
  5
1A3
330
1F
100
AcDbEntity
  8
0
  6
Continuous
 62
     7
370
    30
100
AcDbPolyline
 90
       11
 70
   128
 43
0.0
 10
208.3492282355
 20
140.1945395865
 10
207.8978791467
 20
140.715234888
 10
207.4190644413
 20
141.1749632585
 10
206.9225314058
 20
141.5643659541
 10
206.4183880211
 20
141.8755158589
 10
205.9168971926
 20
142.1020788581
 10
205.4282678273
 20
142.2394427823
 10
204.96244701
 20
142.2848112982
 10
204.5289175094
 20
142.2372608337
 10
204.1365047358
 20
142.097759379
 10
204.0488923654
 20
142.0506084966
  0
LWPOLYLINE
  5
1A4
330
1F
100
AcDbEntity
  8
0
  6
Continuous
 62
     7
370
    30
100
AcDbPolyline
 90
       14
 70
   128
 43
0.0
 10
209.0484860285
 20
133.3901198728
 10
209.3041813123
 20
133.5715815878
 10
209.5913950932
 20
133.8846514348
 10
209.8166681564
 20
134.2758053321
 10
209.9754145922
 20
134.7370805144
 10
210.0644027807
 20
135.2590867491
 10
210.0818211791
 20
135.8311974947
 10
210.0273151992
 20
136.4417662262
 10
209.9019944253
 20
137.0783635249
 10
209.7084100271
 20
137.7280301057
 10
209.4505028247
 20
138.3775406304
 10
209.133523065
 20
139.0136729379
 10
208.7639235417
 20
139.6234772087
 10
208.3492282355
 20
140.1945395865
  0
LINE
  5
1A5
330
1F
100
AcDbEntity
  8
0
  6
Continuous
 62
     7
370
    30
100
AcDbLine
 10
201.1857375447
 20
137.8530732882
 30
0.0
 11
201.1638215595
 21
135.508710693
 31
0.0
  0
LINE
  5
1A6
330
1F
100
AcDbEntity
  8
0
  6
Continuous
 62
     7
370
    30
100
AcDbLine
 10
201.1638215595
 20
135.508710693
 30
0.0
 11
202.9205286278
 21
133.2941609043
 31
0.0
  0
LINE
  5
1A7
330
1F
100
AcDbEntity
  8
0
  6
Continuous
 62
     7
370
    30
100
AcDbLine
 10
202.9205286278
 20
133.2941609043
 30
0.0
 11
204.6991516811
 21
133.4239737109
 31
0.0
  0
LINE
  5
1A8
330
1F
100
AcDbEntity
  8
0
  6
Continuous
 62
     7
370
    30
100
AcDbLine
 10
204.6991516811
 20
133.4239737109
 30
0.0
 11
204.7210676663
 21
135.7683363061
 31
0.0
  0
LINE
  5
1A9
330
1F
100
AcDbEntity
  8
0
  6
Continuous
 62
     7
370
    30
100
AcDbLine
 10
204.7210676663
 20
135.7683363061
 30
0.0
 11
202.964360598
 21
137.9828860948
 31
0.0
  0
LINE
  5
1AA
330
1F
100
AcDbEntity
  8
0
  6
Continuous
 62
     7
370
    30
100
AcDbLine
 10
202.964360598
 20
137.9828860948
 30
0.0
 11
201.1857375447
 21
137.8530732882
 31
0.0
  0
LWPOLYLINE
  5
1AB
330
1F
100
AcDbEntity
  8
0
  6
Continuous
 62
     7
370
    30
100
AcDbPolyline
 90
       14
 70
   128
 43
0.0
 10
208.9496135578
 20
140.5124397288
 10
209.356014958
 20
139.9527985986
 10
209.7182224907
 20
139.3551904132
 10
210.0288626553
 20
138.7317807518
 10
210.2816117136
 20
138.0952604376
 10
210.4713244238
 20
137.4585871884
 10
210.5941387822
 20
136.8347218356
 10
210.6475546426
 20
136.2363644788
 10
210.6304846121
 20
135.6756959481
 10
210.5432761874
 20
135.1641298381
 10
210.3877046804
 20
134.7120801595
 10
210.1669370784
 20
134.3287493401
 10
209.8854675731
 20
134.02194089
 10
209.8198336081
 20
133.9683687478
  0
ARC
  5
1AC
330
1F
100
AcDbEntity
  8
0
  6
Continuous
 62
     7
370
    30
100
AcDbCircle
 10
205.5478064685
 20
138.5503671056
 30
0.0
 40
3.927088037205245
100
AcDbArc
 50
29.9752145658
 51
98.9718554643
  0
LINE
  5
1AD
330
1F
100
AcDbEntity
  8
0
  6
Continuous
 62
     7
370
    30
100
AcDbLine
 10
203.698682392
 20
137.05718129
 30
0.0
 11
203.6943760293
 21
136.9695686932
 31
0.0
  0
SPLINE
  5
1AE
330
1F
100
AcDbEntity
  8
0
  6
Continuous
 62
     7
370
    30
100
AcDbSpline
210
0.0
220
0.0
230
1.0
 70
     8
 71
     3
 72
     9
 73
     5
 74
     0
 42
0.000000001
 43
0.00000001
 40
0.0
 40
0.0
 40
0.0
 40
0.0
 40
0.8886282401057632
 40
1.0
 40
1.0
 40
1.0
 40
1.0
 10
203.6943760295265
 20
136.9695686929403
 30
0.0
 10
204.0162360408504
 20
136.6195078373224
 30
0.0
 10
204.3784347610773
 20
136.2255738615395
 30
0.0
 10
204.6866037554767
 20
135.8004324050768
 30
0.0
 10
204.7209250787278
 20
135.7530836528665
 30
0.0
  0
LINE
  5
1AF
330
1F
100
AcDbEntity
  8
0
  6
Continuous
 62
     7
370
    30
100
AcDbLine
 10
202.9205286278
 20
133.2941609043
 30
0.0
 11
204.7075823404
 21
134.3258050535
 31
0.0
  0
LINE
  5
1B0
330
1F
100
AcDbEntity
  8
0
  6
Continuous
 62
     7
370
    30
100
AcDbLine
 10
203.6943760293
 20
136.9695686932
 30
0.0
 11
201.1638215595
 21
135.508710693
 31
0.0
  0
ARC
  5
1B1
330
1F
100
AcDbEntity
  8
0
  6
Continuous
 62
     7
370
    30
100
AcDbCircle
 10
222.6925734767
 20
161.4991660721
 30
0.0
 40
0.4366153168342787
100
AcDbArc
 50
290.7834207995
 51
69.2165792005
  0
LINE
  5
1B2
330
1F
100
AcDbEntity
  8
0
  6
Continuous
 62
     7
370
    30
100
AcDbLine
 10
220.2312054131
 20
159.5806070093
 30
0.0
 11
222.8475005035
 21
161.0909620161
 31
0.0
  0
ARC
  5
1B3
330
1F
100
AcDbEntity
  8
0
  6
Continuous
 62
     7
370
    30
100
AcDbCircle
 10
220.3086689265
 20
159.3765049813
 30
0.0
 40
0.2183076584170926
100
AcDbArc
 50
110.7834207995
 51
249.2165792005
  0
LINE
  5
1B4
330
1F
100
AcDbEntity
  8
0
  6
Continuous
 62
     7
370
    30
100
AcDbLine
 10
233.9490769681
 20
151.2532442687
 30
0.0
 11
220.2312054131
 21
159.1724029534
 31
0.0
  0
ARC
  5
1B5
330
1F
100
AcDbEntity
  8
0
  6
Continuous
 62
     7
370
    30
100
AcDbCircle
 10
234.3026303587
 20
151.9355998112
 30
0.0
 40
0.7685109539558099
100
AcDbArc
 50
242.6096722366
 51
297.3903277634
  0
LINE
  5
1B6
330
1F
100
AcDbEntity
  8
0
  6
Continuous
 62
     7
370
    30
100
AcDbLine
 10
237.2724788397
 20
152.7635992756
 30
0.0
 11
234.6561837493
 21
151.2532442687
 31
0.0
  0
ARC
  5
1B7
330
1F
100
AcDbEntity
  8
0
  6
Continuous
 62
     7
370
    30
100
AcDbCircle
 10
237.9795856209
 20
151.3988881906
 30
0.0
 40
1.537021907911595
100
AcDbArc
 50
62.6096722366
 51
117.3903277634
  0
LINE
  5
1B8
330
1F
100
AcDbEntity
  8
0
  6
Continuous
 62
     7
370
    30
100
AcDbLine
 10
250.2125329354
 20
146.1098731642
 30
0.0
 11
238.6866924021
 21
152.7635992756
 31
0.0
  0
LINE
  5
1B9
330
1F
100
AcDbEntity
  8
0
  6
Continuous
 62
     7
370
    30
100
AcDbLine
 10
249.6468475105
 20
145.7833099195
 30
0.0
 11
250.2125329354
 21
146.1098731642
 31
0.0
  0
LINE
  5
1BA
330
1F
100
AcDbEntity
  8
0
  6
Continuous
 62
     7
370
    30
100
AcDbLine
 10
238.3331390115
 20
152.3145748141
 30
0.0
 11
249.6468475105
 21
145.7833099195
 31
0.0
  0
ARC
  5
1BB
330
1F
100
AcDbEntity
  8
0
  6
Continuous
 62
     7
370
    30
100
AcDbCircle
 10
237.9795856209
 20
151.6322192716
 30
0.0
 40
0.7685109539558735
100
AcDbArc
 50
62.6096722366
 51
117.3903277634
  0
LINE
  5
1BC
330
1F
100
AcDbEntity
  8
0
  6
Continuous
 62
     7
370
    30
100
AcDbLine
 10
235.0097371399
 20
150.8042198072
 30
0.0
 11
237.6260322303
 21
152.3145748141
 31
0.0
  0
ARC
  5
1BD
330
1F
100
AcDbEntity
  8
0
  6
Continuous
 62
     7
370
    30
100
AcDbCircle
 10
234.3026303587
 20
152.1689308921
 30
0.0
 40
1.537021907911317
100
AcDbArc
 50
242.6096722366
 51
297.3903277634
  0
LINE
  5
1BE
330
1F
100
AcDbEntity
  8
0
  6
Continuous
 62
     7
370
    30
100
AcDbLine
 10
219.4533879538
 20
158.9683009254
 30
0.0
 11
233.5955235775
 21
150.8042198072
 31
0.0
  0
ARC
  5
1BF
330
1F
100
AcDbEntity
  8
0
  6
Continuous
 62
     7
370
    30
100
AcDbCircle
 10
219.6083149806
 20
159.3765049813
 30
0.0
 40
0.436615316834242
100
AcDbArc
 50
110.7834207995
 51
249.2165792005
  0
LINE
  5
1C0
330
1F
100
AcDbEntity
  8
0
  6
Continuous
 62
     7
370
    30
100
AcDbLine
 10
222.0696830442
 20
161.2950640441
 30
0.0
 11
219.4533879538
 21
159.7847090372
 31
0.0
  0
ARC
  5
1C1
330
1F
100
AcDbEntity
  8
0
  6
Continuous
 62
     7
370
    30
100
AcDbCircle
 10
221.9922195308
 20
161.4991660721
 30
0.0
 40
0.218307658417066
100
AcDbArc
 50
290.7834207995
 51
69.2165792005
  0
LINE
  5
1C2
330
1F
100
AcDbEntity
  8
0
  6
Continuous
 62
     7
370
    30
100
AcDbLine
 10
210.7559745452
 20
168.2345329946
 30
0.0
 11
222.0696830442
 21
161.7032681
 31
0.0
  0
LINE
  5
1C3
330
1F
100
AcDbEntity
  8
0
  6
Continuous
 62
     7
370
    30
100
AcDbLine
 10
211.3216599702
 20
168.5610962393
 30
0.0
 11
210.7559745452
 21
168.2345329946
 31
0.0
  0
LINE
  5
1C4
330
1F
100
AcDbEntity
  8
0
  6
Continuous
 62
     7
370
    30
100
AcDbLine
 10
222.8475005035
 20
161.907370128
 30
0.0
 11
211.3216599702
 21
168.5610962393
 31
0.0
  0
ARC
  5
1C5
330
1F
100
AcDbEntity
  8
0
  6
Continuous
 62
     7
370
    30
100
AcDbCircle
 10
248.5563142951
 20
143.5206617241
 30
0.0
 40
3.073609615144235
100
AcDbArc
 50
2.6054784857
 51
57.39452166
  0
LINE
  5
1C6
330
1F
100
AcDbEntity
  8
0
  6
Continuous
 62
     7
370
    30
100
AcDbLine
 10
251.6267464978
 20
143.6603834286
 30
0.0
 11
251.0610610729
 21
143.3338201839
 31
0.0
  0
ARC
  5
1C7
330
1F
100
AcDbEntity
  8
0
  6
Continuous
 62
     7
370
    30
100
AcDbCircle
 10
247.9906288701
 20
143.1940984794
 30
0.0
 40
3.073609615144405
100
AcDbArc
 50
2.6054784857
 51
57.39452166
  0
ARC
  5
1C8
330
1F
100
AcDbEntity
  8
0
  6
Continuous
 62
     7
370
    30
100
AcDbCircle
 10
250.198912338
 20
135.1918658336
 30
0.0
 40
0.8734183948570242
100
AcDbArc
 50
230.7967147643
 51
9.2140369905
  0
LINE
  5
1C9
330
1F
100
AcDbEntity
  8
0
  6
Continuous
 62
     7
370
    30
100
AcDbLine
 10
247.1366184373
 20
135.9641711139
 30
0.0
 11
249.6468475105
 21
134.5150467154
 31
0.0
  0
LINE
  5
1CA
330
1F
100
AcDbEntity
  8
0
  6
Continuous
 62
     7
370
    30
100
AcDbLine
 10
251.0610610729
 20
143.3338201839
 30
0.0
 11
251.0610610729
 21
135.3317202274
 31
0.0
  0
LINE
  5
1CB
330
1F
100
AcDbEntity
  8
0
  6
Continuous
 62
     7
370
    30
100
AcDbLine
 10
251.0610610729
 20
135.3317202274
 30
0.0
 11
251.6267464978
 21
135.6582834721
 31
0.0
  0
LINE
  5
1CC
330
1F
100
AcDbEntity
  8
0
  6
Continuous
 62
     7
370
    30
100
AcDbLine
 10
251.6267464978
 20
143.6603834286
 30
0.0
 11
251.6267464978
 21
135.6582834721
 31
0.0
  0
ARC
  5
1CD
330
1F
100
AcDbEntity
  8
0
  6
Continuous
 62
     7
370
    30
100
AcDbCircle
 10
250.6753753858
 20
135.537155415
 30
0.0
 40
0.9590510929637761
100
AcDbArc
 50
304.0563508365
 51
7.2558295569
  0
ARC
  5
1CE
330
1F
100
AcDbEntity
  8
0
  6
Continuous
 62
     7
370
    30
100
AcDbCircle
 10
210.2039097177
 20
167.5577138764
 30
0.0
 40
0.8734183948569764
100
AcDbArc
 50
50.7967147643
 51
189.2140369905
  0
LINE
  5
1CF
330
1F
100
AcDbEntity
  8
0
  6
Continuous
 62
     7
370
    30
100
AcDbLine
 10
209.3417609828
 20
167.4178594826
 30
0.0
 11
209.3417609828
 21
164.1933261111
 31
0.0
  0
ARC
  5
1D0
330
1F
100
AcDbEntity
  8
0
  6
Continuous
 62
     7
370
    30
100
AcDbCircle
 10
210.7358198605
 20
167.7433335811
 30
0.0
 40
1.005954471803666
100
AcDbArc
 50
54.3824225248
 51
114.3071190461
  0
LINE
  5
1D1
330
1F
100
AcDbEntity
  8
0
  6
Continuous
 62
     7
370
    30
100
AcDbLine
 10
242.8939777501
 20
139.9255949872
 30
0.0
 11
242.8939777501
 21
123.5947787494
 31
0.0
  0
LINE
  5
1D2
330
1F
100
AcDbEntity
  8
0
  6
Continuous
 62
     7
370
    30
100
AcDbLine
 10
242.8939777501
 20
123.5947787494
 30
0.0
 11
241.4797641878
 21
123.5947787494
 31
0.0
  0
LINE
  5
1D3
330
1F
100
AcDbEntity
  8
0
  6
Continuous
 62
     7
370
    30
100
AcDbLine
 10
241.4797641878
 20
123.5947787494
 30
0.0
 11
241.4797641878
 21
139.9255949872
 31
0.0
  0
LINE
  5
1D4
330
1F
100
AcDbEntity
  8
0
  6
Continuous
 62
     7
370
    30
100
AcDbLine
 10
241.4797641878
 20
139.9255949872
 30
0.0
 11
242.8939777501
 21
139.9255949872
 31
0.0
  0
LINE
  5
1D5
330
1F
100
AcDbEntity
  8
0
  6
Continuous
 62
     7
370
    30
100
AcDbLine
 10
247.1366184373
 20
142.3748193226
 30
0.0
 11
204.7102115661
 21
166.8670626773
 31
0.0
  0
LINE
  5
1D6
330
1F
100
AcDbEntity
  8
0
  6
Continuous
 62
     7
370
    30
100
AcDbLine
 10
247.1366184373
 20
142.3748193226
 30
0.0
 11
242.8939777501
 21
139.9255949872
 31
0.0
  0
LINE
  5
1D7
330
1F
100
AcDbEntity
  8
0
  6
Continuous
 62
     7
370
    30
100
AcDbLine
 10
241.4797641878
 20
139.9255949872
 30
0.0
 11
200.467570879
 21
163.60143023
 31
0.0
  0
LINE
  5
1D8
330
1F
100
AcDbEntity
  8
0
  6
Continuous
 62
     7
370
    30
100
AcDbLine
 10
200.467570879
 20
164.4178383418
 30
0.0
 11
200.467570879
 21
163.60143023
 31
0.0
  0
LINE
  5
1D9
330
1F
100
AcDbEntity
  8
0
  6
Continuous
 62
     7
370
    30
100
AcDbLine
 10
204.7102115661
 20
166.8670626773
 30
0.0
 11
200.467570879
 21
164.4178383418
 31
0.0
  0
LINE
  5
1DA
330
1F
100
AcDbEntity
  8
0
  6
Continuous
 62
     7
370
    30
100
AcDbLine
 10
247.1366184373
 20
130.9432479562
 30
0.0
 11
247.1366184373
 21
142.3748193226
 31
0.0
  0
LINE
  5
1DB
330
1F
100
AcDbEntity
  8
0
  6
Continuous
 62
     7
370
    30
100
AcDbLine
 10
261.278754061
 20
139.1073290744
 30
0.0
 11
247.1366184373
 21
130.9432479562
 31
0.0
  0
LINE
  5
1DC
330
1F
100
AcDbEntity
  8
0
  6
Continuous
 62
     7
370
    30
100
AcDbLine
 10
261.278754061
 20
150.5389004408
 30
0.0
 11
261.278754061
 21
139.1073290744
 31
0.0
  0
LINE
  5
1DD
330
1F
100
AcDbEntity
  8
0
  6
Continuous
 62
     7
370
    30
100
AcDbLine
 10
262.6929676234
 20
151.3553085527
 30
0.0
 11
261.278754061
 21
150.5389004408
 31
0.0
  0
LINE
  5
1DE
330
1F
100
AcDbEntity
  8
0
  6
Continuous
 62
     7
370
    30
100
AcDbLine
 10
262.6929676234
 20
135.024492315
 30
0.0
 11
262.6929676234
 21
151.3553085527
 31
0.0
  0
LINE
  5
1DF
330
1F
100
AcDbEntity
  8
0
  6
Continuous
 62
     7
370
    30
100
AcDbLine
 10
242.8939777501
 20
123.5947787494
 30
0.0
 11
262.6929676234
 21
135.024492315
 31
0.0
  0
LINE
  5
1E0
330
1F
100
AcDbEntity
  8
0
  6
Continuous
 62
     7
370
    30
100
AcDbLine
 10
241.4797641878
 20
123.5947787494
 30
0.0
 11
214.7800290568
 21
139.0082077565
 31
0.0
  0
LINE
  5
1E1
330
1F
100
AcDbEntity
  8
0
  6
Continuous
 62
     7
370
    30
100
AcDbLine
 10
208.779541413
 20
142.4722155398
 30
0.0
 11
200.467570879
 21
147.2706139923
 31
0.0
  0
LINE
  5
1E2
330
1F
100
AcDbEntity
  8
0
  6
Continuous
 62
     7
370
    30
100
AcDbLine
 10
200.467570879
 20
163.60143023
 30
0.0
 11
200.467570879
 21
147.2706139923
 31
0.0
  0
LINE
  5
1E3
330
1F
100
AcDbEntity
  8
0
  6
Continuous
 62
     7
370
    30
100
AcDbLine
 10
261.278754061
 20
139.1073290744
 30
0.0
 11
251.3177112267
 21
144.8577167023
 31
0.0
  0
LINE
  5
1E4
330
1F
100
AcDbEntity
  8
0
  6
Continuous
 62
     7
370
    30
100
AcDbLine
 10
237.4697010283
 20
152.8520028266
 30
0.0
 11
223.1403937223
 21
161.1241358571
 31
0.0
  0
LINE
  5
1E5
330
1F
100
AcDbEntity
  8
0
  6
Continuous
 62
     7
370
    30
100
AcDbLine
 10
261.278754061
 20
150.5389004408
 30
0.0
 11
218.8523471898
 21
175.0311437955
 31
0.0
  0
LINE
  5
1E6
330
1F
100
AcDbEntity
  8
0
  6
Continuous
 62
     7
370
    30
100
AcDbLine
 10
218.8523471898
 20
175.0311437955
 30
0.0
 11
218.8523471898
 21
164.2137230439
 31
0.0
  0
LINE
  5
1E7
330
1F
100
AcDbEntity
  8
0
  6
Continuous
 62
     7
370
    30
100
AcDbLine
 10
262.6929676234
 20
151.3553085527
 30
0.0
 11
262.6929676234
 21
152.1717166645
 31
0.0
  0
LINE
  5
1E8
330
1F
100
AcDbEntity
  8
0
  6
Continuous
 62
     7
370
    30
100
AcDbLine
 10
220.2665607522
 20
175.8475519073
 30
0.0
 11
218.8523471898
 21
175.0311437955
 31
0.0
  0
LINE
  5
1E9
330
1F
100
AcDbEntity
  8
0
  6
Continuous
 62
     7
370
    30
100
AcDbLine
 10
221.6807743145
 20
175.8475519073
 30
0.0
 11
220.2665607522
 21
175.8475519073
 31
0.0
  0
LINE
  5
1EA
330
1F
100
AcDbEntity
  8
0
  6
Continuous
 62
     7
370
    30
100
AcDbLine
 10
262.6929676234
 20
152.1717166645
 30
0.0
 11
221.6807743145
 21
175.8475519073
 31
0.0
  0
LWPOLYLINE
  5
1EB
330
1F
100
AcDbEntity
  8
0
  6
Continuous
 62
     8
370
    30
100
AcDbPolyline
 90
       14
 70
   128
 43
0.0
 10
205.4500904326
 20
138.5209029573
 10
205.8647857389
 20
137.9498405795
 10
206.2343852621
 20
137.3400363086
 10
206.5513650218
 20
136.7039040012
 10
206.8092722242
 20
136.0543934764
 10
207.0028566224
 20
135.4047268957
 10
207.1281773963
 20
134.7681295969
 10
207.1826833763
 20
134.1575608655
 10
207.1652649778
 20
133.5854501199
 10
207.0762767893
 20
133.0634438852
 10
206.9175303536
 20
132.6021687029
 10
206.6922572903
 20
132.2110148056
 10
206.4050435094
 20
131.8979449586
 10
206.1569973708
 20
131.7209261032
  0
LWPOLYLINE
  5
1EC
330
1F
100
AcDbEntity
  8
0
  6
Continuous
 62
     8
370
    30
100
AcDbPolyline
 90
       11
 70
   128
 43
0.0
 10
201.1514482083
 20
140.3779482645
 10
201.2373669329
 20
140.4241227498
 10
201.6297797065
 20
140.5636242044
 10
202.0633092072
 20
140.611174669
 10
202.5291300244
 20
140.565806153
 10
203.0177593897
 20
140.4284422288
 10
203.5192502182
 20
140.2018792297
 10
204.023393603
 20
139.8907293249
 10
204.5199266384
 20
139.5013266293
 10
204.9987413438
 20
139.0415982588
 10
205.4500904326
 20
138.5209029573
  0
LINE
  5
1ED
330
1F
100
AcDbEntity
  8
0
  6
Continuous
 62
     8
370
    30
100
AcDbLine
 10
238.3331390115
 20
152.3145748141
 30
0.0
 11
238.3331390115
 21
147.4569598187
 31
0.0
  0
LINE
  5
1EE
330
1F
100
AcDbEntity
  8
0
  6
Continuous
 62
     8
370
    30
100
AcDbLine
 10
233.5955235775
 20
150.8042198072
 30
0.0
 11
233.5955235775
 21
150.1919269933
 31
0.0
  0
LINE
  5
1EF
330
1F
100
AcDbEntity
  8
0
  6
Continuous
 62
     8
370
    30
100
AcDbLine
 10
235.0097371399
 20
150.8042198072
 30
0.0
 11
235.0097371399
 21
149.3755188815
 31
0.0
  0
LINE
  5
1F0
330
1F
100
AcDbEntity
  8
0
  6
Continuous
 62
     8
370
    30
100
AcDbLine
 10
237.6260322303
 20
152.3145748141
 30
0.0
 11
237.6260322303
 21
147.8651638746
 31
0.0
  0
LINE
  5
1F1
330
1F
100
AcDbEntity
  8
0
  6
Continuous
 62
     8
370
    30
100
AcDbLine
 10
219.4533879538
 20
158.9683009254
 30
0.0
 11
219.4533879538
 21
158.3560081115
 31
0.0
  0
LINE
  5
1F2
330
1F
100
AcDbEntity
  8
0
  6
Continuous
 62
     8
370
    30
100
AcDbLine
 10
220.2312054131
 20
159.5806070093
 30
0.0
 11
220.2312054131
 21
159.1724029534
 31
0.0
  0
LINE
  5
1F3
330
1F
100
AcDbEntity
  8
0
  6
Continuous
 62
     8
370
    30
100
AcDbLine
 10
222.8475005035
 20
161.0909620161
 30
0.0
 11
222.8475005035
 21
157.6620479465
 31
0.0
  0
LINE
  5
1F4
330
1F
100
AcDbEntity
  8
0
  6
Continuous
 62
     8
370
    30
100
AcDbLine
 10
222.0696830442
 20
161.7032681
 30
0.0
 11
222.0696830442
 21
161.2950640441
 31
0.0
  0
ARC
  5
1F5
330
1F
100
AcDbEntity
  8
0
  6
Continuous
 62
     7
370
    30
100
AcDbCircle
 10
149.1361256653
 20
64.5800000153
 30
0.0
 40
1.0
100
AcDbArc
 50
180.0
 51
270.0
  0
ARC
  5
1F6
330
1F
100
AcDbEntity
  8
0
  6
Continuous
 62
     7
370
    30
100
AcDbCircle
 10
157.1361256653
 20
64.5800000153
 30
0.0
 40
1.0
100
AcDbArc
 50
270.0
 51
0.0
  0
LINE
  5
1F7
330
1F
100
AcDbEntity
  8
0
  6
Continuous
 62
     7
370
    30
100
AcDbLine
 10
148.1361256653
 20
68.6800000153
 30
0.0
 11
148.1361256653
 21
64.5800000153
 31
0.0
  0
LINE
  5
1F8
330
1F
100
AcDbEntity
  8
0
  6
Continuous
 62
     7
370
    30
100
AcDbLine
 10
158.1361256653
 20
64.5800000153
 30
0.0
 11
158.1361256653
 21
68.6800000153
 31
0.0
  0
LINE
  5
1F9
330
1F
100
AcDbEntity
  8
0
  6
Continuous
 62
     7
370
    30
100
AcDbLine
 10
158.1361256653
 20
68.6800000153
 30
0.0
 11
158.0361256654
 21
69.5800000153
 31
0.0
  0
LINE
  5
1FA
330
1F
100
AcDbEntity
  8
0
  6
Continuous
 62
     7
370
    30
100
AcDbLine
 10
148.2361256653
 20
69.5800000153
 30
0.0
 11
148.1361256654
 21
68.6800000153
 31
0.0
  0
LINE
  5
1FB
330
1F
100
AcDbEntity
  8
0
  6
Continuous
 62
     7
370
    30
100
AcDbLine
 10
150.1361256653
 20
89.0800000155
 30
0.0
 11
150.1361256653
 21
69.5800000153
 31
0.0
  0
LINE
  5
1FC
330
1F
100
AcDbEntity
  8
0
  6
Continuous
 62
     7
370
    30
100
AcDbLine
 10
156.1361256653
 20
69.5800000153
 30
0.0
 11
156.1361256653
 21
89.0800000155
 31
0.0
  0
LINE
  5
1FD
330
1F
100
AcDbEntity
  8
0
  6
Continuous
 62
     7
370
    30
100
AcDbLine
 10
155.6361256653
 20
96.8800000155
 30
0.0
 11
155.6361256653
 21
96.9300000155
 31
0.0
  0
LINE
  5
1FE
330
1F
100
AcDbEntity
  8
0
  6
Continuous
 62
     7
370
    30
100
AcDbLine
 10
150.6361256653
 20
96.9300000155
 30
0.0
 11
150.6361256653
 21
96.8800000155
 31
0.0
  0
LINE
  5
1FF
330
1F
100
AcDbEntity
  8
0
  6
Continuous
 62
     7
370
    30
100
AcDbLine
 10
155.1361256653
 20
96.0800000155
 30
0.0
 11
155.1361256653
 21
96.8800000155
 31
0.0
  0
LINE
  5
200
330
1F
100
AcDbEntity
  8
0
  6
Continuous
 62
     7
370
    30
100
AcDbLine
 10
151.1361256653
 20
96.8800000155
 30
0.0
 11
151.1361256653
 21
96.0800000155
 31
0.0
  0
SPLINE
  5
201
330
1F
100
AcDbEntity
  8
0
  6
Continuous
 62
     7
370
    30
100
AcDbSpline
210
0.0
220
0.0
230
1.0
 70
    24
 71
     3
 72
    24
 73
    20
 74
     0
 42
0.000000001
 43
0.00000001
 40
0.0
 40
0.0
 40
0.0
 40
0.0
 40
0.0483651826416068
 40
0.0963331752781988
 40
0.1446748752716189
 40
0.2221409085125518
 40
0.30125088212403
 40
0.3803608557355082
 40
0.4191183271034884
 40
0.4579263507985558
 40
0.5301793623952529
 40
0.6024832935498997
 40
0.6508150146811548
 40
0.6987830073177467
 40
0.7471598304490822
 40
0.8246258636900151
 40
0.9037358373014935
 40
0.9828458109129717
 40
1.0
 40
1.0
 40
1.0
 40
1.0
 10
149.6936969095486
 20
63.58000001525293
 30
0.0
 10
149.7843970382189
 20
63.58000001525293
 30
0.0
 10
149.9650524377385
 20
63.58000001525293
 30
0.0
 10
150.3012824981626
 20
63.58000001525293
 30
0.0
 10
150.7545422437295
 20
63.58000001525293
 30
0.0
 10
151.3624560279352
 20
63.58000001525293
 30
0.0
 10
152.1351815268351
 20
63.58000001525293
 30
0.0
 10
152.816904119876
 20
63.58000001525293
 30
0.0
 10
153.361679386169
 20
63.58000001525293
 30
0.0
 10
153.8796183102292
 20
63.58000001525293
 30
0.0
 10
154.5005667318273
 20
63.58000001525293
 30
0.0
 10
155.1094652312195
 20
63.58000001525293
 30
0.0
 10
155.5952634768167
 20
63.58000001525293
 30
0.0
 10
155.9730391451727
 20
63.58000001525292
 30
0.0
 10
156.3722454214594
 20
63.58000001525295
 30
0.0
 10
156.7535174422258
 20
63.58000001525293
 30
0.0
 10
157.0346692615855
 20
63.58000001525293
 30
0.0
 10
157.1376983673778
 20
63.58000001525291
 30
0.0
 10
157.1321149126505
 20
63.58000001525293
 30
0.0
 10
157.1311199459311
 20
63.58000001525293
 30
0.0
  0
SPLINE
  5
202
330
1F
100
AcDbEntity
  8
0
  6
Continuous
 62
     7
370
    30
100
AcDbSpline
210
0.0
220
0.0
230
1.0
 70
    24
 71
     3
 72
    11
 73
     7
 74
     0
 42
0.000000001
 43
0.00000001
 40
0.0
 40
0.0
 40
0.0
 40
0.0
 40
0.1053974646512378
 40
0.2947329208276128
 40
0.6474309958776198
 40
1.0
 40
1.0
 40
1.0
 40
1.0
 10
149.1411313847252
 20
63.58000001525293
 30
0.0
 10
149.1403744868148
 20
63.58000001525293
 30
0.0
 10
149.1382579014433
 20
63.58000001525293
 30
0.0
 10
149.1945003345248
 20
63.58000001525293
 30
0.0
 10
149.343220059695
 20
63.58000001525293
 30
0.0
 10
149.5768855473043
 20
63.58000001525295
 30
0.0
 10
149.6936969095486
 20
63.58000001525293
 30
0.0
  0
LINE
  5
203
330
1F
100
AcDbEntity
  8
0
  6
Continuous
 62
     7
370
    30
100
AcDbLine
 10
148.8330897206
 20
68.6800000153
 30
0.0
 11
148.1361256653
 21
68.6800000153
 31
0.0
  0
LINE
  5
204
330
1F
100
AcDbEntity
  8
0
  6
Continuous
 62
     7
370
    30
100
AcDbLine
 10
158.1361256653
 20
68.6800000153
 30
0.0
 11
148.8330897206
 21
68.6800000153
 31
0.0
  0
LINE
  5
205
330
1F
100
AcDbEntity
  8
0
  6
Continuous
 62
     7
370
    30
100
AcDbLine
 10
148.9191504395
 20
69.5800000153
 30
0.0
 11
158.0361256654
 21
69.5800000153
 31
0.0
  0
LINE
  5
206
330
1F
100
AcDbEntity
  8
0
  6
Continuous
 62
     7
370
    30
100
AcDbLine
 10
148.2361256653
 20
69.5800000153
 30
0.0
 11
148.9191504395
 21
69.5800000153
 31
0.0
  0
LINE
  5
207
330
1F
100
AcDbEntity
  8
0
  6
Continuous
 62
     7
370
    30
100
AcDbLine
 10
154.4092990293
 20
96.8800000155
 30
0.0
 11
150.6361256653
 21
96.8800000155
 31
0.0
  0
LINE
  5
208
330
1F
100
AcDbEntity
  8
0
  6
Continuous
 62
     7
370
    30
100
AcDbLine
 10
155.6361256653
 20
96.8800000155
 30
0.0
 11
154.4092990293
 21
96.8800000155
 31
0.0
  0
LINE
  5
209
330
1F
100
AcDbEntity
  8
0
  6
Continuous
 62
     7
370
    30
100
AcDbLine
 10
158.0361256653
 20
102.1300000155
 30
0.0
 11
158.0361256653
 21
102.9300000155
 31
0.0
  0
LINE
  5
20A
330
1F
100
AcDbEntity
  8
0
  6
Continuous
 62
     7
370
    30
100
AcDbLine
 10
158.0361256653
 20
102.9300000155
 30
0.0
 11
160.0361256653
 21
102.9300000155
 31
0.0
  0
LINE
  5
20B
330
1F
100
AcDbEntity
  8
0
  6
Continuous
 62
     7
370
    30
100
AcDbLine
 10
160.0361256653
 20
102.9300000155
 30
0.0
 11
160.0361256653
 21
102.1300000155
 31
0.0
  0
LINE
  5
20C
330
1F
100
AcDbEntity
  8
0
  6
Continuous
 62
     7
370
    30
100
AcDbLine
 10
160.0361256653
 20
102.1300000155
 30
0.0
 11
158.0361256653
 21
102.1300000155
 31
0.0
  0
LINE
  5
20D
330
1F
100
AcDbEntity
  8
0
  6
Continuous
 62
     7
370
    30
100
AcDbLine
 10
148.2361256653
 20
102.9300000155
 30
0.0
 11
148.2361256653
 21
102.1300000155
 31
0.0
  0
LINE
  5
20E
330
1F
100
AcDbEntity
  8
0
  6
Continuous
 62
     7
370
    30
100
AcDbLine
 10
148.2361256653
 20
102.9300000155
 30
0.0
 11
158.0361256653
 21
102.9300000155
 31
0.0
  0
LINE
  5
20F
330
1F
100
AcDbEntity
  8
0
  6
Continuous
 62
     7
370
    30
100
AcDbLine
 10
148.2361256653
 20
102.1300000155
 30
0.0
 11
158.0361256653
 21
102.1300000155
 31
0.0
  0
LINE
  5
210
330
1F
100
AcDbEntity
  8
0
  6
Continuous
 62
     7
370
    30
100
AcDbLine
 10
146.2361256653
 20
102.1300000155
 30
0.0
 11
146.2361256653
 21
102.9300000155
 31
0.0
  0
LINE
  5
211
330
1F
100
AcDbEntity
  8
0
  6
Continuous
 62
     7
370
    30
100
AcDbLine
 10
146.2361256653
 20
102.9300000155
 30
0.0
 11
148.2361256653
 21
102.9300000155
 31
0.0
  0
LINE
  5
212
330
1F
100
AcDbEntity
  8
0
  6
Continuous
 62
     7
370
    30
100
AcDbLine
 10
148.2361256653
 20
102.1300000155
 30
0.0
 11
146.2361256653
 21
102.1300000155
 31
0.0
  0
LINE
  5
213
330
1F
100
AcDbEntity
  8
0
  6
Continuous
 62
     7
370
    30
100
AcDbLine
 10
146.2361256653
 20
101.6300000155
 30
0.0
 11
160.0361256653
 21
101.6300000155
 31
0.0
  0
LINE
  5
214
330
1F
100
AcDbEntity
  8
0
  6
Continuous
 62
     7
370
    30
100
AcDbLine
 10
146.2361256653
 20
101.6300000155
 30
0.0
 11
146.2361256653
 21
102.1300000155
 31
0.0
  0
LINE
  5
215
330
1F
100
AcDbEntity
  8
0
  6
Continuous
 62
     7
370
    30
100
AcDbLine
 10
160.0361256653
 20
101.6300000155
 30
0.0
 11
160.0361256653
 21
102.1300000155
 31
0.0
  0
LINE
  5
216
330
1F
100
AcDbEntity
  8
0
  6
Continuous
 62
     7
370
    30
100
AcDbLine
 10
146.2361256653
 20
97.9300000155
 30
0.0
 11
160.0361256653
 21
97.9300000155
 31
0.0
  0
LINE
  5
217
330
1F
100
AcDbEntity
  8
0
  6
Continuous
 62
     7
370
    30
100
AcDbLine
 10
146.2361256653
 20
97.9300000155
 30
0.0
 11
146.2361256653
 21
101.6300000155
 31
0.0
  0
LINE
  5
218
330
1F
100
AcDbEntity
  8
0
  6
Continuous
 62
     7
370
    30
100
AcDbLine
 10
160.0361256653
 20
97.9300000155
 30
0.0
 11
160.0361256653
 21
101.6300000155
 31
0.0
  0
LINE
  5
219
330
1F
100
AcDbEntity
  8
0
  6
Continuous
 62
     7
370
    30
100
AcDbLine
 10
146.2361256653
 20
96.9300000155
 30
0.0
 11
160.0361256653
 21
96.9300000155
 31
0.0
  0
LINE
  5
21A
330
1F
100
AcDbEntity
  8
0
  6
Continuous
 62
     7
370
    30
100
AcDbLine
 10
146.2361256653
 20
96.9300000155
 30
0.0
 11
146.2361256653
 21
97.9300000155
 31
0.0
  0
LINE
  5
21B
330
1F
100
AcDbEntity
  8
0
  6
Continuous
 62
     7
370
    30
100
AcDbLine
 10
160.0361256653
 20
96.9300000155
 30
0.0
 11
160.0361256653
 21
97.9300000155
 31
0.0
  0
LINE
  5
21C
330
1F
100
AcDbEntity
  8
0
  6
Continuous
 62
     7
370
    30
100
AcDbLine
 10
146.1361256653
 20
90.0800000155
 30
0.0
 11
166.1361256653
 21
90.0800000155
 31
0.0
  0
LINE
  5
21D
330
1F
100
AcDbEntity
  8
0
  6
Continuous
 62
     7
370
    30
100
AcDbLine
 10
166.1361256653
 20
90.0800000155
 30
0.0
 11
166.1361256653
 21
89.0800000155
 31
0.0
  0
LINE
  5
21E
330
1F
100
AcDbEntity
  8
0
  6
Continuous
 62
     7
370
    30
100
AcDbLine
 10
166.1361256653
 20
89.0800000155
 30
0.0
 11
146.1361256653
 21
89.0800000155
 31
0.0
  0
LINE
  5
21F
330
1F
100
AcDbEntity
  8
0
  6
Continuous
 62
     7
370
    30
100
AcDbLine
 10
146.1361256653
 20
89.0800000155
 30
0.0
 11
146.1361256653
 21
90.0800000155
 31
0.0
  0
LINE
  5
220
330
1F
100
AcDbEntity
  8
0
  6
Continuous
 62
     7
370
    30
100
AcDbLine
 10
146.1361256653
 20
96.0800000155
 30
0.0
 11
146.1361256653
 21
90.0800000155
 31
0.0
  0
LINE
  5
221
330
1F
100
AcDbEntity
  8
0
  6
Continuous
 62
     7
370
    30
100
AcDbLine
 10
160.1361256653
 20
96.0800000155
 30
0.0
 11
146.1361256653
 21
96.0800000155
 31
0.0
  0
LINE
  5
222
330
1F
100
AcDbEntity
  8
0
  6
Continuous
 62
     7
370
    30
100
AcDbLine
 10
160.1361256653
 20
116.0800000155
 30
0.0
 11
160.1361256653
 21
96.0800000155
 31
0.0
  0
LINE
  5
223
330
1F
100
AcDbEntity
  8
0
  6
Continuous
 62
     7
370
    30
100
AcDbLine
 10
146.1361256653
 20
116.0800000155
 30
0.0
 11
160.1361256653
 21
116.0800000155
 31
0.0
  0
LINE
  5
224
330
1F
100
AcDbEntity
  8
0
  6
Continuous
 62
     7
370
    30
100
AcDbLine
 10
146.1361256653
 20
118.0800000155
 30
0.0
 11
146.1361256653
 21
116.0800000155
 31
0.0
  0
LINE
  5
225
330
1F
100
AcDbEntity
  8
0
  6
Continuous
 62
     7
370
    30
100
AcDbLine
 10
166.1361256653
 20
118.0800000155
 30
0.0
 11
146.1361256653
 21
118.0800000155
 31
0.0
  0
LINE
  5
226
330
1F
100
AcDbEntity
  8
0
  6
Continuous
 62
     7
370
    30
100
AcDbLine
 10
166.1361256653
 20
90.0800000155
 30
0.0
 11
166.1361256653
 21
118.0800000155
 31
0.0
  0
LINE
  5
227
330
1F
100
AcDbEntity
  8
0
  6
Continuous
 62
     7
370
    30
100
AcDbLine
 10
146.1361256653
 20
118.0800000155
 30
0.0
 11
146.1361256653
 21
119.0800000155
 31
0.0
  0
LINE
  5
228
330
1F
100
AcDbEntity
  8
0
  6
Continuous
 62
     7
370
    30
100
AcDbLine
 10
146.1361256653
 20
119.0800000155
 30
0.0
 11
166.1361256653
 21
119.0800000155
 31
0.0
  0
LINE
  5
229
330
1F
100
AcDbEntity
  8
0
  6
Continuous
 62
     7
370
    30
100
AcDbLine
 10
166.1361256653
 20
119.0800000155
 30
0.0
 11
166.1361256653
 21
118.0800000155
 31
0.0
  0
LINE
  5
22A
330
1F
100
AcDbEntity
  8
0
  6
Continuous
 62
     8
370
    30
100
AcDbLine
 10
148.8330897206
 20
64.5800000153
 30
0.0
 11
158.1361256653
 21
64.5800000153
 31
0.0
  0
LINE
  5
22B
330
1F
100
AcDbEntity
  8
0
  6
Continuous
 62
     8
370
    30
100
AcDbLine
 10
148.1361256653
 20
64.5800000153
 30
0.0
 11
148.8330897206
 21
64.5800000153
 31
0.0
  0
LINE
  5
22C
330
1F
100
AcDbEntity
  8
SLD-0
 62
     7
370
     0
100
AcDbLine
 10
150.1361256653
 20
69.5800000153
 30
0.0
 11
156.1361256653
 21
69.5800000153
 31
0.0
  0
LINE
  5
22D
330
1F
100
AcDbEntity
  8
SLD-0
 62
     7
370
     0
100
AcDbLine
 10
150.1361256653
 20
69.5800000153
 30
0.0
 11
150.1361256653
 21
89.0800000155
 31
0.0
  0
LINE
  5
22E
330
1F
100
AcDbEntity
  8
SLD-0
 62
     7
370
     0
100
AcDbLine
 10
150.1361256653
 20
89.0800000155
 30
0.0
 11
156.1361256653
 21
89.0800000155
 31
0.0
  0
LINE
  5
22F
330
1F
100
AcDbEntity
  8
SLD-0
 62
     7
370
     0
100
AcDbLine
 10
156.1361256653
 20
69.5800000153
 30
0.0
 11
156.1361256653
 21
89.0800000155
 31
0.0
  0
HATCH
  5
230
330
1F
100
AcDbEntity
  8
0
  6
Continuous
 62
     7
100
AcDbHatch
 10
0.0
 20
0.0
 30
0.0
210
0.0
220
0.0
230
1.0
  2
LINE
 70
     0
 71
     0
 91
        1
 92
        0
 93
        4
 72
     1
 10
150.1361256653283
 20
69.58000001525288
 11
156.1361256653282
 21
69.58000001525288
 72
     1
 10
156.1361256653282
 20
69.58000001525288
 11
156.1361256653282
 21
89.08000001553847
 72
     1
 10
156.1361256653282
 20
89.08000001553847
 11
150.1361256653283
 21
89.08000001553847
 72
     1
 10
150.1361256653283
 20
89.08000001553847
 11
150.1361256653283
 21
69.58000001525288
 97
        0
 75
     0
 76
     1
 52
0.0
 41
0.2
 77
     0
 78
     1
 53
0.0
 43
0.0
 44
0.0
 45
0.0
 46
0.635
 79
     0
 98
        1
 10
0.0
 20
0.0
  0
DIMENSION
  5
231
330
1F
100
AcDbEntity
  8
SLD-0
 62
     7
100
AcDbDimension
  2
_D_4
 10
153.1361256653
 20
122.3607523748
 30
0.0
 11
149.6361256653
 21
122.3607523748
 31
0.0
 70
   160
  1
<>
 71
     2
 42
-1.0
  3
SLDDIMSTYLE0
100
AcDbAlignedDimension
 13
146.1361256653
 23
96.0800000155
 33
0.0
 14
153.1361256653
 24
101.5800000155
 34
0.0
 50
0.0
100
AcDbRotatedDimension
  0
DIMENSION
  5
23B
330
1F
100
AcDbEntity
  8
SLD-0
 62
     7
100
AcDbDimension
  2
_D_5
 10
146.1361256653
 20
128.5560125481
 30
0.0
 11
153.1361256653
 21
128.5560125481
 31
0.0
 70
   160
  1
<>
 71
     2
 42
-1.0
  3
SLDDIMSTYLE0
100
AcDbAlignedDimension
 13
160.1361256653
 23
116.0800000155
 33
0.0
 14
146.1361256653
 24
119.0800000155
 34
0.0
 50
0.0
100
AcDbRotatedDimension
  0
DIMENSION
  5
245
330
1F
100
AcDbEntity
  8
SLD-0
 62
     7
100
AcDbDimension
  2
_D_6
 10
166.1361256653
 20
134.1040067332
 30
0.0
 11
156.1361256653
 21
134.1040067332
 31
0.0
 70
   160
  1
<>
 71
     2
 42
-1.0
  3
SLDDIMSTYLE0
100
AcDbAlignedDimension
 13
146.1361256653
 23
119.0800000155
 33
0.0
 14
166.1361256653
 24
119.0800000155
 34
0.0
 50
0.0
100
AcDbRotatedDimension
  0
DIMENSION
  5
24F
330
1F
100
AcDbEntity
  8
SLD-0
 62
     7
100
AcDbDimension
  2
_D_7
 10
132.1361256653
 20
89.0800000155
 30
0.0
 11
132.1361256653
 21
104.0800000155
 31
0.0
 70
   160
  1
<>
 71
     2
 42
-1.0
  3
SLDDIMSTYLE0
100
AcDbAlignedDimension
 13
146.1361256653
 23
119.0800000155
 33
0.0
 14
146.1361256653
 24
89.0800000155
 34
0.0
 50
90.0
100
AcDbRotatedDimension
  0
DIMENSION
  5
259
330
1F
100
AcDbEntity
  8
SLD-0
 62
     7
100
AcDbDimension
  2
_D_8
 10
140.2028865948
 20
102.9300000155
 30
0.0
 11
140.2028865948
 21
109.5050000155
 31
0.0
 70
   160
  1
Max:<>
 71
     2
 42
-1.0
  3
SLDDIMSTYLE0
100
AcDbAlignedDimension
 13
146.1361256653
 23
116.0800000155
 33
0.0
 14
146.2361256653
 24
102.9300000155
 34
0.0
 50
90.0
100
AcDbRotatedDimension
  0
LINE
  5
264
330
1F
100
AcDbEntity
  8
SLD-0
  6
CENTERX2
 62
     7
370
     0
100
AcDbLine
 10
153.1361256653
 20
68.6800000153
 30
0.0
 11
153.1361256653
 21
69.5800000153
 31
0.0
  0
LINE
  5
265
330
1F
100
AcDbEntity
  8
SLD-0
  6
CENTERX2
 62
     7
370
     0
100
AcDbLine
 10
153.1361256653
 20
62.5800000153
 30
0.0
 11
153.1361256653
 21
68.6800000153
 31
0.0
  0
LINE
  5
266
330
1F
100
AcDbEntity
  8
SLD-0
  6
CENTERX2
 62
     7
370
     0
100
AcDbLine
 10
153.1361256653
 20
69.5800000153
 30
0.0
 11
153.1361256653
 21
101.5800000155
 31
0.0
  0
ENDSEC
  0
SECTION
  2
OBJECTS
  0
DICTIONARY
  5
C
330
0
100
AcDbDictionary
281
     1
  3
ACAD_GROUP
350
D
  3
ACAD_LAYOUT
350
1A
  3
ACAD_MLINESTYLE
350
17
  3
ACAD_PLOTSETTINGS
350
19
  3
ACAD_PLOTSTYLENAME
350
E
  3
ACAD_SCALELIST
350
47
  0
DICTIONARY
  5
D
102
{ACAD_REACTORS
330
C
102
}
330
C
100
AcDbDictionary
281
     1
  0
DICTIONARY
  5
1A
102
{ACAD_REACTORS
330
C
102
}
330
C
100
AcDbDictionary
281
     1
  3
Layout1
350
1E
  3
Layout2
350
26
  3
Model
350
22
  0
DICTIONARY
  5
17
102
{ACAD_REACTORS
330
C
102
}
330
C
100
AcDbDictionary
281
     1
  3
Standard
350
18
  0
DICTIONARY
  5
19
102
{ACAD_REACTORS
330
C
102
}
330
C
100
AcDbDictionary
281
     1
  0
ACDBDICTIONARYWDFLT
  5
E
102
{ACAD_REACTORS
330
C
102
}
330
C
100
AcDbDictionary
281
     1
  3
Normal
350
F
100
AcDbDictionaryWithDefault
340
F
  0
DICTIONARY
  5
47
102
{ACAD_REACTORS
330
C
102
}
330
C
100
AcDbDictionary
281
     1
  3
A0
350
48
  3
A1
350
49
  3
A2
350
4A
  3
A3
350
4B
  3
A4
350
4C
  3
A5
350
4D
  3
A6
350
4E
  3
A7
350
4F
  3
A8
350
50
  3
A9
350
51
  3
B0
350
52
  3
B1
350
53
  3
B2
350
54
  3
B3
350
55
  3
B4
350
56
  3
B5
350
57
  3
B6
350
58
  3
B7
350
59
  3
B8
350
5A
  3
B9
350
5B
  3
C0
350
5C
  3
C1
350
5D
  3
C2
350
5E
  3
C3
350
5F
  3
C4
350
60
  3
C5
350
61
  3
C6
350
62
  3
C7
350
63
  3
C8
350
64
  3
C9
350
65
  3
D0
350
66
  3
D1
350
67
  3
D2
350
68
  0
LAYOUT
  5
1E
102
{ACAD_REACTORS
330
1A
102
}
330
1A
100
AcDbPlotSettings
  1

  2
none_device
  4

  6

 40
0.0
 41
0.0
 42
0.0
 43
0.0
 44
0.0
 45
0.0
 46
0.0
 47
0.0
 48
0.0
 49
0.0
140
0.0
141
0.0
142
1.0
143
1.0
 70
   688
 72
     1
 73
     0
 74
     5
  7

 75
    16
147
1.0
148
0.0
149
0.0
100
AcDbLayout
  1
Layout1
 70
     1
 71
     1
 10
0.0
 20
0.0
 11
420.0
 21
297.0
 12
0.0
 22
0.0
 32
0.0
 14
1.0000000000E+20
 24
1.0000000000E+20
 34
1.0000000000E+20
 15
-1.0000000000E+20
 25
-1.0000000000E+20
 35
-1.0000000000E+20
146
0.0
 13
0.0
 23
0.0
 33
0.0
 16
1.0
 26
0.0
 36
0.0
 17
0.0
 27
1.0
 37
0.0
 76
     0
330
1B
  0
LAYOUT
  5
26
102
{ACAD_REACTORS
330
1A
102
}
330
1A
100
AcDbPlotSettings
  1

  2
none_device
  4

  6

 40
0.0
 41
0.0
 42
0.0
 43
0.0
 44
0.0
 45
0.0
 46
0.0
 47
0.0
 48
0.0
 49
0.0
140
0.0
141
0.0
142
1.0
143
1.0
 70
   688
 72
     1
 73
     0
 74
     5
  7

 75
    16
147
1.0
148
0.0
149
0.0
100
AcDbLayout
  1
Layout2
 70
     1
 71
     2
 10
0.0
 20
0.0
 11
0.0
 21
0.0
 12
0.0
 22
0.0
 32
0.0
 14
0.0
 24
0.0
 34
0.0
 15
0.0
 25
0.0
 35
0.0
146
0.0
 13
0.0
 23
0.0
 33
0.0
 16
1.0
 26
0.0
 36
0.0
 17
0.0
 27
1.0
 37
0.0
 76
     0
330
23
  0
LAYOUT
  5
22
102
{ACAD_REACTORS
330
1A
102
}
330
1A
100
AcDbPlotSettings
  1

  2
none_device
  4
Letter_(8.50_x_11.00_Inches)
  6

 40
6.35
 41
6.35
 42
6.35000508
 43
6.35000508
 44
215.9
 45
279.4
 46
0.0
 47
0.0
 48
0.0
 49
0.0
140
0.0
141
0.0
142
1.0
143
1.0
 70
  1712
 72
     1
 73
     0
 74
     0
  7

 75
     0
147
1.0
148
0.0
149
0.0
100
AcDbLayout
  1
Model
 70
     1
 71
     0
 10
0.0
 20
0.0
 11
297.0
 21
210.0
 12
0.0
 22
0.0
 32
0.0
 14
0.0
 24
0.0
 34
0.0
 15
297.0
 25
210.0
 35
0.0
146
0.0
 13
0.0
 23
0.0
 33
0.0
 16
1.0
 26
0.0
 36
0.0
 17
0.0
 27
1.0
 37
0.0
 76
     0
330
1F
331
29
  0
MLINESTYLE
  5
18
102
{ACAD_REACTORS
330
17
102
}
330
17
100
AcDbMlineStyle
  2
Standard
 70
     0
  3

 62
   256
 51
90.0
 52
90.0
 71
     2
 49
0.5
 62
   256
  6
BYLAYER
 49
-0.5
 62
   256
  6
BYLAYER
  0
ACDBPLACEHOLDER
  5
F
102
{ACAD_REACTORS
330
E
102
}
330
E
  0
SCALE
  5
48
102
{ACAD_REACTORS
330
47
102
}
330
47
100
AcDbScale
 70
     0
300
1:1
140
1.0
141
1.0
290
     1
  0
SCALE
  5
49
102
{ACAD_REACTORS
330
47
102
}
330
47
100
AcDbScale
 70
     0
300
1:2
140
1.0
141
2.0
290
     0
  0
SCALE
  5
4A
102
{ACAD_REACTORS
330
47
102
}
330
47
100
AcDbScale
 70
     0
300
1:4
140
1.0
141
4.0
290
     0
  0
SCALE
  5
4B
102
{ACAD_REACTORS
330
47
102
}
330
47
100
AcDbScale
 70
     0
300
1:5
140
1.0
141
5.0
290
     0
  0
SCALE
  5
4C
102
{ACAD_REACTORS
330
47
102
}
330
47
100
AcDbScale
 70
     0
300
1:8
140
1.0
141
8.0
290
     0
  0
SCALE
  5
4D
102
{ACAD_REACTORS
330
47
102
}
330
47
100
AcDbScale
 70
     0
300
1:10
140
1.0
141
10.0
290
     0
  0
SCALE
  5
4E
102
{ACAD_REACTORS
330
47
102
}
330
47
100
AcDbScale
 70
     0
300
1:16
140
1.0
141
16.0
290
     0
  0
SCALE
  5
4F
102
{ACAD_REACTORS
330
47
102
}
330
47
100
AcDbScale
 70
     0
300
1:20
140
1.0
141
20.0
290
     0
  0
SCALE
  5
50
102
{ACAD_REACTORS
330
47
102
}
330
47
100
AcDbScale
 70
     0
300
1:30
140
1.0
141
30.0
290
     0
  0
SCALE
  5
51
102
{ACAD_REACTORS
330
47
102
}
330
47
100
AcDbScale
 70
     0
300
1:40
140
1.0
141
40.0
290
     0
  0
SCALE
  5
52
102
{ACAD_REACTORS
330
47
102
}
330
47
100
AcDbScale
 70
     0
300
1:50
140
1.0
141
50.0
290
     0
  0
SCALE
  5
53
102
{ACAD_REACTORS
330
47
102
}
330
47
100
AcDbScale
 70
     0
300
1:100
140
1.0
141
100.0
290
     0
  0
SCALE
  5
54
102
{ACAD_REACTORS
330
47
102
}
330
47
100
AcDbScale
 70
     0
300
2:1
140
2.0
141
1.0
290
     0
  0
SCALE
  5
55
102
{ACAD_REACTORS
330
47
102
}
330
47
100
AcDbScale
 70
     0
300
4:1
140
4.0
141
1.0
290
     0
  0
SCALE
  5
56
102
{ACAD_REACTORS
330
47
102
}
330
47
100
AcDbScale
 70
     0
300
8:1
140
8.0
141
1.0
290
     0
  0
SCALE
  5
57
102
{ACAD_REACTORS
330
47
102
}
330
47
100
AcDbScale
 70
     0
300
10:1
140
10.0
141
1.0
290
     0
  0
SCALE
  5
58
102
{ACAD_REACTORS
330
47
102
}
330
47
100
AcDbScale
 70
     0
300
100:1
140
100.0
141
1.0
290
     0
  0
SCALE
  5
59
102
{ACAD_REACTORS
330
47
102
}
330
47
100
AcDbScale
 70
     0
300
1/128" = 1'-0"
140
0.0078125
141
12.0
290
     0
  0
SCALE
  5
5A
102
{ACAD_REACTORS
330
47
102
}
330
47
100
AcDbScale
 70
     0
300
1/64" = 1'-0"
140
0.015625
141
12.0
290
     0
  0
SCALE
  5
5B
102
{ACAD_REACTORS
330
47
102
}
330
47
100
AcDbScale
 70
     0
300
1/32" = 1'-0"
140
0.03125
141
12.0
290
     0
  0
SCALE
  5
5C
102
{ACAD_REACTORS
330
47
102
}
330
47
100
AcDbScale
 70
     0
300
1/16" = 1'-0"
140
0.0625
141
12.0
290
     0
  0
SCALE
  5
5D
102
{ACAD_REACTORS
330
47
102
}
330
47
100
AcDbScale
 70
     0
300
3/32" = 1'-0"
140
0.09375
141
12.0
290
     0
  0
SCALE
  5
5E
102
{ACAD_REACTORS
330
47
102
}
330
47
100
AcDbScale
 70
     0
300
1/8" = 1'-0"
140
0.125
141
12.0
290
     0
  0
SCALE
  5
5F
102
{ACAD_REACTORS
330
47
102
}
330
47
100
AcDbScale
 70
     0
300
3/16" = 1'-0"
140
0.1875
141
12.0
290
     0
  0
SCALE
  5
60
102
{ACAD_REACTORS
330
47
102
}
330
47
100
AcDbScale
 70
     0
300
1/4" = 1'-0"
140
0.25
141
12.0
290
     0
  0
SCALE
  5
61
102
{ACAD_REACTORS
330
47
102
}
330
47
100
AcDbScale
 70
     0
300
3/8" = 1'-0"
140
0.375
141
12.0
290
     0
  0
SCALE
  5
62
102
{ACAD_REACTORS
330
47
102
}
330
47
100
AcDbScale
 70
     0
300
1/2" = 1'-0"
140
0.5
141
12.0
290
     0
  0
SCALE
  5
63
102
{ACAD_REACTORS
330
47
102
}
330
47
100
AcDbScale
 70
     0
300
3/4" = 1'-0"
140
0.75
141
12.0
290
     0
  0
SCALE
  5
64
102
{ACAD_REACTORS
330
47
102
}
330
47
100
AcDbScale
 70
     0
300
1" = 1'-0"
140
1.0
141
12.0
290
     0
  0
SCALE
  5
65
102
{ACAD_REACTORS
330
47
102
}
330
47
100
AcDbScale
 70
     0
300
1-1/2" = 1'-0"
140
1.5
141
12.0
290
     0
  0
SCALE
  5
66
102
{ACAD_REACTORS
330
47
102
}
330
47
100
AcDbScale
 70
     0
300
3" = 1'-0"
140
3.0
141
12.0
290
     0
  0
SCALE
  5
67
102
{ACAD_REACTORS
330
47
102
}
330
47
100
AcDbScale
 70
     0
300
6" = 1'-0"
140
6.0
141
12.0
290
     0
  0
SCALE
  5
68
102
{ACAD_REACTORS
330
47
102
}
330
47
100
AcDbScale
 70
     0
300
1'-0" = 1'-0"
140
12.0
141
12.0
290
     0
  0
ENDSEC
  0
EOF
