  0
SECTION
  2
HEADER
  9
$ACADVER
  1
AC1015
  9
$ACADMAINTVER
 70
     6
  9
$DWGCODEPAGE
  3
ANSI_950
  9
$INSBASE
 10
0.0
 20
0.0
 30
0.0
  9
$EXTMIN
 10
0.0
 20
0.0
 30
0.0
  9
$EXTMAX
 10
148.5
 20
105.0
 30
0.0
  9
$LIMMIN
 10
0.0
 20
0.0
  9
$LIMMAX
 10
148.5
 20
105.0
  9
$ORTHOMODE
 70
     0
  9
$REGENMODE
 70
     1
  9
$FILLMODE
 70
     1
  9
$QTEXTMODE
 70
     0
  9
$MIRRTEXT
 70
     1
  9
$LTSCALE
 40
0.5
  9
$ATTMODE
 70
     1
  9
$TEXTSIZE
 40
1.5875
  9
$TRACEWID
 40
1.0
  9
$TEXTSTYLE
  7
Standard
  9
$CLAYER
  8
0
  9
$CELTYPE
  6
ByLayer
  9
$CECOLOR
 62
   256
  9
$CELTSCALE
 40
1.0
  9
$DISPSILH
 70
     0
  9
$DIMSCALE
 40
1.0
  9
$DIMASZ
 40
1.0
  9
$DIMEXO
 40
0.5
  9
$DIMDLI
 40
3.75
  9
$DIMRND
 40
0.0
  9
$DIMDLE
 40
0.0
  9
$DIMEXE
 40
0.5
  9
$DIMTP
 40
0.0
  9
$DIMTM
 40
0.0
  9
$DIMTXT
 40
1.5875
  9
$DIMCEN
 40
2.5
  9
$DIMTSZ
 40
0.0
  9
$DIMTOL
 70
     0
  9
$DIMLIM
 70
     0
  9
$DIMTIH
 70
     1
  9
$DIMTOH
 70
     1
  9
$DIMSE1
 70
     0
  9
$DIMSE2
 70
     0
  9
$DIMTAD
 70
     1
  9
$DIMZIN
 70
     0
  9
$DIMBLK
  1

  9
$DIMASO
 70
     1
  9
$DIMSHO
 70
     1
  9
$DIMPOST
  1

  9
$DIMAPOST
  1

  9
$DIMALT
 70
     0
  9
$DIMALTD
 70
     3
  9
$DIMALTF
 40
0.0393700787
  9
$DIMLFAC
 40
1.0
  9
$DIMTOFL
 70
     1
  9
$DIMTVP
 40
0.0
  9
$DIMTIX
 70
     0
  9
$DIMSOXD
 70
     0
  9
$DIMSAH
 70
     0
  9
$DIMBLK1
  1

  9
$DIMBLK2
  1

  9
$DIMSTYLE
  2
ISO-25
  9
$DIMCLRD
 70
     0
  9
$DIMCLRE
 70
     0
  9
$DIMCLRT
 70
     0
  9
$DIMTFAC
 40
1.0
  9
$DIMGAP
 40
0.5
  9
$DIMJUST
 70
     0
  9
$DIMSD1
 70
     0
  9
$DIMSD2
 70
     0
  9
$DIMTOLJ
 70
     0
  9
$DIMTZIN
 70
     0
  9
$DIMALTZ
 70
     0
  9
$DIMALTTZ
 70
     0
  9
$DIMUPT
 70
     0
  9
$DIMDEC
 70
     2
  9
$DIMTDEC
 70
     2
  9
$DIMALTU
 70
     2
  9
$DIMALTTD
 70
     3
  9
$DIMTXSTY
  7
Standard
  9
$DIMAUNIT
 70
     0
  9
$DIMADEC
 70
     2
  9
$DIMALTRND
 40
0.0
  9
$DIMAZIN
 70
     0
  9
$DIMDSEP
 70
    44
  9
$DIMATFIT
 70
     3
  9
$DIMFRAC
 70
     0
  9
$DIMLDRBLK
  1

  9
$DIMLUNIT
 70
     2
  9
$DIMLWD
 70
    -2
  9
$DIMLWE
 70
    -2
  9
$DIMTMOVE
 70
     0
  9
$LUNITS
 70
     2
  9
$LUPREC
 70
     2
  9
$SKETCHINC
 40
1.0
  9
$FILLETRAD
 40
10.0
  9
$AUNITS
 70
     0
  9
$AUPREC
 70
     2
  9
$MENU
  1
.
  9
$ELEVATION
 40
0.0
  9
$PELEVATION
 40
0.0
  9
$THICKNESS
 40
0.0
  9
$LIMCHECK
 70
     0
  9
$CHAMFERA
 40
0.0
  9
$CHAMFERB
 40
0.0
  9
$CHAMFERC
 40
0.0
  9
$CHAMFERD
 40
0.0
  9
$SKPOLY
 70
     0
  9
$TDCREATE
 40
2458439.456453148
  9
$TDUCREATE
 40
2458439.123119815
  9
$TDUPDATE
 40
2458439.456457303
  9
$TDUUPDATE
 40
2458439.12312397
  9
$TDINDWG
 40
0.0000000116
  9
$TDUSRTIMER
 40
0.0000000116
  9
$USRTIMER
 70
     1
  9
$ANGBASE
 50
0.0
  9
$ANGDIR
 70
     0
  9
$PDMODE
 70
     0
  9
$PDSIZE
 40
-1.0
  9
$PLINEWID
 40
0.0
  9
$SPLFRAME
 70
     0
  9
$SPLINETYPE
 70
     6
  9
$SPLINESEGS
 70
     8
  9
$HANDSEED
  5
1A6
  9
$SURFTAB1
 70
     6
  9
$SURFTAB2
 70
     6
  9
$SURFTYPE
 70
     6
  9
$SURFU
 70
     6
  9
$SURFV
 70
     6
  9
$UCSBASE
  2

  9
$UCSNAME
  2

  9
$UCSORG
 10
0.0
 20
0.0
 30
0.0
  9
$UCSXDIR
 10
1.0
 20
0.0
 30
0.0
  9
$UCSYDIR
 10
0.0
 20
1.0
 30
0.0
  9
$UCSORTHOREF
  2

  9
$UCSORTHOVIEW
 70
     0
  9
$UCSORGTOP
 10
0.0
 20
0.0
 30
0.0
  9
$UCSORGBOTTOM
 10
0.0
 20
0.0
 30
0.0
  9
$UCSORGLEFT
 10
0.0
 20
0.0
 30
0.0
  9
$UCSORGRIGHT
 10
0.0
 20
0.0
 30
0.0
  9
$UCSORGFRONT
 10
0.0
 20
0.0
 30
0.0
  9
$UCSORGBACK
 10
0.0
 20
0.0
 30
0.0
  9
$PUCSBASE
  2

  9
$PUCSNAME
  2

  9
$PUCSORG
 10
0.0
 20
0.0
 30
0.0
  9
$PUCSXDIR
 10
1.0
 20
0.0
 30
0.0
  9
$PUCSYDIR
 10
0.0
 20
1.0
 30
0.0
  9
$PUCSORTHOREF
  2

  9
$PUCSORTHOVIEW
 70
     0
  9
$PUCSORGTOP
 10
0.0
 20
0.0
 30
0.0
  9
$PUCSORGBOTTOM
 10
0.0
 20
0.0
 30
0.0
  9
$PUCSORGLEFT
 10
0.0
 20
0.0
 30
0.0
  9
$PUCSORGRIGHT
 10
0.0
 20
0.0
 30
0.0
  9
$PUCSORGFRONT
 10
0.0
 20
0.0
 30
0.0
  9
$PUCSORGBACK
 10
0.0
 20
0.0
 30
0.0
  9
$USERI1
 70
     0
  9
$USERI2
 70
     0
  9
$USERI3
 70
     0
  9
$USERI4
 70
     0
  9
$USERI5
 70
     0
  9
$USERR1
 40
0.0
  9
$USERR2
 40
0.0
  9
$USERR3
 40
0.0
  9
$USERR4
 40
0.0
  9
$USERR5
 40
0.0
  9
$WORLDVIEW
 70
     1
  9
$SHADEDGE
 70
     3
  9
$SHADEDIF
 70
    70
  9
$TILEMODE
 70
     1
  9
$MAXACTVP
 70
    64
  9
$PINSBASE
 10
0.0
 20
0.0
 30
0.0
  9
$PLIMCHECK
 70
     0
  9
$PEXTMIN
 10
1.0000000000E+20
 20
1.0000000000E+20
 30
1.0000000000E+20
  9
$PEXTMAX
 10
-1.0000000000E+20
 20
-1.0000000000E+20
 30
-1.0000000000E+20
  9
$PLIMMIN
 10
0.0
 20
0.0
  9
$PLIMMAX
 10
420.0
 20
297.0
  9
$UNITMODE
 70
     0
  9
$VISRETAIN
 70
     1
  9
$PLINEGEN
 70
     0
  9
$PSLTSCALE
 70
     1
  9
$TREEDEPTH
 70
  3020
  9
$CMLSTYLE
  2
Standard
  9
$CMLJUST
 70
     0
  9
$CMLSCALE
 40
20.0
  9
$PROXYGRAPHICS
 70
     1
  9
$MEASUREMENT
 70
     1
  9
$CELWEIGHT
370
    -1
  9
$ENDCAPS
280
     0
  9
$JOINSTYLE
280
     0
  9
$LWDISPLAY
290
     1
  9
$INSUNITS
 70
     4
  9
$HYPERLINKBASE
  1

  9
$STYLESHEET
  1

  9
$XEDIT
290
     1
  9
$CEPSNTYPE
380
     0
  9
$PSTYLEMODE
290
     1
  9
$FINGERPRINTGUID
  2
{4249AF0E-E4C9-41EB-8297-922D03349343}
  9
$VERSIONGUID
  2
{FAEB1C32-E019-11D5-929B-00C0DF256EC4}
  9
$EXTNAMES
290
     1
  9
$PSVPSCALE
 40
0.0
  9
$OLESTARTUP
290
     0
  0
ENDSEC
  0
SECTION
  2
CLASSES
  0
CLASS
  1
ACDBDICTIONARYWDFLT
  2
AcDbDictionaryWithDefault
  3
ObjectDBX Classes
 90
        0
280
     0
281
     0
  0
CLASS
  1
VISUALSTYLE
  2
AcDbVisualStyle
  3
ObjectDBX Classes
 90
     4095
280
     0
281
     0
  0
CLASS
  1
MATERIAL
  2
AcDbMaterial
  3
ObjectDBX Classes
 90
     1153
280
     0
281
     0
  0
CLASS
  1
SCALE
  2
AcDbScale
  3
ObjectDBX Classes
 90
     1153
280
     0
281
     0
  0
CLASS
  1
TABLESTYLE
  2
AcDbTableStyle
  3
ObjectDBX Classes
 90
     4095
280
     0
281
     0
  0
CLASS
  1
MLEADERSTYLE
  2
AcDbMLeaderStyle
  3
ACDB_MLEADERSTYLE_CLASS
 90
     4095
280
     0
281
     0
  0
CLASS
  1
SUN
  2
AcDbSun
  3
SCENEOE
 90
     1153
280
     0
281
     0
  0
CLASS
  1
ACDBPLACEHOLDER
  2
AcDbPlaceHolder
  3
ObjectDBX Classes
 90
        0
280
     0
281
     0
  0
CLASS
  1
LAYOUT
  2
AcDbLayout
  3
ObjectDBX Classes
 90
        0
280
     0
281
     0
  0
ENDSEC
  0
SECTION
  2
TABLES
  0
TABLE
  2
VPORT
  5
8
330
0
100
AcDbSymbolTable
 70
     1
  0
VPORT
  5
29
330
8
100
AcDbSymbolTableRecord
100
AcDbViewportTableRecord
  2
*Active
 70
     0
 10
0.0
 20
0.0
 11
1.0
 21
1.0
 12
74.25
 22
52.5
 13
0.0
 23
0.0
 14
10.0
 24
10.0
 15
10.0
 25
10.0
 16
0.0
 26
0.0
 36
1.0
 17
0.0
 27
0.0
 37
0.0
 40
105.0
 41
1.4142857143
 42
50.0
 43
0.0
 44
0.0
 50
0.0
 51
0.0
 71
     0
 72
  2000
 73
     1
 74
     3
 75
     0
 76
     0
 77
     0
 78
     0
281
     0
 65
     1
110
0.0
120
0.0
130
0.0
111
1.0
121
0.0
131
0.0
112
0.0
122
1.0
132
0.0
 79
     0
146
0.0
  0
ENDTAB
  0
TABLE
  2
LTYPE
  5
5
330
0
100
AcDbSymbolTable
 70
     6
  0
LTYPE
  5
14
330
5
100
AcDbSymbolTableRecord
100
AcDbLinetypeTableRecord
  2
ByBlock
 70
     0
  3

 72
    65
 73
     0
 40
0.0
  0
LTYPE
  5
15
330
5
100
AcDbSymbolTableRecord
100
AcDbLinetypeTableRecord
  2
ByLayer
 70
     0
  3

 72
    65
 73
     0
 40
0.0
  0
LTYPE
  5
16
330
5
100
AcDbSymbolTableRecord
100
AcDbLinetypeTableRecord
  2
Continuous
 70
     0
  3
Solid line
 72
    65
 73
     0
 40
0.0
  0
LTYPE
  5
6E
330
5
100
AcDbSymbolTableRecord
100
AcDbLinetypeTableRecord
  2
HIDDEN
 70
     0
  3
Hidden __ __ __ __ __ __ __ __ __ __ __ __ __ __
 72
    65
 73
     2
 40
1.905
 49
1.27
 74
     0
 49
-0.635
 74
     0
  0
LTYPE
  5
6F
330
5
100
AcDbSymbolTableRecord
100
AcDbLinetypeTableRecord
  2
PHANTOM
 70
     0
  3
Phantom ______  __  __  ______  __  __  ______
 72
    65
 73
     6
 40
12.7
 49
6.35
 74
     0
 49
-1.27
 74
     0
 49
1.27
 74
     0
 49
-1.27
 74
     0
 49
1.27
 74
     0
 49
-1.27
 74
     0
  0
LTYPE
  5
70
330
5
100
AcDbSymbolTableRecord
100
AcDbLinetypeTableRecord
  2
CENTER
 70
     0
  3
Center ____ _ ____ _ ____ _ ____ _ ____ _ ____
 72
    65
 73
     4
 40
10.16
 49
6.35
 74
     0
 49
-1.27
 74
     0
 49
1.27
 74
     0
 49
-1.27
 74
     0
  0
LTYPE
  5
71
330
5
100
AcDbSymbolTableRecord
100
AcDbLinetypeTableRecord
  2
CENTERX2
 70
     0
  3
Center (2x) ________  __  ________  __  _____
 72
    65
 73
     4
 40
20.32
 49
12.7
 74
     0
 49
-2.54
 74
     0
 49
2.54
 74
     0
 49
-2.54
 74
     0
  0
LTYPE
  5
72
330
5
100
AcDbSymbolTableRecord
100
AcDbLinetypeTableRecord
  2
DOT2
 70
     0
  3
Dot (.5x) ........................................
 72
    65
 73
     2
 40
0.635
 49
0.0
 74
     0
 49
-0.635
 74
     0
  0
ENDTAB
  0
TABLE
  2
LAYER
  5
2
330
0
100
AcDbSymbolTable
 70
    10
  0
LAYER
  5
10
330
2
100
AcDbSymbolTableRecord
100
AcDbLayerTableRecord
  2
0
 70
     0
 62
     7
  6
Continuous
370
    -3
390
F
  0
LAYER
  5
73
330
2
100
AcDbSymbolTableRecord
100
AcDbLayerTableRecord
  2
SLD-0
 70
     0
 62
     7
  6
Continuous
370
    15
390
F
  0
LAYER
  5
74
330
2
100
AcDbSymbolTableRecord
100
AcDbLayerTableRecord
  2
輪廓線
 70
     0
 62
   219
  6
Continuous
370
    15
390
F
  0
LAYER
  5
75
330
2
100
AcDbSymbolTableRecord
100
AcDbLayerTableRecord
  2
DIM
 70
     0
 62
     7
  6
Continuous
370
    -3
390
F
  0
LAYER
  5
76
330
2
100
AcDbSymbolTableRecord
100
AcDbLayerTableRecord
  2
中心線
 70
     0
 62
     7
  6
CENTERX2
370
    -3
390
F
  0
LAYER
  5
77
330
2
100
AcDbSymbolTableRecord
100
AcDbLayerTableRecord
  2
虛線
 70
     0
 62
     7
  6
HIDDEN
370
    -3
390
F
  0
LAYER
  5
78
330
2
100
AcDbSymbolTableRecord
100
AcDbLayerTableRecord
  2
SECTION
 70
     0
 62
     7
  6
PHANTOM
370
    15
390
F
  0
LAYER
  5
79
330
2
100
AcDbSymbolTableRecord
100
AcDbLayerTableRecord
  2
假想線
 70
     0
 62
     7
  6
PHANTOM
370
    -3
390
F
  0
LAYER
  5
7A
330
2
100
AcDbSymbolTableRecord
100
AcDbLayerTableRecord
  2
圖層_1
 70
     0
 62
   179
  6
Continuous
370
    -3
390
F
  0
LAYER
  5
7B
330
2
100
AcDbSymbolTableRecord
100
AcDbLayerTableRecord
  2
工作區域參考線
 70
     0
 62
   179
  6
Continuous
370
    -3
390
F
  0
ENDTAB
  0
TABLE
  2
STYLE
  5
3
330
0
100
AcDbSymbolTable
 70
     3
  0
STYLE
  5
11
330
3
100
AcDbSymbolTableRecord
100
AcDbTextStyleTableRecord
  2
Standard
 70
     0
 40
0.0
 41
1.0
 50
0.0
 71
     0
 42
1.5875
  3
txt
  4

  0
STYLE
  5
CC
330
3
100
AcDbSymbolTableRecord
100
AcDbTextStyleTableRecord
  2
SLDTEXTSTYLE0
 70
     0
 40
0.0
 41
0.605
 50
0.0
 71
     0
 42
1.5875
  3
TXT
  4

  0
STYLE
  5
103
330
3
100
AcDbSymbolTableRecord
100
AcDbTextStyleTableRecord
  2
SLDTEXTSTYLE1
 70
     0
 40
0.0
 41
0.7
 50
0.0
 71
     0
 42
1.5875
  3
TXT
  4

  0
ENDTAB
  0
TABLE
  2
VIEW
  5
6
330
0
100
AcDbSymbolTable
 70
     0
  0
ENDTAB
  0
TABLE
  2
UCS
  5
7
330
0
100
AcDbSymbolTable
 70
     0
  0
ENDTAB
  0
TABLE
  2
APPID
  5
9
330
0
100
AcDbSymbolTable
 70
     1
  0
APPID
  5
12
330
9
100
AcDbSymbolTableRecord
100
AcDbRegAppTableRecord
  2
ACAD
 70
     0
  0
ENDTAB
  0
TABLE
  2
DIMSTYLE
  5
A
330
0
100
AcDbSymbolTable
 70
     5
100
AcDbDimStyleTable
  0
DIMSTYLE
105
27
330
A
100
AcDbSymbolTableRecord
100
AcDbDimStyleTableRecord
  2
ISO-25
 70
     0
 41
2.5
 42
0.625
 43
3.75
 44
1.25
 73
     0
 74
     0
 77
     1
 78
     8
140
2.5
141
2.5
143
0.0393700787
147
0.625
171
     3
172
     1
178
     0
271
     2
272
     2
274
     3
278
    44
283
     0
284
     8
340
11
  0
DIMSTYLE
105
112
102
{ACAD_REACTORS
330
111
330
11C
102
}
330
A
100
AcDbSymbolTableRecord
100
AcDbDimStyleTableRecord
  2
SLDDIMSTYLE0
 70
     0
 41
1.0
 44
0.0
 45
0.000000001
 78
    12
 79
     3
140
1.2712402344
141
0.0
147
0.3178100586
173
     1
178
     0
271
     2
272
     2
276
     2
284
    12
340
103
  0
DIMSTYLE
105
15E
102
{ACAD_REACTORS
330
15D
330
175
102
}
330
A
100
AcDbSymbolTableRecord
100
AcDbDimStyleTableRecord
  2
SLDDIMSTYLE1
 70
     0
 41
1.0
 44
0.0
 45
0.000000001
 73
     0
 74
     0
 77
     1
 78
    12
 79
     3
140
1.2712402344
147
0.3178100586
173
     1
178
     0
271
     2
272
     2
276
     2
284
    12
340
103
  0
DIMSTYLE
105
169
102
{ACAD_REACTORS
330
168
102
}
330
A
100
AcDbSymbolTableRecord
100
AcDbDimStyleTableRecord
  2
SLDDIMSTYLE2
 70
     0
 41
1.0
 44
0.0
 45
0.000000001
 73
     0
 74
     0
 77
     1
 78
    12
 79
     3
140
1.2712402344
147
0.3178100586
172
     1
173
     1
178
     0
271
     2
272
     2
276
     2
284
    12
289
     0
340
103
  0
DIMSTYLE
105
180
330
A
100
AcDbSymbolTableRecord
100
AcDbDimStyleTableRecord
  2
SLDDIMSTYLE3
 70
     0
 41
1.0
 44
0.0
 45
0.000000001
147
0.0
173
     1
178
     0
271
     0
272
     0
276
     2
340
11
  0
ENDTAB
  0
TABLE
  2
BLOCK_RECORD
  5
1
330
0
100
AcDbSymbolTable
 70
    10
  0
BLOCK_RECORD
  5
1F
330
1
100
AcDbSymbolTableRecord
100
AcDbBlockTableRecord
  2
*Model_Space
340
22
  0
BLOCK_RECORD
  5
1B
330
1
100
AcDbSymbolTableRecord
100
AcDbBlockTableRecord
  2
*Paper_Space
340
1E
  0
BLOCK_RECORD
  5
23
330
1
100
AcDbSymbolTableRecord
100
AcDbBlockTableRecord
  2
*Paper_Space0
340
26
  0
BLOCK_RECORD
  5
7C
330
1
100
AcDbSymbolTableRecord
100
AcDbBlockTableRecord
  2
圖塊6
340
0
102
{BLKREFS
331
CB
102
}
  0
BLOCK_RECORD
  5
CE
330
1
100
AcDbSymbolTableRecord
100
AcDbBlockTableRecord
  2
SW_NOTE_0
340
0
102
{BLKREFS
331
D4
102
}
  0
BLOCK_RECORD
  5
105
330
1
100
AcDbSymbolTableRecord
100
AcDbBlockTableRecord
  2
SW_NOTE_1
340
0
102
{BLKREFS
331
10A
102
}
  0
BLOCK_RECORD
  5
113
330
1
100
AcDbSymbolTableRecord
100
AcDbBlockTableRecord
  2
_D
340
0
  0
BLOCK_RECORD
  5
11D
330
1
100
AcDbSymbolTableRecord
100
AcDbBlockTableRecord
  2
_D_1
340
0
  0
BLOCK_RECORD
  5
125
330
1
100
AcDbSymbolTableRecord
100
AcDbBlockTableRecord
  2
SW_CENTERMARKSYMBOL_0
340
0
102
{BLKREFS
331
130
102
}
  0
BLOCK_RECORD
  5
15F
330
1
100
AcDbSymbolTableRecord
100
AcDbBlockTableRecord
  2
_D_2
340
0
  0
BLOCK_RECORD
  5
16A
330
1
100
AcDbSymbolTableRecord
100
AcDbBlockTableRecord
  2
_D_3
340
0
  0
BLOCK_RECORD
  5
176
330
1
100
AcDbSymbolTableRecord
100
AcDbBlockTableRecord
  2
_D_4
340
0
  0
ENDTAB
  0
ENDSEC
  0
SECTION
  2
BLOCKS
  0
BLOCK
  5
20
330
1F
100
AcDbEntity
  8
0
100
AcDbBlockBegin
  2
*Model_Space
 70
     0
 10
0.0
 20
0.0
 30
0.0
  3
*Model_Space
  1

  0
ENDBLK
  5
21
330
1F
100
AcDbEntity
  8
0
100
AcDbBlockEnd
  0
BLOCK
  5
1C
330
1B
100
AcDbEntity
 67
     1
  8
0
100
AcDbBlockBegin
  2
*Paper_Space
 70
     0
 10
0.0
 20
0.0
 30
0.0
  3
*Paper_Space
  1

  0
ENDBLK
  5
1D
330
1B
100
AcDbEntity
 67
     1
  8
0
100
AcDbBlockEnd
  0
BLOCK
  5
24
330
23
100
AcDbEntity
  8
0
100
AcDbBlockBegin
  2
*Paper_Space0
 70
     0
 10
0.0
 20
0.0
 30
0.0
  3
*Paper_Space0
  1

  0
ENDBLK
  5
25
330
23
100
AcDbEntity
  8
0
100
AcDbBlockEnd
  0
BLOCK
  5
7D
330
7C
100
AcDbEntity
  8
0
100
AcDbBlockBegin
  2
圖塊6
 70
     0
 10
0.0
 20
0.0
 30
0.0
  3
圖塊6
  1

  0
ARC
  5
7F
330
7C
100
AcDbEntity
  8
圖層_1
 62
     7
370
    30
100
AcDbCircle
 10
0.765077217
 20
3.0510341446
 30
0.0
 40
0.765077216971835
100
AcDbArc
 50
130.2115225915
 51
228.588904108
  0
ARC
  5
80
330
7C
100
AcDbEntity
  8
圖層_1
 62
     7
370
    30
100
AcDbCircle
 10
2.4254567991
 20
2.9974727207
 30
0.0
 40
1.288667713408811
100
AcDbArc
 50
140.4331765613
 51
251.0865666567
  0
ARC
  5
81
330
7C
100
AcDbEntity
  8
圖層_1
 62
     7
370
    30
100
AcDbCircle
 10
2.5882520991
 20
3.1558779856
 30
0.0
 40
1.494818328884931
100
AcDbArc
 50
247.1485306747
 51
309.6030773927
  0
LINE
  5
82
330
7C
100
AcDbEntity
  8
圖層_1
 62
     7
370
    30
100
AcDbLine
 10
0.9244488634
 20
4.2660912992
 30
0.0
 11
0.271134736
 21
3.6352977609
 31
0.0
  0
LINE
  5
83
330
7C
100
AcDbEntity
  8
圖層_1
 62
     7
370
    30
100
AcDbLine
 10
0.259011445
 20
2.4772392488
 30
0.0
 11
2.2636126001
 21
0.7349373287
 31
0.0
  0
LINE
  5
84
330
7C
100
AcDbEntity
  8
圖層_1
 62
     7
370
    30
100
AcDbLine
 10
2.2636126001
 20
0.7349373287
 30
0.0
 11
1.9480866399
 21
0.4269871335
 31
0.0
  0
LINE
  5
85
330
7C
100
AcDbEntity
  8
圖層_1
 62
     7
370
    30
100
AcDbLine
 10
1.9480866399
 20
0.4269871335
 30
0.0
 11
2.4440263222
 21
0.0
 31
0.0
  0
LINE
  5
86
330
7C
100
AcDbEntity
  8
圖層_1
 62
     7
370
    30
100
AcDbLine
 10
4.0488585394
 20
1.5582889828
 30
0.0
 11
3.5411470236
 21
2.0041518466
 31
0.0
  0
LINE
  5
87
330
7C
100
AcDbEntity
  8
圖層_1
 62
     7
370
    30
100
AcDbLine
 10
1.4320457871
 20
3.8183253488
 30
0.0
 11
0.9244488634
 21
4.2660912992
 31
0.0
  0
LINE
  5
88
330
7C
100
AcDbEntity
  8
圖層_1
 62
     7
370
    30
100
AcDbLine
 10
2.4440263222
 20
0.0
 30
0.0
 11
4.0488585394
 21
1.5582889828
 31
0.0
  0
ENDBLK
  5
7E
330
7C
100
AcDbEntity
  8
0
100
AcDbBlockEnd
  0
BLOCK
  5
CF
330
CE
100
AcDbEntity
  8
0
100
AcDbBlockBegin
  2
SW_NOTE_0
 70
     0
 10
0.0
 20
0.0
 30
0.0
  3
SW_NOTE_0
  1

  0
MTEXT
  5
D1
330
CE
100
AcDbEntity
  8
0
  6
Continuous
 62
     0
370
     0
100
AcDbMText
 10
0.0
 20
1.7053291974
 30
0.0
 40
1.3229166667
 41
0.0
 71
     1
 72
     1
  1
PROPRIETARY AND CONFIDENTIAL
  7
SLDTEXTSTYLE0
 73
     1
 44
1.0
  0
MTEXT
  5
D2
330
CE
100
AcDbEntity
  8
0
  6
Continuous
 62
     0
370
     0
100
AcDbMText
 10
0.0
 20
-0.04099174
 30
0.0
 40
0.9260416667
 41
0.0
 71
     1
 72
     1
  1
THE INFORMATION CONTAINED IN THIS DRAWING IS THE SOLE PROPERTY OF UNICE E-O SERVICES INC. ANY REPRODUCTION IN PART OR AS A WHOLE WITHOUT THE WRITTEN PERMISSION OF UNICE E-O SERVICES INC IS
  7
SLDTEXTSTYLE0
 73
     1
 44
1.0
  0
MTEXT
  5
D3
330
CE
100
AcDbEntity
  8
0
  6
Continuous
 62
     0
370
     0
100
AcDbMText
 10
0.0
 20
-1.2757139473
 30
0.0
 40
0.9260416667
 41
0.0
 71
     1
 72
     1
  1
PROHIBITED.
  7
SLDTEXTSTYLE0
 73
     1
 44
1.0
  0
ENDBLK
  5
D0
330
CE
100
AcDbEntity
  8
0
100
AcDbBlockEnd
  0
BLOCK
  5
106
330
105
100
AcDbEntity
  8
0
100
AcDbBlockBegin
  2
SW_NOTE_1
 70
     0
 10
0.0
 20
0.0
 30
0.0
  3
SW_NOTE_1
  1

  0
MTEXT
  5
108
330
105
100
AcDbEntity
  8
SLD-0
 62
     0
100
AcDbMText
 10
0.0
 20
1.0231975184
 30
0.0
 40
0.79375
 41
0.0
 71
     1
 72
     1
  1
No.5, Andong Rd., Chung Li District,
  7
SLDTEXTSTYLE0
 73
     1
 44
1.0
  0
MTEXT
  5
109
330
105
100
AcDbEntity
  8
SLD-0
 62
     0
100
AcDbMText
 10
0.0
 20
-0.0351358021
 30
0.0
 40
0.79375
 41
0.0
 71
     1
 72
     1
  1
Taoyuan City 32063, Taiwan, R.O.C.
  7
SLDTEXTSTYLE0
 73
     1
 44
1.0
  0
ENDBLK
  5
107
330
105
100
AcDbEntity
  8
0
100
AcDbBlockEnd
  0
BLOCK
  5
114
330
113
100
AcDbEntity
  8
0
100
AcDbBlockBegin
  2
_D
 70
     0
 10
0.0
 20
0.0
 30
0.0
  3
_D
  1

  0
SOLID
  5
116
330
113
100
AcDbEntity
  8
DIM
100
AcDbTrace
 10
33.8924315205
 20
61.1445376665
 30
0.0
 11
33.4531205602
 21
62.0515276776
 31
0.0
 12
33.2433787409
 22
61.9154822101
 32
0.0
 13
33.2433787409
 23
61.9154822101
 33
0.0
  0
LINE
  5
117
330
113
100
AcDbEntity
  8
DIM
100
AcDbLine
 10
33.8924315205
 20
61.1445376665
 30
0.0
 11
27.9413890078
 21
70.319282747
 31
0.0
  0
LINE
  5
118
330
113
100
AcDbEntity
  8
DIM
100
AcDbLine
 10
27.9413890078
 20
70.319282747
 30
0.0
 11
10.9056097999
 21
70.319282747
 31
0.0
  0
MTEXT
  5
119
330
113
100
AcDbEntity
  8
DIM
100
AcDbMText
 10
10.9056097999
 20
71.8540790829
 30
0.0
 40
1.190625
 41
0.0
 71
     1
 72
     1
  1
%%c
  7
SLDTEXTSTYLE1
 73
     1
 44
1.0
  0
MTEXT
  5
11A
330
113
100
AcDbEntity
  8
DIM
100
AcDbMText
 10
12.4137347875
 20
71.8540790829
 30
0.0
 40
1.190625
 41
0.0
 71
     1
 72
     1
  1
24
  7
SLDTEXTSTYLE1
 73
     1
 44
1.0
  0
MTEXT
  5
11B
330
113
100
AcDbEntity
  8
DIM
100
AcDbMText
 10
14.2762910709
 20
71.8540790829
 30
0.0
 40
1.190625
 41
0.0
 71
     1
 72
     1
  1
CLEAR APERTURE
  7
SLDTEXTSTYLE1
 73
     1
 44
1.0
  0
ENDBLK
  5
115
330
113
100
AcDbEntity
  8
0
100
AcDbBlockEnd
  0
BLOCK
  5
11E
330
11D
100
AcDbEntity
  8
0
100
AcDbBlockBegin
  2
_D_1
 70
     0
 10
0.0
 20
0.0
 30
0.0
  3
_D_1
  1

  0
SOLID
  5
120
330
11D
100
AcDbEntity
  8
DIM
100
AcDbTrace
 10
51.5576384318
 20
39.7269862856
 30
0.0
 11
52.1687253164
 21
38.9256138257
 31
0.0
 12
52.3471835562
 22
39.1006928268
 32
0.0
 13
52.3471835562
 23
39.1006928268
 33
0.0
  0
LINE
  5
121
330
11D
100
AcDbEntity
  8
DIM
100
AcDbLine
 10
51.5576384318
 20
39.7269862856
 30
0.0
 11
59.6099230364
 21
31.519282747
 31
0.0
  0
LINE
  5
122
330
11D
100
AcDbEntity
  8
DIM
100
AcDbLine
 10
59.6099230364
 20
31.519282747
 30
0.0
 11
64.3513986185
 21
31.519282747
 31
0.0
  0
MTEXT
  5
123
330
11D
100
AcDbEntity
  8
DIM
100
AcDbMText
 10
60.2349230364
 20
33.0540790829
 30
0.0
 40
1.190625
 41
0.0
 71
     1
 72
     1
  1
%%c
  7
SLDTEXTSTYLE1
 73
     1
 44
1.0
  0
MTEXT
  5
124
330
11D
100
AcDbEntity
  8
DIM
100
AcDbMText
 10
61.743048024
 20
33.0540790829
 30
0.0
 40
1.190625
 41
0.0
 71
     1
 72
     1
  1
31.8
  7
SLDTEXTSTYLE1
 73
     1
 44
1.0
  0
ENDBLK
  5
11F
330
11D
100
AcDbEntity
  8
0
100
AcDbBlockEnd
  0
BLOCK
  5
126
330
125
100
AcDbEntity
  8
0
100
AcDbBlockBegin
  2
SW_CENTERMARKSYMBOL_0
 70
     0
 10
0.0
 20
0.0
 30
0.0
  3
SW_CENTERMARKSYMBOL_0
  1

  0
LINE
  5
128
330
125
100
AcDbEntity
  8
DIM
 62
     0
100
AcDbLine
 10
0.0
 20
0.0
 30
0.0
 11
0.0
 21
1.0
 31
0.0
  0
LINE
  5
129
330
125
100
AcDbEntity
  8
DIM
 62
     0
100
AcDbLine
 10
0.0
 20
0.0
 30
0.0
 11
-1.0
 21
0.0
 31
0.0
  0
LINE
  5
12A
330
125
100
AcDbEntity
  8
DIM
 62
     0
100
AcDbLine
 10
0.0
 20
0.0
 30
0.0
 11
0.0
 21
-1.0
 31
0.0
  0
LINE
  5
12B
330
125
100
AcDbEntity
  8
DIM
 62
     0
100
AcDbLine
 10
0.0
 20
0.0
 30
0.0
 11
1.0
 21
0.0
 31
0.0
  0
LINE
  5
12C
330
125
100
AcDbEntity
  8
DIM
 62
     0
100
AcDbLine
 10
0.0
 20
2.0
 30
0.0
 11
0.0
 21
16.9
 31
0.0
  0
LINE
  5
12D
330
125
100
AcDbEntity
  8
DIM
 62
     0
100
AcDbLine
 10
-2.0
 20
0.0
 30
0.0
 11
-16.9
 21
0.0
 31
0.0
  0
LINE
  5
12E
330
125
100
AcDbEntity
  8
DIM
 62
     0
100
AcDbLine
 10
0.0
 20
-2.0
 30
0.0
 11
0.0
 21
-16.9300653605
 31
0.0
  0
LINE
  5
12F
330
125
100
AcDbEntity
  8
DIM
 62
     0
100
AcDbLine
 10
2.0
 20
0.0
 30
0.0
 11
16.9
 21
0.0
 31
0.0
  0
ENDBLK
  5
127
330
125
100
AcDbEntity
  8
0
100
AcDbBlockEnd
  0
BLOCK
  5
160
330
15F
100
AcDbEntity
  8
0
100
AcDbBlockBegin
  2
_D_2
 70
     0
 10
0.0
 20
0.0
 30
0.0
  3
_D_2
  1

  0
SOLID
  5
162
330
15F
100
AcDbEntity
  8
DIM
100
AcDbTrace
 10
79.1870695284
 20
72.9769303386
 30
0.0
 11
80.1870695284
 21
72.8519303386
 31
0.0
 12
80.1870695284
 22
73.1019303386
 32
0.0
 13
80.1870695284
 23
73.1019303386
 33
0.0
  0
SOLID
  5
163
330
15F
100
AcDbEntity
  8
DIM
100
AcDbTrace
 10
91.8870695284
 20
72.9769303386
 30
0.0
 11
90.8870695284
 21
73.1019303386
 31
0.0
 12
90.8870695284
 22
72.8519303386
 32
0.0
 13
90.8870695284
 23
72.8519303386
 33
0.0
  0
LINE
  5
164
330
15F
100
AcDbEntity
  8
DIM
100
AcDbLine
 10
79.1870695284
 20
64.5214303386
 30
0.0
 11
79.1870695284
 21
73.4769303386
 31
0.0
  0
LINE
  5
165
330
15F
100
AcDbEntity
  8
DIM
100
AcDbLine
 10
91.8870695284
 20
64.5214303386
 30
0.0
 11
91.8870695284
 21
73.4769303386
 31
0.0
  0
LINE
  5
166
330
15F
100
AcDbEntity
  8
DIM
100
AcDbLine
 10
79.1870695284
 20
72.9769303386
 30
0.0
 11
91.8870695284
 21
72.9769303386
 31
0.0
  0
MTEXT
  5
167
330
15F
100
AcDbEntity
  8
DIM
100
AcDbMText
 10
84.2328942893
 20
74.511726558
 30
0.0
 40
1.190625
 41
0.0
 71
     1
 72
     1
  1
12.7
  7
SLDTEXTSTYLE1
 73
     1
 44
1.0
  0
ENDBLK
  5
161
330
15F
100
AcDbEntity
  8
0
100
AcDbBlockEnd
  0
BLOCK
  5
16B
330
16A
100
AcDbEntity
  8
0
100
AcDbBlockBegin
  2
_D_3
 70
     0
 10
0.0
 20
0.0
 30
0.0
  3
_D_3
  1

  0
SOLID
  5
16D
330
16A
100
AcDbEntity
  8
DIM
100
AcDbTrace
 10
87.0870695284
 20
70.4769303386
 30
0.0
 11
86.0870695284
 21
70.6019303386
 31
0.0
 12
86.0870695284
 22
70.3519303386
 32
0.0
 13
86.0870695284
 23
70.3519303386
 33
0.0
  0
SOLID
  5
16E
330
16A
100
AcDbEntity
  8
DIM
100
AcDbTrace
 10
89.8870695284
 20
70.4769303386
 30
0.0
 11
90.8870695284
 21
70.3519303386
 31
0.0
 12
90.8870695284
 22
70.6019303386
 32
0.0
 13
90.8870695284
 23
70.6019303386
 33
0.0
  0
LINE
  5
16F
330
16A
100
AcDbEntity
  8
DIM
100
AcDbLine
 10
87.0870695284
 20
67.2769303386
 30
0.0
 11
87.0870695284
 21
70.9769303386
 31
0.0
  0
LINE
  5
170
330
16A
100
AcDbEntity
  8
DIM
100
AcDbLine
 10
89.8870695284
 20
67.2769303386
 30
0.0
 11
89.8870695284
 21
70.9769303386
 31
0.0
  0
LINE
  5
171
330
16A
100
AcDbEntity
  8
DIM
100
AcDbLine
 10
87.0870695284
 20
70.4769303386
 30
0.0
 11
85.5870695284
 21
70.4769303386
 31
0.0
  0
LINE
  5
172
330
16A
100
AcDbEntity
  8
DIM
100
AcDbLine
 10
87.0870695284
 20
70.4769303386
 30
0.0
 11
89.8870695284
 21
70.4769303386
 31
0.0
  0
LINE
  5
173
330
16A
100
AcDbEntity
  8
DIM
100
AcDbLine
 10
89.8870695284
 20
70.4769303386
 30
0.0
 11
91.3870695284
 21
70.4769303386
 31
0.0
  0
MTEXT
  5
174
330
16A
100
AcDbEntity
  8
DIM
100
AcDbMText
 10
87.5555156947
 20
72.011726558
 30
0.0
 40
1.190625
 41
0.0
 71
     1
 72
     1
  1
2.8
  7
SLDTEXTSTYLE1
 73
     1
 44
1.0
  0
ENDBLK
  5
16C
330
16A
100
AcDbEntity
  8
0
100
AcDbBlockEnd
  0
BLOCK
  5
177
330
176
100
AcDbEntity
  8
0
100
AcDbBlockBegin
  2
_D_4
 70
     0
 10
0.0
 20
0.0
 30
0.0
  3
_D_4
  1

  0
SOLID
  5
179
330
176
100
AcDbEntity
  8
DIM
100
AcDbTrace
 10
95.3870695284
 20
64.2214303386
 30
0.0
 11
95.2620695284
 21
63.2214303386
 31
0.0
 12
95.5120695284
 22
63.2214303386
 32
0.0
 13
95.5120695284
 23
63.2214303386
 33
0.0
  0
SOLID
  5
17A
330
176
100
AcDbEntity
  8
DIM
100
AcDbTrace
 10
95.3870695284
 20
37.9324303386
 30
0.0
 11
95.5120695284
 21
38.9324303386
 31
0.0
 12
95.2620695284
 22
38.9324303386
 32
0.0
 13
95.2620695284
 23
38.9324303386
 33
0.0
  0
LINE
  5
17B
330
176
100
AcDbEntity
  8
DIM
100
AcDbLine
 10
92.1870695284
 20
64.2214303386
 30
0.0
 11
95.8870695284
 21
64.2214303386
 31
0.0
  0
LINE
  5
17C
330
176
100
AcDbEntity
  8
DIM
100
AcDbLine
 10
92.1870695284
 20
37.9324303386
 30
0.0
 11
95.8870695284
 21
37.9324303386
 31
0.0
  0
LINE
  5
17D
330
176
100
AcDbEntity
  8
DIM
100
AcDbLine
 10
95.3870695284
 20
64.2214303386
 30
0.0
 11
95.3870695284
 21
37.9324303386
 31
0.0
  0
MTEXT
  5
17E
330
176
100
AcDbEntity
  8
DIM
100
AcDbMText
 10
93.8522733089
 20
48.4057411981
 30
0.0
 40
1.190625
 41
0.0
 71
     1
 72
     1
  1
1.035-40
  7
SLDTEXTSTYLE1
 11
-7.044195017643634E-15
 21
1.0
 31
0.0
 73
     1
 44
1.0
  0
ENDBLK
  5
178
330
176
100
AcDbEntity
  8
0
100
AcDbBlockEnd
  0
ENDSEC
  0
SECTION
  2
ENTITIES
  0
HATCH
  5
89
330
1F
100
AcDbEntity
  8
0
  6
Continuous
 62
     7
100
AcDbHatch
 10
0.0
 20
0.0
 30
0.0
210
0.0
220
0.0
230
1.0
  2
SOLID
 70
     1
 71
     0
 91
        1
 92
        0
 93
       10
 72
     2
 10
96.07029828146834
 20
17.87790440494428
 40
1.494818328884929
 50
50.39692260731407
 51
112.8514693252983
 73
     0
 72
     2
 10
95.907502981406
 20
17.71949914003102
 40
1.288667713408809
 50
108.9134333432861
 51
219.5668234386827
 73
     0
 72
     1
 10
94.91409196948017
 20
18.54035176807505
 11
94.40649504577894
 21
18.98811771848393
 72
     1
 10
94.40649504577894
 20
18.98811771848393
 11
93.75318091833812
 21
18.35732418023018
 72
     2
 10
94.24712339931945
 20
17.77306056386223
 40
0.7650772169718307
 50
130.2115225915088
 51
228.5889041080191
 73
     1
 72
     1
 10
93.7410576273255
 20
17.19926566814989
 11
95.7456587824233
 21
15.45696374801255
 72
     1
 10
95.7456587824233
 20
15.45696374801255
 11
95.43013282221574
 21
15.14901355277703
 72
     1
 10
95.43013282221574
 20
15.14901355277703
 11
95.92607250457851
 21
14.72202641930012
 72
     1
 10
95.92607250457851
 20
14.72202641930012
 11
97.53090472176115
 21
16.28031540205786
 72
     1
 10
97.53090472176115
 20
16.28031540205786
 11
97.02319320593206
 21
16.72617826592441
 97
        0
 75
     0
 76
     1
 98
        1
 10
0.0
 20
0.0
  0
HATCH
  5
8A
330
1F
100
AcDbEntity
  8
0
  6
Continuous
 62
     1
100
AcDbHatch
 10
0.0
 20
0.0
 30
0.0
210
0.0
220
0.0
230
1.0
  2
SOLID
 70
     1
 71
     0
 91
        1
 92
        0
 93
       10
 72
     2
 10
96.29462278138442
 20
17.83153457815805
 40
1.288783744173125
 50
317.8184992995785
 51
398.0564711573078
 73
     0
 72
     1
 10
97.30941570290815
 20
17.03707950348723
 11
97.80214014939956
 21
16.60773103354249
 72
     1
 10
97.80214014939956
 20
16.60773103354249
 11
98.42298080679645
 21
17.2099475047461
 72
     2
 10
97.97628464396539
 20
17.82392087065656
 40
0.7592764687091326
 50
306.0377529468138
 51
403.4396461533871
 73
     1
 72
     1
 10
98.52759457630154
 20
18.34599185667563
 11
96.46421664712989
 21
20.14057999099261
 72
     1
 10
96.46421664712989
 20
20.14057999099261
 11
96.77634229809352
 21
20.44510920641128
 72
     1
 10
96.77634229809352
 20
20.44510920641128
 11
96.3110890430015
 21
20.86020531633353
 72
     1
 10
96.3110890430015
 20
20.86020531633353
 11
94.69329631879657
 21
19.29674519302649
 72
     1
 10
94.69329631879657
 20
19.29674519302649
 11
95.20450025747084
 21
18.85084992946609
 72
     2
 10
96.13579463602218
 20
17.56112367541896
 40
1.590818352263938
 50
234.1674444878512
 51
314.4407074583994
 73
     0
 97
        0
 75
     0
 76
     1
 98
        1
 10
0.0
 20
0.0
  0
LINE
  5
8B
330
1F
100
AcDbEntity
  8
0
  6
Continuous
 62
     7
370
     0
100
AcDbLine
 10
83.9296887592
 20
8.8872596256
 30
0.0
 11
84.4296887592
 21
8.8872596256
 31
0.0
  0
LINE
  5
8C
330
1F
100
AcDbEntity
  8
0
  6
Continuous
 62
     7
370
     0
100
AcDbLine
 10
82.4296887592
 20
8.8872596256
 30
0.0
 11
83.6796887592
 21
8.8872596256
 31
0.0
  0
LINE
  5
8D
330
1F
100
AcDbEntity
  8
0
  6
Continuous
 62
     7
370
     0
100
AcDbLine
 10
90.6796887592
 20
7.6372596256
 30
0.0
 11
90.6796887592
 21
10.1372596256
 31
0.0
  0
LINE
  5
8E
330
1F
100
AcDbEntity
  8
0
  6
Continuous
 62
     7
370
     0
100
AcDbLine
 10
87.1796887592
 20
8.1372596256
 30
0.0
 11
90.6796887592
 21
7.6372596256
 31
0.0
  0
LINE
  5
8F
330
1F
100
AcDbEntity
  8
0
  6
Continuous
 62
     7
370
     0
100
AcDbLine
 10
84.1796887592
 20
8.3872596256
 30
0.0
 11
84.1796887592
 21
7.1372596256
 31
0.0
  0
LINE
  5
90
330
1F
100
AcDbEntity
  8
0
  6
Continuous
 62
     7
370
     0
100
AcDbLine
 10
90.6796887592
 20
10.1372596256
 30
0.0
 11
87.1796887592
 21
9.6372596256
 31
0.0
  0
LINE
  5
91
330
1F
100
AcDbEntity
  8
0
  6
Continuous
 62
     7
370
     0
100
AcDbLine
 10
86.6796887592
 20
8.8872596256
 30
0.0
 11
91.1796887592
 21
8.8872596256
 31
0.0
  0
LINE
  5
92
330
1F
100
AcDbEntity
  8
0
  6
Continuous
 62
     7
370
     0
100
AcDbLine
 10
84.1796887592
 20
9.1372596256
 30
0.0
 11
84.1796887592
 21
8.6372596256
 31
0.0
  0
LINE
  5
93
330
1F
100
AcDbEntity
  8
0
  6
Continuous
 62
     7
370
     0
100
AcDbLine
 10
84.6796887592
 20
8.8872596256
 30
0.0
 11
85.9296887592
 21
8.8872596256
 31
0.0
  0
LINE
  5
94
330
1F
100
AcDbEntity
  8
0
  6
Continuous
 62
     7
370
     0
100
AcDbLine
 10
84.1796887592
 20
10.6372596256
 30
0.0
 11
84.1796887592
 21
9.3872596256
 31
0.0
  0
LINE
  5
95
330
1F
100
AcDbEntity
  8
0
  6
Continuous
 62
     7
370
     0
100
AcDbLine
 10
87.1796887592
 20
9.6372596256
 30
0.0
 11
87.1796887592
 21
8.1372596256
 31
0.0
  0
LINE
  5
96
330
1F
100
AcDbEntity
  8
工作區域參考線
 62
     1
370
    30
100
AcDbLine
 10
95.2045002575
 20
18.8508499295
 30
0.0
 11
94.6932963188
 21
19.296745193
 31
0.0
  0
LINE
  5
97
330
1F
100
AcDbEntity
  8
工作區域參考線
 62
     1
370
    30
100
AcDbLine
 10
94.6932963188
 20
19.296745193
 30
0.0
 11
96.311089043
 21
20.8602053163
 31
0.0
  0
LINE
  5
98
330
1F
100
AcDbEntity
  8
工作區域參考線
 62
     1
370
    30
100
AcDbLine
 10
96.311089043
 20
20.8602053163
 30
0.0
 11
96.7763422981
 21
20.4451092064
 31
0.0
  0
LINE
  5
99
330
1F
100
AcDbEntity
  8
工作區域參考線
 62
     1
370
    30
100
AcDbLine
 10
96.7763422981
 20
20.4451092064
 30
0.0
 11
96.4642166471
 21
20.140579991
 31
0.0
  0
LINE
  5
9A
330
1F
100
AcDbEntity
  8
工作區域參考線
 62
     1
370
    30
100
AcDbLine
 10
96.4642166471
 20
20.140579991
 30
0.0
 11
98.5275945763
 21
18.3459918567
 31
0.0
  0
LINE
  5
9B
330
1F
100
AcDbEntity
  8
工作區域參考線
 62
     1
370
    30
100
AcDbLine
 10
97.3094157029
 20
17.0370795035
 30
0.0
 11
97.8021401494
 21
16.6077310335
 31
0.0
  0
LINE
  5
9C
330
1F
100
AcDbEntity
  8
工作區域參考線
 62
     1
370
    30
100
AcDbLine
 10
97.8021401494
 20
16.6077310335
 30
0.0
 11
98.4229808068
 21
17.2099475047
 31
0.0
  0
LINE
  5
9D
330
1F
100
AcDbEntity
  8
0
  6
Continuous
 62
     7
370
     0
100
AcDbLine
 10
92.8453982605
 20
6.557623204
 30
0.0
 11
142.8453982605
 21
6.557623204
 31
0.0
  0
LINE
  5
9E
330
1F
100
AcDbEntity
  8
0
  6
Continuous
 62
     7
370
     0
100
AcDbLine
 10
92.8453982605
 20
9.057623204
 30
0.0
 11
117.8453982605
 21
9.057623204
 31
0.0
  0
LINE
  5
9F
330
1F
100
AcDbEntity
  8
0
  6
Continuous
 62
     7
370
     0
100
AcDbLine
 10
92.8453982605
 20
11.557623204
 30
0.0
 11
117.8453982605
 21
11.557623204
 31
0.0
  0
LINE
  5
A0
330
1F
100
AcDbEntity
  8
0
  6
Continuous
 62
     7
370
     0
100
AcDbLine
 10
92.8453982605
 20
14.057623204
 30
0.0
 11
142.8453982605
 21
14.057623204
 31
0.0
  0
LINE
  5
A1
330
1F
100
AcDbEntity
  8
0
  6
Continuous
 62
     7
370
     0
100
AcDbLine
 10
117.8453982605
 20
16.557623204
 30
0.0
 11
142.8453982605
 21
16.557623204
 31
0.0
  0
LINE
  5
A2
330
1F
100
AcDbEntity
  8
0
  6
Continuous
 62
     7
370
    15
100
AcDbLine
 10
117.8453982605
 20
9.057623204
 30
0.0
 11
142.8453982605
 21
9.057623204
 31
0.0
  0
LINE
  5
A3
330
1F
100
AcDbEntity
  8
0
  6
Continuous
 62
     7
370
     0
100
AcDbLine
 10
92.8453982605
 20
21.557623204
 30
0.0
 11
142.8453982605
 21
21.557623204
 31
0.0
  0
LINE
  5
A4
330
1F
100
AcDbEntity
  8
0
  6
Continuous
 62
     7
370
     0
100
AcDbLine
 10
125.6186088375
 20
4.057623204
 30
0.0
 11
125.6186088375
 21
9.057623204
 31
0.0
  0
LINE
  5
A5
330
1F
100
AcDbEntity
  8
0
  6
Continuous
 62
     7
370
     0
100
AcDbLine
 10
117.8453982605
 20
4.057623204
 30
0.0
 11
117.8453982605
 21
21.557623204
 31
0.0
  0
LINE
  5
A6
330
1F
100
AcDbEntity
  8
0
  6
Continuous
 62
     7
370
     0
100
AcDbLine
 10
125.6186088375
 20
14.057623204
 30
0.0
 11
125.6186088375
 21
16.557623204
 31
0.0
  0
LINE
  5
A7
330
1F
100
AcDbEntity
  8
0
  6
Continuous
 62
     7
370
     0
100
AcDbLine
 10
107.2082043177
 20
4.057623204
 30
0.0
 11
107.2082043177
 21
14.057623204
 31
0.0
  0
LINE
  5
A8
330
1F
100
AcDbEntity
  8
0
  6
Continuous
 62
     7
370
     0
100
AcDbLine
 10
99.8892943753
 20
4.057623204
 30
0.0
 11
99.8892943753
 21
14.057623204
 31
0.0
  0
LINE
  5
A9
330
1F
100
AcDbEntity
  8
0
  6
Continuous
 62
     7
370
     0
100
AcDbLine
 10
92.8453982605
 20
4.057623204
 30
0.0
 11
92.8453982605
 21
21.557623204
 31
0.0
  0
LINE
  5
AA
330
1F
100
AcDbEntity
  8
0
  6
Continuous
 62
     7
370
    15
100
AcDbLine
 10
21.6603982605
 20
100.6860137875
 30
0.0
 11
21.6603982605
 21
101.4360137875
 31
0.0
  0
LINE
  5
AB
330
1F
100
AcDbEntity
  8
0
  6
Continuous
 62
     7
370
    15
100
AcDbLine
 10
38.9753982605
 20
100.6860137875
 30
0.0
 11
38.9753982605
 21
101.4360137875
 31
0.0
  0
LINE
  5
AC
330
1F
100
AcDbEntity
  8
0
  6
Continuous
 62
     7
370
    15
100
AcDbLine
 10
56.2903982605
 20
100.6860137875
 30
0.0
 11
56.2903982605
 21
101.4360137875
 31
0.0
  0
LINE
  5
AD
330
1F
100
AcDbEntity
  8
0
  6
Continuous
 62
     7
370
    15
100
AcDbLine
 10
73.6053982605
 20
100.6860137875
 30
0.0
 11
73.6053982605
 21
101.4360137875
 31
0.0
  0
LINE
  5
AE
330
1F
100
AcDbEntity
  8
0
  6
Continuous
 62
     7
370
    15
100
AcDbLine
 10
90.9203982605
 20
100.6860137875
 30
0.0
 11
90.9203982605
 21
101.4360137875
 31
0.0
  0
LINE
  5
AF
330
1F
100
AcDbEntity
  8
0
  6
Continuous
 62
     7
370
    15
100
AcDbLine
 10
108.2353982605
 20
100.6860137875
 30
0.0
 11
108.2353982605
 21
101.4360137875
 31
0.0
  0
LINE
  5
B0
330
1F
100
AcDbEntity
  8
0
  6
Continuous
 62
     7
370
    15
100
AcDbLine
 10
125.5503982605
 20
100.6860137875
 30
0.0
 11
125.5503982605
 21
101.4360137875
 31
0.0
  0
LINE
  5
B1
330
1F
100
AcDbEntity
  8
0
  6
Continuous
 62
     7
370
    15
100
AcDbLine
 10
21.6578982605
 20
4.057623204
 30
0.0
 11
21.6578982605
 21
3.307623204
 31
0.0
  0
LINE
  5
B2
330
1F
100
AcDbEntity
  8
0
  6
Continuous
 62
     7
370
    15
100
AcDbLine
 10
38.9703982605
 20
4.057623204
 30
0.0
 11
38.9703982605
 21
3.307623204
 31
0.0
  0
LINE
  5
B3
330
1F
100
AcDbEntity
  8
0
  6
Continuous
 62
     7
370
    15
100
AcDbLine
 10
56.2828982605
 20
4.057623204
 30
0.0
 11
56.2828982605
 21
3.307623204
 31
0.0
  0
LINE
  5
B4
330
1F
100
AcDbEntity
  8
0
  6
Continuous
 62
     7
370
    15
100
AcDbLine
 10
73.5953982605
 20
4.057623204
 30
0.0
 11
73.5953982605
 21
3.307623204
 31
0.0
  0
LINE
  5
B5
330
1F
100
AcDbEntity
  8
0
  6
Continuous
 62
     7
370
    15
100
AcDbLine
 10
90.9078982605
 20
4.057623204
 30
0.0
 11
90.9078982605
 21
3.307623204
 31
0.0
  0
LINE
  5
B6
330
1F
100
AcDbEntity
  8
0
  6
Continuous
 62
     7
370
    15
100
AcDbLine
 10
108.2203982605
 20
4.057623204
 30
0.0
 11
108.2203982605
 21
3.307623204
 31
0.0
  0
LINE
  5
B7
330
1F
100
AcDbEntity
  8
0
  6
Continuous
 62
     7
370
     0
100
AcDbLine
 10
142.8453982605
 20
100.6860137875
 30
0.0
 11
4.3453982605
 21
100.6860137875
 31
0.0
  0
LINE
  5
B8
330
1F
100
AcDbEntity
  8
0
  6
Continuous
 62
     7
370
     0
100
AcDbLine
 10
142.8453982605
 20
4.057623204
 30
0.0
 11
142.8453982605
 21
100.6860137875
 31
0.0
  0
LINE
  5
B9
330
1F
100
AcDbEntity
  8
0
  6
Continuous
 62
     7
370
     0
100
AcDbLine
 10
4.3453982605
 20
100.6860137875
 30
0.0
 11
4.3453982605
 21
4.057623204
 31
0.0
  0
LINE
  5
BA
330
1F
100
AcDbEntity
  8
0
  6
Continuous
 62
     7
370
     0
100
AcDbLine
 10
4.3453982605
 20
4.057623204
 30
0.0
 11
142.8453982605
 21
4.057623204
 31
0.0
  0
LINE
  5
BB
330
1F
100
AcDbEntity
  8
0
  6
Continuous
 62
     7
370
    15
100
AcDbLine
 10
125.5328982605
 20
4.057623204
 30
0.0
 11
125.5328982605
 21
3.307623204
 31
0.0
  0
LINE
  5
BC
330
1F
100
AcDbEntity
  8
0
  6
Continuous
 62
     7
370
    15
100
AcDbLine
 10
4.3453982605
 20
20.162623204
 30
0.0
 11
3.5953982605
 21
20.162623204
 31
0.0
  0
LINE
  5
BD
330
1F
100
AcDbEntity
  8
0
  6
Continuous
 62
     7
370
    15
100
AcDbLine
 10
4.3453982605
 20
36.267623204
 30
0.0
 11
3.5953982605
 21
36.267623204
 31
0.0
  0
LINE
  5
BE
330
1F
100
AcDbEntity
  8
0
  6
Continuous
 62
     7
370
    15
100
AcDbLine
 10
4.3453982605
 20
52.372623204
 30
0.0
 11
3.5953982605
 21
52.372623204
 31
0.0
  0
LINE
  5
BF
330
1F
100
AcDbEntity
  8
0
  6
Continuous
 62
     7
370
    15
100
AcDbLine
 10
4.3453982605
 20
68.477623204
 30
0.0
 11
3.5953982605
 21
68.477623204
 31
0.0
  0
LINE
  5
C0
330
1F
100
AcDbEntity
  8
0
  6
Continuous
 62
     7
370
    15
100
AcDbLine
 10
4.3453982605
 20
84.582623204
 30
0.0
 11
3.5953982605
 21
84.582623204
 31
0.0
  0
LINE
  5
C1
330
1F
100
AcDbEntity
  8
0
  6
Continuous
 62
     7
370
    15
100
AcDbLine
 10
142.8453982605
 20
20.162623204
 30
0.0
 11
143.5953982605
 21
20.162623204
 31
0.0
  0
LINE
  5
C2
330
1F
100
AcDbEntity
  8
0
  6
Continuous
 62
     7
370
    15
100
AcDbLine
 10
142.8453982605
 20
36.267623204
 30
0.0
 11
143.5953982605
 21
36.267623204
 31
0.0
  0
LINE
  5
C3
330
1F
100
AcDbEntity
  8
0
  6
Continuous
 62
     7
370
    15
100
AcDbLine
 10
142.8453982605
 20
52.372623204
 30
0.0
 11
143.5953982605
 21
52.372623204
 31
0.0
  0
LINE
  5
C4
330
1F
100
AcDbEntity
  8
0
  6
Continuous
 62
     7
370
    15
100
AcDbLine
 10
142.8453982605
 20
68.477623204
 30
0.0
 11
143.5953982605
 21
68.477623204
 31
0.0
  0
LINE
  5
C5
330
1F
100
AcDbEntity
  8
0
  6
Continuous
 62
     7
370
    15
100
AcDbLine
 10
142.8453982605
 20
84.582623204
 30
0.0
 11
143.5953982605
 21
84.582623204
 31
0.0
  0
CIRCLE
  5
C6
330
1F
100
AcDbEntity
  8
0
  6
Continuous
 62
     7
370
     0
100
AcDbCircle
 10
84.1796887592
 20
8.8872596256
 30
0.0
 40
0.75
  0
CIRCLE
  5
C7
330
1F
100
AcDbEntity
  8
0
  6
Continuous
 62
     7
370
     0
100
AcDbCircle
 10
84.1796887592
 20
8.8872596256
 30
0.0
 40
1.25
  0
ARC
  5
C8
330
1F
100
AcDbEntity
  8
工作區域參考線
 62
     1
370
    30
100
AcDbCircle
 10
97.976284644
 20
17.8239208707
 30
0.0
 40
0.7592764687091375
100
AcDbArc
 50
306.0377529468
 51
43.4396461534
  0
ARC
  5
C9
330
1F
100
AcDbEntity
  8
工作區域參考線
 62
     1
370
    30
100
AcDbCircle
 10
96.135794636
 20
17.5611236754
 30
0.0
 40
1.590818352263945
100
AcDbArc
 50
45.5592925416
 51
125.8325555121
  0
ARC
  5
CA
330
1F
100
AcDbEntity
  8
工作區域參考線
 62
     1
370
    30
100
AcDbCircle
 10
96.2946227814
 20
17.8315345782
 30
0.0
 40
1.288783744173133
100
AcDbArc
 50
321.9435288427
 51
42.1815007004
  0
INSERT
  5
CB
330
1F
100
AcDbEntity
  8
0
  6
Continuous
 62
     7
100
AcDbBlockReference
  2
圖塊6
 10
93.4820461823
 20
14.7220264193
 30
0.0
  0
MTEXT
  5
CD
330
1F
100
AcDbEntity
  8
0
  6
Continuous
 62
     7
370
     0
100
AcDbMText
 10
82.7713425402
 20
6.6104220185
 30
0.0
 40
1.3229166667
 41
0.0
 71
     1
 72
     1
  1
UNIT:m/m
  7
SLDTEXTSTYLE0
 73
     1
 44
1.0
  0
INSERT
  5
D4
330
1F
100
AcDbEntity
  8
0
  6
Continuous
 62
     7
370
     0
100
AcDbBlockReference
  2
SW_NOTE_0
 10
6.1157538027
 20
96.9452152126
 30
0.0
  0
MTEXT
  5
D5
330
1F
100
AcDbEntity
  8
0
  6
Continuous
 62
     7
370
     0
100
AcDbMText
 10
99.3625946967
 20
20.2203387069
 30
0.0
 40
1.190625
 41
0.0
 71
     1
 72
     1
  1
Unice E-O Services Inc.
  7
SLDTEXTSTYLE0
 73
     1
 44
1.0
  0
MTEXT
  5
D6
330
1F
100
AcDbEntity
  8
0
  6
Continuous
 62
     7
370
     0
100
AcDbMText
 10
108.7795269075
 20
10.7933574255
 30
0.0
 40
0.9260416667
 41
0.0
 71
     1
 72
     1
  1
2018/11/16
  7
SLDTEXTSTYLE0
 73
     1
 44
1.0
  0
MTEXT
  5
D7
330
1F
100
AcDbEntity
  8
0
  6
Continuous
 62
     7
370
     0
100
AcDbMText
 10
126.3044491253
 20
8.43558887
 30
0.0
 40
1.25
 41
0.0
 71
     1
 72
     1
  1
2:1
  7
SLDTEXTSTYLE0
 73
     1
 44
1.0
  0
MTEXT
  5
D8
330
1F
100
AcDbEntity
  8
0
  6
Continuous
 62
     7
370
     0
100
AcDbMText
 10
126.1537799992
 20
16.0759597719
 30
0.0
 40
1.25
 41
0.0
 71
     1
 72
     1
  1
04ETC-S1-0.5L
  7
SLDTEXTSTYLE0
 73
     1
 44
1.0
  0
MTEXT
  5
D9
330
1F
100
AcDbEntity
  8
0
  6
Continuous
 62
     7
370
     0
100
AcDbMText
 10
126.1537799992
 20
19.0541058939
 30
0.0
 40
1.25
 41
0.0
 71
     1
 72
     1
  1
04ETC-S1-0.5L
  7
SLDTEXTSTYLE0
 73
     1
 44
1.0
  0
MTEXT
  5
DA
330
1F
100
AcDbEntity
  8
0
  6
Continuous
 62
     7
370
     0
100
AcDbMText
 10
118.1960933393
 20
8.2532397864
 30
0.0
 40
1.0583333333
 41
0.0
 71
     1
 72
     1
  1
SCALE:
  7
SLDTEXTSTYLE0
 73
     1
 44
1.0
  0
MTEXT
  5
DB
330
1F
100
AcDbEntity
  8
0
  6
Continuous
 62
     7
370
     0
100
AcDbMText
 10
93.1668043395
 20
10.7933574255
 30
0.0
 40
0.9260416667
 41
0.0
 71
     1
 72
     1
  1
DRAWN
  7
SLDTEXTSTYLE0
 73
     1
 44
1.0
  0
MTEXT
  5
DC
330
1F
100
AcDbEntity
  8
0
  6
Continuous
 62
     7
370
     0
100
AcDbMText
 10
101.6114183968
 20
13.341604154
 30
0.0
 40
0.9260416667
 41
0.0
 71
     1
 72
     1
  1
NAME
  7
SLDTEXTSTYLE0
 73
     1
 44
1.0
  0
MTEXT
  5
DD
330
1F
100
AcDbEntity
  8
0
  6
Continuous
 62
     7
370
     0
100
AcDbMText
 10
110.4355077879
 20
13.341604154
 30
0.0
 40
0.9260416667
 41
0.0
 71
     1
 72
     1
  1
DATE
  7
SLDTEXTSTYLE0
 73
     1
 44
1.0
  0
MTEXT
  5
DE
330
1F
100
AcDbEntity
  8
0
  6
Continuous
 62
     7
370
     0
100
AcDbMText
 10
118.1378158323
 20
15.8936106883
 30
0.0
 40
1.0583333333
 41
0.0
 71
     1
 72
     1
  1
DWG. NO.
  7
SLDTEXTSTYLE0
 73
     1
 44
1.0
  0
MTEXT
  5
DF
330
1F
100
AcDbEntity
  8
0
  6
Continuous
 62
     7
370
     0
100
AcDbMText
 10
118.1814953544
 20
20.9420329122
 30
0.0
 40
1.0583333333
 41
0.0
 71
     1
 72
     1
  1
TITLE:
  7
SLDTEXTSTYLE0
 73
     1
 44
1.0
  0
MTEXT
  5
E0
330
1F
100
AcDbEntity
  8
0
  6
Continuous
 62
     7
370
     0
100
AcDbMText
 10
101.5157104901
 20
8.1201894862
 30
0.0
 40
0.9260416667
 41
0.0
 71
     1
 72
     1
  1
Johnny
  7
SLDTEXTSTYLE0
 73
     1
 44
1.0
  0
MTEXT
  5
E1
330
1F
100
AcDbEntity
  8
0
  6
Continuous
 62
     7
370
     0
100
AcDbMText
 10
108.7795269075
 20
8.1201894862
 30
0.0
 40
0.9260416667
 41
0.0
 71
     1
 72
     1
  1
2018/11/16
  7
SLDTEXTSTYLE0
 73
     1
 44
1.0
  0
MTEXT
  5
E2
330
1F
100
AcDbEntity
  8
0
  6
Continuous
 62
     7
370
     0
100
AcDbMText
 10
93.1668043395
 20
8.1201894862
 30
0.0
 40
0.9260416667
 41
0.0
 71
     1
 72
     1
  1
ENG APPR.
  7
SLDTEXTSTYLE0
 73
     1
 44
1.0
  0
MTEXT
  5
E3
330
1F
100
AcDbEntity
  8
0
  6
Continuous
 62
     7
370
     0
100
AcDbMText
 10
118.1960933393
 20
5.8426694644
 30
0.0
 40
1.0583333333
 41
0.0
 71
     1
 72
     1
  1
REV
  7
SLDTEXTSTYLE0
 73
     1
 44
1.0
  0
MTEXT
  5
E4
330
1F
100
AcDbEntity
  8
0
  6
Continuous
 62
     7
370
     0
100
AcDbMText
 10
118.1814953544
 20
13.4746544542
 30
0.0
 40
1.0583333333
 41
0.0
 71
     1
 72
     1
  1
MATERIAL:
  7
SLDTEXTSTYLE0
 73
     1
 44
1.0
  0
MTEXT
  5
E5
330
1F
100
AcDbEntity
  8
0
  6
Continuous
 62
     7
370
     0
100
AcDbMText
 10
126.3044491253
 20
11.1087568093
 30
0.0
 40
1.25
 41
0.0
 71
     1
 72
     1
  1
N/A
  7
SLDTEXTSTYLE0
 73
     1
 44
1.0
  0
MTEXT
  5
E6
330
1F
100
AcDbEntity
  8
0
  6
Continuous
 62
     7
370
     0
100
AcDbMText
 10
13.3014965767
 20
102.2266758285
 30
0.0
 40
1.0583333333
 41
0.0
 71
     1
 72
     1
  1
1
  7
SLDTEXTSTYLE0
 73
     1
 44
1.0
  0
MTEXT
  5
E7
330
1F
100
AcDbEntity
  8
0
  6
Continuous
 62
     7
370
     0
100
AcDbMText
 10
30.3585497862
 20
102.2266758285
 30
0.0
 40
1.0583333333
 41
0.0
 71
     1
 72
     1
  1
2
  7
SLDTEXTSTYLE0
 73
     1
 44
1.0
  0
MTEXT
  5
E8
330
1F
100
AcDbEntity
  8
0
  6
Continuous
 62
     7
370
     0
100
AcDbMText
 10
47.4504971953
 20
102.2266758285
 30
0.0
 40
1.0583333333
 41
0.0
 71
     1
 72
     1
  1
3
  7
SLDTEXTSTYLE0
 73
     1
 44
1.0
  0
MTEXT
  5
E9
330
1F
100
AcDbEntity
  8
0
  6
Continuous
 62
     7
370
     0
100
AcDbMText
 10
64.6266681426
 20
102.1496292182
 30
0.0
 40
1.0583333333
 41
0.0
 71
     1
 72
     1
  1
4
  7
SLDTEXTSTYLE0
 73
     1
 44
1.0
  0
MTEXT
  5
EA
330
1F
100
AcDbEntity
  8
0
  6
Continuous
 62
     7
370
     0
100
AcDbMText
 10
81.851161732
 20
102.2266758285
 30
0.0
 40
1.0583333333
 41
0.0
 71
     1
 72
     1
  1
5
  7
SLDTEXTSTYLE0
 73
     1
 44
1.0
  0
MTEXT
  5
EB
330
1F
100
AcDbEntity
  8
0
  6
Continuous
 62
     7
370
     0
100
AcDbMText
 10
99.3191085208
 20
102.2266758285
 30
0.0
 40
1.0583333333
 41
0.0
 71
     1
 72
     1
  1
6
  7
SLDTEXTSTYLE0
 73
     1
 44
1.0
  0
MTEXT
  5
EC
330
1F
100
AcDbEntity
  8
0
  6
Continuous
 62
     7
370
     0
100
AcDbMText
 10
117.1815328703
 20
102.2266758285
 30
0.0
 40
1.0583333333
 41
0.0
 71
     1
 72
     1
  1
7
  7
SLDTEXTSTYLE0
 73
     1
 44
1.0
  0
MTEXT
  5
ED
330
1F
100
AcDbEntity
  8
0
  6
Continuous
 62
     7
370
     0
100
AcDbMText
 10
133.1393910247
 20
102.2266758285
 30
0.0
 40
1.0583333333
 41
0.0
 71
     1
 72
     1
  1
8
  7
SLDTEXTSTYLE0
 73
     1
 44
1.0
  0
MTEXT
  5
EE
330
1F
100
AcDbEntity
  8
0
  6
Continuous
 62
     7
370
     0
100
AcDbMText
 10
2.6784118277
 20
92.905651144
 30
0.0
 40
1.0583333333
 41
0.0
 71
     1
 72
     1
  1
A
  7
SLDTEXTSTYLE0
 73
     1
 44
1.0
  0
MTEXT
  5
EF
330
1F
100
AcDbEntity
  8
0
  6
Continuous
 62
     7
370
     0
100
AcDbMText
 10
2.7955215916
 20
77.1496524119
 30
0.0
 40
1.0583333333
 41
0.0
 71
     1
 72
     1
  1
B
  7
SLDTEXTSTYLE0
 73
     1
 44
1.0
  0
MTEXT
  5
F0
330
1F
100
AcDbEntity
  8
0
  6
Continuous
 62
     7
370
     0
100
AcDbMText
 10
2.7955215916
 20
60.6371757115
 30
0.0
 40
1.0583333333
 41
0.0
 71
     1
 72
     1
  1
C
  7
SLDTEXTSTYLE0
 73
     1
 44
1.0
  0
MTEXT
  5
F1
330
1F
100
AcDbEntity
  8
0
  6
Continuous
 62
     7
370
     0
100
AcDbMText
 10
2.7955215916
 20
44.372661011
 30
0.0
 40
1.0583333333
 41
0.0
 71
     1
 72
     1
  1
D
  7
SLDTEXTSTYLE0
 73
     1
 44
1.0
  0
MTEXT
  5
F2
330
1F
100
AcDbEntity
  8
0
  6
Continuous
 62
     7
370
     0
100
AcDbMText
 10
2.7955215916
 20
28.7779424599
 30
0.0
 40
1.0583333333
 41
0.0
 71
     1
 72
     1
  1
E
  7
SLDTEXTSTYLE0
 73
     1
 44
1.0
  0
MTEXT
  5
F3
330
1F
100
AcDbEntity
  8
0
  6
Continuous
 62
     7
370
     0
100
AcDbMText
 10
2.7955215916
 20
12.7847106126
 30
0.0
 40
1.0583333333
 41
0.0
 71
     1
 72
     1
  1
F
  7
SLDTEXTSTYLE0
 73
     1
 44
1.0
  0
MTEXT
  5
F4
330
1F
100
AcDbEntity
  8
0
  6
Continuous
 62
     7
370
     0
100
AcDbMText
 10
133.0929308482
 20
3.3118111982
 30
0.0
 40
1.0583333333
 41
0.0
 71
     1
 72
     1
  1
8
  7
SLDTEXTSTYLE0
 73
     1
 44
1.0
  0
MTEXT
  5
F5
330
1F
100
AcDbEntity
  8
0
  6
Continuous
 62
     7
370
     0
100
AcDbMText
 10
117.1350726938
 20
3.3118111982
 30
0.0
 40
1.0583333333
 41
0.0
 71
     1
 72
     1
  1
7
  7
SLDTEXTSTYLE0
 73
     1
 44
1.0
  0
MTEXT
  5
F6
330
1F
100
AcDbEntity
  8
0
  6
Continuous
 62
     7
370
     0
100
AcDbMText
 10
99.2726483442
 20
3.3118111982
 30
0.0
 40
1.0583333333
 41
0.0
 71
     1
 72
     1
  1
6
  7
SLDTEXTSTYLE0
 73
     1
 44
1.0
  0
MTEXT
  5
F7
330
1F
100
AcDbEntity
  8
0
  6
Continuous
 62
     7
370
     0
100
AcDbMText
 10
81.8047015555
 20
3.3118111982
 30
0.0
 40
1.0583333333
 41
0.0
 71
     1
 72
     1
  1
5
  7
SLDTEXTSTYLE0
 73
     1
 44
1.0
  0
MTEXT
  5
F8
330
1F
100
AcDbEntity
  8
0
  6
Continuous
 62
     7
370
     0
100
AcDbMText
 10
64.580207966
 20
3.2347645879
 30
0.0
 40
1.0583333333
 41
0.0
 71
     1
 72
     1
  1
4
  7
SLDTEXTSTYLE0
 73
     1
 44
1.0
  0
MTEXT
  5
F9
330
1F
100
AcDbEntity
  8
0
  6
Continuous
 62
     7
370
     0
100
AcDbMText
 10
47.4040370188
 20
3.3118111982
 30
0.0
 40
1.0583333333
 41
0.0
 71
     1
 72
     1
  1
3
  7
SLDTEXTSTYLE0
 73
     1
 44
1.0
  0
MTEXT
  5
FA
330
1F
100
AcDbEntity
  8
0
  6
Continuous
 62
     7
370
     0
100
AcDbMText
 10
30.3120896097
 20
3.3118111982
 30
0.0
 40
1.0583333333
 41
0.0
 71
     1
 72
     1
  1
2
  7
SLDTEXTSTYLE0
 73
     1
 44
1.0
  0
MTEXT
  5
FB
330
1F
100
AcDbEntity
  8
0
  6
Continuous
 62
     7
370
     0
100
AcDbMText
 10
13.2550364001
 20
3.3118111982
 30
0.0
 40
1.0583333333
 41
0.0
 71
     1
 72
     1
  1
1
  7
SLDTEXTSTYLE0
 73
     1
 44
1.0
  0
MTEXT
  5
FC
330
1F
100
AcDbEntity
  8
0
  6
Continuous
 62
     7
370
     0
100
AcDbMText
 10
143.5511923072
 20
93.3212454546
 30
0.0
 40
1.0583333333
 41
0.0
 71
     1
 72
     1
  1
A
  7
SLDTEXTSTYLE0
 73
     1
 44
1.0
  0
MTEXT
  5
FD
330
1F
100
AcDbEntity
  8
0
  6
Continuous
 62
     7
370
     0
100
AcDbMText
 10
143.6683020711
 20
77.5652467225
 30
0.0
 40
1.0583333333
 41
0.0
 71
     1
 72
     1
  1
B
  7
SLDTEXTSTYLE0
 73
     1
 44
1.0
  0
MTEXT
  5
FE
330
1F
100
AcDbEntity
  8
0
  6
Continuous
 62
     7
370
     0
100
AcDbMText
 10
143.6683020711
 20
61.0527700221
 30
0.0
 40
1.0583333333
 41
0.0
 71
     1
 72
     1
  1
C
  7
SLDTEXTSTYLE0
 73
     1
 44
1.0
  0
MTEXT
  5
FF
330
1F
100
AcDbEntity
  8
0
  6
Continuous
 62
     7
370
     0
100
AcDbMText
 10
143.6683020711
 20
44.7882553217
 30
0.0
 40
1.0583333333
 41
0.0
 71
     1
 72
     1
  1
D
  7
SLDTEXTSTYLE0
 73
     1
 44
1.0
  0
MTEXT
  5
100
330
1F
100
AcDbEntity
  8
0
  6
Continuous
 62
     7
370
     0
100
AcDbMText
 10
143.6683020711
 20
29.1935367705
 30
0.0
 40
1.0583333333
 41
0.0
 71
     1
 72
     1
  1
E
  7
SLDTEXTSTYLE0
 73
     1
 44
1.0
  0
MTEXT
  5
101
330
1F
100
AcDbEntity
  8
0
  6
Continuous
 62
     7
370
     0
100
AcDbMText
 10
143.6683020711
 20
13.2003049232
 30
0.0
 40
1.0583333333
 41
0.0
 71
     1
 72
     1
  1
F
  7
SLDTEXTSTYLE0
 73
     1
 44
1.0
  0
MTEXT
  5
102
330
1F
100
AcDbEntity
  8
0
  6
Continuous
 62
     7
370
     0
100
AcDbMText
 10
101.5776564401
 20
10.7933574255
 30
0.0
 40
0.9260416667
 41
0.0
 71
     1
 72
     1
  1
Sky
  7
SLDTEXTSTYLE0
 73
     1
 44
1.0
  0
MTEXT
  5
104
330
1F
100
AcDbEntity
  8
0
  6
Continuous
 62
     7
370
     0
100
AcDbMText
 10
126.4241119823
 20
6.1109801659
 30
0.0
 40
1.190625
 41
0.0
 71
     1
 72
     1
  1
0
  7
SLDTEXTSTYLE1
 73
     1
 44
1.0
  0
INSERT
  5
10A
330
1F
100
AcDbEntity
  8
SLD-0
 62
     7
100
AcDbBlockReference
  2
SW_NOTE_1
 10
99.3625946967
 20
16.7739872606
 30
0.0
  0
CIRCLE
  5
10B
330
1F
100
AcDbEntity
  8
0
  6
Continuous
 62
     7
370
    30
100
AcDbCircle
 10
40.4226139597
 20
51.0769303386
 30
0.0
 40
15.7
  0
CIRCLE
  5
10C
330
1F
100
AcDbEntity
  8
0
  6
Continuous
 62
     7
370
    30
100
AcDbCircle
 10
40.4226139597
 20
51.0769303386
 30
0.0
 40
15.9
  0
CIRCLE
  5
10D
330
1F
100
AcDbEntity
  8
0
  6
Continuous
 62
     7
370
    30
100
AcDbCircle
 10
40.4226139597
 20
51.0769303386
 30
0.0
 40
12.0
  0
CIRCLE
  5
10E
330
1F
100
AcDbEntity
  8
0
  6
Continuous
 62
     7
370
    30
100
AcDbCircle
 10
40.4226139597
 20
51.0769303386
 30
0.0
 40
12.20000000000002
  0
CIRCLE
  5
10F
330
1F
100
AcDbEntity
  8
0
  6
Continuous
 62
     7
370
    30
100
AcDbCircle
 10
40.4226139597
 20
51.0769303386
 30
0.0
 40
12.94449999999996
  0
CIRCLE
  5
110
330
1F
100
AcDbEntity
  8
0
  6
Continuous
 62
     7
370
    30
100
AcDbCircle
 10
40.4226139597
 20
51.0769303386
 30
0.0
 40
13.14450000000001
  0
DIMENSION
  5
111
330
1F
100
AcDbEntity
  8
DIM
100
AcDbDimension
  2
_D
 10
46.952796399
 20
41.0093230106
 30
0.0
 11
19.1109994039
 21
71.270680329
 31
0.0
 70
   163
  1
<> CLEAR APERTURE
 71
     1
 42
-1.0
  3
SLDDIMSTYLE0
100
AcDbDiametricDimension
 15
33.8924315205
 25
61.1445376665
 35
0.0
 40
0.0
  0
DIMENSION
  5
11C
330
1F
100
AcDbEntity
  8
DIM
100
AcDbDimension
  2
_D_1
 10
29.2875894877
 20
62.4268743916
 30
0.0
 11
62.2931608274
 21
32.470680329
 31
0.0
 70
   163
  1
<>
 71
     1
 42
-1.0
  3
SLDDIMSTYLE0
100
AcDbDiametricDimension
 15
51.5576384318
 25
39.7269862856
 35
0.0
 40
0.0
  0
INSERT
  5
130
330
1F
100
AcDbEntity
  8
DIM
100
AcDbBlockReference
  2
SW_CENTERMARKSYMBOL_0
 10
40.4226139597
 20
51.0769303386
 30
0.0
  0
LINE
  5
131
330
1F
100
AcDbEntity
  8
0
  6
Continuous
 62
     7
370
    30
100
AcDbLine
 10
89.6870695403
 20
35.1769294088
 30
0.0
 11
89.8870694334
 21
35.3769309317
 31
0.0
  0
LINE
  5
132
330
1F
100
AcDbEntity
  8
0
  6
Continuous
 62
     7
370
    30
100
AcDbLine
 10
89.8870694334
 20
66.7769297455
 30
0.0
 11
89.6870695403
 21
66.9769312684
 31
0.0
  0
LINE
  5
133
330
1F
100
AcDbEntity
  8
0
  6
Continuous
 62
     7
370
    30
100
AcDbLine
 10
89.6870695403
 20
66.9769312684
 30
0.0
 11
87.2870694263
 21
66.9769312684
 31
0.0
  0
LINE
  5
134
330
1F
100
AcDbEntity
  8
0
  6
Continuous
 62
     7
370
    30
100
AcDbLine
 10
87.2870694263
 20
35.1769294088
 30
0.0
 11
89.6870695403
 21
35.1769294088
 31
0.0
  0
LINE
  5
135
330
1F
100
AcDbEntity
  8
0
  6
Continuous
 62
     7
370
    30
100
AcDbLine
 10
87.2870694263
 20
66.9769312684
 30
0.0
 11
87.0870693004
 21
66.7769297455
 31
0.0
  0
LINE
  5
136
330
1F
100
AcDbEntity
  8
0
  6
Continuous
 62
     7
370
    30
100
AcDbLine
 10
87.0870693004
 20
35.3769309317
 30
0.0
 11
87.2870694263
 21
35.1769294088
 31
0.0
  0
LINE
  5
137
330
1F
100
AcDbEntity
  8
0
  6
Continuous
 62
     7
370
    30
100
AcDbLine
 10
83.7870693182
 20
66.9769312684
 30
0.0
 11
81.3870696699
 21
66.9769312684
 31
0.0
  0
LINE
  5
138
330
1F
100
AcDbEntity
  8
0
  6
Continuous
 62
     7
370
    30
100
AcDbLine
 10
81.3870696699
 20
35.1769294088
 30
0.0
 11
83.7870693182
 21
35.1769294088
 31
0.0
  0
LINE
  5
139
330
1F
100
AcDbEntity
  8
0
  6
Continuous
 62
     7
370
    30
100
AcDbLine
 10
83.7870693182
 20
35.1769294088
 30
0.0
 11
83.9870699098
 21
35.3769309317
 31
0.0
  0
LINE
  5
13A
330
1F
100
AcDbEntity
  8
0
  6
Continuous
 62
     7
370
    30
100
AcDbLine
 10
83.9870699098
 20
66.7769297455
 30
0.0
 11
83.7870693182
 21
66.9769312684
 31
0.0
  0
LINE
  5
13B
330
1F
100
AcDbEntity
  8
0
  6
Continuous
 62
     7
370
    30
100
AcDbLine
 10
81.3870696699
 20
66.9769312684
 30
0.0
 11
81.1870690783
 21
66.7769297455
 31
0.0
  0
LINE
  5
13C
330
1F
100
AcDbEntity
  8
0
  6
Continuous
 62
     7
370
    30
100
AcDbLine
 10
81.1870690783
 20
35.3769309317
 30
0.0
 11
81.3870696699
 21
35.1769294088
 31
0.0
  0
LINE
  5
13D
330
1F
100
AcDbEntity
  8
0
  6
Continuous
 62
     7
370
    30
100
AcDbLine
 10
91.6870695334
 20
37.9324307163
 30
0.0
 11
91.8870695284
 21
38.1324303766
 31
0.0
  0
LINE
  5
13E
330
1F
100
AcDbEntity
  8
0
  6
Continuous
 62
     7
370
    30
100
AcDbLine
 10
91.8870695284
 20
64.0214303006
 30
0.0
 11
91.6870695334
 21
64.2214299609
 31
0.0
  0
LINE
  5
13F
330
1F
100
AcDbEntity
  8
0
  6
Continuous
 62
     7
370
    30
100
AcDbLine
 10
79.3870693421
 20
37.9324307163
 30
0.0
 11
81.1870690783
 21
37.9324307163
 31
0.0
  0
LINE
  5
140
330
1F
100
AcDbEntity
  8
0
  6
Continuous
 62
     7
370
    30
100
AcDbLine
 10
83.9870699098
 20
37.9324307163
 30
0.0
 11
87.0870693004
 21
37.9324307163
 31
0.0
  0
LINE
  5
141
330
1F
100
AcDbEntity
  8
0
  6
Continuous
 62
     7
370
    30
100
AcDbLine
 10
89.8870694334
 20
37.9324307163
 30
0.0
 11
91.6870695334
 21
37.9324307163
 31
0.0
  0
LINE
  5
142
330
1F
100
AcDbEntity
  8
0
  6
Continuous
 62
     7
370
    30
100
AcDbLine
 10
91.6870695334
 20
64.2214299609
 30
0.0
 11
89.8870694334
 21
64.2214299609
 31
0.0
  0
LINE
  5
143
330
1F
100
AcDbEntity
  8
0
  6
Continuous
 62
     7
370
    30
100
AcDbLine
 10
87.0870693004
 20
64.2214299609
 30
0.0
 11
83.9870699098
 21
64.2214299609
 31
0.0
  0
LINE
  5
144
330
1F
100
AcDbEntity
  8
0
  6
Continuous
 62
     7
370
    30
100
AcDbLine
 10
81.1870690783
 20
64.2214299609
 30
0.0
 11
79.3870693421
 21
64.2214299609
 31
0.0
  0
LINE
  5
145
330
1F
100
AcDbEntity
  8
0
  6
Continuous
 62
     7
370
    30
100
AcDbLine
 10
79.3870693421
 20
64.2214299609
 30
0.0
 11
79.1870696818
 21
64.0214303006
 31
0.0
  0
LINE
  5
146
330
1F
100
AcDbEntity
  8
0
  6
Continuous
 62
     7
370
    30
100
AcDbLine
 10
79.1870696818
 20
38.1324303766
 30
0.0
 11
79.3870693421
 21
37.9324307163
 31
0.0
  0
LINE
  5
147
330
1F
100
AcDbEntity
  8
0
  6
Continuous
 62
     7
370
    30
100
AcDbLine
 10
89.6870695403
 20
51.0769303386
 30
0.0
 11
89.6870695403
 21
66.9769312684
 31
0.0
  0
LINE
  5
148
330
1F
100
AcDbEntity
  8
0
  6
Continuous
 62
     7
370
    30
100
AcDbLine
 10
89.6870695403
 20
35.1769294088
 30
0.0
 11
89.6870695403
 21
51.0769303386
 31
0.0
  0
LINE
  5
149
330
1F
100
AcDbEntity
  8
0
  6
Continuous
 62
     7
370
    30
100
AcDbLine
 10
89.8870694334
 20
51.0769303386
 30
0.0
 11
89.8870694334
 21
35.3769309317
 31
0.0
  0
LINE
  5
14A
330
1F
100
AcDbEntity
  8
0
  6
Continuous
 62
     7
370
    30
100
AcDbLine
 10
89.8870694334
 20
66.7769297455
 30
0.0
 11
89.8870694334
 21
51.0769303386
 31
0.0
  0
LINE
  5
14B
330
1F
100
AcDbEntity
  8
0
  6
Continuous
 62
     7
370
    30
100
AcDbLine
 10
87.2870694263
 20
51.0769303386
 30
0.0
 11
87.2870694263
 21
35.1769294088
 31
0.0
  0
LINE
  5
14C
330
1F
100
AcDbEntity
  8
0
  6
Continuous
 62
     7
370
    30
100
AcDbLine
 10
87.2870694263
 20
66.9769312684
 30
0.0
 11
87.2870694263
 21
51.0769303386
 31
0.0
  0
LINE
  5
14D
330
1F
100
AcDbEntity
  8
0
  6
Continuous
 62
     7
370
    30
100
AcDbLine
 10
87.0870693004
 20
51.0769303386
 30
0.0
 11
87.0870693004
 21
66.7769297455
 31
0.0
  0
LINE
  5
14E
330
1F
100
AcDbEntity
  8
0
  6
Continuous
 62
     7
370
    30
100
AcDbLine
 10
87.0870693004
 20
35.3769309317
 30
0.0
 11
87.0870693004
 21
51.0769303386
 31
0.0
  0
LINE
  5
14F
330
1F
100
AcDbEntity
  8
0
  6
Continuous
 62
     7
370
    30
100
AcDbLine
 10
81.3870696699
 20
51.0769303386
 30
0.0
 11
81.3870696699
 21
35.1769294088
 31
0.0
  0
LINE
  5
150
330
1F
100
AcDbEntity
  8
0
  6
Continuous
 62
     7
370
    30
100
AcDbLine
 10
81.3870696699
 20
66.9769312684
 30
0.0
 11
81.3870696699
 21
51.0769303386
 31
0.0
  0
LINE
  5
151
330
1F
100
AcDbEntity
  8
0
  6
Continuous
 62
     7
370
    30
100
AcDbLine
 10
83.7870693182
 20
51.0769303386
 30
0.0
 11
83.7870693182
 21
66.9769312684
 31
0.0
  0
LINE
  5
152
330
1F
100
AcDbEntity
  8
0
  6
Continuous
 62
     7
370
    30
100
AcDbLine
 10
83.7870693182
 20
35.1769294088
 30
0.0
 11
83.7870693182
 21
51.0769303386
 31
0.0
  0
LINE
  5
153
330
1F
100
AcDbEntity
  8
0
  6
Continuous
 62
     7
370
    30
100
AcDbLine
 10
83.9870699098
 20
51.0769303386
 30
0.0
 11
83.9870699098
 21
35.3769309317
 31
0.0
  0
LINE
  5
154
330
1F
100
AcDbEntity
  8
0
  6
Continuous
 62
     7
370
    30
100
AcDbLine
 10
83.9870699098
 20
66.7769297455
 30
0.0
 11
83.9870699098
 21
51.0769303386
 31
0.0
  0
LINE
  5
155
330
1F
100
AcDbEntity
  8
0
  6
Continuous
 62
     7
370
    30
100
AcDbLine
 10
81.1870690783
 20
51.0769303386
 30
0.0
 11
81.1870690783
 21
66.7769297455
 31
0.0
  0
LINE
  5
156
330
1F
100
AcDbEntity
  8
0
  6
Continuous
 62
     7
370
    30
100
AcDbLine
 10
81.1870690783
 20
35.3769309317
 30
0.0
 11
81.1870690783
 21
51.0769303386
 31
0.0
  0
LINE
  5
157
330
1F
100
AcDbEntity
  8
0
  6
Continuous
 62
     7
370
    30
100
AcDbLine
 10
91.6870695334
 20
51.0769303386
 30
0.0
 11
91.6870695334
 21
64.2214299609
 31
0.0
  0
LINE
  5
158
330
1F
100
AcDbEntity
  8
0
  6
Continuous
 62
     7
370
    30
100
AcDbLine
 10
91.6870695334
 20
37.9324307163
 30
0.0
 11
91.6870695334
 21
51.0769303386
 31
0.0
  0
LINE
  5
159
330
1F
100
AcDbEntity
  8
0
  6
Continuous
 62
     7
370
    30
100
AcDbLine
 10
91.8870695284
 20
51.0769303386
 30
0.0
 11
91.8870695284
 21
38.1324303766
 31
0.0
  0
LINE
  5
15A
330
1F
100
AcDbEntity
  8
0
  6
Continuous
 62
     7
370
    30
100
AcDbLine
 10
91.8870695284
 20
64.0214303006
 30
0.0
 11
91.8870695284
 21
51.0769303386
 31
0.0
  0
LINE
  5
15B
330
1F
100
AcDbEntity
  8
0
  6
Continuous
 62
     7
370
    30
100
AcDbLine
 10
79.3870693421
 20
64.2214299609
 30
0.0
 11
79.3870693421
 21
37.9324307163
 31
0.0
  0
LINE
  5
15C
330
1F
100
AcDbEntity
  8
0
  6
Continuous
 62
     7
370
    30
100
AcDbLine
 10
79.1870696818
 20
38.1324303766
 30
0.0
 11
79.1870696818
 21
64.0214303006
 31
0.0
  0
DIMENSION
  5
15D
330
1F
100
AcDbEntity
  8
DIM
100
AcDbDimension
  2
_D_2
 10
91.8870695284
 20
72.9769303386
 30
0.0
 11
85.5370695284
 21
72.9769303386
 31
0.0
 70
   160
  1
<>
 71
     2
 42
-1.0
  3
SLDDIMSTYLE1
100
AcDbAlignedDimension
 13
79.1870695284
 23
64.0214303386
 33
0.0
 14
91.8870695284
 24
64.0214303386
 34
0.0
100
AcDbRotatedDimension
  0
DIMENSION
  5
168
330
1F
100
AcDbEntity
  8
DIM
100
AcDbDimension
  2
_D_3
 10
89.8870695284
 20
70.4769303386
 30
0.0
 11
88.4870695284
 21
70.4769303386
 31
0.0
 70
   160
  1
<>
 71
     2
 42
-1.0
  3
SLDDIMSTYLE2
100
AcDbAlignedDimension
 13
87.0870695284
 23
66.7769303386
 33
0.0
 14
89.8870695284
 24
66.7769303386
 34
0.0
100
AcDbRotatedDimension
  0
DIMENSION
  5
175
330
1F
100
AcDbEntity
  8
DIM
100
AcDbDimension
  2
_D_4
 10
95.3870695284
 20
37.9324303386
 30
0.0
 11
95.3870695284
 21
51.0769303386
 31
0.0
 70
   160
  1
1.035-40
 71
     2
 42
-1.0
  3
SLDDIMSTYLE1
100
AcDbAlignedDimension
 13
91.6870695284
 23
64.2214303386
 33
0.0
 14
91.6870695284
 24
37.9324303386
 34
0.0
 50
90.0
100
AcDbRotatedDimension
  0
MTEXT
  5
17F
330
1F
100
AcDbEntity
  8
DIM
100
AcDbMText
 10
92.6624100385
 20
31.1389625268
 30
0.0
 40
1.190625
 41
0.0
 71
     1
 72
     1
  1
2-SM1 LOCKING NUT
  7
SLDTEXTSTYLE1
 73
     1
 44
1.0
  0
LEADER
  5
181
330
1F
100
AcDbEntity
  8
DIM
100
AcDbLeader
  3
SLDDIMSTYLE3
 76
     3
 10
88.4856824691
 20
35.1769303386
 30
0.0
 10
91.9089595376
 20
30.8480016064
 30
0.0
 10
92.4089595376
 20
30.8480016064
 30
0.0
  0
LINE
  5
182
330
1F
100
AcDbEntity
  8
0
  6
Continuous
 62
     7
370
    30
100
AcDbLine
 10
105.5833698952
 20
79.0778178202
 30
0.0
 11
105.5833698952
 21
78.9145361978
 31
0.0
  0
LINE
  5
183
330
1F
100
AcDbEntity
  8
0
  6
Continuous
 62
     7
370
    30
100
AcDbLine
 10
116.6831420414
 20
59.6870835536
 30
0.0
 11
116.8245404127
 21
59.6054294735
 31
0.0
  0
LINE
  5
184
330
1F
100
AcDbEntity
  8
0
  6
Continuous
 62
     7
370
    30
100
AcDbLine
 10
110.5740700664
 20
87.3372399773
 30
0.0
 11
108.8770137916
 21
86.3575502431
 31
0.0
  0
LINE
  5
185
330
1F
100
AcDbEntity
  8
0
  6
Continuous
 62
     7
370
    30
100
AcDbLine
 10
124.7757216405
 20
58.8171964194
 30
0.0
 11
126.4727779153
 21
59.7968861536
 31
0.0
  0
LINE
  5
186
330
1F
100
AcDbEntity
  8
0
  6
Continuous
 62
     7
370
    30
100
AcDbLine
 10
129.7664218118
 20
67.0766185764
 30
0.0
 11
129.7664218118
 21
67.2399001988
 31
0.0
  0
LINE
  5
187
330
1F
100
AcDbEntity
  8
0
  6
Continuous
 62
     7
370
    30
100
AcDbLine
 10
118.6666496655
 20
86.467352843
 30
0.0
 11
118.5252512942
 21
86.5490069231
 31
0.0
  0
LINE
  5
188
330
1F
100
AcDbEntity
  8
0
  6
Continuous
 62
     7
370
    30
100
AcDbLine
 10
114.7460000754
 20
89.7456439071
 30
0.0
 11
113.0489438006
 21
88.7659541729
 31
0.0
  0
LINE
  5
189
330
1F
100
AcDbEntity
  8
0
  6
Continuous
 62
     7
370
    30
100
AcDbLine
 10
128.9476516495
 20
61.2256003492
 30
0.0
 11
130.6447079243
 21
62.2052900834
 31
0.0
  0
LINE
  5
18A
330
1F
100
AcDbEntity
  8
0
  6
Continuous
 62
     7
370
    30
100
AcDbLine
 10
133.9383518208
 20
69.4850225063
 30
0.0
 11
133.9383518208
 21
69.6483041287
 31
0.0
  0
LINE
  5
18B
330
1F
100
AcDbEntity
  8
0
  6
Continuous
 62
     7
370
    30
100
AcDbLine
 10
122.8385796745
 20
88.8757567729
 30
0.0
 11
122.6971813032
 21
88.957410853
 31
0.0
  0
LINE
  5
18C
330
1F
100
AcDbEntity
  8
0
  6
Continuous
 62
     7
370
    30
100
AcDbLine
 10
106.1175890684
 20
77.1366034323
 30
0.0
 11
106.1175890684
 21
76.97332181
 31
0.0
  0
LINE
  5
18D
330
1F
100
AcDbEntity
  8
0
  6
Continuous
 62
     7
370
    30
100
AcDbLine
 10
115.2692451542
 20
61.1204708065
 30
0.0
 11
115.4106435254
 21
61.0388167264
 31
0.0
  0
LINE
  5
18E
330
1F
100
AcDbEntity
  8
0
  6
Continuous
 62
     7
370
    30
100
AcDbLine
 10
121.9838700442
 20
60.3871859478
 30
0.0
 11
123.2566622504
 21
61.1219532485
 31
0.0
  0
LINE
  5
18F
330
1F
100
AcDbEntity
  8
0
  6
Continuous
 62
     7
370
    30
100
AcDbLine
 10
110.1132304692
 20
83.8895117916
 30
0.0
 11
108.8404382631
 21
83.154744491
 31
0.0
  0
LWPOLYLINE
  5
190
330
1F
100
AcDbEntity
  8
0
  6
Continuous
 62
     7
370
    30
100
AcDbPolyline
 90
       62
 70
   128
 43
0.0
 10
127.7865228244
 20
66.0969288422
 10
127.7658735276
 20
66.8903887033
 10
127.704002454
 20
67.7047380121
 10
127.6011397679
 20
68.5369473358
 10
127.4576681254
 20
69.3839208011
 10
127.2741212503
 20
70.2425076111
 10
127.0511819492
 20
71.1095137663
 10
126.7896795708
 20
71.981713947
 10
126.4905869212
 20
72.8558635112
 10
126.1550166447
 20
73.7287105652
 10
125.7842170847
 20
74.5970080605
 10
125.3795676399
 20
75.4575258734
 10
124.942573633
 20
76.3070628211
 10
124.4748607102
 20
77.1424585705
 10
123.9781687944
 20
77.9606053944
 10
123.4543456121
 20
78.758459733
 10
122.90533982
 20
79.5330535156
 10
122.3331937556
 20
80.2815052026
 10
121.74003584
 20
81.0010305045
 10
121.1280726595
 20
81.6889527399
 10
120.4995807573
 20
82.342712793
 10
119.8568981646
 20
82.9598786333
 10
119.2024157029
 20
83.5381543635
 10
118.5385680898
 20
84.0753887597
 10
117.8678248822
 20
84.5695832749
 10
117.1926812888
 20
85.0188994729
 10
116.5156488881
 20
85.421665868
 10
115.8392462851
 20
85.7763841427
 10
115.165989742
 20
86.0817347218
 10
114.4983838172
 20
86.336581681
 10
113.8389120487
 20
86.5399769729
 10
113.1900277147
 20
86.6911639536
 10
112.5541447077
 20
86.7895801978
 10
111.9336285541
 20
86.8348595904
 10
111.3307876149
 20
86.8268336891
 10
110.7478644978
 20
86.7655323509
 10
110.1870277152
 20
86.6511836207
 10
109.6503636167
 20
86.4842128834
 10
109.1398686281
 20
86.265241281
 10
108.6574418242
 20
85.9950834023
 10
108.2048778644
 20
85.6747442523
 10
107.7838603164
 20
85.3054155137
 10
107.3959553931
 20
84.8884711137
 10
107.0426061263
 20
84.4254621129
 10
106.7251269985
 20
83.9181109351
 10
106.4446990529
 20
83.3683049599
 10
106.2023654998
 20
82.7780895019
 10
105.999027836
 20
82.1496602012
 10
105.835442491
 20
81.4853548561
 10
105.712218013
 20
80.7876447261
 10
105.6298128051
 20
80.0591253388
 10
105.5885334202
 20
79.3025068341
 10
105.5885334202
 20
78.5206038825
 10
105.6298128051
 20
77.7163252144
 10
105.712218013
 20
76.8926627992
 10
105.835442491
 20
76.0526807153
 10
105.999027836
 20
75.1995037511
 10
106.2023654998
 20
74.336305781
 10
106.4446990529
 20
73.4662979581
 10
106.7251269985
 20
72.5927167687
 10
107.0426061263
 20
71.7188119922
 10
107.395020713
 20
70.8500236193
  0
LWPOLYLINE
  5
191
330
1F
100
AcDbEntity
  8
0
  6
Continuous
 62
     7
370
    30
100
AcDbPolyline
 90
       37
 70
   128
 43
0.0
 10
110.6054203207
 20
65.288845821
 10
110.7478644978
 20
65.1007414983
 10
111.3307876149
 20
64.366411455
 10
111.9336285541
 20
63.6623602206
 10
112.5541447077
 20
62.9912069119
 10
113.1900277147
 20
62.3554482635
 10
113.8389120487
 20
61.7574493392
 10
114.4983838172
 20
61.1994347342
 10
115.165989742
 20
60.6834802996
 10
115.8392462851
 20
60.2115054198
 10
116.5156488881
 20
59.7852658722
 10
117.1926812888
 20
59.4063472961
 10
117.8678248822
 20
59.0761592934
 10
118.5385680899
 20
58.7959301851
 10
119.2024157029
 20
58.566702442
 10
119.8568981646
 20
58.3893288063
 10
120.4995807573
 20
58.2644691195
 10
121.1280726595
 20
58.192587868
 10
121.74003584
 20
58.1739524547
 10
122.3331937556
 20
58.2086322046
 10
122.90533982
 20
58.2964981066
 10
123.4543456121
 20
58.437223294
 10
123.9781687944
 20
58.6302842596
 10
124.4748607102
 20
58.8749628042
 10
124.942573633
 20
59.1703487074
 10
125.3795676399
 20
59.5153431142
 10
125.7842170847
 20
59.9086626228
 10
126.1550166447
 20
60.3488440588
 10
126.4905869212
 20
60.8342499184
 10
126.7896795708
 20
61.3630744598
 10
127.0511819492
 20
61.9333504211
 10
127.2741212503
 20
62.5429563382
 10
127.4576681254
 20
63.189624437
 10
127.6011397679
 20
63.8709490697
 10
127.704002454
 20
64.5843956641
 10
127.7658735276
 20
65.3273101518
 10
127.7865228244
 20
66.0969288422
  0
LWPOLYLINE
  5
192
330
1F
100
AcDbEntity
  8
0
  6
Continuous
 62
     7
370
    30
100
AcDbPolyline
 90
       28
 70
   128
 43
0.0
 10
128.0693655369
 20
66.0969288422
 10
128.048853297
 20
65.3248763401
 10
127.9873914243
 20
64.5793239019
 10
127.8852041864
 20
63.8629919676
 10
127.7426644535
 20
63.1784943548
 10
127.5602923377
 20
62.528328721
 10
127.338753295
 20
61.9148674502
 10
127.0788556974
 20
61.3403489959
 10
126.7815478829
 20
60.8068697136
 10
126.4479146957
 20
60.3163762116
 10
126.0791735269
 20
59.8706582473
 10
125.6766698731
 20
59.4713421972
 10
125.2418724266
 20
59.1198851223
 10
124.776367716
 20
58.8175694515
 10
124.2818543176
 20
58.5654983016
 10
123.7601366571
 20
58.3645914532
 10
123.2131184256
 20
58.2155819934
 10
122.6427956335
 20
58.1190136416
 10
122.0512493266
 20
58.0752387653
 10
121.4406379934
 20
58.0844170942
 10
120.8131896883
 20
58.1465151377
 10
120.1711939022
 20
58.2613063066
 10
119.5169932081
 20
58.4283717405
 10
118.8529747134
 20
58.6471018357
 10
118.1815613495
 20
58.9166984698
 10
117.505203031
 20
59.2361779139
 10
116.826367716
 20
59.6043744222
 10
116.8245404127
 20
59.6054294735
  0
LWPOLYLINE
  5
193
330
1F
100
AcDbEntity
  8
0
  6
Continuous
 62
     7
370
    30
100
AcDbPolyline
 90
       53
 70
   128
 43
0.0
 10
105.5833698952
 20
79.0778178202
 10
105.6038821351
 20
79.8498703223
 10
105.6653440078
 20
80.5954227605
 10
105.7675312457
 20
81.3117546948
 10
105.9100709785
 20
81.9962523076
 10
106.0924430943
 20
82.6464179414
 10
106.3139821371
 20
83.2598792123
 10
106.5738797347
 20
83.8343976666
 10
106.8711875491
 20
84.3678769488
 10
107.2048207364
 20
84.8583704509
 10
107.5735619052
 20
85.3040884152
 10
107.9760655589
 20
85.7034044652
 10
108.4108630055
 20
86.0548615401
 10
108.876367716
 20
86.357177211
 10
109.3708811145
 20
86.6092483608
 10
109.892598775
 20
86.8101552092
 10
110.4396170064
 20
86.959164669
 10
111.0099397986
 20
87.0557330208
 10
111.6014861054
 20
87.0995078971
 10
112.2120974387
 20
87.0903295682
 10
112.8395457438
 20
87.0282315248
 10
113.4815415298
 20
86.9134403558
 10
114.135742224
 20
86.746374922
 10
114.7997607187
 20
86.5276448268
 10
115.4711740826
 20
86.2580481927
 10
116.1475324011
 20
85.9385687485
 10
116.826367716
 20
85.5703722402
 10
117.505203031
 20
85.1548021768
 10
118.1815613495
 20
84.6933749285
 10
118.8529747134
 20
84.1877741932
 10
119.5169932081
 20
83.6398448531
 10
120.1711939022
 20
83.0515862431
 10
120.8131896883
 20
82.425144855
 10
121.4406379934
 20
81.7628065055
 10
122.0512493266
 20
81.0669879953
 10
122.6427956335
 20
80.3402282909
 10
123.2131184256
 20
79.5851792594
 10
123.7601366571
 20
78.804595993
 10
124.2818543176
 20
78.0013267554
 10
124.776367716
 20
77.1783025888
 10
125.2418724266
 20
76.3385266193
 10
125.6766698731
 20
75.4850630982
 10
126.0791735269
 20
74.6210262213
 10
126.4479146957
 20
73.7495687657
 10
126.7815478829
 20
72.8738705849
 10
127.0788556974
 20
71.9971270067
 10
127.338753295
 20
71.1225371734
 10
127.5602923377
 20
70.2532923683
 10
127.7426644535
 20
69.3925643715
 10
127.8852041864
 20
68.5434938862
 10
127.9873914243
 20
67.7091790784
 10
128.048853297
 20
66.8926642724
 10
128.0693655369
 20
66.0969288422
  0
LWPOLYLINE
  5
194
330
1F
100
AcDbEntity
  8
0
  6
Continuous
 62
     7
370
    30
100
AcDbPolyline
 90
       40
 70
   128
 43
0.0
 10
129.7664218118
 20
67.0766185764
 10
129.7459095719
 20
67.8723540066
 10
129.6844476991
 20
68.6888688126
 10
129.5822604613
 20
69.5231836204
 10
129.4397207284
 20
70.3722541057
 10
129.2573486126
 20
71.2329821025
 10
129.0358095699
 20
72.1022269075
 10
128.7759119722
 20
72.9768167409
 10
128.4786041578
 20
73.8535603191
 10
128.1449709705
 20
74.7292584999
 10
127.7762298017
 20
75.6007159555
 10
127.373726148
 20
76.4647528323
 10
126.9389287015
 20
77.3182163534
 10
126.4734239909
 20
78.157992323
 10
125.9789105925
 20
78.9810164896
 10
125.4571929319
 20
79.7842857272
 10
124.9101747005
 20
80.5648689936
 10
124.3398519083
 20
81.319918025
 10
123.7483056015
 20
82.0466777295
 10
123.1376942682
 20
82.7424962397
 10
122.5102459632
 20
83.4048345892
 10
121.8682501771
 20
84.0312759773
 10
121.214049483
 20
84.6195345873
 10
120.5500309882
 20
85.1674639274
 10
119.8786176243
 20
85.6730646627
 10
119.2022593058
 20
86.134491911
 10
118.5234239909
 20
86.5500619744
 10
117.8445886759
 20
86.9182584827
 10
117.1682303574
 20
87.2377379268
 10
116.4968169935
 20
87.5073345609
 10
115.8327984988
 20
87.7260646561
 10
115.1785978047
 20
87.89313009
 10
114.5366020186
 20
88.0079212589
 10
113.9091537135
 20
88.0700193024
 10
113.2985423803
 20
88.0791976313
 10
112.7069960734
 20
88.035422755
 10
112.1366732813
 20
87.9388544032
 10
111.5896550498
 20
87.7898449434
 10
111.0679373893
 20
87.588938095
 10
110.5740700664
 20
87.3372399773
  0
ARC
  5
195
330
1F
100
AcDbEntity
  8
0
  6
Continuous
 62
     7
370
    30
100
AcDbCircle
 10
121.8940214155
 20
66.2534545823
 30
0.0
 40
7.915319763558275
100
AcDbArc
 50
305.3428380085
 51
5.9693423849
  0
ARC
  5
196
330
1F
100
AcDbEntity
  8
0
  6
Continuous
 62
     7
370
    30
100
AcDbCircle
 10
105.7347923261
 20
66.184343151
 30
0.0
 40
24.05480027800189
100
AcDbArc
 50
2.51502359
 51
57.4795998773
  0
LWPOLYLINE
  5
197
330
1F
100
AcDbEntity
  8
0
  6
Continuous
 62
     7
370
    30
100
AcDbPolyline
 90
       42
 70
   128
 43
0.0
 10
131.9584528334
 20
68.5053327721
 10
131.9378035366
 20
69.2987926331
 10
131.875932463
 20
70.113141942
 10
131.7730697769
 20
70.9453512657
 10
131.6295981344
 20
71.792324731
 10
131.4460512593
 20
72.6509115409
 10
131.2231119582
 20
73.5179176962
 10
130.9616095798
 20
74.3901178769
 10
130.6625169302
 20
75.2642674411
 10
130.3269466537
 20
76.137114495
 10
129.9561470937
 20
77.0054119903
 10
129.5514976489
 20
77.8659298032
 10
129.114503642
 20
78.715466751
 10
128.6467907192
 20
79.5508625004
 10
128.1500988034
 20
80.3690093243
 10
127.6262756211
 20
81.1668636629
 10
127.077269829
 20
81.9414574455
 10
126.5051237646
 20
82.6899091325
 10
125.911965849
 20
83.4094344344
 10
125.3000026685
 20
84.0973566698
 10
124.6715107663
 20
84.7511167228
 10
124.0288281736
 20
85.3682825632
 10
123.3743457119
 20
85.9465582933
 10
122.7104980989
 20
86.4837926896
 10
122.0397548912
 20
86.9779872048
 10
121.3646112978
 20
87.4273034028
 10
120.6875788971
 20
87.8300697979
 10
120.0111762941
 20
88.1847880726
 10
119.337919751
 20
88.4901386517
 10
118.6703138262
 20
88.7449856109
 10
118.0108420577
 20
88.9483809028
 10
117.3619577237
 20
89.0995678835
 10
116.7260747167
 20
89.1979841276
 10
116.1055585631
 20
89.2432635202
 10
115.5027176239
 20
89.235237619
 10
114.9197945068
 20
89.1739362808
 10
114.3589577242
 20
89.0595875506
 10
113.8222936257
 20
88.8926168133
 10
113.3117986371
 20
88.6736452109
 10
112.8293718332
 20
88.4034873322
 10
112.3768078734
 20
88.0831481822
 10
112.223188932
 20
87.957184281
  0
LWPOLYLINE
  5
198
330
1F
100
AcDbEntity
  8
0
  6
Continuous
 62
     7
370
    30
100
AcDbPolyline
 90
       16
 70
   128
 43
0.0
 10
127.8343297885
 20
60.9149650725
 10
128.1500988034
 20
61.0386881895
 10
128.6467907192
 20
61.2833667341
 10
129.114503642
 20
61.5787526372
 10
129.5514976489
 20
61.9237470441
 10
129.9561470937
 20
62.3170665527
 10
130.3269466537
 20
62.7572479887
 10
130.6625169302
 20
63.2426538483
 10
130.9616095798
 20
63.7714783897
 10
131.2231119582
 20
64.341754351
 10
131.4460512593
 20
64.951360268
 10
131.6295981344
 20
65.5980283669
 10
131.7730697769
 20
66.2793529996
 10
131.875932463
 20
66.992799594
 10
131.9378035366
 20
67.7357140817
 10
131.9584528334
 20
68.5053327721
  0
LWPOLYLINE
  5
199
330
1F
100
AcDbEntity
  8
0
  6
Continuous
 62
     7
370
    30
100
AcDbPolyline
 90
       17
 70
   128
 43
0.0
 10
132.2412955459
 20
68.5053327721
 10
132.220783306
 20
67.73328027
 10
132.1593214333
 20
66.9877278318
 10
132.0571341954
 20
66.2713958975
 10
131.9145944625
 20
65.5868982847
 10
131.7322223467
 20
64.9367326509
 10
131.510683304
 20
64.32327138
 10
131.2507857064
 20
63.7487529257
 10
130.9534778919
 20
63.2152736435
 10
130.6198447047
 20
62.7247801415
 10
130.2511035359
 20
62.2790621771
 10
129.8485998821
 20
61.8797461271
 10
129.4138024356
 20
61.5282890522
 10
128.948297725
 20
61.2259733813
 10
128.4537843266
 20
60.9739022315
 10
127.9320666661
 20
60.7729953831
 10
127.6133429801
 20
60.6790483169
  0
LWPOLYLINE
  5
19A
330
1F
100
AcDbEntity
  8
0
  6
Continuous
 62
     7
370
    30
100
AcDbPolyline
 90
       43
 70
   128
 43
0.0
 10
111.9083787359
 20
87.8837920096
 10
112.1479955679
 20
88.1118083951
 10
112.5827930145
 20
88.46326547
 10
113.048297725
 20
88.7655811409
 10
113.5428111235
 20
89.0176522907
 10
114.064528784
 20
89.2185591391
 10
114.6115470154
 20
89.3675685989
 10
115.1818698076
 20
89.4641369507
 10
115.7734161144
 20
89.507911827
 10
116.3840274477
 20
89.4987334981
 10
117.0114757528
 20
89.4366354546
 10
117.6534715388
 20
89.3218442857
 10
118.307672233
 20
89.1547788518
 10
118.9716907277
 20
88.9360487566
 10
119.6431040916
 20
88.6664521225
 10
120.3194624101
 20
88.3469726784
 10
120.998297725
 20
87.9787761701
 10
121.67713304
 20
87.5632061067
 10
122.3534913585
 20
87.1017788584
 10
123.0249047224
 20
86.5961781231
 10
123.6889232171
 20
86.048248783
 10
124.3431239112
 20
85.459990173
 10
124.9851196973
 20
84.8335487849
 10
125.6125680024
 20
84.1712104353
 10
126.2231793356
 20
83.4753919252
 10
126.8147256425
 20
82.7486322207
 10
127.3850484346
 20
81.9935831893
 10
127.9320666661
 20
81.2129999229
 10
128.4537843266
 20
80.4097306853
 10
128.948297725
 20
79.5867065187
 10
129.4138024356
 20
78.7469305491
 10
129.8485998821
 20
77.893467028
 10
130.2511035359
 20
77.0294301512
 10
130.6198447047
 20
76.1579726955
 10
130.9534778919
 20
75.2822745148
 10
131.2507857064
 20
74.4055309366
 10
131.510683304
 20
73.5309411032
 10
131.7322223467
 20
72.6616962982
 10
131.9145944625
 20
71.8009683014
 10
132.0571341954
 20
70.9518978161
 10
132.1593214333
 20
70.1175830083
 10
132.220783306
 20
69.3010682023
 10
132.2412955459
 20
68.5053327721
  0
LWPOLYLINE
  5
19B
330
1F
100
AcDbEntity
  8
0
  6
Continuous
 62
     7
370
    30
100
AcDbPolyline
 90
       40
 70
   128
 43
0.0
 10
133.9383518208
 20
69.4850225063
 10
133.9178395809
 20
70.2807579365
 10
133.8563777081
 20
71.0972727425
 10
133.7541904703
 20
71.9315875503
 10
133.6116507374
 20
72.7806580356
 10
133.4292786216
 20
73.6413860323
 10
133.2077395789
 20
74.5106308374
 10
132.9478419812
 20
75.3852206708
 10
132.6505341668
 20
76.261964249
 10
132.3169009795
 20
77.1376624297
 10
131.9481598107
 20
78.0091198854
 10
131.545656157
 20
78.8731567622
 10
131.1108587105
 20
79.7266202833
 10
130.6453539999
 20
80.5663962529
 10
130.1508406015
 20
81.3894204194
 10
129.6291229409
 20
82.1926896571
 10
129.0821047095
 20
82.9732729235
 10
128.5117819173
 20
83.7283219549
 10
127.9202356105
 20
84.4550816594
 10
127.3096242772
 20
85.1509001695
 10
126.6821759722
 20
85.8132385191
 10
126.0401801861
 20
86.4396799072
 10
125.385979492
 20
87.0279385172
 10
124.7219609972
 20
87.5758678572
 10
124.0505476333
 20
88.0814685926
 10
123.3741893148
 20
88.5428958409
 10
122.6953539999
 20
88.9584659043
 10
122.0165186849
 20
89.3266624126
 10
121.3401603664
 20
89.6461418567
 10
120.6687470025
 20
89.9157384908
 10
120.0047285078
 20
90.134468586
 10
119.3505278137
 20
90.3015340199
 10
118.7085320276
 20
90.4163251888
 10
118.0810837225
 20
90.4784232323
 10
117.4704723893
 20
90.4876015612
 10
116.8789260824
 20
90.4438266849
 10
116.3086032903
 20
90.3472583331
 10
115.7615850588
 20
90.1982488733
 10
115.2398673983
 20
89.9973420249
 10
114.7460000754
 20
89.7456439071
  0
ARC
  5
19C
330
1F
100
AcDbEntity
  8
0
  6
Continuous
 62
     7
370
    30
100
AcDbCircle
 10
126.0659514246
 20
68.6618585122
 30
0.0
 40
7.91531976355828
100
AcDbArc
 50
305.3428380085
 51
5.9693423849
  0
ARC
  5
19D
330
1F
100
AcDbEntity
  8
0
  6
Continuous
 62
     7
370
    30
100
AcDbCircle
 10
109.9067223351
 20
68.5927470808
 30
0.0
 40
24.0548002780019
100
AcDbArc
 50
2.51502359
 51
57.4795998773
  0
LWPOLYLINE
  5
19E
330
1F
100
AcDbEntity
  8
0
  6
Continuous
 62
     7
370
    30
100
AcDbPolyline
 90
       95
 70
   128
 43
0.0
 10
106.1175890684
 20
76.97332181
 10
106.1380291493
 20
76.255543064
 10
106.1992581017
 20
75.517370477
 10
106.3010024622
 20
74.762100907
 10
106.4428078159
 20
73.9931075712
 10
106.6240408255
 20
73.2138249806
 10
106.8438920605
 20
72.4277336004
 10
107.1013796119
 20
71.6383443054
 10
107.3953534777
 20
70.8491827
 10
107.7245006994
 20
70.0637733713
 10
108.0873512255
 20
69.2856241482
 10
108.4822844775
 20
68.518210434
 10
108.9075365876
 20
67.7649596846
 10
109.3612082766
 20
67.0292361007
 10
109.8412733367
 20
66.3143256024
 10
110.3455876808
 20
65.6234211536
 10
110.8718989186
 20
64.9596085013
 10
111.4178564164
 20
64.3258523939
 10
111.9810217953
 20
63.7249833399
 10
112.5588798222
 20
63.1596849666
 10
113.1488496427
 20
62.6324820336
 10
113.7482963086
 20
62.1457291573
 10
114.3545425453
 20
61.7016002941
 10
114.9648807102
 20
61.3020790313
 10
115.5765848847
 20
60.9489497279
 10
116.1869230495
 20
60.6437895451
 10
116.7931692863
 20
60.3879614024
 10
117.3926159521
 20
60.1826078903
 10
117.9825857727
 20
60.0286461674
 10
118.5604437996
 20
59.9267638643
 10
119.1236091785
 20
59.8774160119
 10
119.6695666762
 20
59.8808230098
 10
120.195877914
 20
59.9369696416
 10
120.7001922581
 20
60.0456051426
 10
121.1802573182
 20
60.2062443205
 10
121.6339290073
 20
60.4181697215
 10
122.0591811174
 20
60.6804348355
 10
122.4541143694
 20
60.9918683228
 10
122.8169648955
 20
61.3510792459
 10
123.1461121171
 20
61.7564632814
 10
123.440085983
 20
62.206209886
 10
123.6975735343
 20
62.6983103821
 10
123.9174247693
 20
63.2305669295
 10
124.098657779
 20
63.8006023411
 10
124.2404631326
 20
64.4058707006
 10
124.3422074932
 20
65.0436687323
 10
124.4034364456
 20
65.7111478756
 10
124.4238765265
 20
66.4053270065
 10
124.4034364456
 20
67.1231057525
 10
124.3422074932
 20
67.8612783394
 10
124.2404631326
 20
68.6165479094
 10
124.098657779
 20
69.3855412452
 10
123.9174247693
 20
70.1648238358
 10
123.6975735343
 20
70.9509152161
 10
123.440085983
 20
71.740304511
 10
123.1461121171
 20
72.5294661165
 10
122.8169648955
 20
73.3148754451
 10
122.4541143694
 20
74.0930246682
 10
122.0591811174
 20
74.8604383824
 10
121.6339290073
 20
75.6136891318
 10
121.1802573182
 20
76.3494127157
 10
120.7001922581
 20
77.064323214
 10
120.195877914
 20
77.7552276628
 10
119.6695666762
 20
78.4190403151
 10
119.1236091785
 20
79.0527964226
 10
118.5604437996
 20
79.6536654765
 10
117.9825857727
 20
80.2189638498
 10
117.3926159521
 20
80.7461667828
 10
116.7931692863
 20
81.2329196591
 10
116.1869230495
 20
81.6770485224
 10
115.5765848847
 20
82.0765697851
 10
114.9648807102
 20
82.4296990885
 10
114.3545425453
 20
82.7348592713
 10
113.7482963086
 20
82.990687414
 10
113.1488496427
 20
83.1960409262
 10
112.5588798222
 20
83.350002649
 10
111.9810217953
 20
83.4518849522
 10
111.4178564164
 20
83.5012328045
 10
110.8718989186
 20
83.4978258066
 10
110.3455876808
 20
83.4416791749
 10
109.8412733367
 20
83.3330436738
 10
109.3612082766
 20
83.172404496
 10
108.9075365876
 20
82.9604790949
 10
108.4822844775
 20
82.6982139809
 10
108.0873512255
 20
82.3867804936
 10
107.7245006994
 20
82.0275695706
 10
107.3953534777
 20
81.622185535
 10
107.1013796119
 20
81.1724389304
 10
106.8438920605
 20
80.6803384343
 10
106.6240408255
 20
80.1480818869
 10
106.4428078159
 20
79.5780464753
 10
106.3010024622
 20
78.9727781159
 10
106.1992581017
 20
78.3349800841
 10
106.1380291493
 20
77.6675009408
 10
106.1175890684
 20
76.97332181
  0
LWPOLYLINE
  5
19F
330
1F
100
AcDbEntity
  8
0
  6
Continuous
 62
     7
370
    30
100
AcDbPolyline
 90
       73
 70
   128
 43
0.0
 10
106.1175890684
 20
77.1366034323
 10
106.1379104525
 20
77.8342237567
 10
106.1987857446
 20
78.5053309943
 10
106.2999487525
 20
79.1469905638
 10
106.4409571162
 20
79.7563966512
 10
106.6211942419
 20
80.3308844788
 10
106.8398719985
 20
80.8679419573
 10
107.0960341639
 20
81.3652206713
 10
107.3885606061
 20
81.8205461473
 10
107.7161721814
 20
82.2319273628
 10
108.0774363276
 20
82.5975654526
 10
108.4707733287
 20
82.9158615743
 10
108.894463222
 20
83.1854238998
 10
109.3466533194
 20
83.4050737019
 10
109.8253663087
 20
83.5738505077
 10
110.3285088997
 20
83.6910162992
 10
110.853880978
 20
83.7560587402
 10
111.399185225
 20
83.7686934168
 10
111.9620371641
 20
83.7288650806
 10
112.539975587
 20
83.6367478909
 10
113.1304733159
 20
83.4927446526
 10
113.7309482547
 20
83.2974850553
 10
114.338774679
 20
83.0518229196
 10
114.9512947187
 20
82.7568324634
 10
115.5658299794
 20
82.413803605
 10
116.1796932549
 20
82.0242363223
 10
116.7902002771
 20
81.5898340938
 10
117.3946814543
 20
81.1124964501
 10
117.990493544
 20
80.5943106671
 10
118.5750312116
 20
80.0375426395
 10
119.1457384226
 20
79.4446269721
 10
119.7001196195
 20
78.8181563343
 10
120.2357506345
 20
78.1608701229
 10
120.7502892893
 20
77.4756424832
 10
121.2414856375
 20
76.7654697413
 10
121.7071918022
 20
76.0334573019
 10
122.145371369
 20
75.2828060691
 10
122.5541082901
 20
74.5167984499
 10
122.931615263
 20
73.7387840006
 10
123.2762415457
 20
72.9521647804
 10
123.5864801751
 20
72.1603804751
 10
123.8609745567
 20
71.366893356
 10
124.0985243963
 20
70.5751731403
 10
124.298090949
 20
69.7886818191
 10
124.458801561
 20
69.0108585189
 10
124.5799534858
 20
68.245104463
 10
124.6610169566
 20
67.4947680991
 10
124.7016375037
 20
66.7631304571
 10
124.7016375037
 20
66.0533908024
 10
124.6610169566
 20
65.3686526459
 10
124.5799534858
 20
64.7119101732
 10
124.458801561
 20
64.0860351522
 10
124.298090949
 20
63.493764375
 10
124.0985243963
 20
62.9376876911
 10
123.8609745567
 20
62.4202366823
 10
123.5864801751
 20
61.9436740302
 10
123.2762415457
 20
61.5100836221
 10
122.931615263
 20
61.1213614384
 10
122.5541082901
 20
60.7792072624
 10
122.145371369
 20
60.4851172472
 10
121.7071918022
 20
60.2403773737
 10
121.2414856375
 20
60.046057827
 10
120.7502892893
 20
59.9030083171
 10
120.2357506345
 20
59.811854363
 10
119.7001196195
 20
59.7729945579
 10
119.1457384226
 20
59.7865988257
 10
118.5750312116
 20
59.8526076786
 10
117.990493544
 20
59.9707324764
 10
117.3946814543
 20
60.1404566897
 10
116.7902002771
 20
60.3610381574
 10
116.1796932549
 20
60.6315123332
 10
115.5658299794
 20
60.9506965021
 10
115.4106435254
 20
61.0388167264
  0
LWPOLYLINE
  5
1A0
330
1F
100
AcDbEntity
  8
0
  6
Continuous
 62
     7
370
    30
100
AcDbPolyline
 90
       92
 70
   128
 43
0.0
 10
106.644030067
 20
76.6694138903
 10
106.6645851505
 20
77.344823531
 10
106.7261524468
 20
77.9932821428
 10
106.8284385597
 20
78.6116995252
 10
106.9709560491
 20
79.1971286377
 10
107.1530257545
 20
79.7467796441
 10
107.3737800308
 20
80.2580332069
 10
107.6321668832
 20
80.7284529701
 10
107.9269549808
 20
81.1557971693
 10
108.256739524
 20
81.5380293148
 10
108.6199489394
 20
81.8733278964
 10
109.0148523685
 20
82.1600950636
 10
109.4395679168
 20
82.3969642402
 10
109.8920716213
 20
82.5828066368
 10
110.3702070957
 20
82.7167366297
 10
110.8716958068
 20
82.7981159815
 10
111.3941479324
 20
82.8265568826
 10
111.9350737503
 20
82.801923799
 10
112.4918955026
 20
82.7243341187
 10
113.0619596801
 20
82.5941575918
 10
113.6425496674
 20
82.4120145688
 10
114.2308986887
 20
82.178773044
 10
114.8242029932
 20
81.8955445197
 10
115.4196352155
 20
81.5636787086
 10
116.0143578499
 20
81.1847571025
 10
116.6055367723
 20
80.7605854355
 10
117.190354746
 20
80.2931850786
 10
117.7660248468
 20
79.7847834074
 10
118.3298037447
 20
79.2378031875
 10
118.8790047765
 20
78.6548510286
 10
119.411010749
 20
78.0387049633
 10
119.9232864116
 20
77.3923012081
 10
120.4133905376
 20
76.7187201714
 10
120.8789875574
 20
76.0211717735
 10
121.3178586893
 20
75.3029801502
 10
121.7279125125
 20
74.5675678116
 10
122.1071949337
 20
73.8184393325
 10
122.4538984996
 20
73.0591646511
 10
122.7663710097
 20
72.2933620572
 10
123.0431233902
 20
71.5246809488
 10
123.2828367901
 20
70.7567844415
 10
123.4843688657
 20
69.9933319118
 10
123.646759225
 20
69.2379615586
 10
123.7692340039
 20
68.4942730658
 10
123.8512095544
 20
67.7658104477
 10
123.8922952256
 20
67.0560451603
 10
123.8922952256
 20
66.3683595586
 10
123.8512095544
 20
65.7060307775
 10
123.7692340039
 20
65.0722151153
 10
123.646759225
 20
64.4699329924
 10
123.4843688657
 20
63.9020545572
 10
123.2828367901
 20
63.3712860091
 10
123.0431233902
 20
62.8801567021
 10
122.7663710097
 20
62.4310070908
 10
122.4538984996
 20
62.0259775778
 10
122.1071949337
 20
61.6669983131
 10
121.7279125125
 20
61.3557799964
 10
121.3178586893
 20
61.0938057246
 10
120.8789875574
 20
60.8823239246
 10
120.4133905376
 20
60.7223424033
 10
119.9232864116
 20
60.6146235457
 10
119.411010749
 20
60.559680681
 10
118.8790047765
 20
60.5577756371
 10
118.3298037447
 20
60.6089174924
 10
117.7660248468
 20
60.7128625326
 10
117.190354746
 20
60.8691154124
 10
116.6055367723
 20
61.0769315154
 10
116.0143578499
 20
61.3353205035
 10
115.4196352155
 20
61.6430510354
 10
114.8242029932
 20
61.9986566349
 10
114.2308986887
 20
62.4004426795
 10
113.6425496674
 20
62.8464944756
 10
113.0619596801
 20
63.3346863834
 10
112.4918955026
 20
63.8626919461
 10
111.9350737503
 20
64.4279949766
 10
111.3941479324
 20
65.0279015487
 10
110.8716958068
 20
65.6595528343
 10
110.3702070957
 20
66.3199387275
 10
109.8920716213
 20
67.0059121885
 10
109.4395679168
 20
67.7142042417
 10
109.0148523685
 20
68.4414395526
 10
108.6199489394
 20
69.184152514
 10
108.256739524
 20
69.9388037603
 10
107.9269549808
 20
70.7017970347
 10
107.6321668832
 20
71.4694963268
 10
107.3737800308
 20
72.2382431997
 10
107.1530257545
 20
73.0043742247
 10
106.9709560491
 20
73.7642384384
 10
106.8284385597
 20
74.5142147418
 10
106.7261524468
 20
75.2507291563
 10
106.6645851505
 20
75.9702718554
 10
106.644030067
 20
76.6694138903
  0
LWPOLYLINE
  5
1A1
330
1F
100
AcDbEntity
  8
0
  6
Continuous
 62
     7
370
    30
100
AcDbPolyline
 90
       46
 70
   128
 43
0.0
 10
106.9268727794
 20
76.6694138903
 10
106.9475424984
 20
75.9739734231
 10
107.0094509545
 20
75.2580563224
 10
107.1122965359
 20
74.5251504643
 10
107.2555781894
 20
73.7788264926
 10
107.438597861
 20
73.0227204226
 10
107.6604638974
 20
72.2605159271
 10
107.9200953896
 20
71.4959263897
 10
108.2162274389
 20
70.7326768139
 10
108.5474173199
 20
69.9744856748
 10
108.9120515086
 20
69.2250468035
 10
109.3083535441
 20
68.4880113907
 10
109.7343926826
 20
67.7669701991
 10
110.1880933042
 20
67.0654360687
 10
110.6672450252
 20
66.3868268033
 10
111.1695134665
 20
65.734448519
 10
111.6924516268
 20
65.1114795374
 10
112.2335118039
 20
64.5209549005
 10
112.790058007
 20
63.9657515852
 10
113.3593787989
 20
63.4485744861
 10
113.938700506
 20
62.9719432381
 10
114.5252007312
 20
62.5381799408
 10
115.1160221043
 20
62.1493978452
 10
115.708286203
 20
61.8074910587
 10
116.2991075761
 20
61.5141253168
 10
116.8856078013
 20
61.2707298679
 10
117.4649295084
 20
61.0784905102
 10
118.0342503004
 20
60.9383438144
 10
118.5907965034
 20
60.8509725612
 10
119.1318566805
 20
60.8168024146
 10
119.6547948408
 20
60.8359998481
 10
120.1570632821
 20
60.9084713337
 10
120.6362150031
 20
61.0338637975
 10
121.0899156247
 20
61.2115663403
 10
121.5159547632
 20
61.4407132129
 10
121.9122567987
 20
61.7201880349
 10
122.2768909875
 20
62.0486292331
 10
122.6080808684
 20
62.4244366749
 10
122.9042129178
 20
62.8457794642
 10
123.1638444099
 20
63.3106048614
 10
123.3857104463
 20
63.8166482839
 10
123.568730118
 20
64.3614443388
 10
123.7120117714
 20
64.9423388348
 10
123.8148573529
 20
65.556501712
 10
123.8767658089
 20
66.2009408308
 10
123.89714342
 20
66.7913817376
  0
LWPOLYLINE
  5
1A2
330
1F
100
AcDbEntity
  8
0
  6
Continuous
 62
     7
370
    30
100
AcDbPolyline
 90
       24
 70
   128
 43
0.0
 10
115.3431261727
 20
81.6089797365
 10
115.1160221043
 20
81.7344393801
 10
114.5252007312
 20
82.0278051219
 10
113.938700506
 20
82.2712005708
 10
113.3593787989
 20
82.4634399286
 10
112.790058007
 20
82.6035866244
 10
112.2335118039
 20
82.6909578775
 10
111.6924516268
 20
82.7251280242
 10
111.1695134665
 20
82.7059305907
 10
110.6672450252
 20
82.6334591051
 10
110.1880933042
 20
82.5080666412
 10
109.7343926826
 20
82.3303640985
 10
109.3083535441
 20
82.1012172259
 10
108.9120515086
 20
81.8217424039
 10
108.5474173199
 20
81.4933012057
 10
108.2162274389
 20
81.1174937639
 10
107.9200953896
 20
80.6961509746
 10
107.6604638974
 20
80.2313255774
 10
107.438597861
 20
79.7252821549
 10
107.2555781894
 20
79.1804860999
 10
107.1122965359
 20
78.599591604
 10
107.0094509545
 20
77.9854287268
 10
106.9475424984
 20
77.340989608
 10
106.9268727794
 20
76.6694138903
  0
ARC
  5
1A3
330
1F
100
AcDbEntity
  8
0
  6
Continuous
 62
     7
370
    30
100
AcDbCircle
 10
134.1126881606
 20
82.566553711
 30
0.0
 40
18.52008400869201
100
AcDbArc
 50
183.4969937703
 51
236.497629697
  0
ARC
  5
1A4
330
1F
100
AcDbEntity
  8
0
  6
Continuous
 62
     7
370
    30
100
AcDbCircle
 10
111.5731608228
 20
69.5547615427
 30
0.0
 40
22.11338685055648
100
AcDbArc
 50
21.648983057
 51
38.3456404103
  0
ARC
  5
1A5
330
1F
100
AcDbEntity
  8
0
  6
Continuous
 62
     7
370
    30
100
AcDbCircle
 10
134.4956937768
 20
82.7876581469
 30
0.0
 40
18.91241631129676
100
AcDbArc
 50
184.1045773379
 51
235.8900461294
  0
ENDSEC
  0
SECTION
  2
OBJECTS
  0
DICTIONARY
  5
C
330
0
100
AcDbDictionary
281
     1
  3
ACAD_GROUP
350
D
  3
ACAD_LAYOUT
350
1A
  3
ACAD_MLINESTYLE
350
17
  3
ACAD_PLOTSETTINGS
350
19
  3
ACAD_PLOTSTYLENAME
350
E
  3
ACAD_SCALELIST
350
47
  0
DICTIONARY
  5
D
102
{ACAD_REACTORS
330
C
102
}
330
C
100
AcDbDictionary
281
     1
  0
DICTIONARY
  5
1A
102
{ACAD_REACTORS
330
C
102
}
330
C
100
AcDbDictionary
281
     1
  3
Layout1
350
1E
  3
Layout2
350
26
  3
Model
350
22
  0
DICTIONARY
  5
17
102
{ACAD_REACTORS
330
C
102
}
330
C
100
AcDbDictionary
281
     1
  3
Standard
350
18
  0
DICTIONARY
  5
19
102
{ACAD_REACTORS
330
C
102
}
330
C
100
AcDbDictionary
281
     1
  0
ACDBDICTIONARYWDFLT
  5
E
102
{ACAD_REACTORS
330
C
102
}
330
C
100
AcDbDictionary
281
     1
  3
Normal
350
F
100
AcDbDictionaryWithDefault
340
F
  0
DICTIONARY
  5
47
102
{ACAD_REACTORS
330
C
102
}
330
C
100
AcDbDictionary
281
     1
  3
A0
350
48
  3
A1
350
49
  3
A2
350
4A
  3
A3
350
4B
  3
A4
350
4C
  3
A5
350
4D
  3
A6
350
4E
  3
A7
350
4F
  3
A8
350
50
  3
A9
350
51
  3
B0
350
52
  3
B1
350
53
  3
B2
350
54
  3
B3
350
55
  3
B4
350
56
  3
B5
350
57
  3
B6
350
58
  3
B7
350
59
  3
B8
350
5A
  3
B9
350
5B
  3
C0
350
5C
  3
C1
350
5D
  3
C2
350
5E
  3
C3
350
5F
  3
C4
350
60
  3
C5
350
61
  3
C6
350
62
  3
C7
350
63
  3
C8
350
64
  3
C9
350
65
  3
D0
350
66
  3
D1
350
67
  3
D2
350
68
  0
LAYOUT
  5
1E
102
{ACAD_REACTORS
330
1A
102
}
330
1A
100
AcDbPlotSettings
  1

  2
none_device
  4

  6

 40
0.0
 41
0.0
 42
0.0
 43
0.0
 44
0.0
 45
0.0
 46
0.0
 47
0.0
 48
0.0
 49
0.0
140
0.0
141
0.0
142
1.0
143
1.0
 70
   688
 72
     1
 73
     0
 74
     5
  7

 75
    16
147
1.0
148
0.0
149
0.0
100
AcDbLayout
  1
Layout1
 70
     1
 71
     1
 10
0.0
 20
0.0
 11
420.0
 21
297.0
 12
0.0
 22
0.0
 32
0.0
 14
1.0000000000E+20
 24
1.0000000000E+20
 34
1.0000000000E+20
 15
-1.0000000000E+20
 25
-1.0000000000E+20
 35
-1.0000000000E+20
146
0.0
 13
0.0
 23
0.0
 33
0.0
 16
1.0
 26
0.0
 36
0.0
 17
0.0
 27
1.0
 37
0.0
 76
     0
330
1B
  0
LAYOUT
  5
26
102
{ACAD_REACTORS
330
1A
102
}
330
1A
100
AcDbPlotSettings
  1

  2
none_device
  4

  6

 40
0.0
 41
0.0
 42
0.0
 43
0.0
 44
0.0
 45
0.0
 46
0.0
 47
0.0
 48
0.0
 49
0.0
140
0.0
141
0.0
142
1.0
143
1.0
 70
   688
 72
     1
 73
     0
 74
     5
  7

 75
    16
147
1.0
148
0.0
149
0.0
100
AcDbLayout
  1
Layout2
 70
     1
 71
     2
 10
0.0
 20
0.0
 11
0.0
 21
0.0
 12
0.0
 22
0.0
 32
0.0
 14
0.0
 24
0.0
 34
0.0
 15
0.0
 25
0.0
 35
0.0
146
0.0
 13
0.0
 23
0.0
 33
0.0
 16
1.0
 26
0.0
 36
0.0
 17
0.0
 27
1.0
 37
0.0
 76
     0
330
23
  0
LAYOUT
  5
22
102
{ACAD_REACTORS
330
1A
102
}
330
1A
100
AcDbPlotSettings
  1

  2
none_device
  4
Letter_(8.50_x_11.00_Inches)
  6

 40
6.35
 41
6.35
 42
6.35000508
 43
6.35000508
 44
215.9
 45
279.4
 46
0.0
 47
0.0
 48
0.0
 49
0.0
140
0.0
141
0.0
142
1.0
143
1.0
 70
  1712
 72
     1
 73
     0
 74
     0
  7

 75
     0
147
1.0
148
0.0
149
0.0
100
AcDbLayout
  1
Model
 70
     1
 71
     0
 10
0.0
 20
0.0
 11
148.5
 21
105.0
 12
0.0
 22
0.0
 32
0.0
 14
0.0
 24
0.0
 34
0.0
 15
148.5
 25
105.0
 35
0.0
146
0.0
 13
0.0
 23
0.0
 33
0.0
 16
1.0
 26
0.0
 36
0.0
 17
0.0
 27
1.0
 37
0.0
 76
     0
330
1F
331
29
  0
MLINESTYLE
  5
18
102
{ACAD_REACTORS
330
17
102
}
330
17
100
AcDbMlineStyle
  2
Standard
 70
     0
  3

 62
   256
 51
90.0
 52
90.0
 71
     2
 49
0.5
 62
   256
  6
BYLAYER
 49
-0.5
 62
   256
  6
BYLAYER
  0
ACDBPLACEHOLDER
  5
F
102
{ACAD_REACTORS
330
E
102
}
330
E
  0
SCALE
  5
48
102
{ACAD_REACTORS
330
47
102
}
330
47
100
AcDbScale
 70
     0
300
1:1
140
1.0
141
1.0
290
     1
  0
SCALE
  5
49
102
{ACAD_REACTORS
330
47
102
}
330
47
100
AcDbScale
 70
     0
300
1:2
140
1.0
141
2.0
290
     0
  0
SCALE
  5
4A
102
{ACAD_REACTORS
330
47
102
}
330
47
100
AcDbScale
 70
     0
300
1:4
140
1.0
141
4.0
290
     0
  0
SCALE
  5
4B
102
{ACAD_REACTORS
330
47
102
}
330
47
100
AcDbScale
 70
     0
300
1:5
140
1.0
141
5.0
290
     0
  0
SCALE
  5
4C
102
{ACAD_REACTORS
330
47
102
}
330
47
100
AcDbScale
 70
     0
300
1:8
140
1.0
141
8.0
290
     0
  0
SCALE
  5
4D
102
{ACAD_REACTORS
330
47
102
}
330
47
100
AcDbScale
 70
     0
300
1:10
140
1.0
141
10.0
290
     0
  0
SCALE
  5
4E
102
{ACAD_REACTORS
330
47
102
}
330
47
100
AcDbScale
 70
     0
300
1:16
140
1.0
141
16.0
290
     0
  0
SCALE
  5
4F
102
{ACAD_REACTORS
330
47
102
}
330
47
100
AcDbScale
 70
     0
300
1:20
140
1.0
141
20.0
290
     0
  0
SCALE
  5
50
102
{ACAD_REACTORS
330
47
102
}
330
47
100
AcDbScale
 70
     0
300
1:30
140
1.0
141
30.0
290
     0
  0
SCALE
  5
51
102
{ACAD_REACTORS
330
47
102
}
330
47
100
AcDbScale
 70
     0
300
1:40
140
1.0
141
40.0
290
     0
  0
SCALE
  5
52
102
{ACAD_REACTORS
330
47
102
}
330
47
100
AcDbScale
 70
     0
300
1:50
140
1.0
141
50.0
290
     0
  0
SCALE
  5
53
102
{ACAD_REACTORS
330
47
102
}
330
47
100
AcDbScale
 70
     0
300
1:100
140
1.0
141
100.0
290
     0
  0
SCALE
  5
54
102
{ACAD_REACTORS
330
47
102
}
330
47
100
AcDbScale
 70
     0
300
2:1
140
2.0
141
1.0
290
     0
  0
SCALE
  5
55
102
{ACAD_REACTORS
330
47
102
}
330
47
100
AcDbScale
 70
     0
300
4:1
140
4.0
141
1.0
290
     0
  0
SCALE
  5
56
102
{ACAD_REACTORS
330
47
102
}
330
47
100
AcDbScale
 70
     0
300
8:1
140
8.0
141
1.0
290
     0
  0
SCALE
  5
57
102
{ACAD_REACTORS
330
47
102
}
330
47
100
AcDbScale
 70
     0
300
10:1
140
10.0
141
1.0
290
     0
  0
SCALE
  5
58
102
{ACAD_REACTORS
330
47
102
}
330
47
100
AcDbScale
 70
     0
300
100:1
140
100.0
141
1.0
290
     0
  0
SCALE
  5
59
102
{ACAD_REACTORS
330
47
102
}
330
47
100
AcDbScale
 70
     0
300
1/128" = 1'-0"
140
0.0078125
141
12.0
290
     0
  0
SCALE
  5
5A
102
{ACAD_REACTORS
330
47
102
}
330
47
100
AcDbScale
 70
     0
300
1/64" = 1'-0"
140
0.015625
141
12.0
290
     0
  0
SCALE
  5
5B
102
{ACAD_REACTORS
330
47
102
}
330
47
100
AcDbScale
 70
     0
300
1/32" = 1'-0"
140
0.03125
141
12.0
290
     0
  0
SCALE
  5
5C
102
{ACAD_REACTORS
330
47
102
}
330
47
100
AcDbScale
 70
     0
300
1/16" = 1'-0"
140
0.0625
141
12.0
290
     0
  0
SCALE
  5
5D
102
{ACAD_REACTORS
330
47
102
}
330
47
100
AcDbScale
 70
     0
300
3/32" = 1'-0"
140
0.09375
141
12.0
290
     0
  0
SCALE
  5
5E
102
{ACAD_REACTORS
330
47
102
}
330
47
100
AcDbScale
 70
     0
300
1/8" = 1'-0"
140
0.125
141
12.0
290
     0
  0
SCALE
  5
5F
102
{ACAD_REACTORS
330
47
102
}
330
47
100
AcDbScale
 70
     0
300
3/16" = 1'-0"
140
0.1875
141
12.0
290
     0
  0
SCALE
  5
60
102
{ACAD_REACTORS
330
47
102
}
330
47
100
AcDbScale
 70
     0
300
1/4" = 1'-0"
140
0.25
141
12.0
290
     0
  0
SCALE
  5
61
102
{ACAD_REACTORS
330
47
102
}
330
47
100
AcDbScale
 70
     0
300
3/8" = 1'-0"
140
0.375
141
12.0
290
     0
  0
SCALE
  5
62
102
{ACAD_REACTORS
330
47
102
}
330
47
100
AcDbScale
 70
     0
300
1/2" = 1'-0"
140
0.5
141
12.0
290
     0
  0
SCALE
  5
63
102
{ACAD_REACTORS
330
47
102
}
330
47
100
AcDbScale
 70
     0
300
3/4" = 1'-0"
140
0.75
141
12.0
290
     0
  0
SCALE
  5
64
102
{ACAD_REACTORS
330
47
102
}
330
47
100
AcDbScale
 70
     0
300
1" = 1'-0"
140
1.0
141
12.0
290
     0
  0
SCALE
  5
65
102
{ACAD_REACTORS
330
47
102
}
330
47
100
AcDbScale
 70
     0
300
1-1/2" = 1'-0"
140
1.5
141
12.0
290
     0
  0
SCALE
  5
66
102
{ACAD_REACTORS
330
47
102
}
330
47
100
AcDbScale
 70
     0
300
3" = 1'-0"
140
3.0
141
12.0
290
     0
  0
SCALE
  5
67
102
{ACAD_REACTORS
330
47
102
}
330
47
100
AcDbScale
 70
     0
300
6" = 1'-0"
140
6.0
141
12.0
290
     0
  0
SCALE
  5
68
102
{ACAD_REACTORS
330
47
102
}
330
47
100
AcDbScale
 70
     0
300
1'-0" = 1'-0"
140
12.0
141
12.0
290
     0
  0
ENDSEC
  0
EOF
