  0
SECTION
  2
HEADER
  9
$ACADVER
  1
AC1015
  9
$ACADMAINTVER
 70
     6
  9
$DWGCODEPAGE
  3
ANSI_950
  9
$INSBASE
 10
0.0
 20
0.0
 30
0.0
  9
$EXTMIN
 10
0.0
 20
0.0
 30
0.0
  9
$EXTMAX
 10
297.0
 20
210.0
 30
0.0
  9
$LIMMIN
 10
0.0
 20
0.0
  9
$LIMMAX
 10
297.0
 20
210.0
  9
$ORTHOMODE
 70
     0
  9
$REGENMODE
 70
     1
  9
$FILLMODE
 70
     1
  9
$QTEXTMODE
 70
     0
  9
$MIRRTEXT
 70
     1
  9
$LTSCALE
 40
1.0
  9
$ATTMODE
 70
     1
  9
$TEXTSIZE
 40
3.125
  9
$TRACEWID
 40
1.0
  9
$TEXTSTYLE
  7
Standard
  9
$CLAYER
  8
0
  9
$CELTYPE
  6
ByLayer
  9
$CECOLOR
 62
   256
  9
$CELTSCALE
 40
1.0
  9
$DISPSILH
 70
     0
  9
$DIMSCALE
 40
1.0
  9
$DIMASZ
 40
2.0
  9
$DIMEXO
 40
1.0
  9
$DIMDLI
 40
3.75
  9
$DIMRND
 40
0.0
  9
$DIMDLE
 40
0.0
  9
$DIMEXE
 40
1.0
  9
$DIMTP
 40
0.0
  9
$DIMTM
 40
0.0
  9
$DIMTXT
 40
3.125
  9
$DIMCEN
 40
2.5
  9
$DIMTSZ
 40
0.0
  9
$DIMTOL
 70
     0
  9
$DIMLIM
 70
     0
  9
$DIMTIH
 70
     1
  9
$DIMTOH
 70
     1
  9
$DIMSE1
 70
     0
  9
$DIMSE2
 70
     0
  9
$DIMTAD
 70
     1
  9
$DIMZIN
 70
     0
  9
$DIMBLK
  1

  9
$DIMASO
 70
     1
  9
$DIMSHO
 70
     1
  9
$DIMPOST
  1

  9
$DIMAPOST
  1

  9
$DIMALT
 70
     0
  9
$DIMALTD
 70
     3
  9
$DIMALTF
 40
0.0393700787
  9
$DIMLFAC
 40
1.0
  9
$DIMTOFL
 70
     1
  9
$DIMTVP
 40
0.0
  9
$DIMTIX
 70
     0
  9
$DIMSOXD
 70
     0
  9
$DIMSAH
 70
     0
  9
$DIMBLK1
  1

  9
$DIMBLK2
  1

  9
$DIMSTYLE
  2
ISO-25
  9
$DIMCLRD
 70
     0
  9
$DIMCLRE
 70
     0
  9
$DIMCLRT
 70
     0
  9
$DIMTFAC
 40
1.0
  9
$DIMGAP
 40
1.0
  9
$DIMJUST
 70
     0
  9
$DIMSD1
 70
     0
  9
$DIMSD2
 70
     0
  9
$DIMTOLJ
 70
     0
  9
$DIMTZIN
 70
     0
  9
$DIMALTZ
 70
     0
  9
$DIMALTTZ
 70
     0
  9
$DIMUPT
 70
     0
  9
$DIMDEC
 70
     2
  9
$DIMTDEC
 70
     2
  9
$DIMALTU
 70
     2
  9
$DIMALTTD
 70
     3
  9
$DIMTXSTY
  7
Standard
  9
$DIMAUNIT
 70
     0
  9
$DIMADEC
 70
     1
  9
$DIMALTRND
 40
0.0
  9
$DIMAZIN
 70
     0
  9
$DIMDSEP
 70
    44
  9
$DIMATFIT
 70
     3
  9
$DIMFRAC
 70
     0
  9
$DIMLDRBLK
  1

  9
$DIMLUNIT
 70
     2
  9
$DIMLWD
 70
    -2
  9
$DIMLWE
 70
    -2
  9
$DIMTMOVE
 70
     0
  9
$LUNITS
 70
     2
  9
$LUPREC
 70
     2
  9
$SKETCHINC
 40
1.0
  9
$FILLETRAD
 40
10.0
  9
$AUNITS
 70
     0
  9
$AUPREC
 70
     1
  9
$MENU
  1
.
  9
$ELEVATION
 40
0.0
  9
$PELEVATION
 40
0.0
  9
$THICKNESS
 40
0.0
  9
$LIMCHECK
 70
     0
  9
$CHAMFERA
 40
0.0
  9
$CHAMFERB
 40
0.0
  9
$CHAMFERC
 40
0.0
  9
$CHAMFERD
 40
0.0
  9
$SKPOLY
 70
     0
  9
$TDCREATE
 40
2457735.474391528
  9
$TDUCREATE
 40
2457735.141058194
  9
$TDUPDATE
 40
2457735.474397222
  9
$TDUUPDATE
 40
2457735.141063889
  9
$TDINDWG
 40
0.0000000116
  9
$TDUSRTIMER
 40
0.0000000116
  9
$USRTIMER
 70
     1
  9
$ANGBASE
 50
0.0
  9
$ANGDIR
 70
     0
  9
$PDMODE
 70
     0
  9
$PDSIZE
 40
-1.0
  9
$PLINEWID
 40
0.0
  9
$SPLFRAME
 70
     0
  9
$SPLINETYPE
 70
     6
  9
$SPLINESEGS
 70
     8
  9
$HANDSEED
  5
28A
  9
$SURFTAB1
 70
     6
  9
$SURFTAB2
 70
     6
  9
$SURFTYPE
 70
     6
  9
$SURFU
 70
     6
  9
$SURFV
 70
     6
  9
$UCSBASE
  2

  9
$UCSNAME
  2

  9
$UCSORG
 10
0.0
 20
0.0
 30
0.0
  9
$UCSXDIR
 10
1.0
 20
0.0
 30
0.0
  9
$UCSYDIR
 10
0.0
 20
1.0
 30
0.0
  9
$UCSORTHOREF
  2

  9
$UCSORTHOVIEW
 70
     0
  9
$UCSORGTOP
 10
0.0
 20
0.0
 30
0.0
  9
$UCSORGBOTTOM
 10
0.0
 20
0.0
 30
0.0
  9
$UCSORGLEFT
 10
0.0
 20
0.0
 30
0.0
  9
$UCSORGRIGHT
 10
0.0
 20
0.0
 30
0.0
  9
$UCSORGFRONT
 10
0.0
 20
0.0
 30
0.0
  9
$UCSORGBACK
 10
0.0
 20
0.0
 30
0.0
  9
$PUCSBASE
  2

  9
$PUCSNAME
  2

  9
$PUCSORG
 10
0.0
 20
0.0
 30
0.0
  9
$PUCSXDIR
 10
1.0
 20
0.0
 30
0.0
  9
$PUCSYDIR
 10
0.0
 20
1.0
 30
0.0
  9
$PUCSORTHOREF
  2

  9
$PUCSORTHOVIEW
 70
     0
  9
$PUCSORGTOP
 10
0.0
 20
0.0
 30
0.0
  9
$PUCSORGBOTTOM
 10
0.0
 20
0.0
 30
0.0
  9
$PUCSORGLEFT
 10
0.0
 20
0.0
 30
0.0
  9
$PUCSORGRIGHT
 10
0.0
 20
0.0
 30
0.0
  9
$PUCSORGFRONT
 10
0.0
 20
0.0
 30
0.0
  9
$PUCSORGBACK
 10
0.0
 20
0.0
 30
0.0
  9
$USERI1
 70
     0
  9
$USERI2
 70
     0
  9
$USERI3
 70
     0
  9
$USERI4
 70
     0
  9
$USERI5
 70
     0
  9
$USERR1
 40
0.0
  9
$USERR2
 40
0.0
  9
$USERR3
 40
0.0
  9
$USERR4
 40
0.0
  9
$USERR5
 40
0.0
  9
$WORLDVIEW
 70
     1
  9
$SHADEDGE
 70
     3
  9
$SHADEDIF
 70
    70
  9
$TILEMODE
 70
     1
  9
$MAXACTVP
 70
    64
  9
$PINSBASE
 10
0.0
 20
0.0
 30
0.0
  9
$PLIMCHECK
 70
     0
  9
$PEXTMIN
 10
1.0000000000E+20
 20
1.0000000000E+20
 30
1.0000000000E+20
  9
$PEXTMAX
 10
-1.0000000000E+20
 20
-1.0000000000E+20
 30
-1.0000000000E+20
  9
$PLIMMIN
 10
0.0
 20
0.0
  9
$PLIMMAX
 10
420.0
 20
297.0
  9
$UNITMODE
 70
     0
  9
$VISRETAIN
 70
     1
  9
$PLINEGEN
 70
     0
  9
$PSLTSCALE
 70
     1
  9
$TREEDEPTH
 70
  3020
  9
$CMLSTYLE
  2
Standard
  9
$CMLJUST
 70
     0
  9
$CMLSCALE
 40
20.0
  9
$PROXYGRAPHICS
 70
     1
  9
$MEASUREMENT
 70
     1
  9
$CELWEIGHT
370
    -1
  9
$ENDCAPS
280
     0
  9
$JOINSTYLE
280
     0
  9
$LWDISPLAY
290
     1
  9
$INSUNITS
 70
     4
  9
$HYPERLINKBASE
  1

  9
$STYLESHEET
  1

  9
$XEDIT
290
     1
  9
$CEPSNTYPE
380
     0
  9
$PSTYLEMODE
290
     1
  9
$FINGERPRINTGUID
  2
{AF53EB44-1F03-4327-A3A7-F91B9C1CEBD2}
  9
$VERSIONGUID
  2
{FAEB1C32-E019-11D5-929B-00C0DF256EC4}
  9
$EXTNAMES
290
     1
  9
$PSVPSCALE
 40
0.0
  9
$OLESTARTUP
290
     0
  0
ENDSEC
  0
SECTION
  2
CLASSES
  0
CLASS
  1
ACDBDICTIONARYWDFLT
  2
AcDbDictionaryWithDefault
  3
ObjectDBX Classes
 90
        0
280
     0
281
     0
  0
CLASS
  1
VISUALSTYLE
  2
AcDbVisualStyle
  3
ObjectDBX Classes
 90
     4095
280
     0
281
     0
  0
CLASS
  1
MATERIAL
  2
AcDbMaterial
  3
ObjectDBX Classes
 90
     1153
280
     0
281
     0
  0
CLASS
  1
SCALE
  2
AcDbScale
  3
ObjectDBX Classes
 90
     1153
280
     0
281
     0
  0
CLASS
  1
TABLESTYLE
  2
AcDbTableStyle
  3
ObjectDBX Classes
 90
     4095
280
     0
281
     0
  0
CLASS
  1
MLEADERSTYLE
  2
AcDbMLeaderStyle
  3
ACDB_MLEADERSTYLE_CLASS
 90
     4095
280
     0
281
     0
  0
CLASS
  1
SUN
  2
AcDbSun
  3
SCENEOE
 90
     1153
280
     0
281
     0
  0
CLASS
  1
ACDBPLACEHOLDER
  2
AcDbPlaceHolder
  3
ObjectDBX Classes
 90
        0
280
     0
281
     0
  0
CLASS
  1
LAYOUT
  2
AcDbLayout
  3
ObjectDBX Classes
 90
        0
280
     0
281
     0
  0
ENDSEC
  0
SECTION
  2
TABLES
  0
TABLE
  2
VPORT
  5
8
330
0
100
AcDbSymbolTable
 70
     1
  0
VPORT
  5
29
330
8
100
AcDbSymbolTableRecord
100
AcDbViewportTableRecord
  2
*Active
 70
     0
 10
0.0
 20
0.0
 11
1.0
 21
1.0
 12
148.5
 22
105.0
 13
0.0
 23
0.0
 14
10.0
 24
10.0
 15
10.0
 25
10.0
 16
0.0
 26
0.0
 36
1.0
 17
0.0
 27
0.0
 37
0.0
 40
210.0
 41
1.4142857143
 42
50.0
 43
0.0
 44
0.0
 50
0.0
 51
0.0
 71
     0
 72
  2000
 73
     1
 74
     3
 75
     0
 76
     0
 77
     0
 78
     0
281
     0
 65
     1
110
0.0
120
0.0
130
0.0
111
1.0
121
0.0
131
0.0
112
0.0
122
1.0
132
0.0
 79
     0
146
0.0
  0
ENDTAB
  0
TABLE
  2
LTYPE
  5
5
330
0
100
AcDbSymbolTable
 70
     6
  0
LTYPE
  5
14
330
5
100
AcDbSymbolTableRecord
100
AcDbLinetypeTableRecord
  2
ByBlock
 70
     0
  3

 72
    65
 73
     0
 40
0.0
  0
LTYPE
  5
15
330
5
100
AcDbSymbolTableRecord
100
AcDbLinetypeTableRecord
  2
ByLayer
 70
     0
  3

 72
    65
 73
     0
 40
0.0
  0
LTYPE
  5
16
330
5
100
AcDbSymbolTableRecord
100
AcDbLinetypeTableRecord
  2
Continuous
 70
     0
  3
Solid line
 72
    65
 73
     0
 40
0.0
  0
LTYPE
  5
6E
330
5
100
AcDbSymbolTableRecord
100
AcDbLinetypeTableRecord
  2
HIDDEN
 70
     0
  3
Hidden __ __ __ __ __ __ __ __ __ __ __ __ __ __
 72
    65
 73
     2
 40
1.905
 49
1.27
 74
     0
 49
-0.635
 74
     0
  0
LTYPE
  5
6F
330
5
100
AcDbSymbolTableRecord
100
AcDbLinetypeTableRecord
  2
PHANTOM
 70
     0
  3
Phantom ______  __  __  ______  __  __  ______
 72
    65
 73
     6
 40
12.7
 49
6.35
 74
     0
 49
-1.27
 74
     0
 49
1.27
 74
     0
 49
-1.27
 74
     0
 49
1.27
 74
     0
 49
-1.27
 74
     0
  0
LTYPE
  5
70
330
5
100
AcDbSymbolTableRecord
100
AcDbLinetypeTableRecord
  2
CENTER
 70
     0
  3
Center ____ _ ____ _ ____ _ ____ _ ____ _ ____
 72
    65
 73
     4
 40
10.16
 49
6.35
 74
     0
 49
-1.27
 74
     0
 49
1.27
 74
     0
 49
-1.27
 74
     0
  0
LTYPE
  5
71
330
5
100
AcDbSymbolTableRecord
100
AcDbLinetypeTableRecord
  2
CENTERX2
 70
     0
  3
Center (2x) ________  __  ________  __  _____
 72
    65
 73
     4
 40
20.32
 49
12.7
 74
     0
 49
-2.54
 74
     0
 49
2.54
 74
     0
 49
-2.54
 74
     0
  0
LTYPE
  5
72
330
5
100
AcDbSymbolTableRecord
100
AcDbLinetypeTableRecord
  2
DOT2
 70
     0
  3
Dot (.5x) ........................................
 72
    65
 73
     2
 40
0.635
 49
0.0
 74
     0
 49
-0.635
 74
     0
  0
ENDTAB
  0
TABLE
  2
LAYER
  5
2
330
0
100
AcDbSymbolTable
 70
     3
  0
LAYER
  5
10
330
2
100
AcDbSymbolTableRecord
100
AcDbLayerTableRecord
  2
0
 70
     0
 62
     7
  6
Continuous
370
    -3
390
F
  0
LAYER
  5
73
330
2
100
AcDbSymbolTableRecord
100
AcDbLayerTableRecord
  2
SLD-0
 70
     0
 62
   179
  6
Continuous
370
    15
390
F
  0
LAYER
  5
74
330
2
100
AcDbSymbolTableRecord
100
AcDbLayerTableRecord
  2
DIM
 70
     0
 62
     7
  6
Continuous
370
    -3
390
F
  0
ENDTAB
  0
TABLE
  2
STYLE
  5
3
330
0
100
AcDbSymbolTable
 70
     3
  0
STYLE
  5
11
330
3
100
AcDbSymbolTableRecord
100
AcDbTextStyleTableRecord
  2
Standard
 70
     0
 40
0.0
 41
1.0
 50
0.0
 71
     0
 42
3.125
  3
txt
  4

  0
STYLE
  5
C3
330
3
100
AcDbSymbolTableRecord
100
AcDbTextStyleTableRecord
  2
SLDTEXTSTYLE0
 70
     0
 40
0.0
 41
0.605
 50
0.0
 71
     0
 42
3.125
  3
TXT
  4

  0
STYLE
  5
CC
330
3
100
AcDbSymbolTableRecord
100
AcDbTextStyleTableRecord
  2
SLDTEXTSTYLE1
 70
     0
 40
0.0
 41
0.7
 50
0.0
 71
     0
 42
3.125
  3
TXT
  4

  0
ENDTAB
  0
TABLE
  2
VIEW
  5
6
330
0
100
AcDbSymbolTable
 70
     0
  0
ENDTAB
  0
TABLE
  2
UCS
  5
7
330
0
100
AcDbSymbolTable
 70
     0
  0
ENDTAB
  0
TABLE
  2
APPID
  5
9
330
0
100
AcDbSymbolTable
 70
     1
  0
APPID
  5
12
330
9
100
AcDbSymbolTableRecord
100
AcDbRegAppTableRecord
  2
ACAD
 70
     0
  0
ENDTAB
  0
TABLE
  2
DIMSTYLE
  5
A
330
0
100
AcDbSymbolTable
 70
     6
100
AcDbDimStyleTable
  0
DIMSTYLE
105
27
330
A
100
AcDbSymbolTableRecord
100
AcDbDimStyleTableRecord
  2
ISO-25
 70
     0
 41
2.5
 42
0.625
 43
3.75
 44
1.25
 73
     0
 74
     0
 77
     1
 78
     8
140
2.5
141
2.5
143
0.0393700787
147
0.625
171
     3
172
     1
178
     0
271
     2
272
     2
274
     3
278
    44
283
     0
284
     8
340
11
  0
DIMSTYLE
105
14F
102
{ACAD_REACTORS
330
14E
330
15A
330
164
330
16E
102
}
330
A
100
AcDbSymbolTableRecord
100
AcDbDimStyleTableRecord
  2
SLDDIMSTYLE0
 70
     0
 41
2.0
 44
0.0
 45
0.000000001
 73
     0
 74
     0
 77
     1
 78
    12
 79
     3
140
3.125
147
0.78125
173
     1
178
     0
271
     2
272
     2
276
     2
284
    12
340
C3
  0
DIMSTYLE
105
179
102
{ACAD_REACTORS
330
178
102
}
330
A
100
AcDbSymbolTableRecord
100
AcDbDimStyleTableRecord
  2
SLDDIMSTYLE1
 70
     0
 41
2.0
 44
0.0
 45
0.000000001
 73
     0
 74
     0
 77
     1
 78
    12
 79
     3
140
3.125
147
0.78125
172
     1
173
     1
178
     0
271
     2
272
     2
276
     2
284
    12
289
     0
340
C3
  0
DIMSTYLE
105
1E7
102
{ACAD_REACTORS
330
1E6
102
}
330
A
100
AcDbSymbolTableRecord
100
AcDbDimStyleTableRecord
  2
SLDDIMSTYLE2
 70
     0
 41
2.0
 44
0.0
 45
0.000000001
 78
    12
 79
     3
140
3.125
141
0.0
147
0.78125
173
     1
178
     0
271
     2
272
     2
276
     2
284
    12
340
C3
  0
DIMSTYLE
105
1F1
102
{ACAD_REACTORS
330
1F0
102
}
330
A
100
AcDbSymbolTableRecord
100
AcDbDimStyleTableRecord
  2
SLDDIMSTYLE3
 70
     0
 41
2.0
 44
0.0
 45
0.000000001
 73
     0
 74
     0
 77
     1
 78
    12
 79
     3
140
3.125
147
0.78125
173
     1
178
     0
271
     1
272
     1
276
     2
284
    12
340
C3
  0
DIMSTYLE
105
1FD
102
{ACAD_REACTORS
330
1FC
102
}
330
A
100
AcDbSymbolTableRecord
100
AcDbDimStyleTableRecord
  2
SLDDIMSTYLE4
 70
     0
  3
<>
 41
2.0
 44
0.0
 45
0.000000001
 78
    12
 79
     3
140
3.125
141
0.0
147
0.78125
173
     1
178
     0
271
     2
272
     2
276
     2
284
    12
340
C3
  0
ENDTAB
  0
TABLE
  2
BLOCK_RECORD
  5
1
330
0
100
AcDbSymbolTable
 70
    13
  0
BLOCK_RECORD
  5
1F
330
1
100
AcDbSymbolTableRecord
100
AcDbBlockTableRecord
  2
*Model_Space
340
22
  0
BLOCK_RECORD
  5
1B
330
1
100
AcDbSymbolTableRecord
100
AcDbBlockTableRecord
  2
*Paper_Space
340
1E
  0
BLOCK_RECORD
  5
23
330
1
100
AcDbSymbolTableRecord
100
AcDbBlockTableRecord
  2
*Paper_Space0
340
26
  0
BLOCK_RECORD
  5
C5
330
1
100
AcDbSymbolTableRecord
100
AcDbBlockTableRecord
  2
SW_NOTE_0
340
0
102
{BLKREFS
331
CB
102
}
  0
BLOCK_RECORD
  5
FC
330
1
100
AcDbSymbolTableRecord
100
AcDbBlockTableRecord
  2
SW_NOTE_1
340
0
102
{BLKREFS
331
101
102
}
  0
BLOCK_RECORD
  5
150
330
1
100
AcDbSymbolTableRecord
100
AcDbBlockTableRecord
  2
_D
340
0
  0
BLOCK_RECORD
  5
15B
330
1
100
AcDbSymbolTableRecord
100
AcDbBlockTableRecord
  2
_D_1
340
0
  0
BLOCK_RECORD
  5
165
330
1
100
AcDbSymbolTableRecord
100
AcDbBlockTableRecord
  2
_D_2
340
0
  0
BLOCK_RECORD
  5
16F
330
1
100
AcDbSymbolTableRecord
100
AcDbBlockTableRecord
  2
_D_3
340
0
  0
BLOCK_RECORD
  5
17A
330
1
100
AcDbSymbolTableRecord
100
AcDbBlockTableRecord
  2
_D_4
340
0
  0
BLOCK_RECORD
  5
186
330
1
100
AcDbSymbolTableRecord
100
AcDbBlockTableRecord
  2
SW_CENTERMARKSYMBOL_0
340
0
102
{BLKREFS
331
191
102
}
  0
BLOCK_RECORD
  5
1E8
330
1
100
AcDbSymbolTableRecord
100
AcDbBlockTableRecord
  2
_D_5
340
0
  0
BLOCK_RECORD
  5
1F2
330
1
100
AcDbSymbolTableRecord
100
AcDbBlockTableRecord
  2
_D_6
340
0
  0
BLOCK_RECORD
  5
1FE
330
1
100
AcDbSymbolTableRecord
100
AcDbBlockTableRecord
  2
_D_7
340
0
  0
BLOCK_RECORD
  5
206
330
1
100
AcDbSymbolTableRecord
100
AcDbBlockTableRecord
  2
SW_CENTERMARKSYMBOL_1
340
0
102
{BLKREFS
331
211
102
}
  0
ENDTAB
  0
ENDSEC
  0
SECTION
  2
BLOCKS
  0
BLOCK
  5
20
330
1F
100
AcDbEntity
  8
0
100
AcDbBlockBegin
  2
*Model_Space
 70
     0
 10
0.0
 20
0.0
 30
0.0
  3
*Model_Space
  1

  0
ENDBLK
  5
21
330
1F
100
AcDbEntity
  8
0
100
AcDbBlockEnd
  0
BLOCK
  5
1C
330
1B
100
AcDbEntity
 67
     1
  8
0
100
AcDbBlockBegin
  2
*Paper_Space
 70
     0
 10
0.0
 20
0.0
 30
0.0
  3
*Paper_Space
  1

  0
ENDBLK
  5
1D
330
1B
100
AcDbEntity
 67
     1
  8
0
100
AcDbBlockEnd
  0
BLOCK
  5
24
330
23
100
AcDbEntity
  8
0
100
AcDbBlockBegin
  2
*Paper_Space0
 70
     0
 10
0.0
 20
0.0
 30
0.0
  3
*Paper_Space0
  1

  0
ENDBLK
  5
25
330
23
100
AcDbEntity
  8
0
100
AcDbBlockEnd
  0
BLOCK
  5
C6
330
C5
100
AcDbEntity
  8
0
100
AcDbBlockBegin
  2
SW_NOTE_0
 70
     0
 10
0.0
 20
0.0
 30
0.0
  3
SW_NOTE_0
  1

  0
MTEXT
  5
C8
330
C5
100
AcDbEntity
  8
0
  6
Continuous
 62
     0
370
     0
100
AcDbMText
 10
0.0
 20
3.4106583948
 30
0.0
 40
2.6458333333
 41
0.0
 71
     1
 72
     1
  1
PROPRIETARY AND CONFIDENTIAL
  7
SLDTEXTSTYLE0
 73
     1
 44
1.0
  0
MTEXT
  5
C9
330
C5
100
AcDbEntity
  8
0
  6
Continuous
 62
     0
370
     0
100
AcDbMText
 10
0.0
 20
-0.08198348
 30
0.0
 40
1.8520833333
 41
0.0
 71
     1
 72
     1
  1
THE INFORMATION CONTAINED IN THIS DRAWING IS THE SOLE PROPERTY OF UNICE E-O SERVICES INC. ANY REPRODUCTION IN PART OR AS A WHOLE WITHOUT THE WRITTEN PERMISSION OF UNICE E-O SERVICES INC IS
  7
SLDTEXTSTYLE0
 73
     1
 44
1.0
  0
MTEXT
  5
CA
330
C5
100
AcDbEntity
  8
0
  6
Continuous
 62
     0
370
     0
100
AcDbMText
 10
0.0
 20
-2.5514278946
 30
0.0
 40
1.8520833333
 41
0.0
 71
     1
 72
     1
  1
PROHIBITED.
  7
SLDTEXTSTYLE0
 73
     1
 44
1.0
  0
ENDBLK
  5
C7
330
C5
100
AcDbEntity
  8
0
100
AcDbBlockEnd
  0
BLOCK
  5
FD
330
FC
100
AcDbEntity
  8
0
100
AcDbBlockBegin
  2
SW_NOTE_1
 70
     0
 10
0.0
 20
0.0
 30
0.0
  3
SW_NOTE_1
  1

  0
MTEXT
  5
FF
330
FC
100
AcDbEntity
  8
SLD-0
 62
     0
100
AcDbMText
 10
0.0
 20
2.3874608764
 30
0.0
 40
1.8520833333
 41
0.0
 71
     1
 72
     1
  1
No.5, Andong Rd., Chung Li District,
  7
SLDTEXTSTYLE1
 73
     1
 44
1.0
  0
MTEXT
  5
100
330
FC
100
AcDbEntity
  8
SLD-0
 62
     0
100
AcDbMText
 10
0.0
 20
-0.0819835382
 30
0.0
 40
1.8520833333
 41
0.0
 71
     1
 72
     1
  1
Taoyuan City 32063, Taiwan, R.O.C.
  7
SLDTEXTSTYLE1
 73
     1
 44
1.0
  0
ENDBLK
  5
FE
330
FC
100
AcDbEntity
  8
0
100
AcDbBlockEnd
  0
BLOCK
  5
151
330
150
100
AcDbEntity
  8
0
100
AcDbBlockBegin
  2
_D
 70
     0
 10
0.0
 20
0.0
 30
0.0
  3
_D
  1

  0
SOLID
  5
153
330
150
100
AcDbEntity
  8
SLD-0
100
AcDbTrace
 10
90.3220983225
 20
169.1659367176
 30
0.0
 11
92.3220983225
 21
168.9159367176
 31
0.0
 12
92.3220983225
 22
169.4159367176
 32
0.0
 13
92.3220983225
 23
169.4159367176
 33
0.0
  0
SOLID
  5
154
330
150
100
AcDbEntity
  8
SLD-0
100
AcDbTrace
 10
115.3220983225
 20
169.1659367176
 30
0.0
 11
113.3220983225
 21
169.4159367176
 31
0.0
 12
113.3220983225
 22
168.9159367176
 32
0.0
 13
113.3220983225
 23
168.9159367176
 33
0.0
  0
LINE
  5
155
330
150
100
AcDbEntity
  8
SLD-0
100
AcDbLine
 10
90.3220983225
 20
159.1659367176
 30
0.0
 11
90.3220983225
 21
170.1659367176
 31
0.0
  0
LINE
  5
156
330
150
100
AcDbEntity
  8
SLD-0
100
AcDbLine
 10
115.3220983225
 20
159.1659367176
 30
0.0
 11
115.3220983225
 21
170.1659367176
 31
0.0
  0
LINE
  5
157
330
150
100
AcDbEntity
  8
SLD-0
100
AcDbLine
 10
90.3220983225
 20
169.1659367176
 30
0.0
 11
115.3220983225
 21
169.1659367176
 31
0.0
  0
MTEXT
  5
158
330
150
100
AcDbEntity
  8
SLD-0
100
AcDbMText
 10
98.1568423103
 20
173.1942734626
 30
0.0
 40
3.125
 41
0.0
 71
     1
 72
     1
  1
%%c
  7
SLDTEXTSTYLE0
 73
     1
 44
1.0
  0
MTEXT
  5
159
330
150
100
AcDbEntity
  8
SLD-0
100
AcDbMText
 10
102.713048831
 20
173.2029540293
 30
0.0
 40
3.125
 41
0.0
 71
     1
 72
     1
  1
25
  7
SLDTEXTSTYLE0
 73
     1
 44
1.0
  0
ENDBLK
  5
152
330
150
100
AcDbEntity
  8
0
100
AcDbBlockEnd
  0
BLOCK
  5
15C
330
15B
100
AcDbEntity
  8
0
100
AcDbBlockBegin
  2
_D_1
 70
     0
 10
0.0
 20
0.0
 30
0.0
  3
_D_1
  1

  0
SOLID
  5
15E
330
15B
100
AcDbEntity
  8
SLD-0
100
AcDbTrace
 10
122.3220983225
 20
162.1659367176
 30
0.0
 11
122.0720983225
 21
160.1659367176
 31
0.0
 12
122.5720983225
 22
160.1659367176
 32
0.0
 13
122.5720983225
 23
160.1659367176
 33
0.0
  0
SOLID
  5
15F
330
15B
100
AcDbEntity
  8
SLD-0
100
AcDbTrace
 10
122.3220983225
 20
150.1659367176
 30
0.0
 11
122.5720983225
 21
152.1659367176
 31
0.0
 12
122.0720983225
 22
152.1659367176
 32
0.0
 13
122.0720983225
 23
152.1659367176
 33
0.0
  0
LINE
  5
160
330
15B
100
AcDbEntity
  8
SLD-0
100
AcDbLine
 10
113.8226209149
 20
162.1659367176
 30
0.0
 11
123.3220983225
 21
162.1659367176
 31
0.0
  0
LINE
  5
161
330
15B
100
AcDbEntity
  8
SLD-0
100
AcDbLine
 10
103.8220983225
 20
150.1659367176
 30
0.0
 11
123.3220983225
 21
150.1659367176
 31
0.0
  0
LINE
  5
162
330
15B
100
AcDbEntity
  8
SLD-0
100
AcDbLine
 10
122.3220983225
 20
162.1659367176
 30
0.0
 11
122.3220983225
 21
150.1659367176
 31
0.0
  0
MTEXT
  5
163
330
15B
100
AcDbEntity
  8
SLD-0
100
AcDbMText
 10
118.2937618686
 20
153.7787839657
 30
0.0
 40
3.125
 41
0.0
 71
     1
 72
     1
  1
12
  7
SLDTEXTSTYLE0
 11
-7.044195017643634E-15
 21
1.0
 31
0.0
 73
     1
 44
1.0
  0
ENDBLK
  5
15D
330
15B
100
AcDbEntity
  8
0
100
AcDbBlockEnd
  0
BLOCK
  5
166
330
165
100
AcDbEntity
  8
0
100
AcDbBlockBegin
  2
_D_2
 70
     0
 10
0.0
 20
0.0
 30
0.0
  3
_D_2
  1

  0
SOLID
  5
168
330
165
100
AcDbEntity
  8
SLD-0
100
AcDbTrace
 10
130.1908412603
 20
162.1659367176
 30
0.0
 11
129.9408412603
 21
160.1659367176
 31
0.0
 12
130.4408412603
 22
160.1659367176
 32
0.0
 13
130.4408412603
 23
160.1659367176
 33
0.0
  0
SOLID
  5
169
330
165
100
AcDbEntity
  8
SLD-0
100
AcDbTrace
 10
130.1908412603
 20
142.1659367176
 30
0.0
 11
130.4408412603
 21
144.1659367176
 31
0.0
 12
129.9408412603
 22
144.1659367176
 32
0.0
 13
129.9408412603
 23
144.1659367176
 33
0.0
  0
LINE
  5
16A
330
165
100
AcDbEntity
  8
SLD-0
100
AcDbLine
 10
113.8226209149
 20
162.1659367176
 30
0.0
 11
131.1908412603
 21
162.1659367176
 31
0.0
  0
LINE
  5
16B
330
165
100
AcDbEntity
  8
SLD-0
100
AcDbLine
 10
103.8220983225
 20
142.1659367176
 30
0.0
 11
131.1908412603
 21
142.1659367176
 31
0.0
  0
LINE
  5
16C
330
165
100
AcDbEntity
  8
SLD-0
100
AcDbLine
 10
130.1908412603
 20
162.1659367176
 30
0.0
 11
130.1908412603
 21
142.1659367176
 31
0.0
  0
MTEXT
  5
16D
330
165
100
AcDbEntity
  8
SLD-0
100
AcDbMText
 10
126.1625048063
 20
149.7787839657
 30
0.0
 40
3.125
 41
0.0
 71
     1
 72
     1
  1
20
  7
SLDTEXTSTYLE0
 11
-7.044195017643634E-15
 21
1.0
 31
0.0
 73
     1
 44
1.0
  0
ENDBLK
  5
167
330
165
100
AcDbEntity
  8
0
100
AcDbBlockEnd
  0
BLOCK
  5
170
330
16F
100
AcDbEntity
  8
0
100
AcDbBlockBegin
  2
_D_3
 70
     0
 10
0.0
 20
0.0
 30
0.0
  3
_D_3
  1

  0
SOLID
  5
172
330
16F
100
AcDbEntity
  8
SLD-0
100
AcDbTrace
 10
136.5746850573
 20
162.1659367176
 30
0.0
 11
136.3246850573
 21
160.1659367176
 31
0.0
 12
136.8246850573
 22
160.1659367176
 32
0.0
 13
136.8246850573
 23
160.1659367176
 33
0.0
  0
SOLID
  5
173
330
16F
100
AcDbEntity
  8
SLD-0
100
AcDbTrace
 10
136.5746850573
 20
85.9659367176
 30
0.0
 11
136.8246850573
 21
87.9659367176
 31
0.0
 12
136.3246850573
 22
87.9659367176
 32
0.0
 13
136.3246850573
 23
87.9659367176
 33
0.0
  0
LINE
  5
174
330
16F
100
AcDbEntity
  8
SLD-0
100
AcDbLine
 10
113.8226209149
 20
162.1659367176
 30
0.0
 11
137.5746850573
 21
162.1659367176
 31
0.0
  0
LINE
  5
175
330
16F
100
AcDbEntity
  8
SLD-0
100
AcDbLine
 10
115.3220983225
 20
85.9659367176
 30
0.0
 11
137.5746850573
 21
85.9659367176
 31
0.0
  0
LINE
  5
176
330
16F
100
AcDbEntity
  8
SLD-0
100
AcDbLine
 10
136.5746850573
 20
162.1659367176
 30
0.0
 11
136.5746850573
 21
85.9659367176
 31
0.0
  0
MTEXT
  5
177
330
16F
100
AcDbEntity
  8
SLD-0
100
AcDbMText
 10
132.5463486033
 20
119.8884194599
 30
0.0
 40
3.125
 41
0.0
 71
     1
 72
     1
  1
76.2
  7
SLDTEXTSTYLE0
 11
-7.044195017643634E-15
 21
1.0
 31
0.0
 73
     1
 44
1.0
  0
ENDBLK
  5
171
330
16F
100
AcDbEntity
  8
0
100
AcDbBlockEnd
  0
BLOCK
  5
17B
330
17A
100
AcDbEntity
  8
0
100
AcDbBlockBegin
  2
_D_4
 70
     0
 10
0.0
 20
0.0
 30
0.0
  3
_D_4
  1

  0
SOLID
  5
17D
330
17A
100
AcDbEntity
  8
SLD-0
100
AcDbTrace
 10
79.3450794742
 20
137.7952995501
 30
0.0
 11
78.455982216
 21
139.6041682754
 31
0.0
 12
78.0380790608
 22
139.3296560665
 32
0.0
 13
78.0380790608
 23
139.3296560665
 33
0.0
  0
SOLID
  5
17E
330
17A
100
AcDbEntity
  8
SLD-0
100
AcDbTrace
 10
82.1451040058
 20
133.5326873671
 30
0.0
 11
83.034201264
 21
131.7238186418
 31
0.0
 12
83.4521044192
 22
131.9983308508
 32
0.0
 13
83.4521044192
 23
131.9983308508
 33
0.0
  0
LINE
  5
17F
330
17A
100
AcDbEntity
  8
SLD-0
100
AcDbLine
 10
99.3557696007
 20
150.9399209327
 30
0.0
 11
78.5092731638
 21
137.2462751322
 31
0.0
  0
LINE
  5
180
330
17A
100
AcDbEntity
  8
SLD-0
100
AcDbLine
 10
102.1557941322
 20
146.6773087496
 30
0.0
 11
81.3092976954
 21
132.9836629492
 31
0.0
  0
LINE
  5
181
330
17A
100
AcDbEntity
  8
SLD-0
100
AcDbLine
 10
79.3450794742
 20
137.7952995501
 30
0.0
 11
71.9349645975
 21
149.0760742705
 31
0.0
  0
LINE
  5
182
330
17A
100
AcDbEntity
  8
SLD-0
100
AcDbLine
 10
79.3450794742
 20
137.7952995501
 30
0.0
 11
82.1451040058
 21
133.5326873671
 31
0.0
  0
LINE
  5
183
330
17A
100
AcDbEntity
  8
SLD-0
100
AcDbLine
 10
82.1451040058
 20
133.5326873671
 30
0.0
 11
83.7921772596
 21
131.0252684359
 31
0.0
  0
MTEXT
  5
184
330
17A
100
AcDbEntity
  8
SLD-0
100
AcDbMText
 10
75.3018736261
 20
151.2877293474
 30
0.0
 40
3.125
 41
0.0
 71
     1
 72
     1
  1
5
  7
SLDTEXTSTYLE0
 11
0.5490244179420276
 21
-0.8358063103993758
 31
0.0
 73
     1
 44
1.0
  0
MTEXT
  5
185
330
17A
100
AcDbEntity
  8
SLD-0
100
AcDbMText
 10
77.2558667661
 20
148.3130714934
 30
0.0
 40
3.125
 41
0.0
 71
     1
 72
     1
  1
mm
  7
SLDTEXTSTYLE0
 11
0.5490244179420276
 21
-0.8358063103993758
 31
0.0
 73
     1
 44
1.0
  0
ENDBLK
  5
17C
330
17A
100
AcDbEntity
  8
0
100
AcDbBlockEnd
  0
BLOCK
  5
187
330
186
100
AcDbEntity
  8
0
100
AcDbBlockBegin
  2
SW_CENTERMARKSYMBOL_0
 70
     0
 10
0.0
 20
0.0
 30
0.0
  3
SW_CENTERMARKSYMBOL_0
  1

  0
LINE
  5
189
330
186
100
AcDbEntity
  8
SLD-0
 62
     0
100
AcDbLine
 10
0.0
 20
0.0
 30
0.0
 11
0.0
 21
1.0
 31
0.0
  0
LINE
  5
18A
330
186
100
AcDbEntity
  8
SLD-0
 62
     0
100
AcDbLine
 10
0.0
 20
0.0
 30
0.0
 11
-1.0
 21
0.0
 31
0.0
  0
LINE
  5
18B
330
186
100
AcDbEntity
  8
SLD-0
 62
     0
100
AcDbLine
 10
0.0
 20
0.0
 30
0.0
 11
0.0
 21
-1.0
 31
0.0
  0
LINE
  5
18C
330
186
100
AcDbEntity
  8
SLD-0
 62
     0
100
AcDbLine
 10
0.0
 20
0.0
 30
0.0
 11
1.0
 21
0.0
 31
0.0
  0
LINE
  5
18D
330
186
100
AcDbEntity
  8
SLD-0
 62
     0
100
AcDbLine
 10
0.0
 20
2.0
 30
0.0
 11
0.0
 21
7.5
 31
0.0
  0
LINE
  5
18E
330
186
100
AcDbEntity
  8
SLD-0
 62
     0
100
AcDbLine
 10
-2.0
 20
0.0
 30
0.0
 11
-7.5
 21
0.0
 31
0.0
  0
LINE
  5
18F
330
186
100
AcDbEntity
  8
SLD-0
 62
     0
100
AcDbLine
 10
0.0
 20
-2.0
 30
0.0
 11
0.0
 21
-7.5
 31
0.0
  0
LINE
  5
190
330
186
100
AcDbEntity
  8
SLD-0
 62
     0
100
AcDbLine
 10
2.0
 20
0.0
 30
0.0
 11
7.5
 21
0.0
 31
0.0
  0
ENDBLK
  5
188
330
186
100
AcDbEntity
  8
0
100
AcDbBlockEnd
  0
BLOCK
  5
1E9
330
1E8
100
AcDbEntity
  8
0
100
AcDbBlockBegin
  2
_D_5
 70
     0
 10
0.0
 20
0.0
 30
0.0
  3
_D_5
  1

  0
SOLID
  5
1EB
330
1E8
100
AcDbEntity
  8
SLD-0
100
AcDbTrace
 10
97.2371352246
 20
48.7661862925
 30
0.0
 11
95.5970564023
 21
49.9377841146
 31
0.0
 12
95.359127056
 22
49.4980232407
 32
0.0
 13
95.359127056
 23
49.4980232407
 33
0.0
  0
LINE
  5
1EC
330
1E8
100
AcDbEntity
  8
SLD-0
100
AcDbLine
 10
97.2371352246
 20
48.7661862925
 30
0.0
 11
80.6505818401
 21
57.7402174957
 31
0.0
  0
LINE
  5
1ED
330
1E8
100
AcDbEntity
  8
SLD-0
100
AcDbLine
 10
80.6505818401
 20
57.7402174957
 30
0.0
 11
66.4893403386
 21
57.7402174957
 31
0.0
  0
MTEXT
  5
1EE
330
1E8
100
AcDbEntity
  8
SLD-0
100
AcDbMText
 10
66.4893403386
 20
61.7685542407
 30
0.0
 40
3.125
 41
0.0
 71
     1
 72
     1
  1
%%c
  7
SLDTEXTSTYLE0
 73
     1
 44
1.0
  0
MTEXT
  5
1EF
330
1E8
100
AcDbEntity
  8
SLD-0
100
AcDbMText
 10
71.0455468592
 20
61.7772348073
 30
0.0
 40
3.125
 41
0.0
 71
     1
 72
     1
  1
12.7
  7
SLDTEXTSTYLE0
 73
     1
 44
1.0
  0
ENDBLK
  5
1EA
330
1E8
100
AcDbEntity
  8
0
100
AcDbBlockEnd
  0
BLOCK
  5
1F3
330
1F2
100
AcDbEntity
  8
0
100
AcDbBlockBegin
  2
_D_6
 70
     0
 10
0.0
 20
0.0
 30
0.0
  3
_D_6
  1

  0
SOLID
  5
1F5
330
1F2
100
AcDbEntity
  8
SLD-0
100
AcDbTrace
 10
129.3220983225
 20
70.0944835947
 30
0.0
 11
129.0720983225
 21
68.0944835947
 31
0.0
 12
129.5720983225
 22
68.0944835947
 32
0.0
 13
129.5720983225
 23
68.0944835947
 33
0.0
  0
SOLID
  5
1F6
330
1F2
100
AcDbEntity
  8
SLD-0
100
AcDbTrace
 10
129.3220983225
 20
33.2444835947
 30
0.0
 11
129.5720983225
 21
35.2444835947
 31
0.0
 12
129.0720983225
 22
35.2444835947
 32
0.0
 13
129.0720983225
 23
35.2444835947
 33
0.0
  0
LINE
  5
1F7
330
1F2
100
AcDbEntity
  8
SLD-0
100
AcDbLine
 10
107.3907570392
 20
70.0944835947
 30
0.0
 11
130.3220983225
 21
70.0944835947
 31
0.0
  0
LINE
  5
1F8
330
1F2
100
AcDbEntity
  8
SLD-0
100
AcDbLine
 10
103.8220983225
 20
33.2444835947
 30
0.0
 11
130.3220983225
 21
33.2444835947
 31
0.0
  0
LINE
  5
1F9
330
1F2
100
AcDbEntity
  8
SLD-0
100
AcDbLine
 10
129.3220983225
 20
70.0944835947
 30
0.0
 11
129.3220983225
 21
33.2444835947
 31
0.0
  0
MTEXT
  5
1FA
330
1F2
100
AcDbEntity
  8
SLD-0
100
AcDbMText
 10
125.2937618686
 20
41.6456121579
 30
0.0
 40
3.125
 41
0.0
 71
     1
 72
     1
  1
Max.:
  7
SLDTEXTSTYLE0
 11
-5.267838178243384E-15
 21
1.0
 31
0.0
 73
     1
 44
1.0
  0
MTEXT
  5
1FB
330
1F2
100
AcDbEntity
  8
SLD-0
100
AcDbMText
 10
125.2937618686
 20
53.3383205161
 30
0.0
 40
3.125
 41
0.0
 71
     1
 72
     1
  1
36.9
  7
SLDTEXTSTYLE0
 11
-5.267838178243384E-15
 21
1.0
 31
0.0
 73
     1
 44
1.0
  0
ENDBLK
  5
1F4
330
1F2
100
AcDbEntity
  8
0
100
AcDbBlockEnd
  0
BLOCK
  5
1FF
330
1FE
100
AcDbEntity
  8
0
100
AcDbBlockBegin
  2
_D_7
 70
     0
 10
0.0
 20
0.0
 30
0.0
  3
_D_7
  1

  0
SOLID
  5
201
330
1FE
100
AcDbEntity
  8
SLD-0
100
AcDbTrace
 10
101.0543313696
 20
43.9767166417
 30
0.0
 11
99.4633411119
 21
42.7392797746
 31
0.0
 12
99.8168945025
 22
42.385726384
 32
0.0
 13
99.8168945025
 23
42.385726384
 33
0.0
  0
LINE
  5
202
330
1FE
100
AcDbEntity
  8
SLD-0
100
AcDbLine
 10
101.0543313696
 20
43.9767166417
 30
0.0
 11
83.3191978436
 21
26.2415831157
 31
0.0
  0
LINE
  5
203
330
1FE
100
AcDbEntity
  8
SLD-0
100
AcDbLine
 10
83.3191978436
 20
26.2415831157
 30
0.0
 11
65.6065234791
 21
26.2415831157
 31
0.0
  0
MTEXT
  5
204
330
1FE
100
AcDbEntity
  8
SLD-0
100
AcDbMText
 10
65.6065234791
 20
35.0659262864
 30
0.0
 40
3.125
 41
0.0
 71
     1
 72
     1
  1
1 HOLE,
  7
SLDTEXTSTYLE0
 73
     1
 44
1.0
  0
MTEXT
  5
205
330
1FE
100
AcDbEntity
  8
SLD-0
100
AcDbMText
 10
66.7783984791
 20
30.2699195697
 30
0.0
 40
3.125
 41
0.0
 71
     1
 72
     1
  1
M6
  7
SLDTEXTSTYLE0
 73
     1
 44
1.0
  0
ENDBLK
  5
200
330
1FE
100
AcDbEntity
  8
0
100
AcDbBlockEnd
  0
BLOCK
  5
207
330
206
100
AcDbEntity
  8
0
100
AcDbBlockBegin
  2
SW_CENTERMARKSYMBOL_1
 70
     0
 10
0.0
 20
0.0
 30
0.0
  3
SW_CENTERMARKSYMBOL_1
  1

  0
LINE
  5
209
330
206
100
AcDbEntity
  8
SLD-0
 62
     0
100
AcDbLine
 10
0.0
 20
0.0
 30
0.0
 11
0.0
 21
1.0
 31
0.0
  0
LINE
  5
20A
330
206
100
AcDbEntity
  8
SLD-0
 62
     0
100
AcDbLine
 10
0.0
 20
0.0
 30
0.0
 11
-1.0
 21
0.0
 31
0.0
  0
LINE
  5
20B
330
206
100
AcDbEntity
  8
SLD-0
 62
     0
100
AcDbLine
 10
0.0
 20
0.0
 30
0.0
 11
0.0
 21
-1.0
 31
0.0
  0
LINE
  5
20C
330
206
100
AcDbEntity
  8
SLD-0
 62
     0
100
AcDbLine
 10
0.0
 20
0.0
 30
0.0
 11
1.0
 21
0.0
 31
0.0
  0
LINE
  5
20D
330
206
100
AcDbEntity
  8
SLD-0
 62
     0
100
AcDbLine
 10
0.0
 20
2.0
 30
0.0
 11
0.0
 21
13.5
 31
0.0
  0
LINE
  5
20E
330
206
100
AcDbEntity
  8
SLD-0
 62
     0
100
AcDbLine
 10
-2.0
 20
0.0
 30
0.0
 11
-13.5
 21
0.0
 31
0.0
  0
LINE
  5
20F
330
206
100
AcDbEntity
  8
SLD-0
 62
     0
100
AcDbLine
 10
0.0
 20
-2.0
 30
0.0
 11
0.0
 21
-13.5
 31
0.0
  0
LINE
  5
210
330
206
100
AcDbEntity
  8
SLD-0
 62
     0
100
AcDbLine
 10
2.0
 20
0.0
 30
0.0
 11
13.5
 21
0.0
 31
0.0
  0
ENDBLK
  5
208
330
206
100
AcDbEntity
  8
0
100
AcDbBlockEnd
  0
ENDSEC
  0
SECTION
  2
ENTITIES
  0
HATCH
  5
75
330
1F
100
AcDbEntity
  8
DIM
 62
     7
100
AcDbHatch
 10
0.0
 20
0.0
 30
0.0
210
0.0
220
0.0
230
1.0
  2
SOLID
 70
     1
 71
     0
 91
        1
 92
        0
 93
       10
 72
     2
 10
191.6711661564348
 20
35.83840000879513
 40
3.045751395731247
 50
249.211220914341
 51
308.9221353953365
 73
     1
 72
     1
 10
193.5847011176694
 20
33.46880394264125
 11
194.5495207788865
 21
32.62151715899891
 72
     1
 10
194.5495207788865
 20
32.62151715899891
 11
191.3393808057307
 21
29.5044774462365
 72
     1
 10
191.3393808057307
 20
29.5044774462365
 11
190.3985803502367
 21
30.3144745163465
 72
     1
 10
190.3985803502367
 20
30.3144745163465
 11
191.0296322706519
 21
30.93037490681753
 72
     1
 10
191.0296322706519
 20
30.93037490681753
 11
187.0204299604563
 21
34.41497874709221
 72
     2
 10
188.035371389997
 20
35.56253912285273
 40
1.531992467805808
 50
131.4906380929588
 51
229.7089352075141
 73
     0
 72
     1
 10
187.0446765424815
 20
36.73109577125277
 11
188.3513047973631
 21
37.99268284776029
 72
     1
 10
188.3513047973631
 20
37.99268284776029
 11
189.3664986447656
 21
37.0971509469425
 72
     2
 10
191.3397689481383
 20
35.44975825954771
 40
2.570544369711283
 50
140.1430462780655
 51
253.045252507401
 73
     1
 97
        0
 75
     0
 76
     1
 98
        1
 10
0.0
 20
0.0
  0
HATCH
  5
76
330
1F
100
AcDbEntity
  8
DIM
 62
     1
100
AcDbHatch
 10
0.0
 20
0.0
 30
0.0
210
0.0
220
0.0
230
1.0
  2
SOLID
 70
     1
 71
     0
 91
        1
 92
        0
 93
       10
 72
     2
 10
191.8043315953987
 20
35.08420037009309
 40
3.18163670452787
 50
234.1674444878508
 51
314.4407074583991
 73
     0
 72
     2
 10
192.1219878861232
 20
35.62502217557127
 40
2.57756748834625
 50
317.8184992995781
 51
398.0564711573085
 73
     0
 72
     1
 10
194.1515737291706
 20
34.03611202622962
 11
195.1370226221535
 21
33.17741508634013
 72
     1
 10
195.1370226221535
 20
33.17741508634013
 11
196.3787039369472
 21
34.38184802874735
 72
     2
 10
195.4853116112851
 20
35.60979476056828
 40
1.518552937418266
 50
306.0377529468126
 51
403.4396461533867
 73
     1
 72
     1
 10
196.5879314759574
 20
36.65393673260642
 11
192.4611756176141
 21
40.24311300124037
 72
     1
 10
192.4611756176141
 20
40.24311300124037
 11
193.0854269195414
 21
40.85217143207769
 72
     1
 10
193.0854269195414
 20
40.85217143207769
 11
192.1549204093573
 21
41.68236365192223
 72
     1
 10
192.1549204093573
 20
41.68236365192223
 11
188.9193349609475
 21
38.55544340530813
 72
     1
 10
188.9193349609475
 20
38.55544340530813
 11
189.941742838296
 21
37.66365287818732
 97
        0
 75
     0
 76
     1
 98
        1
 10
0.0
 20
0.0
  0
LINE
  5
77
330
1F
100
AcDbEntity
  8
0
  6
Continuous
 62
     7
370
     0
100
AcDbLine
 10
167.8593775185
 20
17.7745192513
 30
0.0
 11
168.8593775185
 21
17.7745192513
 31
0.0
  0
LINE
  5
78
330
1F
100
AcDbEntity
  8
0
  6
Continuous
 62
     7
370
     0
100
AcDbLine
 10
164.8593775185
 20
17.7745192513
 30
0.0
 11
167.3593775185
 21
17.7745192513
 31
0.0
  0
LINE
  5
79
330
1F
100
AcDbEntity
  8
0
  6
Continuous
 62
     7
370
     0
100
AcDbLine
 10
181.3593775185
 20
15.2745192513
 30
0.0
 11
181.3593775185
 21
20.2745192513
 31
0.0
  0
LINE
  5
7A
330
1F
100
AcDbEntity
  8
0
  6
Continuous
 62
     7
370
     0
100
AcDbLine
 10
174.3593775185
 20
16.2745192513
 30
0.0
 11
181.3593775185
 21
15.2745192513
 31
0.0
  0
LINE
  5
7B
330
1F
100
AcDbEntity
  8
0
  6
Continuous
 62
     7
370
     0
100
AcDbLine
 10
168.3593775185
 20
16.7745192513
 30
0.0
 11
168.3593775185
 21
14.2745192513
 31
0.0
  0
LINE
  5
7C
330
1F
100
AcDbEntity
  8
0
  6
Continuous
 62
     7
370
     0
100
AcDbLine
 10
181.3593775185
 20
20.2745192513
 30
0.0
 11
174.3593775185
 21
19.2745192513
 31
0.0
  0
LINE
  5
7D
330
1F
100
AcDbEntity
  8
0
  6
Continuous
 62
     7
370
     0
100
AcDbLine
 10
173.3593775185
 20
17.7745192513
 30
0.0
 11
182.3593775185
 21
17.7745192513
 31
0.0
  0
LINE
  5
7E
330
1F
100
AcDbEntity
  8
0
  6
Continuous
 62
     7
370
     0
100
AcDbLine
 10
168.3593775185
 20
18.2745192513
 30
0.0
 11
168.3593775185
 21
17.2745192513
 31
0.0
  0
LINE
  5
7F
330
1F
100
AcDbEntity
  8
0
  6
Continuous
 62
     7
370
     0
100
AcDbLine
 10
169.3593775185
 20
17.7745192513
 30
0.0
 11
171.8593775185
 21
17.7745192513
 31
0.0
  0
LINE
  5
80
330
1F
100
AcDbEntity
  8
0
  6
Continuous
 62
     7
370
     0
100
AcDbLine
 10
168.3593775185
 20
21.2745192513
 30
0.0
 11
168.3593775185
 21
18.7745192513
 31
0.0
  0
LINE
  5
81
330
1F
100
AcDbEntity
  8
0
  6
Continuous
 62
     7
370
     0
100
AcDbLine
 10
174.3593775185
 20
19.2745192513
 30
0.0
 11
174.3593775185
 21
16.2745192513
 31
0.0
  0
LINE
  5
82
330
1F
100
AcDbEntity
  8
0
370
     0
100
AcDbLine
 10
194.5495207789
 20
32.621517159
 30
0.0
 11
191.3393808057
 21
29.5044774462
 31
0.0
  0
LINE
  5
83
330
1F
100
AcDbEntity
  8
0
370
     0
100
AcDbLine
 10
191.3393808057
 20
29.5044774462
 30
0.0
 11
190.3985803502
 21
30.3144745163
 31
0.0
  0
LINE
  5
84
330
1F
100
AcDbEntity
  8
0
370
     0
100
AcDbLine
 10
190.3985803502
 20
30.3144745163
 30
0.0
 11
191.0296322707
 21
30.9303749068
 31
0.0
  0
LINE
  5
85
330
1F
100
AcDbEntity
  8
0
370
     0
100
AcDbLine
 10
187.0204299605
 20
34.4149787471
 30
0.0
 11
191.0296322707
 21
30.9303749068
 31
0.0
  0
LINE
  5
86
330
1F
100
AcDbEntity
  8
0
370
     0
100
AcDbLine
 10
188.3513047974
 20
37.9926828478
 30
0.0
 11
187.0446765425
 21
36.7310957713
 31
0.0
  0
LINE
  5
87
330
1F
100
AcDbEntity
  8
0
370
     0
100
AcDbLine
 10
188.3513047974
 20
37.9926828478
 30
0.0
 11
189.3664986448
 21
37.0971509469
 31
0.0
  0
LINE
  5
88
330
1F
100
AcDbEntity
  8
0
370
     0
100
AcDbLine
 10
193.5847011177
 20
33.4688039426
 30
0.0
 11
194.5495207789
 21
32.621517159
 31
0.0
  0
LINE
  5
89
330
1F
100
AcDbEntity
  8
0
 62
     1
370
     0
100
AcDbLine
 10
189.9417428383
 20
37.6636528782
 30
0.0
 11
188.9193349609
 21
38.5554434053
 31
0.0
  0
LINE
  5
8A
330
1F
100
AcDbEntity
  8
0
 62
     1
370
     0
100
AcDbLine
 10
188.9193349609
 20
38.5554434053
 30
0.0
 11
192.1549204094
 21
41.6823636519
 31
0.0
  0
LINE
  5
8B
330
1F
100
AcDbEntity
  8
0
 62
     1
370
     0
100
AcDbLine
 10
192.1549204094
 20
41.6823636519
 30
0.0
 11
193.0854269195
 21
40.8521714321
 31
0.0
  0
LINE
  5
8C
330
1F
100
AcDbEntity
  8
0
 62
     1
370
     0
100
AcDbLine
 10
193.0854269195
 20
40.8521714321
 30
0.0
 11
192.4611756176
 21
40.2431130012
 31
0.0
  0
LINE
  5
8D
330
1F
100
AcDbEntity
  8
0
 62
     1
370
     0
100
AcDbLine
 10
192.4611756176
 20
40.2431130012
 30
0.0
 11
196.587931476
 21
36.6539367326
 31
0.0
  0
LINE
  5
8E
330
1F
100
AcDbEntity
  8
0
 62
     1
370
     0
100
AcDbLine
 10
194.1515737292
 20
34.0361120262
 30
0.0
 11
195.1370226222
 21
33.1774150863
 31
0.0
  0
LINE
  5
8F
330
1F
100
AcDbEntity
  8
0
 62
     1
370
     0
100
AcDbLine
 10
195.1370226222
 20
33.1774150863
 30
0.0
 11
196.3787039369
 21
34.3818480287
 31
0.0
  0
LINE
  5
90
330
1F
100
AcDbEntity
  8
0
  6
Continuous
 62
     7
370
     0
100
AcDbLine
 10
185.6907965209
 20
13.1152464079
 30
0.0
 11
285.6907965209
 21
13.1152464079
 31
0.0
  0
LINE
  5
91
330
1F
100
AcDbEntity
  8
0
  6
Continuous
 62
     7
370
     0
100
AcDbLine
 10
185.6907965209
 20
18.1152464079
 30
0.0
 11
235.6907965209
 21
18.1152464079
 31
0.0
  0
LINE
  5
92
330
1F
100
AcDbEntity
  8
0
  6
Continuous
 62
     7
370
     0
100
AcDbLine
 10
185.6907965209
 20
23.1152464079
 30
0.0
 11
235.6907965209
 21
23.1152464079
 31
0.0
  0
LINE
  5
93
330
1F
100
AcDbEntity
  8
0
  6
Continuous
 62
     7
370
     0
100
AcDbLine
 10
185.6907965209
 20
28.1152464079
 30
0.0
 11
285.6907965209
 21
28.1152464079
 31
0.0
  0
LINE
  5
94
330
1F
100
AcDbEntity
  8
0
  6
Continuous
 62
     7
370
     0
100
AcDbLine
 10
235.6907965209
 20
33.1152464079
 30
0.0
 11
285.6907965209
 21
33.1152464079
 31
0.0
  0
LINE
  5
95
330
1F
100
AcDbEntity
  8
0
  6
Continuous
 62
     7
370
    15
100
AcDbLine
 10
235.6907965209
 20
18.1152464079
 30
0.0
 11
285.6907965209
 21
18.1152464079
 31
0.0
  0
LINE
  5
96
330
1F
100
AcDbEntity
  8
0
  6
Continuous
 62
     7
370
     0
100
AcDbLine
 10
185.6907965209
 20
43.1152464079
 30
0.0
 11
285.6907965209
 21
43.1152464079
 31
0.0
  0
LINE
  5
97
330
1F
100
AcDbEntity
  8
0
  6
Continuous
 62
     7
370
     0
100
AcDbLine
 10
251.237217675
 20
8.1152464079
 30
0.0
 11
251.237217675
 21
18.1152464079
 31
0.0
  0
LINE
  5
98
330
1F
100
AcDbEntity
  8
0
  6
Continuous
 62
     7
370
     0
100
AcDbLine
 10
235.6907965209
 20
8.1152464079
 30
0.0
 11
235.6907965209
 21
43.1152464079
 31
0.0
  0
LINE
  5
99
330
1F
100
AcDbEntity
  8
0
  6
Continuous
 62
     7
370
     0
100
AcDbLine
 10
251.237217675
 20
28.1152464079
 30
0.0
 11
251.237217675
 21
33.1152464079
 31
0.0
  0
LINE
  5
9A
330
1F
100
AcDbEntity
  8
0
  6
Continuous
 62
     7
370
     0
100
AcDbLine
 10
214.4164086353
 20
8.1152464079
 30
0.0
 11
214.4164086353
 21
28.1152464079
 31
0.0
  0
LINE
  5
9B
330
1F
100
AcDbEntity
  8
0
  6
Continuous
 62
     7
370
     0
100
AcDbLine
 10
199.7785887506
 20
8.1152464079
 30
0.0
 11
199.7785887506
 21
28.1152464079
 31
0.0
  0
LINE
  5
9C
330
1F
100
AcDbEntity
  8
0
  6
Continuous
 62
     7
370
     0
100
AcDbLine
 10
185.6907965209
 20
8.1152464079
 30
0.0
 11
185.6907965209
 21
43.1152464079
 31
0.0
  0
LINE
  5
9D
330
1F
100
AcDbEntity
  8
0
  6
Continuous
 62
     7
370
    15
100
AcDbLine
 10
285.6907965209
 20
104.7436369915
 30
0.0
 11
279.6907965209
 21
104.7436369915
 31
0.0
  0
LINE
  5
9E
330
1F
100
AcDbEntity
  8
0
  6
Continuous
 62
     7
370
    15
100
AcDbLine
 10
147.1907965209
 20
201.3720275751
 30
0.0
 11
147.1907965209
 21
195.3720275751
 31
0.0
  0
LINE
  5
9F
330
1F
100
AcDbEntity
  8
0
  6
Continuous
 62
     7
370
    15
100
AcDbLine
 10
43.3207965209
 20
201.3720275751
 30
0.0
 11
43.3207965209
 21
202.8720275751
 31
0.0
  0
LINE
  5
A0
330
1F
100
AcDbEntity
  8
0
  6
Continuous
 62
     7
370
    15
100
AcDbLine
 10
77.9507965209
 20
201.3720275751
 30
0.0
 11
77.9507965209
 21
202.8720275751
 31
0.0
  0
LINE
  5
A1
330
1F
100
AcDbEntity
  8
0
  6
Continuous
 62
     7
370
    15
100
AcDbLine
 10
112.5807965209
 20
201.3720275751
 30
0.0
 11
112.5807965209
 21
202.8720275751
 31
0.0
  0
LINE
  5
A2
330
1F
100
AcDbEntity
  8
0
  6
Continuous
 62
     7
370
    15
100
AcDbLine
 10
147.2107965209
 20
201.3720275751
 30
0.0
 11
147.2107965209
 21
202.8720275751
 31
0.0
  0
LINE
  5
A3
330
1F
100
AcDbEntity
  8
0
  6
Continuous
 62
     7
370
    15
100
AcDbLine
 10
181.8407965209
 20
201.3720275751
 30
0.0
 11
181.8407965209
 21
202.8720275751
 31
0.0
  0
LINE
  5
A4
330
1F
100
AcDbEntity
  8
0
  6
Continuous
 62
     7
370
    15
100
AcDbLine
 10
216.4707965209
 20
201.3720275751
 30
0.0
 11
216.4707965209
 21
202.8720275751
 31
0.0
  0
LINE
  5
A5
330
1F
100
AcDbEntity
  8
0
  6
Continuous
 62
     7
370
    15
100
AcDbLine
 10
251.1007965209
 20
201.3720275751
 30
0.0
 11
251.1007965209
 21
202.8720275751
 31
0.0
  0
LINE
  5
A6
330
1F
100
AcDbEntity
  8
0
  6
Continuous
 62
     7
370
    15
100
AcDbLine
 10
43.3157965209
 20
8.1152464079
 30
0.0
 11
43.3157965209
 21
6.6152464079
 31
0.0
  0
LINE
  5
A7
330
1F
100
AcDbEntity
  8
0
  6
Continuous
 62
     7
370
    15
100
AcDbLine
 10
77.9407965209
 20
8.1152464079
 30
0.0
 11
77.9407965209
 21
6.6152464079
 31
0.0
  0
LINE
  5
A8
330
1F
100
AcDbEntity
  8
0
  6
Continuous
 62
     7
370
    15
100
AcDbLine
 10
112.5657965209
 20
8.1152464079
 30
0.0
 11
112.5657965209
 21
6.6152464079
 31
0.0
  0
LINE
  5
A9
330
1F
100
AcDbEntity
  8
0
  6
Continuous
 62
     7
370
    15
100
AcDbLine
 10
147.1907965209
 20
8.1152464079
 30
0.0
 11
147.1907965209
 21
6.6152464079
 31
0.0
  0
LINE
  5
AA
330
1F
100
AcDbEntity
  8
0
  6
Continuous
 62
     7
370
    15
100
AcDbLine
 10
181.8157965209
 20
8.1152464079
 30
0.0
 11
181.8157965209
 21
6.6152464079
 31
0.0
  0
LINE
  5
AB
330
1F
100
AcDbEntity
  8
0
  6
Continuous
 62
     7
370
    15
100
AcDbLine
 10
216.4407965209
 20
8.1152464079
 30
0.0
 11
216.4407965209
 21
6.6152464079
 31
0.0
  0
LINE
  5
AC
330
1F
100
AcDbEntity
  8
0
  6
Continuous
 62
     7
370
     0
100
AcDbLine
 10
285.6907965209
 20
201.3720275751
 30
0.0
 11
8.6907965209
 21
201.3720275751
 31
0.0
  0
LINE
  5
AD
330
1F
100
AcDbEntity
  8
0
  6
Continuous
 62
     7
370
     0
100
AcDbLine
 10
285.6907965209
 20
8.1152464079
 30
0.0
 11
285.6907965209
 21
201.3720275751
 31
0.0
  0
LINE
  5
AE
330
1F
100
AcDbEntity
  8
0
  6
Continuous
 62
     7
370
     0
100
AcDbLine
 10
8.6907965209
 20
201.3720275751
 30
0.0
 11
8.6907965209
 21
8.1152464079
 31
0.0
  0
LINE
  5
AF
330
1F
100
AcDbEntity
  8
0
  6
Continuous
 62
     7
370
     0
100
AcDbLine
 10
8.6907965209
 20
8.1152464079
 30
0.0
 11
285.6907965209
 21
8.1152464079
 31
0.0
  0
LINE
  5
B0
330
1F
100
AcDbEntity
  8
0
  6
Continuous
 62
     7
370
    15
100
AcDbLine
 10
251.0657965209
 20
8.1152464079
 30
0.0
 11
251.0657965209
 21
6.6152464079
 31
0.0
  0
LINE
  5
B1
330
1F
100
AcDbEntity
  8
0
  6
Continuous
 62
     7
370
    15
100
AcDbLine
 10
8.6907965209
 20
40.3252464079
 30
0.0
 11
7.1907965209
 21
40.3252464079
 31
0.0
  0
LINE
  5
B2
330
1F
100
AcDbEntity
  8
0
  6
Continuous
 62
     7
370
    15
100
AcDbLine
 10
8.6907965209
 20
72.5352464079
 30
0.0
 11
7.1907965209
 21
72.5352464079
 31
0.0
  0
LINE
  5
B3
330
1F
100
AcDbEntity
  8
0
  6
Continuous
 62
     7
370
    15
100
AcDbLine
 10
8.6907965209
 20
104.7452464079
 30
0.0
 11
7.1907965209
 21
104.7452464079
 31
0.0
  0
LINE
  5
B4
330
1F
100
AcDbEntity
  8
0
  6
Continuous
 62
     7
370
    15
100
AcDbLine
 10
8.6907965209
 20
136.9552464079
 30
0.0
 11
7.1907965209
 21
136.9552464079
 31
0.0
  0
LINE
  5
B5
330
1F
100
AcDbEntity
  8
0
  6
Continuous
 62
     7
370
    15
100
AcDbLine
 10
8.6907965209
 20
169.1652464079
 30
0.0
 11
7.1907965209
 21
169.1652464079
 31
0.0
  0
LINE
  5
B6
330
1F
100
AcDbEntity
  8
0
  6
Continuous
 62
     7
370
    15
100
AcDbLine
 10
285.6907965209
 20
40.3252464079
 30
0.0
 11
287.1907965209
 21
40.3252464079
 31
0.0
  0
LINE
  5
B7
330
1F
100
AcDbEntity
  8
0
  6
Continuous
 62
     7
370
    15
100
AcDbLine
 10
285.6907965209
 20
72.5352464079
 30
0.0
 11
287.1907965209
 21
72.5352464079
 31
0.0
  0
LINE
  5
B8
330
1F
100
AcDbEntity
  8
0
  6
Continuous
 62
     7
370
    15
100
AcDbLine
 10
285.6907965209
 20
104.7452464079
 30
0.0
 11
287.1907965209
 21
104.7452464079
 31
0.0
  0
LINE
  5
B9
330
1F
100
AcDbEntity
  8
0
  6
Continuous
 62
     7
370
    15
100
AcDbLine
 10
285.6907965209
 20
136.9552464079
 30
0.0
 11
287.1907965209
 21
136.9552464079
 31
0.0
  0
LINE
  5
BA
330
1F
100
AcDbEntity
  8
0
  6
Continuous
 62
     7
370
    15
100
AcDbLine
 10
285.6907965209
 20
169.1652464079
 30
0.0
 11
287.1907965209
 21
169.1652464079
 31
0.0
  0
CIRCLE
  5
BB
330
1F
100
AcDbEntity
  8
0
  6
Continuous
 62
     7
370
     0
100
AcDbCircle
 10
168.3593775185
 20
17.7745192513
 30
0.0
 40
1.5
  0
CIRCLE
  5
BC
330
1F
100
AcDbEntity
  8
0
  6
Continuous
 62
     7
370
     0
100
AcDbCircle
 10
168.3593775185
 20
17.7745192513
 30
0.0
 40
2.5
  0
ARC
  5
BD
330
1F
100
AcDbEntity
  8
0
370
     0
100
AcDbCircle
 10
188.03537139
 20
35.5625391229
 30
0.0
 40
1.531992467805807
100
AcDbArc
 50
130.2910647925
 51
228.509361907
  0
ARC
  5
BE
330
1F
100
AcDbEntity
  8
0
370
     0
100
AcDbCircle
 10
191.3397689481
 20
35.4497582595
 30
0.0
 40
2.570544369711281
100
AcDbArc
 50
140.1430462781
 51
253.0452525074
  0
ARC
  5
BF
330
1F
100
AcDbEntity
  8
0
370
     0
100
AcDbCircle
 10
191.6711661564
 20
35.8384000088
 30
0.0
 40
3.045751395731249
100
AcDbArc
 50
249.2112209143
 51
308.9221353953
  0
ARC
  5
C0
330
1F
100
AcDbEntity
  8
0
 62
     1
370
     0
100
AcDbCircle
 10
195.4853116113
 20
35.6097947606
 30
0.0
 40
1.51855293741827
100
AcDbArc
 50
306.0377529468
 51
43.4396461534
  0
ARC
  5
C1
330
1F
100
AcDbEntity
  8
0
 62
     1
370
     0
100
AcDbCircle
 10
191.8043315954
 20
35.0842003701
 30
0.0
 40
3.181636704527866
100
AcDbArc
 50
45.5592925416
 51
125.8325555121
  0
ARC
  5
C2
330
1F
100
AcDbEntity
  8
0
 62
     1
370
     0
100
AcDbCircle
 10
192.1219878861
 20
35.6250221756
 30
0.0
 40
2.577567488346245
100
AcDbArc
 50
321.9435288427
 51
42.1815007004
  0
MTEXT
  5
C4
330
1F
100
AcDbEntity
  8
0
  6
Continuous
 62
     7
370
     0
100
AcDbMText
 10
165.5426850804
 20
13.2208440369
 30
0.0
 40
2.6458333333
 41
0.0
 71
     1
 72
     1
  1
UNIT:m/m
  7
SLDTEXTSTYLE0
 73
     1
 44
1.0
  0
INSERT
  5
CB
330
1F
100
AcDbEntity
  8
0
  6
Continuous
 62
     7
370
     0
100
AcDbBlockReference
  2
SW_NOTE_0
 10
12.2315076053
 20
193.8904304251
 30
0.0
  0
MTEXT
  5
CD
330
1F
100
AcDbEntity
  8
0
  6
Continuous
 62
     7
370
     0
100
AcDbMText
 10
198.7251893935
 20
40.4406774139
 30
0.0
 40
2.38125
 41
0.0
 71
     1
 72
     1
  1
Unice E-O Services Inc.
  7
SLDTEXTSTYLE1
 73
     1
 44
1.0
  0
MTEXT
  5
CE
330
1F
100
AcDbEntity
  8
0
  6
Continuous
 62
     7
370
     0
100
AcDbMText
 10
217.5590538149
 20
21.5867148511
 30
0.0
 40
1.8520833333
 41
0.0
 71
     1
 72
     1
  1
2010/12/30
  7
SLDTEXTSTYLE0
 73
     1
 44
1.0
  0
MTEXT
  5
CF
330
1F
100
AcDbEntity
  8
0
  6
Continuous
 62
     7
370
     0
100
AcDbMText
 10
252.6088982507
 20
16.87117774
 30
0.0
 40
2.5
 41
0.0
 71
     1
 72
     1
  1
1:1
  7
SLDTEXTSTYLE0
 73
     1
 44
1.0
  0
MTEXT
  5
D0
330
1F
100
AcDbEntity
  8
0
  6
Continuous
 62
     7
370
     0
100
AcDbMText
 10
252.3075599985
 20
32.1519195438
 30
0.0
 40
2.5
 41
0.0
 71
     1
 72
     1
  1
03MPH-3M
  7
SLDTEXTSTYLE0
 73
     1
 44
1.0
  0
MTEXT
  5
D1
330
1F
100
AcDbEntity
  8
0
  6
Continuous
 62
     7
370
     0
100
AcDbMText
 10
252.3075599985
 20
38.1082117879
 30
0.0
 40
2.5
 41
0.0
 71
     1
 72
     1
  1
03MPH-3M
  7
SLDTEXTSTYLE0
 73
     1
 44
1.0
  0
MTEXT
  5
D2
330
1F
100
AcDbEntity
  8
0
  6
Continuous
 62
     7
370
     0
100
AcDbMText
 10
236.3921866786
 20
16.5064795728
 30
0.0
 40
2.1166666667
 41
0.0
 71
     1
 72
     1
  1
SCALE:
  7
SLDTEXTSTYLE0
 73
     1
 44
1.0
  0
MTEXT
  5
D3
330
1F
100
AcDbEntity
  8
0
  6
Continuous
 62
     7
370
     0
100
AcDbMText
 10
186.3336086789
 20
21.5867148511
 30
0.0
 40
1.8520833333
 41
0.0
 71
     1
 72
     1
  1
DRAWN
  7
SLDTEXTSTYLE0
 73
     1
 44
1.0
  0
MTEXT
  5
D4
330
1F
100
AcDbEntity
  8
0
  6
Continuous
 62
     7
370
     0
100
AcDbMText
 10
203.2228367937
 20
26.683208308
 30
0.0
 40
1.8520833333
 41
0.0
 71
     1
 72
     1
  1
NAME
  7
SLDTEXTSTYLE0
 73
     1
 44
1.0
  0
MTEXT
  5
D5
330
1F
100
AcDbEntity
  8
0
  6
Continuous
 62
     7
370
     0
100
AcDbMText
 10
220.8710155758
 20
26.683208308
 30
0.0
 40
1.8520833333
 41
0.0
 71
     1
 72
     1
  1
DATE
  7
SLDTEXTSTYLE0
 73
     1
 44
1.0
  0
MTEXT
  5
D6
330
1F
100
AcDbEntity
  8
0
  6
Continuous
 62
     7
370
     0
100
AcDbMText
 10
236.2756316645
 20
31.7872213766
 30
0.0
 40
2.1166666667
 41
0.0
 71
     1
 72
     1
  1
DWG. NO.
  7
SLDTEXTSTYLE0
 73
     1
 44
1.0
  0
MTEXT
  5
D7
330
1F
100
AcDbEntity
  8
0
  6
Continuous
 62
     7
370
     0
100
AcDbMText
 10
236.3629907088
 20
41.8840658243
 30
0.0
 40
2.1166666667
 41
0.0
 71
     1
 72
     1
  1
TITLE:
  7
SLDTEXTSTYLE0
 73
     1
 44
1.0
  0
MTEXT
  5
D8
330
1F
100
AcDbEntity
  8
0
  6
Continuous
 62
     7
370
     0
100
AcDbMText
 10
203.0314209802
 20
16.2403789724
 30
0.0
 40
1.8520833333
 41
0.0
 71
     1
 72
     1
  1
Johnny
  7
SLDTEXTSTYLE0
 73
     1
 44
1.0
  0
MTEXT
  5
D9
330
1F
100
AcDbEntity
  8
0
  6
Continuous
 62
     7
370
     0
100
AcDbMText
 10
217.5590538149
 20
16.2403789724
 30
0.0
 40
1.8520833333
 41
0.0
 71
     1
 72
     1
  1
2010/12/30
  7
SLDTEXTSTYLE0
 73
     1
 44
1.0
  0
MTEXT
  5
DA
330
1F
100
AcDbEntity
  8
0
  6
Continuous
 62
     7
370
     0
100
AcDbMText
 10
186.3336086789
 20
16.2403789724
 30
0.0
 40
1.8520833333
 41
0.0
 71
     1
 72
     1
  1
ENG APPR.
  7
SLDTEXTSTYLE0
 73
     1
 44
1.0
  0
MTEXT
  5
DB
330
1F
100
AcDbEntity
  8
0
  6
Continuous
 62
     7
370
     0
100
AcDbMText
 10
236.3921866786
 20
11.6853389288
 30
0.0
 40
2.1166666667
 41
0.0
 71
     1
 72
     1
  1
REV
  7
SLDTEXTSTYLE0
 73
     1
 44
1.0
  0
MTEXT
  5
DC
330
1F
100
AcDbEntity
  8
0
  6
Continuous
 62
     7
370
     0
100
AcDbMText
 10
236.3629907088
 20
26.9493089085
 30
0.0
 40
2.1166666667
 41
0.0
 71
     1
 72
     1
  1
MATERIAL:
  7
SLDTEXTSTYLE0
 73
     1
 44
1.0
  0
MTEXT
  5
DD
330
1F
100
AcDbEntity
  8
0
  6
Continuous
 62
     7
370
     0
100
AcDbMText
 10
252.6088982507
 20
22.2175136187
 30
0.0
 40
2.5
 41
0.0
 71
     1
 72
     1
  1
N/A
  7
SLDTEXTSTYLE0
 73
     1
 44
1.0
  0
MTEXT
  5
DE
330
1F
100
AcDbEntity
  8
0
  6
Continuous
 62
     7
370
     0
100
AcDbMText
 10
26.6029931533
 20
204.453351657
 30
0.0
 40
2.1166666667
 41
0.0
 71
     1
 72
     1
  1
1
  7
SLDTEXTSTYLE0
 73
     1
 44
1.0
  0
MTEXT
  5
DF
330
1F
100
AcDbEntity
  8
0
  6
Continuous
 62
     7
370
     0
100
AcDbMText
 10
60.7170995724
 20
204.453351657
 30
0.0
 40
2.1166666667
 41
0.0
 71
     1
 72
     1
  1
2
  7
SLDTEXTSTYLE0
 73
     1
 44
1.0
  0
MTEXT
  5
E0
330
1F
100
AcDbEntity
  8
0
  6
Continuous
 62
     7
370
     0
100
AcDbMText
 10
94.9009943906
 20
204.453351657
 30
0.0
 40
2.1166666667
 41
0.0
 71
     1
 72
     1
  1
3
  7
SLDTEXTSTYLE0
 73
     1
 44
1.0
  0
MTEXT
  5
E1
330
1F
100
AcDbEntity
  8
0
  6
Continuous
 62
     7
370
     0
100
AcDbMText
 10
129.2533362851
 20
204.2992584364
 30
0.0
 40
2.1166666667
 41
0.0
 71
     1
 72
     1
  1
4
  7
SLDTEXTSTYLE0
 73
     1
 44
1.0
  0
MTEXT
  5
E2
330
1F
100
AcDbEntity
  8
0
  6
Continuous
 62
     7
370
     0
100
AcDbMText
 10
163.702323464
 20
204.453351657
 30
0.0
 40
2.1166666667
 41
0.0
 71
     1
 72
     1
  1
5
  7
SLDTEXTSTYLE0
 73
     1
 44
1.0
  0
MTEXT
  5
E3
330
1F
100
AcDbEntity
  8
0
  6
Continuous
 62
     7
370
     0
100
AcDbMText
 10
198.6382170415
 20
204.453351657
 30
0.0
 40
2.1166666667
 41
0.0
 71
     1
 72
     1
  1
6
  7
SLDTEXTSTYLE0
 73
     1
 44
1.0
  0
MTEXT
  5
E4
330
1F
100
AcDbEntity
  8
0
  6
Continuous
 62
     7
370
     0
100
AcDbMText
 10
234.3630657407
 20
204.453351657
 30
0.0
 40
2.1166666667
 41
0.0
 71
     1
 72
     1
  1
7
  7
SLDTEXTSTYLE0
 73
     1
 44
1.0
  0
MTEXT
  5
E5
330
1F
100
AcDbEntity
  8
0
  6
Continuous
 62
     7
370
     0
100
AcDbMText
 10
266.2787820494
 20
204.453351657
 30
0.0
 40
2.1166666667
 41
0.0
 71
     1
 72
     1
  1
8
  7
SLDTEXTSTYLE0
 73
     1
 44
1.0
  0
MTEXT
  5
E6
330
1F
100
AcDbEntity
  8
0
  6
Continuous
 62
     7
370
     0
100
AcDbMText
 10
5.3568236555
 20
185.8113022879
 30
0.0
 40
2.1166666667
 41
0.0
 71
     1
 72
     1
  1
A
  7
SLDTEXTSTYLE0
 73
     1
 44
1.0
  0
MTEXT
  5
E7
330
1F
100
AcDbEntity
  8
0
  6
Continuous
 62
     7
370
     0
100
AcDbMText
 10
5.5910431831
 20
154.2993048238
 30
0.0
 40
2.1166666667
 41
0.0
 71
     1
 72
     1
  1
B
  7
SLDTEXTSTYLE0
 73
     1
 44
1.0
  0
MTEXT
  5
E8
330
1F
100
AcDbEntity
  8
0
  6
Continuous
 62
     7
370
     0
100
AcDbMText
 10
5.5910431831
 20
121.274351423
 30
0.0
 40
2.1166666667
 41
0.0
 71
     1
 72
     1
  1
C
  7
SLDTEXTSTYLE0
 73
     1
 44
1.0
  0
MTEXT
  5
E9
330
1F
100
AcDbEntity
  8
0
  6
Continuous
 62
     7
370
     0
100
AcDbMText
 10
5.5910431831
 20
88.7453220221
 30
0.0
 40
2.1166666667
 41
0.0
 71
     1
 72
     1
  1
D
  7
SLDTEXTSTYLE0
 73
     1
 44
1.0
  0
MTEXT
  5
EA
330
1F
100
AcDbEntity
  8
0
  6
Continuous
 62
     7
370
     0
100
AcDbMText
 10
5.5910431831
 20
57.5558849197
 30
0.0
 40
2.1166666667
 41
0.0
 71
     1
 72
     1
  1
E
  7
SLDTEXTSTYLE0
 73
     1
 44
1.0
  0
MTEXT
  5
EB
330
1F
100
AcDbEntity
  8
0
  6
Continuous
 62
     7
370
     0
100
AcDbMText
 10
5.5910431831
 20
25.5694212252
 30
0.0
 40
2.1166666667
 41
0.0
 71
     1
 72
     1
  1
F
  7
SLDTEXTSTYLE0
 73
     1
 44
1.0
  0
MTEXT
  5
EC
330
1F
100
AcDbEntity
  8
0
  6
Continuous
 62
     7
370
     0
100
AcDbMText
 10
266.1858616964
 20
6.6236223963
 30
0.0
 40
2.1166666667
 41
0.0
 71
     1
 72
     1
  1
8
  7
SLDTEXTSTYLE0
 73
     1
 44
1.0
  0
MTEXT
  5
ED
330
1F
100
AcDbEntity
  8
0
  6
Continuous
 62
     7
370
     0
100
AcDbMText
 10
234.2701453876
 20
6.6236223963
 30
0.0
 40
2.1166666667
 41
0.0
 71
     1
 72
     1
  1
7
  7
SLDTEXTSTYLE0
 73
     1
 44
1.0
  0
MTEXT
  5
EE
330
1F
100
AcDbEntity
  8
0
  6
Continuous
 62
     7
370
     0
100
AcDbMText
 10
198.5452966885
 20
6.6236223963
 30
0.0
 40
2.1166666667
 41
0.0
 71
     1
 72
     1
  1
6
  7
SLDTEXTSTYLE0
 73
     1
 44
1.0
  0
MTEXT
  5
EF
330
1F
100
AcDbEntity
  8
0
  6
Continuous
 62
     7
370
     0
100
AcDbMText
 10
163.6094031109
 20
6.6236223963
 30
0.0
 40
2.1166666667
 41
0.0
 71
     1
 72
     1
  1
5
  7
SLDTEXTSTYLE0
 73
     1
 44
1.0
  0
MTEXT
  5
F0
330
1F
100
AcDbEntity
  8
0
  6
Continuous
 62
     7
370
     0
100
AcDbMText
 10
129.1604159321
 20
6.4695291758
 30
0.0
 40
2.1166666667
 41
0.0
 71
     1
 72
     1
  1
4
  7
SLDTEXTSTYLE0
 73
     1
 44
1.0
  0
MTEXT
  5
F1
330
1F
100
AcDbEntity
  8
0
  6
Continuous
 62
     7
370
     0
100
AcDbMText
 10
94.8080740376
 20
6.6236223963
 30
0.0
 40
2.1166666667
 41
0.0
 71
     1
 72
     1
  1
3
  7
SLDTEXTSTYLE0
 73
     1
 44
1.0
  0
MTEXT
  5
F2
330
1F
100
AcDbEntity
  8
0
  6
Continuous
 62
     7
370
     0
100
AcDbMText
 10
60.6241792194
 20
6.6236223963
 30
0.0
 40
2.1166666667
 41
0.0
 71
     1
 72
     1
  1
2
  7
SLDTEXTSTYLE0
 73
     1
 44
1.0
  0
MTEXT
  5
F3
330
1F
100
AcDbEntity
  8
0
  6
Continuous
 62
     7
370
     0
100
AcDbMText
 10
26.5100728003
 20
6.6236223963
 30
0.0
 40
2.1166666667
 41
0.0
 71
     1
 72
     1
  1
1
  7
SLDTEXTSTYLE0
 73
     1
 44
1.0
  0
MTEXT
  5
F4
330
1F
100
AcDbEntity
  8
0
  6
Continuous
 62
     7
370
     0
100
AcDbMText
 10
287.1023846145
 20
186.6424909092
 30
0.0
 40
2.1166666667
 41
0.0
 71
     1
 72
     1
  1
A
  7
SLDTEXTSTYLE0
 73
     1
 44
1.0
  0
MTEXT
  5
F5
330
1F
100
AcDbEntity
  8
0
  6
Continuous
 62
     7
370
     0
100
AcDbMText
 10
287.3366041421
 20
155.1304934451
 30
0.0
 40
2.1166666667
 41
0.0
 71
     1
 72
     1
  1
B
  7
SLDTEXTSTYLE0
 73
     1
 44
1.0
  0
MTEXT
  5
F6
330
1F
100
AcDbEntity
  8
0
  6
Continuous
 62
     7
370
     0
100
AcDbMText
 10
287.3366041421
 20
122.1055400442
 30
0.0
 40
2.1166666667
 41
0.0
 71
     1
 72
     1
  1
C
  7
SLDTEXTSTYLE0
 73
     1
 44
1.0
  0
MTEXT
  5
F7
330
1F
100
AcDbEntity
  8
0
  6
Continuous
 62
     7
370
     0
100
AcDbMText
 10
287.3366041421
 20
89.5765106433
 30
0.0
 40
2.1166666667
 41
0.0
 71
     1
 72
     1
  1
D
  7
SLDTEXTSTYLE0
 73
     1
 44
1.0
  0
MTEXT
  5
F8
330
1F
100
AcDbEntity
  8
0
  6
Continuous
 62
     7
370
     0
100
AcDbMText
 10
287.3366041421
 20
58.3870735409
 30
0.0
 40
2.1166666667
 41
0.0
 71
     1
 72
     1
  1
E
  7
SLDTEXTSTYLE0
 73
     1
 44
1.0
  0
MTEXT
  5
F9
330
1F
100
AcDbEntity
  8
0
  6
Continuous
 62
     7
370
     0
100
AcDbMText
 10
287.3366041421
 20
26.4006098464
 30
0.0
 40
2.1166666667
 41
0.0
 71
     1
 72
     1
  1
F
  7
SLDTEXTSTYLE0
 73
     1
 44
1.0
  0
MTEXT
  5
FA
330
1F
100
AcDbEntity
  8
0
  6
Continuous
 62
     7
370
     0
100
AcDbMText
 10
203.1553128802
 20
21.5867148511
 30
0.0
 40
1.8520833333
 41
0.0
 71
     1
 72
     1
  1
Jimmy
  7
SLDTEXTSTYLE0
 73
     1
 44
1.0
  0
MTEXT
  5
FB
330
1F
100
AcDbEntity
  8
0
  6
Continuous
 62
     7
370
     0
100
AcDbMText
 10
252.8482239645
 20
12.2307046219
 30
0.0
 40
3.125
 41
0.0
 71
     1
 72
     1
  1
0
  7
SLDTEXTSTYLE0
 73
     1
 44
1.0
  0
INSERT
  5
101
330
1F
100
AcDbEntity
  8
SLD-0
 62
     7
100
AcDbBlockReference
  2
SW_NOTE_1
 10
198.7251893935
 20
33.1332848141
 30
0.0
  0
SPLINE
  5
102
330
1F
100
AcDbEntity
  8
0
  6
Continuous
 62
     7
370
    30
100
AcDbSpline
210
0.0
220
0.0
230
1.0
 70
     8
 71
     3
 72
    12
 73
     8
 74
     0
 42
0.000000001
 43
0.00000001
 40
0.0
 40
0.0
 40
0.0
 40
0.0
 40
0.2723521063772592
 40
0.5234835259445573
 40
0.7408201669232028
 40
0.920665792440645
 40
0.9999999999999999
 40
0.9999999999999999
 40
0.9999999999999999
 40
0.9999999999999999
 10
102.9700490333742
 20
142.8501227939945
 30
0.0
 10
103.043850732677
 20
142.826556138841
 30
0.0
 10
103.1857037709574
 20
142.7812590566975
 30
0.0
 10
103.3485197625808
 20
142.6417769695737
 30
0.0
 10
103.4481724689879
 20
142.4887982351282
 30
0.0
 10
103.50351966564
 20
142.3622522660706
 30
0.0
 10
103.5057547268271
 20
142.2889080951482
 30
0.0
 10
103.5064388726807
 20
142.266457653653
 30
0.0
  0
LINE
  5
103
330
1F
100
AcDbEntity
  8
0
  6
Continuous
 62
     7
370
    30
100
AcDbLine
 10
115.3220983225
 20
86.9659367176
 30
0.0
 11
115.3220983225
 21
158.1659367176
 31
0.0
  0
LINE
  5
104
330
1F
100
AcDbEntity
  8
0
  6
Continuous
 62
     7
370
    30
100
AcDbLine
 10
90.3220983225
 20
158.1659367176
 30
0.0
 11
90.3220983225
 21
86.9659367176
 31
0.0
  0
LINE
  5
105
330
1F
100
AcDbEntity
  8
0
  6
Continuous
 62
     7
370
    30
100
AcDbLine
 10
90.3220983225
 20
86.9659367176
 30
0.0
 11
91.3220983225
 21
85.9659367176
 31
0.0
  0
LINE
  5
106
330
1F
100
AcDbEntity
  8
0
  6
Continuous
 62
     7
370
    30
100
AcDbLine
 10
114.3220983225
 20
85.9659367176
 30
0.0
 11
115.3220983225
 21
86.9659367176
 31
0.0
  0
LINE
  5
107
330
1F
100
AcDbEntity
  8
0
  6
Continuous
 62
     7
370
    30
100
AcDbLine
 10
115.3220983225
 20
158.1659367176
 30
0.0
 11
112.8226209149
 21
162.1659367176
 31
0.0
  0
LINE
  5
108
330
1F
100
AcDbEntity
  8
0
  6
Continuous
 62
     7
370
    30
100
AcDbLine
 10
92.8215757302
 20
162.1659367176
 30
0.0
 11
90.3220983225
 21
158.1659367176
 31
0.0
  0
LINE
  5
109
330
1F
100
AcDbEntity
  8
0
  6
Continuous
 62
     7
370
    30
100
AcDbLine
 10
103.4258307781
 20
142.7868289161
 30
0.0
 11
102.5862561334
 21
142.9992304604
 31
0.0
  0
LINE
  5
10A
330
1F
100
AcDbEntity
  8
0
  6
Continuous
 62
     7
370
    30
100
AcDbLine
 10
102.5862561334
 20
142.9992304604
 30
0.0
 11
101.9825236779
 21
142.3783382619
 31
0.0
  0
LINE
  5
10B
330
1F
100
AcDbEntity
  8
0
  6
Continuous
 62
     7
370
    30
100
AcDbLine
 10
102.218365867
 20
141.5450445191
 30
0.0
 11
103.0579405117
 21
141.3326429748
 31
0.0
  0
LINE
  5
10C
330
1F
100
AcDbEntity
  8
0
  6
Continuous
 62
     7
370
    30
100
AcDbLine
 10
103.6616729672
 20
141.9535351732
 30
0.0
 11
103.4258307781
 21
142.7868289161
 31
0.0
  0
ARC
  5
10D
330
1F
100
AcDbEntity
  8
0
  6
Continuous
 62
     7
370
    30
100
AcDbCircle
 10
102.8220983225
 20
142.1659367176
 30
0.0
 40
1.20000000000002
100
AcDbArc
 50
75.8027900686
 51
126.0918355067
  0
ARC
  5
10E
330
1F
100
AcDbEntity
  8
0
  6
Continuous
 62
     7
370
    30
100
AcDbCircle
 10
102.8220983225
 20
142.1659367176
 30
0.0
 40
1.20000000000002
100
AcDbArc
 50
151.4030034501
 51
75.8027900686
  0
LINE
  5
10F
330
1F
100
AcDbEntity
  8
0
  6
Continuous
 62
     7
370
    30
100
AcDbLine
 10
103.0579405117
 20
141.3326429748
 30
0.0
 11
103.6616729672
 21
141.9535351732
 31
0.0
  0
LINE
  5
110
330
1F
100
AcDbEntity
  8
0
  6
Continuous
 62
     7
370
    30
100
AcDbLine
 10
101.9825236779
 20
142.3783382619
 30
0.0
 11
102.218365867
 21
141.5450445191
 31
0.0
  0
LINE
  5
111
330
1F
100
AcDbEntity
  8
0
  6
Continuous
 62
     7
370
    30
100
AcDbLine
 10
102.9807131072
 20
142.8994379393
 30
0.0
 11
102.9700490334
 21
142.850122794
 31
0.0
  0
SPLINE
  5
112
330
1F
100
AcDbEntity
  8
0
  6
Continuous
 62
     7
370
    30
100
AcDbSpline
210
0.0
220
0.0
230
1.0
 70
     8
 71
     3
 72
    14
 73
    10
 74
     0
 42
0.000000001
 43
0.00000001
 40
0.0
 40
0.0
 40
0.0
 40
0.0
 40
0.142341239051125
 40
0.2849091528316332
 40
0.4234373629298631
 40
0.5557037428017958
 40
0.695475784012448
 40
0.9061173950800444
 40
1.0
 40
1.0
 40
1.0
 40
1.0
 10
107.3540059087417
 20
156.1418729312709
 30
0.0
 10
107.3460554457453
 20
156.1352736864244
 30
0.0
 10
107.3301418588468
 20
156.1220646876053
 30
0.0
 10
107.1982940154149
 20
156.0271922444942
 30
0.0
 10
106.9882601859105
 20
155.9177855464957
 30
0.0
 10
106.7122675313844
 20
155.8320720559762
 30
0.0
 10
106.352993068262
 20
155.7971953361806
 30
0.0
 10
106.0154096507769
 20
155.8499211864509
 30
0.0
 10
105.8069326449785
 20
155.9438872708024
 30
0.0
 10
105.7426606976499
 20
155.972856332407
 30
0.0
  0
ARC
  5
113
330
1F
100
AcDbEntity
  8
0
  6
Continuous
 62
     7
370
    30
100
AcDbCircle
 10
102.8220983225
 20
150.1659367176
 30
0.0
 40
7.499999999999961
100
AcDbArc
 50
43.7754235217
 51
52.8247958353
  0
SPLINE
  5
114
330
1F
100
AcDbEntity
  8
0
  6
Continuous
 62
     7
370
    30
100
AcDbSpline
210
0.0
220
0.0
230
1.0
 70
     8
 71
     3
 72
    14
 73
    10
 74
     0
 42
0.000000001
 43
0.00000001
 40
0.0
 40
0.0
 40
0.0
 40
0.0
 40
0.1199942964795399
 40
0.3439751153607423
 40
0.4966918375022115
 40
0.6503401356975052
 40
0.7848887185504153
 40
0.9193528818725775
 40
1.0
 40
1.0
 40
1.0
 40
1.0
 10
108.2548462155582
 20
153.734584967511
 30
0.0
 10
108.2094619257893
 20
153.812489888501
 30
0.0
 10
108.0793635230583
 20
154.0358117877151
 30
0.0
 10
107.996139891622
 20
154.4104376541034
 30
0.0
 10
108.0164219873509
 20
154.8033233336703
 30
0.0
 10
108.0965566452288
 20
155.0836341885895
 30
0.0
 10
108.1822900755622
 20
155.2639466940687
 30
0.0
 10
108.2309018764662
 20
155.3441876079412
 30
0.0
 10
108.2357198834773
 20
155.3518248379321
 30
0.0
 10
108.2375261968326
 20
155.3546881028669
 30
0.0
  0
ARC
  5
115
330
1F
100
AcDbEntity
  8
0
  6
Continuous
 62
     7
370
    30
100
AcDbCircle
 10
102.8220983225
 20
150.1659367176
 30
0.0
 40
6.499999999999973
100
AcDbArc
 50
33.3000544855
 51
63.3001096785
  0
SPLINE
  5
116
330
1F
100
AcDbEntity
  8
0
  6
Continuous
 62
     7
370
    30
100
AcDbSpline
210
0.0
220
0.0
230
1.0
 70
     8
 71
     3
 72
    14
 73
    10
 74
     0
 42
0.000000001
 43
0.00000001
 40
0.0
 40
0.0
 40
0.0
 40
0.0
 40
0.1423412390511262
 40
0.2849091528316275
 40
0.4234373629298589
 40
0.5557037428018009
 40
0.6954757840124438
 40
0.9061173950800413
 40
1.0
 40
1.0
 40
1.0
 40
1.0
 10
99.91273954318702
 20
157.0786519216766
 30
0.0
 10
99.91447942537168
 20
157.0684669963267
 30
0.0
 10
99.91796196045827
 20
157.0480809263975
 30
0.0
 10
99.93419998459571
 20
156.8864611229959
 30
0.0
 10
99.92393204965428
 20
156.6498631419917
 30
0.0
 10
99.86016578262826
 20
156.3679897466543
 30
0.0
 10
99.71073267641067
 20
156.0394105747616
 30
0.0
 10
99.49627904189798
 20
155.7734176844582
 30
0.0
 10
99.31066352285619
 20
155.6398543435077
 30
0.0
 10
99.25343960591842
 20
155.5986777351727
 30
0.0
  0
ARC
  5
117
330
1F
100
AcDbEntity
  8
0
  6
Continuous
 62
     7
370
    30
100
AcDbCircle
 10
102.8220983225
 20
150.1659367176
 30
0.0
 40
7.499999999999983
100
AcDbArc
 50
103.7754235217
 51
112.8247958353
  0
SPLINE
  5
118
330
1F
100
AcDbEntity
  8
0
  6
Continuous
 62
     7
370
    30
100
AcDbSpline
210
0.0
220
0.0
230
1.0
 70
     8
 71
     3
 72
    14
 73
    10
 74
     0
 42
0.000000001
 43
0.00000001
 40
0.0
 40
0.0
 40
0.0
 40
0.0
 40
0.1199894190523683
 40
0.3439714793461333
 40
0.4966890479192535
 40
0.6503381977094658
 40
0.7848875262972291
 40
0.9193524348863307
 40
1.0
 40
1.0
 40
1.0
 40
1.0
 10
102.4479197253071
 20
156.6551578093081
 30
0.0
 10
102.3577641244687
 20
156.6548068791955
 30
0.0
 10
102.0993167077162
 20
156.6538008742416
 30
0.0
 10
101.7332734719119
 20
156.7690385990673
 30
0.0
 10
101.4031655377301
 20
156.9830462806736
 30
0.0
 10
101.2004765459797
 20
157.1926003503764
 30
0.0
 10
101.087188050633
 20
157.3570039334412
 30
0.0
 10
101.0420032812829
 20
157.4392234444897
 30
0.0
 10
101.0377982495988
 20
157.447214575987
 30
0.0
 10
101.036221746104
 20
157.4502105217203
 30
0.0
  0
ARC
  5
119
330
1F
100
AcDbEntity
  8
0
  6
Continuous
 62
     7
370
    30
100
AcDbCircle
 10
102.8220983225
 20
150.1659367176
 30
0.0
 40
6.49999999999999
100
AcDbArc
 50
93.3001096785
 51
123.3001096785
  0
ARC
  5
11A
330
1F
100
AcDbEntity
  8
0
  6
Continuous
 62
     7
370
    30
100
AcDbCircle
 10
102.8220983225
 20
150.1659367176
 30
0.0
 40
6.500000000000031
100
AcDbArc
 50
153.3001096785
 51
183.3001096785
  0
SPLINE
  5
11B
330
1F
100
AcDbEntity
  8
0
  6
Continuous
 62
     7
370
    30
100
AcDbSpline
210
0.0
220
0.0
230
1.0
 70
     8
 71
     3
 72
    14
 73
    10
 74
     0
 42
0.000000001
 43
0.00000001
 40
0.0
 40
0.0
 40
0.0
 40
0.0
 40
0.1016668178018484
 40
0.2451503566277833
 40
0.3857179482619046
 40
0.5189947498256838
 40
0.6545248811720736
 40
0.8551934607833577
 40
1.0
 40
1.0
 40
1.0
 40
1.0
 10
95.38083195698688
 20
151.1027157079824
 30
0.0
 10
95.38581924158008
 20
151.1008063809726
 30
0.0
 10
95.39784513776789
 20
151.0962023989902
 30
0.0
 10
95.50960407129013
 20
151.049291058836
 30
0.0
 10
95.69847549129277
 20
150.9407242877041
 30
0.0
 10
95.91207480203649
 20
150.7633410196443
 30
0.0
 10
96.13014717390095
 20
150.4927397342459
 30
0.0
 10
96.28817246717192
 20
150.1581011442514
 30
0.0
 10
96.31967351004522
 20
149.8999589159218
 30
0.0
 10
96.33287723081007
 20
149.7917581203424
 30
0.0
  0
ARC
  5
11C
330
1F
100
AcDbEntity
  8
0
  6
Continuous
 62
     7
370
    30
100
AcDbCircle
 10
102.8220983225
 20
150.1659367176
 30
0.0
 40
7.500000000000012
100
AcDbArc
 50
163.7754235217
 51
172.8247958353
  0
SPLINE
  5
11D
330
1F
100
AcDbEntity
  8
0
  6
Continuous
 62
     7
370
    30
100
AcDbSpline
210
0.0
220
0.0
230
1.0
 70
     8
 71
     3
 72
    14
 73
    10
 74
     0
 42
0.000000001
 43
0.00000001
 40
0.0
 40
0.0
 40
0.0
 40
0.0
 40
0.1199894190523753
 40
0.34397147934614
 40
0.4966890479192434
 40
0.6503381977094579
 40
0.7848875262972285
 40
0.9193524348863285
 40
1.0
 40
1.0
 40
1.0
 40
1.0
 10
97.0151787077111
 20
153.086499092685
 30
0.0
 10
96.97040482168437
 20
153.0082465870092
 30
0.0
 10
96.84205233915448
 20
152.7839215560821
 30
0.0
 10
96.559231924079
 20
152.5245376774049
 30
0.0
 10
96.20884186811199
 20
152.3456596612159
 30
0.0
 10
95.92601822440785
 20
152.2749028801439
 30
0.0
 10
95.72699629732716
 20
152.2589939567496
 30
0.0
 10
95.63319972739741
 20
152.2609725541525
 30
0.0
 10
95.62417668867369
 20
152.261326455639
 30
0.0
 10
95.62079387181294
 20
152.2614591364301
 30
0.0
  0
ARC
  5
11E
330
1F
100
AcDbEntity
  8
0
  6
Continuous
 62
     7
370
    30
100
AcDbCircle
 10
102.8220983225
 20
150.1659367176
 30
0.0
 40
7.499999999999969
100
AcDbArc
 50
73.7754235217
 51
82.8247958353
  0
ARC
  5
11F
330
1F
100
AcDbEntity
  8
0
  6
Continuous
 62
     7
370
    30
100
AcDbCircle
 10
102.8220983225
 20
150.1659367176
 30
0.0
 40
6.49999999999999
100
AcDbArc
 50
63.3001096785
 51
93.3001096785
  0
SPLINE
  5
120
330
1F
100
AcDbEntity
  8
0
  6
Continuous
 62
     7
370
    30
100
AcDbSpline
210
0.0
220
0.0
230
1.0
 70
     8
 71
     3
 72
    14
 73
    10
 74
     0
 42
0.000000001
 43
0.00000001
 40
0.0
 40
0.0
 40
0.0
 40
0.0
 40
0.1199894190523821
 40
0.3439714793461354
 40
0.4966890479192636
 40
0.6503381977094663
 40
0.7848875262972271
 40
0.9193524348863313
 40
1.0
 40
1.0
 40
1.0
 40
1.0
 10
105.7426606976499
 20
155.972856332407
 30
0.0
 10
105.664408191974
 20
156.0176302184338
 30
0.0
 10
105.440083161047
 20
156.1459827009637
 30
0.0
 10
105.1806992823697
 20
156.4288031160392
 30
0.0
 10
105.0018212661808
 20
156.7791931720062
 30
0.0
 10
104.9310644851087
 20
157.0620168157103
 30
0.0
 10
104.9151555617144
 20
157.261038742791
 30
0.0
 10
104.9171341591173
 20
157.3548353127208
 30
0.0
 10
104.9174880606038
 20
157.3638583514445
 30
0.0
 10
104.9176207413949
 20
157.3672411683052
 30
0.0
  0
SPLINE
  5
121
330
1F
100
AcDbEntity
  8
0
  6
Continuous
 62
     7
370
    30
100
AcDbSpline
210
0.0
220
0.0
230
1.0
 70
     8
 71
     3
 72
    14
 73
    10
 74
     0
 42
0.000000001
 43
0.00000001
 40
0.0
 40
0.0
 40
0.0
 40
0.0
 40
0.1423412390511273
 40
0.2849091528316327
 40
0.4234373629298619
 40
0.5557037428017801
 40
0.6954757840124267
 40
0.906117395080026
 40
1.0
 40
1.0
 40
1.0
 40
1.0
 10
103.7588773129471
 20
157.6072030831313
 30
0.0
 10
103.7552916324437
 20
157.5975127379503
 30
0.0
 10
103.7481145613338
 20
157.5781166159651
 30
0.0
 10
103.6813672010432
 20
157.4300307483959
 30
0.0
 10
103.5541759180374
 20
157.2302648538328
 30
0.0
 10
103.3580160132197
 20
157.0180384663328
 30
0.0
 10
103.0643135611225
 20
156.808197109428
 30
0.0
 10
102.7455948205489
 20
156.6850673264556
 30
0.0
 10
102.5180653952468
 20
156.662205839699
 30
0.0
 10
102.4479197253071
 20
156.6551578093081
 30
0.0
  0
ARC
  5
122
330
1F
100
AcDbEntity
  8
0
  6
Continuous
 62
     7
370
    30
100
AcDbCircle
 10
102.8220983225
 20
150.1659367176
 30
0.0
 40
7.49999999999999
100
AcDbArc
 50
133.7754235217
 51
142.8247958353
  0
ARC
  5
123
330
1F
100
AcDbEntity
  8
0
  6
Continuous
 62
     7
370
    30
100
AcDbCircle
 10
102.8220983225
 20
150.1659367176
 30
0.0
 40
6.500000000000022
100
AcDbArc
 50
123.3001096785
 51
153.3001096785
  0
SPLINE
  5
124
330
1F
100
AcDbEntity
  8
0
  6
Continuous
 62
     7
370
    30
100
AcDbSpline
210
0.0
220
0.0
230
1.0
 70
     8
 71
     3
 72
    14
 73
    10
 74
     0
 42
0.000000001
 43
0.00000001
 40
0.0
 40
0.0
 40
0.0
 40
0.0
 40
0.1199894190523843
 40
0.3439714793461335
 40
0.4966890479192563
 40
0.6503381977094752
 40
0.7848875262972305
 40
0.9193524348863301
 40
1.0
 40
1.0
 40
1.0
 40
1.0
 10
99.25343960591842
 20
155.5986777351727
 30
0.0
 10
99.1755380303552
 20
155.553296020361
 30
0.0
 10
98.95221900438197
 20
155.4232010861384
 30
0.0
 10
98.57759740087913
 20
155.3399782654096
 30
0.0
 10
98.18471170308372
 20
155.3602603871948
 30
0.0
 10
97.90440085230905
 20
155.4403950391485
 30
0.0
 10
97.72408834584992
 20
155.5261284708825
 30
0.0
 10
97.6438474322044
 20
155.5747402714622
 30
0.0
 10
97.63621020219354
 20
155.5795582785018
 30
0.0
 10
97.63334693725133
 20
155.5813645918678
 30
0.0
  0
SPLINE
  5
125
330
1F
100
AcDbEntity
  8
0
  6
Continuous
 62
     7
370
    30
100
AcDbSpline
210
0.0
220
0.0
230
1.0
 70
     8
 71
     3
 72
    14
 73
    10
 74
     0
 42
0.000000001
 43
0.00000001
 40
0.0
 40
0.0
 40
0.0
 40
0.0
 40
0.1423412390511237
 40
0.2849091528316299
 40
0.4234373629298559
 40
0.5557037428017847
 40
0.6954757840124409
 40
0.9061173950800364
 40
1.0
 40
1.0
 40
1.0
 40
1.0
 10
96.8461621088473
 20
154.6978443037768
 30
0.0
 10
96.85276135369377
 20
154.6898938407805
 30
0.0
 10
96.86597035251287
 20
154.6739802538819
 30
0.0
 10
96.96084279562405
 20
154.5421324104501
 30
0.0
 10
97.07024949362243
 20
154.3320985809457
 30
0.0
 10
97.15596298414208
 20
154.0561059264195
 30
0.0
 10
97.19083970393753
 20
153.6968314632972
 30
0.0
 10
97.13811385366735
 20
153.359248045812
 30
0.0
 10
97.04414776931576
 20
153.1507710400137
 30
0.0
 10
97.0151787077111
 20
153.086499092685
 30
0.0
  0
ARC
  5
126
330
1F
100
AcDbEntity
  8
0
  6
Continuous
 62
     7
370
    30
100
AcDbCircle
 10
102.8220983225
 20
150.1659367176
 30
0.0
 40
7.499999999999969
100
AcDbArc
 50
13.7754235217
 51
22.8247958353
  0
SPLINE
  5
127
330
1F
100
AcDbEntity
  8
0
  6
Continuous
 62
     7
370
    30
100
AcDbSpline
210
0.0
220
0.0
230
1.0
 70
     8
 71
     3
 72
    15
 73
    11
 74
     0
 42
0.000000001
 43
0.00000001
 40
0.0
 40
0.0
 40
0.0
 40
0.0
 40
0.0601645437835097
 40
0.2838352609754708
 40
0.4497783369447335
 40
0.5879906984497222
 40
0.7265200109919943
 40
0.8589545689839791
 40
0.9974639184678973
 40
1.0
 40
1.0
 40
1.0
 40
1.0
 10
109.311319992185
 20
150.5401052929097
 30
0.0
 10
109.3099855563195
 20
150.5852169012609
 30
0.0
 10
109.3036901549367
 20
150.7980376811451
 30
0.0
 10
109.3754008962754
 20
151.1364785127267
 30
0.0
 10
109.5646319405722
 20
151.4864671595139
 30
0.0
 10
109.7691498774279
 20
151.7185422636214
 30
0.0
 10
109.9496568456722
 20
151.8606883899672
 30
0.0
 10
110.0751537583085
 20
151.9358971257752
 30
0.0
 10
110.1061886898407
 20
151.9517140658297
 30
0.0
 10
110.1063688866384
 20
151.9518115413458
 30
0.0
 10
110.1063721266851
 20
151.951813294014
 30
0.0
  0
ARC
  5
128
330
1F
100
AcDbEntity
  8
0
  6
Continuous
 62
     7
370
    30
100
AcDbCircle
 10
102.8220983225
 20
150.1659367176
 30
0.0
 40
6.499999999999985
100
AcDbArc
 50
3.3000654349
 51
33.3000544855
  0
SPLINE
  5
129
330
1F
100
AcDbEntity
  8
0
  6
Continuous
 62
     7
370
    30
100
AcDbSpline
210
0.0
220
0.0
230
1.0
 70
     8
 71
     3
 72
    14
 73
    10
 74
     0
 42
0.000000001
 43
0.00000001
 40
0.0
 40
0.0
 40
0.0
 40
0.0
 40
0.1423420290606997
 40
0.2849107341088558
 40
0.4234397130539265
 40
0.5557068270188589
 40
0.6954796439797531
 40
0.9061224241315223
 40
0.9999999999999999
 40
0.9999999999999999
 40
0.9999999999999999
 40
0.9999999999999999
 10
109.7348135266413
 20
153.0752954969311
 30
0.0
 10
109.7246286012608
 20
153.0735556147264
 30
0.0
 10
109.7042425312705
 20
153.0700730795995
 30
0.0
 10
109.5426227283246
 20
153.0538350557618
 30
0.0
 10
109.3060247456599
 20
153.0641029896111
 30
0.0
 10
109.0241513563306
 20
153.1278692605887
 30
0.0
 10
108.6955721569626
 20
153.2773023487352
 30
0.0
 10
108.4295827133696
 20
153.4917533858636
 30
0.0
 10
108.2960207235495
 20
153.6773646899827
 30
0.0
 10
108.2548462155582
 20
153.734584967511
 30
0.0
  0
ARC
  5
12A
330
1F
100
AcDbEntity
  8
0
  6
Continuous
 62
     7
370
    30
100
AcDbCircle
 10
102.8220983225
 20
150.1659367176
 30
0.0
 40
7.500000000000073
100
AcDbArc
 50
223.7754235217
 51
232.8247958353
  0
ARC
  5
12B
330
1F
100
AcDbEntity
  8
0
  6
Continuous
 62
     7
370
    30
100
AcDbCircle
 10
102.8220983225
 20
150.1659367176
 30
0.0
 40
6.500000000000079
100
AcDbArc
 50
213.3001096785
 51
243.3001096785
  0
SPLINE
  5
12C
330
1F
100
AcDbEntity
  8
0
  6
Continuous
 62
     7
370
    30
100
AcDbSpline
210
0.0
220
0.0
230
1.0
 70
     8
 71
     3
 72
    14
 73
    10
 74
     0
 42
0.000000001
 43
0.00000001
 40
0.0
 40
0.0
 40
0.0
 40
0.0
 40
0.1016668178018489
 40
0.2451503566277811
 40
0.385717948261904
 40
0.5189947498256825
 40
0.6545248811720765
 40
0.85519346078336
 40
1.0
 40
1.0
 40
1.0
 40
1.0
 10
98.29019073634126
 20
144.1900005038825
 30
0.0
 10
98.29433790433248
 20
144.1933649555312
 30
0.0
 10
98.30433801778172
 20
144.2014776961419
 30
0.0
 10
98.40084389684189
 20
144.274808101595
 30
0.0
 10
98.58930118865034
 20
144.3840921638002
 30
0.0
 10
98.84971926036829
 20
144.4803829591052
 30
0.0
 10
99.19310303375232
 20
144.5339385303041
 30
0.0
 10
99.5619212004096
 20
144.50347315372
 30
0.0
 10
99.8012294493692
 20
144.4016827429292
 30
0.0
 10
99.90153594743309
 20
144.3590171027463
 30
0.0
  0
SPLINE
  5
12D
330
1F
100
AcDbEntity
  8
0
  6
Continuous
 62
     7
370
    30
100
AcDbSpline
210
0.0
220
0.0
230
1.0
 70
     8
 71
     3
 72
    15
 73
    11
 74
     0
 42
0.000000001
 43
0.00000001
 40
0.0
 40
0.0
 40
0.0
 40
0.0
 40
0.0601603551658437
 40
0.2838320692036697
 40
0.4497758847407989
 40
0.5879888622246124
 40
0.7265187921582574
 40
0.8589539403787829
 40
0.9974639071650983
 40
1.0
 40
1.0
 40
1.0
 40
1.0
 10
97.3893573049454
 20
146.5972780009537
 30
0.0
 10
97.41306682531054
 20
146.5588801559388
 30
0.0
 10
97.52492657425161
 20
146.3777219866847
 30
0.0
 10
97.63204274314965
 20
146.0487715985588
 30
0.0
 10
97.64315813861145
 20
145.6510569959728
 30
0.0
 10
97.58207796907415
 20
145.3478150960458
 30
0.0
 10
97.49682741037611
 20
145.1344594543993
 30
0.0
 10
97.42574826431806
 20
145.006578322564
 30
0.0
 10
97.40677969512457
 20
144.9773629848369
 30
0.0
 10
97.40667237787879
 20
144.9771884701651
 30
0.0
 10
97.40667044825028
 20
144.9771853322866
 30
0.0
  0
SPLINE
  5
12E
330
1F
100
AcDbEntity
  8
0
  6
Continuous
 62
     7
370
    30
100
AcDbSpline
210
0.0
220
0.0
230
1.0
 70
     8
 71
     3
 72
    14
 73
    10
 74
     0
 42
0.000000001
 43
0.00000001
 40
0.0
 40
0.0
 40
0.0
 40
0.0
 40
0.1016668178019506
 40
0.2451503566278811
 40
0.3857179482619978
 40
0.5189947498257728
 40
0.6545248811721661
 40
0.8551934607834835
 40
1.0
 40
1.0
 40
1.0
 40
1.0
 10
101.8853193321358
 20
142.724670352022
 30
0.0
 10
101.8872286591455
 20
142.7296576366152
 30
0.0
 10
101.891832641128
 20
142.7416835328031
 30
0.0
 10
101.9387439812822
 20
142.8534424663254
 30
0.0
 10
102.0473107524141
 20
143.0423138863281
 30
0.0
 10
102.224694020474
 20
143.2559131970718
 30
0.0
 10
102.4952953058725
 20
143.4739855689363
 30
0.0
 10
102.8299338958669
 20
143.6320108622072
 30
0.0
 10
103.0880761241965
 20
143.6635119050805
 30
0.0
 10
103.1962769197758
 20
143.6767156258453
 30
0.0
  0
ARC
  5
12F
330
1F
100
AcDbEntity
  8
0
  6
Continuous
 62
     7
370
    30
100
AcDbCircle
 10
102.8220983225
 20
150.1659367176
 30
0.0
 40
7.500000000000102
100
AcDbArc
 50
253.7754235217
 51
262.8247958353
  0
ARC
  5
130
330
1F
100
AcDbEntity
  8
0
  6
Continuous
 62
     7
370
    30
100
AcDbCircle
 10
102.8220983225
 20
150.1659367176
 30
0.0
 40
6.500000000000069
100
AcDbArc
 50
243.3001096785
 51
273.3001096785
  0
SPLINE
  5
131
330
1F
100
AcDbEntity
  8
0
  6
Continuous
 62
     7
370
    30
100
AcDbSpline
210
0.0
220
0.0
230
1.0
 70
     8
 71
     3
 72
    15
 73
    11
 74
     0
 42
0.000000001
 43
0.00000001
 40
0.0
 40
0.0
 40
0.0
 40
0.0
 40
0.0601603551658469
 40
0.283832069203673
 40
0.4497758847408063
 40
0.5879888622246099
 40
0.7265187921582572
 40
0.8589539403787817
 40
0.9974639071650984
 40
1.0
 40
1.0
 40
1.0
 40
1.0
 10
99.90153594743309
 20
144.3590171027463
 30
0.0
 10
99.94126791688824
 20
144.3376183536955
 30
0.0
 10
100.1287203857592
 20
144.2366606514889
 30
0.0
 10
100.3859609032439
 20
144.0053393432361
 30
0.0
 10
100.59444441938
 20
143.6664660916715
 30
0.0
 10
100.6931683908567
 20
143.3733108180742
 30
0.0
 10
100.7260170621606
 20
143.1459141330186
 30
0.0
 10
100.7284012819128
 20
142.9996262511554
 30
0.0
 10
100.726581687981
 20
142.964840741907
 30
0.0
 10
100.726576005856
 20
142.9646359491449
 30
0.0
 10
100.726575903688
 20
142.9646322668481
 30
0.0
  0
SPLINE
  5
132
330
1F
100
AcDbEntity
  8
0
  6
Continuous
 62
     7
370
    30
100
AcDbSpline
210
0.0
220
0.0
230
1.0
 70
     8
 71
     3
 72
    14
 73
    10
 74
     0
 42
0.000000001
 43
0.00000001
 40
0.0
 40
0.0
 40
0.0
 40
0.0
 40
0.1016668178018498
 40
0.2451503566277774
 40
0.3857179482619148
 40
0.5189947498256745
 40
0.654524881172092
 40
0.8551934607833798
 40
1.0
 40
1.0
 40
1.0
 40
1.0
 10
108.7980345362357
 20
145.6340291313765
 30
0.0
 10
108.7946700845869
 20
145.6381762993677
 30
0.0
 10
108.7865573439762
 20
145.648176412817
 30
0.0
 10
108.7132269385231
 20
145.7446822918771
 30
0.0
 10
108.603942876318
 20
145.9331395836857
 30
0.0
 10
108.5076520810129
 20
146.1935576554035
 30
0.0
 10
108.4540965098141
 20
146.5369414287876
 30
0.0
 10
108.4845618863981
 20
146.9057595954448
 30
0.0
 10
108.5863522971889
 20
147.1450678444044
 30
0.0
 10
108.6290179373718
 20
147.2453743424683
 30
0.0
  0
ARC
  5
133
330
1F
100
AcDbEntity
  8
0
  6
Continuous
 62
     7
370
    30
100
AcDbCircle
 10
102.8220983225
 20
150.1659367176
 30
0.0
 40
7.500000000000056
100
AcDbArc
 50
313.7754235217
 51
322.8247958353
  0
ARC
  5
134
330
1F
100
AcDbEntity
  8
0
  6
Continuous
 62
     7
370
    30
100
AcDbCircle
 10
102.8220983225
 20
150.1659367176
 30
0.0
 40
6.500000000000075
100
AcDbArc
 50
303.3001096785
 51
333.3001096785
  0
SPLINE
  5
135
330
1F
100
AcDbEntity
  8
0
  6
Continuous
 62
     7
370
    30
100
AcDbSpline
210
0.0
220
0.0
230
1.0
 70
     8
 71
     3
 72
    15
 73
    11
 74
     0
 42
0.000000001
 43
0.00000001
 40
0.0
 40
0.0
 40
0.0
 40
0.0
 40
0.0601603551658455
 40
0.2838320692036751
 40
0.4497758847408015
 40
0.5879888622246066
 40
0.7265187921582553
 40
0.8589539403787829
 40
0.9974639071650983
 40
1.0
 40
1.0
 40
1.0
 40
1.0
 10
106.3907570391645
 20
144.7331956999806
 30
0.0
 10
106.4291548841794
 20
144.7569052203457
 30
0.0
 10
106.6103130534334
 20
144.8687649692868
 30
0.0
 10
106.9392634415593
 20
144.9758811381849
 30
0.0
 10
107.3369780441453
 20
144.9869965336466
 30
0.0
 10
107.6402199440724
 20
144.9259163641094
 30
0.0
 10
107.8535755857188
 20
144.8406658054113
 30
0.0
 10
107.9814567175546
 20
144.7695866593535
 30
0.0
 10
108.0106720552804
 20
144.7506180901593
 30
0.0
 10
108.010846569953
 20
144.750510772914
 30
0.0
 10
108.0108497078316
 20
144.7505088432855
 30
0.0
  0
ARC
  5
136
330
1F
100
AcDbEntity
  8
0
  6
Continuous
 62
     7
370
    30
100
AcDbCircle
 10
102.8220983225
 20
150.1659367176
 30
0.0
 40
7.499999999999995
100
AcDbArc
 50
343.7754235217
 51
352.8247958353
  0
ARC
  5
137
330
1F
100
AcDbEntity
  8
0
  6
Continuous
 62
     7
370
    30
100
AcDbCircle
 10
102.8220983225
 20
150.1659367176
 30
0.0
 40
6.500000000000009
100
AcDbArc
 50
333.3001096785
 51
3.3000654349
  0
SPLINE
  5
138
330
1F
100
AcDbEntity
  8
0
  6
Continuous
 62
     7
370
    30
100
AcDbSpline
210
0.0
220
0.0
230
1.0
 70
     8
 71
     3
 72
    15
 73
    11
 74
     0
 42
0.000000001
 43
0.00000001
 40
0.0
 40
0.0
 40
0.0
 40
0.0
 40
0.060160355165855
 40
0.2838320692036736
 40
0.4497758847408048
 40
0.5879888622246143
 40
0.7265187921582555
 40
0.8589539403787826
 40
0.9974639071650984
 40
1.0
 40
1.0
 40
1.0
 40
1.0
 10
108.6290179373718
 20
147.2453743424683
 30
0.0
 10
108.6504166864227
 20
147.2851063119234
 30
0.0
 10
108.7513743886293
 20
147.4725587807944
 30
0.0
 10
108.982695696882
 20
147.7297992982791
 30
0.0
 10
109.3215689484466
 20
147.9382828144152
 30
0.0
 10
109.614724222044
 20
148.0370067858919
 30
0.0
 10
109.8421209070995
 20
148.0698554571957
 30
0.0
 10
109.9884087889629
 20
148.0722396769484
 30
0.0
 10
110.0231942982108
 20
148.0704200830155
 30
0.0
 10
110.0233990909732
 20
148.0704144008913
 30
0.0
 10
110.02340277327
 20
148.0704142987233
 30
0.0
  0
SPLINE
  5
139
330
1F
100
AcDbEntity
  8
0
  6
Continuous
 62
     7
370
    30
100
AcDbSpline
210
0.0
220
0.0
230
1.0
 70
     8
 71
     3
 72
    14
 73
    10
 74
     0
 42
0.000000001
 43
0.00000001
 40
0.0
 40
0.0
 40
0.0
 40
0.0
 40
0.1016672684760455
 40
0.2451514433434605
 40
0.3857196580931067
 40
0.5189970504533912
 40
0.6545277825849916
 40
0.8551972517306652
 40
1.0
 40
1.0
 40
1.0
 40
1.0
 10
110.2633646880961
 20
149.229157727171
 30
0.0
 10
110.2583774034901
 20
149.2310670541815
 30
0.0
 10
110.2463515072715
 20
149.2356710361656
 30
0.0
 10
110.134592574051
 20
149.2825823763033
 30
0.0
 10
109.9457211528746
 20
149.3911491474993
 30
0.0
 10
109.7321218462897
 20
149.5685324153326
 30
0.0
 10
109.5140494563143
 20
149.8391337017176
 30
0.0
 10
109.3560257095814
 20
150.173769202846
 30
0.0
 10
109.3245238292059
 20
150.4319079009474
 30
0.0
 10
109.311319992185
 20
150.5401052929097
 30
0.0
  0
ARC
  5
13A
330
1F
100
AcDbEntity
  8
0
  6
Continuous
 62
     7
370
    30
100
AcDbCircle
 10
102.8220983225
 20
150.1659367176
 30
0.0
 40
7.500000000000067
100
AcDbArc
 50
193.7754235217
 51
202.8247958353
  0
ARC
  5
13B
330
1F
100
AcDbEntity
  8
0
  6
Continuous
 62
     7
370
    30
100
AcDbCircle
 10
102.8220983225
 20
150.1659367176
 30
0.0
 40
6.500000000000079
100
AcDbArc
 50
183.3001096785
 51
213.3001096785
  0
SPLINE
  5
13C
330
1F
100
AcDbEntity
  8
0
  6
Continuous
 62
     7
370
    30
100
AcDbSpline
210
0.0
220
0.0
230
1.0
 70
     8
 71
     3
 72
    15
 73
    11
 74
     0
 42
0.000000001
 43
0.00000001
 40
0.0
 40
0.0
 40
0.0
 40
0.0
 40
0.0601603551658554
 40
0.2838320692036683
 40
0.4497758847408027
 40
0.5879888622246129
 40
0.7265187921582591
 40
0.8589539403787844
 40
0.9974639071650983
 40
1.0
 40
1.0
 40
1.0
 40
1.0
 10
96.33287723081007
 20
149.7917581203424
 30
0.0
 10
96.33421135525037
 20
149.7466498509264
 30
0.0
 10
96.34050565486724
 20
149.5338323997787
 30
0.0
 10
96.26879578422607
 20
149.195394922628
 30
0.0
 10
96.07956469777612
 20
148.8454062756016
 30
0.0
 10
95.87504676932579
 20
148.6133311715415
 30
0.0
 10
95.69453979898329
 20
148.471185045184
 30
0.0
 10
95.56904288689985
 20
148.3959763093787
 30
0.0
 10
95.53800795524184
 20
148.3801593693243
 30
0.0
 10
95.53782775844448
 20
148.3800618938076
 30
0.0
 10
95.53782451839787
 20
148.3800601411393
 30
0.0
  0
SPLINE
  5
13D
330
1F
100
AcDbEntity
  8
0
  6
Continuous
 62
     7
370
    30
100
AcDbSpline
210
0.0
220
0.0
230
1.0
 70
     8
 71
     3
 72
    14
 73
    10
 74
     0
 42
0.000000001
 43
0.00000001
 40
0.0
 40
0.0
 40
0.0
 40
0.0
 40
0.1016668178018471
 40
0.2451503566277779
 40
0.3857179482619025
 40
0.5189947498256828
 40
0.6545248811720775
 40
0.8551934607833546
 40
1.0
 40
1.0
 40
1.0
 40
1.0
 10
95.90938311844161
 20
147.2565779382223
 30
0.0
 10
95.91465689710012
 20
147.2574180548242
 30
0.0
 10
95.92737361969323
 20
147.2594438375628
 30
0.0
 10
96.04761536530042
 20
147.2746968920249
 30
0.0
 10
96.26546619863754
 20
147.2751110202191
 30
0.0
 10
96.53914026200232
 20
147.2282922592449
 30
0.0
 10
96.86329711859973
 20
147.1029808577253
 30
0.0
 10
97.16747033201013
 20
146.892187984339
 30
0.0
 10
97.32382214954887
 20
146.6843807782527
 30
0.0
 10
97.3893573049454
 20
146.5972780009537
 30
0.0
  0
ARC
  5
13E
330
1F
100
AcDbEntity
  8
0
  6
Continuous
 62
     7
370
    30
100
AcDbCircle
 10
102.8220983225
 20
150.1659367176
 30
0.0
 40
7.500000000000063
100
AcDbArc
 50
283.7754235217
 51
292.8247958353
  0
ARC
  5
13F
330
1F
100
AcDbEntity
  8
0
  6
Continuous
 62
     7
370
    30
100
AcDbCircle
 10
102.8220983225
 20
150.1659367176
 30
0.0
 40
6.500000000000075
100
AcDbArc
 50
273.3001096785
 51
303.3001096785
  0
SPLINE
  5
140
330
1F
100
AcDbEntity
  8
0
  6
Continuous
 62
     7
370
    30
100
AcDbSpline
210
0.0
220
0.0
230
1.0
 70
     8
 71
     3
 72
    15
 73
    11
 74
     0
 42
0.000000001
 43
0.00000001
 40
0.0
 40
0.0
 40
0.0
 40
0.0
 40
0.060160355166006
 40
0.2838320692038278
 40
0.4497758847409062
 40
0.5879888622247144
 40
0.726518792158354
 40
0.8589539403788806
 40
0.9974639071651985
 40
1.0
 40
1.0
 40
1.0
 40
1.0
 10
103.1962769197758
 20
143.6767156258453
 30
0.0
 10
103.2413851891919
 20
143.6780497502856
 30
0.0
 10
103.4542026403397
 20
143.6843440499025
 30
0.0
 10
103.7926401174905
 20
143.6126341792611
 30
0.0
 10
104.1426287645169
 20
143.4234030928112
 30
0.0
 10
104.3747038685768
 20
143.2188851643609
 30
0.0
 10
104.5168499949343
 20
143.0383781940184
 30
0.0
 10
104.5920587307394
 20
142.9128812819349
 30
0.0
 10
104.6078756707941
 20
142.8818463502772
 30
0.0
 10
104.6079731463105
 20
142.8816661534797
 30
0.0
 10
104.6079748989788
 20
142.8816629134331
 30
0.0
  0
SPLINE
  5
141
330
1F
100
AcDbEntity
  8
0
  6
Continuous
 62
     7
370
    30
100
AcDbSpline
210
0.0
220
0.0
230
1.0
 70
     8
 71
     3
 72
    14
 73
    10
 74
     0
 42
0.000000001
 43
0.00000001
 40
0.0
 40
0.0
 40
0.0
 40
0.0
 40
0.1016668178018486
 40
0.2451503566277748
 40
0.3857179482619018
 40
0.5189947498256771
 40
0.6545248811720713
 40
0.8551934607833551
 40
1.0
 40
1.0
 40
1.0
 40
1.0
 10
105.7314571018959
 20
143.2532215134768
 30
0.0
 10
105.7306169852939
 20
143.2584952921353
 30
0.0
 10
105.7285912025554
 20
143.2712120147285
 30
0.0
 10
105.7133381480933
 20
143.3914537603356
 30
0.0
 10
105.712924019899
 20
143.6093045936727
 30
0.0
 10
105.7597427808733
 20
143.8829786570375
 30
0.0
 10
105.8850541823929
 20
144.2071355136349
 30
0.0
 10
106.0958470557792
 20
144.5113087270453
 30
0.0
 10
106.3036542618655
 20
144.6676605445841
 30
0.0
 10
106.3907570391645
 20
144.7331956999806
 30
0.0
  0
LINE
  5
142
330
1F
100
AcDbEntity
  8
0
  6
Continuous
 62
     7
370
    30
100
AcDbLine
 10
100.3610780312
 20
148.5493418006
 30
0.0
 11
102.9916004426
 21
147.2263331676
 31
0.0
  0
LINE
  5
143
330
1F
100
AcDbEntity
  8
0
  6
Continuous
 62
     7
370
    30
100
AcDbLine
 10
102.9916004426
 20
147.2263331676
 30
0.0
 11
105.452620734
 21
148.8429280846
 31
0.0
  0
LINE
  5
144
330
1F
100
AcDbEntity
  8
0
  6
Continuous
 62
     7
370
    30
100
AcDbLine
 10
105.452620734
 20
148.8429280846
 30
0.0
 11
105.2831186139
 21
151.7825316346
 31
0.0
  0
LINE
  5
145
330
1F
100
AcDbEntity
  8
0
  6
Continuous
 62
     7
370
    30
100
AcDbLine
 10
105.2831186139
 20
151.7825316346
 30
0.0
 11
102.6525962025
 21
153.1055402676
 31
0.0
  0
LINE
  5
146
330
1F
100
AcDbEntity
  8
0
  6
Continuous
 62
     7
370
    30
100
AcDbLine
 10
102.6525962025
 20
153.1055402676
 30
0.0
 11
100.1915759111
 21
151.4889453506
 31
0.0
  0
LINE
  5
147
330
1F
100
AcDbEntity
  8
0
  6
Continuous
 62
     7
370
    30
100
AcDbLine
 10
100.1915759111
 20
151.4889453506
 30
0.0
 11
100.3610780312
 21
148.5493418006
 31
0.0
  0
LINE
  5
148
330
1F
100
AcDbEntity
  8
0
  6
Continuous
 62
     7
370
    30
100
AcDbLine
 10
115.3220983225
 20
158.1659367176
 30
0.0
 11
90.3220983225
 21
158.1659367176
 31
0.0
  0
LINE
  5
149
330
1F
100
AcDbEntity
  8
0
  6
Continuous
 62
     7
370
    30
100
AcDbLine
 10
115.3220983225
 20
86.9659367176
 30
0.0
 11
90.3220983225
 21
86.9659367176
 31
0.0
  0
SPLINE
  5
14A
330
1F
100
AcDbEntity
  8
0
  6
Continuous
 62
     7
370
    30
100
AcDbSpline
210
0.0
220
0.0
230
1.0
 70
     8
 71
     3
 72
    18
 73
    14
 74
     0
 42
0.000000001
 43
0.00000001
 40
0.0
 40
0.0
 40
0.0
 40
0.0
 40
0.092431248278694
 40
0.1848512748458442
 40
0.2775622776303123
 40
0.3704649218510991
 40
0.4630525494799554
 40
0.5553123831734046
 40
0.6477379691576479
 40
0.7405665667887579
 40
0.8334102746690931
 40
0.9258521490061405
 40
1.0
 40
1.0
 40
1.0
 40
1.0
 10
104.0720983225414
 20
142.1659367175767
 30
0.0
 10
104.0583487595532
 20
142.0257686936832
 30
0.0
 10
104.0308513028567
 20
141.7454496631406
 30
0.0
 10
103.8165796409015
 20
141.3721045776699
 30
0.0
 10
103.5004750082457
 20
141.087341371217
 30
0.0
 10
103.1046827340541
 20
140.9237383591919
 30
0.0
 10
102.6781677081653
 20
140.9002881212709
 30
0.0
 10
102.2685294510994
 20
141.0188012040233
 30
0.0
 10
101.9211609555869
 20
141.2654867129257
 30
0.0
 10
101.6732087895099
 20
141.6144232768586
 30
0.0
 10
101.5583137938527
 20
142.024089570843
 30
0.0
 10
101.5711644444824
 20
142.4277929892096
 30
0.0
 10
101.6830264079801
 20
142.6550857739954
 30
0.0
 10
101.7328153381487
 20
142.7562521064616
 30
0.0
  0
SPLINE
  5
14B
330
1F
100
AcDbEntity
  8
0
  6
Continuous
 62
     7
370
    30
100
AcDbSpline
210
0.0
220
0.0
230
1.0
 70
     8
 71
     3
 72
    14
 73
    10
 74
     0
 42
0.000000001
 43
0.00000001
 40
0.0
 40
0.0
 40
0.0
 40
0.0
 40
0.0808940534189532
 40
0.243561824088568
 40
0.4055230257002264
 40
0.5674669623534196
 40
0.7301061739447844
 40
0.8930796968291567
 40
1.0
 40
1.0
 40
1.0
 40
1.0
 10
102.2289029916944
 20
143.2459643538793
 30
0.0
 10
102.2884675628195
 20
143.2826348796102
 30
0.0
 10
102.4678089974633
 20
143.3930452220248
 30
0.0
 10
102.8274507697989
 20
143.4357364047551
 30
0.0
 10
103.2448820654288
 20
143.3682921105439
 30
0.0
 10
103.6186757265308
 20
143.1600059251258
 30
0.0
 10
103.9007257946118
 20
142.8417397399627
 30
0.0
 10
104.050749760996
 20
142.4906438187755
 30
0.0
 10
104.0660407082015
 20
142.2580717491723
 30
0.0
 10
104.0720983225414
 20
142.1659367175767
 30
0.0
  0
LINE
  5
14C
330
1F
100
AcDbEntity
  8
0
  6
Continuous
 62
     7
370
    30
100
AcDbLine
 10
114.3220983225
 20
85.9659367176
 30
0.0
 11
91.3220983225
 21
85.9659367176
 31
0.0
  0
LINE
  5
14D
330
1F
100
AcDbEntity
  8
0
  6
Continuous
 62
     7
370
    30
100
AcDbLine
 10
112.8226209149
 20
162.1659367176
 30
0.0
 11
92.8215757302
 21
162.1659367176
 31
0.0
  0
DIMENSION
  5
14E
330
1F
100
AcDbEntity
  8
SLD-0
100
AcDbDimension
  2
_D
 10
115.3220983225
 20
169.1659367176
 30
0.0
 11
102.8220983225
 21
169.1659367176
 31
0.0
 70
   160
  1
%%c<>
 71
     2
 42
-1.0
  3
SLDDIMSTYLE0
100
AcDbAlignedDimension
 13
90.3220983225
 23
158.1659367176
 33
0.0
 14
115.3220983225
 24
158.1659367176
 34
0.0
100
AcDbRotatedDimension
  0
DIMENSION
  5
15A
330
1F
100
AcDbEntity
  8
SLD-0
100
AcDbDimension
  2
_D_1
 10
122.3220983225
 20
150.1659367176
 30
0.0
 11
122.3220983225
 21
156.1659367176
 31
0.0
 70
   160
  1
<>
 71
     2
 42
-1.0
  3
SLDDIMSTYLE0
100
AcDbAlignedDimension
 13
112.8226209149
 23
162.1659367176
 33
0.0
 14
102.8220983225
 24
150.1659367176
 34
0.0
 50
90.0
100
AcDbRotatedDimension
  0
DIMENSION
  5
164
330
1F
100
AcDbEntity
  8
SLD-0
100
AcDbDimension
  2
_D_2
 10
130.1908412603
 20
142.1659367176
 30
0.0
 11
130.1908412603
 21
152.1659367176
 31
0.0
 70
   160
  1
<>
 71
     2
 42
-1.0
  3
SLDDIMSTYLE0
100
AcDbAlignedDimension
 13
112.8226209149
 23
162.1659367176
 33
0.0
 14
102.8220983225
 24
142.1659367176
 34
0.0
 50
90.0
100
AcDbRotatedDimension
  0
DIMENSION
  5
16E
330
1F
100
AcDbEntity
  8
SLD-0
100
AcDbDimension
  2
_D_3
 10
136.5746850573
 20
85.9659367176
 30
0.0
 11
136.5746850573
 21
124.0659367176
 31
0.0
 70
   160
  1
<>
 71
     2
 42
-1.0
  3
SLDDIMSTYLE0
100
AcDbAlignedDimension
 13
112.8226209149
 23
162.1659367176
 33
0.0
 14
114.3220983225
 24
85.9659367176
 34
0.0
 50
90.0
100
AcDbRotatedDimension
  0
DIMENSION
  5
178
330
1F
100
AcDbEntity
  8
SLD-0
100
AcDbDimension
  2
_D_4
 10
82.1451040058
 20
133.5326873671
 30
0.0
 11
74.8814432159
 21
144.5905079783
 31
0.0
 70
   160
  1
<> mm
 71
     2
 42
-1.0
  3
SLDDIMSTYLE1
100
AcDbAlignedDimension
 13
100.1915759111
 23
151.4889453506
 33
0.0
 14
102.9916004426
 24
147.2263331676
 34
0.0
 50
-56.6998903215
100
AcDbRotatedDimension
  0
INSERT
  5
191
330
1F
100
AcDbEntity
  8
SLD-0
100
AcDbBlockReference
  2
SW_CENTERMARKSYMBOL_0
 10
102.8220983225
 20
150.1659367176
 30
0.0
  0
LINE
  5
192
330
1F
100
AcDbEntity
  8
0
  6
Continuous
 62
     7
370
    30
100
AcDbLine
 10
104.0861785236
 20
58.1804033936
 30
0.0
 11
104.0220983225
 21
58.2444835947
 31
0.0
  0
LINE
  5
193
330
1F
100
AcDbEntity
  8
0
  6
Continuous
 62
     7
370
    30
100
AcDbLine
 10
101.6220983225
 20
58.2444835947
 30
0.0
 11
101.5580181215
 21
58.1804033936
 31
0.0
  0
ARC
  5
194
330
1F
100
AcDbEntity
  8
0
  6
Continuous
 62
     7
370
    30
100
AcDbCircle
 10
99.8519432103
 20
61.5944835947
 30
0.0
 40
0.5
100
AcDbArc
 50
0.0
 51
90.0
  0
ARC
  5
195
330
1F
100
AcDbEntity
  8
0
  6
Continuous
 62
     7
370
    30
100
AcDbCircle
 10
105.7922534347
 20
61.5944835947
 30
0.0
 40
0.5
100
AcDbArc
 50
90.0
 51
180.0
  0
ARC
  5
196
330
1F
100
AcDbEntity
  8
0
  6
Continuous
 62
     7
370
    30
100
AcDbCircle
 10
109.3220983225
 20
69.0944835947
 30
0.0
 40
1.000000000000014
100
AcDbArc
 50
86.561430116
 51
90.0
  0
ARC
  5
197
330
1F
100
AcDbEntity
  8
0
  6
Continuous
 62
     7
370
    30
100
AcDbCircle
 10
109.3220983225
 20
63.0944835947
 30
0.0
 40
1.0
100
AcDbArc
 50
270.0
 51
273.3845490313
  0
LINE
  5
198
330
1F
100
AcDbEntity
  8
0
  6
Continuous
 62
     7
370
    30
100
AcDbLine
 10
100.3519432103
 20
61.5944835947
 30
0.0
 11
100.3519432103
 21
57.997986511
 31
0.0
  0
LINE
  5
199
330
1F
100
AcDbEntity
  8
0
  6
Continuous
 62
     7
370
    30
100
AcDbLine
 10
105.2922534347
 20
57.997986511
 30
0.0
 11
105.2922534347
 21
61.5944835947
 31
0.0
  0
LINE
  5
19A
330
1F
100
AcDbEntity
  8
0
  6
Continuous
 62
     7
370
    30
100
AcDbLine
 10
101.6220983225
 20
58.2444835947
 30
0.0
 11
104.0220983225
 21
58.2444835947
 31
0.0
  0
SPLINE
  5
19B
330
1F
100
AcDbEntity
  8
0
  6
Continuous
 62
     7
370
    30
100
AcDbSpline
210
0.0
220
0.0
230
1.0
 70
     8
 71
     3
 72
    31
 73
    27
 74
     0
 42
0.000000001
 43
0.00000001
 40
0.0
 40
0.0
 40
0.0
 40
0.0
 40
0.0503833420112853
 40
0.101481343410547
 40
0.1367325030443072
 40
0.1722325819194427
 40
0.2085325023929379
 40
0.2451180814670509
 40
0.2796197364828237
 40
0.3143818353588227
 40
0.3499821145323693
 40
0.3858817310415659
 40
0.4518892960196196
 40
0.4852723844270266
 40
0.519195763179949
 40
0.5694530326459613
 40
0.6203368845477293
 40
0.6546450682134923
 40
0.7039545445753688
 40
0.7536417805119411
 40
0.8043793701411378
 40
0.8554434568616514
 40
0.8913139347111473
 40
0.9272907192744093
 40
0.9635908054285467
 40
1.0
 40
1.0
 40
1.0
 40
1.0
 10
101.8853193321358
 20
69.09448359465475
 30
0.0
 10
101.8857846617401
 20
69.13244726900793
 30
0.0
 10
101.8867219213878
 20
69.20891311109713
 30
0.0
 10
101.8937154483112
 20
69.31052786599423
 30
0.0
 10
101.9034026037859
 20
69.39884167540383
 30
0.0
 10
101.9148832252742
 20
69.47431145793249
 30
0.0
 10
101.9297609119912
 20
69.54796197021712
 30
0.0
 10
101.9481102161118
 20
69.61757699293017
 30
0.0
 10
101.9699771886749
 20
69.6824083321467
 30
0.0
 10
101.9955658908623
 20
69.74250861664216
 30
0.0
 10
102.0257886246067
 20
69.7987154012028
 30
0.0
 10
102.070746737993
 20
69.864756269141
 30
0.0
 10
102.1235226787289
 20
69.9199139084429
 30
0.0
 10
102.1833052953828
 20
69.96436871003706
 30
0.0
 10
102.2405069905608
 20
69.99792036397261
 30
0.0
 10
102.3122827045019
 20
70.02870527014277
 30
0.0
 10
102.3906625732677
 20
70.05126236155537
 30
0.0
 10
102.4730339169188
 20
70.06782982096787
 30
0.0
 10
102.5586705350712
 20
70.07938060652684
 30
0.0
 10
102.6592686266171
 20
70.08736308474406
 30
0.0
 10
102.7648001785039
 20
70.09176365998067
 30
0.0
 10
102.8635078357535
 20
70.09356791959321
 30
0.0
 10
102.953268358205
 20
70.09424496176368
 30
0.0
 10
103.0332249683913
 20
70.09445175790215
 30
0.0
 10
103.1143021700212
 20
70.09448583027141
 30
0.0
 10
103.168924680793
 20
70.09448434060545
 30
0.0
 10
103.1962769197758
 20
70.09448359465476
 30
0.0
  0
SPLINE
  5
19C
330
1F
100
AcDbEntity
  8
0
  6
Continuous
 62
     7
370
    30
100
AcDbSpline
210
0.0
220
0.0
230
1.0
 70
     8
 71
     3
 72
    28
 73
    24
 74
     0
 42
0.000000001
 43
0.00000001
 40
0.0
 40
0.0
 40
0.0
 40
0.0
 40
0.0599520127234497
 40
0.1149157215349578
 40
0.1702632397646591
 40
0.226848453042188
 40
0.2838973086803598
 40
0.3247733066723806
 40
0.3658727222976184
 40
0.4077510282503824
 40
0.4499473896322933
 40
0.5183426389954323
 40
0.5530362235630792
 40
0.5882351583096163
 40
0.6567147232291326
 40
0.6915278952507182
 40
0.7268959798450866
 40
0.858872489445806
 40
0.8930655166538966
 40
0.927483241822494
 40
0.9622441787181647
 40
0.9974726899553649
 40
1.0
 40
1.0
 40
1.0
 40
1.0
 10
103.1962769197758
 20
70.09448359465476
 30
0.0
 10
103.2414084783394
 20
70.09448922620416
 30
0.0
 10
103.3279164266255
 20
70.09450002073021
 30
0.0
 10
103.4558938244259
 20
70.09427038643284
 30
0.0
 10
103.5800937903938
 20
70.09303473225185
 30
0.0
 10
103.7037046317225
 20
70.0895262449281
 30
0.0
 10
103.8138192090311
 20
70.08268918625352
 30
0.0
 10
103.9097820085536
 20
70.0722950258636
 30
0.0
 10
103.9924740878284
 20
70.05903283038398
 30
0.0
 10
104.0726092325679
 20
70.04064917542088
 30
0.0
 10
104.1651519950933
 20
70.01106573560864
 30
0.0
 10
104.2460850571431
 20
69.97252379009828
 30
0.0
 10
104.3150421769011
 20
69.92559684402816
 30
0.0
 10
104.3783101966411
 20
69.87156113971092
 30
0.0
 10
104.4327915489941
 20
69.80679283941785
 30
0.0
 10
104.4781439507859
 20
69.73240631934148
 30
0.0
 10
104.5355222065488
 20
69.61532387212517
 30
0.0
 10
104.5730426769501
 20
69.47831437402333
 30
0.0
 10
104.5942161612045
 20
69.33360911051084
 30
0.0
 10
104.6019857640118
 20
69.25740678933711
 30
0.0
 10
104.6067324530075
 20
69.17939514770364
 30
0.0
 10
104.6079475694357
 20
69.12480252350208
 30
0.0
 10
104.6079731843597
 20
69.09638576389766
 30
0.0
 10
104.6079748989788
 20
69.09448359465472
 30
0.0
  0
LINE
  5
19D
330
1F
100
AcDbEntity
  8
0
  6
Continuous
 62
     7
370
    30
100
AcDbLine
 10
104.607974899
 20
69.0944835947
 30
0.0
 11
104.607974899
 21
63.0944835947
 31
0.0
  0
SPLINE
  5
19E
330
1F
100
AcDbEntity
  8
0
  6
Continuous
 62
     7
370
    30
100
AcDbSpline
210
0.0
220
0.0
230
1.0
 70
     8
 71
     3
 72
    28
 73
    24
 74
     0
 42
0.000000001
 43
0.00000001
 40
0.0
 40
0.0
 40
0.0
 40
0.0
 40
0.051638164959091
 40
0.1040465827021529
 40
0.1392925896856487
 40
0.1747876538706436
 40
0.2110832367410269
 40
0.2476648581456088
 40
0.316817298249279
 40
0.3523938580972205
 40
0.3882692747097046
 40
0.45393762501109
 40
0.521458036453279
 40
0.5885546246607297
 40
0.6570827697253159
 40
0.7065692857449415
 40
0.7564344948251356
 40
0.8073540820326157
 40
0.8586021520496323
 40
0.8937003630906809
 40
0.9288980198645058
 40
0.964398015592356
 40
1.0
 40
1.0
 40
1.0
 40
1.0
 10
104.6079748989789
 20
63.09448359465473
 30
0.0
 10
104.607344854447
 20
63.0555805131216
 30
0.0
 10
104.6060753674204
 20
62.9771940581941
 30
0.0
 10
104.5967060991315
 20
62.87376466822106
 30
0.0
 10
104.5840017089476
 20
62.78468004029718
 30
0.0
 10
104.5693212892742
 20
62.7094091255912
 30
0.0
 10
104.5505671020985
 20
62.63599182204646
 30
0.0
 10
104.520449227728
 20
62.54429504313351
 30
0.0
 10
104.4818478371479
 20
62.46048645735655
 30
0.0
 10
104.4343389283335
 20
62.3866087981031
 30
0.0
 10
104.381814193863
 20
62.3212177239178
 30
0.0
 10
104.3060834529873
 20
62.25288462429342
 30
0.0
 10
104.2006084253279
 20
62.19171368396768
 30
0.0
 10
104.0798655441836
 20
62.1483705999624
 30
0.0
 10
103.9597966424716
 20
62.12324616446529
 30
0.0
 10
103.8450371924459
 20
62.10904232994869
 30
0.0
 10
103.7387482146773
 20
62.10126811022009
 30
0.0
 10
103.6284077510604
 20
62.09702681095993
 30
0.0
 10
103.5268948362764
 20
62.0953282312431
 30
0.0
 10
103.4361000856801
 20
62.09470179411809
 30
0.0
 10
103.3566368979567
 20
62.09451269179185
 30
0.0
 10
103.2765675378086
 20
62.09448155140318
 30
0.0
 10
103.2230660399694
 20
62.09448291291991
 30
0.0
 10
103.1962769197758
 20
62.09448359465476
 30
0.0
  0
SPLINE
  5
19F
330
1F
100
AcDbEntity
  8
0
  6
Continuous
 62
     7
370
    30
100
AcDbSpline
210
0.0
220
0.0
230
1.0
 70
     8
 71
     3
 72
    31
 73
    27
 74
     0
 42
0.000000001
 43
0.00000001
 40
0.0
 40
0.0
 40
0.0
 40
0.0
 40
0.0637283214069978
 40
0.1186681447243533
 40
0.1739921194166549
 40
0.2305571606803526
 40
0.287588996716032
 40
0.3282112299049234
 40
0.3690555457230108
 40
0.4106741294070582
 40
0.4526085823013375
 40
0.4866354269090958
 40
0.5208796721779174
 40
0.5554833085420906
 40
0.5905913236948594
 40
0.624641187291155
 40
0.6589536822430858
 40
0.6936712211975771
 40
0.7289391690673839
 40
0.7946378728674636
 40
0.8613099053987375
 40
0.895515317859241
 40
0.929945684989052
 40
0.9647197835473995
 40
0.9999622547372186
 40
1.0
 40
1.0
 40
1.0
 40
1.0
 10
103.1962769197758
 20
62.09448359465476
 30
0.0
 10
103.14842112348
 20
62.09447627472071
 30
0.0
 10
103.059309117462
 20
62.09446264431316
 30
0.0
 10
102.930660363055
 20
62.09473789700867
 30
0.0
 10
102.8097060413442
 20
62.09608333259535
 30
0.0
 10
102.6906583915499
 20
62.09980311633423
 30
0.0
 10
102.5860085180956
 20
62.10694004244581
 30
0.0
 10
102.4959657505031
 20
62.11767039642266
 30
0.0
 10
102.4192975034996
 20
62.13123982232341
 30
0.0
 10
102.3457693023563
 20
62.14994337255031
 30
0.0
 10
102.28059221093
 20
62.17321814699986
 30
0.0
 10
102.2236635283157
 20
62.20040772056098
 30
0.0
 10
102.1742872189459
 20
62.23063240522052
 30
0.0
 10
102.1284824592003
 20
62.26634121555982
 30
0.0
 10
102.0870771423028
 20
62.30731026369607
 30
0.0
 10
102.0501465431385
 20
62.35339324100179
 30
0.0
 10
102.0176335261295
 20
62.40428623004355
 30
0.0
 10
101.9890011608252
 20
62.46059357273515
 30
0.0
 10
101.9571355989426
 20
62.53966785208198
 30
0.0
 10
101.9267316541927
 20
62.64685818503634
 30
0.0
 10
101.9066135822652
 20
62.76272460770228
 30
0.0
 10
101.8955556019933
 20
62.8606119482277
 30
0.0
 10
101.8896447292477
 20
62.93696227521707
 30
0.0
 10
101.8861076681149
 20
63.01510561635524
 30
0.0
 10
101.8853196158269
 20
63.06788690465184
 30
0.0
 10
101.885319332439
 20
63.09445517005141
 30
0.0
 10
101.8853193321358
 20
63.09448359465478
 30
0.0
  0
LINE
  5
1A0
330
1F
100
AcDbEntity
  8
0
  6
Continuous
 62
     7
370
    30
100
AcDbLine
 10
101.8853193321
 20
63.0944835947
 30
0.0
 11
101.8853193321
 21
69.0944835947
 31
0.0
  0
LINE
  5
1A1
330
1F
100
AcDbEntity
  8
0
  6
Continuous
 62
     7
370
    30
100
AcDbLine
 10
100.7265759037
 20
69.0944835947
 30
0.0
 11
101.8853193321
 21
69.0944835947
 31
0.0
  0
SPLINE
  5
1A2
330
1F
100
AcDbEntity
  8
0
  6
Continuous
 62
     7
370
    30
100
AcDbSpline
210
0.0
220
0.0
230
1.0
 70
     8
 71
     3
 72
    30
 73
    26
 74
     0
 42
0.000000001
 43
0.00000001
 40
0.0
 40
0.0
 40
0.0
 40
0.0
 40
0.0599231376636495
 40
0.1148603739632579
 40
0.1701812348245503
 40
0.2267391946149291
 40
0.2837605734590016
 40
0.3246168840906567
 40
0.3656965047495093
 40
0.4075546405941098
 40
0.4497306786808525
 40
0.4838307779873136
 40
0.5181480607850719
 40
0.5528249356664519
 40
0.5880069173317783
 40
0.6564535000138098
 40
0.6912499047514788
 40
0.7266009547959498
 40
0.7593745876174082
 40
0.8255468297532825
 40
0.8589963998732816
 40
0.9275181685183082
 40
0.9622623632883905
 40
0.9974739071992733
 40
1.0
 40
1.0
 40
1.0
 40
1.0
 10
99.90153594743308
 20
70.09448359465478
 30
0.0
 10
99.94133622702853
 20
70.09448922602031
 30
0.0
 10
100.017625206151
 20
70.09450002019395
 30
0.0
 10
100.1233986204601
 20
70.09427038837701
 30
0.0
 10
100.2212025915263
 20
70.09303472481344
 30
0.0
 10
100.3130154416922
 20
70.08952627348864
 30
0.0
 10
100.3897140971275
 20
70.08268909165946
 30
0.0
 10
100.4525091124738
 20
70.0722952700694
 30
0.0
 10
100.5035496935573
 20
70.05903189580312
 30
0.0
 10
100.5498228529489
 20
70.04065275064319
 30
0.0
 10
100.5881909656237
 20
70.01770440966554
 30
0.0
 10
100.6194336590239
 20
69.99084418745073
 30
0.0
 10
100.6446242012936
 20
69.96096739252867
 30
0.0
 10
100.6661112936658
 20
69.92559601567366
 30
0.0
 10
100.6894859917478
 20
69.87156296473735
 30
0.0
 10
100.705711032571
 20
69.8067835655151
 30
0.0
 10
100.7161409236604
 20
69.7324224981133
 30
0.0
 10
100.7214435662102
 20
69.67270865174142
 30
0.0
 10
100.7258496523294
 20
69.58974157584512
 30
0.0
 10
100.7274149981677
 20
69.50128752141957
 30
0.0
 10
100.7276753923805
 20
69.38318929333914
 30
0.0
 10
100.7271048769605
 20
69.28289362304437
 30
0.0
 10
100.7266750706324
 20
69.1793991892577
 30
0.0
 10
100.7265779771934
 20
69.12480247160703
 30
0.0
 10
100.726576033777
 20
69.09638576064194
 30
0.0
 10
100.726575903688
 20
69.09448359465475
 30
0.0
  0
LINE
  5
1A3
330
1F
100
AcDbEntity
  8
0
  6
Continuous
 62
     7
370
    30
100
AcDbLine
 10
99.9015359474
 20
70.0944835947
 30
0.0
 11
103.1962769198
 21
70.0944835947
 31
0.0
  0
SPLINE
  5
1A4
330
1F
100
AcDbEntity
  8
0
  6
Continuous
 62
     7
370
    30
100
AcDbSpline
210
0.0
220
0.0
230
1.0
 70
     8
 71
     3
 72
    32
 73
    28
 74
     0
 42
0.000000001
 43
0.00000001
 40
0.0
 40
0.0
 40
0.0
 40
0.0
 40
0.0516262999341583
 40
0.1040226756694592
 40
0.139260584093448
 40
0.1747474924924675
 40
0.2110347356397737
 40
0.247607951597518
 40
0.2820787386587336
 40
0.3168098254409246
 40
0.3523782107774472
 40
0.3882453842094753
 40
0.4375241884918504
 40
0.487586246517925
 40
0.5214814209929439
 40
0.5550393508745638
 40
0.5887888795537933
 40
0.6228041468149301
 40
0.6571615626392447
 40
0.7066367080234759
 40
0.756490459455063
 40
0.8073983467469472
 40
0.8586346413720807
 40
0.8937247878130511
 40
0.9289143571369122
 40
0.9644061959456527
 40
0.9999999999999999
 40
0.9999999999999999
 40
0.9999999999999999
 40
0.9999999999999999
 10
100.726575903688
 20
63.09448359465478
 30
0.0
 10
100.7266278999564
 20
63.05558052358928
 30
0.0
 10
100.7267326680875
 20
62.9771940897532
 30
0.0
 10
100.7273174805074
 20
62.87376455733565
 30
0.0
 10
100.7276247518438
 20
62.78468030824369
 30
0.0
 10
100.7274755594043
 20
62.70940809429956
 30
0.0
 10
100.7265157974819
 20
62.63599578371973
 30
0.0
 10
100.7243017596555
 20
62.56666645740452
 30
0.0
 10
100.7204202781001
 20
62.502161621136
 30
0.0
 10
100.7144718816127
 20
62.44242246324708
 30
0.0
 10
100.7057973123241
 20
62.38660445144369
 30
0.0
 10
100.6923461003269
 20
62.32902798659939
 30
0.0
 10
100.6718455428177
 20
62.2727919265475
 30
0.0
 10
100.6446605241698
 20
62.22716674687383
 30
0.0
 10
100.615223793649
 20
62.19401729169014
 30
0.0
 10
100.5860629262803
 20
62.1701027307538
 30
0.0
 10
100.5531034067681
 20
62.15045820061019
 30
0.0
 10
100.516158164164
 20
62.1346025703509
 30
0.0
 10
100.4693447597706
 20
62.12035880244262
 30
0.0
 10
100.4106563769373
 20
62.10904138196902
 30
0.0
 10
100.3378132434442
 20
62.10126837122682
 30
0.0
 10
100.2575777037799
 20
62.09702673901759
 30
0.0
 10
100.1796312198784
 20
62.09532824392664
 30
0.0
 10
100.1068953374932
 20
62.09470179126553
 30
0.0
 10
100.0410714885843
 20
62.09451269256068
 30
0.0
 10
99.97276159473934
 20
62.09448155120966
 30
0.0
 10
99.92530052258903
 20
62.09448291285532
 30
0.0
 10
99.9015359474331
 20
62.09448359465472
 30
0.0
  0
LINE
  5
1A5
330
1F
100
AcDbEntity
  8
0
  6
Continuous
 62
     7
370
    30
100
AcDbLine
 10
100.7265759037
 20
63.0944835947
 30
0.0
 11
101.8853193321
 21
63.0944835947
 31
0.0
  0
LINE
  5
1A6
330
1F
100
AcDbEntity
  8
0
  6
Continuous
 62
     7
370
    30
100
AcDbLine
 10
99.9015359474
 20
62.0944835947
 30
0.0
 11
103.1962769198
 21
62.0944835947
 31
0.0
  0
SPLINE
  5
1A7
330
1F
100
AcDbEntity
  8
0
  6
Continuous
 62
     7
370
    30
100
AcDbSpline
210
0.0
220
0.0
230
1.0
 70
     8
 71
     3
 72
    31
 73
    27
 74
     0
 42
0.000000001
 43
0.00000001
 40
0.0
 40
0.0
 40
0.0
 40
0.0
 40
0.0503822252278353
 40
0.1014790940027062
 40
0.1367294722688898
 40
0.172228764258972
 40
0.2085278801183471
 40
0.2451126482465057
 40
0.2796135385080197
 40
0.314374866856833
 40
0.3499743569243172
 40
0.3858731776924209
 40
0.4351851765197486
 40
0.4852837937386681
 40
0.5192064205552366
 40
0.5694625760323458
 40
0.6203453000565579
 40
0.6546527232564956
 40
0.7039611066379766
 40
0.7536472412208368
 40
0.8043837062144688
 40
0.8554466610623741
 40
0.8913163438166856
 40
0.9272923309283992
 40
0.9635916124647733
 40
1.0
 40
1.0
 40
1.0
 40
1.0
 10
105.7314571018959
 20
69.09448359465475
 30
0.0
 10
105.7312602566056
 20
69.13244726899474
 30
0.0
 10
105.7308637738851
 20
69.2089131110574
 30
0.0
 10
105.7281270217863
 20
69.31052786613425
 30
0.0
 10
105.7249145433333
 20
69.39884167505511
 30
0.0
 10
105.7217274532547
 20
69.47431145927249
 30
0.0
 10
105.7185411772071
 20
69.547961965069
 30
0.0
 10
105.7158897187075
 20
69.61757701183042
 30
0.0
 10
105.7142812143444
 20
69.6824082658767
 30
0.0
 10
105.7141621058969
 20
69.74250886907633
 30
0.0
 10
105.7160963019086
 20
69.79871443044547
 30
0.0
 10
105.7212843712962
 20
69.85674262663312
 30
0.0
 10
105.7318560936923
 20
69.9134911529571
 30
0.0
 10
105.7487303734244
 20
69.95960699689556
 30
0.0
 10
105.7717290609797
 20
69.99791721303187
 30
0.0
 10
105.8011272936442
 20
70.02870627461452
 30
0.0
 10
105.8382103678621
 20
70.0512621897436
 30
0.0
 10
105.8812037157601
 20
70.06782987851152
 30
0.0
 10
105.9296761805122
 20
70.07938058869587
 30
0.0
 10
105.991495607762
 20
70.08736308965314
 30
0.0
 10
106.0611672065421
 20
70.09176365862868
 30
0.0
 10
106.1306371731724
 20
70.09356791983836
 30
0.0
 10
106.1969821486424
 20
70.09424496170782
 30
0.0
 10
106.2583966832482
 20
70.0944517579172
 30
0.0
 10
106.3227799092958
 20
70.09448583026762
 30
0.0
 10
106.3680753389203
 20
70.09448434060418
 30
0.0
 10
106.3907570391645
 20
70.09448359465476
 30
0.0
  0
LINE
  5
1A8
330
1F
100
AcDbEntity
  8
0
  6
Continuous
 62
     7
370
    30
100
AcDbLine
 10
104.607974899
 20
69.0944835947
 30
0.0
 11
105.7314571019
 21
69.0944835947
 31
0.0
  0
LINE
  5
1A9
330
1F
100
AcDbEntity
  8
0
  6
Continuous
 62
     7
370
    30
100
AcDbLine
 10
103.1962769198
 20
70.0944835947
 30
0.0
 11
106.3907570392
 21
70.0944835947
 31
0.0
  0
SPLINE
  5
1AA
330
1F
100
AcDbEntity
  8
0
  6
Continuous
 62
     7
370
    30
100
AcDbSpline
210
0.0
220
0.0
230
1.0
 70
     8
 71
     3
 72
    28
 73
    24
 74
     0
 42
0.000000001
 43
0.00000001
 40
0.0
 40
0.0
 40
0.0
 40
0.0
 40
0.0637491584988722
 40
0.1187069453545341
 40
0.1740490091901701
 40
0.2306325453856739
 40
0.2876830289798938
 40
0.3283185443200087
 40
0.3691762149031256
 40
0.4108084065126572
 40
0.4527565706113926
 40
0.4866771877971289
 40
0.5556037295136548
 40
0.5907232238474072
 40
0.6935710729519629
 40
0.7288505522955545
 40
0.7941897538095231
 40
0.8612645631279455
 40
0.895366294947228
 40
0.9296907880925772
 40
0.9647082480622355
 40
0.9999622423957955
 40
1.0
 40
1.0
 40
1.0
 40
1.0
 10
106.3907570391646
 20
62.09448359465476
 30
0.0
 10
106.3513525318158
 20
62.09447627480283
 30
0.0
 10
106.2779776228646
 20
62.0944626445482
 30
0.0
 10
106.179601000406
 20
62.09473789621542
 30
0.0
 10
106.0920295049135
 20
62.09608333563668
 30
0.0
 10
106.011519144388
 20
62.09980310465383
 30
0.0
 10
105.9460239321724
 20
62.10694008105598
 30
0.0
 10
105.8938959680493
 20
62.11767029739909
 30
0.0
 10
105.8527323624766
 20
62.13124020136418
 30
0.0
 10
105.816624346827
 20
62.14994192251159
 30
0.0
 10
105.7879267641192
 20
62.17319993736139
 30
0.0
 10
105.7586564544839
 20
62.20887473034634
 30
0.0
 10
105.7385266174877
 20
62.25282579303554
 30
0.0
 10
105.7191252967758
 20
62.33438629362319
 30
0.0
 10
105.71367581919
 20
62.42093653712777
 30
0.0
 10
105.7147006586893
 20
62.53943759494297
 30
0.0
 10
105.7186524201442
 20
62.6466006512274
 30
0.0
 10
105.7238673688307
 20
62.76236925462228
 30
0.0
 10
105.7274974588025
 20
62.86035985820656
 30
0.0
 10
105.7296974412914
 20
62.93670298385602
 30
0.0
 10
105.7311257025614
 20
63.01493102203526
 30
0.0
 10
105.7314569848102
 20
63.06788690462478
 30
0.0
 10
105.7314571017708
 20
63.09445517005141
 30
0.0
 10
105.7314571018959
 20
63.09448359465478
 30
0.0
  0
LINE
  5
1AB
330
1F
100
AcDbEntity
  8
0
  6
Continuous
 62
     7
370
    30
100
AcDbLine
 10
104.607974899
 20
63.0944835947
 30
0.0
 11
105.7314571019
 21
63.0944835947
 31
0.0
  0
LINE
  5
1AC
330
1F
100
AcDbEntity
  8
0
  6
Continuous
 62
     7
370
    30
100
AcDbLine
 10
103.1962769198
 20
62.0944835947
 30
0.0
 11
106.3907570392
 21
62.0944835947
 31
0.0
  0
LINE
  5
1AD
330
1F
100
AcDbEntity
  8
0
  6
Continuous
 62
     7
370
    30
100
AcDbLine
 10
100.7265759037
 20
69.0944835947
 30
0.0
 11
100.7265759037
 21
63.0944835947
 31
0.0
  0
LINE
  5
1AE
330
1F
100
AcDbEntity
  8
0
  6
Continuous
 62
     7
370
    30
100
AcDbLine
 10
105.7314571019
 20
63.0944835947
 30
0.0
 11
105.7314571019
 21
69.0944835947
 31
0.0
  0
SPLINE
  5
1AF
330
1F
100
AcDbEntity
  8
0
  6
Continuous
 62
     7
370
    30
100
AcDbSpline
210
0.0
220
0.0
230
1.0
 70
     8
 71
     3
 72
    28
 73
    24
 74
     0
 42
0.000000001
 43
0.00000001
 40
0.0
 40
0.0
 40
0.0
 40
0.0
 40
0.0599296318508632
 40
0.1148728219892033
 40
0.1701996782646469
 40
0.2267637675401298
 40
0.2837913260924826
 40
0.3246520645385073
 40
0.3657361372130182
 40
0.4075988094450854
 40
0.4497794183720423
 40
0.5181491348918097
 40
0.5528297678894426
 40
0.5880155624121172
 40
0.6564695630121644
 40
0.691269738820173
 40
0.7266246200448223
 40
0.7919340208607683
 40
0.8589805612844762
 40
0.9272788357391012
 40
0.9622582734611927
 40
0.997473633433242
 40
1.0
 40
1.0
 40
1.0
 40
1.0
 10
106.3907570391645
 20
70.09448359465476
 30
0.0
 10
106.4291269120907
 20
70.09448922620392
 30
0.0
 10
106.5026740947826
 20
70.09450002072948
 30
0.0
 10
106.6185640348082
 20
70.09427038643551
 30
0.0
 10
106.7358807184095
 20
70.09303473224175
 30
0.0
 10
106.858168113081
 20
70.08952624496689
 30
0.0
 10
106.9721935436808
 20
70.0826891861251
 30
0.0
 10
107.0756108531228
 20
70.07229502619526
 30
0.0
 10
107.1677975709254
 20
70.05903282911495
 30
0.0
 10
107.2603209614017
 20
70.0406491802758
 30
0.0
 10
107.3711210583069
 20
70.01106571255148
 30
0.0
 10
107.4730000295713
 20
69.97252390523036
 30
0.0
 10
107.5639422678743
 20
69.9255966421398
 30
0.0
 10
107.6501470062601
 20
69.8715622334555
 30
0.0
 10
107.7282908014247
 20
69.80678616571942
 30
0.0
 10
107.7964065026439
 20
69.7324180187505
 30
0.0
 10
107.8560752906134
 20
69.65385934182089
 30
0.0
 10
107.9172791213622
 20
69.5470508019537
 30
0.0
 10
107.9700079379813
 20
69.40793174517366
 30
0.0
 10
107.9972247776585
 20
69.28307395737474
 30
0.0
 10
108.0085922768912
 20
69.17957185510843
 30
0.0
 10
108.0108002886175
 20
69.12480249304545
 30
0.0
 10
108.0108466073359
 20
69.09638576198694
 30
0.0
 10
108.0108497078316
 20
69.09448359465475
 30
0.0
  0
LINE
  5
1B0
330
1F
100
AcDbEntity
  8
0
  6
Continuous
 62
     7
370
    30
100
AcDbLine
 10
108.0108497078
 20
69.0944835947
 30
0.0
 11
108.0108497078
 21
63.0944835947
 31
0.0
  0
SPLINE
  5
1B1
330
1F
100
AcDbEntity
  8
0
  6
Continuous
 62
     7
370
    30
100
AcDbSpline
210
0.0
220
0.0
230
1.0
 70
     8
 71
     3
 72
    31
 73
    27
 74
     0
 42
0.000000001
 43
0.00000001
 40
0.0
 40
0.0
 40
0.0
 40
0.0
 40
0.0516298624687992
 40
0.1040298538787418
 40
0.1392701939367767
 40
0.1747595511523812
 40
0.2110492983443338
 40
0.2476250380806164
 40
0.2820982038397477
 40
0.3168316872821465
 40
0.3524025270576626
 40
0.388272175546913
 40
0.4541615392739483
 40
0.4875979847102432
 40
0.5214954981623409
 40
0.588760503438328
 40
0.622778117963695
 40
0.6571379046626111
 40
0.7066164641384641
 40
0.756473655787838
 40
0.807385056039411
 40
0.8586248862863793
 40
0.8937174541648852
 40
0.928909451787079
 40
0.9644037397526177
 40
1.0
 40
1.0
 40
1.0
 40
1.0
 10
108.0108497078316
 20
63.09448359465476
 30
0.0
 10
108.0097064547083
 20
63.05558052357615
 30
0.0
 10
108.0074028953015
 20
62.97719408971363
 30
0.0
 10
107.9905898669958
 20
62.87376455747445
 30
0.0
 10
107.9682783909973
 20
62.78468030790795
 30
0.0
 10
107.9429988258368
 20
62.70940809559124
 30
0.0
 10
107.9114812427026
 20
62.63599577875728
 30
0.0
 10
107.8742430968889
 20
62.56666647561972
 30
0.0
 10
107.8318161676569
 20
62.50216155730798
 30
0.0
 10
107.7843642520775
 20
62.44242270638454
 30
0.0
 10
107.7308791449508
 20
62.38660351644398
 30
0.0
 10
107.6550577076538
 20
62.32111227340138
 30
0.0
 10
107.5716560548282
 20
62.2664627002855
 30
0.0
 10
107.4832465395999
 20
62.22248334247694
 30
0.0
 10
107.3903219240535
 20
62.18450755859588
 30
0.0
 10
107.2925876563334
 20
62.15565179093264
 30
0.0
 10
107.1925788421692
 20
62.1346043428794
 30
0.0
 10
107.1049770148854
 20
62.12035808747152
 30
0.0
 10
107.0053153828659
 20
62.1090416036579
 30
0.0
 10
106.8940695096431
 20
62.10126831018933
 30
0.0
 10
106.7831873083306
 20
62.09702675584158
 30
0.0
 10
106.6853088893939
 20
62.0953282409606
 30
0.0
 10
106.6007835362759
 20
62.09470179193259
 30
0.0
 10
106.5289731333849
 20
62.0945126923809
 30
0.0
 10
106.4585988202369
 20
62.09448155125491
 30
0.0
 10
106.4133925807985
 20
62.09448291287044
 30
0.0
 10
106.3907570391646
 20
62.09448359465476
 30
0.0
  0
SPLINE
  5
1B2
330
1F
100
AcDbEntity
  8
0
  6
Continuous
 62
     7
370
    30
100
AcDbSpline
210
0.0
220
0.0
230
1.0
 70
     8
 71
     3
 72
    29
 73
    25
 74
     0
 42
0.000000001
 43
0.00000001
 40
0.0
 40
0.0
 40
0.0
 40
0.0
 40
0.0504092643325479
 40
0.1015335557466299
 40
0.1368028521662848
 40
0.1723211958967167
 40
0.2086397927454715
 40
0.2452441951667148
 40
0.2797636013468913
 40
0.3148226888378335
 40
0.350162193895846
 40
0.3860802808231825
 40
0.5189483885235097
 40
0.5692315154462843
 40
0.62014154718262
 40
0.6544673824714253
 40
0.7038022286487697
 40
0.7535150287588015
 40
0.8042787229703467
 40
0.8553690822565558
 40
0.8912580155323285
 40
0.9272533102168623
 40
0.963572072831533
 40
1.0
 40
1.0
 40
1.0
 40
1.0
 10
98.29019073634123
 20
69.09448359465475
 30
0.0
 10
98.2911935562756
 20
69.132447268964
 30
0.0
 10
98.29321342058144
 20
69.20891311096472
 30
0.0
 10
98.30806331489806
 20
69.31052786646235
 30
0.0
 10
98.32805444353711
 20
69.39884167423953
 30
0.0
 10
98.35112653701503
 20
69.47431146240889
 30
0.0
 10
98.3800817850612
 20
69.54796195302168
 30
0.0
 10
98.41451493816137
 20
69.61757705606195
 30
0.0
 10
98.45410303109408
 20
69.68257896936531
 30
0.0
 10
98.49856142531424
 20
69.74266370743032
 30
0.0
 10
98.54900855392631
 20
69.79884779392575
 30
0.0
 10
98.65568132741123
 20
69.89684642957472
 30
0.0
 10
98.79576817759286
 20
69.97555837207535
 30
0.0
 10
98.96002091456563
 20
70.02867694214171
 30
0.0
 10
99.05872138245478
 20
70.05126720697008
 30
0.0
 10
99.15839438999443
 20
70.06782819812773
 30
0.0
 10
99.25825054102054
 20
70.07938110939307
 30
0.0
 10
99.37067162404654
 20
70.08736294629838
 30
0.0
 10
99.48378617134321
 20
70.09176369810957
 30
0.0
 10
99.58528284736857
 20
70.09356791267898
 30
0.0
 10
99.67440766385721
 20
70.09424496333929
 30
0.0
 10
99.75148203894976
 20
70.09445175747727
 30
0.0
 10
99.82752864587167
 20
70.09448583037839
 30
0.0
 10
99.87684218008596
 20
70.09448434064116
 30
0.0
 10
99.90153594743308
 20
70.09448359465478
 30
0.0
  0
SPLINE
  5
1B3
330
1F
100
AcDbEntity
  8
0
  6
Continuous
 62
     7
370
    30
100
AcDbSpline
210
0.0
220
0.0
230
1.0
 70
     8
 71
     3
 72
    27
 73
    23
 74
     0
 42
0.000000001
 43
0.00000001
 40
0.0
 40
0.0
 40
0.0
 40
0.0
 40
0.0637658900242625
 40
0.1187381010328325
 40
0.1740946898782374
 40
0.2306930769188102
 40
0.2877585339125333
 40
0.3284047143998543
 40
0.3692731084367758
 40
0.4109162267799349
 40
0.4528754005420478
 40
0.5039409418260291
 40
0.5557744724361475
 40
0.5909031841890348
 40
0.624839179430598
 40
0.6939761835899986
 40
0.7292649223421954
 40
0.8612852404066478
 40
0.8953959225243779
 40
0.9646989854325315
 40
0.999962232485929
 40
1.0
 40
1.0
 40
1.0
 40
1.0
 10
99.9015359474331
 20
62.09448359465472
 30
0.0
 10
99.85805178427441
 20
62.09447627466455
 30
0.0
 10
99.77708017144975
 20
62.09446264415249
 30
0.0
 10
99.65263061352195
 20
62.09473789755078
 30
0.0
 10
99.53070308372263
 20
62.09608333051695
 30
0.0
 10
99.40501684591092
 20
62.09980312431635
 30
0.0
 10
99.28925322988941
 20
62.10694001606052
 30
0.0
 10
99.18542235523287
 20
62.11767046409287
 30
0.0
 10
99.0937933232056
 20
62.13123956329663
 30
0.0
 10
99.00254422763673
 20
62.14994436346979
 30
0.0
 10
98.90621590528208
 20
62.17658090846604
 30
0.0
 10
98.80665651837279
 20
62.21390280905266
 30
0.0
 10
98.71776992246824
 20
62.25954975959922
 30
0.0
 10
98.64560318057549
 20
62.30726272327168
 30
0.0
 10
98.56888386178902
 20
62.36872943777212
 30
0.0
 10
98.50132991988113
 20
62.44059817403782
 30
0.0
 10
98.40410321449546
 20
62.57816534308014
 30
0.0
 10
98.34561315619389
 20
62.71552166838214
 30
0.0
 10
98.30605829592157
 20
62.88560049170913
 30
0.0
 10
98.29271450265473
 20
62.98915512283687
 30
0.0
 10
98.29019134558045
 20
63.0678869005471
 30
0.0
 10
98.29019073699236
 20
63.09445517004703
 30
0.0
 10
98.29019073634124
 20
63.09448359465478
 30
0.0
  0
LINE
  5
1B4
330
1F
100
AcDbEntity
  8
0
  6
Continuous
 62
     7
370
    30
100
AcDbLine
 10
98.2901907363
 20
63.0944835947
 30
0.0
 11
98.2901907363
 21
69.0944835947
 31
0.0
  0
SPLINE
  5
1B5
330
1F
100
AcDbEntity
  8
0
  6
Continuous
 62
     7
370
    30
100
AcDbSpline
210
0.0
220
0.0
230
1.0
 70
     8
 71
     3
 72
    33
 73
    29
 74
     0
 42
0.000000001
 43
0.00000001
 40
0.0
 40
0.0
 40
0.0
 40
0.0
 40
0.0516244458512655
 40
0.1040189398475278
 40
0.1392555827536679
 40
0.1747412166923686
 40
0.2110271566365089
 40
0.2475990591207947
 40
0.282068608214197
 40
0.3167984476802932
 40
0.3523655556303646
 40
0.3882314409454093
 40
0.42097056319532
 40
0.4539395521616403
 40
0.4876046397331102
 40
0.5214985969126019
 40
0.5549662901442861
 40
0.5886240891009312
 40
0.6228176932513709
 40
0.6571738751794454
 40
0.7066472437363225
 40
0.7564992047434802
 40
0.8074052637531832
 40
0.8586397183018751
 40
0.8937286045316304
 40
0.9289169100736527
 40
0.964407474244986
 40
1.0
 40
1.0
 40
1.0
 40
1.0
 10
97.40667044825028
 20
63.09448359465478
 30
0.0
 10
97.40739054583553
 20
63.05558052359942
 30
0.0
 10
97.40884148223142
 20
62.97719408978374
 30
0.0
 10
97.4192237723055
 20
62.87376455722815
 30
0.0
 10
97.43246011418704
 20
62.78468030850315
 30
0.0
 10
97.44688300935968
 20
62.70940809330045
 30
0.0
 10
97.46397144143805
 20
62.6359957875573
 30
0.0
 10
97.48291440142314
 20
62.56666644331746
 30
0.0
 10
97.50292744931299
 20
62.50216167049793
 30
0.0
 10
97.52345596575738
 20
62.44242227521389
 30
0.0
 10
97.54431617217523
 20
62.38660517453598
 30
0.0
 10
97.56413228307103
 20
62.33691364552364
 30
0.0
 10
97.58217056930381
 20
62.29347233571683
 30
0.0
 10
97.59807336284176
 20
62.2557687720201
 30
0.0
 10
97.61186043219551
 20
62.22254554126214
 30
0.0
 10
97.62291646858812
 20
62.19404139196656
 30
0.0
 10
97.63081271990754
 20
62.17016445591832
 30
0.0
 10
97.63530218876507
 20
62.1505029572125
 30
0.0
 10
97.63613748866081
 20
62.13462427486179
 30
0.0
 10
97.6326504201277
 20
62.12035880193699
 30
0.0
 10
97.62242380245927
 20
62.10904138212578
 30
0.0
 10
97.60253926374526
 20
62.10126837118367
 30
0.0
 10
97.57390921304787
 20
62.09702673902947
 30
0.0
 10
97.54041447187655
 20
62.09532824392462
 30
0.0
 10
97.50522704943339
 20
62.09470179126598
 30
0.0
 10
97.47067996999718
 20
62.09451269256057
 30
0.0
 10
97.43243312773086
 20
62.09448155120969
 30
0.0
 10
97.40372963663638
 20
62.09448291285536
 30
0.0
 10
97.38935730494543
 20
62.09448359465476
 30
0.0
  0
LINE
  5
1B6
330
1F
100
AcDbEntity
  8
0
  6
Continuous
 62
     7
370
    30
100
AcDbLine
 10
97.4066704483
 20
63.0944835947
 30
0.0
 11
98.2901907363
 21
63.0944835947
 31
0.0
  0
LINE
  5
1B7
330
1F
100
AcDbEntity
  8
0
  6
Continuous
 62
     7
370
    30
100
AcDbLine
 10
97.3893573049
 20
62.0944835947
 30
0.0
 11
99.9015359474
 21
62.0944835947
 31
0.0
  0
LINE
  5
1B8
330
1F
100
AcDbEntity
  8
0
  6
Continuous
 62
     7
370
    30
100
AcDbLine
 10
97.4066704483
 20
69.0944835947
 30
0.0
 11
98.2901907363
 21
69.0944835947
 31
0.0
  0
SPLINE
  5
1B9
330
1F
100
AcDbEntity
  8
0
  6
Continuous
 62
     7
370
    30
100
AcDbSpline
210
0.0
220
0.0
230
1.0
 70
     8
 71
     3
 72
    33
 73
    29
 74
     0
 42
0.000000001
 43
0.00000001
 40
0.0
 40
0.0
 40
0.0
 40
0.0
 40
0.0599126113067604
 40
0.1148401970944253
 40
0.1701513400546331
 40
0.2266993646297936
 40
0.2837107268524574
 40
0.324559860488318
 40
0.3656322649237763
 40
0.4074830477876445
 40
0.449651677049581
 40
0.4836284551036532
 40
0.517820077595709
 40
0.5527278016873112
 40
0.5879036031339561
 40
0.6218870636499318
 40
0.6561315479137619
 40
0.6911945098781975
 40
0.7265393500047024
 40
0.7591045213922292
 40
0.7918833056464932
 40
0.8253148303774682
 40
0.8589652454880744
 40
0.8930212218202664
 40
0.9272994891912543
 40
0.9622689924444655
 40
0.997474350943633
 40
1.0
 40
1.0
 40
1.0
 40
1.0
 10
97.38935730494539
 20
70.09448359465478
 30
0.0
 10
97.41316185257875
 20
70.09448922601851
 30
0.0
 10
97.45879029177266
 20
70.09450002018866
 30
0.0
 10
97.51401782458589
 20
70.09427038839618
 30
0.0
 10
97.55921929456551
 20
70.09303472474015
 30
0.0
 10
97.59463301718121
 20
70.08952627377002
 30
0.0
 10
97.61736426198416
 20
70.0826890907276
 30
0.0
 10
97.63016602108145
 20
70.07229527247512
 30
0.0
 10
97.63587742428071
 20
70.05903188659644
 30
0.0
 10
97.63589508808231
 20
70.0406527858631
 30
0.0
 10
97.63059995092254
 20
70.01772708439564
 30
0.0
 10
97.62144953826949
 20
69.99093315811209
 30
0.0
 10
97.60969146480416
 20
69.96108059100152
 30
0.0
 10
97.59491245868715
 20
69.92569325848703
 30
0.0
 10
97.57776411106876
 20
69.88500729433514
 30
0.0
 10
97.55897166320982
 20
69.8393464388984
 30
0.0
 10
97.53909314967882
 20
69.78873167570785
 30
0.0
 10
97.51848292443015
 20
69.73257716868986
 30
0.0
 10
97.49841278222631
 20
69.67283130242171
 30
0.0
 10
97.47959997556092
 20
69.61060690613724
 30
0.0
 10
97.4623979576621
 20
69.54637325119133
 30
0.0
 10
97.44674180789308
 20
69.47860139176841
 30
0.0
 10
97.43307279043951
 20
69.40752330202383
 30
0.0
 10
97.42186291586344
 20
69.3338479015255
 30
0.0
 10
97.4134189947067
 20
69.2576687042595
 30
0.0
 10
97.40808751993374
 20
69.17956836186514
 30
0.0
 10
97.40670138909539
 20
69.12480253775557
 30
0.0
 10
97.4066723894377
 20
69.096385764792
 30
0.0
 10
97.40667044825027
 20
69.09448359465475
 30
0.0
  0
LINE
  5
1BA
330
1F
100
AcDbEntity
  8
0
  6
Continuous
 62
     7
370
    30
100
AcDbLine
 10
97.3893573049
 20
70.0944835947
 30
0.0
 11
99.9015359474
 21
70.0944835947
 31
0.0
  0
SPLINE
  5
1BB
330
1F
100
AcDbEntity
  8
0
  6
Continuous
 62
     7
370
    30
100
AcDbSpline
210
0.0
220
0.0
230
1.0
 70
     8
 71
     3
 72
    33
 73
    29
 74
     0
 42
0.000000001
 43
0.00000001
 40
0.0
 40
0.0
 40
0.0
 40
0.0
 40
0.0503789816151901
 40
0.1014725607686031
 40
0.1367206696119449
 40
0.1722176761540993
 40
0.2085144550728058
 40
0.2450968678699818
 40
0.2795955369607689
 40
0.3143546273718275
 40
0.3499518255406255
 40
0.3858483351391118
 40
0.4186081153224331
 40
0.4515985857893393
 40
0.4852886205038265
 40
0.5192090633783223
 40
0.5526231464719488
 40
0.5862277321553647
 40
0.6203697422637056
 40
0.6546749567483561
 40
0.703980165651237
 40
0.7536631014358427
 40
0.8043963000108392
 40
0.8554559674206635
 40
0.8913233408812428
 40
0.9272970118553409
 40
0.9635939564403714
 40
1.0
 40
1.0
 40
1.0
 40
1.0
 10
108.7980345362357
 20
69.09448359465475
 30
0.0
 10
108.7972282606298
 20
69.13244726898479
 30
0.0
 10
108.7956042728518
 20
69.20891311102743
 30
0.0
 10
108.7838705516628
 20
69.31052786624032
 30
0.0
 10
108.7686192218728
 20
69.39884167479138
 30
0.0
 10
108.7516183929687
 20
69.47431146028681
 30
0.0
 10
108.7312219352713
 20
69.54796196117285
 30
0.0
 10
108.7082800924007
 20
69.61757702613514
 30
0.0
 10
108.6836273845005
 20
69.68240821572068
 30
0.0
 10
108.6578313478576
 20
69.74250906013029
 30
0.0
 10
108.630962702908
 20
69.79871369573183
 30
0.0
 10
108.6046144767488
 20
69.84879586068804
 30
0.0
 10
108.5796561848047
 20
69.89262031992027
 30
0.0
 10
108.5565149570266
 20
69.93069477834095
 30
0.0
 10
108.5349830248531
 20
69.96428387654267
 30
0.0
 10
108.5157982037916
 20
69.99311416336843
 30
0.0
 10
108.4994939540737
 20
70.01728055190658
 30
0.0
 10
108.4863504946432
 20
70.03720126242924
 30
0.0
 10
108.476610914525
 20
70.05332305719054
 30
0.0
 10
108.4696881781604
 20
70.06783028128682
 30
0.0
 10
108.4680090086227
 20
70.0793804638887
 30
0.0
 10
108.4744851017532
 20
70.0873631240142
 30
0.0
 10
108.4896283550253
 20
70.09176364916539
 30
0.0
 10
108.5112461952363
 20
70.09356792155441
 30
0.0
 10
108.5363985438292
 20
70.09424496131676
 30
0.0
 10
108.5628150272662
 20
70.09445175802264
 30
0.0
 10
108.5932528444753
 20
70.09448583024106
 30
0.0
 10
108.6170843191409
 20
70.09448434059532
 30
0.0
 10
108.6290179373718
 20
70.09448359465476
 30
0.0
  0
LINE
  5
1BC
330
1F
100
AcDbEntity
  8
0
  6
Continuous
 62
     7
370
    30
100
AcDbLine
 10
108.0108497078
 20
69.0944835947
 30
0.0
 11
108.7980345362
 21
69.0944835947
 31
0.0
  0
LINE
  5
1BD
330
1F
100
AcDbEntity
  8
0
  6
Continuous
 62
     7
370
    30
100
AcDbLine
 10
106.3907570392
 20
70.0944835947
 30
0.0
 11
108.6290179374
 21
70.0944835947
 31
0.0
  0
SPLINE
  5
1BE
330
1F
100
AcDbEntity
  8
0
  6
Continuous
 62
     7
370
    30
100
AcDbSpline
210
0.0
220
0.0
230
1.0
 70
     8
 71
     3
 72
    33
 73
    29
 74
     0
 42
0.000000001
 43
0.00000001
 40
0.0
 40
0.0
 40
0.0
 40
0.0
 40
0.0637214773013383
 40
0.1186554003541356
 40
0.1739734335259299
 40
0.2305323999847253
 40
0.2875581110840609
 40
0.3281759816465646
 40
0.369015910987693
 40
0.4106300250422549
 40
0.4525599743842586
 40
0.4864658625394493
 40
0.5205868214439057
 40
0.5554236303413048
 40
0.5905278750673689
 40
0.6244402340050427
 40
0.6586120858637063
 40
0.6935966931005518
 40
0.7288608533676664
 40
0.7614361030005068
 40
0.7942247267961567
 40
0.8276654202941472
 40
0.8613248049117247
 40
0.8954117290567535
 40
0.9297213178002949
 40
0.9647235724676791
 40
0.9999622587908726
 40
1.0
 40
1.0
 40
1.0
 40
1.0
 10
108.6290179373719
 20
62.09448359465476
 30
0.0
 10
108.6086231248903
 20
62.09447627472094
 30
0.0
 10
108.5706460605999
 20
62.0944626443138
 30
0.0
 10
108.5289015066599
 20
62.09473789700652
 30
0.0
 10
108.4981775487769
 20
62.09608333260358
 30
0.0
 10
108.4777771640123
 20
62.09980311630251
 30
0.0
 10
108.4689860008667
 20
62.1069400425506
 30
0.0
 10
108.4687404899068
 20
62.1176703961539
 30
0.0
 10
108.4741112674228
 20
62.13123982335211
 30
0.0
 10
108.485098601453
 20
62.14994336861486
 30
0.0
 10
108.5005048128412
 20
62.17319493831467
 30
0.0
 10
108.5188018014382
 20
62.20031771929386
 30
0.0
 10
108.5387979894634
 20
62.23051658772866
 30
0.0
 10
108.5614984631769
 20
62.26624769012061
 30
0.0
 10
108.58606284613
 20
62.30725748514028
 30
0.0
 10
108.611681575331
 20
62.35320936298136
 30
0.0
 10
108.6377975018769
 20
62.40407391400525
 30
0.0
 10
108.6640953614641
 20
62.4604328419409
 30
0.0
 10
108.6891312901787
 20
62.5203770135275
 30
0.0
 10
108.7121965360605
 20
62.58280908645521
 30
0.0
 10
108.7329975066114
 20
62.64727350796753
 30
0.0
 10
108.7516888144627
 20
62.71524768946754
 30
0.0
 10
108.7678248720817
 20
62.78651364302197
 30
0.0
 10
108.7809144038239
 20
62.8603626111066
 30
0.0
 10
108.7906466385498
 20
62.93670222415833
 30
0.0
 10
108.7966696922189
 20
63.01493124249782
 30
0.0
 10
108.7980340497298
 20
63.06788690458584
 30
0.0
 10
108.7980345357157
 20
63.09445517005133
 30
0.0
 10
108.7980345362357
 20
63.09448359465476
 30
0.0
  0
LINE
  5
1BF
330
1F
100
AcDbEntity
  8
0
  6
Continuous
 62
     7
370
    30
100
AcDbLine
 10
108.0108497078
 20
63.0944835947
 30
0.0
 11
108.7980345362
 21
63.0944835947
 31
0.0
  0
LINE
  5
1C0
330
1F
100
AcDbEntity
  8
0
  6
Continuous
 62
     7
370
    30
100
AcDbLine
 10
106.3907570392
 20
62.0944835947
 30
0.0
 11
108.6290179374
 21
62.0944835947
 31
0.0
  0
LINE
  5
1C1
330
1F
100
AcDbEntity
  8
0
  6
Continuous
 62
     7
370
    30
100
AcDbLine
 10
97.4066704483
 20
69.0944835947
 30
0.0
 11
97.4066704483
 21
63.0944835947
 31
0.0
  0
LINE
  5
1C2
330
1F
100
AcDbEntity
  8
0
  6
Continuous
 62
     7
370
    30
100
AcDbLine
 10
108.7980345362
 20
63.0944835947
 30
0.0
 11
108.7980345362
 21
69.0944835947
 31
0.0
  0
SPLINE
  5
1C3
330
1F
100
AcDbEntity
  8
0
  6
Continuous
 62
     7
370
    30
100
AcDbSpline
210
0.0
220
0.0
230
1.0
 70
     8
 71
     3
 72
    21
 73
    17
 74
     0
 42
0.000000001
 43
0.00000001
 40
0.0
 40
0.0
 40
0.0
 40
0.0
 40
0.0504143689780812
 40
0.1015438374442256
 40
0.1722762600773836
 40
0.2451349172732588
 40
0.3143759227867506
 40
0.3858448835038935
 40
0.4515838532506556
 40
0.5191848171962634
 40
0.5862036925481953
 40
0.6546589649975648
 40
0.7536244942222177
 40
0.8554082415105505
 40
0.9272732194077545
 40
1.0
 40
1.0
 40
1.0
 40
1.0
 10
95.90938311844158
 20
69.09448359465473
 30
0.0
 10
95.91066002917749
 20
69.13244940389662
 30
0.0
 10
95.91323196291042
 20
69.20891954604541
 30
0.0
 10
95.93672143534616
 20
69.33683358102779
 30
0.0
 10
95.98244377104643
 20
69.47660375512883
 30
0.0
 10
96.0583696805842
 20
69.61852014572585
 30
0.0
 10
96.1580251924034
 20
69.74561705217717
 30
0.0
 10
96.27403952769198
 20
69.85016809516056
 30
0.0
 10
96.40334622313746
 20
69.93357967337847
 30
0.0
 10
96.53820845949255
 20
69.99543223619631
 30
0.0
 10
96.67779413043368
 20
70.0393471903569
 30
0.0
 10
96.83674545311605
 20
70.07172811538497
 30
0.0
 10
97.01049396707104
 20
70.08923079475012
 30
0.0
 10
97.1683482130017
 20
70.09389704998863
 30
0.0
 10
97.29517782307337
 20
70.09452143422995
 30
0.0
 10
97.35783965098297
 20
70.09449625786561
 30
0.0
 10
97.38935730494539
 20
70.09448359465478
 30
0.0
  0
SPLINE
  5
1C4
330
1F
100
AcDbEntity
  8
0
  6
Continuous
 62
     7
370
    30
100
AcDbSpline
210
0.0
220
0.0
230
1.0
 70
     8
 71
     3
 72
    21
 73
    17
 74
     0
 42
0.000000001
 43
0.00000001
 40
0.0
 40
0.0
 40
0.0
 40
0.0
 40
0.063774442049745
 40
0.174021759270075
 40
0.2875821352296715
 40
0.3690508783744871
 40
0.4525835359294158
 40
0.5206123596128265
 40
0.5905441493853911
 40
0.6586200153382195
 40
0.7288575478453906
 40
0.7942226635371109
 40
0.8613240753926071
 40
0.9297219302374262
 40
0.9999622274207522
 40
1.0
 40
1.0
 40
1.0
 40
1.0
 10
97.38935730494543
 20
62.09448359465476
 30
0.0
 10
97.36184661613628
 20
62.09448071302817
 30
0.0
 10
97.28677801010178
 20
62.09447284991382
 30
0.0
 10
97.13568324478682
 20
62.09501058971065
 30
0.0
 10
96.95108874370804
 20
62.10373615238081
 30
0.0
 10
96.76725125557844
 20
62.12890806453841
 30
0.0
 10
96.60724502008021
 20
62.16876056486691
 30
0.0
 10
96.45615880137463
 20
62.22829162993014
 30
0.0
 10
96.32199834375687
 20
62.30434709081877
 30
0.0
 10
96.1990914045196
 20
62.40235348363645
 30
0.0
 10
96.09629111722677
 20
62.51716010678915
 30
0.0
 10
96.0145044454612
 20
62.64659764831479
 30
0.0
 10
95.9550716972108
 20
62.78616072318505
 30
0.0
 10
95.91785659201652
 20
62.93700878884151
 30
0.0
 10
95.90938464916044
 20
63.04156955981516
 30
0.0
 10
95.90938311926386
 20
63.09445517005641
 30
0.0
 10
95.90938311844158
 20
63.09448359465473
 30
0.0
  0
LINE
  5
1C5
330
1F
100
AcDbEntity
  8
0
  6
Continuous
 62
     7
370
    30
100
AcDbLine
 10
95.9093831184
 20
63.0944835947
 30
0.0
 11
95.9093831184
 21
69.0944835947
 31
0.0
  0
SPLINE
  5
1C6
330
1F
100
AcDbEntity
  8
0
  6
Continuous
 62
     7
370
    30
100
AcDbSpline
210
0.0
220
0.0
230
1.0
 70
     8
 71
     3
 72
    21
 73
    17
 74
     0
 42
0.000000001
 43
0.00000001
 40
0.0
 40
0.0
 40
0.0
 40
0.0
 40
0.0599624534231071
 40
0.1701967769978306
 40
0.2837328632693786
 40
0.3656654847412086
 40
0.4496734123246036
 40
0.5178439986663377
 40
0.587918246702689
 40
0.6561376175876598
 40
0.7265337816453757
 40
0.7918789503636136
 40
0.8589622100662807
 40
0.9272978893351728
 40
0.9974722498218266
 40
1.0
 40
1.0
 40
1.0
 40
1.0
 10
108.6290179373718
 20
70.09448359465476
 30
0.0
 10
108.6503926777776
 20
70.09448506184893
 30
0.0
 10
108.7110625089561
 20
70.09448922631694
 30
0.0
 10
108.8403353783126
 20
70.09405794078452
 30
0.0
 10
109.00712303852
 20
70.08579830873366
 30
0.0
 10
109.1783280145344
 20
70.06135875711567
 30
0.0
 10
109.3306015980123
 20
70.02217138723275
 30
0.0
 10
109.4765952914627
 20
69.96331372391118
 30
0.0
 10
109.6078437369087
 20
69.88792969372987
 30
0.0
 10
109.7295840894383
 20
69.79047482791415
 30
0.0
 10
109.832455323455
 20
69.67611406947333
 30
0.0
 10
109.9150198089841
 20
69.54706551141786
 30
0.0
 10
109.9755413204779
 20
69.40790898841216
 30
0.0
 10
110.0138987810036
 20
69.25738036689499
 30
0.0
 10
110.0232931019489
 20
69.1510945261399
 30
0.0
 10
110.0233990882745
 20
69.09638574216034
 30
0.0
 10
110.02340277327
 20
69.09448359465475
 30
0.0
  0
LINE
  5
1C7
330
1F
100
AcDbEntity
  8
0
  6
Continuous
 62
     7
370
    30
100
AcDbLine
 10
110.0234027733
 20
69.0944835947
 30
0.0
 11
110.0234027733
 21
63.0944835947
 31
0.0
  0
SPLINE
  5
1C8
330
1F
100
AcDbEntity
  8
0
  6
Continuous
 62
     7
370
    30
100
AcDbSpline
210
0.0
220
0.0
230
1.0
 70
     8
 71
     3
 72
    21
 73
    17
 74
     0
 42
0.000000001
 43
0.00000001
 40
0.0
 40
0.0
 40
0.0
 40
0.0
 40
0.0516605166774995
 40
0.1040916195449561
 40
0.1748008978361575
 40
0.2476378351087939
 40
0.316820208031912
 40
0.388228292666004
 40
0.4539250676892136
 40
0.5214747055228635
 40
0.5886003366687463
 40
0.6571581443249978
 40
0.7564605009271919
 40
0.8585912567069927
 40
0.9288927353348729
 40
1.0
 40
1.0
 40
1.0
 40
1.0
 10
110.02340277327
 20
63.09448359465472
 30
0.0
 10
110.0220469661432
 20
63.05557828243419
 30
0.0
 10
110.0193151282001
 20
62.97718733285814
 30
0.0
 10
109.9946359491071
 20
62.84748607577731
 30
0.0
 10
109.9474189652156
 20
62.70709875424041
 30
0.0
 10
109.8704542622111
 20
62.56571413097589
 30
0.0
 10
109.7705200235828
 20
62.43930854440694
 30
0.0
 10
109.6554808924296
 20
62.33552576196161
 30
0.0
 10
109.528786488754
 20
62.25289550374068
 30
0.0
 10
109.3981961745424
 20
62.19171119483788
 30
0.0
 10
109.2647794404692
 20
62.14836965188404
 30
0.0
 10
109.1148965357851
 20
62.11649830335138
 30
0.0
 10
108.9543601753894
 20
62.09943057090548
 30
0.0
 10
108.8138673680661
 20
62.09502722962974
 30
0.0
 10
108.7053500412486
 20
62.09444876220956
 30
0.0
 10
108.6545584468373
 20
62.09447193981556
 30
0.0
 10
108.6290179373719
 20
62.09448359465476
 30
0.0
  0
SPLINE
  5
1C9
330
1F
100
AcDbEntity
  8
0
  6
Continuous
 62
     7
370
    30
100
AcDbSpline
210
0.0
220
0.0
230
1.0
 70
     8
 71
     3
 72
    32
 73
    28
 74
     0
 42
0.000000001
 43
0.00000001
 40
0.0
 40
0.0
 40
0.0
 40
0.0
 40
0.0268049128378024
 40
0.0808855541678994
 40
0.1081916388619299
 40
0.1448332984008409
 40
0.2005609059807018
 40
0.238441391907035
 40
0.2574804104310963
 40
0.3114558083011153
 40
0.3849563678706766
 40
0.4036290789234074
 40
0.449052812998145
 40
0.4719505767235441
 40
0.4944907607714838
 40
0.5421962991340775
 40
0.5886253426156791
 40
0.6119925351296921
 40
0.6350595413084367
 40
0.6832709972245737
 40
0.7089744858544026
 40
0.7606204499359459
 40
0.8130094028033623
 40
0.8661171615899977
 40
0.8927817837971121
 40
0.9475905580843003
 40
1.0
 40
1.0
 40
1.0
 40
1.0
 10
95.53782451839787
 20
63.09448359465473
 30
0.0
 10
95.53813553784975
 20
63.07506895575299
 30
0.0
 10
95.53907405911544
 20
63.01648403007018
 30
0.0
 10
95.54778441434188
 20
62.93846571288626
 30
0.0
 10
95.56354159831888
 20
62.85486317885115
 30
0.0
 10
95.58481229695644
 20
62.77158413091073
 30
0.0
 10
95.61581693636333
 20
62.68407116083717
 30
0.0
 10
95.648835502977
 20
62.61231037869069
 30
0.0
 10
95.68466799462375
 20
62.54443745616833
 30
0.0
 10
95.73734927599226
 20
62.45972368371046
 30
0.0
 10
95.7971997956409
 20
62.38556061783544
 30
0.0
 10
95.85587429645852
 20
62.32418636290948
 30
0.0
 10
95.89379841826128
 20
62.28903973041911
 30
0.0
 10
95.93343783680625
 20
62.25660408723012
 30
0.0
 10
95.97385494476728
 20
62.22621581778527
 30
0.0
 10
96.02358629673998
 20
62.19362342894782
 30
0.0
 10
96.07113395507612
 20
62.16777492502646
 30
0.0
 10
96.10663294095889
 20
62.15101958257612
 30
0.0
 10
96.14125732390585
 20
62.1362575702934
 30
0.0
 10
96.1740814276886
 20
62.12449389647504
 30
0.0
 10
96.21249094232226
 20
62.11298558495299
 30
0.0
 10
96.24761853124772
 20
62.1046264643602
 30
0.0
 10
96.28218578745684
 20
62.09878027180211
 30
0.0
 10
96.30431411348384
 20
62.09634265702493
 30
0.0
 10
96.32110125284132
 20
62.09501688524973
 30
0.0
 10
96.33333231061363
 20
62.09452445247962
 30
0.0
 10
96.33352052160832
 20
62.09452321132695
 30
0.0
 10
96.33361252121011
 20
62.09452260463789
 30
0.0
  0
LINE
  5
1CA
330
1F
100
AcDbEntity
  8
0
  6
Continuous
 62
     7
370
    30
100
AcDbLine
 10
96.3346542417
 20
62.094483815
 30
0.0
 11
96.3328772308
 21
62.0944835947
 31
0.0
  0
LINE
  5
1CB
330
1F
100
AcDbEntity
  8
0
  6
Continuous
 62
     7
370
    30
100
AcDbLine
 10
95.5378245184
 20
63.0944835947
 30
0.0
 11
95.9093831184
 21
63.0944835947
 31
0.0
  0
LINE
  5
1CC
330
1F
100
AcDbEntity
  8
0
  6
Continuous
 62
     7
370
    30
100
AcDbLine
 10
96.3328772308
 20
62.0944835947
 30
0.0
 11
97.3893573049
 21
62.0944835947
 31
0.0
  0
LINE
  5
1CD
330
1F
100
AcDbEntity
  8
0
  6
Continuous
 62
     7
370
    30
100
AcDbLine
 10
95.5378245184
 20
69.0944835947
 30
0.0
 11
95.9093831184
 21
69.0944835947
 31
0.0
  0
SPLINE
  5
1CE
330
1F
100
AcDbEntity
  8
0
  6
Continuous
 62
     7
370
    30
100
AcDbSpline
210
0.0
220
0.0
230
1.0
 70
     8
 71
     3
 72
    24
 73
    20
 74
     0
 42
0.000000001
 43
0.00000001
 40
0.0
 40
0.0
 40
0.0
 40
0.0
 40
0.0225622520737179
 40
0.1084299423347004
 40
0.1666190966427666
 40
0.2553437222556881
 40
0.319178859158753
 40
0.3623143851908746
 40
0.4279524690171583
 40
0.4990678939451545
 40
0.5716705854901536
 40
0.6249132389362115
 40
0.7157363777288509
 40
0.8182850865545652
 40
0.8532968364299321
 40
0.9065305883417656
 40
0.9425544555328849
 40
0.9973721752690474
 40
1.0
 40
1.0
 40
1.0
 40
1.0
 10
96.33395335994842
 20
70.09446558424435
 30
0.0
 10
96.33431240749641
 20
70.09446463952621
 30
0.0
 10
96.3360379225202
 20
70.09446009938844
 30
0.0
 10
96.32212619758143
 20
70.09419111882286
 30
0.0
 10
96.28942838207828
 20
70.09129007255144
 30
0.0
 10
96.24319469970504
 20
70.0840721301815
 30
0.0
 10
96.18621255098329
 20
70.06879731347624
 30
0.0
 10
96.12789554477575
 20
70.04787563196646
 30
0.0
 10
96.05942729158406
 20
70.01660131337157
 30
0.0
 10
95.97138253313152
 20
69.96324695796933
 30
0.0
 10
95.8847579436867
 20
69.89400295164083
 30
0.0
 10
95.79147773186344
 20
69.79940909360998
 30
0.0
 10
95.6929954104923
 20
69.6686414996669
 30
0.0
 10
95.62165859826602
 20
69.52432962316354
 30
0.0
 10
95.57848346902084
 20
69.39551886373332
 30
0.0
 10
95.55744133771972
 20
69.30856955755036
 30
0.0
 10
95.54198076016056
 20
69.20569255913595
 30
0.0
 10
95.53789870280634
 20
69.13796769915118
 30
0.0
 10
95.53782776349007
 20
69.09638574542014
 30
0.0
 10
95.53782451839784
 20
69.09448359465475
 30
0.0
  0
LINE
  5
1CF
330
1F
100
AcDbEntity
  8
0
  6
Continuous
 62
     7
370
    30
100
AcDbLine
 10
96.3328772308
 20
70.0944835947
 30
0.0
 11
97.3893573049
 21
70.0944835947
 31
0.0
  0
SPLINE
  5
1D0
330
1F
100
AcDbEntity
  8
0
  6
Continuous
 62
     7
370
    30
100
AcDbSpline
210
0.0
220
0.0
230
1.0
 70
     8
 71
     3
 72
    26
 73
    22
 74
     0
 42
0.000000001
 43
0.00000001
 40
0.0
 40
0.0
 40
0.0
 40
0.0
 40
0.0606375022324264
 40
0.1221351133521315
 40
0.1645606886644849
 40
0.2072858439660175
 40
0.2509736268895075
 40
0.2950052064596964
 40
0.3365287358550447
 40
0.3783657153814439
 40
0.4212114640294367
 40
0.4644174719939958
 40
0.5434871302199115
 40
0.584037365451193
 40
0.6248649261636471
 40
0.7464070187530722
 40
0.7876977009622443
 40
0.8470427813720125
 40
0.9068425040532052
 40
0.9679063513803386
 40
1.0
 40
1.0
 40
1.0
 40
1.0
 10
110.2633646880961
 20
69.09448359465472
 30
0.0
 10
110.2621650230285
 20
69.13244726900763
 30
0.0
 10
110.2597486763187
 20
69.20891311109631
 30
0.0
 10
110.2421620277537
 20
69.31052786599697
 30
0.0
 10
110.2189584265036
 20
69.39884167539684
 30
0.0
 10
110.1926992227608
 20
69.47431145795935
 30
0.0
 10
110.1605577762235
 20
69.54796197011387
 30
0.0
 10
110.1234728771589
 20
69.61757699330921
 30
0.0
 10
110.0823813558944
 20
69.68240833081737
 30
0.0
 10
110.0378214772198
 20
69.74250862170611
 30
0.0
 10
109.9893453586534
 20
69.79871538172905
 30
0.0
 10
109.9234205310541
 20
69.86460793867049
 30
0.0
 10
109.8551009030818
 20
69.91979501911385
 30
0.0
 10
109.7876638785307
 20
69.96428050454685
 30
0.0
 10
109.7033434240461
 20
70.01239776217683
 30
0.0
 10
109.6226554573012
 20
70.04511510848413
 30
0.0
 10
109.5449276989718
 20
70.06782215755814
 30
0.0
 10
109.4934530500579
 20
70.07939755723875
 30
0.0
 10
109.4431799648546
 20
70.08730476824586
 30
0.0
 10
109.4056923867552
 20
70.09123148524
 30
0.0
 10
109.3883299743799
 20
70.0921702764045
 30
0.0
 10
109.3823484572052
 20
70.09249369894238
 30
0.0
  0
LINE
  5
1D1
330
1F
100
AcDbEntity
  8
0
  6
Continuous
 62
     7
370
    30
100
AcDbLine
 10
110.0234027733
 20
69.0944835947
 30
0.0
 11
110.2633646881
 21
69.0944835947
 31
0.0
  0
LINE
  5
1D2
330
1F
100
AcDbEntity
  8
0
  6
Continuous
 62
     7
370
    30
100
AcDbLine
 10
108.6290179374
 20
70.0944835947
 30
0.0
 11
109.3220983225
 21
70.0944835947
 31
0.0
  0
ARC
  5
1D3
330
1F
100
AcDbEntity
  8
0
  6
Continuous
 62
     7
370
    30
100
AcDbCircle
 10
109.2909792275
 20
63.0649140215
 30
0.0
 40
0.9728349519452363
100
AcDbArc
 50
275.3450571487
 51
1.74178849
  0
LINE
  5
1D4
330
1F
100
AcDbEntity
  8
0
  6
Continuous
 62
     7
370
    30
100
AcDbLine
 10
110.0234027733
 20
63.0944835947
 30
0.0
 11
110.2633646881
 21
63.0944835947
 31
0.0
  0
LINE
  5
1D5
330
1F
100
AcDbEntity
  8
0
  6
Continuous
 62
     7
370
    30
100
AcDbLine
 10
108.6290179374
 20
62.0944835947
 30
0.0
 11
109.3220983225
 21
62.0944835947
 31
0.0
  0
LINE
  5
1D6
330
1F
100
AcDbEntity
  8
0
  6
Continuous
 62
     7
370
    30
100
AcDbLine
 10
95.5378245184
 20
69.0944835947
 30
0.0
 11
95.5378245184
 21
63.0944835947
 31
0.0
  0
LINE
  5
1D7
330
1F
100
AcDbEntity
  8
0
  6
Continuous
 62
     7
370
    30
100
AcDbLine
 10
110.2633646881
 20
63.0944835947
 30
0.0
 11
110.2633646881
 21
69.0944835947
 31
0.0
  0
SPLINE
  5
1D8
330
1F
100
AcDbEntity
  8
0
  6
Continuous
 62
     7
370
    30
100
AcDbSpline
210
0.0
220
0.0
230
1.0
 70
     8
 71
     3
 72
    35
 73
    31
 74
     0
 42
0.000000001
 43
0.00000001
 40
0.0
 40
0.0
 40
0.0
 40
0.0
 40
0.0251577396857596
 40
0.0758935934261085
 40
0.1014985660268717
 40
0.136747935989948
 40
0.1903574238281826
 40
0.2267973748893616
 40
0.2451122267144505
 40
0.2796121301112356
 40
0.3321317844084572
 40
0.3678792274770271
 40
0.3858519501208619
 40
0.4295631248224884
 40
0.4515981501563745
 40
0.473288164838552
 40
0.5192041073795594
 40
0.5637829991747895
 40
0.5862195881280307
 40
0.6083669435578394
 40
0.6546647591842967
 40
0.6792994907679103
 40
0.7287982956719771
 40
0.7790092955360061
 40
0.8299086857624332
 40
0.8554642002840711
 40
0.8733935381484211
 40
0.9274090953791571
 40
0.9817877694186451
 40
0.9999999999999999
 40
0.9999999999999999
 40
0.9999999999999999
 40
0.9999999999999999
 10
95.38083195698688
 20
69.09448359465475
 30
0.0
 10
95.3811442852652
 20
69.11343111419234
 30
0.0
 10
95.38208648896337
 20
69.17059027722446
 30
0.0
 10
95.39082854062436
 20
69.24671406096397
 30
0.0
 10
95.40679996879192
 20
69.32899453360297
 30
0.0
 10
95.42873060235164
 20
69.41196446526337
 30
0.0
 10
95.46117436778104
 20
69.49972054624503
 30
0.0
 10
95.4960155318001
 20
69.57173800406504
 30
0.0
 10
95.5278141406468
 20
69.62876238652557
 30
0.0
 10
95.56870312520599
 20
69.69328154078617
 30
0.0
 10
95.6220776721101
 20
69.76244887281217
 30
0.0
 10
95.67194617252689
 20
69.81610448426392
 30
0.0
 10
95.71916428998719
 20
69.86163575821516
 30
0.0
 10
95.7609732062911
 20
69.89709373365706
 30
0.0
 10
95.80511191847857
 20
69.92985325607343
 30
0.0
 10
95.85044019620037
 20
69.96056957513363
 30
0.0
 10
95.90682766989156
 20
69.99352424193897
 30
0.0
 10
95.96172474849476
 20
70.01969973851487
 30
0.0
 10
96.00333492916583
 20
70.0366801545727
 30
0.0
 10
96.04441032640574
 20
70.05166194685017
 30
0.0
 10
96.0841482051907
 20
70.0636243656371
 30
0.0
 10
96.13183564377081
 20
70.07535322448014
 30
0.0
 10
96.17688042602474
 20
70.08390628822137
 30
0.0
 10
96.22397429709653
 20
70.08993786133658
 30
0.0
 10
96.25690797206757
 20
70.0924836942894
 30
0.0
 10
96.2775473485956
 20
70.09351386201044
 30
0.0
 10
96.29656300860057
 20
70.09420196685947
 30
0.0
 10
96.31613266049511
 20
70.09448394750567
 30
0.0
 10
96.328360094209
 20
70.09448310179403
 30
0.0
 10
96.33197123639518
 20
70.09448349580249
 30
0.0
 10
96.33287723081004
 20
70.09448359465473
 30
0.0
  0
SPLINE
  5
1D9
330
1F
100
AcDbEntity
  8
0
  6
Continuous
 62
     7
370
    30
100
AcDbSpline
210
0.0
220
0.0
230
1.0
 70
     8
 71
     3
 72
    26
 73
    22
 74
     0
 42
0.000000001
 43
0.00000001
 40
0.0
 40
0.0
 40
0.0
 40
0.0
 40
0.0318473759807374
 40
0.063768275177044
 40
0.1463437420686416
 40
0.202304147522657
 40
0.2591181068522805
 40
0.2876832500257924
 40
0.3487162191258237
 40
0.3899583824631966
 40
0.4527153580647826
 40
0.5209544337265641
 40
0.5906229965086148
 40
0.6589428164329719
 40
0.7288832125001399
 40
0.7944408812916718
 40
0.861298774140479
 40
0.912532077111619
 40
0.9472027440312041
 40
0.9999622419555783
 40
1.0
 40
1.0
 40
1.0
 40
1.0
 10
96.33287723081008
 20
62.09448359465473
 30
0.0
 10
96.3311637790492
 20
62.09448289857397
 30
0.0
 10
96.32773291983317
 20
62.09448150480549
 30
0.0
 10
96.31323073652034
 20
62.09451823523683
 30
0.0
 10
96.28580850026731
 20
62.0948327361271
 30
0.0
 10
96.23944873371428
 20
62.0975471032455
 30
0.0
 10
96.19749338911974
 20
62.10217553766051
 30
0.0
 10
96.14777534104616
 20
62.11027245161581
 30
0.0
 10
96.09761084541316
 20
62.12126786746388
 30
0.0
 10
96.02715036182569
 20
62.14261084789978
 30
0.0
 10
95.9468625968426
 20
62.17438029910864
 30
0.0
 10
95.84663626069101
 20
62.2283677892237
 30
0.0
 10
95.74163348226544
 20
62.30455736507052
 30
0.0
 10
95.64023338308627
 20
62.40249704235348
 30
0.0
 10
95.55129933817666
 20
62.51745517975021
 30
0.0
 10
95.47820110840058
 20
62.64674453781821
 30
0.0
 10
95.42827641738243
 20
62.77441370414255
 30
0.0
 10
95.4004352676919
 20
62.88569547886782
 30
0.0
 10
95.38462280158232
 20
62.98877374370269
 30
0.0
 10
95.38083304073265
 20
63.05470891560289
 30
0.0
 10
95.38083195776136
 20
63.09445517005555
 30
0.0
 10
95.38083195698688
 20
63.09448359465478
 30
0.0
  0
LINE
  5
1DA
330
1F
100
AcDbEntity
  8
0
  6
Continuous
 62
     7
370
    30
100
AcDbLine
 10
95.380831957
 20
63.0944835947
 30
0.0
 11
95.380831957
 21
69.0944835947
 31
0.0
  0
LINE
  5
1DB
330
1F
100
AcDbEntity
  8
0
  6
Continuous
 62
     7
370
    30
100
AcDbLine
 10
96.3220983225
 20
62.0944835947
 30
0.0
 11
96.3328772308
 21
62.0944835947
 31
0.0
  0
LINE
  5
1DC
330
1F
100
AcDbEntity
  8
0
  6
Continuous
 62
     7
370
    30
100
AcDbLine
 10
96.3220983225
 20
70.0944835947
 30
0.0
 11
96.3328772308
 21
70.0944835947
 31
0.0
  0
CIRCLE
  5
1DD
330
1F
100
AcDbEntity
  8
0
  6
Continuous
 62
     7
370
    30
100
AcDbCircle
 10
102.8220983225
 20
45.7444835947
 30
0.0
 40
8.999999999999984
  0
CIRCLE
  5
1DE
330
1F
100
AcDbEntity
  8
0
  6
Continuous
 62
     7
370
    30
100
AcDbCircle
 10
102.8220983225
 20
45.7444835947
 30
0.0
 40
3.499999999999992
  0
CIRCLE
  5
1DF
330
1F
100
AcDbEntity
  8
0
  6
Continuous
 62
     7
370
    30
100
AcDbCircle
 10
102.8220983225
 20
45.7444835947
 30
0.0
 40
2.499999999999991
  0
CIRCLE
  5
1E0
330
1F
100
AcDbEntity
  8
0
  6
Continuous
 62
     7
370
    30
100
AcDbCircle
 10
102.8220983225
 20
45.7444835947
 30
0.0
 40
12.49999999999999
  0
CIRCLE
  5
1E1
330
1F
100
AcDbEntity
  8
0
  6
Continuous
 62
     7
370
    30
100
AcDbCircle
 10
102.8220983225
 20
45.7444835947
 30
0.0
 40
11.49999999999999
  0
CIRCLE
  5
1E2
330
1F
100
AcDbEntity
  8
0
  6
Continuous
 62
     7
370
    30
100
AcDbCircle
 10
102.8220983225
 20
45.7444835947
 30
0.0
 40
9.499999999999986
  0
LINE
  5
1E3
330
1F
100
AcDbEntity
  8
0
  6
Continuous
 62
     8
370
    30
100
AcDbLine
 10
100.3519432103
 20
61.5944835947
 30
0.0
 11
105.2922534347
 21
61.5944835947
 31
0.0
  0
ARC
  5
1E4
330
1F
100
AcDbEntity
  8
SLD-0
  6
HIDDEN
100
AcDbCircle
 10
102.8220983225
 20
43.8944835947
 30
0.0
 40
5.500000000000011
100
AcDbArc
 50
199.0735311144
 51
340.9264688856
  0
ARC
  5
1E5
330
1F
100
AcDbEntity
  8
SLD-0
  6
HIDDEN
100
AcDbCircle
 10
102.8220983225
 20
45.7444835947
 30
0.0
 40
6.350000000000015
100
AcDbArc
 50
324.9439483129
 51
215.0560516871
  0
DIMENSION
  5
1E6
330
1F
100
AcDbEntity
  8
SLD-0
100
AcDbDimension
  2
_D_5
 10
108.4070614205
 20
42.7227808968
 30
0.0
 11
72.9449610893
 21
60.2584466822
 31
0.0
 70
   163
  1
<>
 71
     1
 42
-1.0
  3
SLDDIMSTYLE2
100
AcDbDiametricDimension
 15
97.2371352246
 25
48.7661862925
 35
0.0
 40
0.0
  0
DIMENSION
  5
1F0
330
1F
100
AcDbEntity
  8
SLD-0
100
AcDbDimension
  2
_D_6
 10
129.3220983225
 20
33.2444835947
 30
0.0
 11
129.3220983225
 21
51.6694835947
 31
0.0
 70
   160
  1
Max.: <>
 71
     2
 42
-1.0
  3
SLDDIMSTYLE3
100
AcDbAlignedDimension
 13
106.3907570392
 23
70.0944835947
 33
0.0
 14
102.8220983225
 24
33.2444835947
 34
0.0
 50
90.0
100
AcDbRotatedDimension
  0
DIMENSION
  5
1FC
330
1F
100
AcDbEntity
  8
SLD-0
100
AcDbDimension
  2
_D_7
 10
104.5898652755
 20
47.5122505476
 30
0.0
 11
73.8378606614
 21
31.0375898325
 31
0.0
 70
   163
  1
1 HOLE,\P M6
 71
     1
 42
-1.0
  3
SLDDIMSTYLE4
100
AcDbDiametricDimension
 15
101.0543313696
 25
43.9767166417
 35
0.0
 40
0.0
  0
INSERT
  5
211
330
1F
100
AcDbEntity
  8
SLD-0
100
AcDbBlockReference
  2
SW_CENTERMARKSYMBOL_1
 10
102.8220983225
 20
45.7444835947
 30
0.0
  0
SPLINE
  5
212
330
1F
100
AcDbEntity
  8
0
  6
Continuous
 62
     7
370
    30
100
AcDbSpline
210
0.0
220
0.0
230
1.0
 70
     8
 71
     3
 72
    10
 73
     6
 74
     0
 42
0.000000001
 43
0.00000001
 40
0.0
 40
0.0
 40
0.0
 40
0.0
 40
0.1025229473898064
 40
0.6663126704364739
 40
1.0
 40
1.0
 40
1.0
 40
1.0
 10
233.0865585519307
 20
155.1204234286801
 30
0.0
 10
233.0636278627256
 20
155.1655473937963
 30
0.0
 10
232.9145977270515
 20
155.4588151008104
 30
0.0
 10
232.6536858205422
 20
155.8831909292246
 30
0.0
 10
232.397628176761
 20
156.2417243444852
 30
0.0
 10
232.3024244151504
 20
156.3750292101078
 30
0.0
  0
SPLINE
  5
213
330
1F
100
AcDbEntity
  8
0
  6
Continuous
 62
     7
370
    30
100
AcDbSpline
210
0.0
220
0.0
230
1.0
 70
     8
 71
     3
 72
    10
 73
     6
 74
     0
 42
0.000000001
 43
0.00000001
 40
0.0
 40
0.0
 40
0.0
 40
0.0
 40
0.0767998946282564
 40
0.6628020191120053
 40
1.0
 40
1.0
 40
1.0
 40
1.0
 10
234.2768076939126
 20
151.7812966933941
 30
0.0
 10
234.2722644551619
 20
151.8143034214392
 30
0.0
 10
234.2330551849954
 20
152.0991596194652
 30
0.0
 10
234.1265308677418
 20
152.5409597799561
 30
0.0
 10
233.995878297335
 20
152.9478255393837
 30
0.0
 10
233.9481575673625
 20
153.0964328800601
 30
0.0
  0
SPLINE
  5
214
330
1F
100
AcDbEntity
  8
0
  6
Continuous
 62
     7
370
    30
100
AcDbSpline
210
0.0
220
0.0
230
1.0
 70
     8
 71
     3
 72
    10
 73
     6
 74
     0
 42
0.000000001
 43
0.00000001
 40
0.0
 40
0.0
 40
0.0
 40
0.0
 40
0.104115982968173
 40
0.7016658906229405
 40
1.0
 40
1.0
 40
1.0
 40
1.0
 10
230.8751330631431
 20
158.0272569195471
 30
0.0
 10
230.8421414993769
 20
158.0602306796806
 30
0.0
 10
230.6198023895391
 20
158.2824498060018
 30
0.0
 10
230.2847549434051
 20
158.559966470923
 30
0.0
 10
229.9772416718093
 20
158.77079076232
 30
0.0
 10
229.8748381282043
 20
158.8409963648458
 30
0.0
  0
SPLINE
  5
215
330
1F
100
AcDbEntity
  8
0
  6
Continuous
 62
     7
370
    30
100
AcDbSpline
210
0.0
220
0.0
230
1.0
 70
     8
 71
     3
 72
     9
 73
     5
 74
     0
 42
0.000000001
 43
0.00000001
 40
0.0
 40
0.0
 40
0.0
 40
0.0
 40
0.4191112045022412
 40
1.0
 40
1.0
 40
1.0
 40
1.0
 10
220.8232006226755
 20
157.0744467456916
 30
0.0
 10
220.7309289175235
 20
157.0239217720317
 30
0.0
 10
220.5107684823913
 20
156.9033691045838
 30
0.0
 10
220.3270830280461
 20
156.729925240572
 30
0.0
 10
220.220382205721
 20
156.6291736433196
 30
0.0
  0
SPLINE
  5
216
330
1F
100
AcDbEntity
  8
0
  6
Continuous
 62
     7
370
    30
100
AcDbSpline
210
0.0
220
0.0
230
1.0
 70
     8
 71
     3
 72
     9
 73
     5
 74
     0
 42
0.000000001
 43
0.00000001
 40
0.0
 40
0.0
 40
0.0
 40
0.0
 40
0.578933513656821
 40
0.9999999999999999
 40
0.9999999999999999
 40
0.9999999999999999
 40
0.9999999999999999
 10
234.1679889057007
 20
148.6854657378142
 30
0.0
 10
234.2216403744786
 20
148.8742724833375
 30
0.0
 10
234.3143133110288
 20
149.2004010301731
 30
0.0
 10
234.3493297742513
 20
149.5571863938232
 30
0.0
 10
234.3640740333845
 20
149.707416753274
 30
0.0
  0
LINE
  5
217
330
1F
100
AcDbEntity
  8
0
  6
Continuous
 62
     7
370
    30
100
AcDbLine
 10
228.3174412722
 20
144.0941337987
 30
0.0
 11
232.5600819593
 21
146.5433581342
 31
0.0
  0
SPLINE
  5
218
330
1F
100
AcDbEntity
  8
0
  6
Continuous
 62
     7
370
    30
100
AcDbSpline
210
0.0
220
0.0
230
1.0
 70
     8
 71
     3
 72
    10
 73
     6
 74
     0
 42
0.000000001
 43
0.00000001
 40
0.0
 40
0.0
 40
0.0
 40
0.0
 40
0.0167929664816222
 40
0.6884304286774489
 40
1.0
 40
1.0
 40
1.0
 40
1.0
 10
228.0475080323955
 20
159.7688526516216
 30
0.0
 10
228.0421616465562
 20
159.7708463673682
 30
0.0
 10
227.8229856779
 20
159.8525790729974
 30
0.0
 10
227.5021505298367
 20
159.9194763920229
 30
0.0
 10
227.1918930345752
 20
159.9395597397054
 30
0.0
 10
227.0935751915343
 20
159.9459239741086
 30
0.0
  0
LINE
  5
219
330
1F
100
AcDbEntity
  8
0
  6
Continuous
 62
     7
370
    30
100
AcDbLine
 10
225.0606914645
 20
159.5340910699
 30
0.0
 11
220.8180507774
 21
157.0848667344
 31
0.0
  0
SPLINE
  5
21A
330
1F
100
AcDbEntity
  8
0
  6
Continuous
 62
     7
370
    30
100
AcDbSpline
210
0.0
220
0.0
230
1.0
 70
     8
 71
     3
 72
    10
 73
     6
 74
     0
 42
0.000000001
 43
0.00000001
 40
0.0
 40
0.0
 40
0.0
 40
0.0
 40
0.017185610072968
 40
0.6885072000835585
 40
1.0
 40
1.0
 40
1.0
 40
1.0
 10
225.3303266739366
 20
143.8594885879189
 30
0.0
 10
225.3358006291054
 20
143.8574472298793
 30
0.0
 10
225.5551037280736
 20
143.7756642904162
 30
0.0
 10
225.8760883688603
 20
143.7087273367996
 30
0.0
 10
226.186366827627
 20
143.6886514443149
 30
0.0
 10
226.2847063583315
 20
143.682288598975
 30
0.0
  0
SPLINE
  5
21B
330
1F
100
AcDbEntity
  8
0
  6
Continuous
 62
     7
370
    30
100
AcDbSpline
210
0.0
220
0.0
230
1.0
 70
     8
 71
     3
 72
     9
 73
     5
 74
     0
 42
0.000000001
 43
0.00000001
 40
0.0
 40
0.0
 40
0.0
 40
0.0
 40
0.580211352515037
 40
1.0
 40
1.0
 40
1.0
 40
1.0
 10
219.2101427427334
 20
154.9427546995344
 30
0.0
 10
219.1564774685416
 20
154.7539569645239
 30
0.0
 10
219.063984838125
 20
154.428562202439
 30
0.0
 10
219.029021258221
 20
154.072578376173
 30
0.0
 10
219.0143439443019
 20
153.9231404072183
 30
0.0
  0
SPLINE
  5
21C
330
1F
100
AcDbEntity
  8
0
  6
Continuous
 62
     7
370
    30
100
AcDbSpline
210
0.0
220
0.0
230
1.0
 70
     8
 71
     3
 72
     9
 73
     5
 74
     0
 42
0.000000001
 43
0.00000001
 40
0.0
 40
0.0
 40
0.0
 40
0.0
 40
0.5110575453790305
 40
1.0
 40
1.0
 40
1.0
 40
1.0
 10
232.5549321140251
 20
146.5537781229073
 30
0.0
 10
232.6476723493228
 20
146.6036236960714
 30
0.0
 10
232.8291396540054
 20
146.701157865393
 30
0.0
 10
232.9806943328595
 20
146.842067371406
 30
0.0
 10
233.0547958495476
 20
146.9109640111555
 30
0.0
  0
SPLINE
  5
21D
330
1F
100
AcDbEntity
  8
0
  6
Continuous
 62
     7
370
    30
100
AcDbSpline
210
0.0
220
0.0
230
1.0
 70
     8
 71
     3
 72
    10
 73
     6
 74
     0
 42
0.000000001
 43
0.00000001
 40
0.0
 40
0.0
 40
0.0
 40
0.0
 40
0.0767187703688191
 40
0.6620551686690606
 40
1.0
 40
1.0
 40
1.0
 40
1.0
 10
219.1013239210613
 20
151.8469360886443
 30
0.0
 10
219.1058674658986
 20
151.8139267266397
 30
0.0
 10
219.1450766102733
 20
151.5290679023315
 30
0.0
 10
219.2517370988323
 20
151.0867657882394
 30
0.0
 10
219.3825573731189
 20
150.6794017205963
 30
0.0
 10
219.4304409800953
 20
150.5302959262709
 30
0.0
  0
SPLINE
  5
21E
330
1F
100
AcDbEntity
  8
0
  6
Continuous
 62
     7
370
    30
100
AcDbSpline
210
0.0
220
0.0
230
1.0
 70
     8
 71
     3
 72
    10
 73
     6
 74
     0
 42
0.000000001
 43
0.00000001
 40
0.0
 40
0.0
 40
0.0
 40
0.0
 40
0.086845433474892
 40
0.6853586938467613
 40
1.0
 40
1.0
 40
1.0
 40
1.0
 10
222.5042789018451
 20
145.5989048173863
 30
0.0
 10
222.5317246636719
 20
145.5713946327156
 30
0.0
 10
222.7483185676305
 20
145.3542923225653
 30
0.0
 10
223.0827294055584
 20
145.0769575360879
 30
0.0
 10
223.3954194699088
 20
144.8615235197474
 30
0.0
 10
223.5031615914236
 20
144.7872924500291
 30
0.0
  0
SPLINE
  5
21F
330
1F
100
AcDbEntity
  8
0
  6
Continuous
 62
     7
370
    30
100
AcDbSpline
210
0.0
220
0.0
230
1.0
 70
     8
 71
     3
 72
    10
 73
     6
 74
     0
 42
0.000000001
 43
0.00000001
 40
0.0
 40
0.0
 40
0.0
 40
0.0
 40
0.1011163673990888
 40
0.6619682201369991
 40
1.0
 40
1.0
 40
1.0
 40
1.0
 10
220.2921676095668
 20
148.5066456901185
 30
0.0
 10
220.3149032250587
 20
148.4619079472941
 30
0.0
 10
220.4637441625642
 20
148.1690279244829
 30
0.0
 10
220.726100834802
 20
147.7424961734329
 30
0.0
 10
220.9839288400746
 20
147.3815476138763
 30
0.0
 10
221.0808869516253
 20
147.245810261898
 30
0.0
  0
LINE
  5
220
330
1F
100
AcDbEntity
  8
0
  6
Continuous
 62
     7
370
    30
100
AcDbLine
 10
252.2927472089
 20
169.8413008484
 30
0.0
 11
250.0504044707
 21
172.4700154979
 31
0.0
  0
LINE
  5
221
330
1F
100
AcDbEntity
  8
0
  6
Continuous
 62
     7
370
    30
100
AcDbLine
 10
232.1069742603
 20
172.4700154979
 30
0.0
 11
229.8646315221
 21
169.8413008484
 31
0.0
  0
LINE
  5
222
330
1F
100
AcDbEntity
  8
0
  6
Continuous
 62
     7
370
    30
100
AcDbLine
 10
253.5786893655
 20
108.5156856609
 30
0.0
 11
253.5786893655
 21
166.6533914672
 31
0.0
  0
LINE
  5
223
330
1F
100
AcDbEntity
  8
0
  6
Continuous
 62
     7
370
    30
100
AcDbLine
 10
228.5786893655
 20
166.6533914672
 30
0.0
 11
228.5786893655
 21
159.4281434799
 31
0.0
  0
LINE
  5
224
330
1F
100
AcDbEntity
  8
0
  6
Continuous
 62
     7
370
    30
100
AcDbLine
 10
228.5786893655
 20
144.2449491128
 30
0.0
 11
228.5786893655
 21
108.5156856609
 31
0.0
  0
LINE
  5
225
330
1F
100
AcDbEntity
  8
0
  6
Continuous
 62
     7
370
    30
100
AcDbLine
 10
232.2384183916
 20
103.4139642026
 30
0.0
 11
232.9456400695
 21
103.0055611074
 31
0.0
  0
LINE
  5
226
330
1F
100
AcDbEntity
  8
0
  6
Continuous
 62
     7
370
    30
100
AcDbLine
 10
249.2117386615
 20
103.0055611074
 30
0.0
 11
249.9189603394
 21
103.4139642026
 31
0.0
  0
SPLINE
  5
227
330
1F
100
AcDbEntity
  8
0
  6
Continuous
 62
     7
370
    30
100
AcDbSpline
210
0.0
220
0.0
230
1.0
 70
     8
 71
     3
 72
    27
 73
    23
 74
     0
 42
0.000000001
 43
0.00000001
 40
0.0
 40
0.0
 40
0.0
 40
0.0
 40
0.0350113315835684
 40
0.0702585926513871
 40
0.1062535238528482
 40
0.1425095473903215
 40
0.1775432527686455
 40
0.248851102372341
 40
0.2852326490083145
 40
0.3534630463220142
 40
0.3885562263909885
 40
0.4239366908352934
 40
0.5557839260315607
 40
0.6249217940537583
 40
0.6601249427632002
 40
0.6954840242282847
 40
0.7472677608195324
 40
0.7994399227482057
 40
0.8527219631295055
 40
0.906362262422349
 40
0.9530646433005671
 40
1.0
 40
1.0
 40
1.0
 40
1.0
 10
229.4557738220209
 20
150.1433120626527
 30
0.0
 10
229.4367018948864
 20
150.1327261953065
 30
0.0
 10
229.3984295213716
 20
150.1114831260458
 30
0.0
 10
229.3351341515152
 20
150.0819250371545
 30
0.0
 10
229.2675388921991
 20
150.0543470136296
 30
0.0
 10
229.1964788831797
 20
150.0297497399914
 30
0.0
 10
229.0981406802259
 20
150.0014560161972
 30
0.0
 10
228.9944570384614
 20
149.9806473828312
 30
0.0
 10
228.8634939352163
 20
149.9671098019872
 30
0.0
 10
228.7577478203184
 20
149.9666788683473
 30
0.0
 10
228.65395075555
 20
149.9778695619612
 30
0.0
 10
228.5047872689202
 20
150.0059651008304
 30
0.0
 10
228.3391626579523
 20
150.0735661660284
 30
0.0
 10
228.1966098585336
 20
150.1751028249895
 30
0.0
 10
228.1188247161544
 20
150.2435890818192
 30
0.0
 10
228.0545663848426
 20
150.3080212008556
 30
0.0
 10
227.986584558353
 20
150.3868692052638
 30
0.0
 10
227.9164034368318
 20
150.4817532503838
 30
0.0
 10
227.8515345766676
 20
150.5824745329544
 30
0.0
 10
227.7946058891402
 20
150.6831985763058
 30
0.0
 10
227.7445272648174
 20
150.7818655592727
 30
0.0
 10
227.7163138998937
 20
150.8456179301715
 30
0.0
 10
227.702172119233
 20
150.8775734253168
 30
0.0
  0
SPLINE
  5
228
330
1F
100
AcDbEntity
  8
0
  6
Continuous
 62
     7
370
    30
100
AcDbSpline
210
0.0
220
0.0
230
1.0
 70
     8
 71
     3
 72
    29
 73
    25
 74
     0
 42
0.000000001
 43
0.00000001
 40
0.0
 40
0.0
 40
0.0
 40
0.0
 40
0.0595792724100419
 40
0.1196454280827494
 40
0.1746125035236922
 40
0.2299768670662401
 40
0.2866712002404573
 40
0.3438990747624892
 40
0.3814910617312896
 40
0.4192937433374695
 40
0.457826304369828
 40
0.496650372009071
 40
0.534256692051636
 40
0.5721886482064765
 40
0.6111968959864015
 40
0.6505997421006887
 40
0.6836517100885847
 40
0.750897004984024
 40
0.7851591453835226
 40
0.8182357033656033
 40
0.8854155596256291
 40
0.9195804997692292
 40
0.9596125971150075
 40
1.0
 40
1.0
 40
1.0
 40
1.0
 10
227.702172119233
 20
150.8775734253168
 30
0.0
 10
227.6854325093535
 20
150.91838390235
 30
0.0
 10
227.6518164930956
 20
151.0003383606271
 30
0.0
 10
227.6122088528126
 20
151.1206945929201
 30
0.0
 10
227.5811397481251
 20
151.2378798662632
 30
0.0
 10
227.5594797620194
 20
151.3523004646834
 30
0.0
 10
227.5477649053779
 20
151.4675340697026
 30
0.0
 10
227.5480294399254
 20
151.5698014098466
 30
0.0
 10
227.5570989753851
 20
151.6583764507916
 30
0.0
 10
227.5713301547574
 20
151.7336905414254
 30
0.0
 10
227.5926299544483
 20
151.8087975099897
 30
0.0
 10
227.6210732619707
 20
151.8824644833601
 30
0.0
 10
227.6564025419035
 20
151.954132747329
 30
0.0
 10
227.6985111869177
 20
152.0240007744095
 30
0.0
 10
227.7477402101025
 20
152.0926569096439
 30
0.0
 10
227.8005074579758
 20
152.1559087819913
 30
0.0
 10
227.8720289773315
 20
152.2319590523196
 30
0.0
 10
227.947023422246
 20
152.3009111370825
 30
0.0
 10
228.0251140909701
 20
152.3650436527448
 30
0.0
 10
228.1044002585095
 20
152.4260250906956
 30
0.0
 10
228.1843871970962
 20
152.4824288739241
 30
0.0
 10
228.2665457854019
 20
152.5364525952026
 30
0.0
 10
228.3317522129451
 20
152.5774084003883
 30
0.0
 10
228.3752079381409
 20
152.6029171746542
 30
0.0
 10
228.3970317977285
 20
152.6157279126024
 30
0.0
  0
LINE
  5
229
330
1F
100
AcDbEntity
  8
0
  6
Continuous
 62
     7
370
    30
100
AcDbLine
 10
228.3970317977
 20
152.6157279126
 30
0.0
 11
232.6396724848
 21
155.0649522481
 31
0.0
  0
SPLINE
  5
22A
330
1F
100
AcDbEntity
  8
0
  6
Continuous
 62
     7
370
    30
100
AcDbSpline
210
0.0
220
0.0
230
1.0
 70
     8
 71
     3
 72
    30
 73
    26
 74
     0
 42
0.000000001
 43
0.00000001
 40
0.0
 40
0.0
 40
0.0
 40
0.0
 40
0.0516327532169582
 40
0.1040356784944658
 40
0.139277991653806
 40
0.17476933591315
 40
0.2110611149625584
 40
0.2476389025689797
 40
0.2821139984754431
 40
0.3168494266403201
 40
0.3524222580217774
 40
0.3882939148472251
 40
0.4541869677097617
 40
0.521468706767627
 40
0.5887374782010789
 40
0.622756997367532
 40
0.6571187078657117
 40
0.7066000376386176
 40
0.7564600207846071
 40
0.8073742715577785
 40
0.8586169707150891
 40
0.8937115034211743
 40
0.9289054714380052
 40
0.9644017467233708
 40
1.0
 40
1.0
 40
1.0
 40
1.0
 10
232.6396724848478
 20
155.0649522480706
 30
0.0
 10
232.6666719243208
 20
155.0801930734074
 30
0.0
 10
232.7210735362734
 20
155.1109020615196
 30
0.0
 10
232.7868678723145
 20
155.143631985029
 30
0.0
 10
232.8405004418168
 20
155.1671814352308
 30
0.0
 10
232.8835274078368
 20
155.1831535435435
 30
0.0
 10
232.9233544039371
 20
155.1943609299233
 30
0.0
 10
232.9589829464745
 20
155.1999875357316
 30
0.0
 10
232.9904433874042
 20
155.199844878778
 30
0.0
 10
233.0181695141024
 20
155.1938635974264
 30
0.0
 10
233.0428883530241
 20
155.1814928956775
 30
0.0
 10
233.070731798828
 20
155.1569720481786
 30
0.0
 10
233.0985227355654
 20
155.1115898943486
 30
0.0
 10
233.1240363609492
 20
155.0354328112788
 30
0.0
 10
233.1420421168267
 20
154.9549221446139
 30
0.0
 10
233.1561566232628
 20
154.8822935555508
 30
0.0
 10
233.1686908792007
 20
154.8151585312928
 30
0.0
 10
233.1839246593112
 20
154.7342251269867
 30
0.0
 10
233.2034815469755
 20
154.6384446234909
 30
0.0
 10
233.2267253239538
 20
154.5379492559368
 30
0.0
 10
233.2516107032491
 20
154.4450481943476
 30
0.0
 10
233.2769349365933
 20
154.3619218624155
 30
0.0
 10
233.3014971238498
 20
154.2892606714493
 30
0.0
 10
233.3285637455984
 20
154.2161973683298
 30
0.0
 10
233.3488592159712
 20
154.1675671915921
 30
0.0
 10
233.3590215070689
 20
154.1432172256607
 30
0.0
  0
SPLINE
  5
22B
330
1F
100
AcDbEntity
  8
0
  6
Continuous
 62
     7
370
    30
100
AcDbSpline
210
0.0
220
0.0
230
1.0
 70
     8
 71
     3
 72
    29
 73
    25
 74
     0
 42
0.000000001
 43
0.00000001
 40
0.0
 40
0.0
 40
0.0
 40
0.0
 40
0.0637350511789516
 40
0.1186806761944149
 40
0.1740104931515846
 40
0.2305815077379688
 40
0.2876193663903204
 40
0.3282458893260534
 40
0.3690945183431126
 40
0.4107174969895721
 40
0.4526563782023473
 40
0.5036972228604633
 40
0.5555056854250756
 40
0.5906174080179705
 40
0.6245369909283095
 40
0.6936405586316918
 40
0.7289122308306666
 40
0.7614944196066434
 40
0.8276841841316604
 40
0.8613507388335946
 40
0.9297063471142447
 40
0.9647160579226559
 40
0.999962250751284
 40
1.0
 40
1.0
 40
1.0
 40
1.0
 10
233.3590215070689
 20
154.1432172256607
 30
0.0
 10
233.3784445308717
 20
154.0998351403772
 30
0.0
 10
233.4146120329921
 20
154.0190536061833
 30
0.0
 10
233.4758679499753
 20
153.903138071579
 30
0.0
 10
233.538719083366
 20
153.7942507627533
 30
0.0
 10
233.6058429572235
 20
153.6867241079558
 30
0.0
 10
233.6685787047441
 20
153.5912014094233
 30
0.0
 10
233.7244875236538
 20
153.5076008792596
 30
0.0
 10
233.7729025775963
 20
153.4349618500658
 30
0.0
 10
233.8194396867652
 20
153.3633418500932
 30
0.0
 10
233.8658332302358
 20
153.2879650496579
 30
0.0
 10
233.9093402064402
 20
153.2095931195782
 30
0.0
 10
233.9419176624113
 20
153.138077573327
 30
0.0
 10
233.9624767173175
 20
153.078001575102
 30
0.0
 10
233.9781092900755
 20
153.0117065714629
 30
0.0
 10
233.9812189601715
 20
152.9487683158331
 30
0.0
 10
233.97107937174
 20
152.8900161363785
 30
0.0
 10
233.9528627384413
 20
152.834590059476
 30
0.0
 10
233.9230211163249
 20
152.7825664069455
 30
0.0
 10
233.8710956343262
 20
152.7199719328172
 30
0.0
 10
233.8174813983632
 20
152.6715701304478
 30
0.0
 10
233.7531444304431
 20
152.625621498104
 30
0.0
 10
233.7172206640229
 20
152.6033934933002
 30
0.0
 10
233.6984346077876
 20
152.5925480013927
 30
0.0
 10
233.6984145091402
 20
152.5925363981208
 30
0.0
  0
LINE
  5
22C
330
1F
100
AcDbEntity
  8
0
  6
Continuous
 62
     7
370
    30
100
AcDbLine
 10
233.6984145091
 20
152.5925363981
 30
0.0
 11
229.455773822
 21
150.1433120627
 31
0.0
  0
ARC
  5
22D
330
1F
100
AcDbEntity
  8
0
  6
Continuous
 62
     7
370
    30
100
AcDbCircle
 10
221.743952953
 20
153.8384859921
 30
0.0
 40
2.272304666823492
100
AcDbArc
 50
100.3113630634
 51
151.1054169968
  0
ARC
  5
22E
330
1F
100
AcDbEntity
  8
0
  6
Continuous
 62
     7
370
    30
100
AcDbCircle
 10
221.807557007
 20
152.4801713126
 30
0.0
 40
3.624566961711158
100
AcDbArc
 50
60.4332163175
 51
97.455990619
  0
ARC
  5
22F
330
1F
100
AcDbEntity
  8
0
  6
Continuous
 62
     7
370
    30
100
AcDbCircle
 10
219.8253595854
 20
148.6363924706
 30
0.0
 40
7.947778356087461
100
AcDbArc
 50
39.8643542517
 51
61.6775026723
  0
ARC
  5
230
330
1F
100
AcDbEntity
  8
0
  6
Continuous
 62
     7
370
    30
100
AcDbCircle
 10
217.5238264548
 20
146.5199936519
 30
0.0
 40
11.07191139479206
100
AcDbArc
 50
23.1768931951
 51
40.6367429393
  0
ARC
  5
231
330
1F
100
AcDbEntity
  8
0
  6
Continuous
 62
     7
370
    30
100
AcDbCircle
 10
219.5161674158
 20
147.2541220878
 30
0.0
 40
8.95209885666884
100
AcDbArc
 50
3.7389703142
 51
23.8761267438
  0
ARC
  5
232
330
1F
100
AcDbEntity
  8
0
  6
Continuous
 62
     7
370
    30
100
AcDbCircle
 10
224.0731823682
 20
147.4591563134
 30
0.0
 40
4.392388604486998
100
AcDbArc
 50
332.4286932254
 51
4.9465717471
  0
ARC
  5
233
330
1F
100
AcDbEntity
  8
0
  6
Continuous
 62
     7
370
    30
100
AcDbCircle
 10
225.9773255342
 20
146.5241064292
 30
0.0
 40
2.272304666823585
100
AcDbArc
 50
280.3113630634
 51
331.1054169968
  0
ARC
  5
234
330
1F
100
AcDbEntity
  8
0
  6
Continuous
 62
     7
370
    30
100
AcDbCircle
 10
225.9137214802
 20
147.8824211088
 30
0.0
 40
3.624566961710736
100
AcDbArc
 50
240.4332163175
 51
277.455990619
  0
ARC
  5
235
330
1F
100
AcDbEntity
  8
0
  6
Continuous
 62
     7
370
    30
100
AcDbCircle
 10
227.8959189018
 20
151.7261999507
 30
0.0
 40
7.94777835608791
100
AcDbArc
 50
219.8643542517
 51
241.6775026723
  0
ARC
  5
236
330
1F
100
AcDbEntity
  8
0
  6
Continuous
 62
     7
370
    30
100
AcDbCircle
 10
230.1974519725
 20
153.8425987301
 30
0.0
 40
11.07191132371528
100
AcDbArc
 50
203.1769250856
 51
220.636742987
  0
ARC
  5
237
330
1F
100
AcDbEntity
  8
0
  6
Continuous
 62
     7
370
    30
100
AcDbCircle
 10
228.205117987
 20
153.1084720207
 30
0.0
 40
8.952105938177704
100
AcDbArc
 50
183.7390051737
 51
203.8761582222
  0
ARC
  5
238
330
1F
100
AcDbEntity
  8
0
  6
Continuous
 62
     7
370
    30
100
AcDbCircle
 10
223.6480988559
 20
152.90343527
 30
0.0
 40
4.392391418418366
100
AcDbArc
 50
152.4287000616
 51
184.9466127165
  0
LINE
  5
239
330
1F
100
AcDbEntity
  8
0
  6
Continuous
 62
     7
370
    30
100
AcDbLine
 10
222.120435107
 20
149.8658789492
 30
0.0
 11
223.9804953421
 21
147.7117984884
 31
0.0
  0
LINE
  5
23A
330
1F
100
AcDbEntity
  8
0
  6
Continuous
 62
     7
370
    30
100
AcDbLine
 10
223.9804953421
 20
147.7117984884
 30
0.0
 11
225.7206994788
 21
148.0272157498
 31
0.0
  0
LINE
  5
23B
330
1F
100
AcDbEntity
  8
0
  6
Continuous
 62
     7
370
    30
100
AcDbLine
 10
225.7206994788
 20
148.0272157498
 30
0.0
 11
225.6008433802
 21
150.4967134721
 31
0.0
  0
LINE
  5
23C
330
1F
100
AcDbEntity
  8
0
  6
Continuous
 62
     7
370
    30
100
AcDbLine
 10
225.6008433802
 20
150.4967134721
 30
0.0
 11
223.7407831451
 21
152.6507939329
 31
0.0
  0
LINE
  5
23D
330
1F
100
AcDbEntity
  8
0
  6
Continuous
 62
     7
370
    30
100
AcDbLine
 10
223.7407831451
 20
152.6507939329
 30
0.0
 11
222.0005790084
 21
152.3353766715
 31
0.0
  0
LINE
  5
23E
330
1F
100
AcDbEntity
  8
0
  6
Continuous
 62
     7
370
    30
100
AcDbLine
 10
222.0005790084
 20
152.3353766715
 30
0.0
 11
222.120435107
 21
149.8658789492
 31
0.0
  0
SPLINE
  5
23F
330
1F
100
AcDbEntity
  8
0
  6
Continuous
 62
     7
370
    30
100
AcDbSpline
210
0.0
220
0.0
230
1.0
 70
     8
 71
     3
 72
    21
 73
    17
 74
     0
 42
0.000000001
 43
0.00000001
 40
0.0
 40
0.0
 40
0.0
 40
0.0
 40
0.0702039281148247
 40
0.1423939403264278
 40
0.2126531415329927
 40
0.2850575995539477
 40
0.3532921538796061
 40
0.4236983944784994
 40
0.4889772225229981
 40
0.5559734941684319
 40
0.62511557449124
 40
0.6956438880201417
 40
0.7995110580321472
 40
0.906351014281384
 40
0.9530589914366246
 40
0.9999999999999999
 40
0.9999999999999999
 40
0.9999999999999999
 40
0.9999999999999999
 10
227.7722886107035
 20
153.6191530165703
 30
0.0
 10
227.7335091230598
 20
153.5970723836192
 30
0.0
 10
227.6548530677976
 20
153.5522864519025
 30
0.0
 10
227.5217425060572
 20
153.481244160398
 30
0.0
 10
227.3792294119292
 20
153.4109577972344
 30
0.0
 10
227.2326964277724
 20
153.3478326977141
 30
0.0
 10
227.082934169962
 20
153.2963462926712
 30
0.0
 10
226.9381290453496
 20
153.2627385039513
 30
0.0
 10
226.7973606735674
 20
153.2489270479445
 30
0.0
 10
226.6627171852415
 20
153.2557880170494
 30
0.0
 10
226.5314927943063
 20
153.2843415436218
 30
0.0
 10
226.3855084078548
 20
153.3418835739645
 30
0.0
 10
226.2279945050016
 20
153.438541702655
 30
0.0
 10
226.0935137654012
 20
153.5536830215426
 30
0.0
 10
225.9933269133834
 20
153.6544556952756
 30
0.0
 10
225.9483387558288
 20
153.7052415477357
 30
0.0
 10
225.9257887039214
 20
153.7306976604415
 30
0.0
  0
ARC
  5
240
330
1F
100
AcDbEntity
  8
0
  6
Continuous
 62
     7
370
    30
100
AcDbCircle
 10
217.1190146464
 20
146.2901124194
 30
0.0
 40
12.93085775324537
100
AcDbArc
 50
29.2871999902
 51
34.5264680824
  0
SPLINE
  5
241
330
1F
100
AcDbEntity
  8
0
  6
Continuous
 62
     7
370
    30
100
AcDbSpline
210
0.0
220
0.0
230
1.0
 70
     8
 71
     3
 72
    31
 73
    27
 74
     0
 42
0.000000001
 43
0.00000001
 40
0.0
 40
0.0
 40
0.0
 40
0.0
 40
0.0595700785618006
 40
0.1196269199626558
 40
0.1745880362600024
 40
0.2299463975877628
 40
0.2866345843612518
 40
0.3438562546397436
 40
0.3814441661498008
 40
0.4192427494552012
 40
0.4577711330583792
 40
0.4965909916653505
 40
0.5341932346952739
 40
0.5721210785342983
 40
0.611125097314428
 40
0.6505236716493594
 40
0.6835720563754303
 40
0.7168571631795404
 40
0.750870170418485
 40
0.7851285963577704
 40
0.8182015684121446
 40
0.8514875303650566
 40
0.885427982064499
 40
0.9195892182856541
 40
0.9596169756330849
 40
1.0
 40
1.0
 40
1.0
 40
1.0
 10
225.9257887039214
 20
153.7306976604415
 30
0.0
 10
225.8978045342446
 20
153.7641624585342
 30
0.0
 10
225.8416075288523
 20
153.8313655044198
 30
0.0
 10
225.7652037330016
 20
153.9369601598263
 30
0.0
 10
225.6959510502833
 20
154.0445336595571
 30
0.0
 10
225.6347172280365
 20
154.1545371421232
 30
0.0
 10
225.5810867918637
 20
154.2703501993593
 30
0.0
 10
225.5425455709278
 20
154.3777321332336
 30
0.0
 10
225.5171080799022
 20
154.4740100540265
 30
0.0
 10
225.5015299106857
 20
154.5580475740501
 30
0.0
 10
225.4927915038306
 20
154.643975165101
 30
0.0
 10
225.4916537405487
 20
154.7302458238224
 30
0.0
 10
225.4983008541806
 20
154.815924879086
 30
0.0
 10
225.5127612588097
 20
154.9009316896312
 30
0.0
 10
225.5353838314631
 20
154.9856840014487
 30
0.0
 10
225.564420312715
 20
155.0645886957521
 30
0.0
 10
225.5978680917475
 20
155.1368044587045
 30
0.0
 10
225.6342503167937
 20
155.2026752149089
 30
0.0
 10
225.6752611353825
 20
155.2662493773146
 30
0.0
 10
225.7198044669174
 20
155.3262591276144
 30
0.0
 10
225.7669495628955
 20
155.3822289923118
 30
0.0
 10
225.8162457926644
 20
155.4342689405233
 30
0.0
 10
225.867875290317
 20
155.482881654009
 30
0.0
 10
225.9243009335581
 20
155.5300859832139
 30
0.0
 10
225.9850875071236
 20
155.5751317451431
 30
0.0
 10
226.0279687752543
 20
155.6011778889579
 30
0.0
 10
226.0495041372903
 20
155.6142584987706
 30
0.0
  0
LINE
  5
242
330
1F
100
AcDbEntity
  8
0
  6
Continuous
 62
     7
370
    30
100
AcDbLine
 10
226.0495041373
 20
155.6142584988
 30
0.0
 11
230.2921448244
 21
158.0634828342
 31
0.0
  0
SPLINE
  5
243
330
1F
100
AcDbEntity
  8
0
  6
Continuous
 62
     7
370
    30
100
AcDbSpline
210
0.0
220
0.0
230
1.0
 70
     8
 71
     3
 72
    30
 73
    26
 74
     0
 42
0.000000001
 43
0.00000001
 40
0.0
 40
0.0
 40
0.0
 40
0.0
 40
0.0503817726790269
 40
0.1014780267878946
 40
0.1367318677201454
 40
0.1722346460834688
 40
0.2085373234870557
 40
0.245125679410767
 40
0.2796300354797266
 40
0.3143948553943466
 40
0.3499979216741091
 40
0.3859003498690353
 40
0.451603951474936
 40
0.5191685793362677
 40
0.5861507612345702
 40
0.620298059836159
 40
0.6546085918598308
 40
0.7039210282856032
 40
0.7536112487434485
 40
0.8043518849201147
 40
0.8554190343610666
 40
0.8912955213824003
 40
0.9272783531631197
 40
0.9635846026720578
 40
1.0
 40
1.0
 40
1.0
 40
1.0
 10
230.2921448244095
 20
158.0634828342387
 30
0.0
 10
230.3189514423925
 20
158.0779485830467
 30
0.0
 10
230.3729448323255
 20
158.1070852244744
 30
0.0
 10
230.4443915907761
 20
158.1333484650139
 30
0.0
 10
230.5066068729241
 20
158.1490026911951
 30
0.0
 10
230.5600487053182
 20
158.156366510477
 30
0.0
 10
230.612756807911
 20
158.157159056779
 30
0.0
 10
230.6634761352655
 20
158.1509747818693
 30
0.0
 10
230.7119704793142
 20
158.1380263362246
 30
0.0
 10
230.7585610165384
 20
158.118508164121
 30
0.0
 10
230.8043047395946
 20
158.0918633766245
 30
0.0
 10
230.8614997397821
 20
158.0486906882393
 30
0.0
 10
230.9290743797213
 20
157.9806372312407
 30
0.0
 10
231.005235760989
 20
157.8806515701032
 30
0.0
 10
231.0673995806875
 20
157.7840442783622
 30
0.0
 10
231.116905914459
 20
157.7017710268094
 30
0.0
 10
231.160032268048
 20
157.6281330837262
 30
0.0
 10
231.2093420786854
 20
157.5428247253727
 30
0.0
 10
231.266058867735
 20
157.4460570009068
 30
0.0
 10
231.3254540628166
 20
157.3485843911794
 30
0.0
 10
231.3817926206143
 20
157.2615224233868
 30
0.0
 10
231.4341264227467
 20
157.1856815504324
 30
0.0
 10
231.4817670609991
 20
157.1206798920095
 30
0.0
 10
231.5311354246414
 20
157.0571717290709
 30
0.0
 10
231.565456606285
 20
157.0166309307213
 30
0.0
 10
231.5826429534138
 20
156.9963301077324
 30
0.0
  0
SPLINE
  5
244
330
1F
100
AcDbEntity
  8
0
  6
Continuous
 62
     7
370
    30
100
AcDbSpline
210
0.0
220
0.0
230
1.0
 70
     8
 71
     3
 72
    29
 73
    25
 74
     0
 42
0.000000001
 43
0.00000001
 40
0.0
 40
0.0
 40
0.0
 40
0.0
 40
0.0599106684655815
 40
0.1148514092962545
 40
0.1701757970480688
 40
0.2267373463511277
 40
0.2837623301854243
 40
0.3246222656216813
 40
0.3657055307686515
 40
0.4075673794774146
 40
0.4497471595869866
 40
0.4837323996511205
 40
0.5527877182305717
 40
0.5879722723558365
 40
0.6219641973933743
 40
0.691220801427343
 40
0.7265744741352171
 40
0.7591474212212751
 40
0.8253198260112065
 40
0.8589782822985582
 40
0.8930423004695625
 40
0.9622494757280065
 40
0.9974631418214687
 40
1.0
 40
1.0
 40
1.0
 40
1.0
 10
231.5826429534138
 20
156.9963301077324
 30
0.0
 10
231.6115254672097
 20
156.9639578502008
 30
0.0
 10
231.6668945274862
 20
156.9018987963658
 30
0.0
 10
231.7526153550637
 20
156.8183067382747
 30
0.0
 10
231.8378207460163
 20
156.7424542712668
 30
0.0
 10
231.9241154691549
 20
156.6725233156379
 30
0.0
 10
232.0012235264048
 20
156.6146902679351
 30
0.0
 10
232.0675585916548
 20
156.5672315887819
 30
0.0
 10
232.1234021994367
 20
156.5281844038047
 30
0.0
 10
232.1753953466331
 20
156.4918334030369
 30
0.0
 10
232.2190472513355
 20
156.4602664106927
 30
0.0
 10
232.2654298886547
 20
156.4241383936443
 30
0.0
 10
232.2989163162483
 20
156.3927333378614
 30
0.0
 10
232.3193685746448
 20
156.3633738183238
 30
0.0
 10
232.3308656574922
 20
156.3348416702139
 30
0.0
 10
232.3285021208863
 20
156.3068469903435
 30
0.0
 10
232.3124984491829
 20
156.2784746947565
 30
0.0
 10
232.288564078891
 20
156.2498868720953
 30
0.0
 10
232.2534685158188
 20
156.2198846738397
 30
0.0
 10
232.2077881128887
 20
156.1871111550964
 30
0.0
 10
232.154511327574
 20
156.1517441667943
 30
0.0
 10
232.0911754757323
 20
156.1128872429353
 30
0.0
 10
232.0363470161359
 20
156.0807489935848
 30
0.0
 10
232.0162779511868
 20
156.069156382547
 30
0.0
 10
232.0149292978228
 20
156.0683773520384
 30
0.0
  0
LINE
  5
245
330
1F
100
AcDbEntity
  8
0
  6
Continuous
 62
     7
370
    30
100
AcDbLine
 10
232.0149292978
 20
156.068377352
 30
0.0
 11
227.7722886107
 21
153.6191530166
 31
0.0
  0
ARC
  5
246
330
1F
100
AcDbEntity
  8
0
  6
Continuous
 62
     7
370
    30
100
AcDbCircle
 10
219.4564677025
 20
147.1190385068
 30
0.0
 40
10.44664316483445
100
AcDbArc
 50
10.7873091097
 51
16.8278542862
  0
SPLINE
  5
247
330
1F
100
AcDbEntity
  8
0
  6
Continuous
 62
     7
370
    30
100
AcDbSpline
210
0.0
220
0.0
230
1.0
 70
     8
 71
     3
 72
    29
 73
    25
 74
     0
 42
0.000000001
 43
0.00000001
 40
0.0
 40
0.0
 40
0.0
 40
0.0
 40
0.0599311647730539
 40
0.1148716902221845
 40
0.1701958632010114
 40
0.2267572091753243
 40
0.2837820019487292
 40
0.3246407586902138
 40
0.3657228388287267
 40
0.4075834807634802
 40
0.4497620439735317
 40
0.4837468261661289
 40
0.552801225254094
 40
0.5879853133013001
 40
0.6219767795300356
 40
0.6912324246162436
 40
0.7265855911648886
 40
0.7591584341492513
 40
0.825330621281371
 40
0.8589889636470064
 40
0.8930529627750063
 40
0.9622601038968841
 40
0.9974737559595688
 40
1.0
 40
1.0
 40
1.0
 40
1.0
 10
228.4492118908316
 20
147.8378935176822
 30
0.0
 10
228.4481962260555
 20
147.8753297376362
 30
0.0
 10
228.4462494738112
 20
147.9470847565471
 30
0.0
 10
228.4535655121204
 20
148.0475502678225
 30
0.0
 10
228.4682368418871
 20
148.1415038495389
 30
0.0
 10
228.4922663887092
 20
148.2314294597405
 30
0.0
 10
228.5234952304644
 20
148.3088965903352
 30
0.0
 10
228.5595684981892
 20
148.3749145829939
 30
0.0
 10
228.5980438283435
 20
148.4310547560684
 30
0.0
 10
228.6437360623043
 20
148.4851090926009
 30
0.0
 10
228.693543283941
 20
148.5336139134312
 30
0.0
 10
228.7622016313776
 20
148.5905915831366
 30
0.0
 10
228.8370255640468
 20
148.6416268025612
 30
0.0
 10
228.91963356614
 20
148.6896651266789
 30
0.0
 10
229.0067807240103
 20
148.7360758217641
 30
0.0
 10
229.0995742879294
 20
148.7804604530371
 30
0.0
 10
229.1935532278131
 20
148.8229655591856
 30
0.0
 10
229.2859200351613
 20
148.8639567953834
 30
0.0
 10
229.3767505136053
 20
148.9040611811899
 30
0.0
 10
229.4655562113322
 20
148.9446514965041
 30
0.0
 10
229.5536810409872
 20
148.9863351113879
 30
0.0
 10
229.6377086712118
 20
149.0289428757748
 30
0.0
 10
229.6970300280611
 20
149.0618935852434
 30
0.0
 10
229.7171580897281
 20
149.0734947058433
 30
0.0
 10
229.71850542772
 20
149.074271264997
 30
0.0
  0
SPLINE
  5
248
330
1F
100
AcDbEntity
  8
0
  6
Continuous
 62
     7
370
    30
100
AcDbSpline
210
0.0
220
0.0
230
1.0
 70
     8
 71
     3
 72
    29
 73
    25
 74
     0
 42
0.000000001
 43
0.00000001
 40
0.0
 40
0.0
 40
0.0
 40
0.0
 40
0.0349944713437196
 40
0.0702247585562519
 40
0.1062023558504911
 40
0.1424409197477533
 40
0.2129303943254573
 40
0.2487352682727118
 40
0.2850992948209114
 40
0.3192783408975022
 40
0.3883696058978636
 40
0.423733032340766
 40
0.4564595003227139
 40
0.5225697017219886
 40
0.555988284392851
 40
0.5905835216372969
 40
0.6602830746204058
 40
0.695625128381383
 40
0.7473839277257606
 40
0.7995309653554172
 40
0.852787346958832
 40
0.906401814948756
 40
0.9530844549752203
 40
1.0
 40
1.0
 40
1.0
 40
1.0
 10
225.2301488013795
 20
156.2832009627773
 30
0.0
 10
225.211351565538
 20
156.2720607708434
 30
0.0
 10
225.1736304256605
 20
156.249705317002
 30
0.0
 10
225.1148116505942
 20
156.2110692701901
 30
0.0
 10
225.0543755052216
 20
156.1687513220564
 30
0.0
 10
224.973063825574
 20
156.1083234869888
 30
0.0
 10
224.8906486887199
 20
156.0427298958638
 30
0.0
 10
224.8080503555825
 20
155.974588600046
 30
0.0
 10
224.7464584724014
 20
155.9232171631237
 30
0.0
 10
224.6658592028922
 20
155.856160572258
 30
0.0
 10
224.586248067842
 20
155.7915044209388
 30
0.0
 10
224.5087566692926
 20
155.7328422325427
 30
0.0
 10
224.4337837083979
 20
155.6796302536136
 30
0.0
 10
224.3611133999912
 20
155.6341799844613
 30
0.0
 10
224.2890015991261
 20
155.5968473604676
 30
0.0
 10
224.2159009153707
 20
155.5648064505516
 30
0.0
 10
224.1430084527372
 20
155.5423344550837
 30
0.0
 10
224.0621795250829
 20
155.5282727064976
 30
0.0
 10
223.9907493445712
 20
155.5237140349426
 30
0.0
 10
223.9101471735479
 20
155.5287122719887
 30
0.0
 10
223.8281211195687
 20
155.5434908327391
 30
0.0
 10
223.7481238577649
 20
155.5668680247259
 30
0.0
 10
223.6706706672363
 20
155.5964073102846
 30
0.0
 10
223.6209681282582
 20
155.6206165500307
 30
0.0
 10
223.5960550201247
 20
155.6327512904288
 30
0.0
  0
ARC
  5
249
330
1F
100
AcDbEntity
  8
0
  6
Continuous
 62
     7
370
    30
100
AcDbCircle
 10
219.7883552197
 20
148.7815450336
 30
0.0
 40
9.267575684304369
100
AcDbArc
 50
47.4994504421
 51
54.0424064818
  0
ARC
  5
24A
330
1F
100
AcDbEntity
  8
0
  6
Continuous
 62
     7
370
    30
100
AcDbCircle
 10
221.3616553335
 20
148.7393367548
 30
0.0
 40
12.93085775324318
100
AcDbArc
 50
29.2871999902
 51
34.5264680824
  0
SPLINE
  5
24B
330
1F
100
AcDbEntity
  8
0
  6
Continuous
 62
     7
370
    30
100
AcDbSpline
210
0.0
220
0.0
230
1.0
 70
     8
 71
     3
 72
    30
 73
    26
 74
     0
 42
0.000000001
 43
0.00000001
 40
0.0
 40
0.0
 40
0.0
 40
0.0
 40
0.0503912105160104
 40
0.1014971920303286
 40
0.1367538569343852
 40
0.1722594799542165
 40
0.2085650694858727
 40
0.2451563622302403
 40
0.2796634054641176
 40
0.314430933232462
 40
0.3500367721992626
 40
0.3859419952500679
 40
0.4516507669903435
 40
0.4853489795615138
 40
0.51927765622156
 40
0.6202820338549597
 40
0.6545955755238883
 40
0.7039127526819303
 40
0.7536077484104249
 40
0.8043532618681589
 40
0.8554253234071619
 40
0.8913003173493702
 40
0.9272816249505249
 40
0.9635862548349091
 40
1.0
 40
1.0
 40
1.0
 40
1.0
 10
229.8295159324896
 20
146.7870268776458
 30
0.0
 10
229.8018232696115
 20
146.7723996205552
 30
0.0
 10
229.7460451389971
 20
146.7429376269536
 30
0.0
 10
229.6617570182801
 20
146.7143475133118
 30
0.0
 10
229.5829023009879
 20
146.695679219998
 30
0.0
 10
229.5109690449325
 20
146.6849656583347
 30
0.0
 10
229.4361628335299
 20
146.6801697269629
 30
0.0
 10
229.3607145950091
 20
146.6818737570792
 30
0.0
 10
229.2858158230712
 20
146.6900383325605
 30
0.0
 10
229.2118099082651
 20
146.7045889332297
 30
0.0
 10
229.1377879318229
 20
146.7261111948851
 30
0.0
 10
229.0445789803933
 20
146.7627527419551
 30
0.0
 10
228.9572464648744
 20
146.8111821217662
 30
0.0
 10
228.8781054979042
 20
146.8693540713832
 30
0.0
 10
228.7844568739274
 20
146.9510847108811
 30
0.0
 10
228.7042758490524
 20
147.0481145955622
 30
0.0
 10
228.6332398281033
 20
147.162866218156
 30
0.0
 10
228.5887260482152
 20
147.2490608757812
 30
0.0
 10
228.5473045471902
 20
147.348597955518
 30
0.0
 10
228.5134730381326
 20
147.4507067698855
 30
0.0
 10
228.4895513814957
 20
147.5436416057138
 30
0.0
 10
228.4729650461315
 20
147.6259557696323
 30
0.0
 10
228.4617458444119
 20
147.6975494452945
 30
0.0
 10
228.4534745114108
 20
147.7684973203017
 30
0.0
 10
228.4506341850123
 20
147.8147383233923
 30
0.0
 10
228.4492118908316
 20
147.8378935176822
 30
0.0
  0
LINE
  5
24C
330
1F
100
AcDbEntity
  8
0
  6
Continuous
 62
     7
370
    30
100
AcDbLine
 10
229.7185054277
 20
149.074271265
 30
0.0
 11
233.9611461148
 21
151.5234956005
 31
0.0
  0
SPLINE
  5
24D
330
1F
100
AcDbEntity
  8
0
  6
Continuous
 62
     7
370
    30
100
AcDbSpline
210
0.0
220
0.0
230
1.0
 70
     8
 71
     3
 72
    18
 73
    14
 74
     0
 42
0.000000001
 43
0.00000001
 40
0.0
 40
0.0
 40
0.0
 40
0.0
 40
0.1301310353163838
 40
0.2622031503034487
 40
0.3510250397560249
 40
0.4404745671486806
 40
0.53194144595965
 40
0.6241291577170404
 40
0.711017414558374
 40
0.7985617918698127
 40
0.8882166928461838
 40
0.9786247294192909
 40
1.0
 40
1.0
 40
1.0
 40
1.0
 10
233.9611461148393
 20
151.5234956004652
 30
0.0
 10
233.9878095650473
 20
151.5393494377658
 30
0.0
 10
234.0415341867373
 20
151.5712935937046
 30
0.0
 10
234.102367863718
 20
151.6129654639067
 30
0.0
 10
234.149365846294
 20
151.6481893303433
 30
0.0
 10
234.1848222519521
 20
151.6771872432417
 30
0.0
 10
234.2151219940046
 20
151.7043134391859
 30
0.0
 10
234.239390408726
 20
151.7283269497515
 30
0.0
 10
234.2577076648632
 20
151.7485083598237
 30
0.0
 10
234.270747392628
 20
151.7648596582295
 30
0.0
 10
234.2779736344984
 20
151.7758722397713
 30
0.0
 10
234.2815907956026
 20
151.782950011679
 30
0.0
 10
234.2798274216276
 20
151.7819335703484
 30
0.0
 10
234.2794902282057
 20
151.7817392058316
 30
0.0
  0
SPLINE
  5
24E
330
1F
100
AcDbEntity
  8
0
  6
Continuous
 62
     7
370
    30
100
AcDbSpline
210
0.0
220
0.0
230
1.0
 70
     8
 71
     3
 72
    21
 73
    17
 74
     0
 42
0.000000001
 43
0.00000001
 40
0.0
 40
0.0
 40
0.0
 40
0.0
 40
0.0498666511509477
 40
0.108069002509138
 40
0.1670739284922894
 40
0.2841611792481227
 40
0.3433751634841294
 40
0.4031847620209497
 40
0.4893113961692218
 40
0.576097110028611
 40
0.6647178700081757
 40
0.7539103234718764
 40
0.8149954639249268
 40
0.8762536803375331
 40
0.9380380893087362
 40
1.0
 40
1.0
 40
1.0
 40
1.0
 10
234.2765271916466
 20
151.7803748290242
 30
0.0
 10
234.2758560244107
 20
151.7804022763118
 30
0.0
 10
234.2744014977476
 20
151.7804617589706
 30
0.0
 10
234.265343072317
 20
151.7700882766405
 30
0.0
 10
234.2506319663121
 20
151.7505169137496
 30
0.0
 10
234.2311888346078
 20
151.7193581073086
 30
0.0
 10
234.2100689642901
 20
151.6785015450108
 30
0.0
 10
234.1912969038978
 20
151.6375911827784
 30
0.0
 10
234.1703278777153
 20
151.5842882554612
 30
0.0
 10
234.1486691437245
 20
151.5163514581983
 30
0.0
 10
234.1299980358
 20
151.4404945835446
 30
0.0
 10
234.1171050296274
 20
151.3664350103517
 30
0.0
 10
234.1092115869977
 20
151.2973655780645
 30
0.0
 10
234.1051121663239
 20
151.235001578792
 30
0.0
 10
234.1036744218909
 20
151.1704770921315
 30
0.0
 10
234.105267866537
 20
151.1258699483198
 30
0.0
 10
234.1060657316785
 20
151.1035343841705
 30
0.0
  0
SPLINE
  5
24F
330
1F
100
AcDbEntity
  8
0
  6
Continuous
 62
     7
370
    30
100
AcDbSpline
210
0.0
220
0.0
230
1.0
 70
     8
 71
     3
 72
    28
 73
    24
 74
     0
 42
0.000000001
 43
0.00000001
 40
0.0
 40
0.0
 40
0.0
 40
0.0
 40
0.0637725727002877
 40
0.1187505448058297
 40
0.1741129350310733
 40
0.230717253592143
 40
0.2877886910553825
 40
0.3284391312692707
 40
0.3693118083207741
 40
0.4109592908697587
 40
0.4529228619603688
 40
0.4868559377288256
 40
0.5210042567021583
 40
0.5558689996764876
 40
0.5910013929242809
 40
0.6938870166492035
 40
0.7291794536671663
 40
0.8612136074831865
 40
0.8953278644061478
 40
0.929664964472388
 40
0.9646952858802559
 40
0.9999622285278886
 40
1.0
 40
1.0
 40
1.0
 40
1.0
 10
234.1060657316785
 20
151.1035343841705
 30
0.0
 10
234.1089556600217
 20
151.0627958293456
 30
0.0
 10
234.1143369791481
 20
150.9869367981789
 30
0.0
 10
234.1325786945735
 20
150.871134403064
 30
0.0
 10
234.1559207165185
 20
150.757796776219
 30
0.0
 10
234.1852345870329
 20
150.640630112064
 30
0.0
 10
234.2157331964289
 20
150.5317461049366
 30
0.0
 10
234.2447050348131
 20
150.4327370697142
 30
0.0
 10
234.2707949131388
 20
150.3439947835461
 30
0.0
 10
234.2965583540351
 20
150.2538132742204
 30
0.0
 10
234.3192781541119
 20
150.1685482994425
 30
0.0
 10
234.33823215116
 20
150.0890722854095
 30
0.0
 10
234.3533723759524
 20
150.0153472227506
 30
0.0
 10
234.3653633868767
 20
149.941783353828
 30
0.0
 10
234.3786668318547
 20
149.8222109671328
 30
0.0
 10
234.3767429587841
 20
149.7079490182012
 30
0.0
 10
234.3450796090958
 20
149.546202900851
 30
0.0
 10
234.2943611167078
 20
149.4391110424839
 30
0.0
 10
234.2195379066668
 20
149.3507010130183
 30
0.0
 10
234.1759206937844
 20
149.3087035383029
 30
0.0
 10
234.1269714288082
 20
149.2702013387723
 30
0.0
 10
234.0909628064531
 20
149.2471086175217
 30
0.0
 10
234.0721767182905
 20
149.2362628167163
 30
0.0
 10
234.072156619609
 20
149.2362512131139
 30
0.0
  0
LINE
  5
250
330
1F
100
AcDbEntity
  8
0
  6
Continuous
 62
     7
370
    30
100
AcDbLine
 10
234.0721566196
 20
149.2362512131
 30
0.0
 11
229.8295159325
 21
146.7870268776
 31
0.0
  0
ARC
  5
251
330
1F
100
AcDbEntity
  8
0
  6
Continuous
 62
     7
370
    30
100
AcDbCircle
 10
223.6991083896
 20
149.5682628422
 30
0.0
 40
10.4466431648627
100
AcDbArc
 50
10.7873091097
 51
16.8278542862
  0
SPLINE
  5
252
330
1F
100
AcDbEntity
  8
0
  6
Continuous
 62
     7
370
    30
100
AcDbSpline
210
0.0
220
0.0
230
1.0
 70
     8
 71
     3
 72
    27
 73
    23
 74
     0
 42
0.000000001
 43
0.00000001
 40
0.0
 40
0.0
 40
0.0
 40
0.0
 40
0.0595836576818895
 40
0.1196541891613946
 40
0.1746278339565585
 40
0.2299988143349352
 40
0.2866999232954605
 40
0.3439346373696192
 40
0.3815311171202506
 40
0.4193383166892911
 40
0.4578754829155611
 40
0.4967041905879451
 40
0.534315005125356
 40
0.572251494693224
 40
0.6112644045184648
 40
0.6506719598382262
 40
0.7169616064250622
 40
0.7851875931602477
 40
0.8515086714070933
 40
0.9195708884850534
 40
0.9596077702408645
 40
1.0
 40
1.0
 40
1.0
 40
1.0
 10
223.5960550201247
 20
155.6327512904288
 30
0.0
 10
223.5643226653134
 20
155.6499048165203
 30
0.0
 10
223.5005986622419
 20
155.6843520346939
 30
0.0
 10
223.40791506103
 20
155.7469211868749
 30
0.0
 10
223.3192994185839
 20
155.8162135459912
 30
0.0
 10
223.2355980636372
 20
155.8927279488535
 30
0.0
 10
223.1558939662276
 20
155.9789380295117
 30
0.0
 10
223.0912312730727
 20
156.0640224334608
 30
0.0
 10
223.0411999117947
 20
156.1439936203637
 30
0.0
 10
223.0034800616812
 20
156.2162535400969
 30
0.0
 10
222.9715509331272
 20
156.2925788207737
 30
0.0
 10
222.9467319785775
 20
156.3715668836444
 30
0.0
 10
222.9296426004112
 20
156.4521826007565
 30
0.0
 10
222.9205144100247
 20
156.5341302074121
 30
0.0
 10
222.9197781967277
 20
156.6176468588384
 30
0.0
 10
222.9296855142696
 20
156.7205071511229
 30
0.0
 10
222.9587221822809
 20
156.8405165167394
 30
0.0
 10
223.0148193600862
 20
156.9685995721196
 30
0.0
 10
223.0903255899603
 20
157.0833628247565
 30
0.0
 10
223.1684607953877
 20
157.1669039614773
 30
0.0
 10
223.2414056317022
 20
157.2269947152502
 30
0.0
 10
223.2836999811053
 20
157.2532323807278
 30
0.0
 10
223.3049405872295
 20
157.2664091744577
 30
0.0
  0
LINE
  5
253
330
1F
100
AcDbEntity
  8
0
  6
Continuous
 62
     7
370
    30
100
AcDbLine
 10
223.3049405872
 20
157.2664091745
 30
0.0
 11
227.5475812743
 21
159.7156335099
 31
0.0
  0
SPLINE
  5
254
330
1F
100
AcDbEntity
  8
0
  6
Continuous
 62
     7
370
    30
100
AcDbSpline
210
0.0
220
0.0
230
1.0
 70
     8
 71
     3
 72
    27
 73
    23
 74
     0
 42
0.000000001
 43
0.00000001
 40
0.0
 40
0.0
 40
0.0
 40
0.0
 40
0.0350058648038769
 40
0.0702476222532295
 40
0.1062369330926529
 40
0.1424872955003059
 40
0.1775155306054211
 40
0.2127939886761867
 40
0.2488797057105003
 40
0.2852555716170813
 40
0.3883612615871383
 40
0.4237362016141843
 40
0.4890008604955765
 40
0.5559825901964298
 40
0.6601780180040826
 40
0.6955315783907086
 40
0.7473072293060687
 40
0.7994712449088913
 40
0.8527449656644276
 40
0.9063768893918291
 40
0.9530719749967946
 40
1.0
 40
1.0
 40
1.0
 40
1.0
 10
227.5475812743487
 20
159.7156335099258
 30
0.0
 10
227.566424411718
 20
159.7258260965463
 30
0.0
 10
227.6042376639659
 20
159.7462799541701
 30
0.0
 10
227.6638090124981
 20
159.7694383765337
 30
0.0
 10
227.7254519015972
 20
159.7867826245812
 30
0.0
 10
227.788268750052
 20
159.7972247908453
 30
0.0
 10
227.8516284740605
 20
159.8009050439591
 30
0.0
 10
227.9156269200263
 20
159.7979032958991
 30
0.0
 10
227.9809986710913
 20
159.7880071957229
 30
0.0
 10
228.0879879324244
 20
159.7608010644578
 30
0.0
 10
228.1956454593595
 20
159.7124043047189
 30
0.0
 10
228.3185154835587
 20
159.6370739778955
 30
0.0
 10
228.418376891802
 20
159.5651601587487
 30
0.0
 10
228.5553088638024
 20
159.4517811671729
 30
0.0
 10
228.6707043903583
 20
159.3463856741474
 30
0.0
 10
228.7747012895202
 20
159.2517410886522
 30
0.0
 10
228.8496088948407
 20
159.1847660590123
 30
0.0
 10
228.9334334111482
 20
159.1133403395929
 30
0.0
 10
229.0179890345065
 20
159.0464524371492
 30
0.0
 10
229.0996736595749
 20
158.9882774456921
 30
0.0
 10
229.1781132962597
 20
158.9383547870541
 30
0.0
 10
229.2279300628622
 20
158.9117325132389
 30
0.0
 10
229.2529004195777
 20
158.8983882574977
 30
0.0
  0
SPLINE
  5
255
330
1F
100
AcDbEntity
  8
0
  6
Continuous
 62
     7
370
    30
100
AcDbSpline
210
0.0
220
0.0
230
1.0
 70
     8
 71
     3
 72
    11
 73
     7
 74
     0
 42
0.000000001
 43
0.00000001
 40
0.0
 40
0.0
 40
0.0
 40
0.0
 40
0.2755991932687112
 40
0.5534505900750982
 40
0.8077148714671873
 40
1.0
 40
1.0
 40
1.0
 40
1.0
 10
229.2529004195777
 20
158.8983882574977
 30
0.0
 10
229.284549412036
 20
158.8831701632524
 30
0.0
 10
229.3481060333148
 20
158.8526096121129
 30
0.0
 10
229.4391487056233
 20
158.821135234777
 30
0.0
 10
229.5189603756192
 20
158.7999898631167
 30
0.0
 10
229.5649213493125
 20
158.7932567592098
 30
0.0
 10
229.5847122426329
 20
158.7903574703038
 30
0.0
  0
SPLINE
  5
256
330
1F
100
AcDbEntity
  8
0
  6
Continuous
 62
     7
370
    30
100
AcDbSpline
210
0.0
220
0.0
230
1.0
 70
     8
 71
     3
 72
    16
 73
    12
 74
     0
 42
0.000000001
 43
0.00000001
 40
0.0
 40
0.0
 40
0.0
 40
0.0
 40
0.0782811483482018
 40
0.1657894426809833
 40
0.3428660196799678
 40
0.4332494892628709
 40
0.5207915955146354
 40
0.6977264362210578
 40
0.7878534916900115
 40
0.8934580981332548
 40
1.0
 40
1.0
 40
1.0
 40
1.0
 10
229.8794198417768
 20
158.8476175294601
 30
0.0
 10
229.8766829893917
 20
158.8496019870836
 30
0.0
 10
229.8708866866904
 20
158.8538048140778
 30
0.0
 10
229.847815079818
 20
158.8589064836661
 30
0.0
 10
229.8134733062085
 20
158.8593363225124
 30
0.0
 10
229.7689466485813
 20
158.8529680115071
 30
0.0
 10
229.7186830187642
 20
158.8418566831897
 30
0.0
 10
229.6606838206978
 20
158.823253548522
 30
0.0
 10
229.593737002279
 20
158.7953064130157
 30
0.0
 10
229.536506439401
 20
158.7680591571023
 30
0.0
 10
229.4940909381703
 20
158.7443381854802
 30
0.0
 10
229.4727894884988
 20
158.7324252982455
 30
0.0
  0
LINE
  5
257
330
1F
100
AcDbEntity
  8
0
  6
Continuous
 62
     7
370
    30
100
AcDbLine
 10
229.4727894885
 20
158.7324252982
 30
0.0
 11
225.2301488014
 21
156.2832009628
 31
0.0
  0
ARC
  5
258
330
1F
100
AcDbEntity
  8
0
  6
Continuous
 62
     7
370
    30
100
AcDbCircle
 10
224.0309959068
 20
151.2307693691
 30
0.0
 40
9.267575684313513
100
AcDbArc
 50
47.4994504421
 51
54.0424064818
  0
ARC
  5
259
330
1F
100
AcDbEntity
  8
0
  6
Continuous
 62
     7
370
    30
100
AcDbCircle
 10
224.7879693162
 20
147.3544813297
 30
0.0
 40
5.073381203799036
100
AcDbArc
 50
343.7972469772
 51
353.5780658009
  0
SPLINE
  5
25A
330
1F
100
AcDbEntity
  8
0
  6
Continuous
 62
     7
370
    30
100
AcDbSpline
210
0.0
220
0.0
230
1.0
 70
     8
 71
     3
 72
    21
 73
    17
 74
     0
 42
0.000000001
 43
0.00000001
 40
0.0
 40
0.0
 40
0.0
 40
0.0
 40
0.0599624534231115
 40
0.1701967769978279
 40
0.2837328632693852
 40
0.3656654847412064
 40
0.4496734123246088
 40
0.5178439986663398
 40
0.5879182467026893
 40
0.6561376175876608
 40
0.7265337816453753
 40
0.7918789503636139
 40
0.8589622100662812
 40
0.9272978893351742
 40
0.9974722498218265
 40
1.0
 40
1.0
 40
1.0
 40
1.0
 10
227.9667514810557
 20
145.426129698595
 30
0.0
 10
227.9818646674798
 20
145.4498766229451
 30
0.0
 10
228.024761771796
 20
145.5172796352848
 30
0.0
 10
228.116476459266
 20
145.6047564667111
 30
0.0
 10
228.2402535866502
 20
145.6706447231195
 30
0.0
 10
228.3785951588411
 20
145.7095515626632
 30
0.0
 10
228.513978497295
 20
145.729987548957
 30
0.0
 10
228.6588302808037
 20
145.7422310025667
 30
0.0
 10
228.8049415055331
 20
145.7509210660065
 30
0.0
 10
228.9599359308288
 20
145.7609618067852
 30
0.0
 10
229.1135421457861
 20
145.7758352771619
 30
0.0
 10
229.2631751638923
 20
145.7987730299878
 30
0.0
 10
229.4043688561409
 20
145.8314247298443
 30
0.0
 10
229.5379314856252
 20
145.8765148041103
 30
0.0
 10
229.6197297124122
 20
145.9157580163477
 30
0.0
 10
229.6584896082043
 20
145.9380441472693
 30
0.0
 10
229.6598372352896
 20
145.9388190047101
 30
0.0
  0
SPLINE
  5
25B
330
1F
100
AcDbEntity
  8
0
  6
Continuous
 62
     7
370
    30
100
AcDbSpline
210
0.0
220
0.0
230
1.0
 70
     8
 71
     3
 72
    31
 73
    27
 74
     0
 42
0.000000001
 43
0.00000001
 40
0.0
 40
0.0
 40
0.0
 40
0.0
 40
0.0349908149412203
 40
0.0702174211119961
 40
0.1061912592816739
 40
0.1424260367872404
 40
0.1774392124121663
 40
0.2127025034258774
 40
0.2487727063431044
 40
0.2851329333906254
 40
0.3191320095893565
 40
0.3883919277319163
 40
0.4237516592220003
 40
0.4562882245109089
 40
0.5223878578768624
 40
0.5559930929384505
 40
0.5904715898714376
 40
0.6251360503312553
 40
0.6603185699934998
 40
0.6956569310347804
 40
0.747410322353369
 40
0.7995519113921014
 40
0.8528027284946305
 40
0.9064115945689678
 40
0.9530893569528873
 40
1.0
 40
1.0
 40
1.0
 40
1.0
 10
222.5105187030044
 20
157.4216264054898
 30
0.0
 10
222.4919475295559
 20
157.4103272163386
 30
0.0
 10
222.4546800378223
 20
157.3876526966344
 30
0.0
 10
222.3995569243572
 20
157.3463945827273
 30
0.0
 10
222.3451079360894
 20
157.2997789793131
 30
0.0
 10
222.2924100520668
 20
157.2481623899941
 30
0.0
 10
222.2418344695548
 20
157.192467413731
 30
0.0
 10
222.1932004903951
 20
157.1329397088569
 30
0.0
 10
222.1459351811864
 20
157.0692086577986
 30
0.0
 10
222.1012322442132
 20
157.0034141015072
 30
0.0
 10
222.0451405232066
 20
156.9145415418073
 30
0.0
 10
221.9929005351267
 20
156.8237272095653
 30
0.0
 10
221.9444128795656
 20
156.7348796656752
 30
0.0
 10
221.8987416774372
 20
156.6496031771616
 30
0.0
 10
221.8556735115585
 20
156.568775498014
 30
0.0
 10
221.8132764962746
 20
156.4925782264323
 30
0.0
 10
221.7811650017925
 20
156.4375327163581
 30
0.0
 10
221.7486523377828
 20
156.3853734302264
 30
0.0
 10
221.7156638129013
 20
156.3367582128243
 30
0.0
 10
221.6767357032091
 20
156.2850261592793
 30
0.0
 10
221.6311167219298
 20
156.2328607605651
 30
0.0
 10
221.577096666348
 20
156.1830036041815
 30
0.0
 10
221.5191718073927
 20
156.1415351378445
 30
0.0
 10
221.4594693065383
 20
156.1102604000953
 30
0.0
 10
221.3989183701699
 20
156.0873847362041
 30
0.0
 10
221.3578178577629
 20
156.0785302125951
 30
0.0
 10
221.3372164653394
 20
156.0740919342158
 30
0.0
  0
ARC
  5
25C
330
1F
100
AcDbEntity
  8
0
  6
Continuous
 62
     7
370
    30
100
AcDbCircle
 10
222.1138440407
 20
153.2808084829
 30
0.0
 40
4.159774495760376
100
AcDbArc
 50
73.3612274631
 51
84.5279794734
  0
ARC
  5
25D
330
1F
100
AcDbEntity
  8
0
  6
Continuous
 62
     7
370
    30
100
AcDbCircle
 10
229.0306100033
 20
149.8037056651
 30
0.0
 40
5.073381203803592
100
AcDbArc
 50
343.7972469772
 51
353.5780658009
  0
LINE
  5
25E
330
1F
100
AcDbEntity
  8
0
  6
Continuous
 62
     7
370
    30
100
AcDbLine
 10
229.6598372353
 20
145.9388190047
 30
0.0
 11
233.9024779224
 21
148.3880433402
 31
0.0
  0
SPLINE
  5
25F
330
1F
100
AcDbEntity
  8
0
  6
Continuous
 62
     7
370
    30
100
AcDbSpline
210
0.0
220
0.0
230
1.0
 70
     8
 71
     3
 72
    33
 73
    29
 74
     0
 42
0.000000001
 43
0.00000001
 40
0.0
 40
0.0
 40
0.0
 40
0.0
 40
0.0503789816151905
 40
0.1014725607686044
 40
0.136720669611943
 40
0.1722176761540996
 40
0.2085144550728048
 40
0.2450968678699815
 40
0.2795955369607703
 40
0.3143546273718328
 40
0.3499518255406294
 40
0.3858483351391172
 40
0.4186081153224321
 40
0.4515985857893423
 40
0.4852886205038233
 40
0.5192090633783187
 40
0.5526231464719564
 40
0.5862277321553634
 40
0.620369742263705
 40
0.6546749567483646
 40
0.7039801656512394
 40
0.7536631014358423
 40
0.804396300010839
 40
0.8554559674206726
 40
0.8913233408812432
 40
0.9272970118553415
 40
0.963593956440372
 40
1.0
 40
1.0
 40
1.0
 40
1.0
 10
228.793371045432
 20
144.4496113664407
 30
0.0
 10
228.765956550926
 20
144.435262408806
 30
0.0
 10
228.7107387027181
 20
144.4063609616375
 30
0.0
 10
228.6305892264172
 20
144.3817967061111
 30
0.0
 10
228.5573576148017
 20
144.3682958719688
 30
0.0
 10
228.4919710162994
 20
144.3632679347518
 30
0.0
 10
228.425469774135
 20
144.3651724752896
 30
0.0
 10
228.3600221569607
 20
144.3742366657819
 30
0.0
 10
228.2967474862416
 20
144.3900748595817
 30
0.0
 10
228.2360092191666
 20
144.4123602545983
 30
0.0
 10
228.1772675391534
 20
144.4415432178396
 30
0.0
 10
228.123223091307
 20
144.4764334989478
 30
0.0
 10
228.0745863415216
 20
144.5158570695572
 30
0.0
 10
228.0313003146954
 20
144.5590044917861
 30
0.0
 10
227.9923238603311
 20
144.6067619845528
 30
0.0
 10
227.9583720519446
 20
144.6582214071808
 30
0.0
 10
227.9297549891949
 20
144.7124075173392
 30
0.0
 10
227.9063750904066
 20
144.7687799549849
 30
0.0
 10
227.8880883368585
 20
144.8270749068007
 30
0.0
 10
227.8729350664961
 20
144.8952457796704
 30
0.0
 10
227.8635805018874
 20
144.9727498092566
 30
0.0
 10
227.862515198149
 20
145.0586450570125
 30
0.0
 10
227.8701114540518
 20
145.143029585411
 30
0.0
 10
227.8841217622181
 20
145.2163448302183
 30
0.0
 10
227.9014284190639
 20
145.2785752063424
 30
0.0
 10
227.9199614662842
 20
145.3306418512367
 30
0.0
 10
227.9414601605406
 20
145.3802982597363
 30
0.0
 10
227.9583126112209
 20
145.4108372765706
 30
0.0
 10
227.9667514810557
 20
145.426129698595
 30
0.0
  0
SPLINE
  5
260
330
1F
100
AcDbEntity
  8
0
  6
Continuous
 62
     7
370
    30
100
AcDbSpline
210
0.0
220
0.0
230
1.0
 70
     8
 71
     3
 72
    12
 73
     8
 74
     0
 42
0.000000001
 43
0.00000001
 40
0.0
 40
0.0
 40
0.0
 40
0.0
 40
0.1957702193262417
 40
0.3944606151648377
 40
0.662417109016508
 40
0.9384364774237681
 40
1.0
 40
1.0
 40
1.0
 40
1.0
 10
233.9024779224089
 20
148.3880433401783
 30
0.0
 10
233.929011007097
 20
148.4045174995198
 30
0.0
 10
233.9824729531699
 20
148.4377115524791
 30
0.0
 10
234.057049284787
 20
148.5013813277901
 30
0.0
 10
234.1212986663316
 20
148.5779809846479
 30
0.0
 10
234.160402144716
 20
148.6442138900747
 30
0.0
 10
234.1672920199166
 20
148.6789904087191
 30
0.0
 10
234.1685484964704
 20
148.6853324510674
 30
0.0
  0
ARC
  5
261
330
1F
100
AcDbEntity
  8
0
  6
Continuous
 62
     7
370
    30
100
AcDbCircle
 10
232.1173090942
 20
147.9440647866
 30
0.0
 40
1.391588436683861
100
AcDbArc
 50
311.3138094948
 51
8.586413273
  0
LINE
  5
262
330
1F
100
AcDbEntity
  8
0
  6
Continuous
 62
     7
370
    30
100
AcDbLine
 10
233.0360117326
 20
146.8988357019
 30
0.0
 11
228.7933710454
 21
144.4496113664
 31
0.0
  0
LINE
  5
263
330
1F
100
AcDbEntity
  8
0
  6
Continuous
 62
     7
370
    30
100
AcDbLine
 10
226.7531593901
 20
159.870850741
 30
0.0
 11
222.510518703
 21
157.4216264055
 31
0.0
  0
ARC
  5
264
330
1F
100
AcDbEntity
  8
0
  6
Continuous
 62
     7
370
    30
100
AcDbCircle
 10
226.3564847278
 20
155.7300328184
 30
0.0
 40
4.159774495755759
100
AcDbArc
 50
73.3612274631
 51
84.5279794734
  0
SPLINE
  5
265
330
1F
100
AcDbEntity
  8
0
  6
Continuous
 62
     7
370
    30
100
AcDbSpline
210
0.0
220
0.0
230
1.0
 70
     8
 71
     3
 72
    25
 73
    21
 74
     0
 42
0.000000001
 43
0.00000001
 40
0.0
 40
0.0
 40
0.0
 40
0.0
 40
0.0596378603400315
 40
0.1197630373819094
 40
0.174786691152521
 40
0.2302080419585597
 40
0.2869607313514327
 40
0.3442475112731772
 40
0.3818781921658372
 40
0.4197197845666168
 40
0.4582920076680024
 40
0.4971560374278383
 40
0.5348010661474857
 40
0.572772066160919
 40
0.6118204656404692
 40
0.6512638696196075
 40
0.785422883824984
 40
0.9194977229258324
 40
0.9595710258329891
 40
1.0
 40
1.0
 40
1.0
 40
1.0
 10
221.3372164653394
 20
156.0740919342158
 30
0.0
 10
221.3102375863511
 20
156.0703373387742
 30
0.0
 10
221.2560593768318
 20
156.0627974681005
 30
0.0
 10
221.1719759207211
 20
156.0656020035046
 30
0.0
 10
221.0880067387386
 20
156.0781993313829
 30
0.0
 10
221.0049643113469
 20
156.1011260617483
 30
0.0
 10
220.9220148877618
 20
156.1354828309055
 30
0.0
 10
220.8509142323767
 20
156.1768321864209
 30
0.0
 10
220.7927920663781
 20
156.2208564017118
 30
0.0
 10
220.746531043074
 20
156.2639934905389
 30
0.0
 10
220.7044726338829
 20
156.3128664570698
 30
0.0
 10
220.6682176449968
 20
156.3666370168655
 30
0.0
 10
220.6386979093292
 20
156.4244719535776
 30
0.0
 10
220.616360235192
 20
156.485982194042
 30
0.0
 10
220.6017760290278
 20
156.5512620033675
 30
0.0
 10
220.5908636521324
 20
156.6735475569469
 30
0.0
 10
220.6274298321758
 20
156.8549803595795
 30
0.0
 10
220.7368335366889
 20
157.0069204686982
 30
0.0
 10
220.8358754803844
 20
157.0903884187426
 30
0.0
 10
220.8777266813859
 20
157.1164161416654
 30
0.0
 10
220.8987447343609
 20
157.1294875003389
 30
0.0
  0
LINE
  5
266
330
1F
100
AcDbEntity
  8
0
  6
Continuous
 62
     7
370
    30
100
AcDbLine
 10
220.8987447344
 20
157.1294875003
 30
0.0
 11
225.1413854215
 21
159.5787118358
 31
0.0
  0
SPLINE
  5
267
330
1F
100
AcDbEntity
  8
0
  6
Continuous
 62
     7
370
    30
100
AcDbSpline
210
0.0
220
0.0
230
1.0
 70
     8
 71
     3
 72
    18
 73
    14
 74
     0
 42
0.000000001
 43
0.00000001
 40
0.0
 40
0.0
 40
0.0
 40
0.0
 40
0.0688932076795147
 40
0.138250663310223
 40
0.2090793395847245
 40
0.2804217777675732
 40
0.3493590112644168
 40
0.4187886954644593
 40
0.4898071037179856
 40
0.5613965387588075
 40
0.7643134428788448
 40
0.8339330081599059
 40
1.0
 40
1.0
 40
1.0
 40
1.0
 10
225.1413854214801
 20
159.578711835807
 30
0.0
 10
225.1603951894801
 20
159.5889868034603
 30
0.0
 10
225.1985428258567
 20
159.6096059782876
 30
0.0
 10
225.2608310170513
 20
159.6341318963992
 30
0.0
 10
225.3268375696742
 20
159.653757922429
 30
0.0
 10
225.3957297554405
 20
159.6675565715756
 30
0.0
 10
225.466657062977
 20
159.6757267518711
 30
0.0
 10
225.5395971953267
 20
159.6784887027754
 30
0.0
 10
225.6152678526368
 20
159.6759059110615
 30
0.0
 10
225.740771008979
 20
159.6633285225626
 30
0.0
 10
225.8692368571717
 20
159.6353358195615
 30
0.0
 10
226.0307916227092
 20
159.5878422551256
 30
0.0
 10
226.1129357631071
 20
159.556649423411
 30
0.0
 10
226.1708153064284
 20
159.5346706572349
 30
0.0
  0
SPLINE
  5
268
330
1F
100
AcDbEntity
  8
0
  6
Continuous
 62
     7
370
    30
100
AcDbSpline
210
0.0
220
0.0
230
1.0
 70
     8
 71
     3
 72
    13
 73
     9
 74
     0
 42
0.000000001
 43
0.00000001
 40
0.0
 40
0.0
 40
0.0
 40
0.0
 40
0.0106090811776354
 40
0.1629341412868794
 40
0.4723126337068149
 40
0.6296499408057263
 40
0.8140068390597096
 40
1.0
 40
1.0
 40
1.0
 40
1.0
 10
227.0948217774812
 20
159.9576520751197
 30
0.0
 10
227.0937398046206
 20
159.9578106287048
 30
0.0
 10
227.0771228784246
 20
159.9602456927604
 30
0.0
 10
227.0254398406288
 20
159.9599911739217
 30
0.0
 10
226.9553412596724
 20
159.9516575123423
 30
0.0
 10
226.8795739925341
 20
159.9298166065919
 30
0.0
 10
226.8177790907679
 20
159.9058599484435
 30
0.0
 10
226.7747626414025
 20
159.8825547986809
 30
0.0
 10
226.7531593901237
 20
159.8708507409579
 30
0.0
  0
LWPOLYLINE
  5
269
330
1F
100
AcDbEntity
  8
0
  6
Continuous
 62
     7
370
    30
100
AcDbPolyline
 90
        3
 70
   128
 43
0.0
 10
228.2367473152
 20
144.0495130328
 10
228.3116277055
 20
144.090788087
 10
228.3182084698
 20
144.0945768737
  0
SPLINE
  5
26A
330
1F
100
AcDbEntity
  8
0
  6
Continuous
 62
     7
370
    30
100
AcDbSpline
210
0.0
220
0.0
230
1.0
 70
     8
 71
     3
 72
    28
 73
    24
 74
     0
 42
0.000000001
 43
0.00000001
 40
0.0
 40
0.0
 40
0.0
 40
0.0
 40
0.0599296318508575
 40
0.1148728219891969
 40
0.1701996782646433
 40
0.2267637675401237
 40
0.2837913260924813
 40
0.3246520645385056
 40
0.3657361372130147
 40
0.4075988094450811
 40
0.4497794183720401
 40
0.5181491348918088
 40
0.5528297678894398
 40
0.5880155624121134
 40
0.6564695630121613
 40
0.6912697388201701
 40
0.7266246200448193
 40
0.7919340208607679
 40
0.8589805612844744
 40
0.9272788357391005
 40
0.9622582734611925
 40
0.997473633433242
 40
1.0
 40
1.0
 40
1.0
 40
1.0
 10
226.3840620218686
 20
144.2885004870921
 30
0.0
 10
226.4111896371014
 20
144.292272835255
 30
0.0
 10
226.4631877158378
 20
144.2995036535599
 30
0.0
 10
226.5452966542677
 20
144.2973861809709
 30
0.0
 10
226.6291258162481
 20
144.2869102833477
 30
0.0
 10
226.7180769374177
 20
144.2673409845273
 30
0.0
 10
226.8035396232929
 20
144.2421473032664
 30
0.0
 10
226.8840164850625
 20
144.214627876236
 30
0.0
 10
226.958580127845
 20
144.1870747133379
 30
0.0
 10
227.0370032474263
 20
144.1568228785382
 30
0.0
 10
227.136269417943
 20
144.1180963267536
 30
0.0
 10
227.2355619027003
 20
144.0803256638031
 30
0.0
 10
227.3330503620545
 20
144.0463525651562
 30
0.0
 10
227.4322144139356
 20
144.0146234171001
 30
0.0
 10
227.5332740181589
 20
143.987623638728
 30
0.0
 10
227.6340253134223
 20
143.9678988335746
 30
0.0
 10
227.7317668911986
 20
143.9540576603567
 30
0.0
 10
227.8505695777844
 20
143.9476106909727
 30
0.0
 10
227.9862265100212
 20
143.9586530794993
 30
0.0
 10
228.0937595103559
 20
143.9850149300561
 30
0.0
 10
228.1749845845282
 20
144.0168590664455
 30
0.0
 10
228.2152736719087
 20
144.0371821626229
 30
0.0
 10
228.2354000874192
 20
144.0487394104091
 30
0.0
 10
228.2367473152203
 20
144.0495130327918
 30
0.0
  0
SPLINE
  5
26B
330
1F
100
AcDbEntity
  8
0
  6
Continuous
 62
     7
370
    30
100
AcDbSpline
210
0.0
220
0.0
230
1.0
 70
     8
 71
     3
 72
    31
 73
    27
 74
     0
 42
0.000000001
 43
0.00000001
 40
0.0
 40
0.0
 40
0.0
 40
0.0
 40
0.0232003809725965
 40
0.0627942146524278
 40
0.1010532008455441
 40
0.1395854887610925
 40
0.1789994913690355
 40
0.2187304040829126
 40
0.2558812812498443
 40
0.2933125252131455
 40
0.3316364614691703
 40
0.3702741301389064
 40
0.4058269179092776
 40
0.4416172464321848
 40
0.4781119956983946
 40
0.5148325216515454
 40
0.5525072630760104
 40
0.5903852073199438
 40
0.628829236174004
 40
0.6674435532999032
 40
0.7239946158232144
 40
0.7809698629841725
 40
0.8391571664759275
 40
0.8977357109912262
 40
0.9487406208486627
 40
1.0
 40
1.0
 40
1.0
 40
1.0
 10
220.2160209538207
 20
156.6339143530424
 30
0.0
 10
220.206252125575
 20
156.6247663328033
 30
0.0
 10
220.1798117883025
 20
156.6000062761809
 30
0.0
 10
220.1415671549234
 20
156.554166685639
 30
0.0
 10
220.1009101846588
 20
156.4973565884565
 30
0.0
 10
220.0645446965565
 20
156.4358544656901
 30
0.0
 10
220.0318974976597
 20
156.3693419034616
 30
0.0
 10
220.0038591229606
 20
156.2997257138005
 30
0.0
 10
219.9802185593489
 20
156.2281205975918
 30
0.0
 10
219.9604605969004
 20
156.154862918848
 30
0.0
 10
219.9438903582791
 20
156.0786397453173
 30
0.0
 10
219.9307043159018
 20
156.0023369231447
 30
0.0
 10
219.920360555744
 20
155.9271652103386
 30
0.0
 10
219.912231374984
 20
155.853457420241
 30
0.0
 10
219.9056456355381
 20
155.7794926760875
 30
0.0
 10
219.9001557790167
 20
155.705311161648
 30
0.0
 10
219.8953520313828
 20
155.6317310389663
 30
0.0
 10
219.8907490811777
 20
155.558960980526
 30
0.0
 10
219.8858994038187
 20
155.4878382501506
 30
0.0
 10
219.879480045599
 20
155.4080294245477
 30
0.0
 10
219.8703738836041
 20
155.3213564119253
 30
0.0
 10
219.8564825027558
 20
155.2294672710116
 30
0.0
 10
219.8377597806048
 20
155.1426207751379
 30
0.0
 10
219.8142239297048
 20
155.0650017857178
 30
0.0
 10
219.7867809984019
 20
154.9958298216114
 30
0.0
 10
219.7652961574999
 20
154.9562845564928
 30
0.0
 10
219.7545270061523
 20
154.9364627227128
 30
0.0
  0
LWPOLYLINE
  5
26C
330
1F
100
AcDbEntity
  8
0
  6
Continuous
 62
     7
370
    30
100
AcDbPolyline
 90
        3
 70
   128
 43
0.0
 10
220.8987447344
 20
157.1294875003
 10
220.8238643441
 20
157.0882124462
 10
220.8172835798
 20
157.0844236594
  0
LINE
  5
26D
330
1F
100
AcDbEntity
  8
0
  6
Continuous
 62
     7
370
    30
100
AcDbLine
 10
225.6881619901
 20
148.6976134606
 30
0.0
 11
223.9804953421
 21
147.7117984884
 31
0.0
  0
SPLINE
  5
26E
330
1F
100
AcDbEntity
  8
0
  6
Continuous
 62
     7
370
    30
100
AcDbSpline
210
0.0
220
0.0
230
1.0
 70
     8
 71
     3
 72
    31
 73
    27
 74
     0
 42
0.000000001
 43
0.00000001
 40
0.0
 40
0.0
 40
0.0
 40
0.0
 40
0.0503822252278343
 40
0.1014790940027053
 40
0.1367294722688887
 40
0.1722287642589685
 40
0.2085278801183459
 40
0.2451126482465044
 40
0.2796135385080181
 40
0.3143748668568311
 40
0.349974356924313
 40
0.3858731776924139
 40
0.4351851765197465
 40
0.4852837937386657
 40
0.5192064205552345
 40
0.5694625760323434
 40
0.6203453000565482
 40
0.6546527232564897
 40
0.7039611066379698
 40
0.7536472412208385
 40
0.8043837062144613
 40
0.8554466610623679
 40
0.8913163438166779
 40
0.9272923309283921
 40
0.9635916124647621
 40
1.0
 40
1.0
 40
1.0
 40
1.0
 10
226.6249733465767
 20
143.7573741276409
 30
0.0
 10
226.5979897843725
 20
143.7429958723717
 30
0.0
 10
226.5436399133006
 20
143.7140354143638
 30
0.0
 10
226.4698522549497
 20
143.6889645751996
 30
0.0
 10
226.4051333964908
 20
143.6745891570918
 30
0.0
 10
226.3495145872891
 20
143.6683393377453
 30
0.0
 10
226.2951827778026
 20
143.6683783205648
 30
0.0
 10
226.2440826418799
 20
143.6747594608804
 30
0.0
 10
226.1971026381682
 20
143.6869367471003
 30
0.0
 10
226.1545208717014
 20
143.704410350036
 30
0.0
 10
226.1161452212329
 20
143.7272927719983
 30
0.0
 10
226.0787816092539
 20
143.7586795171559
 30
0.0
 10
226.0461296780629
 20
143.8000454100271
 30
0.0
 10
226.0254527697201
 20
143.8461075021788
 30
0.0
 10
226.0146258840302
 20
143.8952410440301
 30
0.0
 10
226.0136424194706
 20
143.9463140613923
 30
0.0
 10
226.0239146721737
 20
143.9975226192754
 30
0.0
 10
226.042600434942
 20
144.0469238275721
 30
0.0
 10
226.0687080579701
 20
144.0937195130308
 30
0.0
 10
226.1067765136298
 20
144.142080389584
 30
0.0
 10
226.1529301014196
 20
144.1856496052777
 30
0.0
 10
226.2007769805763
 20
144.2195021479127
 30
0.0
 10
226.2472112217318
 20
144.2448987012724
 30
0.0
 10
226.290491628613
 20
144.2634623222112
 30
0.0
 10
226.3359933515559
 20
144.278516043924
 30
0.0
 10
226.3680231103512
 20
144.2851690115284
 30
0.0
 10
226.3840620218686
 20
144.2885004870921
 30
0.0
  0
LINE
  5
26F
330
1F
100
AcDbEntity
  8
0
  6
Continuous
 62
     7
370
    30
100
AcDbLine
 10
227.205485198
 20
144.0924964862
 30
0.0
 11
226.6249733466
 21
143.7573741276
 31
0.0
  0
LINE
  5
270
330
1F
100
AcDbEntity
  8
0
  6
Continuous
 62
     7
370
    30
100
AcDbLine
 10
224.8065620736
 20
151.4165470402
 30
0.0
 11
222.120435107
 21
149.8658789492
 31
0.0
  0
LWPOLYLINE
  5
271
330
1F
100
AcDbEntity
  8
0
  6
Continuous
 62
     7
370
    30
100
AcDbPolyline
 90
        3
 70
   128
 43
0.0
 10
225.1413854215
 20
159.5787118358
 10
225.0665050312
 20
159.5374367816
 10
225.0606914645
 20
159.5340910699
  0
SPLINE
  5
272
330
1F
100
AcDbEntity
  8
0
  6
Continuous
 62
     7
370
    30
100
AcDbSpline
210
0.0
220
0.0
230
1.0
 70
     8
 71
     3
 72
    21
 73
    17
 74
     0
 42
0.000000001
 43
0.00000001
 40
0.0
 40
0.0
 40
0.0
 40
0.0
 40
0.0596162075060082
 40
0.1197195547828368
 40
0.2300243096687581
 40
0.343885522648484
 40
0.419276557272534
 40
0.496610415966258
 40
0.5721166862917859
 40
0.6504811261984549
 40
0.7168069860092081
 40
0.7850702437672682
 40
0.8514275524087594
 40
0.9195269510442261
 40
0.9595857044593159
 40
1.0
 40
1.0
 40
1.0
 40
1.0
 10
219.7545270061523
 20
154.9364627227128
 30
0.0
 10
219.7395253620676
 20
154.9128074106343
 30
0.0
 10
219.7093994915038
 20
154.8653034926771
 30
0.0
 10
219.6398277202373
 20
154.7893227753277
 30
0.0
 10
219.5410028976947
 20
154.7178881769962
 30
0.0
 10
219.4279307438291
 20
154.6822565811089
 30
0.0
 10
219.3335911941736
 20
154.6853422843766
 30
0.0
 10
219.2643299380123
 20
154.7135472875663
 30
0.0
 10
219.2140393853761
 20
154.767230278501
 30
0.0
 10
219.1918358357441
 20
154.838563475492
 30
0.0
 10
219.1973991409164
 20
154.9194975917379
 30
0.0
 10
219.2270421607715
 20
155.0009771825346
 30
0.0
 10
219.2806908998561
 20
155.0830149989129
 30
0.0
 10
219.3461755657855
 20
155.1496357317012
 30
0.0
 10
219.4130537359299
 20
155.2019423712851
 30
0.0
 10
219.4547264160989
 20
155.2273976542761
 30
0.0
 10
219.4756548142915
 20
155.2401815284205
 30
0.0
  0
LINE
  5
273
330
1F
100
AcDbEntity
  8
0
  6
Continuous
 62
     7
370
    30
100
AcDbLine
 10
219.4756548143
 20
155.2401815284
 30
0.0
 11
219.8848190287
 21
155.4763870017
 31
0.0
  0
SPLINE
  5
274
330
1F
100
AcDbEntity
  8
0
  6
Continuous
 62
     7
370
    30
100
AcDbSpline
210
0.0
220
0.0
230
1.0
 70
     8
 71
     3
 72
    22
 73
    18
 74
     0
 42
0.000000001
 43
0.00000001
 40
0.0
 40
0.0
 40
0.0
 40
0.0
 40
0.083856010321823
 40
0.1607347859299768
 40
0.2381504030063608
 40
0.3172972074773185
 40
0.3970925172579918
 40
0.454266546182509
 40
0.5117530735621477
 40
0.5703290495253633
 40
0.629349895612836
 40
0.7250156201818515
 40
0.773542190908098
 40
0.8227756044556663
 40
0.9185592627827714
 40
0.9672531027351327
 40
0.9999999999999999
 40
0.9999999999999999
 40
0.9999999999999999
 40
0.9999999999999999
 10
224.1252234670833
 20
144.7298411308792
 30
0.0
 10
224.1571323160824
 20
144.7125839321847
 30
0.0
 10
224.2182950400597
 20
144.6795054190613
 30
0.0
 10
224.3089511018507
 20
144.6190977082967
 30
0.0
 10
224.3976474794642
 20
144.5529702492653
 30
0.0
 10
224.4875344187595
 20
144.4790602799504
 30
0.0
 10
224.5702317136844
 20
144.4064231152013
 30
0.0
 10
224.6454374411265
 20
144.3383239641907
 30
0.0
 10
224.7132873599705
 20
144.2763846413026
 30
0.0
 10
224.7829506694731
 20
144.2134132370461
 30
0.0
 10
224.8693069437003
 20
144.1376510463438
 30
0.0
 10
224.9537884901719
 20
144.0684263312443
 30
0.0
 10
225.0357309942853
 20
144.0084580545143
 30
0.0
 10
225.1186768633999
 20
143.9533270212896
 30
0.0
 10
225.203001437278
 20
143.9073371090794
 30
0.0
 10
225.2803640824837
 20
143.874323261356
 30
0.0
 10
225.3159060426048
 20
143.8634746362343
 30
0.0
 10
225.3301972800917
 20
143.8591124604429
 30
0.0
  0
SPLINE
  5
275
330
1F
100
AcDbEntity
  8
0
  6
Continuous
 62
     7
370
    30
100
AcDbSpline
210
0.0
220
0.0
230
1.0
 70
     8
 71
     3
 72
    27
 73
    23
 74
     0
 42
0.000000001
 43
0.00000001
 40
0.0
 40
0.0
 40
0.0
 40
0.0
 40
0.0098726787485574
 40
0.0628689424137181
 40
0.0895138452725434
 40
0.1543164924201414
 40
0.1869838362137429
 40
0.21913969515988
 40
0.2872109525270238
 40
0.3533000067552912
 40
0.386562676245584
 40
0.4193965515410233
 40
0.4880339430141549
 40
0.5245554007257328
 40
0.5979383196319791
 40
0.6723770811003498
 40
0.747836394362599
 40
0.785722930277627
 40
0.8123035143764192
 40
0.8923826044397225
 40
0.9730000220723845
 40
1.0
 40
1.0
 40
1.0
 40
1.0
 10
219.0065977159404
 20
153.9241931011594
 30
0.0
 10
219.0059549102812
 20
153.9201235420936
 30
0.0
 10
219.0018615418044
 20
153.894208703672
 30
0.0
 10
219.0017921264215
 20
153.8543726586774
 30
0.0
 10
219.0026345167279
 20
153.7898100245685
 30
0.0
 10
219.0072659275511
 20
153.7325002896476
 30
0.0
 10
219.015288091376
 20
153.6714755525028
 30
0.0
 10
219.0256262871677
 20
153.6081435794351
 30
0.0
 10
219.0421927383882
 20
153.527668970332
 30
0.0
 10
219.0625028352523
 20
153.4458511985826
 30
0.0
 10
219.0799185958796
 20
153.3811684818588
 30
0.0
 10
219.0983695889283
 20
153.315265051801
 30
0.0
 10
219.1180097926522
 20
153.2479109203313
 30
0.0
 10
219.1434363507687
 20
153.161373498185
 30
0.0
 10
219.1692398913557
 20
153.0726964392969
 30
0.0
 10
219.1982753210309
 20
152.9667893682106
 30
0.0
 10
219.219762770104
 20
152.8791355816018
 30
0.0
 10
219.2336285746357
 20
152.8147414009014
 30
0.0
 10
219.2465881131671
 20
152.7487813341043
 30
0.0
 10
219.2602265563013
 20
152.6645687850427
 30
0.0
 10
219.2688732556049
 20
152.5822546830623
 30
0.0
 10
219.2714264401266
 20
152.5362360379648
 30
0.0
 10
219.272067005022
 20
152.5246904844283
 30
0.0
  0
SPLINE
  5
276
330
1F
100
AcDbEntity
  8
0
  6
Continuous
 62
     7
370
    30
100
AcDbSpline
210
0.0
220
0.0
230
1.0
 70
     8
 71
     3
 72
    14
 73
    10
 74
     0
 42
0.000000001
 43
0.00000001
 40
0.0
 40
0.0
 40
0.0
 40
0.0
 40
0.0603615517569193
 40
0.1953542676119519
 40
0.3313660077428732
 40
0.4706572495293171
 40
0.6111196919401279
 40
0.8693838377989526
 40
1.0
 40
1.0
 40
1.0
 40
1.0
 10
223.5956856436727
 20
144.773864703568
 30
0.0
 10
223.5903904256474
 20
144.7729743764622
 30
0.0
 10
223.5732529696168
 20
144.77009291973
 30
0.0
 10
223.5496667090166
 20
144.7691720228464
 30
0.0
 10
223.5250297609703
 20
144.7703957742926
 30
0.0
 10
223.5066969057507
 20
144.77474792958
 30
0.0
 10
223.4918895297396
 20
144.7833716184059
 30
0.0
 10
223.4895301160223
 20
144.7951208145995
 30
0.0
 10
223.4988008589001
 20
144.8044359952387
 30
0.0
 10
223.5019146932351
 20
144.8075647552198
 30
0.0
  0
SPLINE
  5
277
330
1F
100
AcDbEntity
  8
0
  6
Continuous
 62
     7
370
    30
100
AcDbSpline
210
0.0
220
0.0
230
1.0
 70
     8
 71
     3
 72
    19
 73
    15
 74
     0
 42
0.000000001
 43
0.00000001
 40
0.0
 40
0.0
 40
0.0
 40
0.0
 40
0.0153253734717945
 40
0.1182509599205785
 40
0.2224597709723863
 40
0.2927220427056406
 40
0.3937065734203777
 40
0.4954647459619638
 40
0.5993740156670266
 40
0.7039519429604467
 40
0.7774137527261876
 40
0.8510932758888953
 40
0.9254349123378013
 40
1.0
 40
1.0
 40
1.0
 40
1.0
 10
223.5131565390622
 20
144.8148974627705
 30
0.0
 10
223.5141871145904
 20
144.8155916993515
 30
0.0
 10
223.5221390608001
 20
144.8209484459436
 30
0.0
 10
223.5471763957365
 20
144.8301988467744
 30
0.0
 10
223.5860413647345
 20
144.8393261710815
 30
0.0
 10
223.6326902278336
 20
144.8452168745573
 30
0.0
 10
223.6850378821723
 20
144.8475025538178
 30
0.0
 10
223.7505387584319
 20
144.8444975116641
 30
0.0
 10
223.8220459231842
 20
144.8350958028852
 30
0.0
 10
223.8905677979074
 20
144.8202175228491
 30
0.0
 10
223.9535591753822
 20
144.8019012164157
 30
0.0
 10
224.0099508463404
 20
144.7819650866531
 30
0.0
 10
224.0672569828662
 20
144.7583787623888
 30
0.0
 10
224.1058819852972
 20
144.7393631863827
 30
0.0
 10
224.1252234670833
 20
144.7298411308792
 30
0.0
  0
SPLINE
  5
278
330
1F
100
AcDbEntity
  8
0
  6
Continuous
 62
     7
370
    30
100
AcDbSpline
210
0.0
220
0.0
230
1.0
 70
     8
 71
     3
 72
    15
 73
    11
 74
     0
 42
0.000000001
 43
0.00000001
 40
0.0
 40
0.0
 40
0.0
 40
0.0
 40
0.0485107074955642
 40
0.1657968117404572
 40
0.2820730057785543
 40
0.4008413154592999
 40
0.5725442128711237
 40
0.7491366532466863
 40
0.8738207227814025
 40
1.0
 40
1.0
 40
1.0
 40
1.0
 10
219.4255306111777
 20
150.5287624982547
 30
0.0
 10
219.4295200486029
 20
150.5150879026671
 30
0.0
 10
219.4431548941843
 20
150.4683517393063
 30
0.0
 10
219.488091327849
 20
150.3820018081906
 30
0.0
 10
219.5547331494446
 20
150.2697717343946
 30
0.0
 10
219.6445334016091
 20
150.1338244158623
 30
0.0
 10
219.7549006637488
 20
149.9701317206436
 30
0.0
 10
219.8632540772443
 20
149.7958501804308
 30
0.0
 10
219.9524884152843
 20
149.6327955045651
 30
0.0
 10
219.9968155579325
 20
149.5344656203024
 30
0.0
 10
220.0191112296315
 20
149.4850076429381
 30
0.0
  0
SPLINE
  5
279
330
1F
100
AcDbEntity
  8
0
  6
Continuous
 62
     7
370
    30
100
AcDbSpline
210
0.0
220
0.0
230
1.0
 70
     8
 71
     3
 72
    17
 73
    13
 74
     0
 42
0.000000001
 43
0.00000001
 40
0.0
 40
0.0
 40
0.0
 40
0.0
 40
0.0993395252021883
 40
0.2361786289339657
 40
0.3289091041362597
 40
0.4703010317740888
 40
0.5720289680195098
 40
0.640769919398232
 40
0.7453710392625363
 40
0.8587008723938724
 40
0.9744008197120753
 40
1.0
 40
1.0
 40
1.0
 40
1.0
 10
219.272067005022
 20
152.5246904844283
 30
0.0
 10
219.2730537709778
 20
152.487268872299
 30
0.0
 10
219.2753997961885
 20
152.3982994009107
 30
0.0
 10
219.2649090473978
 20
152.2827577474595
 30
0.0
 10
219.2435156861013
 20
152.1625155029026
 30
0.0
 10
219.2160367179369
 20
152.0651895628364
 30
0.0
 10
219.1865111778468
 20
151.9892806843105
 30
0.0
 10
219.1601056588626
 20
151.9329550920534
 30
0.0
 10
219.1336235994709
 20
151.8862813948282
 30
0.0
 10
219.1098830885811
 20
151.8534456517921
 30
0.0
 10
219.0976661805844
 20
151.8421240853563
 30
0.0
 10
219.0986452968936
 20
151.8459125080091
 30
0.0
 10
219.0988226835154
 20
151.846598857006
 30
0.0
  0
SPLINE
  5
27A
330
1F
100
AcDbEntity
  8
0
  6
Continuous
 62
     7
370
    30
100
AcDbSpline
210
0.0
220
0.0
230
1.0
 70
     8
 71
     3
 72
     9
 73
     5
 74
     0
 42
0.000000001
 43
0.00000001
 40
0.0
 40
0.0
 40
0.0
 40
0.0
 40
0.805707542177885
 40
1.0
 40
1.0
 40
1.0
 40
1.0
 10
219.0994649586171
 20
151.8505993956395
 30
0.0
 10
219.1033206166484
 20
151.8587346166583
 30
0.0
 10
219.1081060478743
 20
151.8688316066863
 30
0.0
 10
219.1349043978244
 20
151.8942735149901
 30
0.0
 10
219.1401111151018
 20
151.8992166858862
 30
0.0
  0
SPLINE
  5
27B
330
1F
100
AcDbEntity
  8
0
  6
Continuous
 62
     7
370
    30
100
AcDbSpline
210
0.0
220
0.0
230
1.0
 70
     8
 71
     3
 72
    21
 73
    17
 74
     0
 42
0.000000001
 43
0.00000001
 40
0.0
 40
0.0
 40
0.0
 40
0.0
 40
0.1012658037514269
 40
0.1941057918873739
 40
0.2875940780112508
 40
0.3831729725755224
 40
0.4795350120947251
 40
0.5485792460207867
 40
0.6180008578725011
 40
0.6887381045372617
 40
0.7600125831848549
 40
0.8176393046635461
 40
0.8756330506617324
 40
0.934234481484022
 40
0.9936895065347011
 40
1.0
 40
1.0
 40
1.0
 40
1.0
 10
221.7954897832866
 20
146.6318947608664
 30
0.0
 10
221.8236288488466
 20
146.5982314512881
 30
0.0
 10
221.8775656705688
 20
146.5337057859479
 30
0.0
 10
221.9525211440973
 20
146.4312191581744
 30
0.0
 10
222.0225527383759
 20
146.327294064113
 30
0.0
 10
222.0899550884635
 20
146.2192313924994
 30
0.0
 10
222.1490238064237
 20
146.1193612936448
 30
0.0
 10
222.2007762367329
 20
146.030067368606
 30
0.0
 10
222.2462456259257
 20
145.9517857792844
 30
0.0
 10
222.2919631385649
 20
145.8749912946927
 30
0.0
 10
222.3353153674841
 20
145.8057532449686
 30
0.0
 10
222.3764158214426
 20
145.7448656108596
 30
0.0
 10
222.4152987472273
 20
145.6916593587881
 30
0.0
 10
222.4557149147604
 20
145.6438205614309
 30
0.0
 10
222.4842788161251
 20
145.6104206176546
 30
0.0
 10
222.5004224546603
 20
145.5976799769258
 30
0.0
 10
222.5019715084469
 20
145.5964574558863
 30
0.0
  0
SPLINE
  5
27C
330
1F
100
AcDbEntity
  8
0
  6
Continuous
 62
     7
370
    30
100
AcDbSpline
210
0.0
220
0.0
230
1.0
 70
     8
 71
     3
 72
    19
 73
    15
 74
     0
 42
0.000000001
 43
0.00000001
 40
0.0
 40
0.0
 40
0.0
 40
0.0
 40
0.1435468100150171
 40
0.233069729028325
 40
0.3237087749073948
 40
0.3848217000710066
 40
0.4726563219244067
 40
0.5611638442391973
 40
0.6515423541655183
 40
0.7425024510537797
 40
0.8063982798087218
 40
0.8704834719618023
 40
0.9351445589544648
 40
1.0
 40
1.0
 40
1.0
 40
1.0
 10
221.0820120026752
 20
147.2465915943655
 30
0.0
 10
221.0936441855595
 20
147.2294649133248
 30
0.0
 10
221.1125307753245
 20
147.2016571835055
 30
0.0
 10
221.1768607310966
 20
147.1550757656254
 30
0.0
 10
221.2299875240501
 20
147.117237969597
 30
0.0
 10
221.2888913760493
 20
147.0762219857539
 30
0.0
 10
221.3512869014894
 20
147.0321236713027
 30
0.0
 10
221.425149963917
 20
146.9776842409476
 30
0.0
 10
221.5020185465582
 20
146.9173496165562
 30
0.0
 10
221.572512700669
 20
146.8575297513522
 30
0.0
 10
221.6350545387602
 20
146.8003343785874
 30
0.0
 10
221.6894081681918
 20
146.7472177473063
 30
0.0
 10
221.7431571353705
 20
146.6913075873034
 30
0.0
 10
221.7780281247065
 20
146.6517188387954
 30
0.0
 10
221.7954897832866
 20
146.6318947608664
 30
0.0
  0
SPLINE
  5
27D
330
1F
100
AcDbEntity
  8
0
  6
Continuous
 62
     7
370
    30
100
AcDbSpline
210
0.0
220
0.0
230
1.0
 70
     8
 71
     3
 72
    20
 73
    16
 74
     0
 42
0.000000001
 43
0.00000001
 40
0.0
 40
0.0
 40
0.0
 40
0.0
 40
0.1064979690380252
 40
0.2041347804364819
 40
0.3024533858511965
 40
0.4029706165145742
 40
0.504311455385994
 40
0.5769230420669268
 40
0.6499315049010447
 40
0.7243235782966166
 40
0.7992806411847625
 40
0.859676237008275
 40
0.9204537306627347
 40
0.9825041343825888
 40
0.9999999999999999
 40
0.9999999999999999
 40
0.9999999999999999
 40
0.9999999999999999
 10
220.0191112296315
 20
149.4850076429381
 30
0.0
 10
220.0359396048517
 20
149.4439576642393
 30
0.0
 10
220.06819615126
 20
149.365273268055
 30
0.0
 10
220.1074102865156
 20
149.2481940343086
 30
0.0
 10
220.1402463058049
 20
149.1344531604478
 30
0.0
 10
220.167768411074
 20
149.0215766250084
 30
0.0
 10
220.1886765413745
 20
148.9219822745039
 30
0.0
 10
220.205078031546
 20
148.8365546483474
 30
0.0
 10
220.2184961377267
 20
148.7643640198455
 30
0.0
 10
220.2315011555753
 20
148.6963068988862
 30
0.0
 10
220.2439800565843
 20
148.6377753065058
 30
0.0
 10
220.2564185859579
 20
148.5884801798005
 30
0.0
 10
220.2693475421842
 20
148.5480328609576
 30
0.0
 10
220.2799904060755
 20
148.5200341069235
 30
0.0
 10
220.2872681342212
 20
148.5076757697238
 30
0.0
 10
220.2888688397564
 20
148.5049576057081
 30
0.0
  0
LWPOLYLINE
  5
27E
330
1F
100
AcDbEntity
  8
0
  6
Continuous
 62
     7
370
    30
100
AcDbPolyline
 90
       62
 70
   128
 43
0.0
 10
248.150126706
 20
174.0018085982
 10
248.839739447
 20
173.5604307299
 10
249.4470831265
 20
173.0804586702
 10
249.9657197503
 20
172.5669802422
 10
250.3901516411
 20
172.025438445
 10
250.7158797155
 20
171.4615737564
 10
250.9394511747
 20
170.8813632824
 10
251.0584961056
 20
170.2909573982
 10
251.0717526024
 20
169.6966145532
 10
250.9790801429
 20
169.1046349294
 10
250.7814610782
 20
168.5212936581
 10
250.4809902196
 20
167.9527743017
 10
250.080852633
 20
167.4051033071
 10
249.5852898762
 20
166.8840861229
 10
248.9995550378
 20
166.3952456609
 10
248.3298570528
 20
165.9437637516
 10
247.5832948865
 20
165.5344262156
 10
246.7677822834
 20
165.1715721325
 10
245.8919638802
 20
164.859047846
 10
244.9651235697
 20
164.6001661912
 10
243.9970860898
 20
164.3976713781
 10
242.9981128786
 20
164.253709902
 10
241.9787933007
 20
164.1698077904
 10
240.9499323972
 20
164.1468544266
 10
239.9224363495
 20
164.185093122
 10
238.9071968715
 20
164.2841185367
 10
237.9149757541
 20
164.4428809769
 10
236.956290788
 20
164.6596975212
 10
236.0413042724
 20
164.9322698602
 10
235.1797152919
 20
165.2577086594
 10
234.380656904
 20
165.6325641864
 10
233.6525993266
 20
166.0528628796
 10
233.003260151
 20
166.5141494681
 10
232.4395225339
 20
167.0115341994
 10
231.9673622345
 20
167.5397446716
 10
231.5917842692
 20
168.0931817223
 10
231.3167698581
 20
168.665978781
 10
231.1452342222
 20
169.2520640565
 10
231.078995682
 20
169.8452248991
 10
231.1187563825
 20
170.4391736561
 10
231.2640948503
 20
171.0276143231
 10
231.5134704616
 20
171.6043092827
 10
231.8642397728
 20
172.1631454246
 10
232.312684542
 20
172.698198947
 10
232.854051143
 20
173.2037981492
 10
233.4826009552
 20
173.6745835539
 10
234.1916711943
 20
174.1055647189
 10
234.9737455393
 20
174.4921731364
 10
235.8205338075
 20
174.8303106612
 10
236.7230598328
 20
175.1163929512
 10
237.6717566146
 20
175.3473874631
 10
238.6565677312
 20
175.5208455976
 10
239.6670539396
 20
175.6349286553
 10
240.6925038347
 20
175.6884273275
 10
241.7220473926
 20
175.6807745148
 10
242.7447711953
 20
175.612051339
 10
243.7498341161
 20
175.4829862828
 10
244.726582238
 20
175.294947468
 10
245.6646617881
 20
175.0499281528
 10
246.5541288895
 20
174.7505256028
 10
247.3855549699
 20
174.3999135597
 10
248.150126706
 20
174.0018085982
  0
LWPOLYLINE
  5
27F
330
1F
100
AcDbEntity
  8
0
  6
Continuous
 62
     7
370
    30
100
AcDbPolyline
 90
       46
 70
   128
 43
0.0
 10
252.2927472089
 20
169.8413008484
 10
252.5136127216
 20
169.5681243768
 10
252.9306974604
 20
168.9466049863
 10
253.246665045
 20
168.3055207067
 10
253.4588197514
 20
167.6503410429
 10
253.5653515505
 20
166.9866557569
 10
253.5653515505
 20
166.3201271775
 10
253.4588197514
 20
165.6564418914
 10
253.246665045
 20
165.0012622277
 10
252.9306974604
 20
164.360177948
 10
252.5136127216
 20
163.7386585576
 10
251.9989692486
 20
163.1420066407
 10
251.391157798
 20
162.575312621
 10
250.6953640028
 20
162.0434113321
 10
249.9175241303
 20
161.5508407683
 10
249.0642744361
 20
161.101803368
 10
248.1428945458
 20
160.7001301598
 10
247.1612453476
 20
160.3492480781
 10
246.1277019264
 20
160.0521507251
 10
245.0510821103
 20
159.8113728305
 10
243.9405712399
 20
159.6289686264
 10
242.8056438024
 20
159.5064943214
 10
241.6559825986
 20
159.4449948228
 10
240.5013961324
 20
159.4449948228
 10
239.3517349286
 20
159.5064943214
 10
238.2168074911
 20
159.6289686264
 10
237.1062966207
 20
159.8113728305
 10
236.0296768046
 20
160.0521507251
 10
234.9961333834
 20
160.3492480781
 10
234.0144841852
 20
160.7001301598
 10
233.0931042948
 20
161.101803368
 10
232.2398546007
 20
161.5508407683
 10
231.4620147282
 20
162.0434113321
 10
230.766220933
 20
162.575312621
 10
230.1584094824
 20
163.1420066407
 10
229.6437660094
 20
163.7386585576
 10
229.2266812706
 20
164.360177948
 10
228.910713686
 20
165.0012622277
 10
228.6985589796
 20
165.6564418914
 10
228.5920271805
 20
166.3201271775
 10
228.5920271805
 20
166.9866557569
 10
228.6985589796
 20
167.6503410429
 10
228.910713686
 20
168.3055207067
 10
229.2266812706
 20
168.9466049863
 10
229.6437660094
 20
169.5681243768
 10
229.8646315221
 20
169.8413008484
  0
LWPOLYLINE
  5
280
330
1F
100
AcDbEntity
  8
0
  6
Continuous
 62
     7
370
    30
100
AcDbPolyline
 90
       36
 70
   128
 43
0.0
 10
253.5786893655
 20
108.5156856609
 10
253.5653515505
 20
108.1824213712
 10
253.4588197514
 20
107.5187360852
 10
253.246665045
 20
106.8635564214
 10
252.9306974604
 20
106.2224721418
 10
252.5136127216
 20
105.6009527513
 10
251.9989692486
 20
105.0043008344
 10
251.391157798
 20
104.4376068147
 10
250.6953640028
 20
103.9057055258
 10
249.9175241303
 20
103.413134962
 10
249.0642744361
 20
102.9640975617
 10
248.1428945458
 20
102.5624243536
 10
247.1612453476
 20
102.2115422719
 10
246.1277019264
 20
101.9144449188
 10
245.0510821103
 20
101.6736670242
 10
243.9405712399
 20
101.4912628202
 10
242.8056438024
 20
101.3687885151
 10
241.6559825986
 20
101.3072890165
 10
240.5013961324
 20
101.3072890165
 10
239.3517349286
 20
101.3687885151
 10
238.2168074911
 20
101.4912628202
 10
237.1062966207
 20
101.6736670242
 10
236.0296768046
 20
101.9144449188
 10
234.9961333834
 20
102.2115422719
 10
234.0144841852
 20
102.5624243536
 10
233.0931042948
 20
102.9640975617
 10
232.2398546007
 20
103.413134962
 10
231.4620147282
 20
103.9057055258
 10
230.766220933
 20
104.4376068147
 10
230.1584094824
 20
105.0043008344
 10
229.6437660094
 20
105.6009527513
 10
229.2266812706
 20
106.2224721418
 10
228.910713686
 20
106.8635564214
 10
228.6985589796
 20
107.5187360852
 10
228.5920271805
 20
108.1824213712
 10
228.5786893655
 20
108.5156856609
  0
SPLINE
  5
281
330
1F
100
AcDbEntity
  8
0
  6
Continuous
 62
     7
370
    30
100
AcDbSpline
210
0.0
220
0.0
230
1.0
 70
     8
 71
     3
 72
    13
 73
     9
 74
     0
 42
0.000000001
 43
0.00000001
 40
0.0
 40
0.0
 40
0.0
 40
0.0
 40
0.1586313248829709
 40
0.3183825051090813
 40
0.4816521033693933
 40
0.6461294441134688
 40
0.9641996793288686
 40
1.0
 40
1.0
 40
1.0
 40
1.0
 10
234.1862022806185
 20
154.1010965927303
 30
0.0
 10
234.1848318132409
 20
154.0458830975878
 30
0.0
 10
234.1820812036929
 20
153.9350663285021
 30
0.0
 10
234.1595072231545
 20
153.7757347446309
 30
0.0
 10
234.1235714803342
 20
153.6216447579739
 30
0.0
 10
234.0544393706112
 20
153.432594692929
 30
0.0
 10
233.9868912108533
 20
153.2862746904799
 30
0.0
 10
233.9172971087867
 20
153.2119558763051
 30
0.0
 10
233.9102564236284
 20
153.2044372022162
 30
0.0
  0
SPLINE
  5
282
330
1F
100
AcDbEntity
  8
0
  6
Continuous
 62
     7
370
    30
100
AcDbSpline
210
0.0
220
0.0
230
1.0
 70
     8
 71
     3
 72
    26
 73
    22
 74
     0
 42
0.000000001
 43
0.00000001
 40
0.0
 40
0.0
 40
0.0
 40
0.0
 40
0.0154915141520647
 40
0.0557063709184541
 40
0.096223082656156
 40
0.13505684169534
 40
0.1741675531991377
 40
0.2141588107518593
 40
0.2544570583967496
 40
0.3310042445975309
 40
0.4097839107813654
 40
0.4861991434677579
 40
0.5647628029021331
 40
0.6424125853253199
 40
0.7222666997496551
 40
0.7613689528875527
 40
0.8007463374951431
 40
0.840999408415858
 40
0.8815589454848731
 40
0.9402860470770953
 40
1.0
 40
1.0
 40
1.0
 40
1.0
 10
231.346769774002
 20
157.3166952402732
 30
0.0
 10
231.3612004662663
 20
157.3186453626163
 30
0.0
 10
231.4130921979585
 20
157.3256578623316
 30
0.0
 10
231.5110268127561
 20
157.3213082413129
 30
0.0
 10
231.6381693367584
 20
157.3038301045156
 30
0.0
 10
231.7710941187591
 20
157.270420882177
 30
0.0
 10
231.908883469845
 20
157.2229341742428
 30
0.0
 10
232.0533141903276
 20
157.160296430864
 30
0.0
 10
232.2481641119785
 20
157.0594368299051
 30
0.0
 10
232.4984155642554
 20
156.9009691668877
 30
0.0
 10
232.7969510852958
 20
156.6672918285464
 30
0.0
 10
233.090606311627
 20
156.3915844301139
 30
0.0
 10
233.366021474097
 20
156.0840082589603
 30
0.0
 10
233.6185131701982
 20
155.7453927788148
 30
0.0
 10
233.7986751578266
 20
155.4471740271389
 30
0.0
 10
233.9208811135376
 20
155.2018854417849
 30
0.0
 10
234.0004038932726
 20
155.0162686081004
 30
0.0
 10
234.0676665751356
 20
154.8278168300848
 30
0.0
 10
234.1287319119564
 20
154.6100504847804
 30
0.0
 10
234.1762390589389
 20
154.3642339780875
 30
0.0
 10
234.1828628103511
 20
154.1892949188253
 30
0.0
 10
234.1862022806185
 20
154.1010965927303
 30
0.0
  0
LWPOLYLINE
  5
283
330
1F
100
AcDbEntity
  8
0
  6
Continuous
 62
     7
370
    30
100
AcDbPolyline
 90
       53
 70
   128
 43
0.0
 10
246.2893952271
 20
172.9276311799
 10
246.8794845009
 20
172.5431153646
 10
247.3849851195
 20
172.1203421273
 10
247.7985257454
 20
171.6654764538
 10
248.1140760251
 20
171.1851513098
 10
248.327034525
 20
170.6863709176
 10
248.4342958307
 20
170.1764086185
 10
248.4342958307
 20
169.662700811
 10
248.327034525
 20
169.1527385118
 10
248.1140760251
 20
168.6539581197
 10
247.7985257454
 20
168.1736329757
 10
247.3849851195
 20
167.7187673022
 10
246.8794845009
 20
167.2959940648
 10
246.2893952271
 20
166.9114782495
 10
245.6233221283
 20
166.5708269627
 10
244.8909780501
 20
166.2790076672
 10
244.1030422185
 20
166.0402757454
 10
243.271004512
 20
165.8581124464
 10
242.4069979139
 20
165.7351741212
 10
241.5236215862
 20
165.6732534874
 10
240.6337571448
 20
165.6732534874
 10
239.750380817
 20
165.7351741212
 10
238.886374219
 20
165.8581124464
 10
238.0543365125
 20
166.0402757454
 10
237.2664006808
 20
166.2790076672
 10
236.5340566027
 20
166.5708269627
 10
235.8679835039
 20
166.9114782495
 10
235.27789423
 20
167.2959940648
 10
234.7723936115
 20
167.7187673022
 10
234.3588529856
 20
168.1736329757
 10
234.0433027059
 20
168.6539581197
 10
233.8303442059
 20
169.1527385118
 10
233.7230829003
 20
169.662700811
 10
233.7230829003
 20
170.1764086185
 10
233.8303442059
 20
170.6863709176
 10
234.0433027059
 20
171.1851513098
 10
234.3588529856
 20
171.6654764538
 10
234.7723936115
 20
172.1203421273
 10
235.27789423
 20
172.5431153646
 10
235.8679835039
 20
172.9276311799
 10
236.5340566027
 20
173.2682824667
 10
237.2664006808
 20
173.5601017623
 10
238.0543365125
 20
173.7988336841
 10
238.886374219
 20
173.9809969831
 10
239.750380817
 20
174.1039353083
 10
240.6337571448
 20
174.165855942
 10
241.5236215862
 20
174.165855942
 10
242.4069979139
 20
174.1039353083
 10
243.271004512
 20
173.9809969831
 10
244.1030422185
 20
173.7988336841
 10
244.8909780501
 20
173.5601017623
 10
245.6233221283
 20
173.2682824667
 10
246.2893952271
 20
172.9276311799
  0
LWPOLYLINE
  5
284
330
1F
100
AcDbEntity
  8
0
  6
Continuous
 62
     7
370
    30
100
AcDbPolyline
 90
       14
 70
   128
 43
0.0
 10
234.8172064191
 20
167.6765306315
 10
234.7939079474
 20
167.7624362068
 10
234.7294089453
 20
168.2312880528
 10
234.7694286827
 20
168.7010483279
 10
234.9133083743
 20
169.1639840688
 10
235.1586795433
 20
169.6124746544
 10
235.5015030098
 20
170.0391372528
 10
235.9361353821
 20
170.4369483536
 10
236.4554219554
 20
170.7993593855
 10
237.0508144887
 20
171.120404516
 10
237.7125119223
 20
171.3947988576
 10
238.4296217177
 20
171.6180254653
 10
239.1903391651
 20
171.7864096921
 10
239.9821417072
 20
171.8971796796
  0
SPLINE
  5
285
330
1F
100
AcDbEntity
  8
0
  6
Continuous
 62
     7
370
    30
100
AcDbSpline
210
0.0
220
0.0
230
1.0
 70
     8
 71
     3
 72
    22
 73
    18
 74
     0
 42
0.000000001
 43
0.00000001
 40
0.0
 40
0.0
 40
0.0
 40
0.0
 40
0.0772885640775171
 40
0.1568977617970581
 40
0.2321230385335582
 40
0.3101764903822124
 40
0.3761106145536547
 40
0.4443684686284751
 40
0.5042296701773988
 40
0.5659532038674182
 40
0.6238844865457087
 40
0.6834159899404274
 40
0.7429712830777512
 40
0.8040273942281349
 40
0.8681646316576648
 40
0.9338246997212112
 40
1.0
 40
1.0
 40
1.0
 40
1.0
 10
239.9821417071561
 20
171.8971796795716
 30
0.0
 10
240.2804279647285
 20
172.109045785332
 30
0.0
 10
240.885956696521
 20
172.5391393986785
 30
0.0
 10
241.8821824216402
 20
173.0042311369043
 30
0.0
 10
242.9185345742897
 20
173.317748368732
 30
0.0
 10
243.9037216658891
 20
173.4424951145531
 30
0.0
 10
244.8244532700516
 20
173.3989890720795
 30
0.0
 10
245.609359783682
 20
173.2157295090059
 30
0.0
 10
246.2939284308567
 20
172.906528550813
 30
0.0
 10
246.8470968080423
 20
172.5055219175871
 30
0.0
 10
247.2903968040259
 20
172.0115725566678
 30
0.0
 10
247.6138834692634
 20
171.4470383546125
 30
0.0
 10
247.8203885972636
 20
170.8105402437464
 30
0.0
 10
247.9065817744632
 20
170.1108062843127
 30
0.0
 10
247.8629021499729
 20
169.3560931967003
 30
0.0
 10
247.7004775613134
 20
168.5639101378752
 30
0.0
 10
247.484406970532
 20
168.0337570901764
 30
0.0
 10
247.3759494571487
 20
167.7676446078712
 30
0.0
  0
LINE
  5
286
330
1F
100
AcDbEntity
  8
0
  6
Continuous
 62
     7
370
    30
100
AcDbLine
 10
239.9821417072
 20
165.7128541902
 30
0.0
 11
239.9821417072
 21
171.8971796796
 31
0.0
  0
ARC
  5
287
330
1F
100
AcDbEntity
  8
0
  6
Continuous
 62
     7
370
    30
100
AcDbCircle
 10
241.0786893655
 20
118.5413200887
 30
0.0
 40
17.53585749186773
100
AcDbArc
 50
242.3677125134
 51
297.6322874866
  0
ARC
  5
288
330
1F
100
AcDbEntity
  8
0
  6
Continuous
 62
     8
370
    30
100
AcDbCircle
 10
227.0425200404
 20
146.2973878625
 30
0.0
 40
2.545536725553467
100
AcDbArc
 50
300.0759227069
 51
313.4571675588
  0
ARC
  5
289
330
1F
100
AcDbEntity
  8
0
  6
Continuous
 62
     8
370
    30
100
AcDbCircle
 10
231.2851968587
 20
148.7465703003
 30
0.0
 40
2.545481461062511
100
AcDbArc
 50
300.0557498728
 51
313.4572258691
  0
ENDSEC
  0
SECTION
  2
OBJECTS
  0
DICTIONARY
  5
C
330
0
100
AcDbDictionary
281
     1
  3
ACAD_GROUP
350
D
  3
ACAD_LAYOUT
350
1A
  3
ACAD_MLINESTYLE
350
17
  3
ACAD_PLOTSETTINGS
350
19
  3
ACAD_PLOTSTYLENAME
350
E
  3
ACAD_SCALELIST
350
47
  0
DICTIONARY
  5
D
102
{ACAD_REACTORS
330
C
102
}
330
C
100
AcDbDictionary
281
     1
  0
DICTIONARY
  5
1A
102
{ACAD_REACTORS
330
C
102
}
330
C
100
AcDbDictionary
281
     1
  3
Layout1
350
1E
  3
Layout2
350
26
  3
Model
350
22
  0
DICTIONARY
  5
17
102
{ACAD_REACTORS
330
C
102
}
330
C
100
AcDbDictionary
281
     1
  3
Standard
350
18
  0
DICTIONARY
  5
19
102
{ACAD_REACTORS
330
C
102
}
330
C
100
AcDbDictionary
281
     1
  0
ACDBDICTIONARYWDFLT
  5
E
102
{ACAD_REACTORS
330
C
102
}
330
C
100
AcDbDictionary
281
     1
  3
Normal
350
F
100
AcDbDictionaryWithDefault
340
F
  0
DICTIONARY
  5
47
102
{ACAD_REACTORS
330
C
102
}
330
C
100
AcDbDictionary
281
     1
  3
A0
350
48
  3
A1
350
49
  3
A2
350
4A
  3
A3
350
4B
  3
A4
350
4C
  3
A5
350
4D
  3
A6
350
4E
  3
A7
350
4F
  3
A8
350
50
  3
A9
350
51
  3
B0
350
52
  3
B1
350
53
  3
B2
350
54
  3
B3
350
55
  3
B4
350
56
  3
B5
350
57
  3
B6
350
58
  3
B7
350
59
  3
B8
350
5A
  3
B9
350
5B
  3
C0
350
5C
  3
C1
350
5D
  3
C2
350
5E
  3
C3
350
5F
  3
C4
350
60
  3
C5
350
61
  3
C6
350
62
  3
C7
350
63
  3
C8
350
64
  3
C9
350
65
  3
D0
350
66
  3
D1
350
67
  3
D2
350
68
  0
LAYOUT
  5
1E
102
{ACAD_REACTORS
330
1A
102
}
330
1A
100
AcDbPlotSettings
  1

  2
none_device
  4

  6

 40
0.0
 41
0.0
 42
0.0
 43
0.0
 44
0.0
 45
0.0
 46
0.0
 47
0.0
 48
0.0
 49
0.0
140
0.0
141
0.0
142
1.0
143
1.0
 70
   688
 72
     1
 73
     0
 74
     5
  7

 75
    16
147
1.0
148
0.0
149
0.0
100
AcDbLayout
  1
Layout1
 70
     1
 71
     1
 10
0.0
 20
0.0
 11
420.0
 21
297.0
 12
0.0
 22
0.0
 32
0.0
 14
1.0000000000E+20
 24
1.0000000000E+20
 34
1.0000000000E+20
 15
-1.0000000000E+20
 25
-1.0000000000E+20
 35
-1.0000000000E+20
146
0.0
 13
0.0
 23
0.0
 33
0.0
 16
1.0
 26
0.0
 36
0.0
 17
0.0
 27
1.0
 37
0.0
 76
     0
330
1B
  0
LAYOUT
  5
26
102
{ACAD_REACTORS
330
1A
102
}
330
1A
100
AcDbPlotSettings
  1

  2
none_device
  4

  6

 40
0.0
 41
0.0
 42
0.0
 43
0.0
 44
0.0
 45
0.0
 46
0.0
 47
0.0
 48
0.0
 49
0.0
140
0.0
141
0.0
142
1.0
143
1.0
 70
   688
 72
     1
 73
     0
 74
     5
  7

 75
    16
147
1.0
148
0.0
149
0.0
100
AcDbLayout
  1
Layout2
 70
     1
 71
     2
 10
0.0
 20
0.0
 11
0.0
 21
0.0
 12
0.0
 22
0.0
 32
0.0
 14
0.0
 24
0.0
 34
0.0
 15
0.0
 25
0.0
 35
0.0
146
0.0
 13
0.0
 23
0.0
 33
0.0
 16
1.0
 26
0.0
 36
0.0
 17
0.0
 27
1.0
 37
0.0
 76
     0
330
23
  0
LAYOUT
  5
22
102
{ACAD_REACTORS
330
1A
102
}
330
1A
100
AcDbPlotSettings
  1

  2
none_device
  4
Letter_(8.50_x_11.00_Inches)
  6

 40
6.35
 41
6.35
 42
6.35000508
 43
6.35000508
 44
215.9
 45
279.4
 46
0.0
 47
0.0
 48
0.0
 49
0.0
140
0.0
141
0.0
142
1.0
143
1.0
 70
  1712
 72
     1
 73
     0
 74
     0
  7

 75
     0
147
1.0
148
0.0
149
0.0
100
AcDbLayout
  1
Model
 70
     1
 71
     0
 10
0.0
 20
0.0
 11
297.0
 21
210.0
 12
0.0
 22
0.0
 32
0.0
 14
0.0
 24
0.0
 34
0.0
 15
297.0
 25
210.0
 35
0.0
146
0.0
 13
0.0
 23
0.0
 33
0.0
 16
1.0
 26
0.0
 36
0.0
 17
0.0
 27
1.0
 37
0.0
 76
     0
330
1F
331
29
  0
MLINESTYLE
  5
18
102
{ACAD_REACTORS
330
17
102
}
330
17
100
AcDbMlineStyle
  2
Standard
 70
     0
  3

 62
   256
 51
90.0
 52
90.0
 71
     2
 49
0.5
 62
   256
  6
BYLAYER
 49
-0.5
 62
   256
  6
BYLAYER
  0
ACDBPLACEHOLDER
  5
F
102
{ACAD_REACTORS
330
E
102
}
330
E
  0
SCALE
  5
48
102
{ACAD_REACTORS
330
47
102
}
330
47
100
AcDbScale
 70
     0
300
1:1
140
1.0
141
1.0
290
     1
  0
SCALE
  5
49
102
{ACAD_REACTORS
330
47
102
}
330
47
100
AcDbScale
 70
     0
300
1:2
140
1.0
141
2.0
290
     0
  0
SCALE
  5
4A
102
{ACAD_REACTORS
330
47
102
}
330
47
100
AcDbScale
 70
     0
300
1:4
140
1.0
141
4.0
290
     0
  0
SCALE
  5
4B
102
{ACAD_REACTORS
330
47
102
}
330
47
100
AcDbScale
 70
     0
300
1:5
140
1.0
141
5.0
290
     0
  0
SCALE
  5
4C
102
{ACAD_REACTORS
330
47
102
}
330
47
100
AcDbScale
 70
     0
300
1:8
140
1.0
141
8.0
290
     0
  0
SCALE
  5
4D
102
{ACAD_REACTORS
330
47
102
}
330
47
100
AcDbScale
 70
     0
300
1:10
140
1.0
141
10.0
290
     0
  0
SCALE
  5
4E
102
{ACAD_REACTORS
330
47
102
}
330
47
100
AcDbScale
 70
     0
300
1:16
140
1.0
141
16.0
290
     0
  0
SCALE
  5
4F
102
{ACAD_REACTORS
330
47
102
}
330
47
100
AcDbScale
 70
     0
300
1:20
140
1.0
141
20.0
290
     0
  0
SCALE
  5
50
102
{ACAD_REACTORS
330
47
102
}
330
47
100
AcDbScale
 70
     0
300
1:30
140
1.0
141
30.0
290
     0
  0
SCALE
  5
51
102
{ACAD_REACTORS
330
47
102
}
330
47
100
AcDbScale
 70
     0
300
1:40
140
1.0
141
40.0
290
     0
  0
SCALE
  5
52
102
{ACAD_REACTORS
330
47
102
}
330
47
100
AcDbScale
 70
     0
300
1:50
140
1.0
141
50.0
290
     0
  0
SCALE
  5
53
102
{ACAD_REACTORS
330
47
102
}
330
47
100
AcDbScale
 70
     0
300
1:100
140
1.0
141
100.0
290
     0
  0
SCALE
  5
54
102
{ACAD_REACTORS
330
47
102
}
330
47
100
AcDbScale
 70
     0
300
2:1
140
2.0
141
1.0
290
     0
  0
SCALE
  5
55
102
{ACAD_REACTORS
330
47
102
}
330
47
100
AcDbScale
 70
     0
300
4:1
140
4.0
141
1.0
290
     0
  0
SCALE
  5
56
102
{ACAD_REACTORS
330
47
102
}
330
47
100
AcDbScale
 70
     0
300
8:1
140
8.0
141
1.0
290
     0
  0
SCALE
  5
57
102
{ACAD_REACTORS
330
47
102
}
330
47
100
AcDbScale
 70
     0
300
10:1
140
10.0
141
1.0
290
     0
  0
SCALE
  5
58
102
{ACAD_REACTORS
330
47
102
}
330
47
100
AcDbScale
 70
     0
300
100:1
140
100.0
141
1.0
290
     0
  0
SCALE
  5
59
102
{ACAD_REACTORS
330
47
102
}
330
47
100
AcDbScale
 70
     0
300
1/128" = 1'-0"
140
0.0078125
141
12.0
290
     0
  0
SCALE
  5
5A
102
{ACAD_REACTORS
330
47
102
}
330
47
100
AcDbScale
 70
     0
300
1/64" = 1'-0"
140
0.015625
141
12.0
290
     0
  0
SCALE
  5
5B
102
{ACAD_REACTORS
330
47
102
}
330
47
100
AcDbScale
 70
     0
300
1/32" = 1'-0"
140
0.03125
141
12.0
290
     0
  0
SCALE
  5
5C
102
{ACAD_REACTORS
330
47
102
}
330
47
100
AcDbScale
 70
     0
300
1/16" = 1'-0"
140
0.0625
141
12.0
290
     0
  0
SCALE
  5
5D
102
{ACAD_REACTORS
330
47
102
}
330
47
100
AcDbScale
 70
     0
300
3/32" = 1'-0"
140
0.09375
141
12.0
290
     0
  0
SCALE
  5
5E
102
{ACAD_REACTORS
330
47
102
}
330
47
100
AcDbScale
 70
     0
300
1/8" = 1'-0"
140
0.125
141
12.0
290
     0
  0
SCALE
  5
5F
102
{ACAD_REACTORS
330
47
102
}
330
47
100
AcDbScale
 70
     0
300
3/16" = 1'-0"
140
0.1875
141
12.0
290
     0
  0
SCALE
  5
60
102
{ACAD_REACTORS
330
47
102
}
330
47
100
AcDbScale
 70
     0
300
1/4" = 1'-0"
140
0.25
141
12.0
290
     0
  0
SCALE
  5
61
102
{ACAD_REACTORS
330
47
102
}
330
47
100
AcDbScale
 70
     0
300
3/8" = 1'-0"
140
0.375
141
12.0
290
     0
  0
SCALE
  5
62
102
{ACAD_REACTORS
330
47
102
}
330
47
100
AcDbScale
 70
     0
300
1/2" = 1'-0"
140
0.5
141
12.0
290
     0
  0
SCALE
  5
63
102
{ACAD_REACTORS
330
47
102
}
330
47
100
AcDbScale
 70
     0
300
3/4" = 1'-0"
140
0.75
141
12.0
290
     0
  0
SCALE
  5
64
102
{ACAD_REACTORS
330
47
102
}
330
47
100
AcDbScale
 70
     0
300
1" = 1'-0"
140
1.0
141
12.0
290
     0
  0
SCALE
  5
65
102
{ACAD_REACTORS
330
47
102
}
330
47
100
AcDbScale
 70
     0
300
1-1/2" = 1'-0"
140
1.5
141
12.0
290
     0
  0
SCALE
  5
66
102
{ACAD_REACTORS
330
47
102
}
330
47
100
AcDbScale
 70
     0
300
3" = 1'-0"
140
3.0
141
12.0
290
     0
  0
SCALE
  5
67
102
{ACAD_REACTORS
330
47
102
}
330
47
100
AcDbScale
 70
     0
300
6" = 1'-0"
140
6.0
141
12.0
290
     0
  0
SCALE
  5
68
102
{ACAD_REACTORS
330
47
102
}
330
47
100
AcDbScale
 70
     0
300
1'-0" = 1'-0"
140
12.0
141
12.0
290
     0
  0
ENDSEC
  0
EOF
