  0
SECTION
  2
HEADER
  9
$ACADVER
  1
AC1015
  9
$ACADMAINTVER
 70
     6
  9
$DWGCODEPAGE
  3
ANSI_950
  9
$INSBASE
 10
0.0
 20
0.0
 30
0.0
  9
$EXTMIN
 10
0.0
 20
0.0
 30
0.0
  9
$EXTMAX
 10
297.0
 20
210.0
 30
0.0
  9
$LIMMIN
 10
0.0
 20
0.0
  9
$LIMMAX
 10
297.0
 20
210.0
  9
$ORTHOMODE
 70
     0
  9
$REGENMODE
 70
     1
  9
$FILLMODE
 70
     1
  9
$QTEXTMODE
 70
     0
  9
$MIRRTEXT
 70
     1
  9
$LTSCALE
 40
1.0
  9
$ATTMODE
 70
     1
  9
$TEXTSIZE
 40
2.5
  9
$TRACEWID
 40
1.0
  9
$TEXTSTYLE
  7
Standard
  9
$CLAYER
  8
0
  9
$CELTYPE
  6
ByLayer
  9
$CECOLOR
 62
   256
  9
$CELTSCALE
 40
1.0
  9
$DISPSILH
 70
     0
  9
$DIMSCALE
 40
1.0
  9
$DIMASZ
 40
2.0
  9
$DIMEXO
 40
1.0
  9
$DIMDLI
 40
3.75
  9
$DIMRND
 40
0.0
  9
$DIMDLE
 40
0.0
  9
$DIMEXE
 40
1.0
  9
$DIMTP
 40
0.0
  9
$DIMTM
 40
0.0
  9
$DIMTXT
 40
2.5
  9
$DIMCEN
 40
2.5
  9
$DIMTSZ
 40
0.0
  9
$DIMTOL
 70
     0
  9
$DIMLIM
 70
     0
  9
$DIMTIH
 70
     1
  9
$DIMTOH
 70
     1
  9
$DIMSE1
 70
     0
  9
$DIMSE2
 70
     0
  9
$DIMTAD
 70
     1
  9
$DIMZIN
 70
     0
  9
$DIMBLK
  1

  9
$DIMASO
 70
     1
  9
$DIMSHO
 70
     1
  9
$DIMPOST
  1

  9
$DIMAPOST
  1

  9
$DIMALT
 70
     0
  9
$DIMALTD
 70
     3
  9
$DIMALTF
 40
0.0393700787
  9
$DIMLFAC
 40
1.0
  9
$DIMTOFL
 70
     1
  9
$DIMTVP
 40
0.0
  9
$DIMTIX
 70
     0
  9
$DIMSOXD
 70
     0
  9
$DIMSAH
 70
     0
  9
$DIMBLK1
  1

  9
$DIMBLK2
  1

  9
$DIMSTYLE
  2
ISO-25
  9
$DIMCLRD
 70
     0
  9
$DIMCLRE
 70
     0
  9
$DIMCLRT
 70
     0
  9
$DIMTFAC
 40
1.0
  9
$DIMGAP
 40
1.0
  9
$DIMJUST
 70
     0
  9
$DIMSD1
 70
     0
  9
$DIMSD2
 70
     0
  9
$DIMTOLJ
 70
     0
  9
$DIMTZIN
 70
     0
  9
$DIMALTZ
 70
     0
  9
$DIMALTTZ
 70
     0
  9
$DIMUPT
 70
     0
  9
$DIMDEC
 70
     2
  9
$DIMTDEC
 70
     2
  9
$DIMALTU
 70
     2
  9
$DIMALTTD
 70
     3
  9
$DIMTXSTY
  7
Standard
  9
$DIMAUNIT
 70
     0
  9
$DIMADEC
 70
     1
  9
$DIMALTRND
 40
0.0
  9
$DIMAZIN
 70
     0
  9
$DIMDSEP
 70
    44
  9
$DIMATFIT
 70
     3
  9
$DIMFRAC
 70
     0
  9
$DIMLDRBLK
  1

  9
$DIMLUNIT
 70
     2
  9
$DIMLWD
 70
    -2
  9
$DIMLWE
 70
    -2
  9
$DIMTMOVE
 70
     0
  9
$LUNITS
 70
     2
  9
$LUPREC
 70
     2
  9
$SKETCHINC
 40
1.0
  9
$FILLETRAD
 40
10.0
  9
$AUNITS
 70
     0
  9
$AUPREC
 70
     1
  9
$MENU
  1
.
  9
$ELEVATION
 40
0.0
  9
$PELEVATION
 40
0.0
  9
$THICKNESS
 40
0.0
  9
$LIMCHECK
 70
     0
  9
$CHAMFERA
 40
0.0
  9
$CHAMFERB
 40
0.0
  9
$CHAMFERC
 40
0.0
  9
$CHAMFERD
 40
0.0
  9
$SKPOLY
 70
     0
  9
$TDCREATE
 40
2457735.485854144
  9
$TDUCREATE
 40
2457735.15252081
  9
$TDUPDATE
 40
2457735.485859849
  9
$TDUUPDATE
 40
2457735.152526516
  9
$TDINDWG
 40
0.0000000116
  9
$TDUSRTIMER
 40
0.0000000116
  9
$USRTIMER
 70
     1
  9
$ANGBASE
 50
0.0
  9
$ANGDIR
 70
     0
  9
$PDMODE
 70
     0
  9
$PDSIZE
 40
-1.0
  9
$PLINEWID
 40
0.0
  9
$SPLFRAME
 70
     0
  9
$SPLINETYPE
 70
     6
  9
$SPLINESEGS
 70
     8
  9
$HANDSEED
  5
28C
  9
$SURFTAB1
 70
     6
  9
$SURFTAB2
 70
     6
  9
$SURFTYPE
 70
     6
  9
$SURFU
 70
     6
  9
$SURFV
 70
     6
  9
$UCSBASE
  2

  9
$UCSNAME
  2

  9
$UCSORG
 10
0.0
 20
0.0
 30
0.0
  9
$UCSXDIR
 10
1.0
 20
0.0
 30
0.0
  9
$UCSYDIR
 10
0.0
 20
1.0
 30
0.0
  9
$UCSORTHOREF
  2

  9
$UCSORTHOVIEW
 70
     0
  9
$UCSORGTOP
 10
0.0
 20
0.0
 30
0.0
  9
$UCSORGBOTTOM
 10
0.0
 20
0.0
 30
0.0
  9
$UCSORGLEFT
 10
0.0
 20
0.0
 30
0.0
  9
$UCSORGRIGHT
 10
0.0
 20
0.0
 30
0.0
  9
$UCSORGFRONT
 10
0.0
 20
0.0
 30
0.0
  9
$UCSORGBACK
 10
0.0
 20
0.0
 30
0.0
  9
$PUCSBASE
  2

  9
$PUCSNAME
  2

  9
$PUCSORG
 10
0.0
 20
0.0
 30
0.0
  9
$PUCSXDIR
 10
1.0
 20
0.0
 30
0.0
  9
$PUCSYDIR
 10
0.0
 20
1.0
 30
0.0
  9
$PUCSORTHOREF
  2

  9
$PUCSORTHOVIEW
 70
     0
  9
$PUCSORGTOP
 10
0.0
 20
0.0
 30
0.0
  9
$PUCSORGBOTTOM
 10
0.0
 20
0.0
 30
0.0
  9
$PUCSORGLEFT
 10
0.0
 20
0.0
 30
0.0
  9
$PUCSORGRIGHT
 10
0.0
 20
0.0
 30
0.0
  9
$PUCSORGFRONT
 10
0.0
 20
0.0
 30
0.0
  9
$PUCSORGBACK
 10
0.0
 20
0.0
 30
0.0
  9
$USERI1
 70
     0
  9
$USERI2
 70
     0
  9
$USERI3
 70
     0
  9
$USERI4
 70
     0
  9
$USERI5
 70
     0
  9
$USERR1
 40
0.0
  9
$USERR2
 40
0.0
  9
$USERR3
 40
0.0
  9
$USERR4
 40
0.0
  9
$USERR5
 40
0.0
  9
$WORLDVIEW
 70
     1
  9
$SHADEDGE
 70
     3
  9
$SHADEDIF
 70
    70
  9
$TILEMODE
 70
     1
  9
$MAXACTVP
 70
    64
  9
$PINSBASE
 10
0.0
 20
0.0
 30
0.0
  9
$PLIMCHECK
 70
     0
  9
$PEXTMIN
 10
1.0000000000E+20
 20
1.0000000000E+20
 30
1.0000000000E+20
  9
$PEXTMAX
 10
-1.0000000000E+20
 20
-1.0000000000E+20
 30
-1.0000000000E+20
  9
$PLIMMIN
 10
0.0
 20
0.0
  9
$PLIMMAX
 10
420.0
 20
297.0
  9
$UNITMODE
 70
     0
  9
$VISRETAIN
 70
     1
  9
$PLINEGEN
 70
     0
  9
$PSLTSCALE
 70
     1
  9
$TREEDEPTH
 70
  3020
  9
$CMLSTYLE
  2
Standard
  9
$CMLJUST
 70
     0
  9
$CMLSCALE
 40
20.0
  9
$PROXYGRAPHICS
 70
     1
  9
$MEASUREMENT
 70
     1
  9
$CELWEIGHT
370
    -1
  9
$ENDCAPS
280
     0
  9
$JOINSTYLE
280
     0
  9
$LWDISPLAY
290
     1
  9
$INSUNITS
 70
     4
  9
$HYPERLINKBASE
  1

  9
$STYLESHEET
  1

  9
$XEDIT
290
     1
  9
$CEPSNTYPE
380
     0
  9
$PSTYLEMODE
290
     1
  9
$FINGERPRINTGUID
  2
{66D96003-CE5E-4159-A866-A4618F181E1E}
  9
$VERSIONGUID
  2
{FAEB1C32-E019-11D5-929B-00C0DF256EC4}
  9
$EXTNAMES
290
     1
  9
$PSVPSCALE
 40
0.0
  9
$OLESTARTUP
290
     0
  0
ENDSEC
  0
SECTION
  2
CLASSES
  0
CLASS
  1
ACDBDICTIONARYWDFLT
  2
AcDbDictionaryWithDefault
  3
ObjectDBX Classes
 90
        0
280
     0
281
     0
  0
CLASS
  1
VISUALSTYLE
  2
AcDbVisualStyle
  3
ObjectDBX Classes
 90
     4095
280
     0
281
     0
  0
CLASS
  1
MATERIAL
  2
AcDbMaterial
  3
ObjectDBX Classes
 90
     1153
280
     0
281
     0
  0
CLASS
  1
SCALE
  2
AcDbScale
  3
ObjectDBX Classes
 90
     1153
280
     0
281
     0
  0
CLASS
  1
TABLESTYLE
  2
AcDbTableStyle
  3
ObjectDBX Classes
 90
     4095
280
     0
281
     0
  0
CLASS
  1
MLEADERSTYLE
  2
AcDbMLeaderStyle
  3
ACDB_MLEADERSTYLE_CLASS
 90
     4095
280
     0
281
     0
  0
CLASS
  1
SUN
  2
AcDbSun
  3
SCENEOE
 90
     1153
280
     0
281
     0
  0
CLASS
  1
ACDBPLACEHOLDER
  2
AcDbPlaceHolder
  3
ObjectDBX Classes
 90
        0
280
     0
281
     0
  0
CLASS
  1
LAYOUT
  2
AcDbLayout
  3
ObjectDBX Classes
 90
        0
280
     0
281
     0
  0
ENDSEC
  0
SECTION
  2
TABLES
  0
TABLE
  2
VPORT
  5
8
330
0
100
AcDbSymbolTable
 70
     1
  0
VPORT
  5
29
330
8
100
AcDbSymbolTableRecord
100
AcDbViewportTableRecord
  2
*Active
 70
     0
 10
0.0
 20
0.0
 11
1.0
 21
1.0
 12
148.5
 22
105.0
 13
0.0
 23
0.0
 14
10.0
 24
10.0
 15
10.0
 25
10.0
 16
0.0
 26
0.0
 36
1.0
 17
0.0
 27
0.0
 37
0.0
 40
210.0
 41
1.4142857143
 42
50.0
 43
0.0
 44
0.0
 50
0.0
 51
0.0
 71
     0
 72
  2000
 73
     1
 74
     3
 75
     0
 76
     0
 77
     0
 78
     0
281
     0
 65
     1
110
0.0
120
0.0
130
0.0
111
1.0
121
0.0
131
0.0
112
0.0
122
1.0
132
0.0
 79
     0
146
0.0
  0
ENDTAB
  0
TABLE
  2
LTYPE
  5
5
330
0
100
AcDbSymbolTable
 70
     6
  0
LTYPE
  5
14
330
5
100
AcDbSymbolTableRecord
100
AcDbLinetypeTableRecord
  2
ByBlock
 70
     0
  3

 72
    65
 73
     0
 40
0.0
  0
LTYPE
  5
15
330
5
100
AcDbSymbolTableRecord
100
AcDbLinetypeTableRecord
  2
ByLayer
 70
     0
  3

 72
    65
 73
     0
 40
0.0
  0
LTYPE
  5
16
330
5
100
AcDbSymbolTableRecord
100
AcDbLinetypeTableRecord
  2
Continuous
 70
     0
  3
Solid line
 72
    65
 73
     0
 40
0.0
  0
LTYPE
  5
6E
330
5
100
AcDbSymbolTableRecord
100
AcDbLinetypeTableRecord
  2
HIDDEN
 70
     0
  3
Hidden __ __ __ __ __ __ __ __ __ __ __ __ __ __
 72
    65
 73
     2
 40
1.905
 49
1.27
 74
     0
 49
-0.635
 74
     0
  0
LTYPE
  5
6F
330
5
100
AcDbSymbolTableRecord
100
AcDbLinetypeTableRecord
  2
PHANTOM
 70
     0
  3
Phantom ______  __  __  ______  __  __  ______
 72
    65
 73
     6
 40
12.7
 49
6.35
 74
     0
 49
-1.27
 74
     0
 49
1.27
 74
     0
 49
-1.27
 74
     0
 49
1.27
 74
     0
 49
-1.27
 74
     0
  0
LTYPE
  5
70
330
5
100
AcDbSymbolTableRecord
100
AcDbLinetypeTableRecord
  2
CENTER
 70
     0
  3
Center ____ _ ____ _ ____ _ ____ _ ____ _ ____
 72
    65
 73
     4
 40
10.16
 49
6.35
 74
     0
 49
-1.27
 74
     0
 49
1.27
 74
     0
 49
-1.27
 74
     0
  0
LTYPE
  5
71
330
5
100
AcDbSymbolTableRecord
100
AcDbLinetypeTableRecord
  2
CENTERX2
 70
     0
  3
Center (2x) ________  __  ________  __  _____
 72
    65
 73
     4
 40
20.32
 49
12.7
 74
     0
 49
-2.54
 74
     0
 49
2.54
 74
     0
 49
-2.54
 74
     0
  0
LTYPE
  5
72
330
5
100
AcDbSymbolTableRecord
100
AcDbLinetypeTableRecord
  2
DOT2
 70
     0
  3
Dot (.5x) ........................................
 72
    65
 73
     2
 40
0.635
 49
0.0
 74
     0
 49
-0.635
 74
     0
  0
ENDTAB
  0
TABLE
  2
LAYER
  5
2
330
0
100
AcDbSymbolTable
 70
     3
  0
LAYER
  5
10
330
2
100
AcDbSymbolTableRecord
100
AcDbLayerTableRecord
  2
0
 70
     0
 62
     7
  6
Continuous
370
    -3
390
F
  0
LAYER
  5
73
330
2
100
AcDbSymbolTableRecord
100
AcDbLayerTableRecord
  2
SLD-0
 70
     0
 62
   179
  6
Continuous
370
    15
390
F
  0
LAYER
  5
74
330
2
100
AcDbSymbolTableRecord
100
AcDbLayerTableRecord
  2
DIM
 70
     0
 62
     7
  6
Continuous
370
    -3
390
F
  0
ENDTAB
  0
TABLE
  2
STYLE
  5
3
330
0
100
AcDbSymbolTable
 70
     3
  0
STYLE
  5
11
330
3
100
AcDbSymbolTableRecord
100
AcDbTextStyleTableRecord
  2
Standard
 70
     0
 40
0.0
 41
1.0
 50
0.0
 71
     0
 42
2.5
  3
txt
  4

  0
STYLE
  5
C4
330
3
100
AcDbSymbolTableRecord
100
AcDbTextStyleTableRecord
  2
SLDTEXTSTYLE0
 70
     0
 40
0.0
 41
0.605
 50
0.0
 71
     0
 42
2.5
  3
TXT
  4

  0
STYLE
  5
CD
330
3
100
AcDbSymbolTableRecord
100
AcDbTextStyleTableRecord
  2
SLDTEXTSTYLE1
 70
     0
 40
0.0
 41
0.7
 50
0.0
 71
     0
 42
2.5
  3
TXT
  4

  0
ENDTAB
  0
TABLE
  2
VIEW
  5
6
330
0
100
AcDbSymbolTable
 70
     0
  0
ENDTAB
  0
TABLE
  2
UCS
  5
7
330
0
100
AcDbSymbolTable
 70
     0
  0
ENDTAB
  0
TABLE
  2
APPID
  5
9
330
0
100
AcDbSymbolTable
 70
     1
  0
APPID
  5
12
330
9
100
AcDbSymbolTableRecord
100
AcDbRegAppTableRecord
  2
ACAD
 70
     0
  0
ENDTAB
  0
TABLE
  2
DIMSTYLE
  5
A
330
0
100
AcDbSymbolTable
 70
     6
100
AcDbDimStyleTable
  0
DIMSTYLE
105
27
330
A
100
AcDbSymbolTableRecord
100
AcDbDimStyleTableRecord
  2
ISO-25
 70
     0
 41
2.5
 42
0.625
 43
3.75
 44
1.25
 73
     0
 74
     0
 77
     1
 78
     8
140
2.5
141
2.5
143
0.0393700787
147
0.625
171
     3
172
     1
178
     0
271
     2
272
     2
274
     3
278
    44
283
     0
284
     8
340
11
  0
DIMSTYLE
105
14F
102
{ACAD_REACTORS
330
14E
330
15A
330
164
330
16E
102
}
330
A
100
AcDbSymbolTableRecord
100
AcDbDimStyleTableRecord
  2
SLDDIMSTYLE0
 70
     0
 41
2.0
 44
0.0
 45
0.000000001
 73
     0
 74
     0
 77
     1
 78
    12
 79
     3
140
2.5
147
0.625
173
     1
178
     0
271
     2
272
     2
276
     2
284
    12
340
C4
  0
DIMSTYLE
105
179
102
{ACAD_REACTORS
330
178
102
}
330
A
100
AcDbSymbolTableRecord
100
AcDbDimStyleTableRecord
  2
SLDDIMSTYLE1
 70
     0
 41
2.0
 44
0.0
 45
0.000000001
 73
     0
 74
     0
 77
     1
 78
    12
 79
     3
140
2.5
147
0.625
172
     1
173
     1
178
     0
271
     6
272
     2
276
     2
284
    12
289
     0
340
C4
  0
DIMSTYLE
105
1EB
102
{ACAD_REACTORS
330
1EA
102
}
330
A
100
AcDbSymbolTableRecord
100
AcDbDimStyleTableRecord
  2
SLDDIMSTYLE2
 70
     0
 41
2.0
 44
0.0
 45
0.000000001
 78
    12
 79
     3
140
2.5
141
0.0
147
0.625
173
     1
178
     0
271
     2
272
     2
276
     2
284
    12
340
C4
  0
DIMSTYLE
105
1F5
102
{ACAD_REACTORS
330
1F4
102
}
330
A
100
AcDbSymbolTableRecord
100
AcDbDimStyleTableRecord
  2
SLDDIMSTYLE3
 70
     0
 41
2.0
 44
0.0
 45
0.000000001
 73
     0
 74
     0
 77
     1
 78
    12
 79
     3
140
2.5
147
0.625
173
     1
178
     0
271
     1
272
     1
276
     2
284
    12
340
C4
  0
DIMSTYLE
105
201
102
{ACAD_REACTORS
330
200
102
}
330
A
100
AcDbSymbolTableRecord
100
AcDbDimStyleTableRecord
  2
SLDDIMSTYLE4
 70
     0
  3
<>
 41
2.0
 44
0.0
 45
0.000000001
 78
    12
 79
     3
140
2.5
141
0.0
147
0.625
173
     1
178
     0
271
     2
272
     2
276
     2
284
    12
340
C4
  0
ENDTAB
  0
TABLE
  2
BLOCK_RECORD
  5
1
330
0
100
AcDbSymbolTable
 70
    13
  0
BLOCK_RECORD
  5
1F
330
1
100
AcDbSymbolTableRecord
100
AcDbBlockTableRecord
  2
*Model_Space
340
22
  0
BLOCK_RECORD
  5
1B
330
1
100
AcDbSymbolTableRecord
100
AcDbBlockTableRecord
  2
*Paper_Space
340
1E
  0
BLOCK_RECORD
  5
23
330
1
100
AcDbSymbolTableRecord
100
AcDbBlockTableRecord
  2
*Paper_Space0
340
26
  0
BLOCK_RECORD
  5
C6
330
1
100
AcDbSymbolTableRecord
100
AcDbBlockTableRecord
  2
SW_NOTE_0
340
0
102
{BLKREFS
331
CC
102
}
  0
BLOCK_RECORD
  5
FD
330
1
100
AcDbSymbolTableRecord
100
AcDbBlockTableRecord
  2
SW_NOTE_1
340
0
102
{BLKREFS
331
102
102
}
  0
BLOCK_RECORD
  5
150
330
1
100
AcDbSymbolTableRecord
100
AcDbBlockTableRecord
  2
_D
340
0
  0
BLOCK_RECORD
  5
15B
330
1
100
AcDbSymbolTableRecord
100
AcDbBlockTableRecord
  2
_D_1
340
0
  0
BLOCK_RECORD
  5
165
330
1
100
AcDbSymbolTableRecord
100
AcDbBlockTableRecord
  2
_D_2
340
0
  0
BLOCK_RECORD
  5
16F
330
1
100
AcDbSymbolTableRecord
100
AcDbBlockTableRecord
  2
_D_3
340
0
  0
BLOCK_RECORD
  5
17A
330
1
100
AcDbSymbolTableRecord
100
AcDbBlockTableRecord
  2
_D_4
340
0
  0
BLOCK_RECORD
  5
185
330
1
100
AcDbSymbolTableRecord
100
AcDbBlockTableRecord
  2
SW_CENTERMARKSYMBOL_0
340
0
102
{BLKREFS
331
190
102
}
  0
BLOCK_RECORD
  5
1EC
330
1
100
AcDbSymbolTableRecord
100
AcDbBlockTableRecord
  2
_D_5
340
0
  0
BLOCK_RECORD
  5
1F6
330
1
100
AcDbSymbolTableRecord
100
AcDbBlockTableRecord
  2
_D_6
340
0
  0
BLOCK_RECORD
  5
202
330
1
100
AcDbSymbolTableRecord
100
AcDbBlockTableRecord
  2
_D_7
340
0
  0
BLOCK_RECORD
  5
20A
330
1
100
AcDbSymbolTableRecord
100
AcDbBlockTableRecord
  2
SW_CENTERMARKSYMBOL_1
340
0
102
{BLKREFS
331
215
102
}
  0
ENDTAB
  0
ENDSEC
  0
SECTION
  2
BLOCKS
  0
BLOCK
  5
20
330
1F
100
AcDbEntity
  8
0
100
AcDbBlockBegin
  2
*Model_Space
 70
     0
 10
0.0
 20
0.0
 30
0.0
  3
*Model_Space
  1

  0
ENDBLK
  5
21
330
1F
100
AcDbEntity
  8
0
100
AcDbBlockEnd
  0
BLOCK
  5
1C
330
1B
100
AcDbEntity
 67
     1
  8
0
100
AcDbBlockBegin
  2
*Paper_Space
 70
     0
 10
0.0
 20
0.0
 30
0.0
  3
*Paper_Space
  1

  0
ENDBLK
  5
1D
330
1B
100
AcDbEntity
 67
     1
  8
0
100
AcDbBlockEnd
  0
BLOCK
  5
24
330
23
100
AcDbEntity
  8
0
100
AcDbBlockBegin
  2
*Paper_Space0
 70
     0
 10
0.0
 20
0.0
 30
0.0
  3
*Paper_Space0
  1

  0
ENDBLK
  5
25
330
23
100
AcDbEntity
  8
0
100
AcDbBlockEnd
  0
BLOCK
  5
C7
330
C6
100
AcDbEntity
  8
0
100
AcDbBlockBegin
  2
SW_NOTE_0
 70
     0
 10
0.0
 20
0.0
 30
0.0
  3
SW_NOTE_0
  1

  0
MTEXT
  5
C9
330
C6
100
AcDbEntity
  8
0
  6
Continuous
 62
     0
370
     0
100
AcDbMText
 10
0.0
 20
3.4106583948
 30
0.0
 40
2.6458333333
 41
0.0
 71
     1
 72
     1
  1
PROPRIETARY AND CONFIDENTIAL
  7
SLDTEXTSTYLE0
 73
     1
 44
1.0
  0
MTEXT
  5
CA
330
C6
100
AcDbEntity
  8
0
  6
Continuous
 62
     0
370
     0
100
AcDbMText
 10
0.0
 20
-0.08198348
 30
0.0
 40
1.8520833333
 41
0.0
 71
     1
 72
     1
  1
THE INFORMATION CONTAINED IN THIS DRAWING IS THE SOLE PROPERTY OF UNICE E-O SERVICES INC. ANY REPRODUCTION IN PART OR AS A WHOLE WITHOUT THE WRITTEN PERMISSION OF UNICE E-O SERVICES INC IS
  7
SLDTEXTSTYLE0
 73
     1
 44
1.0
  0
MTEXT
  5
CB
330
C6
100
AcDbEntity
  8
0
  6
Continuous
 62
     0
370
     0
100
AcDbMText
 10
0.0
 20
-2.5514278946
 30
0.0
 40
1.8520833333
 41
0.0
 71
     1
 72
     1
  1
PROHIBITED.
  7
SLDTEXTSTYLE0
 73
     1
 44
1.0
  0
ENDBLK
  5
C8
330
C6
100
AcDbEntity
  8
0
100
AcDbBlockEnd
  0
BLOCK
  5
FE
330
FD
100
AcDbEntity
  8
0
100
AcDbBlockBegin
  2
SW_NOTE_1
 70
     0
 10
0.0
 20
0.0
 30
0.0
  3
SW_NOTE_1
  1

  0
MTEXT
  5
100
330
FD
100
AcDbEntity
  8
SLD-0
 62
     0
100
AcDbMText
 10
0.0
 20
2.3874608764
 30
0.0
 40
1.8520833333
 41
0.0
 71
     1
 72
     1
  1
No.5, Andong Rd., Chung Li District,
  7
SLDTEXTSTYLE1
 73
     1
 44
1.0
  0
MTEXT
  5
101
330
FD
100
AcDbEntity
  8
SLD-0
 62
     0
100
AcDbMText
 10
0.0
 20
-0.0819835382
 30
0.0
 40
1.8520833333
 41
0.0
 71
     1
 72
     1
  1
Taoyuan City 32063, Taiwan, R.O.C.
  7
SLDTEXTSTYLE1
 73
     1
 44
1.0
  0
ENDBLK
  5
FF
330
FD
100
AcDbEntity
  8
0
100
AcDbBlockEnd
  0
BLOCK
  5
151
330
150
100
AcDbEntity
  8
0
100
AcDbBlockBegin
  2
_D
 70
     0
 10
0.0
 20
0.0
 30
0.0
  3
_D
  1

  0
SOLID
  5
153
330
150
100
AcDbEntity
  8
SLD-0
100
AcDbTrace
 10
95.2615154822
 20
173.4181560084
 30
0.0
 11
97.2615154822
 21
173.1681560084
 31
0.0
 12
97.2615154822
 22
173.6681560084
 32
0.0
 13
97.2615154822
 23
173.6681560084
 33
0.0
  0
SOLID
  5
154
330
150
100
AcDbEntity
  8
SLD-0
100
AcDbTrace
 10
120.2615154822
 20
173.4181560084
 30
0.0
 11
118.2615154822
 21
173.6681560084
 31
0.0
 12
118.2615154822
 22
173.1681560084
 32
0.0
 13
118.2615154822
 23
173.1681560084
 33
0.0
  0
LINE
  5
155
330
150
100
AcDbEntity
  8
SLD-0
100
AcDbLine
 10
95.2615154822
 20
163.4181560084
 30
0.0
 11
95.2615154822
 21
174.4181560084
 31
0.0
  0
LINE
  5
156
330
150
100
AcDbEntity
  8
SLD-0
100
AcDbLine
 10
120.2615154822
 20
163.4181560084
 30
0.0
 11
120.2615154822
 21
174.4181560084
 31
0.0
  0
LINE
  5
157
330
150
100
AcDbEntity
  8
SLD-0
100
AcDbLine
 10
95.2615154822
 20
173.4181560084
 30
0.0
 11
120.2615154822
 21
173.4181560084
 31
0.0
  0
MTEXT
  5
158
330
150
100
AcDbEntity
  8
SLD-0
100
AcDbMText
 10
104.0293105793
 20
176.640825125
 30
0.0
 40
2.5
 41
0.0
 71
     1
 72
     1
  1
%%c
  7
SLDTEXTSTYLE0
 73
     1
 44
1.0
  0
MTEXT
  5
159
330
150
100
AcDbEntity
  8
SLD-0
100
AcDbMText
 10
107.6742759355
 20
176.6477695899
 30
0.0
 40
2.5
 41
0.0
 71
     1
 72
     1
  1
25
  7
SLDTEXTSTYLE0
 73
     1
 44
1.0
  0
ENDBLK
  5
152
330
150
100
AcDbEntity
  8
0
100
AcDbBlockEnd
  0
BLOCK
  5
15C
330
15B
100
AcDbEntity
  8
0
100
AcDbBlockBegin
  2
_D_1
 70
     0
 10
0.0
 20
0.0
 30
0.0
  3
_D_1
  1

  0
SOLID
  5
15E
330
15B
100
AcDbEntity
  8
SLD-0
100
AcDbTrace
 10
128.3992808194
 20
166.4181560084
 30
0.0
 11
128.1492808194
 21
164.4181560084
 31
0.0
 12
128.6492808194
 22
164.4181560084
 32
0.0
 13
128.6492808194
 23
164.4181560084
 33
0.0
  0
SOLID
  5
15F
330
15B
100
AcDbEntity
  8
SLD-0
100
AcDbTrace
 10
128.3992808194
 20
154.4181560084
 30
0.0
 11
128.6492808194
 21
156.4181560084
 31
0.0
 12
128.1492808194
 22
156.4181560084
 32
0.0
 13
128.1492808194
 23
156.4181560084
 33
0.0
  0
LINE
  5
160
330
15B
100
AcDbEntity
  8
SLD-0
100
AcDbLine
 10
118.7620380746
 20
166.4181560084
 30
0.0
 11
129.3992808194
 21
166.4181560084
 31
0.0
  0
LINE
  5
161
330
15B
100
AcDbEntity
  8
SLD-0
100
AcDbLine
 10
108.7615154822
 20
154.4181560084
 30
0.0
 11
129.3992808194
 21
154.4181560084
 31
0.0
  0
LINE
  5
162
330
15B
100
AcDbEntity
  8
SLD-0
100
AcDbLine
 10
128.3992808194
 20
166.4181560084
 30
0.0
 11
128.3992808194
 21
154.4181560084
 31
0.0
  0
MTEXT
  5
163
330
15B
100
AcDbEntity
  8
SLD-0
100
AcDbMText
 10
125.1766116446
 20
158.5084337836
 30
0.0
 40
2.5
 41
0.0
 71
     1
 72
     1
  1
12
  7
SLDTEXTSTYLE0
 11
-7.044195017643634E-15
 21
1.0
 31
0.0
 73
     1
 44
1.0
  0
ENDBLK
  5
15D
330
15B
100
AcDbEntity
  8
0
100
AcDbBlockEnd
  0
BLOCK
  5
166
330
165
100
AcDbEntity
  8
0
100
AcDbBlockBegin
  2
_D_2
 70
     0
 10
0.0
 20
0.0
 30
0.0
  3
_D_2
  1

  0
SOLID
  5
168
330
165
100
AcDbEntity
  8
SLD-0
100
AcDbTrace
 10
135.4159401193
 20
166.4181560084
 30
0.0
 11
135.1659401193
 21
164.4181560084
 31
0.0
 12
135.6659401193
 22
164.4181560084
 32
0.0
 13
135.6659401193
 23
164.4181560084
 33
0.0
  0
SOLID
  5
169
330
165
100
AcDbEntity
  8
SLD-0
100
AcDbTrace
 10
135.4159401193
 20
146.4181560084
 30
0.0
 11
135.6659401193
 21
148.4181560084
 31
0.0
 12
135.1659401193
 22
148.4181560084
 32
0.0
 13
135.1659401193
 23
148.4181560084
 33
0.0
  0
LINE
  5
16A
330
165
100
AcDbEntity
  8
SLD-0
100
AcDbLine
 10
118.7620380746
 20
166.4181560084
 30
0.0
 11
136.4159401193
 21
166.4181560084
 31
0.0
  0
LINE
  5
16B
330
165
100
AcDbEntity
  8
SLD-0
100
AcDbLine
 10
108.7615154822
 20
146.4181560084
 30
0.0
 11
136.4159401193
 21
146.4181560084
 31
0.0
  0
LINE
  5
16C
330
165
100
AcDbEntity
  8
SLD-0
100
AcDbLine
 10
135.4159401193
 20
166.4181560084
 30
0.0
 11
135.4159401193
 21
146.4181560084
 31
0.0
  0
MTEXT
  5
16D
330
165
100
AcDbEntity
  8
SLD-0
100
AcDbMText
 10
132.1932709445
 20
154.5084337836
 30
0.0
 40
2.5
 41
0.0
 71
     1
 72
     1
  1
20
  7
SLDTEXTSTYLE0
 11
-7.044195017643634E-15
 21
1.0
 31
0.0
 73
     1
 44
1.0
  0
ENDBLK
  5
167
330
165
100
AcDbEntity
  8
0
100
AcDbBlockEnd
  0
BLOCK
  5
170
330
16F
100
AcDbEntity
  8
0
100
AcDbBlockBegin
  2
_D_3
 70
     0
 10
0.0
 20
0.0
 30
0.0
  3
_D_3
  1

  0
SOLID
  5
172
330
16F
100
AcDbEntity
  8
SLD-0
100
AcDbTrace
 10
142.835535473
 20
166.4181560084
 30
0.0
 11
142.585535473
 21
164.4181560084
 31
0.0
 12
143.085535473
 22
164.4181560084
 32
0.0
 13
143.085535473
 23
164.4181560084
 33
0.0
  0
SOLID
  5
173
330
16F
100
AcDbEntity
  8
SLD-0
100
AcDbTrace
 10
142.835535473
 20
90.2181560084
 30
0.0
 11
143.085535473
 21
92.2181560084
 31
0.0
 12
142.585535473
 22
92.2181560084
 32
0.0
 13
142.585535473
 23
92.2181560084
 33
0.0
  0
LINE
  5
174
330
16F
100
AcDbEntity
  8
SLD-0
100
AcDbLine
 10
118.7620380746
 20
166.4181560084
 30
0.0
 11
143.835535473
 21
166.4181560084
 31
0.0
  0
LINE
  5
175
330
16F
100
AcDbEntity
  8
SLD-0
100
AcDbLine
 10
120.2615154822
 20
90.2181560084
 30
0.0
 11
143.835535473
 21
90.2181560084
 31
0.0
  0
LINE
  5
176
330
16F
100
AcDbEntity
  8
SLD-0
100
AcDbLine
 10
142.835535473
 20
166.4181560084
 30
0.0
 11
142.835535473
 21
90.2181560084
 31
0.0
  0
MTEXT
  5
177
330
16F
100
AcDbEntity
  8
SLD-0
100
AcDbMText
 10
139.6128662982
 20
124.9761422023
 30
0.0
 40
2.5
 41
0.0
 71
     1
 72
     1
  1
76.2
  7
SLDTEXTSTYLE0
 11
-7.044195017643634E-15
 21
1.0
 31
0.0
 73
     1
 44
1.0
  0
ENDBLK
  5
171
330
16F
100
AcDbEntity
  8
0
100
AcDbBlockEnd
  0
BLOCK
  5
17B
330
17A
100
AcDbEntity
  8
0
100
AcDbBlockBegin
  2
_D_4
 70
     0
 10
0.0
 20
0.0
 30
0.0
  3
_D_4
  1

  0
SOLID
  5
17D
330
17A
100
AcDbEntity
  8
SLD-0
100
AcDbTrace
 10
86.3761550522
 20
152.894815411
 30
0.0
 11
86.259324213
 21
154.9069909886
 31
0.0
 12
85.7676142505
 22
154.8163195335
 32
0.0
 13
85.7676142505
 23
154.8163195335
 33
0.0
  0
SOLID
  5
17E
330
17A
100
AcDbEntity
  8
SLD-0
100
AcDbTrace
 10
87.2393473047
 20
148.2137365679
 30
0.0
 11
87.3561781439
 21
146.2015609904
 31
0.0
 12
87.8478881064
 22
146.2922324455
 32
0.0
 13
87.8478881064
 23
146.2922324455
 33
0.0
  0
LINE
  5
17F
330
17A
100
AcDbEntity
  8
SLD-0
100
AcDbLine
 10
104.9951883658
 20
156.32817038
 30
0.0
 11
85.3927351272
 21
152.7134725008
 31
0.0
  0
LINE
  5
180
330
17A
100
AcDbEntity
  8
SLD-0
100
AcDbLine
 10
105.8583806184
 20
151.6470915369
 30
0.0
 11
86.2559273797
 21
148.0323936577
 31
0.0
  0
LINE
  5
181
330
17A
100
AcDbEntity
  8
SLD-0
100
AcDbLine
 10
86.3761550522
 20
152.894815411
 30
0.0
 11
84.7282102952
 21
161.8315955013
 31
0.0
  0
LINE
  5
182
330
17A
100
AcDbEntity
  8
SLD-0
100
AcDbLine
 10
86.3761550522
 20
152.894815411
 30
0.0
 11
87.2393473047
 21
148.2137365679
 31
0.0
  0
LINE
  5
183
330
17A
100
AcDbEntity
  8
SLD-0
100
AcDbLine
 10
87.2393473047
 20
148.2137365679
 30
0.0
 11
87.7833760353
 21
145.2634767929
 31
0.0
  0
MTEXT
  5
184
330
17A
100
AcDbEntity
  8
SLD-0
100
AcDbMText
 10
87.8974473734
 20
162.416003708
 30
0.0
 40
2.5
 41
0.0
 71
     1
 72
     1
  1
3/16"
  7
SLDTEXTSTYLE0
 11
0.1813429101978367
 21
-0.9834199250172733
 31
0.0
 73
     1
 44
1.0
  0
ENDBLK
  5
17C
330
17A
100
AcDbEntity
  8
0
100
AcDbBlockEnd
  0
BLOCK
  5
186
330
185
100
AcDbEntity
  8
0
100
AcDbBlockBegin
  2
SW_CENTERMARKSYMBOL_0
 70
     0
 10
0.0
 20
0.0
 30
0.0
  3
SW_CENTERMARKSYMBOL_0
  1

  0
LINE
  5
188
330
185
100
AcDbEntity
  8
SLD-0
 62
     0
100
AcDbLine
 10
0.0
 20
0.0
 30
0.0
 11
0.0
 21
1.0
 31
0.0
  0
LINE
  5
189
330
185
100
AcDbEntity
  8
SLD-0
 62
     0
100
AcDbLine
 10
0.0
 20
0.0
 30
0.0
 11
-1.0
 21
0.0
 31
0.0
  0
LINE
  5
18A
330
185
100
AcDbEntity
  8
SLD-0
 62
     0
100
AcDbLine
 10
0.0
 20
0.0
 30
0.0
 11
0.0
 21
-1.0
 31
0.0
  0
LINE
  5
18B
330
185
100
AcDbEntity
  8
SLD-0
 62
     0
100
AcDbLine
 10
0.0
 20
0.0
 30
0.0
 11
1.0
 21
0.0
 31
0.0
  0
LINE
  5
18C
330
185
100
AcDbEntity
  8
SLD-0
 62
     0
100
AcDbLine
 10
0.0
 20
2.0
 30
0.0
 11
0.0
 21
7.5
 31
0.0
  0
LINE
  5
18D
330
185
100
AcDbEntity
  8
SLD-0
 62
     0
100
AcDbLine
 10
-2.0
 20
0.0
 30
0.0
 11
-7.5
 21
0.0
 31
0.0
  0
LINE
  5
18E
330
185
100
AcDbEntity
  8
SLD-0
 62
     0
100
AcDbLine
 10
0.0
 20
-2.0
 30
0.0
 11
0.0
 21
-7.5
 31
0.0
  0
LINE
  5
18F
330
185
100
AcDbEntity
  8
SLD-0
 62
     0
100
AcDbLine
 10
2.0
 20
0.0
 30
0.0
 11
7.5
 21
0.0
 31
0.0
  0
ENDBLK
  5
187
330
185
100
AcDbEntity
  8
0
100
AcDbBlockEnd
  0
BLOCK
  5
1ED
330
1EC
100
AcDbEntity
  8
0
100
AcDbBlockBegin
  2
_D_5
 70
     0
 10
0.0
 20
0.0
 30
0.0
  3
_D_5
  1

  0
SOLID
  5
1EF
330
1EC
100
AcDbEntity
  8
SLD-0
100
AcDbTrace
 10
102.1673436719
 20
51.0847058808
 30
0.0
 11
100.5236919233
 21
52.2512858949
 31
0.0
 12
100.2871076659
 22
51.8107999256
 32
0.0
 13
100.2871076659
 23
51.8107999256
 33
0.0
  0
LINE
  5
1F0
330
1EC
100
AcDbEntity
  8
SLD-0
100
AcDbLine
 10
102.1673436719
 20
51.0847058808
 30
0.0
 11
89.2780212857
 21
58.0075387905
 31
0.0
  0
LINE
  5
1F1
330
1EC
100
AcDbEntity
  8
SLD-0
100
AcDbLine
 10
89.2780212857
 20
58.0075387905
 30
0.0
 11
77.6990280845
 21
58.0075387905
 31
0.0
  0
MTEXT
  5
1F2
330
1EC
100
AcDbEntity
  8
SLD-0
100
AcDbMText
 10
77.6990280845
 20
61.2302079071
 30
0.0
 40
2.5
 41
0.0
 71
     1
 72
     1
  1
%%c
  7
SLDTEXTSTYLE0
 73
     1
 44
1.0
  0
MTEXT
  5
1F3
330
1EC
100
AcDbEntity
  8
SLD-0
100
AcDbMText
 10
81.3439934407
 20
61.2371523721
 30
0.0
 40
2.5
 41
0.0
 71
     1
 72
     1
  1
12.7
  7
SLDTEXTSTYLE0
 73
     1
 44
1.0
  0
ENDBLK
  5
1EE
330
1EC
100
AcDbEntity
  8
0
100
AcDbBlockEnd
  0
BLOCK
  5
1F7
330
1F6
100
AcDbEntity
  8
0
100
AcDbBlockBegin
  2
_D_6
 70
     0
 10
0.0
 20
0.0
 30
0.0
  3
_D_6
  1

  0
SOLID
  5
1F9
330
1F6
100
AcDbEntity
  8
SLD-0
100
AcDbTrace
 10
131.4323495087
 20
72.4300858122
 30
0.0
 11
131.1823495087
 21
70.4300858122
 31
0.0
 12
131.6823495087
 22
70.4300858122
 32
0.0
 13
131.6823495087
 23
70.4300858122
 33
0.0
  0
SOLID
  5
1FA
330
1F6
100
AcDbEntity
  8
SLD-0
100
AcDbTrace
 10
131.4323495087
 20
35.5800858122
 30
0.0
 11
131.6823495087
 21
37.5800858122
 31
0.0
 12
131.1823495087
 22
37.5800858122
 32
0.0
 13
131.1823495087
 23
37.5800858122
 33
0.0
  0
LINE
  5
1FB
330
1F6
100
AcDbEntity
  8
SLD-0
100
AcDbLine
 10
109.9402443985
 20
72.4300858122
 30
0.0
 11
132.4323495087
 21
72.4300858122
 31
0.0
  0
LINE
  5
1FC
330
1F6
100
AcDbEntity
  8
SLD-0
100
AcDbLine
 10
108.7615154822
 20
35.5800858122
 30
0.0
 11
132.4323495087
 21
35.5800858122
 31
0.0
  0
LINE
  5
1FD
330
1F6
100
AcDbEntity
  8
SLD-0
100
AcDbLine
 10
131.4323495087
 20
72.4300858122
 30
0.0
 11
131.4323495087
 21
35.5800858122
 31
0.0
  0
MTEXT
  5
1FE
330
1F6
100
AcDbEntity
  8
SLD-0
100
AcDbMText
 10
128.2096803339
 20
45.9859886628
 30
0.0
 40
2.5
 41
0.0
 71
     1
 72
     1
  1
Max.:
  7
SLDTEXTSTYLE0
 11
-7.044195017643634E-15
 21
1.0
 31
0.0
 73
     1
 44
1.0
  0
MTEXT
  5
1FF
330
1F6
100
AcDbEntity
  8
SLD-0
100
AcDbMText
 10
128.2096803339
 20
55.3401553494
 30
0.0
 40
2.5
 41
0.0
 71
     1
 72
     1
  1
36.9
  7
SLDTEXTSTYLE0
 11
-7.044195017643634E-15
 21
1.0
 31
0.0
 73
     1
 44
1.0
  0
ENDBLK
  5
1F8
330
1F6
100
AcDbEntity
  8
0
100
AcDbBlockEnd
  0
BLOCK
  5
203
330
202
100
AcDbEntity
  8
0
100
AcDbBlockBegin
  2
_D_7
 70
     0
 10
0.0
 20
0.0
 30
0.0
  3
_D_7
  1

  0
SOLID
  5
205
330
202
100
AcDbEntity
  8
SLD-0
100
AcDbTrace
 10
105.9564840019
 20
46.2750543319
 30
0.0
 11
104.3654937442
 21
45.0376174648
 31
0.0
 12
104.7190471348
 22
44.6840640742
 32
0.0
 13
104.7190471348
 23
44.6840640742
 33
0.0
  0
LINE
  5
206
330
202
100
AcDbEntity
  8
SLD-0
100
AcDbLine
 10
105.9564840019
 20
46.2750543319
 30
0.0
 11
90.6985941515
 21
31.0171644815
 31
0.0
  0
LINE
  5
207
330
202
100
AcDbEntity
  8
SLD-0
100
AcDbLine
 10
90.6985941515
 20
31.0171644815
 30
0.0
 11
76.2784552187
 21
31.0171644815
 31
0.0
  0
MTEXT
  5
208
330
202
100
AcDbEntity
  8
SLD-0
100
AcDbMText
 10
76.2784552187
 20
38.0766391228
 30
0.0
 40
2.5
 41
0.0
 71
     1
 72
     1
  1
1 HOLE,
  7
SLDTEXTSTYLE0
 73
     1
 44
1.0
  0
MTEXT
  5
209
330
202
100
AcDbEntity
  8
SLD-0
100
AcDbMText
 10
76.2784552187
 20
34.2398336563
 30
0.0
 40
2.5
 41
0.0
 71
     1
 72
     1
  1
1/4"-20
  7
SLDTEXTSTYLE0
 73
     1
 44
1.0
  0
ENDBLK
  5
204
330
202
100
AcDbEntity
  8
0
100
AcDbBlockEnd
  0
BLOCK
  5
20B
330
20A
100
AcDbEntity
  8
0
100
AcDbBlockBegin
  2
SW_CENTERMARKSYMBOL_1
 70
     0
 10
0.0
 20
0.0
 30
0.0
  3
SW_CENTERMARKSYMBOL_1
  1

  0
LINE
  5
20D
330
20A
100
AcDbEntity
  8
SLD-0
 62
     0
100
AcDbLine
 10
0.0
 20
0.0
 30
0.0
 11
0.0
 21
1.0
 31
0.0
  0
LINE
  5
20E
330
20A
100
AcDbEntity
  8
SLD-0
 62
     0
100
AcDbLine
 10
0.0
 20
0.0
 30
0.0
 11
-1.0
 21
0.0
 31
0.0
  0
LINE
  5
20F
330
20A
100
AcDbEntity
  8
SLD-0
 62
     0
100
AcDbLine
 10
0.0
 20
0.0
 30
0.0
 11
0.0
 21
-1.0
 31
0.0
  0
LINE
  5
210
330
20A
100
AcDbEntity
  8
SLD-0
 62
     0
100
AcDbLine
 10
0.0
 20
0.0
 30
0.0
 11
1.0
 21
0.0
 31
0.0
  0
LINE
  5
211
330
20A
100
AcDbEntity
  8
SLD-0
 62
     0
100
AcDbLine
 10
0.0
 20
2.0
 30
0.0
 11
0.0
 21
13.5
 31
0.0
  0
LINE
  5
212
330
20A
100
AcDbEntity
  8
SLD-0
 62
     0
100
AcDbLine
 10
-2.0
 20
0.0
 30
0.0
 11
-13.5
 21
0.0
 31
0.0
  0
LINE
  5
213
330
20A
100
AcDbEntity
  8
SLD-0
 62
     0
100
AcDbLine
 10
0.0
 20
-2.0
 30
0.0
 11
0.0
 21
-13.5
 31
0.0
  0
LINE
  5
214
330
20A
100
AcDbEntity
  8
SLD-0
 62
     0
100
AcDbLine
 10
2.0
 20
0.0
 30
0.0
 11
13.5
 21
0.0
 31
0.0
  0
ENDBLK
  5
20C
330
20A
100
AcDbEntity
  8
0
100
AcDbBlockEnd
  0
ENDSEC
  0
SECTION
  2
ENTITIES
  0
HATCH
  5
75
330
1F
100
AcDbEntity
  8
DIM
 62
     7
100
AcDbHatch
 10
0.0
 20
0.0
 30
0.0
210
0.0
220
0.0
230
1.0
  2
SOLID
 70
     1
 71
     0
 91
        1
 92
        0
 93
       10
 72
     2
 10
191.962510760371
 20
35.68713903731433
 40
3.045751395731247
 50
249.211220914341
 51
308.9221353953366
 73
     1
 72
     1
 10
193.8760457216055
 20
33.31754297116046
 11
194.8408653828226
 21
32.47025618751811
 72
     1
 10
194.8408653828226
 20
32.47025618751811
 11
191.6307254096669
 21
29.3532164747557
 72
     1
 10
191.6307254096669
 20
29.3532164747557
 11
190.6899249541729
 21
30.1632135448657
 72
     1
 10
190.6899249541729
 20
30.1632135448657
 11
191.320976874588
 21
30.77911393533673
 72
     1
 10
191.320976874588
 20
30.77911393533673
 11
187.3117745643924
 21
34.26371777561141
 72
     2
 10
188.3267159939331
 20
35.41127815137192
 40
1.531992467805808
 50
131.4906380929588
 51
229.7089352075133
 73
     0
 72
     1
 10
187.3360211464176
 20
36.57983479977197
 11
188.6426494012993
 21
37.84142187627948
 72
     1
 10
188.6426494012993
 20
37.84142187627948
 11
189.6578432487017
 21
36.9458899754617
 72
     2
 10
191.6311135520744
 20
35.29849728806691
 40
2.570544369711283
 50
140.1430462780655
 51
253.045252507401
 73
     1
 97
        0
 75
     0
 76
     1
 98
        1
 10
0.0
 20
0.0
  0
HATCH
  5
76
330
1F
100
AcDbEntity
  8
DIM
 62
     1
100
AcDbHatch
 10
0.0
 20
0.0
 30
0.0
210
0.0
220
0.0
230
1.0
  2
SOLID
 70
     1
 71
     0
 91
        1
 92
        0
 93
       10
 72
     2
 10
192.0956761993349
 20
34.93293939861229
 40
3.18163670452787
 50
234.1674444878508
 51
314.440707458399
 73
     0
 72
     2
 10
192.4133324900593
 20
35.47376120409047
 40
2.57756748834625
 50
317.818499299578
 51
398.0564711573085
 73
     0
 72
     1
 10
194.4429183331068
 20
33.88485105474882
 11
195.4283672260896
 21
33.02615411485933
 72
     1
 10
195.4283672260896
 20
33.02615411485933
 11
196.6700485408834
 21
34.23058705726655
 72
     2
 10
195.7766562152212
 20
35.45853378908748
 40
1.518552937418266
 50
306.0377529468137
 51
403.4396461533867
 73
     1
 72
     1
 10
196.8792760798935
 20
36.50267576112562
 11
192.7525202215502
 21
40.09185202975957
 72
     1
 10
192.7525202215502
 20
40.09185202975957
 11
193.3767715234775
 21
40.70091046059689
 72
     1
 10
193.3767715234775
 20
40.70091046059689
 11
192.4462650132934
 21
41.53110268044144
 72
     1
 10
192.4462650132934
 20
41.53110268044144
 11
189.2106795648836
 21
38.40418243382732
 72
     1
 10
189.2106795648836
 20
38.40418243382732
 11
190.2330874422322
 21
37.51239190670652
 97
        0
 75
     0
 76
     1
 98
        1
 10
0.0
 20
0.0
  0
LINE
  5
77
330
1F
100
AcDbEntity
  8
0
  6
Continuous
 62
     7
370
     0
100
AcDbLine
 10
167.8593775185
 20
17.7745192513
 30
0.0
 11
168.8593775185
 21
17.7745192513
 31
0.0
  0
LINE
  5
78
330
1F
100
AcDbEntity
  8
0
  6
Continuous
 62
     7
370
     0
100
AcDbLine
 10
164.8593775185
 20
17.7745192513
 30
0.0
 11
167.3593775185
 21
17.7745192513
 31
0.0
  0
LINE
  5
79
330
1F
100
AcDbEntity
  8
0
  6
Continuous
 62
     7
370
     0
100
AcDbLine
 10
181.3593775185
 20
15.2745192513
 30
0.0
 11
181.3593775185
 21
20.2745192513
 31
0.0
  0
LINE
  5
7A
330
1F
100
AcDbEntity
  8
0
  6
Continuous
 62
     7
370
     0
100
AcDbLine
 10
174.3593775185
 20
16.2745192513
 30
0.0
 11
181.3593775185
 21
15.2745192513
 31
0.0
  0
LINE
  5
7B
330
1F
100
AcDbEntity
  8
0
  6
Continuous
 62
     7
370
     0
100
AcDbLine
 10
168.3593775185
 20
16.7745192513
 30
0.0
 11
168.3593775185
 21
14.2745192513
 31
0.0
  0
LINE
  5
7C
330
1F
100
AcDbEntity
  8
0
  6
Continuous
 62
     7
370
     0
100
AcDbLine
 10
181.3593775185
 20
20.2745192513
 30
0.0
 11
174.3593775185
 21
19.2745192513
 31
0.0
  0
LINE
  5
7D
330
1F
100
AcDbEntity
  8
0
  6
Continuous
 62
     7
370
     0
100
AcDbLine
 10
173.3593775185
 20
17.7745192513
 30
0.0
 11
182.3593775185
 21
17.7745192513
 31
0.0
  0
LINE
  5
7E
330
1F
100
AcDbEntity
  8
0
  6
Continuous
 62
     7
370
     0
100
AcDbLine
 10
168.3593775185
 20
18.2745192513
 30
0.0
 11
168.3593775185
 21
17.2745192513
 31
0.0
  0
LINE
  5
7F
330
1F
100
AcDbEntity
  8
0
  6
Continuous
 62
     7
370
     0
100
AcDbLine
 10
169.3593775185
 20
17.7745192513
 30
0.0
 11
171.8593775185
 21
17.7745192513
 31
0.0
  0
LINE
  5
80
330
1F
100
AcDbEntity
  8
0
  6
Continuous
 62
     7
370
     0
100
AcDbLine
 10
168.3593775185
 20
21.2745192513
 30
0.0
 11
168.3593775185
 21
18.7745192513
 31
0.0
  0
LINE
  5
81
330
1F
100
AcDbEntity
  8
0
  6
Continuous
 62
     7
370
     0
100
AcDbLine
 10
174.3593775185
 20
19.2745192513
 30
0.0
 11
174.3593775185
 21
16.2745192513
 31
0.0
  0
LINE
  5
82
330
1F
100
AcDbEntity
  8
0
370
     0
100
AcDbLine
 10
194.8408653828
 20
32.4702561875
 30
0.0
 11
191.6307254097
 21
29.3532164748
 31
0.0
  0
LINE
  5
83
330
1F
100
AcDbEntity
  8
0
370
     0
100
AcDbLine
 10
191.6307254097
 20
29.3532164748
 30
0.0
 11
190.6899249542
 21
30.1632135449
 31
0.0
  0
LINE
  5
84
330
1F
100
AcDbEntity
  8
0
370
     0
100
AcDbLine
 10
190.6899249542
 20
30.1632135449
 30
0.0
 11
191.3209768746
 21
30.7791139353
 31
0.0
  0
LINE
  5
85
330
1F
100
AcDbEntity
  8
0
370
     0
100
AcDbLine
 10
187.3117745644
 20
34.2637177756
 30
0.0
 11
191.3209768746
 21
30.7791139353
 31
0.0
  0
LINE
  5
86
330
1F
100
AcDbEntity
  8
0
370
     0
100
AcDbLine
 10
188.6426494013
 20
37.8414218763
 30
0.0
 11
187.3360211464
 21
36.5798347998
 31
0.0
  0
LINE
  5
87
330
1F
100
AcDbEntity
  8
0
370
     0
100
AcDbLine
 10
188.6426494013
 20
37.8414218763
 30
0.0
 11
189.6578432487
 21
36.9458899755
 31
0.0
  0
LINE
  5
88
330
1F
100
AcDbEntity
  8
0
370
     0
100
AcDbLine
 10
193.8760457216
 20
33.3175429712
 30
0.0
 11
194.8408653828
 21
32.4702561875
 31
0.0
  0
LINE
  5
89
330
1F
100
AcDbEntity
  8
0
 62
     1
370
     0
100
AcDbLine
 10
190.2330874422
 20
37.5123919067
 30
0.0
 11
189.2106795649
 21
38.4041824338
 31
0.0
  0
LINE
  5
8A
330
1F
100
AcDbEntity
  8
0
 62
     1
370
     0
100
AcDbLine
 10
189.2106795649
 20
38.4041824338
 30
0.0
 11
192.4462650133
 21
41.5311026804
 31
0.0
  0
LINE
  5
8B
330
1F
100
AcDbEntity
  8
0
 62
     1
370
     0
100
AcDbLine
 10
192.4462650133
 20
41.5311026804
 30
0.0
 11
193.3767715235
 21
40.7009104606
 31
0.0
  0
LINE
  5
8C
330
1F
100
AcDbEntity
  8
0
 62
     1
370
     0
100
AcDbLine
 10
193.3767715235
 20
40.7009104606
 30
0.0
 11
192.7525202216
 21
40.0918520298
 31
0.0
  0
LINE
  5
8D
330
1F
100
AcDbEntity
  8
0
 62
     1
370
     0
100
AcDbLine
 10
192.7525202216
 20
40.0918520298
 30
0.0
 11
196.8792760799
 21
36.5026757611
 31
0.0
  0
LINE
  5
8E
330
1F
100
AcDbEntity
  8
0
 62
     1
370
     0
100
AcDbLine
 10
194.4429183331
 20
33.8848510547
 30
0.0
 11
195.4283672261
 21
33.0261541149
 31
0.0
  0
LINE
  5
8F
330
1F
100
AcDbEntity
  8
0
 62
     1
370
     0
100
AcDbLine
 10
195.4283672261
 20
33.0261541149
 30
0.0
 11
196.6700485409
 21
34.2305870573
 31
0.0
  0
LINE
  5
90
330
1F
100
AcDbEntity
  8
0
  6
Continuous
 62
     7
370
     0
100
AcDbLine
 10
185.6907965209
 20
13.1152464079
 30
0.0
 11
285.6907965209
 21
13.1152464079
 31
0.0
  0
LINE
  5
91
330
1F
100
AcDbEntity
  8
0
  6
Continuous
 62
     7
370
     0
100
AcDbLine
 10
185.6907965209
 20
18.1152464079
 30
0.0
 11
235.6907965209
 21
18.1152464079
 31
0.0
  0
LINE
  5
92
330
1F
100
AcDbEntity
  8
0
  6
Continuous
 62
     7
370
     0
100
AcDbLine
 10
185.6907965209
 20
23.1152464079
 30
0.0
 11
235.6907965209
 21
23.1152464079
 31
0.0
  0
LINE
  5
93
330
1F
100
AcDbEntity
  8
0
  6
Continuous
 62
     7
370
     0
100
AcDbLine
 10
185.6907965209
 20
28.1152464079
 30
0.0
 11
285.6907965209
 21
28.1152464079
 31
0.0
  0
LINE
  5
94
330
1F
100
AcDbEntity
  8
0
  6
Continuous
 62
     7
370
     0
100
AcDbLine
 10
235.6907965209
 20
33.1152464079
 30
0.0
 11
285.6907965209
 21
33.1152464079
 31
0.0
  0
LINE
  5
95
330
1F
100
AcDbEntity
  8
0
  6
Continuous
 62
     7
370
    15
100
AcDbLine
 10
235.6907965209
 20
18.1152464079
 30
0.0
 11
285.6907965209
 21
18.1152464079
 31
0.0
  0
LINE
  5
96
330
1F
100
AcDbEntity
  8
0
  6
Continuous
 62
     7
370
     0
100
AcDbLine
 10
185.6907965209
 20
43.1152464079
 30
0.0
 11
285.6907965209
 21
43.1152464079
 31
0.0
  0
LINE
  5
97
330
1F
100
AcDbEntity
  8
0
  6
Continuous
 62
     7
370
     0
100
AcDbLine
 10
251.237217675
 20
8.1152464079
 30
0.0
 11
251.237217675
 21
18.1152464079
 31
0.0
  0
LINE
  5
98
330
1F
100
AcDbEntity
  8
0
  6
Continuous
 62
     7
370
     0
100
AcDbLine
 10
235.6907965209
 20
8.1152464079
 30
0.0
 11
235.6907965209
 21
43.1152464079
 31
0.0
  0
LINE
  5
99
330
1F
100
AcDbEntity
  8
0
  6
Continuous
 62
     7
370
     0
100
AcDbLine
 10
251.237217675
 20
28.1152464079
 30
0.0
 11
251.237217675
 21
33.1152464079
 31
0.0
  0
LINE
  5
9A
330
1F
100
AcDbEntity
  8
0
  6
Continuous
 62
     7
370
     0
100
AcDbLine
 10
214.4164086353
 20
8.1152464079
 30
0.0
 11
214.4164086353
 21
28.1152464079
 31
0.0
  0
LINE
  5
9B
330
1F
100
AcDbEntity
  8
0
  6
Continuous
 62
     7
370
     0
100
AcDbLine
 10
199.7785887506
 20
8.1152464079
 30
0.0
 11
199.7785887506
 21
28.1152464079
 31
0.0
  0
LINE
  5
9C
330
1F
100
AcDbEntity
  8
0
  6
Continuous
 62
     7
370
     0
100
AcDbLine
 10
185.6907965209
 20
8.1152464079
 30
0.0
 11
185.6907965209
 21
43.1152464079
 31
0.0
  0
LINE
  5
9D
330
1F
100
AcDbEntity
  8
0
  6
Continuous
 62
     7
370
    15
100
AcDbLine
 10
285.6907965209
 20
104.7436369915
 30
0.0
 11
279.6907965209
 21
104.7436369915
 31
0.0
  0
LINE
  5
9E
330
1F
100
AcDbEntity
  8
0
  6
Continuous
 62
     7
370
    15
100
AcDbLine
 10
147.1907965209
 20
8.1152464079
 30
0.0
 11
147.1907965209
 21
14.1152464079
 31
0.0
  0
LINE
  5
9F
330
1F
100
AcDbEntity
  8
0
  6
Continuous
 62
     7
370
    15
100
AcDbLine
 10
147.1907965209
 20
201.3720275751
 30
0.0
 11
147.1907965209
 21
195.3720275751
 31
0.0
  0
LINE
  5
A0
330
1F
100
AcDbEntity
  8
0
  6
Continuous
 62
     7
370
    15
100
AcDbLine
 10
43.3207965209
 20
201.3720275751
 30
0.0
 11
43.3207965209
 21
202.8720275751
 31
0.0
  0
LINE
  5
A1
330
1F
100
AcDbEntity
  8
0
  6
Continuous
 62
     7
370
    15
100
AcDbLine
 10
77.9507965209
 20
201.3720275751
 30
0.0
 11
77.9507965209
 21
202.8720275751
 31
0.0
  0
LINE
  5
A2
330
1F
100
AcDbEntity
  8
0
  6
Continuous
 62
     7
370
    15
100
AcDbLine
 10
112.5807965209
 20
201.3720275751
 30
0.0
 11
112.5807965209
 21
202.8720275751
 31
0.0
  0
LINE
  5
A3
330
1F
100
AcDbEntity
  8
0
  6
Continuous
 62
     7
370
    15
100
AcDbLine
 10
147.2107965209
 20
201.3720275751
 30
0.0
 11
147.2107965209
 21
202.8720275751
 31
0.0
  0
LINE
  5
A4
330
1F
100
AcDbEntity
  8
0
  6
Continuous
 62
     7
370
    15
100
AcDbLine
 10
181.8407965209
 20
201.3720275751
 30
0.0
 11
181.8407965209
 21
202.8720275751
 31
0.0
  0
LINE
  5
A5
330
1F
100
AcDbEntity
  8
0
  6
Continuous
 62
     7
370
    15
100
AcDbLine
 10
216.4707965209
 20
201.3720275751
 30
0.0
 11
216.4707965209
 21
202.8720275751
 31
0.0
  0
LINE
  5
A6
330
1F
100
AcDbEntity
  8
0
  6
Continuous
 62
     7
370
    15
100
AcDbLine
 10
251.1007965209
 20
201.3720275751
 30
0.0
 11
251.1007965209
 21
202.8720275751
 31
0.0
  0
LINE
  5
A7
330
1F
100
AcDbEntity
  8
0
  6
Continuous
 62
     7
370
    15
100
AcDbLine
 10
43.3157965209
 20
8.1152464079
 30
0.0
 11
43.3157965209
 21
6.6152464079
 31
0.0
  0
LINE
  5
A8
330
1F
100
AcDbEntity
  8
0
  6
Continuous
 62
     7
370
    15
100
AcDbLine
 10
77.9407965209
 20
8.1152464079
 30
0.0
 11
77.9407965209
 21
6.6152464079
 31
0.0
  0
LINE
  5
A9
330
1F
100
AcDbEntity
  8
0
  6
Continuous
 62
     7
370
    15
100
AcDbLine
 10
112.5657965209
 20
8.1152464079
 30
0.0
 11
112.5657965209
 21
6.6152464079
 31
0.0
  0
LINE
  5
AA
330
1F
100
AcDbEntity
  8
0
  6
Continuous
 62
     7
370
    15
100
AcDbLine
 10
147.1907965209
 20
8.1152464079
 30
0.0
 11
147.1907965209
 21
6.6152464079
 31
0.0
  0
LINE
  5
AB
330
1F
100
AcDbEntity
  8
0
  6
Continuous
 62
     7
370
    15
100
AcDbLine
 10
181.8157965209
 20
8.1152464079
 30
0.0
 11
181.8157965209
 21
6.6152464079
 31
0.0
  0
LINE
  5
AC
330
1F
100
AcDbEntity
  8
0
  6
Continuous
 62
     7
370
    15
100
AcDbLine
 10
216.4407965209
 20
8.1152464079
 30
0.0
 11
216.4407965209
 21
6.6152464079
 31
0.0
  0
LINE
  5
AD
330
1F
100
AcDbEntity
  8
0
  6
Continuous
 62
     7
370
     0
100
AcDbLine
 10
285.6907965209
 20
201.3720275751
 30
0.0
 11
8.6907965209
 21
201.3720275751
 31
0.0
  0
LINE
  5
AE
330
1F
100
AcDbEntity
  8
0
  6
Continuous
 62
     7
370
     0
100
AcDbLine
 10
285.6907965209
 20
8.1152464079
 30
0.0
 11
285.6907965209
 21
201.3720275751
 31
0.0
  0
LINE
  5
AF
330
1F
100
AcDbEntity
  8
0
  6
Continuous
 62
     7
370
     0
100
AcDbLine
 10
8.6907965209
 20
201.3720275751
 30
0.0
 11
8.6907965209
 21
8.1152464079
 31
0.0
  0
LINE
  5
B0
330
1F
100
AcDbEntity
  8
0
  6
Continuous
 62
     7
370
     0
100
AcDbLine
 10
8.6907965209
 20
8.1152464079
 30
0.0
 11
285.6907965209
 21
8.1152464079
 31
0.0
  0
LINE
  5
B1
330
1F
100
AcDbEntity
  8
0
  6
Continuous
 62
     7
370
    15
100
AcDbLine
 10
251.0657965209
 20
8.1152464079
 30
0.0
 11
251.0657965209
 21
6.6152464079
 31
0.0
  0
LINE
  5
B2
330
1F
100
AcDbEntity
  8
0
  6
Continuous
 62
     7
370
    15
100
AcDbLine
 10
8.6907965209
 20
40.3252464079
 30
0.0
 11
7.1907965209
 21
40.3252464079
 31
0.0
  0
LINE
  5
B3
330
1F
100
AcDbEntity
  8
0
  6
Continuous
 62
     7
370
    15
100
AcDbLine
 10
8.6907965209
 20
72.5352464079
 30
0.0
 11
7.1907965209
 21
72.5352464079
 31
0.0
  0
LINE
  5
B4
330
1F
100
AcDbEntity
  8
0
  6
Continuous
 62
     7
370
    15
100
AcDbLine
 10
8.6907965209
 20
104.7452464079
 30
0.0
 11
7.1907965209
 21
104.7452464079
 31
0.0
  0
LINE
  5
B5
330
1F
100
AcDbEntity
  8
0
  6
Continuous
 62
     7
370
    15
100
AcDbLine
 10
8.6907965209
 20
136.9552464079
 30
0.0
 11
7.1907965209
 21
136.9552464079
 31
0.0
  0
LINE
  5
B6
330
1F
100
AcDbEntity
  8
0
  6
Continuous
 62
     7
370
    15
100
AcDbLine
 10
8.6907965209
 20
169.1652464079
 30
0.0
 11
7.1907965209
 21
169.1652464079
 31
0.0
  0
LINE
  5
B7
330
1F
100
AcDbEntity
  8
0
  6
Continuous
 62
     7
370
    15
100
AcDbLine
 10
285.6907965209
 20
40.3252464079
 30
0.0
 11
287.1907965209
 21
40.3252464079
 31
0.0
  0
LINE
  5
B8
330
1F
100
AcDbEntity
  8
0
  6
Continuous
 62
     7
370
    15
100
AcDbLine
 10
285.6907965209
 20
72.5352464079
 30
0.0
 11
287.1907965209
 21
72.5352464079
 31
0.0
  0
LINE
  5
B9
330
1F
100
AcDbEntity
  8
0
  6
Continuous
 62
     7
370
    15
100
AcDbLine
 10
285.6907965209
 20
104.7452464079
 30
0.0
 11
287.1907965209
 21
104.7452464079
 31
0.0
  0
LINE
  5
BA
330
1F
100
AcDbEntity
  8
0
  6
Continuous
 62
     7
370
    15
100
AcDbLine
 10
285.6907965209
 20
136.9552464079
 30
0.0
 11
287.1907965209
 21
136.9552464079
 31
0.0
  0
LINE
  5
BB
330
1F
100
AcDbEntity
  8
0
  6
Continuous
 62
     7
370
    15
100
AcDbLine
 10
285.6907965209
 20
169.1652464079
 30
0.0
 11
287.1907965209
 21
169.1652464079
 31
0.0
  0
CIRCLE
  5
BC
330
1F
100
AcDbEntity
  8
0
  6
Continuous
 62
     7
370
     0
100
AcDbCircle
 10
168.3593775185
 20
17.7745192513
 30
0.0
 40
1.5
  0
CIRCLE
  5
BD
330
1F
100
AcDbEntity
  8
0
  6
Continuous
 62
     7
370
     0
100
AcDbCircle
 10
168.3593775185
 20
17.7745192513
 30
0.0
 40
2.5
  0
ARC
  5
BE
330
1F
100
AcDbEntity
  8
0
370
     0
100
AcDbCircle
 10
188.3267159939
 20
35.4112781514
 30
0.0
 40
1.531992467805816
100
AcDbArc
 50
130.2910647925
 51
228.509361907
  0
ARC
  5
BF
330
1F
100
AcDbEntity
  8
0
370
     0
100
AcDbCircle
 10
191.6311135521
 20
35.2984972881
 30
0.0
 40
2.570544369711286
100
AcDbArc
 50
140.1430462781
 51
253.0452525074
  0
ARC
  5
C0
330
1F
100
AcDbEntity
  8
0
370
     0
100
AcDbCircle
 10
191.9625107604
 20
35.6871390373
 30
0.0
 40
3.045751395731247
100
AcDbArc
 50
249.2112209143
 51
308.9221353953
  0
ARC
  5
C1
330
1F
100
AcDbEntity
  8
0
 62
     1
370
     0
100
AcDbCircle
 10
195.7766562152
 20
35.4585337891
 30
0.0
 40
1.51855293741827
100
AcDbArc
 50
306.0377529468
 51
43.4396461534
  0
ARC
  5
C2
330
1F
100
AcDbEntity
  8
0
 62
     1
370
     0
100
AcDbCircle
 10
192.0956761993
 20
34.9329393986
 30
0.0
 40
3.18163670452787
100
AcDbArc
 50
45.5592925416
 51
125.8325555121
  0
ARC
  5
C3
330
1F
100
AcDbEntity
  8
0
 62
     1
370
     0
100
AcDbCircle
 10
192.4133324901
 20
35.4737612041
 30
0.0
 40
2.57756748834625
100
AcDbArc
 50
321.9435288427
 51
42.1815007004
  0
MTEXT
  5
C5
330
1F
100
AcDbEntity
  8
0
  6
Continuous
 62
     7
370
     0
100
AcDbMText
 10
165.5426850804
 20
13.2208440369
 30
0.0
 40
2.6458333333
 41
0.0
 71
     1
 72
     1
  1
UNIT:m/m
  7
SLDTEXTSTYLE0
 73
     1
 44
1.0
  0
INSERT
  5
CC
330
1F
100
AcDbEntity
  8
0
  6
Continuous
 62
     7
370
     0
100
AcDbBlockReference
  2
SW_NOTE_0
 10
12.2315076053
 20
193.8904304251
 30
0.0
  0
MTEXT
  5
CE
330
1F
100
AcDbEntity
  8
0
  6
Continuous
 62
     7
370
     0
100
AcDbMText
 10
198.7251893935
 20
40.4406774139
 30
0.0
 40
2.38125
 41
0.0
 71
     1
 72
     1
  1
Unice E-O Services Inc.
  7
SLDTEXTSTYLE1
 73
     1
 44
1.0
  0
MTEXT
  5
CF
330
1F
100
AcDbEntity
  8
0
  6
Continuous
 62
     7
370
     0
100
AcDbMText
 10
217.5590538149
 20
21.5867148511
 30
0.0
 40
1.8520833333
 41
0.0
 71
     1
 72
     1
  1
2010/12/30
  7
SLDTEXTSTYLE0
 73
     1
 44
1.0
  0
MTEXT
  5
D0
330
1F
100
AcDbEntity
  8
0
  6
Continuous
 62
     7
370
     0
100
AcDbMText
 10
252.6088982507
 20
16.87117774
 30
0.0
 40
2.5
 41
0.0
 71
     1
 72
     1
  1
1:1
  7
SLDTEXTSTYLE0
 73
     1
 44
1.0
  0
MTEXT
  5
D1
330
1F
100
AcDbEntity
  8
0
  6
Continuous
 62
     7
370
     0
100
AcDbMText
 10
252.3075599985
 20
32.1519195438
 30
0.0
 40
2.5
 41
0.0
 71
     1
 72
     1
  1
03MPH-3
  7
SLDTEXTSTYLE0
 73
     1
 44
1.0
  0
MTEXT
  5
D2
330
1F
100
AcDbEntity
  8
0
  6
Continuous
 62
     7
370
     0
100
AcDbMText
 10
252.3075599985
 20
38.1082117879
 30
0.0
 40
2.5
 41
0.0
 71
     1
 72
     1
  1
03MPH-3
  7
SLDTEXTSTYLE0
 73
     1
 44
1.0
  0
MTEXT
  5
D3
330
1F
100
AcDbEntity
  8
0
  6
Continuous
 62
     7
370
     0
100
AcDbMText
 10
236.3921866786
 20
16.5064795728
 30
0.0
 40
2.1166666667
 41
0.0
 71
     1
 72
     1
  1
SCALE:
  7
SLDTEXTSTYLE0
 73
     1
 44
1.0
  0
MTEXT
  5
D4
330
1F
100
AcDbEntity
  8
0
  6
Continuous
 62
     7
370
     0
100
AcDbMText
 10
186.3336086789
 20
21.5867148511
 30
0.0
 40
1.8520833333
 41
0.0
 71
     1
 72
     1
  1
DRAWN
  7
SLDTEXTSTYLE0
 73
     1
 44
1.0
  0
MTEXT
  5
D5
330
1F
100
AcDbEntity
  8
0
  6
Continuous
 62
     7
370
     0
100
AcDbMText
 10
203.2228367937
 20
26.683208308
 30
0.0
 40
1.8520833333
 41
0.0
 71
     1
 72
     1
  1
NAME
  7
SLDTEXTSTYLE0
 73
     1
 44
1.0
  0
MTEXT
  5
D6
330
1F
100
AcDbEntity
  8
0
  6
Continuous
 62
     7
370
     0
100
AcDbMText
 10
220.8710155758
 20
26.683208308
 30
0.0
 40
1.8520833333
 41
0.0
 71
     1
 72
     1
  1
DATE
  7
SLDTEXTSTYLE0
 73
     1
 44
1.0
  0
MTEXT
  5
D7
330
1F
100
AcDbEntity
  8
0
  6
Continuous
 62
     7
370
     0
100
AcDbMText
 10
236.2756316645
 20
31.7872213766
 30
0.0
 40
2.1166666667
 41
0.0
 71
     1
 72
     1
  1
DWG. NO.
  7
SLDTEXTSTYLE0
 73
     1
 44
1.0
  0
MTEXT
  5
D8
330
1F
100
AcDbEntity
  8
0
  6
Continuous
 62
     7
370
     0
100
AcDbMText
 10
236.3629907088
 20
41.8840658243
 30
0.0
 40
2.1166666667
 41
0.0
 71
     1
 72
     1
  1
TITLE:
  7
SLDTEXTSTYLE0
 73
     1
 44
1.0
  0
MTEXT
  5
D9
330
1F
100
AcDbEntity
  8
0
  6
Continuous
 62
     7
370
     0
100
AcDbMText
 10
203.0314209802
 20
16.2403789724
 30
0.0
 40
1.8520833333
 41
0.0
 71
     1
 72
     1
  1
Johnny
  7
SLDTEXTSTYLE0
 73
     1
 44
1.0
  0
MTEXT
  5
DA
330
1F
100
AcDbEntity
  8
0
  6
Continuous
 62
     7
370
     0
100
AcDbMText
 10
217.5590538149
 20
16.2403789724
 30
0.0
 40
1.8520833333
 41
0.0
 71
     1
 72
     1
  1
2010/12/30
  7
SLDTEXTSTYLE0
 73
     1
 44
1.0
  0
MTEXT
  5
DB
330
1F
100
AcDbEntity
  8
0
  6
Continuous
 62
     7
370
     0
100
AcDbMText
 10
186.3336086789
 20
16.2403789724
 30
0.0
 40
1.8520833333
 41
0.0
 71
     1
 72
     1
  1
ENG APPR.
  7
SLDTEXTSTYLE0
 73
     1
 44
1.0
  0
MTEXT
  5
DC
330
1F
100
AcDbEntity
  8
0
  6
Continuous
 62
     7
370
     0
100
AcDbMText
 10
236.3921866786
 20
11.6853389288
 30
0.0
 40
2.1166666667
 41
0.0
 71
     1
 72
     1
  1
REV
  7
SLDTEXTSTYLE0
 73
     1
 44
1.0
  0
MTEXT
  5
DD
330
1F
100
AcDbEntity
  8
0
  6
Continuous
 62
     7
370
     0
100
AcDbMText
 10
236.3629907088
 20
26.9493089085
 30
0.0
 40
2.1166666667
 41
0.0
 71
     1
 72
     1
  1
MATERIAL:
  7
SLDTEXTSTYLE0
 73
     1
 44
1.0
  0
MTEXT
  5
DE
330
1F
100
AcDbEntity
  8
0
  6
Continuous
 62
     7
370
     0
100
AcDbMText
 10
252.6088982507
 20
22.2175136187
 30
0.0
 40
2.5
 41
0.0
 71
     1
 72
     1
  1
N/A
  7
SLDTEXTSTYLE0
 73
     1
 44
1.0
  0
MTEXT
  5
DF
330
1F
100
AcDbEntity
  8
0
  6
Continuous
 62
     7
370
     0
100
AcDbMText
 10
26.6029931533
 20
204.453351657
 30
0.0
 40
2.1166666667
 41
0.0
 71
     1
 72
     1
  1
1
  7
SLDTEXTSTYLE0
 73
     1
 44
1.0
  0
MTEXT
  5
E0
330
1F
100
AcDbEntity
  8
0
  6
Continuous
 62
     7
370
     0
100
AcDbMText
 10
60.7170995724
 20
204.453351657
 30
0.0
 40
2.1166666667
 41
0.0
 71
     1
 72
     1
  1
2
  7
SLDTEXTSTYLE0
 73
     1
 44
1.0
  0
MTEXT
  5
E1
330
1F
100
AcDbEntity
  8
0
  6
Continuous
 62
     7
370
     0
100
AcDbMText
 10
94.9009943906
 20
204.453351657
 30
0.0
 40
2.1166666667
 41
0.0
 71
     1
 72
     1
  1
3
  7
SLDTEXTSTYLE0
 73
     1
 44
1.0
  0
MTEXT
  5
E2
330
1F
100
AcDbEntity
  8
0
  6
Continuous
 62
     7
370
     0
100
AcDbMText
 10
129.2533362851
 20
204.2992584364
 30
0.0
 40
2.1166666667
 41
0.0
 71
     1
 72
     1
  1
4
  7
SLDTEXTSTYLE0
 73
     1
 44
1.0
  0
MTEXT
  5
E3
330
1F
100
AcDbEntity
  8
0
  6
Continuous
 62
     7
370
     0
100
AcDbMText
 10
163.702323464
 20
204.453351657
 30
0.0
 40
2.1166666667
 41
0.0
 71
     1
 72
     1
  1
5
  7
SLDTEXTSTYLE0
 73
     1
 44
1.0
  0
MTEXT
  5
E4
330
1F
100
AcDbEntity
  8
0
  6
Continuous
 62
     7
370
     0
100
AcDbMText
 10
198.6382170415
 20
204.453351657
 30
0.0
 40
2.1166666667
 41
0.0
 71
     1
 72
     1
  1
6
  7
SLDTEXTSTYLE0
 73
     1
 44
1.0
  0
MTEXT
  5
E5
330
1F
100
AcDbEntity
  8
0
  6
Continuous
 62
     7
370
     0
100
AcDbMText
 10
234.3630657407
 20
204.453351657
 30
0.0
 40
2.1166666667
 41
0.0
 71
     1
 72
     1
  1
7
  7
SLDTEXTSTYLE0
 73
     1
 44
1.0
  0
MTEXT
  5
E6
330
1F
100
AcDbEntity
  8
0
  6
Continuous
 62
     7
370
     0
100
AcDbMText
 10
266.2787820494
 20
204.453351657
 30
0.0
 40
2.1166666667
 41
0.0
 71
     1
 72
     1
  1
8
  7
SLDTEXTSTYLE0
 73
     1
 44
1.0
  0
MTEXT
  5
E7
330
1F
100
AcDbEntity
  8
0
  6
Continuous
 62
     7
370
     0
100
AcDbMText
 10
5.3568236555
 20
185.8113022879
 30
0.0
 40
2.1166666667
 41
0.0
 71
     1
 72
     1
  1
A
  7
SLDTEXTSTYLE0
 73
     1
 44
1.0
  0
MTEXT
  5
E8
330
1F
100
AcDbEntity
  8
0
  6
Continuous
 62
     7
370
     0
100
AcDbMText
 10
5.5910431831
 20
154.2993048238
 30
0.0
 40
2.1166666667
 41
0.0
 71
     1
 72
     1
  1
B
  7
SLDTEXTSTYLE0
 73
     1
 44
1.0
  0
MTEXT
  5
E9
330
1F
100
AcDbEntity
  8
0
  6
Continuous
 62
     7
370
     0
100
AcDbMText
 10
5.5910431831
 20
121.274351423
 30
0.0
 40
2.1166666667
 41
0.0
 71
     1
 72
     1
  1
C
  7
SLDTEXTSTYLE0
 73
     1
 44
1.0
  0
MTEXT
  5
EA
330
1F
100
AcDbEntity
  8
0
  6
Continuous
 62
     7
370
     0
100
AcDbMText
 10
5.5910431831
 20
88.7453220221
 30
0.0
 40
2.1166666667
 41
0.0
 71
     1
 72
     1
  1
D
  7
SLDTEXTSTYLE0
 73
     1
 44
1.0
  0
MTEXT
  5
EB
330
1F
100
AcDbEntity
  8
0
  6
Continuous
 62
     7
370
     0
100
AcDbMText
 10
5.5910431831
 20
57.5558849197
 30
0.0
 40
2.1166666667
 41
0.0
 71
     1
 72
     1
  1
E
  7
SLDTEXTSTYLE0
 73
     1
 44
1.0
  0
MTEXT
  5
EC
330
1F
100
AcDbEntity
  8
0
  6
Continuous
 62
     7
370
     0
100
AcDbMText
 10
5.5910431831
 20
25.5694212252
 30
0.0
 40
2.1166666667
 41
0.0
 71
     1
 72
     1
  1
F
  7
SLDTEXTSTYLE0
 73
     1
 44
1.0
  0
MTEXT
  5
ED
330
1F
100
AcDbEntity
  8
0
  6
Continuous
 62
     7
370
     0
100
AcDbMText
 10
266.1858616964
 20
6.6236223963
 30
0.0
 40
2.1166666667
 41
0.0
 71
     1
 72
     1
  1
8
  7
SLDTEXTSTYLE0
 73
     1
 44
1.0
  0
MTEXT
  5
EE
330
1F
100
AcDbEntity
  8
0
  6
Continuous
 62
     7
370
     0
100
AcDbMText
 10
234.2701453876
 20
6.6236223963
 30
0.0
 40
2.1166666667
 41
0.0
 71
     1
 72
     1
  1
7
  7
SLDTEXTSTYLE0
 73
     1
 44
1.0
  0
MTEXT
  5
EF
330
1F
100
AcDbEntity
  8
0
  6
Continuous
 62
     7
370
     0
100
AcDbMText
 10
198.5452966885
 20
6.6236223963
 30
0.0
 40
2.1166666667
 41
0.0
 71
     1
 72
     1
  1
6
  7
SLDTEXTSTYLE0
 73
     1
 44
1.0
  0
MTEXT
  5
F0
330
1F
100
AcDbEntity
  8
0
  6
Continuous
 62
     7
370
     0
100
AcDbMText
 10
163.6094031109
 20
6.6236223963
 30
0.0
 40
2.1166666667
 41
0.0
 71
     1
 72
     1
  1
5
  7
SLDTEXTSTYLE0
 73
     1
 44
1.0
  0
MTEXT
  5
F1
330
1F
100
AcDbEntity
  8
0
  6
Continuous
 62
     7
370
     0
100
AcDbMText
 10
129.1604159321
 20
6.4695291758
 30
0.0
 40
2.1166666667
 41
0.0
 71
     1
 72
     1
  1
4
  7
SLDTEXTSTYLE0
 73
     1
 44
1.0
  0
MTEXT
  5
F2
330
1F
100
AcDbEntity
  8
0
  6
Continuous
 62
     7
370
     0
100
AcDbMText
 10
94.8080740376
 20
6.6236223963
 30
0.0
 40
2.1166666667
 41
0.0
 71
     1
 72
     1
  1
3
  7
SLDTEXTSTYLE0
 73
     1
 44
1.0
  0
MTEXT
  5
F3
330
1F
100
AcDbEntity
  8
0
  6
Continuous
 62
     7
370
     0
100
AcDbMText
 10
60.6241792194
 20
6.6236223963
 30
0.0
 40
2.1166666667
 41
0.0
 71
     1
 72
     1
  1
2
  7
SLDTEXTSTYLE0
 73
     1
 44
1.0
  0
MTEXT
  5
F4
330
1F
100
AcDbEntity
  8
0
  6
Continuous
 62
     7
370
     0
100
AcDbMText
 10
26.5100728003
 20
6.6236223963
 30
0.0
 40
2.1166666667
 41
0.0
 71
     1
 72
     1
  1
1
  7
SLDTEXTSTYLE0
 73
     1
 44
1.0
  0
MTEXT
  5
F5
330
1F
100
AcDbEntity
  8
0
  6
Continuous
 62
     7
370
     0
100
AcDbMText
 10
287.1023846145
 20
186.6424909092
 30
0.0
 40
2.1166666667
 41
0.0
 71
     1
 72
     1
  1
A
  7
SLDTEXTSTYLE0
 73
     1
 44
1.0
  0
MTEXT
  5
F6
330
1F
100
AcDbEntity
  8
0
  6
Continuous
 62
     7
370
     0
100
AcDbMText
 10
287.3366041421
 20
155.1304934451
 30
0.0
 40
2.1166666667
 41
0.0
 71
     1
 72
     1
  1
B
  7
SLDTEXTSTYLE0
 73
     1
 44
1.0
  0
MTEXT
  5
F7
330
1F
100
AcDbEntity
  8
0
  6
Continuous
 62
     7
370
     0
100
AcDbMText
 10
287.3366041421
 20
122.1055400442
 30
0.0
 40
2.1166666667
 41
0.0
 71
     1
 72
     1
  1
C
  7
SLDTEXTSTYLE0
 73
     1
 44
1.0
  0
MTEXT
  5
F8
330
1F
100
AcDbEntity
  8
0
  6
Continuous
 62
     7
370
     0
100
AcDbMText
 10
287.3366041421
 20
89.5765106433
 30
0.0
 40
2.1166666667
 41
0.0
 71
     1
 72
     1
  1
D
  7
SLDTEXTSTYLE0
 73
     1
 44
1.0
  0
MTEXT
  5
F9
330
1F
100
AcDbEntity
  8
0
  6
Continuous
 62
     7
370
     0
100
AcDbMText
 10
287.3366041421
 20
58.3870735409
 30
0.0
 40
2.1166666667
 41
0.0
 71
     1
 72
     1
  1
E
  7
SLDTEXTSTYLE0
 73
     1
 44
1.0
  0
MTEXT
  5
FA
330
1F
100
AcDbEntity
  8
0
  6
Continuous
 62
     7
370
     0
100
AcDbMText
 10
287.3366041421
 20
26.4006098464
 30
0.0
 40
2.1166666667
 41
0.0
 71
     1
 72
     1
  1
F
  7
SLDTEXTSTYLE0
 73
     1
 44
1.0
  0
MTEXT
  5
FB
330
1F
100
AcDbEntity
  8
0
  6
Continuous
 62
     7
370
     0
100
AcDbMText
 10
203.1553128802
 20
21.5867148511
 30
0.0
 40
1.8520833333
 41
0.0
 71
     1
 72
     1
  1
Jimmy
  7
SLDTEXTSTYLE0
 73
     1
 44
1.0
  0
MTEXT
  5
FC
330
1F
100
AcDbEntity
  8
0
  6
Continuous
 62
     7
370
     0
100
AcDbMText
 10
252.8482239645
 20
12.0500370959
 30
0.0
 40
2.5
 41
0.0
 71
     1
 72
     1
  1
0
  7
SLDTEXTSTYLE0
 73
     1
 44
1.0
  0
INSERT
  5
102
330
1F
100
AcDbEntity
  8
SLD-0
 62
     7
100
AcDbBlockReference
  2
SW_NOTE_1
 10
198.7251893935
 20
32.9997472586
 30
0.0
  0
SPLINE
  5
103
330
1F
100
AcDbEntity
  8
0
  6
Continuous
 62
     7
370
    30
100
AcDbSpline
210
0.0
220
0.0
230
1.0
 70
     8
 71
     3
 72
    12
 73
     8
 74
     0
 42
0.000000001
 43
0.00000001
 40
0.0
 40
0.0
 40
0.0
 40
0.0
 40
0.2723513297398258
 40
0.52348273440568
 40
0.7408217220336526
 40
0.9206654860058342
 40
1.0
 40
1.0
 40
1.0
 40
1.0
 10
107.9094661867644
 20
147.1023407534896
 30
0.0
 10
107.9832678773806
 20
147.0787749618399
 30
0.0
 10
108.1251210889822
 20
147.0334794787483
 30
0.0
 10
108.2879379056874
 20
146.8939969303266
 30
0.0
 10
108.3875884510354
 20
146.7410169927676
 30
0.0
 10
108.4429369971138
 20
146.6144715451859
 30
0.0
 10
108.4451719158551
 20
146.5411277259539
 30
0.0
 10
108.4458560248536
 20
146.5186771706877
 30
0.0
  0
LINE
  5
104
330
1F
100
AcDbEntity
  8
0
  6
Continuous
 62
     7
370
    30
100
AcDbLine
 10
120.2615156685
 20
91.2181564377
 30
0.0
 11
120.2615156685
 21
162.4181565599
 31
0.0
  0
LINE
  5
105
330
1F
100
AcDbEntity
  8
0
  6
Continuous
 62
     7
370
    30
100
AcDbLine
 10
95.2615152959
 20
162.4181565599
 30
0.0
 11
95.2615152959
 21
91.2181564377
 31
0.0
  0
LINE
  5
106
330
1F
100
AcDbEntity
  8
0
  6
Continuous
 62
     7
370
    30
100
AcDbLine
 10
95.2615152959
 20
91.2181564377
 30
0.0
 11
96.2615154599
 21
90.2181562738
 31
0.0
  0
LINE
  5
107
330
1F
100
AcDbEntity
  8
0
  6
Continuous
 62
     7
370
    30
100
AcDbLine
 10
119.2615155046
 20
90.2181562738
 30
0.0
 11
120.2615156685
 21
91.2181564377
 31
0.0
  0
LINE
  5
108
330
1F
100
AcDbEntity
  8
0
  6
Continuous
 62
     7
370
    30
100
AcDbLine
 10
120.2615156685
 20
162.4181565599
 30
0.0
 11
117.7620377307
 21
166.4181534902
 31
0.0
  0
LINE
  5
109
330
1F
100
AcDbEntity
  8
0
  6
Continuous
 62
     7
370
    30
100
AcDbLine
 10
97.7609932338
 20
166.4181534902
 30
0.0
 11
95.2615152959
 21
162.4181565599
 31
0.0
  0
LINE
  5
10A
330
1F
100
AcDbEntity
  8
0
  6
Continuous
 62
     7
370
    30
100
AcDbLine
 10
108.3652479605
 20
147.0390480713
 30
0.0
 11
107.8500243124
 21
147.1693922536
 31
0.0
  0
LINE
  5
10B
330
1F
100
AcDbEntity
  8
0
  6
Continuous
 62
     7
370
    30
100
AcDbLine
 10
107.2205835985
 20
146.9376903729
 30
0.0
 11
106.9219408123
 21
146.6305588142
 31
0.0
  0
LINE
  5
10C
330
1F
100
AcDbEntity
  8
0
  6
Continuous
 62
     7
370
    30
100
AcDbLine
 10
107.1577830039
 20
145.7972635285
 30
0.0
 11
107.9973576738
 21
145.5848623769
 31
0.0
  0
LINE
  5
10D
330
1F
100
AcDbEntity
  8
0
  6
Continuous
 62
     7
370
    30
100
AcDbLine
 10
108.6010901522
 20
146.2057527856
 30
0.0
 11
108.3652479605
 21
147.0390480713
 31
0.0
  0
ARC
  5
10E
330
1F
100
AcDbEntity
  8
0
  6
Continuous
 62
     7
370
    30
100
AcDbCircle
 10
107.7615154822
 20
146.4181560084
 30
0.0
 40
1.200000000000002
100
AcDbArc
 50
151.4030034501
 51
75.8027900686
  0
LINE
  5
10F
330
1F
100
AcDbEntity
  8
0
  6
Continuous
 62
     7
370
    30
100
AcDbLine
 10
107.9973576738
 20
145.5848623769
 30
0.0
 11
108.6010901522
 21
146.2057527856
 31
0.0
  0
LINE
  5
110
330
1F
100
AcDbEntity
  8
0
  6
Continuous
 62
     7
370
    30
100
AcDbLine
 10
106.9219408123
 20
146.6305588142
 30
0.0
 11
107.1577830039
 21
145.7972635285
 31
0.0
  0
LWPOLYLINE
  5
111
330
1F
100
AcDbEntity
  8
0
  6
Continuous
 62
     7
370
    30
100
AcDbPolyline
 90
        5
 70
   128
 43
0.0
 10
107.9201302668
 20
147.1516561465
 10
107.9187519967
 20
147.1452821748
 10
107.9118794909
 20
147.1135017232
 10
107.9094661868
 20
147.1023407535
 10
107.909473812
 20
147.1023780064
  0
SPLINE
  5
112
330
1F
100
AcDbEntity
  8
0
  6
Continuous
 62
     7
370
    30
100
AcDbSpline
210
0.0
220
0.0
230
1.0
 70
     8
 71
     3
 72
    28
 73
    24
 74
     0
 42
0.000000001
 43
0.00000001
 40
0.0
 40
0.0
 40
0.0
 40
0.0
 40
0.0349952923775476
 40
0.0702271727210357
 40
0.1062060583147864
 40
0.142445240445892
 40
0.212668861905028
 40
0.2487438745806995
 40
0.2851092680567381
 40
0.3533087375925547
 40
0.3883862281042848
 40
0.4237516649180617
 40
0.4889963736503468
 40
0.5559589361455217
 40
0.607812180409124
 40
0.6602716098130021
 40
0.6956143504015724
 40
0.7473754868015611
 40
0.7995232590496874
 40
0.8527815695807395
 40
0.9063978855717809
 40
0.9530819096602314
 40
1.0
 40
1.0
 40
1.0
 40
1.0
 10
101.2681142341976
 20
158.1712548391162
 30
0.0
 10
101.2685600375965
 20
158.1708216099538
 30
0.0
 10
101.2694546582774
 20
158.1699522227549
 30
0.0
 10
101.2767233077909
 20
158.1628493288755
 30
0.0
 10
101.2883969582563
 20
158.151229575354
 30
0.0
 10
101.3099517599364
 20
158.1291925889937
 30
0.0
 10
101.3397932076772
 20
158.0972250389037
 30
0.0
 10
101.376157528254
 20
158.0548737687658
 30
0.0
 10
101.4155811110101
 20
158.0060269657818
 30
0.0
 10
101.4587024352294
 20
157.9470808875631
 30
0.0
 10
101.5024976144746
 20
157.8788819371535
 30
0.0
 10
101.545065895286
 20
157.8059502403366
 30
0.0
 10
101.5954021437393
 20
157.7056175528503
 30
0.0
 10
101.6431038040428
 20
157.5836889318049
 30
0.0
 10
101.6785206855639
 20
157.4633704138287
 30
0.0
 10
101.7000901553784
 20
157.3617517773056
 30
0.0
 10
101.7150177550439
 20
157.2584024154677
 30
0.0
 10
101.7231980861411
 20
157.1540278692189
 30
0.0
 10
101.7231879502606
 20
157.0356570667312
 30
0.0
 10
101.7137186727591
 20
156.9161688337874
 30
0.0
 10
101.6951662163128
 20
156.8019364670797
 30
0.0
 10
101.6696980940602
 20
156.6939113336086
 30
0.0
 10
101.6474630562763
 20
156.6269997435661
 30
0.0
 10
101.636317736346
 20
156.5934602872668
 30
0.0
  0
ARC
  5
113
330
1F
100
AcDbEntity
  8
0
  6
Continuous
 62
     7
370
    30
100
AcDbCircle
 10
107.7615154822
 20
154.4181560084
 30
0.0
 40
7.500000000000009
100
AcDbArc
 50
140.9233041416
 51
149.9726764552
  0
ARC
  5
114
330
1F
100
AcDbEntity
  8
0
  6
Continuous
 62
     7
370
    30
100
AcDbCircle
 10
107.7615154822
 20
154.4181560084
 30
0.0
 40
6.500000000000011
100
AcDbArc
 50
130.4479351054
 51
160.4479902984
  0
SPLINE
  5
115
330
1F
100
AcDbEntity
  8
0
  6
Continuous
 62
     7
370
    30
100
AcDbSpline
210
0.0
220
0.0
230
1.0
 70
     8
 71
     3
 72
    31
 73
    27
 74
     0
 42
0.000000001
 43
0.00000001
 40
0.0
 40
0.0
 40
0.0
 40
0.0
 40
0.0595723131578617
 40
0.119632006140008
 40
0.1745922876469163
 40
0.2299505963191928
 40
0.2866387001714444
 40
0.3438599031146927
 40
0.3814474691761122
 40
0.4192460199667666
 40
0.4577740707955193
 40
0.4965938136734565
 40
0.5341957940862082
 40
0.5721236599319995
 40
0.6111274875519692
 40
0.6505257796359033
 40
0.683573834209854
 40
0.7168588130072564
 40
0.7508720724737147
 40
0.7851295599333503
 40
0.8182027729019563
 40
0.8514885770384636
 40
0.8854283643759512
 40
0.9195895725453954
 40
0.9596172038672671
 40
1.0
 40
1.0
 40
1.0
 40
1.0
 10
103.5446009513621
 20
159.364632959777
 30
0.0
 10
103.5096922400293
 20
159.3364020316322
 30
0.0
 10
103.4395892182206
 20
159.2797092092433
 30
0.0
 10
103.3283610765903
 20
159.2090638331687
 30
0.0
 10
103.2147835232533
 20
159.1491328689834
 30
0.0
 10
103.0988686428255
 20
159.1000056508969
 30
0.0
 10
102.9777930272875
 20
159.0602964071363
 30
0.0
 10
102.8671802700652
 20
159.0342614732412
 30
0.0
 10
102.7698396806278
 20
159.0185123733693
 30
0.0
 10
102.6864205724573
 20
159.0097455139425
 30
0.0
 10
102.6030161229949
 20
159.0056801748752
 30
0.0
 10
102.521512048027
 20
159.0062381571108
 30
0.0
 10
102.44306073174
 20
159.01096869765
 30
0.0
 10
102.3679688731397
 20
159.0193683744085
 30
0.0
 10
102.2961932552628
 20
159.0310155457469
 30
0.0
 10
102.2326157960851
 20
159.044470996412
 30
0.0
 10
102.1774434388876
 20
159.0584864758487
 30
0.0
 10
102.1298571388061
 20
159.0723330558179
 30
0.0
 10
102.086852362152
 20
159.0863381153197
 30
0.0
 10
102.0493208850172
 20
159.0997624420129
 30
0.0
 10
102.0174304953715
 20
159.1120695423965
 30
0.0
 10
101.9909673243656
 20
159.1229087431797
 30
0.0
 10
101.9696491779475
 20
159.1320853766008
 30
0.0
 10
101.9529330899734
 20
159.1395478651893
 30
0.0
 10
101.9414824510325
 20
159.1448095247585
 30
0.0
 10
101.93999228293
 20
159.1455073717588
 30
0.0
 10
101.939243907917
 20
159.1458578364192
 30
0.0
  0
SPLINE
  5
116
330
1F
100
AcDbEntity
  8
0
  6
Continuous
 62
     7
370
    30
100
AcDbSpline
210
0.0
220
0.0
230
1.0
 70
     8
 71
     3
 72
    14
 73
    10
 74
     0
 42
0.000000001
 43
0.00000001
 40
0.0
 40
0.0
 40
0.0
 40
0.0
 40
0.1423406819486655
 40
0.2849092677459976
 40
0.4234374375090979
 40
0.5557037368636186
 40
0.6954757406244189
 40
0.9061173796157869
 40
1.0
 40
1.0
 40
1.0
 40
1.0
 10
101.2645374898498
 20
150.6712545410929
 30
0.0
 10
101.2744270015272
 20
150.6742474917241
 30
0.0
 10
101.2942218591307
 20
150.6802381850455
 30
0.0
 10
101.4525631350479
 20
150.716464337695
 30
0.0
 10
101.6886011246977
 20
150.7357138076921
 30
0.0
 10
101.9762184937738
 20
150.707514352449
 30
0.0
 10
102.3208382654745
 20
150.6001311524069
 30
0.0
 10
102.6114483044866
 20
150.4204403098509
 30
0.0
 10
102.7670696779015
 20
150.2528865482447
 30
0.0
 10
102.8150466185694
 20
150.2012309388457
 30
0.0
  0
ARC
  5
117
330
1F
100
AcDbEntity
  8
0
  6
Continuous
 62
     7
370
    30
100
AcDbCircle
 10
107.7615154822
 20
154.4181560084
 30
0.0
 40
7.50000000000002
100
AcDbArc
 50
200.9233041416
 51
209.9726764552
  0
ARC
  5
118
330
1F
100
AcDbEntity
  8
0
  6
Continuous
 62
     7
370
    30
100
AcDbCircle
 10
107.7615154822
 20
154.4181560084
 30
0.0
 40
6.499999999999987
100
AcDbArc
 50
190.4479902984
 51
220.4479902984
  0
SPLINE
  5
119
330
1F
100
AcDbEntity
  8
0
  6
Continuous
 62
     7
370
    30
100
AcDbSpline
210
0.0
220
0.0
230
1.0
 70
     8
 71
     3
 72
    20
 73
    16
 74
     0
 42
0.000000001
 43
0.00000001
 40
0.0
 40
0.0
 40
0.0
 40
0.0
 40
0.0596228168132118
 40
0.1197310389703069
 40
0.2300448526567935
 40
0.3439167184589241
 40
0.419314183201102
 40
0.4966554246486202
 40
0.5721675768740805
 40
0.6505388250542266
 40
0.7168704557838912
 40
0.7851396499534277
 40
0.8515034988527822
 40
0.919608422095376
 40
1.0
 40
1.0
 40
1.0
 40
1.0
 10
101.3692861337845
 20
153.2394286946593
 30
0.0
 10
101.3762758946033
 20
153.1950796328559
 30
0.0
 10
101.3903123217584
 20
153.1060204516415
 30
0.0
 10
101.3977179955696
 20
152.9327588817099
 30
0.0
 10
101.3807361921152
 20
152.7185731890314
 30
0.0
 10
101.3245627337997
 20
152.4992939309704
 30
0.0
 10
101.2490169313939
 20
152.3164264739239
 30
0.0
 10
101.1695260385385
 20
152.1723810618923
 30
0.0
 10
101.0795221854926
 20
152.0441841527796
 30
0.0
 10
100.9919618357168
 20
151.9428469415506
 30
0.0
 10
100.9133631492233
 20
151.8654919542977
 30
0.0
 10
100.8493519258292
 20
151.810097186307
 30
0.0
 10
100.7996837708378
 20
151.7711925034371
 30
0.0
 10
100.7636693881184
 20
151.7450392994654
 30
0.0
 10
100.7587395965357
 20
151.7416220848952
 30
0.0
 10
100.7560707543676
 20
151.7397721068202
 30
0.0
  0
SPLINE
  5
11A
330
1F
100
AcDbEntity
  8
0
  6
Continuous
 62
     7
370
    30
100
AcDbSpline
210
0.0
220
0.0
230
1.0
 70
     8
 71
     3
 72
    14
 73
    10
 74
     0
 42
0.000000001
 43
0.00000001
 40
0.0
 40
0.0
 40
0.0
 40
0.0
 40
0.1423405951285722
 40
0.2849094784592627
 40
0.4234374863260824
 40
0.5557034828807703
 40
0.6954757193290614
 40
0.9061172238034486
 40
1.0
 40
1.0
 40
1.0
 40
1.0
 10
104.0084184528028
 20
147.9247544662295
 30
0.0
 10
104.0154861912307
 20
147.9322909219895
 30
0.0
 10
104.0296330034423
 20
147.947375920602
 30
0.0
 10
104.1486494053503
 20
148.0579207486537
 30
0.0
 10
104.3434383697426
 20
148.192610214127
 30
0.0
 10
104.6066213133433
 20
148.3119992686461
 30
0.0
 10
104.9587626785178
 20
148.391310816472
 30
0.0
 10
105.3002841296914
 20
148.3810016849355
 30
0.0
 10
105.5188328770993
 20
148.313705418002
 30
0.0
 10
105.5862099778538
 20
148.2929584340392
 30
0.0
  0
ARC
  5
11B
330
1F
100
AcDbEntity
  8
0
  6
Continuous
 62
     7
370
    30
100
AcDbCircle
 10
107.7615154822
 20
154.4181560084
 30
0.0
 40
7.5
100
AcDbArc
 50
230.9233041416
 51
239.9726764552
  0
ARC
  5
11C
330
1F
100
AcDbEntity
  8
0
  6
Continuous
 62
     7
370
    30
100
AcDbCircle
 10
107.7615154822
 20
154.4181560084
 30
0.0
 40
6.500000000000051
100
AcDbArc
 50
220.4479902984
 51
250.4479902984
  0
SPLINE
  5
11D
330
1F
100
AcDbEntity
  8
0
  6
Continuous
 62
     7
370
    30
100
AcDbSpline
210
0.0
220
0.0
230
1.0
 70
     8
 71
     3
 72
    14
 73
    10
 74
     0
 42
0.000000001
 43
0.00000001
 40
0.0
 40
0.0
 40
0.0
 40
0.0
 40
0.1199885721212297
 40
0.3439708385059284
 40
0.4966895209757851
 40
0.6503380809532001
 40
0.7848871162579268
 40
0.9193522869076578
 40
1.0
 40
1.0
 40
1.0
 40
1.0
 10
102.8150466185694
 20
150.2012309388457
 30
0.0
 10
102.8697691609182
 20
150.1295826191503
 30
0.0
 10
103.0266420900992
 20
149.924188620643
 30
0.0
 10
103.1558311288386
 20
149.562832933405
 30
0.0
 10
103.1845936484477
 20
149.1704765893963
 30
0.0
 10
103.1399613994537
 20
148.8823730474108
 30
0.0
 10
103.077329962893
 20
148.6927953294862
 30
0.0
 10
103.0390811389459
 20
148.6071281138163
 30
0.0
 10
103.0352507889341
 20
148.598950135853
 30
0.0
 10
103.0338147570078
 20
148.5958841399489
 30
0.0
  0
ARC
  5
11E
330
1F
100
AcDbEntity
  8
0
  6
Continuous
 62
     7
370
    30
100
AcDbCircle
 10
107.7615154822
 20
154.4181560084
 30
0.0
 40
7.499999999999996
100
AcDbArc
 50
170.9233041416
 51
179.9726764552
  0
ARC
  5
11F
330
1F
100
AcDbEntity
  8
0
  6
Continuous
 62
     7
370
    30
100
AcDbCircle
 10
107.7615154822
 20
154.4181560084
 30
0.0
 40
6.500000000000011
100
AcDbArc
 50
160.4479902984
 51
190.4479902984
  0
SPLINE
  5
120
330
1F
100
AcDbEntity
  8
0
  6
Continuous
 62
     7
370
    30
100
AcDbSpline
210
0.0
220
0.0
230
1.0
 70
     8
 71
     3
 72
    28
 73
    24
 74
     0
 42
0.000000001
 43
0.00000001
 40
0.0
 40
0.0
 40
0.0
 40
0.0
 40
0.059587480405074
 40
0.1196622073219687
 40
0.1746386898086514
 40
0.2300126374450311
 40
0.2867180251928596
 40
0.3439568344763139
 40
0.3815556963986997
 40
0.4193655078939686
 40
0.4579046965781615
 40
0.4967358184886723
 40
0.5343492874507939
 40
0.5722881474545838
 40
0.6113040117430297
 40
0.6507137417844686
 40
0.7508515411734799
 40
0.7851192955946039
 40
0.8182022758816971
 40
0.8853941459052984
 40
0.9195655404082961
 40
0.9596051740562019
 40
1.0
 40
1.0
 40
1.0
 40
1.0
 10
101.636317736346
 20
156.5934602872668
 30
0.0
 10
101.6202019647162
 20
156.5515590978064
 30
0.0
 10
101.5878386428772
 20
156.4674140930813
 30
0.0
 10
101.5268349139892
 20
156.3506243177538
 30
0.0
 10
101.4584431522775
 20
156.24193493447
 30
0.0
 10
101.3826193653385
 20
156.1414343489752
 30
0.0
 10
101.2976195398395
 20
156.0465073035073
 30
0.0
 10
101.2148432775116
 20
155.9686534433899
 30
0.0
 10
101.1384210754193
 20
155.9063399404478
 30
0.0
 10
101.0705587552544
 20
155.8570420818314
 30
0.0
 10
101.0003622593952
 20
155.8118183125409
 30
0.0
 10
100.9294986265091
 20
155.771550482485
 30
0.0
 10
100.8591913424535
 20
155.7364226830934
 30
0.0
 10
100.7899634280362
 20
155.7061488417346
 30
0.0
 10
100.7219721042228
 20
155.6803475580651
 30
0.0
 10
100.623049076031
 20
155.6481023608597
 30
0.0
 10
100.5385385969246
 20
155.6282240014615
 30
0.0
 10
100.4738119052658
 20
155.6164523401804
 30
0.0
 10
100.4286716986655
 20
155.6093801070581
 30
0.0
 10
100.3942422697635
 20
155.6051912064613
 30
0.0
 10
100.3704403651954
 20
155.6027089461546
 30
0.0
 10
100.3578908740509
 20
155.6015419152747
 30
0.0
 10
100.356252847994
 20
155.6014007123449
 30
0.0
 10
100.3554302182679
 20
155.6013297991095
 30
0.0
  0
SPLINE
  5
121
330
1F
100
AcDbEntity
  8
0
  6
Continuous
 62
     7
370
    30
100
AcDbSpline
210
0.0
220
0.0
230
1.0
 70
     8
 71
     3
 72
    33
 73
    29
 74
     0
 42
0.000000001
 43
0.00000001
 40
0.0
 40
0.0
 40
0.0
 40
0.0
 40
0.0349862429107419
 40
0.0702091405107455
 40
0.1061786355847107
 40
0.1424082640514326
 40
0.1774173742782515
 40
0.2126768152956283
 40
0.2487426174491189
 40
0.2850987838854889
 40
0.3190935293832757
 40
0.3533450810548378
 40
0.388413079713863
 40
0.4237686832496745
 40
0.4563011716210512
 40
0.4890512299644013
 40
0.5224460228937918
 40
0.5560467723522408
 40
0.5905218244787069
 40
0.6251821602224347
 40
0.6603599141550683
 40
0.6956946957698898
 40
0.7474409948320219
 40
0.7995764822690158
 40
0.8528206070002744
 40
0.906423446041893
 40
0.9530962555420126
 40
1.0
 40
1.0
 40
1.0
 40
1.0
 10
100.261516115505
 20
154.4217315272628
 30
0.0
 10
100.262118501168
 20
154.4215817193062
 30
0.0
 10
100.2633273471639
 20
154.4212810900589
 30
0.0
 10
100.2731761714421
 20
154.4187536960719
 30
0.0
 10
100.2890905525821
 20
154.4145338081109
 30
0.0
 10
100.3114535050187
 20
154.4082803819867
 30
0.0
 10
100.3396611647993
 20
154.3998478508318
 30
0.0
 10
100.3735092977149
 20
154.3889308736453
 30
0.0
 10
100.4132712991122
 20
154.3749674416712
 30
0.0
 10
100.4576166714218
 20
154.3578578428437
 30
0.0
 10
100.5054838604828
 20
154.3375322884039
 30
0.0
 10
100.5562806193427
 20
154.313790116187
 30
0.0
 10
100.6106844735629
 20
154.2857246480722
 30
0.0
 10
100.6663491474856
 20
154.2539331020354
 30
0.0
 10
100.722007341484
 20
154.2188472696533
 30
0.0
 10
100.7770771788902
 20
154.1806803011433
 30
0.0
 10
100.8325734467785
 20
154.1383364188135
 30
0.0
 10
100.8882028693387
 20
154.091554786986
 30
0.0
 10
100.9430716125509
 20
154.040588340373
 30
0.0
 10
100.9967516591136
 20
153.9853962828317
 30
0.0
 10
101.0483615565236
 20
153.9265232939529
 30
0.0
 10
101.104971516835
 20
153.8546305930024
 30
0.0
 10
101.1642438665585
 20
153.7683329340373
 30
0.0
 10
101.2234196375047
 20
153.6658148742234
 30
0.0
 10
101.2749640549225
 20
153.5576002487663
 30
0.0
 10
101.3160127664293
 20
153.4493949977935
 30
0.0
 10
101.3479691821433
 20
153.3431092781428
 30
0.0
 10
101.3621688022891
 20
153.2740457025088
 30
0.0
 10
101.3692861337845
 20
153.2394286946593
 30
0.0
  0
ARC
  5
122
330
1F
100
AcDbEntity
  8
0
  6
Continuous
 62
     7
370
    30
100
AcDbCircle
 10
107.7615154822
 20
154.4181560084
 30
0.0
 40
6.499999999999978
100
AcDbArc
 50
250.4479902984
 51
280.4479902984
  0
SPLINE
  5
123
330
1F
100
AcDbEntity
  8
0
  6
Continuous
 62
     7
370
    30
100
AcDbSpline
210
0.0
220
0.0
230
1.0
 70
     8
 71
     3
 72
    14
 73
    10
 74
     0
 42
0.000000001
 43
0.00000001
 40
0.0
 40
0.0
 40
0.0
 40
0.0
 40
0.1016668175362268
 40
0.2451501091827776
 40
0.385718046302832
 40
0.5189939788535868
 40
0.6545243808945801
 40
0.855193529027958
 40
1.0
 40
1.0
 40
1.0
 40
1.0
 10
107.7579388385843
 20
146.9181586758433
 30
0.0
 10
107.7592127390986
 20
146.9233446304976
 30
0.0
 10
107.762284506837
 20
146.9358495694787
 30
0.0
 10
107.7949253940727
 20
147.0525759236526
 30
0.0
 10
107.8791459150009
 20
147.2534891098478
 30
0.0
 10
108.0285740388075
 20
147.4874983801713
 30
0.0
 10
108.2699364852591
 20
147.7375470629402
 30
0.0
 10
108.5823104618747
 20
147.9359858804996
 30
0.0
 10
108.8345273775777
 20
147.9993618116252
 30
0.0
 10
108.940244364429
 20
148.0259259001551
 30
0.0
  0
ARC
  5
124
330
1F
100
AcDbEntity
  8
0
  6
Continuous
 62
     7
370
    30
100
AcDbCircle
 10
107.7615154822
 20
154.4181560084
 30
0.0
 40
7.500000000000012
100
AcDbArc
 50
260.9233041416
 51
269.9726764552
  0
SPLINE
  5
125
330
1F
100
AcDbEntity
  8
0
  6
Continuous
 62
     7
370
    30
100
AcDbSpline
210
0.0
220
0.0
230
1.0
 70
     8
 71
     3
 72
    14
 73
    10
 74
     0
 42
0.000000001
 43
0.00000001
 40
0.0
 40
0.0
 40
0.0
 40
0.0
 40
0.1199894995330598
 40
0.3439716554499438
 40
0.49668884850545
 40
0.6503383677046763
 40
0.7848870621408582
 40
0.9193523183945568
 40
1.0
 40
1.0
 40
1.0
 40
1.0
 10
105.5862099778538
 20
148.2929584340392
 30
0.0
 10
105.6694255647707
 20
148.2582693860919
 30
0.0
 10
105.9079781323074
 20
148.1588269407543
 30
0.0
 10
106.2005371758553
 20
147.9104795102965
 30
0.0
 10
106.4216252348514
 20
147.5850720703718
 30
0.0
 10
106.527023346605
 20
147.3132491333771
 30
0.0
 10
106.5675734590354
 20
147.1177561686749
 30
0.0
 10
106.5772813076247
 20
147.0244399943441
 30
0.0
 10
106.5780529259327
 20
147.015442686644
 30
0.0
 10
106.5783422122409
 20
147.0120695189772
 30
0.0
  0
ARC
  5
126
330
1F
100
AcDbEntity
  8
0
  6
Continuous
 62
     7
370
    30
100
AcDbCircle
 10
107.7615154822
 20
154.4181560084
 30
0.0
 40
7.500000000000013
100
AcDbArc
 50
110.9233041416
 51
119.9726764552
  0
ARC
  5
127
330
1F
100
AcDbEntity
  8
0
  6
Continuous
 62
     7
370
    30
100
AcDbCircle
 10
107.7615154822
 20
154.4181560084
 30
0.0
 40
6.499999999999982
100
AcDbArc
 50
100.4479460548
 51
130.4479351054
  0
SPLINE
  5
128
330
1F
100
AcDbEntity
  8
0
  6
Continuous
 62
     7
370
    30
100
AcDbSpline
210
0.0
220
0.0
230
1.0
 70
     8
 71
     3
 72
    15
 73
    11
 74
     0
 42
0.000000001
 43
0.00000001
 40
0.0
 40
0.0
 40
0.0
 40
0.0
 40
0.0601646207632965
 40
0.2838353324062764
 40
0.4497784269842043
 40
0.5879910430669152
 40
0.7265202055926588
 40
0.8589550577613482
 40
0.9974644752072355
 40
1.0
 40
1.0
 40
1.0
 40
1.0
 10
106.5827964952846
 20
160.8103883222876
 30
0.0
 10
106.5382014939788
 20
160.8034508693356
 30
0.0
 10
106.3278181015682
 20
160.7707224279407
 30
0.0
 10
105.9830843423474
 20
160.7997624988356
 30
0.0
 10
105.6122693635762
 20
160.9439721239042
 30
0.0
 10
105.3565501787452
 20
161.1180280753505
 30
0.0
 10
105.1930473362591
 20
161.2794389825291
 30
0.0
 10
105.1028087056508
 20
161.3946126131966
 30
0.0
 10
105.0832503178439
 20
161.4234090801395
 30
0.0
 10
105.0831330515289
 20
161.4235975202035
 30
0.0
 10
105.0831309434657
 20
161.4236009077368
 30
0.0
  0
SPLINE
  5
129
330
1F
100
AcDbEntity
  8
0
  6
Continuous
 62
     7
370
    30
100
AcDbSpline
210
0.0
220
0.0
230
1.0
 70
     8
 71
     3
 72
    14
 73
    10
 74
     0
 42
0.000000001
 43
0.00000001
 40
0.0
 40
0.0
 40
0.0
 40
0.0
 40
0.142341498776773
 40
0.2849104455230338
 40
0.4234397580002572
 40
0.5557060026931661
 40
0.6954790018546265
 40
0.9061229776330724
 40
1.0
 40
1.0
 40
1.0
 40
1.0
 10
104.0146133777385
 20
160.9151323096095
 30
0.0
 10
104.0176070473695
 20
160.9052428424965
 30
0.0
 10
104.0235991702265
 20
160.8854481058571
 30
0.0
 10
104.059821496773
 20
160.7271091869709
 30
0.0
 10
104.0790732996394
 20
160.4910705371441
 30
0.0
 10
104.0508762702182
 20
160.2034537884567
 30
0.0
 10
103.9434892038304
 20
159.8588346892159
 30
0.0
 10
103.7638044031062
 20
159.568225503991
 30
0.0
 10
103.5962532344629
 20
159.4126067469016
 30
0.0
 10
103.5446009513621
 20
159.3646329597769
 30
0.0
  0
ARC
  5
12A
330
1F
100
AcDbEntity
  8
0
  6
Continuous
 62
     7
370
    30
100
AcDbCircle
 10
107.7615154822
 20
154.4181560084
 30
0.0
 40
7.500000000000053
100
AcDbArc
 50
80.9233041416
 51
89.9726764552
  0
ARC
  5
12B
330
1F
100
AcDbEntity
  8
0
  6
Continuous
 62
     7
370
    30
100
AcDbCircle
 10
107.7615154822
 20
154.4181560084
 30
0.0
 40
6.499999999999982
100
AcDbArc
 50
70.4479902984
 51
100.4479460548
  0
SPLINE
  5
12C
330
1F
100
AcDbEntity
  8
0
  6
Continuous
 62
     7
370
    30
100
AcDbSpline
210
0.0
220
0.0
230
1.0
 70
     8
 71
     3
 72
    15
 73
    11
 74
     0
 42
0.000000001
 43
0.00000001
 40
0.0
 40
0.0
 40
0.0
 40
0.0
 40
0.0601605009772032
 40
0.2838318845718937
 40
0.4497761978052511
 40
0.5879893367084762
 40
0.7265186620387928
 40
0.8589544242100488
 40
0.9974644685611493
 40
1.0
 40
1.0
 40
1.0
 40
1.0
 10
109.9368209865575
 20
160.5433520631133
 30
0.0
 10
109.8947352020666
 20
160.5596410938056
 30
0.0
 10
109.6961782197994
 20
160.636491289601
 30
0.0
 10
109.4121513390888
 20
160.8340034672202
 30
0.0
 10
109.1631233887546
 20
161.144303075254
 30
0.0
 10
109.0286890326609
 20
161.4228965487789
 30
0.0
 10
108.9678001035329
 20
161.6444405652678
 30
0.0
 10
108.9472317488787
 20
161.7892775659898
 30
0.0
 10
108.9447095083231
 20
161.8240681208242
 30
0.0
 10
108.944689118708
 20
161.824237925648
 30
0.0
 10
108.9446887521704
 20
161.8242409781752
 30
0.0
  0
SPLINE
  5
12D
330
1F
100
AcDbEntity
  8
0
  6
Continuous
 62
     7
370
    30
100
AcDbSpline
210
0.0
220
0.0
230
1.0
 70
     8
 71
     3
 72
    14
 73
    10
 74
     0
 42
0.000000001
 43
0.00000001
 40
0.0
 40
0.0
 40
0.0
 40
0.0
 40
0.1016672512686742
 40
0.245151780562798
 40
0.385719286701348
 40
0.5189970019568447
 40
0.6545279821995995
 40
0.8551971217863746
 40
1.0
 40
1.0
 40
1.0
 40
1.0
 10
107.7650921258269
 20
161.9181555465995
 30
0.0
 10
107.7638181886504
 20
161.9129698462369
 30
0.0
 10
107.7607463246704
 20
161.9004654885261
 30
0.0
 10
107.7281062678711
 20
161.7837329950248
 30
0.0
 10
107.6438836972076
 20
161.5828256486077
 30
0.0
 10
107.4944579199395
 20
161.3488120277851
 30
0.0
 10
107.2530951993382
 20
161.0987634374171
 30
0.0
 10
106.9407220469044
 20
160.9003312167732
 30
0.0
 10
106.6885099439684
 20
160.8369529906039
 30
0.0
 10
106.5827964952846
 20
160.8103883222877
 30
0.0
  0
SPLINE
  5
12E
330
1F
100
AcDbEntity
  8
0
  6
Continuous
 62
     7
370
    30
100
AcDbSpline
210
0.0
220
0.0
230
1.0
 70
     8
 71
     3
 72
    33
 73
    29
 74
     0
 42
0.000000001
 43
0.00000001
 40
0.0
 40
0.0
 40
0.0
 40
0.0
 40
0.0503789438585351
 40
0.1014725194795057
 40
0.1367201161852069
 40
0.1722177796249807
 40
0.2085145129175586
 40
0.2450966567444157
 40
0.2795960146433282
 40
0.3143539928920217
 40
0.3499514415055823
 40
0.3858484099356025
 40
0.4186078868839381
 40
0.4515987313259872
 40
0.4852882673282883
 40
0.5192090830929199
 40
0.5526232517130587
 40
0.5862283771528949
 40
0.6203698370841152
 40
0.6546744929889168
 40
0.7039795649233964
 40
0.7536629422092926
 40
0.8043956929913925
 40
0.8554568077666274
 40
0.8913232316194433
 40
0.9272962985738891
 40
0.9635946739038982
 40
1.0
 40
1.0
 40
1.0
 40
1.0
 10
114.2549167302136
 20
150.6650593833266
 30
0.0
 10
114.2539921042098
 20
150.6659537426553
 30
0.0
 10
114.2521297362639
 20
150.6677551479144
 30
0.0
 10
114.2386393163369
 20
150.6810310477987
 30
0.0
 10
114.2210182172793
 20
150.6989657177598
 30
0.0
 10
114.2012791720662
 20
150.7197454242635
 30
0.0
 10
114.1774391199474
 20
150.7459361512489
 30
0.0
 10
114.1503890323883
 20
150.7772477537349
 30
0.0
 10
114.1210178652044
 20
150.8133594719924
 30
0.0
 10
114.089889920231
 20
150.8542422160211
 30
0.0
 10
114.0569588284476
 20
150.9009135279871
 30
0.0
 10
114.0240226496925
 20
150.9518060117045
 30
0.0
 10
113.9920760474557
 20
151.0059635747507
 30
0.0
 10
113.9616116424439
 20
151.0629240074947
 30
0.0
 10
113.9322184460718
 20
151.1242568436001
 30
0.0
 10
113.9047421518216
 20
151.189187486725
 30
0.0
 10
113.8798169658613
 20
151.2569030786685
 30
0.0
 10
113.857764870063
 20
151.3271318270147
 30
0.0
 10
113.8388200118422
 20
151.3999225738289
 30
0.0
 10
113.8210910062452
 20
151.4856609730077
 30
0.0
 10
113.8069997108954
 20
151.5845280810174
 30
0.0
 10
113.7994374946571
 20
151.6968822554109
 30
0.0
 10
113.8003874417412
 20
151.8110028175903
 30
0.0
 10
113.8092080198403
 20
151.9144007162515
 30
0.0
 10
113.8230750260412
 20
152.0059625284368
 30
0.0
 10
113.8396965461091
 20
152.0857246512896
 30
0.0
 10
113.8604338472194
 20
152.1649681168074
 30
0.0
 10
113.8779448479319
 20
152.216864065018
 30
0.0
 10
113.8867132280652
 20
152.2428502098857
 30
0.0
  0
ARC
  5
12F
330
1F
100
AcDbEntity
  8
0
  6
Continuous
 62
     7
370
    30
100
AcDbCircle
 10
107.7615154822
 20
154.4181560084
 30
0.0
 40
7.500000000000062
100
AcDbArc
 50
320.9233041416
 51
329.9726764552
  0
ARC
  5
130
330
1F
100
AcDbEntity
  8
0
  6
Continuous
 62
     7
370
    30
100
AcDbCircle
 10
107.7615154822
 20
154.4181560084
 30
0.0
 40
6.50000000000002
100
AcDbArc
 50
310.4479902984
 51
340.4479902984
  0
SPLINE
  5
131
330
1F
100
AcDbEntity
  8
0
  6
Continuous
 62
     7
370
    30
100
AcDbSpline
210
0.0
220
0.0
230
1.0
 70
     8
 71
     3
 72
    27
 73
    23
 74
     0
 42
0.000000001
 43
0.00000001
 40
0.0
 40
0.0
 40
0.0
 40
0.0
 40
0.059963498783457
 40
0.1149385554909618
 40
0.1702972294488711
 40
0.226894029417994
 40
0.2839543539021419
 40
0.3248384183298618
 40
0.3659463010521944
 40
0.4078329630942307
 40
0.4500377441470658
 40
0.518210080368478
 40
0.5531479910213926
 40
0.5883537830479303
 40
0.6914659620647111
 40
0.7268410656539883
 40
0.8588444932639605
 40
0.8929294005993729
 40
0.9272374048416722
 40
0.962236427646788
 40
0.9974727369567153
 40
1.0
 40
1.0
 40
1.0
 40
1.0
 10
111.9784393262749
 20
149.4716887132464
 30
0.0
 10
112.0135492780243
 20
149.5000815241946
 30
0.0
 10
112.080848338608
 20
149.5545051109252
 30
0.0
 10
112.1889641265923
 20
149.6237254942827
 30
0.0
 10
112.2997453417487
 20
149.6831728370094
 30
0.0
 10
112.4166749464824
 20
149.733530028101
 30
0.0
 10
112.5269862704865
 20
149.7702714503151
 30
0.0
 10
112.628006938287
 20
149.7958420814995
 30
0.0
 10
112.7187662217606
 20
149.8129810454172
 30
0.0
 10
112.8105686821316
 20
149.8245064404367
 30
0.0
 10
112.9211855812291
 20
149.8315111149229
 30
0.0
 10
113.0240918413509
 20
149.8297288028673
 30
0.0
 10
113.1167854360553
 20
149.8216049406733
 30
0.0
 10
113.22739056994
 20
149.8067503302596
 30
0.0
 10
113.32570979518
 20
149.7841108095121
 30
0.0
 10
113.4502504908923
 20
149.7466737056711
 30
0.0
 10
113.517842664151
 20
149.7196214613329
 30
0.0
 10
113.5573849887377
 20
149.702464938306
 30
0.0
 10
113.572198678052
 20
149.6957979547654
 30
0.0
 10
113.5813711410219
 20
149.6915832051366
 30
0.0
 10
113.5837333767491
 20
149.6904829824215
 30
0.0
 10
113.583783689405
 20
149.6904580542961
 30
0.0
 10
113.5837870564942
 20
149.6904563860236
 30
0.0
  0
SPLINE
  5
132
330
1F
100
AcDbEntity
  8
0
  6
Continuous
 62
     7
370
    30
100
AcDbSpline
210
0.0
220
0.0
230
1.0
 70
     8
 71
     3
 72
    21
 73
    17
 74
     0
 42
0.000000001
 43
0.00000001
 40
0.0
 40
0.0
 40
0.0
 40
0.0
 40
0.0504143796901207
 40
0.1015437988317109
 40
0.1722764096662519
 40
0.2451347516033272
 40
0.3143756235389857
 40
0.3858449765324762
 40
0.4515838784741972
 40
0.5191848111299099
 40
0.5862037661045734
 40
0.6546589763169302
 40
0.7536244132609669
 40
0.8554085105126096
 40
0.9272738097917771
 40
1.0
 40
1.0
 40
1.0
 40
1.0
 10
114.2584934745614
 20
158.1650596813498
 30
0.0
 10
114.2572511333967
 20
158.164703186936
 30
0.0
 10
114.2547488306391
 20
158.1639851418611
 30
0.0
 10
114.231868197007
 20
158.1576666563754
 30
0.0
 10
114.1872154604488
 20
158.1462830768604
 30
0.0
 10
114.1126604252616
 20
158.1306082127587
 30
0.0
 10
114.0140615724813
 20
158.1159548965355
 30
0.0
 10
113.8982261386449
 20
158.1072846153499
 30
0.0
 10
113.767757496319
 20
158.1084691801122
 30
0.0
 10
113.6301383818071
 20
158.1220359937737
 30
0.0
 10
113.485903176846
 20
158.1503949315505
 30
0.0
 10
113.3193857775713
 20
158.2007931062906
 30
0.0
 10
113.1339342389033
 20
158.2832622640562
 30
0.0
 10
112.9608601213582
 20
158.3947740880121
 30
0.0
 10
112.8180971841619
 20
158.5139115505643
 30
0.0
 10
112.7448340270792
 20
158.5945302224655
 30
0.0
 10
112.7079843458419
 20
158.6350795583068
 30
0.0
  0
ARC
  5
133
330
1F
100
AcDbEntity
  8
0
  6
Continuous
 62
     7
370
    30
100
AcDbCircle
 10
107.7615154822
 20
154.4181560084
 30
0.0
 40
7.500000000000083
100
AcDbArc
 50
20.9233041416
 51
29.9726764552
  0
SPLINE
  5
134
330
1F
100
AcDbEntity
  8
0
  6
Continuous
 62
     7
370
    30
100
AcDbSpline
210
0.0
220
0.0
230
1.0
 70
     8
 71
     3
 72
    21
 73
    17
 74
     0
 42
0.000000001
 43
0.00000001
 40
0.0
 40
0.0
 40
0.0
 40
0.0
 40
0.0599618808303916
 40
0.170196625368517
 40
0.2837326995496184
 40
0.3656656675975086
 40
0.4496736953926595
 40
0.5178435565148232
 40
0.5879183470949029
 40
0.6561374816896058
 40
0.7265339701692709
 40
0.7918790630381186
 40
0.8589625855228645
 40
0.9272982049402555
 40
0.9974728047671393
 40
1.0
 40
1.0
 40
1.0
 40
1.0
 10
114.1537448306267
 20
155.5968855277835
 30
0.0
 10
114.146766968445
 20
155.6414915785335
 30
0.0
 10
114.1269609086757
 20
155.7681020050834
 30
0.0
 10
114.1264119809455
 20
155.9828984253787
 30
0.0
 10
114.1627698746694
 20
156.2111052066385
 30
0.0
 10
114.2261536577613
 20
156.4109533510148
 30
0.0
 10
114.2982736167094
 20
156.5679191344006
 30
0.0
 10
114.3792847571958
 20
156.7027517444126
 30
0.0
 10
114.4606064772444
 20
156.8127562419405
 30
0.0
 10
114.5428874011773
 20
156.9057478381079
 30
0.0
 10
114.6173522399068
 20
156.9778116260642
 30
0.0
 10
114.6802321786173
 20
157.0315383053251
 30
0.0
 10
114.7280642450796
 20
157.0686200784983
 30
0.0
 10
114.7591538624339
 20
157.0911140984538
 30
0.0
 10
114.766872909569
 20
157.0964633707363
 30
0.0
 10
114.7669572773266
 20
157.0965394703166
 30
0.0
 10
114.7669602100436
 20
157.0965421156226
 30
0.0
  0
ARC
  5
135
330
1F
100
AcDbEntity
  8
0
  6
Continuous
 62
     7
370
    30
100
AcDbCircle
 10
107.7615154822
 20
154.4181560084
 30
0.0
 40
6.500000000000052
100
AcDbArc
 50
10.4479902984
 51
40.4479902984
  0
ARC
  5
136
330
1F
100
AcDbEntity
  8
0
  6
Continuous
 62
     7
370
    30
100
AcDbCircle
 10
107.7615154822
 20
154.4181560084
 30
0.0
 40
7.50000000000006
100
AcDbArc
 50
50.9233041416
 51
59.9726764552
  0
SPLINE
  5
137
330
1F
100
AcDbEntity
  8
0
  6
Continuous
 62
     7
370
    30
100
AcDbSpline
210
0.0
220
0.0
230
1.0
 70
     8
 71
     3
 72
    33
 73
    29
 74
     0
 42
0.000000001
 43
0.00000001
 40
0.0
 40
0.0
 40
0.0
 40
0.0
 40
0.0599132692933093
 40
0.1148409689839969
 40
0.1701521194496196
 40
0.2266991425125241
 40
0.2837104175520638
 40
0.3245597819732861
 40
0.3656321746075804
 40
0.4074839313513474
 40
0.4496514751969762
 40
0.4836283193953065
 40
0.5178197731754911
 40
0.5527280415229863
 40
0.5879035174892813
 40
0.6218867174577359
 40
0.6561310790826698
 40
0.6911946415227539
 40
0.7265394144576919
 40
0.7591046365648454
 40
0.7918837720153734
 40
0.8253151661974961
 40
0.8589659572066601
 40
0.8930214487007186
 40
0.9272998955227353
 40
0.9622688296203694
 40
0.997474907331383
 40
1.0
 40
1.0
 40
1.0
 40
1.0
 10
112.7079843458419
 20
158.6350795583068
 30
0.0
 10
112.6795903229672
 20
158.6701897811548
 30
0.0
 10
112.6251650322304
 20
158.7374885959363
 30
0.0
 10
112.5559466594367
 20
158.8456066741506
 30
0.0
 10
112.4964988736344
 20
158.9563864740496
 30
0.0
 10
112.4461432932814
 20
159.073315671862
 30
0.0
 10
112.409400234615
 20
159.1836259323329
 30
0.0
 10
112.3838301632856
 20
159.2846463700811
 30
0.0
 10
112.3666914138064
 20
159.3754084843284
 30
0.0
 10
112.3551634503948
 20
159.4672031443026
 30
0.0
 10
112.3497362647299
 20
159.5530262019725
 30
0.0
 10
112.3490836826563
 20
159.6317708306535
 30
0.0
 10
112.3519420324097
 20
159.7034716768051
 30
0.0
 10
112.3580645512088
 20
159.7734237485899
 30
0.0
 10
112.3670057229334
 20
159.8399401869189
 30
0.0
 10
112.3781426058339
 20
159.9021593597577
 30
0.0
 10
112.390927354923
 20
159.9599700987967
 30
0.0
 10
112.4049706470548
 20
160.0136230272983
 30
0.0
 10
112.4192389668546
 20
160.0611373231428
 30
0.0
 10
112.4330273512222
 20
160.1023827382647
 30
0.0
 10
112.4459232831956
 20
160.1377956147206
 30
0.0
 10
112.4578712569909
 20
160.1683367049495
 30
0.0
 10
112.4684487390217
 20
160.1938506003682
 30
0.0
 10
112.4772143027828
 20
160.2140352265257
 30
0.0
 10
112.4838683715093
 20
160.2288384637597
 30
0.0
 10
112.4880909411354
 20
160.2380084744738
 30
0.0
 10
112.4891921545562
 20
160.2403752660216
 30
0.0
 10
112.4892146986775
 20
160.2404231524856
 30
0.0
 10
112.4892162074034
 20
160.2404263572035
 30
0.0
  0
ARC
  5
138
330
1F
100
AcDbEntity
  8
0
  6
Continuous
 62
     7
370
    30
100
AcDbCircle
 10
107.7615154822
 20
154.4181560084
 30
0.0
 40
6.500000000000033
100
AcDbArc
 50
40.4479902984
 51
70.4479902984
  0
SPLINE
  5
139
330
1F
100
AcDbEntity
  8
0
  6
Continuous
 62
     7
370
    30
100
AcDbSpline
210
0.0
220
0.0
230
1.0
 70
     8
 71
     3
 72
    33
 73
    29
 74
     0
 42
0.000000001
 43
0.00000001
 40
0.0
 40
0.0
 40
0.0
 40
0.0
 40
0.0503789788092648
 40
0.1014725209389266
 40
0.1367202129821837
 40
0.1722178064464166
 40
0.208514798818158
 40
0.2450967783352965
 40
0.279595559174822
 40
0.3143542156290649
 40
0.3499514722267719
 40
0.3858484640964063
 40
0.4186079011474445
 40
0.4515981151615891
 40
0.4852884853795994
 40
0.519208772561378
 40
0.5526231551837015
 40
0.5862274851920236
 40
0.6203694914749949
 40
0.6546747978870933
 40
0.7039800750980731
 40
0.7536630873840231
 40
0.8043962696951206
 40
0.8554559828617054
 40
0.8913233981319638
 40
0.927296915703869
 40
0.9635940677571683
 40
1.0
 40
1.0
 40
1.0
 40
1.0
 10
111.5146125116085
 20
160.911556030923
 30
0.0
 10
111.5137178496505
 20
160.9106311532982
 30
0.0
 10
111.5119158360645
 20
160.908768279807
 30
0.0
 10
111.4986415393565
 20
160.8952787651117
 30
0.0
 10
111.4807028258172
 20
160.8776592724399
 30
0.0
 10
111.4599258694154
 20
160.8579195934932
 30
0.0
 10
111.433734201941
 20
160.8340773510543
 30
0.0
 10
111.4024219538186
 20
160.8070293711578
 30
0.0
 10
111.3663146954183
 20
160.777657333205
 30
0.0
 10
111.3254268961692
 20
160.7465309873621
 30
0.0
 10
111.278756470178
 20
160.7136007657098
 30
0.0
 10
111.2278661661821
 20
160.6806607283926
 30
0.0
 10
111.1737067552675
 20
160.6487178690151
 30
0.0
 10
111.116747024208
 20
160.6182540400743
 30
0.0
 10
111.0554137869773
 20
160.5888598954923
 30
0.0
 10
110.9904837497441
 20
160.5613829808813
 30
0.0
 10
110.9227694334519
 20
160.5364557024978
 30
0.0
 10
110.8525402490093
 20
160.5144060913532
 30
0.0
 10
110.7797489671651
 20
160.495461736737
 30
0.0
 10
110.6940096064465
 20
160.4777323369006
 30
0.0
 10
110.5951424167899
 20
160.4636394464235
 30
0.0
 10
110.4827881141587
 20
160.4560759297645
 30
0.0
 10
110.3686686080696
 20
160.4570268597413
 30
0.0
 10
110.2652706643012
 20
160.465847439346
 30
0.0
 10
110.1737093137372
 20
160.4797168005913
 30
0.0
 10
110.0939459701425
 20
160.496333407649
 30
0.0
 10
110.0147040140669
 20
160.5170758878155
 30
0.0
 10
109.9628078784965
 20
160.5345846056855
 30
0.0
 10
109.9368209865575
 20
160.5433520631133
 30
0.0
  0
ARC
  5
13A
330
1F
100
AcDbEntity
  8
0
  6
Continuous
 62
     7
370
    30
100
AcDbCircle
 10
107.7615154822
 20
154.4181560084
 30
0.0
 40
7.500000000000104
100
AcDbArc
 50
350.9233041416
 51
359.9726764552
  0
ARC
  5
13B
330
1F
100
AcDbEntity
  8
0
  6
Continuous
 62
     7
370
    30
100
AcDbCircle
 10
107.7615154822
 20
154.4181560084
 30
0.0
 40
6.500000000000052
100
AcDbArc
 50
340.4479902984
 51
10.4479902984
  0
SPLINE
  5
13C
330
1F
100
AcDbEntity
  8
0
  6
Continuous
 62
     7
370
    30
100
AcDbSpline
210
0.0
220
0.0
230
1.0
 70
     8
 71
     3
 72
    21
 73
    17
 74
     0
 42
0.000000001
 43
0.00000001
 40
0.0
 40
0.0
 40
0.0
 40
0.0
 40
0.0599624929436388
 40
0.1701969143744385
 40
0.2837327039615757
 40
0.3656656675624889
 40
0.449673346976679
 40
0.5178443465298357
 40
0.5879179935240307
 40
0.6561375256743973
 40
0.7265338753877774
 40
0.7918791829278362
 40
0.8589627029592138
 40
0.9272981808063916
 40
0.9974728052892903
 40
1.0
 40
1.0
 40
1.0
 40
1.0
 10
113.8867132280652
 20
152.2428502098857
 30
0.0
 10
113.9029733456777
 20
152.2849695668272
 30
0.0
 10
113.949125893865
 20
152.4045207101331
 30
0.0
 10
114.0560486874088
 20
152.5908145582806
 30
0.0
 10
114.2016399450531
 20
152.7702666534462
 30
0.0
 10
114.3564537427347
 20
152.9116506249416
 30
0.0
 10
114.4973969149593
 20
153.0115231663727
 30
0.0
 10
114.6349678710809
 20
153.0877936232288
 30
0.0
 10
114.7603995696231
 20
153.1423898900489
 30
0.0
 10
114.8781511251526
 20
153.1817890247244
 30
0.0
 10
114.9786716701741
 20
153.2069624337163
 30
0.0
 10
115.0599906628771
 20
153.2220561767607
 30
0.0
 10
115.1199569342151
 20
153.2302495657822
 30
0.0
 10
115.1581236147851
 20
153.2341854629851
 30
0.0
 10
115.1674910296395
 20
153.2349518174214
 30
0.0
 10
115.1675970603982
 20
153.2349833279914
 30
0.0
 10
115.1676007461433
 20
153.2349844233332
 30
0.0
  0
SPLINE
  5
13D
330
1F
100
AcDbEntity
  8
0
  6
Continuous
 62
     7
370
    30
100
AcDbSpline
210
0.0
220
0.0
230
1.0
 70
     8
 71
     3
 72
    21
 73
    17
 74
     0
 42
0.000000001
 43
0.00000001
 40
0.0
 40
0.0
 40
0.0
 40
0.0
 40
0.0504143491134094
 40
0.1015438362391497
 40
0.1722764024721737
 40
0.2451348023365759
 40
0.3143755611703557
 40
0.3858449896532803
 40
0.4515833430741593
 40
0.5191845516975253
 40
0.5862038617205017
 40
0.6546581867828739
 40
0.7536241838381038
 40
0.8554077915485996
 40
0.9272727832351798
 40
1.0
 40
1.0
 40
1.0
 40
1.0
 10
115.2615148489063
 20
154.4145789698897
 30
0.0
 10
115.2602611677409
 20
154.4148918448934
 30
0.0
 10
115.2577360216824
 20
154.4155220330977
 30
0.0
 10
115.2347590980214
 20
154.4214896003397
 30
0.0
 10
115.1903977931035
 20
154.4339566457665
 30
0.0
 10
115.1179934892861
 20
154.4576612073095
 30
0.0
 10
115.0252780458559
 20
154.4942698478598
 30
0.0
 10
114.9206287925466
 20
154.5446841425007
 30
0.0
 10
114.8082306094896
 20
154.6109398919413
 30
0.0
 10
114.6958307766596
 20
154.6914976912307
 30
0.0
 10
114.5851005690331
 20
154.7881765466618
 30
0.0
 10
114.4660902535846
 20
154.9150802107713
 30
0.0
 10
114.3467213230946
 20
155.079227444027
 30
0.0
 10
114.2525886409431
 20
155.2623352030183
 30
0.0
 10
114.1885206716857
 20
155.4368929809121
 30
0.0
 10
114.1653827692434
 20
155.5433430861656
 30
0.0
 10
114.1537448306267
 20
155.5968855277835
 30
0.0
  0
ARC
  5
13E
330
1F
100
AcDbEntity
  8
0
  6
Continuous
 62
     7
370
    30
100
AcDbCircle
 10
107.7615154822
 20
154.4181560084
 30
0.0
 40
7.500000000000049
100
AcDbArc
 50
290.9233041416
 51
299.9726764552
  0
ARC
  5
13F
330
1F
100
AcDbEntity
  8
0
  6
Continuous
 62
     7
370
    30
100
AcDbCircle
 10
107.7615154822
 20
154.4181560084
 30
0.0
 40
6.499999999999987
100
AcDbArc
 50
280.4479902984
 51
310.4479902984
  0
SPLINE
  5
140
330
1F
100
AcDbEntity
  8
0
  6
Continuous
 62
     7
370
    30
100
AcDbSpline
210
0.0
220
0.0
230
1.0
 70
     8
 71
     3
 72
    33
 73
    29
 74
     0
 42
0.000000001
 43
0.00000001
 40
0.0
 40
0.0
 40
0.0
 40
0.0
 40
0.0599127806599284
 40
0.1148403574701869
 40
0.1701514769957169
 40
0.2266996101161168
 40
0.2837109534964834
 40
0.3245599473506712
 40
0.365632381745158
 40
0.4074834983933801
 40
0.4496519130677316
 40
0.4836282730651549
 40
0.5178198317952258
 40
0.5527283654732154
 40
0.5879032214455163
 40
0.6218872449242797
 40
0.6561315014296889
 40
0.691194513665329
 40
0.726539604926068
 40
0.7591044375019939
 40
0.7918836024660804
 40
0.8253154815536929
 40
0.8589657897116744
 40
0.8930212482219633
 40
0.9272997482541357
 40
0.9622688411791157
 40
0.9974749057027542
 40
1.0
 40
1.0
 40
1.0
 40
1.0
 10
108.940244364429
 20
148.0259259001551
 30
0.0
 10
108.9848471872168
 20
148.032961963508
 30
0.0
 10
109.0703415351125
 20
148.0464486356626
 30
0.0
 10
109.1985833197059
 20
148.0523331109227
 30
0.0
 10
109.3242461967101
 20
148.0484283154883
 30
0.0
 10
109.45068784161
 20
148.0335668324577
 30
0.0
 10
109.5645915455214
 20
148.0102332945087
 30
0.0
 10
109.6648630534655
 20
147.9818688104667
 30
0.0
 10
109.752034081329
 20
147.9513304331532
 30
0.0
 10
109.8372940890968
 20
147.9154154330532
 30
0.0
 10
109.9143327614687
 20
147.8772040549566
 30
0.0
 10
109.9828551626558
 20
147.838398971965
 30
0.0
 10
110.0435211638616
 20
147.8000737789284
 30
0.0
 10
110.1010374940781
 20
147.7597911918397
 30
0.0
 10
110.1541744028062
 20
147.7187944667595
 30
0.0
 10
110.2024877272405
 20
147.6780356403053
 30
0.0
 10
110.2461629715945
 20
147.6380607192546
 30
0.0
 10
110.2856040871906
 20
147.5990730688613
 30
0.0
 10
110.3196183651256
 20
147.5629568522452
 30
0.0
 10
110.3484438639207
 20
147.530395700872
 30
0.0
 10
110.3726627159312
 20
147.5015202827657
 30
0.0
 10
110.3931422858704
 20
147.475900057636
 30
0.0
 10
110.4099451700243
 20
147.4539864347624
 30
0.0
 10
110.4230442381816
 20
147.4363024282387
 30
0.0
 10
110.4325360938355
 20
147.4231392163394
 30
0.0
 10
110.4383704471057
 20
147.4148904402119
 30
0.0
 10
110.4398670426624
 20
147.4127637136206
 30
0.0
 10
110.4398979523657
 20
147.4127129843844
 30
0.0
 10
110.4399000209455
 20
147.4127095894156
 30
0.0
  0
SPLINE
  5
141
330
1F
100
AcDbEntity
  8
0
  6
Continuous
 62
     7
370
    30
100
AcDbSpline
210
0.0
220
0.0
230
1.0
 70
     8
 71
     3
 72
    32
 73
    28
 74
     0
 42
0.000000001
 43
0.00000001
 40
0.0
 40
0.0
 40
0.0
 40
0.0
 40
0.0503818171455697
 40
0.1014783699331064
 40
0.1367278927676152
 40
0.1722275987784372
 40
0.2085268708297021
 40
0.2451110030840486
 40
0.2796115887227887
 40
0.3143720294868743
 40
0.3499716790400088
 40
0.3858698083786962
 40
0.418747847658501
 40
0.4852583547015194
 40
0.5191807660659451
 40
0.5526868383174602
 40
0.5863838080371985
 40
0.6203474080466324
 40
0.6546551785591266
 40
0.7039635758251341
 40
0.7536489022812505
 40
0.8043845406210719
 40
0.8554471487922897
 40
0.8913163433886164
 40
0.9272927599608745
 40
0.9635913047583619
 40
1.0
 40
1.0
 40
1.0
 40
1.0
 10
111.5084175866728
 20
147.921178187543
 30
0.0
 10
111.5080640491339
 20
147.9224148292978
 30
0.0
 10
111.5073519586382
 20
147.9249056562783
 30
0.0
 10
111.5023062818941
 20
147.94314963028
 30
0.0
 10
111.4960154958073
 20
147.9674912820211
 30
0.0
 10
111.4893094840547
 20
147.9953559719265
 30
0.0
 10
111.4817586682325
 20
148.0299611706561
 30
0.0
 10
111.4739897276339
 20
148.0706024953477
 30
0.0
 10
111.4666056057966
 20
148.1165575232639
 30
0.0
 10
111.460093161427
 20
148.1675300753573
 30
0.0
 10
111.454908602417
 20
148.2244126500468
 30
0.0
 10
111.4518282439349
 20
148.2850259723915
 30
0.0
 10
111.451046819721
 20
148.3686886528544
 30
0.0
 10
111.4557339702848
 20
148.4574958249005
 30
0.0
 10
111.4672290435304
 20
148.5502313935518
 30
0.0
 10
111.4795281415535
 20
148.6214715228235
 30
0.0
 10
111.4955587963264
 20
148.6933168277822
 30
0.0
 10
111.5155411483961
 20
148.765764087335
 30
0.0
 10
111.5430145611625
 20
148.8487544976659
 30
0.0
 10
111.5802447527355
 20
148.9414222361278
 30
0.0
 10
111.6298725629136
 20
149.0425046985114
 30
0.0
 10
111.6877562963144
 20
149.1408584960873
 30
0.0
 10
111.7470926302383
 20
149.2259938123465
 30
0.0
 10
111.8048845298353
 20
149.2983542176696
 30
0.0
 10
111.8591576324443
 20
149.3591219769204
 30
0.0
 10
111.9167413904813
 20
149.4173779265544
 30
0.0
 10
111.957852586716
 20
149.4535668424499
 30
0.0
 10
111.9784393262749
 20
149.4716887132464
 30
0.0
  0
LINE
  5
142
330
1F
100
AcDbEntity
  8
0
  6
Continuous
 62
     7
370
    30
100
AcDbLine
 10
109.5444226552
 20
152.3267996268
 30
0.0
 11
110.4641376909
 21
154.9165208594
 31
0.0
  0
LINE
  5
143
330
1F
100
AcDbEntity
  8
0
  6
Continuous
 62
     7
370
    30
100
AcDbLine
 10
110.4641376909
 20
154.9165208594
 30
0.0
 11
108.6812304015
 21
157.0078764812
 31
0.0
  0
LINE
  5
144
330
1F
100
AcDbEntity
  8
0
  6
Continuous
 62
     7
370
    30
100
AcDbLine
 10
108.6812304015
 20
157.0078764812
 30
0.0
 11
105.9786083092
 21
156.5095145957
 31
0.0
  0
LINE
  5
145
330
1F
100
AcDbEntity
  8
0
  6
Continuous
 62
     7
370
    30
100
AcDbLine
 10
105.9786083092
 20
156.5095145957
 30
0.0
 11
105.0588932735
 21
153.919793363
 31
0.0
  0
LINE
  5
146
330
1F
100
AcDbEntity
  8
0
  6
Continuous
 62
     7
370
    30
100
AcDbLine
 10
105.0588932735
 20
153.919793363
 30
0.0
 11
106.8418005629
 21
151.8284340159
 31
0.0
  0
LINE
  5
147
330
1F
100
AcDbEntity
  8
0
  6
Continuous
 62
     7
370
    30
100
AcDbLine
 10
106.8418005629
 20
151.8284340159
 30
0.0
 11
109.5444226552
 21
152.3267996268
 31
0.0
  0
LINE
  5
148
330
1F
100
AcDbEntity
  8
0
  6
Continuous
 62
     7
370
    30
100
AcDbLine
 10
120.2615156685
 20
162.4181565599
 30
0.0
 11
95.2615152959
 21
162.4181565599
 31
0.0
  0
LINE
  5
149
330
1F
100
AcDbEntity
  8
0
  6
Continuous
 62
     7
370
    30
100
AcDbLine
 10
120.2615156685
 20
91.2181564377
 30
0.0
 11
95.2615152959
 21
91.2181564377
 31
0.0
  0
SPLINE
  5
14A
330
1F
100
AcDbEntity
  8
0
  6
Continuous
 62
     7
370
    30
100
AcDbSpline
210
0.0
220
0.0
230
1.0
 70
     8
 71
     3
 72
    29
 73
    25
 74
     0
 42
0.000000001
 43
0.00000001
 40
0.0
 40
0.0
 40
0.0
 40
0.0
 40
0.0456185263740108
 40
0.0925648643428179
 40
0.1381817841742088
 40
0.1851143424340522
 40
0.230874657472378
 40
0.2779565014891849
 40
0.3238060057112642
 40
0.3709941151734006
 40
0.416687868839875
 40
0.4637163521298074
 40
0.5092534009983577
 40
0.5561066645155996
 40
0.6017281868451502
 40
0.6486614501507549
 40
0.6944779285146879
 40
0.7416222559221003
 40
0.7874417395791178
 40
0.8346015858918915
 40
0.8802251161512191
 40
0.9271771492423482
 40
0.9727119220054309
 40
1.0
 40
1.0
 40
1.0
 40
1.0
 10
109.0115154542659
 20
146.4181576625643
 30
0.0
 10
109.0081952464111
 20
146.3490765423751
 30
0.0
 10
109.0014581899103
 20
146.2089035682078
 30
0.0
 10
108.9472739964555
 20
146.0055012577063
 30
0.0
 10
108.8615807053349
 20
145.8120355838735
 30
0.0
 10
108.7450732850666
 20
145.6372150267555
 30
0.0
 10
108.5996724629125
 20
145.4828151021804
 30
0.0
 10
108.4316225120078
 20
145.35591493314
 30
0.0
 10
108.2427403805598
 20
145.2580450428758
 30
0.0
 10
108.0419258696436
 20
145.1939075463853
 30
0.0
 10
107.8314362004881
 20
145.1641753008303
 30
0.0
 10
107.6213414666625
 20
145.1700913707741
 30
0.0
 10
107.4136079036583
 20
145.2114263633926
 30
0.0
 10
107.217694048399
 20
145.2861145297983
 30
0.0
 10
107.0353406788807
 20
145.3934897976869
 30
0.0
 10
106.8746957417268
 20
145.5288435196918
 30
0.0
 10
106.7375475785145
 20
145.6909045910636
 30
0.0
 10
106.6303600767763
 20
145.87235964794
 30
0.0
 10
106.5544233112837
 20
146.0711723262441
 30
0.0
 10
106.5135099200041
 20
146.2777669548944
 30
0.0
 10
106.5074279591018
 20
146.4901788560159
 30
0.0
 10
106.5380675360163
 20
146.6974215337097
 30
0.0
 10
106.5898132104146
 20
146.8726168680683
 30
0.0
 10
106.6430451992382
 20
146.9691556062665
 30
0.0
 10
106.6629922165234
 20
147.0053304688273
 30
0.0
  0
SPLINE
  5
14B
330
1F
100
AcDbEntity
  8
0
  6
Continuous
 62
     7
370
    30
100
AcDbSpline
210
0.0
220
0.0
230
1.0
 70
     8
 71
     3
 72
    16
 73
    12
 74
     0
 42
0.000000001
 43
0.00000001
 40
0.0
 40
0.0
 40
0.0
 40
0.0
 40
0.0155488705906249
 40
0.1477817896166345
 40
0.2838176074389758
 40
0.4166134325341767
 40
0.5532424603698588
 40
0.6862965585679639
 40
0.8232330156297282
 40
0.9110697387669728
 40
1.0
 40
1.0
 40
1.0
 40
1.0
 10
108.1535250154489
 20
147.6031650559245
 30
0.0
 10
108.1613876230872
 20
147.6011937416325
 30
0.0
 10
108.2361165380315
 20
147.5824576956755
 30
0.0
 10
108.3695445611799
 20
147.5144914997664
 30
0.0
 10
108.5447692851107
 20
147.400606520491
 30
0.0
 10
108.6985965424513
 20
147.2541584234494
 30
0.0
 10
108.8251655459516
 20
147.0860427822557
 30
0.0
 10
108.9227352671796
 20
146.8969137615522
 30
0.0
 10
108.9789823476446
 20
146.7182643641921
 30
0.0
 10
109.0070495395698
 20
146.5567279792721
 30
0.0
 10
109.010020689201
 20
146.4645378741318
 30
0.0
 10
109.0115154542659
 20
146.4181576625643
 30
0.0
  0
LINE
  5
14C
330
1F
100
AcDbEntity
  8
0
  6
Continuous
 62
     7
370
    30
100
AcDbLine
 10
119.2615155046
 20
90.2181562738
 30
0.0
 11
96.2615154599
 21
90.2181562738
 31
0.0
  0
LINE
  5
14D
330
1F
100
AcDbEntity
  8
0
  6
Continuous
 62
     7
370
    30
100
AcDbLine
 10
117.7620377307
 20
166.4181534902
 30
0.0
 11
97.7609932338
 21
166.4181534902
 31
0.0
  0
DIMENSION
  5
14E
330
1F
100
AcDbEntity
  8
SLD-0
100
AcDbDimension
  2
_D
 10
120.2615154822
 20
173.4181560084
 30
0.0
 11
107.7615154822
 21
173.4181560084
 31
0.0
 70
   160
  1
%%c<>
 71
     2
 42
-1.0
  3
SLDDIMSTYLE0
100
AcDbAlignedDimension
 13
95.2615154822
 23
162.4181560084
 33
0.0
 14
120.2615154822
 24
162.4181560084
 34
0.0
100
AcDbRotatedDimension
  0
DIMENSION
  5
15A
330
1F
100
AcDbEntity
  8
SLD-0
100
AcDbDimension
  2
_D_1
 10
128.3992808194
 20
154.4181560084
 30
0.0
 11
128.3992808194
 21
160.4181560084
 31
0.0
 70
   160
  1
<>
 71
     2
 42
-1.0
  3
SLDDIMSTYLE0
100
AcDbAlignedDimension
 13
117.7620380746
 23
166.4181560084
 33
0.0
 14
107.7615154822
 24
154.4181560084
 34
0.0
 50
90.0
100
AcDbRotatedDimension
  0
DIMENSION
  5
164
330
1F
100
AcDbEntity
  8
SLD-0
100
AcDbDimension
  2
_D_2
 10
135.4159401193
 20
146.4181560084
 30
0.0
 11
135.4159401193
 21
156.4181560084
 31
0.0
 70
   160
  1
<>
 71
     2
 42
-1.0
  3
SLDDIMSTYLE0
100
AcDbAlignedDimension
 13
117.7620380746
 23
166.4181560084
 33
0.0
 14
107.7615154822
 24
146.4181560084
 34
0.0
 50
90.0
100
AcDbRotatedDimension
  0
DIMENSION
  5
16E
330
1F
100
AcDbEntity
  8
SLD-0
100
AcDbDimension
  2
_D_3
 10
142.835535473
 20
90.2181560084
 30
0.0
 11
142.835535473
 21
128.3181560084
 31
0.0
 70
   160
  1
<>
 71
     2
 42
-1.0
  3
SLDDIMSTYLE0
100
AcDbAlignedDimension
 13
117.7620380746
 23
166.4181560084
 33
0.0
 14
119.2615154822
 24
90.2181560084
 34
0.0
 50
90.0
100
AcDbRotatedDimension
  0
DIMENSION
  5
178
330
1F
100
AcDbEntity
  8
SLD-0
100
AcDbDimension
  2
_D_4
 10
87.2393473047
 20
148.2137365679
 30
0.0
 11
85.4447666534
 21
157.9457209482
 31
0.0
 70
   160
  1
<>
 71
     2
 42
-1.0
  3
SLDDIMSTYLE1
100
AcDbAlignedDimension
 13
105.9786082909
 23
156.5095132902
 33
0.0
 14
106.8418005434
 24
151.8284344471
 34
0.0
 50
-79.5520097016
100
AcDbRotatedDimension
  0
INSERT
  5
190
330
1F
100
AcDbEntity
  8
SLD-0
100
AcDbBlockReference
  2
SW_CENTERMARKSYMBOL_0
 10
107.7615154822
 20
154.4181560084
 30
0.0
  0
LINE
  5
191
330
1F
100
AcDbEntity
  8
0
  6
Continuous
 62
     7
370
    30
100
AcDbLine
 10
109.0255956546
 20
60.5160054174
 30
0.0
 11
108.9615155392
 21
60.5800859985
 31
0.0
  0
LINE
  5
192
330
1F
100
AcDbEntity
  8
0
  6
Continuous
 62
     7
370
    30
100
AcDbLine
 10
106.5615154252
 20
60.5800859985
 30
0.0
 11
106.4974353098
 21
60.5160054174
 31
0.0
  0
ARC
  5
193
330
1F
100
AcDbEntity
  8
0
  6
Continuous
 62
     7
370
    30
100
AcDbCircle
 10
104.79136037
 20
63.9300858122
 30
0.0
 40
0.5
100
AcDbArc
 50
0.0
 51
90.0
  0
ARC
  5
194
330
1F
100
AcDbEntity
  8
0
  6
Continuous
 62
     7
370
    30
100
AcDbCircle
 10
110.7316705944
 20
63.9300858122
 30
0.0
 40
0.5
100
AcDbArc
 50
90.0
 51
180.0
  0
LINE
  5
195
330
1F
100
AcDbEntity
  8
0
  6
Continuous
 62
     7
370
    30
100
AcDbLine
 10
105.2913604685
 20
63.9300858957
 30
0.0
 11
105.2913604685
 21
60.3335891274
 31
0.0
  0
LINE
  5
196
330
1F
100
AcDbEntity
  8
0
  6
Continuous
 62
     7
370
    30
100
AcDbLine
 10
110.2316704959
 20
60.3335891274
 30
0.0
 11
110.2316704959
 21
63.9300858957
 31
0.0
  0
ARC
  5
197
330
1F
100
AcDbEntity
  8
0
  6
Continuous
 62
     7
370
    30
100
AcDbCircle
 10
114.2615154822
 20
71.4300858122
 30
0.0
 40
1.000000000000002
100
AcDbArc
 50
18.3723551145
 51
90.0
  0
ARC
  5
198
330
1F
100
AcDbEntity
  8
0
  6
Continuous
 62
     7
370
    30
100
AcDbCircle
 10
114.2615154822
 20
65.4300858122
 30
0.0
 40
1.000000000000012
100
AcDbArc
 50
270.0
 51
341.1571031838
  0
LINE
  5
199
330
1F
100
AcDbEntity
  8
0
  6
Continuous
 62
     7
370
    30
100
AcDbLine
 10
100.3167528574
 20
65.1023304445
 30
0.0
 11
100.3523987633
 21
65.0135437381
 31
0.0
  0
ARC
  5
19A
330
1F
100
AcDbEntity
  8
0
  6
Continuous
 62
     7
370
    30
100
AcDbCircle
 10
101.2615154822
 20
65.4300858122
 30
0.0
 40
1.0
100
AcDbArc
 50
252.1689891067
 51
270.0
  0
LINE
  5
19B
330
1F
100
AcDbEntity
  8
0
  6
Continuous
 62
     7
370
    30
100
AcDbLine
 10
100.3273066048
 20
71.7868125421
 30
0.0
 11
100.3161274743
 21
71.756032331
 31
0.0
  0
LINE
  5
19C
330
1F
100
AcDbEntity
  8
0
  6
Continuous
 62
     7
370
    30
100
AcDbLine
 10
106.5615154252
 20
60.5800859985
 30
0.0
 11
108.9615155392
 21
60.5800859985
 31
0.0
  0
SPLINE
  5
19D
330
1F
100
AcDbEntity
  8
0
  6
Continuous
 62
     7
370
    30
100
AcDbSpline
210
0.0
220
0.0
230
1.0
 70
     8
 71
     3
 72
    14
 73
    10
 74
     0
 42
0.000000001
 43
0.00000001
 40
0.0
 40
0.0
 40
0.0
 40
0.0
 40
0.1016668175362268
 40
0.2451501091827776
 40
0.385718046302832
 40
0.5189939788535868
 40
0.6545243808945801
 40
0.855193529027958
 40
1.0
 40
1.0
 40
1.0
 40
1.0
 10
107.7579388385843
 20
71.43008619368368
 30
0.0
 10
107.7592127390986
 20
71.50651285751448
 30
0.0
 10
107.762284506837
 20
71.69080115763678
 30
0.0
 10
107.7949253940727
 20
71.9623261816838
 30
0.0
 10
107.8791459150009
 20
72.19551672278241
 30
0.0
 10
108.0285740388075
 20
72.34137128924434
 30
0.0
 10
108.2699364852591
 20
72.41987815031007
 30
0.0
 10
108.5823104618747
 20
72.43062679878479
 30
0.0
 10
108.8345273775777
 20
72.43024597872648
 30
0.0
 10
108.940244364429
 20
72.43008635759645
 30
0.0
  0
SPLINE
  5
19E
330
1F
100
AcDbEntity
  8
0
  6
Continuous
 62
     7
370
    30
100
AcDbSpline
210
0.0
220
0.0
230
1.0
 70
     8
 71
     3
 72
    33
 73
    29
 74
     0
 42
0.000000001
 43
0.00000001
 40
0.0
 40
0.0
 40
0.0
 40
0.0
 40
0.0599127806599284
 40
0.1148403574701869
 40
0.1701514769957169
 40
0.2266996101161168
 40
0.2837109534964834
 40
0.3245599473506712
 40
0.365632381745158
 40
0.4074834983933801
 40
0.4496519130677316
 40
0.4836282730651549
 40
0.5178198317952258
 40
0.5527283654732154
 40
0.5879032214455163
 40
0.6218872449242797
 40
0.6561315014296889
 40
0.691194513665329
 40
0.726539604926068
 40
0.7591044375019939
 40
0.7918836024660804
 40
0.8253154815536929
 40
0.8589657897116744
 40
0.8930212482219633
 40
0.9272997482541357
 40
0.9622688411791157
 40
0.9974749057027542
 40
1.0
 40
1.0
 40
1.0
 40
1.0
 10
108.940244364429
 20
72.43008635759645
 30
0.0
 10
108.9848471872168
 20
72.43009233007406
 30
0.0
 10
109.0703415351125
 20
72.43010377807327
 30
0.0
 10
109.1985833197059
 20
72.42987110913155
 30
0.0
 10
109.3242461967101
 20
72.42863594442728
 30
0.0
 10
109.45068784161
 20
72.42512848874908
 30
0.0
 10
109.5645915455214
 20
72.4182911193785
 30
0.0
 10
109.6648630534655
 20
72.40789853611268
 30
0.0
 10
109.752034081329
 20
72.39463348723075
 30
0.0
 10
109.8372940890968
 20
72.37625406852904
 30
0.0
 10
109.9143327614687
 20
72.35332907245865
 30
0.0
 10
109.9828551626558
 20
72.32653474669046
 30
0.0
 10
110.0435211638616
 20
72.2966826381153
 30
0.0
 10
110.1010374940781
 20
72.26129549399054
 30
0.0
 10
110.1541744028062
 20
72.22060970925489
 30
0.0
 10
110.2024877272405
 20
72.17495000242353
 30
0.0
 10
110.2461629715945
 20
72.12433403065928
 30
0.0
 10
110.2856040871906
 20
72.06817928769206
 30
0.0
 10
110.3196183651256
 20
72.00843436632896
 30
0.0
 10
110.3484438639207
 20
71.94620893279959
 30
0.0
 10
110.3726627159312
 20
71.88197571764074
 30
0.0
 10
110.3931422858704
 20
71.81420299591495
 30
0.0
 10
110.4099451700243
 20
71.74312500711197
 30
0.0
 10
110.4230442381816
 20
71.66944958764181
 30
0.0
 10
110.4325360938355
 20
71.59327109528249
 30
0.0
 10
110.4383704471057
 20
71.51517048926608
 30
0.0
 10
110.4398670426624
 20
71.46040481622632
 30
0.0
 10
110.4398979523657
 20
71.43198794496335
 30
0.0
 10
110.4399000209455
 20
71.43008619368368
 30
0.0
  0
LINE
  5
19F
330
1F
100
AcDbEntity
  8
0
  6
Continuous
 62
     7
370
    30
100
AcDbLine
 10
110.4399000209
 20
71.4300861937
 30
0.0
 11
110.4399000209
 21
65.4300852102
 31
0.0
  0
SPLINE
  5
1A0
330
1F
100
AcDbEntity
  8
0
  6
Continuous
 62
     7
370
    30
100
AcDbSpline
210
0.0
220
0.0
230
1.0
 70
     8
 71
     3
 72
    33
 73
    29
 74
     0
 42
0.000000001
 43
0.00000001
 40
0.0
 40
0.0
 40
0.0
 40
0.0
 40
0.0516240204908501
 40
0.1040188087311091
 40
0.1392551350081049
 40
0.1747409403328052
 40
0.2110269815593921
 40
0.2475985792156762
 40
0.2820678194499055
 40
0.3167983605234797
 40
0.3523650302560399
 40
0.3882313438647826
 40
0.4209704670448895
 40
0.4539393020741009
 40
0.4876047742720429
 40
0.5214984603138383
 40
0.5549664641330861
 40
0.5886241421112208
 40
0.6228177677939359
 40
0.6571736616596192
 40
0.7066472516878541
 40
0.7564990955760301
 40
0.8074053061986826
 40
0.8586397257838395
 40
0.893728612065142
 40
0.9289169234461316
 40
0.9644075185068565
 40
1.0
 40
1.0
 40
1.0
 40
1.0
 10
110.4399000209455
 20
65.43008521020704
 30
0.0
 10
110.4391262103065
 20
65.39118255060524
 30
0.0
 10
110.4375670357191
 20
65.31279639877563
 30
0.0
 10
110.4261055228427
 20
65.2093666440911
 30
0.0
 10
110.4106855915214
 20
65.12028316139676
 30
0.0
 10
110.3929914224913
 20
65.04501025202596
 30
0.0
 10
110.3705842816272
 20
64.97159691871136
 30
0.0
 10
110.3436254349063
 20
64.9022700716174
 30
0.0
 10
110.3123002522637
 20
64.8377640238466
 30
0.0
 10
110.2765452385434
 20
64.77802454030535
 30
0.0
 10
110.2353634588002
 20
64.72220700345864
 30
0.0
 10
110.190032561115
 20
64.67251660025991
 30
0.0
 10
110.1413397196652
 20
64.62907403248872
 30
0.0
 10
110.0896719610003
 20
64.59137093173007
 30
0.0
 10
110.0335431953519
 20
64.55814741846488
 30
0.0
 10
109.9735448405329
 20
64.52964451865931
 30
0.0
 10
109.9103707865009
 20
64.50576563451965
 30
0.0
 10
109.8442302145165
 20
64.4861047520651
 30
0.0
 10
109.7750893994571
 20
64.47022614567021
 30
0.0
 10
109.6928898990876
 20
64.45596169200374
 30
0.0
 10
109.5970786723385
 20
64.44464395858905
 30
0.0
 10
109.4868417761916
 20
64.43687092700893
 30
0.0
 10
109.3735446109444
 20
64.43262892933218
 30
0.0
 10
109.2703406122466
 20
64.43092820898403
 30
0.0
 10
109.1787844969863
 20
64.4303061945993
 30
0.0
 10
109.0991938382277
 20
64.43011335187512
 30
0.0
 10
109.019490078615
 20
64.43008351284912
 30
0.0
 10
108.9666848318352
 20
64.43008453465768
 30
0.0
 10
108.940244364429
 20
64.43008504629427
 30
0.0
  0
SPLINE
  5
1A1
330
1F
100
AcDbEntity
  8
0
  6
Continuous
 62
     7
370
    30
100
AcDbSpline
210
0.0
220
0.0
230
1.0
 70
     8
 71
     3
 72
    15
 73
    11
 74
     0
 42
0.000000001
 43
0.00000001
 40
0.0
 40
0.0
 40
0.0
 40
0.0
 40
0.0639845632748275
 40
0.28768995133908
 40
0.4526931457621579
 40
0.5906219153015793
 40
0.7288514235146905
 40
0.861325392630985
 40
0.9999627493908535
 40
1.0
 40
1.0
 40
1.0
 40
1.0
 10
108.940244364429
 20
64.43008504629427
 30
0.0
 10
108.8933200510097
 20
64.43010944358298
 30
0.0
 10
108.682337077097
 20
64.4302191396478
 30
0.0
 10
108.3694857511365
 20
64.429248494719
 30
0.0
 10
108.0767203534645
 20
64.49037397978962
 30
0.0
 10
107.9019770843013
 20
64.6299228723287
 30
0.0
 10
107.8080663664642
 20
64.8446211721354
 30
0.0
 10
107.7655340002576
 20
65.12109203605368
 30
0.0
 10
107.7579396196963
 20
65.32604498280288
 30
0.0
 10
107.7579388387941
 20
65.43005727054924
 30
0.0
 10
107.7579388385843
 20
65.43008521020704
 30
0.0
  0
LINE
  5
1A2
330
1F
100
AcDbEntity
  8
0
  6
Continuous
 62
     7
370
    30
100
AcDbLine
 10
107.7579388386
 20
65.4300852102
 30
0.0
 11
107.7579388386
 21
71.4300861937
 31
0.0
  0
SPLINE
  5
1A3
330
1F
100
AcDbEntity
  8
0
  6
Continuous
 62
     7
370
    30
100
AcDbSpline
210
0.0
220
0.0
230
1.0
 70
     8
 71
     3
 72
    14
 73
    10
 74
     0
 42
0.000000001
 43
0.00000001
 40
0.0
 40
0.0
 40
0.0
 40
0.0
 40
0.1199894995330598
 40
0.3439716554499438
 40
0.49668884850545
 40
0.6503383677046763
 40
0.7848870621408582
 40
0.9193523183945568
 40
1.0
 40
1.0
 40
1.0
 40
1.0
 10
105.5862099778538
 20
72.43008635759645
 30
0.0
 10
105.6694255647707
 20
72.4301250227218
 30
0.0
 10
105.9079781323074
 20
72.43023586331388
 30
0.0
 10
106.2005371758553
 20
72.42373685180128
 30
0.0
 10
106.4216252348514
 20
72.3320927246406
 30
0.0
 10
106.527023346605
 20
72.15654759267784
 30
0.0
 10
106.5675734590354
 20
71.90347220048486
 30
0.0
 10
106.5772813076247
 20
71.65213958273799
 30
0.0
 10
106.5780529259327
 20
71.49063546847313
 30
0.0
 10
106.5783422122409
 20
71.43008619368368
 30
0.0
  0
LINE
  5
1A4
330
1F
100
AcDbEntity
  8
0
  6
Continuous
 62
     7
370
    30
100
AcDbLine
 10
106.5783422122
 20
71.4300861937
 30
0.0
 11
107.7579388386
 21
71.4300861937
 31
0.0
  0
LINE
  5
1A5
330
1F
100
AcDbEntity
  8
0
  6
Continuous
 62
     7
370
    30
100
AcDbLine
 10
105.5862099779
 20
72.4300863576
 30
0.0
 11
108.9402443644
 21
72.4300863576
 31
0.0
  0
SPLINE
  5
1A6
330
1F
100
AcDbEntity
  8
0
  6
Continuous
 62
     7
370
    30
100
AcDbSpline
210
0.0
220
0.0
230
1.0
 70
     8
 71
     3
 72
    14
 73
    10
 74
     0
 42
0.000000001
 43
0.00000001
 40
0.0
 40
0.0
 40
0.0
 40
0.0
 40
0.1423406573746193
 40
0.2849090436550117
 40
0.4234372522574187
 40
0.5557033528719623
 40
0.6954756720071704
 40
0.9061176342436716
 40
1.0
 40
1.0
 40
1.0
 40
1.0
 10
106.5783422122409
 20
65.43008521020704
 30
0.0
 10
106.577611697995
 20
65.32280458082104
 30
0.0
 10
106.5761495007635
 20
65.10807168521113
 30
0.0
 10
106.5535130634356
 20
64.82405148598446
 30
0.0
 10
106.4873109607113
 20
64.61517882671006
 30
0.0
 10
106.3583828680512
 20
64.4923269529928
 30
0.0
 10
106.1351431940298
 20
64.43244103678653
 30
0.0
 10
105.863620474606
 20
64.43010992567399
 30
0.0
 10
105.6515802493109
 20
64.4300909089845
 30
0.0
 10
105.5862099778538
 20
64.43008504629427
 30
0.0
  0
LINE
  5
1A7
330
1F
100
AcDbEntity
  8
0
  6
Continuous
 62
     7
370
    30
100
AcDbLine
 10
106.5783422122
 20
65.4300852102
 30
0.0
 11
107.7579388386
 21
65.4300852102
 31
0.0
  0
LINE
  5
1A8
330
1F
100
AcDbEntity
  8
0
  6
Continuous
 62
     7
370
    30
100
AcDbLine
 10
105.5862099779
 20
64.4300850463
 30
0.0
 11
108.9402443644
 21
64.4300850463
 31
0.0
  0
LINE
  5
1A9
330
1F
100
AcDbEntity
  8
0
  6
Continuous
 62
     7
370
    30
100
AcDbLine
 10
106.5783422122
 20
71.4300861937
 30
0.0
 11
106.5783422122
 21
65.4300852102
 31
0.0
  0
SPLINE
  5
1AA
330
1F
100
AcDbEntity
  8
0
  6
Continuous
 62
     7
370
    30
100
AcDbSpline
210
0.0
220
0.0
230
1.0
 70
     8
 71
     3
 72
    14
 73
    10
 74
     0
 42
0.000000001
 43
0.00000001
 40
0.0
 40
0.0
 40
0.0
 40
0.0
 40
0.1423405951285722
 40
0.2849094784592627
 40
0.4234374863260824
 40
0.5557034828807703
 40
0.6954757193290614
 40
0.9061172238034486
 40
1.0
 40
1.0
 40
1.0
 40
1.0
 10
104.0084184528028
 20
71.43008619368368
 30
0.0
 10
104.0154861912307
 20
71.53736668239151
 30
0.0
 10
104.0296330034423
 20
71.75209971803038
 30
0.0
 10
104.1486494053503
 20
72.03612222398013
 30
0.0
 10
104.3434383697426
 20
72.24499215597513
 30
0.0
 10
104.6066213133433
 20
72.36784392965552
 30
0.0
 10
104.9587626785178
 20
72.42773367209318
 30
0.0
 10
105.3002841296914
 20
72.4300611024607
 30
0.0
 10
105.5188328770993
 20
72.43008040634078
 30
0.0
 10
105.5862099778538
 20
72.43008635759645
 30
0.0
  0
SPLINE
  5
1AB
330
1F
100
AcDbEntity
  8
0
  6
Continuous
 62
     7
370
    30
100
AcDbSpline
210
0.0
220
0.0
230
1.0
 70
     8
 71
     3
 72
    14
 73
    10
 74
     0
 42
0.000000001
 43
0.00000001
 40
0.0
 40
0.0
 40
0.0
 40
0.0
 40
0.1199896790638101
 40
0.3439716989653579
 40
0.4966894746994853
 40
0.6503388407092642
 40
0.784888174524395
 40
0.9193523095521017
 40
1.0
 40
1.0
 40
1.0
 40
1.0
 10
105.5862099778538
 20
64.43008504629427
 30
0.0
 10
105.4997551304323
 20
64.43004637110998
 30
0.0
 10
105.2519169748229
 20
64.42993550183398
 30
0.0
 10
104.8682492528222
 20
64.4364348191477
 30
0.0
 10
104.4914403787251
 20
64.52807832201495
 30
0.0
 10
104.2382048550077
 20
64.70362402519264
 30
0.0
 10
104.0834332878841
 20
64.95669998043913
 30
0.0
 10
104.0170437744255
 20
65.2080327268269
 30
0.0
 10
104.0107704050842
 20
65.36953594981584
 30
0.0
 10
104.0084184528028
 20
65.43008521020704
 30
0.0
  0
LINE
  5
1AC
330
1F
100
AcDbEntity
  8
0
  6
Continuous
 62
     7
370
    30
100
AcDbLine
 10
104.0084184528
 20
65.4300852102
 30
0.0
 11
104.0084184528
 21
71.4300861937
 31
0.0
  0
SPLINE
  5
1AD
330
1F
100
AcDbEntity
  8
0
  6
Continuous
 62
     7
370
    30
100
AcDbSpline
210
0.0
220
0.0
230
1.0
 70
     8
 71
     3
 72
    32
 73
    28
 74
     0
 42
0.000000001
 43
0.00000001
 40
0.0
 40
0.0
 40
0.0
 40
0.0
 40
0.0503818171455697
 40
0.1014783699331064
 40
0.1367278927676152
 40
0.1722275987784372
 40
0.2085268708297021
 40
0.2451110030840486
 40
0.2796115887227887
 40
0.3143720294868743
 40
0.3499716790400088
 40
0.3858698083786962
 40
0.418747847658501
 40
0.4852583547015194
 40
0.5191807660659451
 40
0.5526868383174602
 40
0.5863838080371985
 40
0.6203474080466324
 40
0.6546551785591266
 40
0.7039635758251341
 40
0.7536489022812505
 40
0.8043845406210719
 40
0.8554471487922897
 40
0.8913163433886164
 40
0.9272927599608745
 40
0.9635913047583619
 40
1.0
 40
1.0
 40
1.0
 40
1.0
 10
111.5084175866728
 20
71.43008619368368
 30
0.0
 10
111.5080640491339
 20
71.46804989740619
 30
0.0
 10
111.5073519586382
 20
71.54451587240769
 30
0.0
 10
111.5023062818941
 20
71.6461296175061
 30
0.0
 10
111.4960154958073
 20
71.73444437288597
 30
0.0
 10
111.4893094840547
 20
71.809914266937
 30
0.0
 10
111.4817586682325
 20
71.88356455233001
 30
0.0
 10
111.4739897276339
 20
71.95317897574832
 30
0.0
 10
111.4666056057966
 20
72.01801096169389
 30
0.0
 10
111.460093161427
 20
72.07811145406457
 30
0.0
 10
111.454908602417
 20
72.13431431036582
 30
0.0
 10
111.4518282439349
 20
72.18445608319729
 30
0.0
 10
111.451046819721
 20
72.2427611164862
 30
0.0
 10
111.4557339702848
 20
72.29054047805577
 30
0.0
 10
111.4672290435304
 20
72.32873810395701
 30
0.0
 10
111.4795281415535
 20
72.35294413634672
 30
0.0
 10
111.4955587963264
 20
72.3728504640601
 30
0.0
 10
111.5155411483961
 20
72.38894723286974
 30
0.0
 10
111.5430145611625
 20
72.40343274468722
 30
0.0
 10
111.5802447527355
 20
72.41498163432294
 30
0.0
 10
111.6298725629136
 20
72.42296670536659
 30
0.0
 10
111.6877562963144
 20
72.42736557170714
 30
0.0
 10
111.7470926302383
 20
72.42917086393972
 30
0.0
 10
111.8048845298353
 20
72.42984787656164
 30
0.0
 10
111.8591576324443
 20
72.43005381495287
 30
0.0
 10
111.9167413904813
 20
72.43008896025373
 30
0.0
 10
111.957852586716
 20
72.43008722602465
 30
0.0
 10
111.9784393262749
 20
72.43008635759645
 30
0.0
  0
LINE
  5
1AE
330
1F
100
AcDbEntity
  8
0
  6
Continuous
 62
     7
370
    30
100
AcDbLine
 10
110.4399000209
 20
71.4300861937
 30
0.0
 11
111.5084175867
 21
71.4300861937
 31
0.0
  0
LINE
  5
1AF
330
1F
100
AcDbEntity
  8
0
  6
Continuous
 62
     7
370
    30
100
AcDbLine
 10
108.9402443644
 20
72.4300863576
 30
0.0
 11
111.9784393263
 21
72.4300863576
 31
0.0
  0
SPLINE
  5
1B0
330
1F
100
AcDbEntity
  8
0
  6
Continuous
 62
     7
370
    30
100
AcDbSpline
210
0.0
220
0.0
230
1.0
 70
     8
 71
     3
 72
    31
 73
    27
 74
     0
 42
0.000000001
 43
0.00000001
 40
0.0
 40
0.0
 40
0.0
 40
0.0
 40
0.0637287919012778
 40
0.1186694231153743
 40
0.1739935387601732
 40
0.2305581775364332
 40
0.2875904546138112
 40
0.3282117677007527
 40
0.3690563025055436
 40
0.4106751418250869
 40
0.4526100466990049
 40
0.4866364270730921
 40
0.5208812336846481
 40
0.5554852695706112
 40
0.5905929996912095
 40
0.6246428743754786
 40
0.6589551219853143
 40
0.693673184567603
 40
0.7289406094179465
 40
0.7616277036689963
 40
0.8278130934435459
 40
0.8613660618233071
 40
0.9299457175098483
 40
0.9647197155194716
 40
0.999962898590236
 40
1.0
 40
1.0
 40
1.0
 40
1.0
 10
111.9784393262749
 20
64.43008504629427
 30
0.0
 10
111.9427580170465
 20
64.43007823668282
 30
0.0
 10
111.8763158288956
 20
64.43006555650109
 30
0.0
 10
111.7895183848742
 20
64.43034021537537
 30
0.0
 10
111.7138543567658
 20
64.43168572504754
 30
0.0
 10
111.6462438510792
 20
64.43540615911073
 30
0.0
 10
111.5931867270046
 20
64.4425434146806
 30
0.0
 10
111.5526359933004
 20
64.45327259190111
 30
0.0
 10
111.5220010282137
 20
64.46684362288777
 30
0.0
 10
111.4966897531673
 20
64.4855443165587
 30
0.0
 10
111.4782163390036
 20
64.50881966211116
 30
0.0
 10
111.4654768775954
 20
64.53601042334293
 30
0.0
 10
111.4572888467651
 20
64.56623618574737
 30
0.0
 10
111.4525636900784
 20
64.60194167681563
 30
0.0
 10
111.451108045605
 20
64.64291414086884
 30
0.0
 10
111.4524590852715
 20
64.68899434514525
 30
0.0
 10
111.4560914065921
 20
64.73989205248034
 30
0.0
 10
111.4615630006066
 20
64.79618875137957
 30
0.0
 10
111.468178690416
 20
64.85604728496438
 30
0.0
 10
111.4776591919598
 20
64.93924250024531
 30
0.0
 10
111.4873089097776
 20
65.02797631772094
 30
0.0
 10
111.4978681058307
 20
65.14645274229255
 30
0.0
 10
111.5043781989056
 20
65.24703966566982
 30
0.0
 10
111.50782142531
 20
65.3507027470865
 30
0.0
 10
111.5084176920834
 20
65.40348901978197
 30
0.0
 10
111.5084175867835
 20
65.43005727053556
 30
0.0
 10
111.5084175866728
 20
65.43008521020704
 30
0.0
  0
LINE
  5
1B1
330
1F
100
AcDbEntity
  8
0
  6
Continuous
 62
     7
370
    30
100
AcDbLine
 10
110.4399000209
 20
65.4300852102
 30
0.0
 11
111.5084175867
 21
65.4300852102
 31
0.0
  0
LINE
  5
1B2
330
1F
100
AcDbEntity
  8
0
  6
Continuous
 62
     7
370
    30
100
AcDbLine
 10
108.9402443644
 20
64.4300850463
 30
0.0
 11
111.9784393263
 21
64.4300850463
 31
0.0
  0
LINE
  5
1B3
330
1F
100
AcDbEntity
  8
0
  6
Continuous
 62
     7
370
    30
100
AcDbLine
 10
111.5084175867
 20
65.4300852102
 30
0.0
 11
111.5084175867
 21
71.4300861937
 31
0.0
  0
SPLINE
  5
1B4
330
1F
100
AcDbEntity
  8
0
  6
Continuous
 62
     7
370
    30
100
AcDbSpline
210
0.0
220
0.0
230
1.0
 70
     8
 71
     3
 72
    14
 73
    10
 74
     0
 42
0.000000001
 43
0.00000001
 40
0.0
 40
0.0
 40
0.0
 40
0.0
 40
0.1423407177717622
 40
0.2849092912591867
 40
0.4234374532564533
 40
0.5557034454249835
 40
0.6954751051885133
 40
0.9061183827149352
 40
1.0
 40
1.0
 40
1.0
 40
1.0
 10
103.0338147570078
 20
65.43008521020704
 30
0.0
 10
103.0383353979337
 20
65.32280454994174
 30
0.0
 10
103.0473839163224
 20
65.1080714970214
 30
0.0
 10
103.1082040774163
 20
64.82405175885047
 30
0.0
 10
103.1645607752667
 20
64.61517882378621
 30
0.0
 10
103.1822284906928
 20
64.49232716522214
 30
0.0
 10
103.1307221989883
 20
64.43244068802251
 30
0.0
 10
102.9992815511238
 20
64.43010997046547
 30
0.0
 10
102.8584602498818
 20
64.43009091949521
 30
0.0
 10
102.8150466185694
 20
64.43008504629427
 30
0.0
  0
LINE
  5
1B5
330
1F
100
AcDbEntity
  8
0
  6
Continuous
 62
     7
370
    30
100
AcDbLine
 10
103.033814757
 20
65.4300852102
 30
0.0
 11
104.0084184528
 21
65.4300852102
 31
0.0
  0
LINE
  5
1B6
330
1F
100
AcDbEntity
  8
0
  6
Continuous
 62
     7
370
    30
100
AcDbLine
 10
102.8150466186
 20
64.4300850463
 30
0.0
 11
105.5862099779
 21
64.4300850463
 31
0.0
  0
SPLINE
  5
1B7
330
1F
100
AcDbEntity
  8
0
  6
Continuous
 62
     7
370
    30
100
AcDbSpline
210
0.0
220
0.0
230
1.0
 70
     8
 71
     3
 72
    27
 73
    23
 74
     0
 42
0.000000001
 43
0.00000001
 40
0.0
 40
0.0
 40
0.0
 40
0.0
 40
0.059963498783457
 40
0.1149385554909618
 40
0.1702972294488711
 40
0.226894029417994
 40
0.2839543539021419
 40
0.3248384183298618
 40
0.3659463010521944
 40
0.4078329630942307
 40
0.4500377441470658
 40
0.518210080368478
 40
0.5531479910213926
 40
0.5883537830479303
 40
0.6914659620647111
 40
0.7268410656539883
 40
0.8588444932639605
 40
0.8929294005993729
 40
0.9272374048416722
 40
0.962236427646788
 40
0.9974727369567153
 40
1.0
 40
1.0
 40
1.0
 40
1.0
 10
111.9784393262749
 20
72.43008635759645
 30
0.0
 10
112.0135492780243
 20
72.43009232963426
 30
0.0
 10
112.080848338608
 20
72.43010377688826
 30
0.0
 10
112.1889641265923
 20
72.4298711094061
 30
0.0
 10
112.2997453417487
 20
72.4286359506459
 30
0.0
 10
112.4166749464824
 20
72.42512846173881
 30
0.0
 10
112.5269862704865
 20
72.4182912268479
 30
0.0
 10
112.628006938287
 20
72.40789825281
 30
0.0
 10
112.7187662217606
 20
72.39463451617715
 30
0.0
 10
112.8105686821316
 20
72.37625056365576
 30
0.0
 10
112.9211855812291
 20
72.34671243179032
 30
0.0
 10
113.0240918413509
 20
72.30819942778751
 30
0.0
 10
113.1167854360553
 20
72.2612834814826
 30
0.0
 10
113.22739056994
 20
72.19369962549099
 30
0.0
 10
113.32570979518
 20
72.10753134083538
 30
0.0
 10
113.4502504908923
 20
71.95094052920956
 30
0.0
 10
113.517842664151
 20
71.81399212182765
 30
0.0
 10
113.5573849887377
 20
71.66946224987228
 30
0.0
 10
113.572198678052
 20
71.59326787452197
 30
0.0
 10
113.5813711410219
 20
71.51517129369567
 30
0.0
 10
113.5837333767491
 20
71.46040481040689
 30
0.0
 10
113.583783689405
 20
71.43198794426328
 30
0.0
 10
113.5837870564942
 20
71.43008619368368
 30
0.0
  0
LINE
  5
1B8
330
1F
100
AcDbEntity
  8
0
  6
Continuous
 62
     7
370
    30
100
AcDbLine
 10
113.5837870565
 20
71.4300861937
 30
0.0
 11
113.5837870565
 21
65.4300852102
 31
0.0
  0
SPLINE
  5
1B9
330
1F
100
AcDbEntity
  8
0
  6
Continuous
 62
     7
370
    30
100
AcDbSpline
210
0.0
220
0.0
230
1.0
 70
     8
 71
     3
 72
    28
 73
    24
 74
     0
 42
0.000000001
 43
0.00000001
 40
0.0
 40
0.0
 40
0.0
 40
0.0
 40
0.0516428253643976
 40
0.1040567750754378
 40
0.1393057425779012
 40
0.1748048547294252
 40
0.2111042330202623
 40
0.2476887267641682
 40
0.2821710155837487
 40
0.3524236229427713
 40
0.3883025775087435
 40
0.4539776000023205
 40
0.5215046502869084
 40
0.6226803066679588
 40
0.6570490333592636
 40
0.7065403576594512
 40
0.7564108784917056
 40
0.8073356851480431
 40
0.8585885224339211
 40
0.8936897354095192
 40
0.9288915155818448
 40
0.9643950091968627
 40
1.0
 40
1.0
 40
1.0
 40
1.0
 10
113.5837870564942
 20
65.43008521020704
 30
0.0
 10
113.5825629167373
 20
65.39118250232046
 30
0.0
 10
113.5800963585185
 20
65.31279619607525
 30
0.0
 10
113.5621233065172
 20
65.20936718742335
 30
0.0
 10
113.5383370059159
 20
65.12028242074517
 30
0.0
 10
113.5114596509152
 20
65.0450103418433
 30
0.0
 10
113.4780630266832
 20
64.97159860430808
 30
0.0
 10
113.4387489828404
 20
64.90226543851355
 30
0.0
 10
113.3792310994868
 20
64.81613454942256
 30
0.0
 10
113.3086641414979
 20
64.73871211795614
 30
0.0
 10
113.2105154178485
 20
64.65683242399193
 30
0.0
 10
113.1034939973535
 20
64.58848143586145
 30
0.0
 10
112.9416875859154
 20
64.51691859508486
 30
0.0
 10
112.792528589873
 20
64.47829587915324
 30
0.0
 10
112.6568488407691
 20
64.45596657932849
 30
0.0
 10
112.5592161744002
 20
64.44464235337331
 30
0.0
 10
112.4513153211935
 20
64.4368713913859
 30
0.0
 10
112.3448557181379
 20
64.43262881532739
 30
0.0
 10
112.2519070445446
 20
64.43092823551011
 30
0.0
 10
112.172414389423
 20
64.43030618208807
 30
0.0
 10
112.1054631851042
 20
64.43011335604267
 30
0.0
 10
112.0403946203272
 20
64.43008351194746
 30
0.0
 10
111.9991107332398
 20
64.43008453435888
 30
0.0
 10
111.9784393262749
 20
64.43008504629427
 30
0.0
  0
LINE
  5
1BA
330
1F
100
AcDbEntity
  8
0
  6
Continuous
 62
     7
370
    30
100
AcDbLine
 10
103.033814757
 20
71.4300861937
 30
0.0
 11
104.0084184528
 21
71.4300861937
 31
0.0
  0
SPLINE
  5
1BB
330
1F
100
AcDbEntity
  8
0
  6
Continuous
 62
     7
370
    30
100
AcDbSpline
210
0.0
220
0.0
230
1.0
 70
     8
 71
     3
 72
    14
 73
    10
 74
     0
 42
0.000000001
 43
0.00000001
 40
0.0
 40
0.0
 40
0.0
 40
0.0
 40
0.1199885721212297
 40
0.3439708385059284
 40
0.4966895209757851
 40
0.6503380809532001
 40
0.7848871162579268
 40
0.9193522869076578
 40
1.0
 40
1.0
 40
1.0
 40
1.0
 10
102.8150466185694
 20
72.43008635759645
 30
0.0
 10
102.8697691609182
 20
72.43012504885193
 30
0.0
 10
103.0266420900992
 20
72.43023596494467
 30
0.0
 10
103.1558311288386
 20
72.42373603668331
 30
0.0
 10
103.1845936484477
 20
72.33209424608481
 30
0.0
 10
103.1399613994537
 20
72.15654623150266
 30
0.0
 10
103.077329962893
 20
71.90347287246891
 30
0.0
 10
103.0390811389459
 20
71.65213938829974
 30
0.0
 10
103.0352507889341
 20
71.49063544372682
 30
0.0
 10
103.0338147570078
 20
71.43008619368368
 30
0.0
  0
LINE
  5
1BC
330
1F
100
AcDbEntity
  8
0
  6
Continuous
 62
     7
370
    30
100
AcDbLine
 10
102.8150466186
 20
72.4300863576
 30
0.0
 11
105.5862099779
 21
72.4300863576
 31
0.0
  0
LINE
  5
1BD
330
1F
100
AcDbEntity
  8
0
  6
Continuous
 62
     7
370
    30
100
AcDbLine
 10
103.033814757
 20
71.4300861937
 30
0.0
 11
103.033814757
 21
65.4300852102
 31
0.0
  0
SPLINE
  5
1BE
330
1F
100
AcDbEntity
  8
0
  6
Continuous
 62
     7
370
    30
100
AcDbSpline
210
0.0
220
0.0
230
1.0
 70
     8
 71
     3
 72
    14
 73
    10
 74
     0
 42
0.000000001
 43
0.00000001
 40
0.0
 40
0.0
 40
0.0
 40
0.0
 40
0.1423406819486655
 40
0.2849092677459976
 40
0.4234374375090979
 40
0.5557037368636186
 40
0.6954757406244189
 40
0.9061173796157869
 40
1.0
 40
1.0
 40
1.0
 40
1.0
 10
101.2645374898498
 20
71.43008619368368
 30
0.0
 10
101.2744270015272
 20
71.53736659858589
 30
0.0
 10
101.2942218591307
 20
71.75209917669177
 30
0.0
 10
101.4525631350479
 20
72.03612277178011
 30
0.0
 10
101.6886011246977
 20
72.24499219985786
 30
0.0
 10
101.9762184937738
 20
72.36784372101688
 30
0.0
 10
102.3208382654745
 20
72.42773379479843
 30
0.0
 10
102.6114483044866
 20
72.43006108767341
 30
0.0
 10
102.7670696779015
 20
72.43008040286345
 30
0.0
 10
102.8150466185694
 20
72.43008635759645
 30
0.0
  0
SPLINE
  5
1BF
330
1F
100
AcDbEntity
  8
0
  6
Continuous
 62
     7
370
    30
100
AcDbSpline
210
0.0
220
0.0
230
1.0
 70
     8
 71
     3
 72
    14
 73
    10
 74
     0
 42
0.000000001
 43
0.00000001
 40
0.0
 40
0.0
 40
0.0
 40
0.0
 40
0.1199897310003145
 40
0.3439714384878453
 40
0.4966894531703665
 40
0.6503384056705533
 40
0.7848881885565434
 40
0.9193523754374122
 40
1.0
 40
1.0
 40
1.0
 40
1.0
 10
102.8150466185694
 20
64.43008504629427
 30
0.0
 10
102.7529587684018
 20
64.43004636071949
 30
0.0
 10
102.5749731444929
 20
64.42993546178927
 30
0.0
 10
102.2386093134391
 20
64.43643509496555
 30
0.0
 10
101.8557491914243
 20
64.52807782073924
 30
0.0
 10
101.5642111795208
 20
64.70362493286956
 30
0.0
 10
101.367112218556
 20
64.95669945134067
 30
0.0
 10
101.2764719662476
 20
65.20803259141707
 30
0.0
 10
101.2677917805155
 20
65.36953594599709
 30
0.0
 10
101.2645374898498
 20
65.43008521020704
 30
0.0
  0
LINE
  5
1C0
330
1F
100
AcDbEntity
  8
0
  6
Continuous
 62
     7
370
    30
100
AcDbLine
 10
101.2645374898
 20
65.4300852102
 30
0.0
 11
101.2645374898
 21
71.4300861937
 31
0.0
  0
SPLINE
  5
1C1
330
1F
100
AcDbEntity
  8
0
  6
Continuous
 62
     7
370
    30
100
AcDbSpline
210
0.0
220
0.0
230
1.0
 70
     8
 71
     3
 72
    28
 73
    24
 74
     0
 42
0.000000001
 43
0.00000001
 40
0.0
 40
0.0
 40
0.0
 40
0.0
 40
0.0651349335671126
 40
0.131193814498066
 40
0.1767654302165895
 40
0.2226603572009642
 40
0.2695884015512773
 40
0.316885453164661
 40
0.3614896709736654
 40
0.4064282590177703
 40
0.4524521982474957
 40
0.4988633866303975
 40
0.5412181124601986
 40
0.5838719733090849
 40
0.6274291724353418
 40
0.6712853931527839
 40
0.7144865698067545
 40
0.7579346345217391
 40
0.8020761260692544
 40
0.8464286136814646
 40
0.9101751383007962
 40
0.9744107738868404
 40
1.0
 40
1.0
 40
1.0
 40
1.0
 10
114.2549167302136
 20
71.43008619368368
 30
0.0
 10
114.2539921042098
 20
71.46804987447514
 30
0.0
 10
114.2521297362639
 20
71.54451575572591
 30
0.0
 10
114.2386393163369
 20
71.64612983114584
 30
0.0
 10
114.2210182172794
 20
71.73444429629421
 30
0.0
 10
114.2012791720657
 20
71.80991366959064
 30
0.0
 10
114.1774391199494
 20
71.88356518275913
 30
0.0
 10
114.1503890323808
 20
71.95317981976686
 30
0.0
 10
114.1210178652306
 20
72.01800957242062
 30
0.0
 10
114.0898899201313
 20
72.07811172830746
 30
0.0
 10
114.0569588288313
 20
72.13431573726143
 30
0.0
 10
114.0240226483017
 20
72.18439761697171
 30
0.0
 10
113.9920760521564
 20
72.22822349346156
 30
0.0
 10
113.9616116245499
 20
72.26629583384089
 30
0.0
 10
113.9322185146267
 20
72.29988768531182
 30
0.0
 10
113.9047418958239
 20
72.3287150183275
 30
0.0
 10
113.8798179073928
 20
72.35288287456876
 30
0.0
 10
113.8577613082706
 20
72.37280388638986
 30
0.0
 10
113.8388335662767
 20
72.38892050563902
 30
0.0
 10
113.8210307795919
 20
72.40345435928846
 30
0.0
 10
113.8073373117037
 20
72.41486073166658
 30
0.0
 10
113.8000649748716
 20
72.42165202382058
 30
0.0
 10
113.8009959164209
 20
72.42357594541413
 30
0.0
 10
113.8012611222153
 20
72.42412403047376
 30
0.0
  0
SPLINE
  5
1C2
330
1F
100
AcDbEntity
  8
0
  6
Continuous
 62
     7
370
    30
100
AcDbSpline
210
0.0
220
0.0
230
1.0
 70
     8
 71
     3
 72
    12
 73
     8
 74
     0
 42
0.000000001
 43
0.00000001
 40
0.0
 40
0.0
 40
0.0
 40
0.0
 40
0.2610428960185828
 40
0.4444050335978829
 40
0.6283123693032411
 40
0.8138827991425579
 40
1.0
 40
1.0
 40
1.0
 40
1.0
 10
113.8018469241147
 20
72.42695338845544
 30
0.0
 10
113.8044717502294
 20
72.42780122027264
 30
0.0
 10
113.8089403105906
 20
72.42924458737039
 30
0.0
 10
113.8231360308042
 20
72.42983106964341
 30
0.0
 10
113.8396800948417
 20
72.43005835356064
 30
0.0
 10
113.8604379896411
 20
72.43008781685461
 30
0.0
 10
113.8779462300926
 20
72.43008684449265
 30
0.0
 10
113.8867132280652
 20
72.43008635759645
 30
0.0
  0
LINE
  5
1C3
330
1F
100
AcDbEntity
  8
0
  6
Continuous
 62
     7
370
    30
100
AcDbLine
 10
113.5837870565
 20
71.4300861937
 30
0.0
 11
114.2549167302
 21
71.4300861937
 31
0.0
  0
LINE
  5
1C4
330
1F
100
AcDbEntity
  8
0
  6
Continuous
 62
     7
370
    30
100
AcDbLine
 10
111.9784393263
 20
72.4300863576
 30
0.0
 11
113.8867132281
 21
72.4300863576
 31
0.0
  0
SPLINE
  5
1C5
330
1F
100
AcDbEntity
  8
0
  6
Continuous
 62
     7
370
    30
100
AcDbSpline
210
0.0
220
0.0
230
1.0
 70
     8
 71
     3
 72
    10
 73
     6
 74
     0
 42
0.000000001
 43
0.00000001
 40
0.0
 40
0.0
 40
0.0
 40
0.0
 40
0.3662713241043585
 40
0.6820316817258913
 40
1.0
 40
1.0
 40
1.0
 40
1.0
 10
113.8867132280652
 20
64.43008504629427
 30
0.0
 10
113.8719358771816
 20
64.43008864471666
 30
0.0
 10
113.8444190588796
 20
64.43009534531788
 30
0.0
 10
113.8178811279418
 20
64.43023967829498
 30
0.0
 10
113.8092450100908
 20
64.43145021190502
 30
0.0
 10
113.8049119067077
 20
64.4320575875073
 30
0.0
  0
LWPOLYLINE
  5
1C6
330
1F
100
AcDbEntity
  8
0
  6
Continuous
 62
     7
370
    30
100
AcDbPolyline
 90
       25
 70
   128
 43
0.0
 10
113.8005798598
 20
64.435792191
 10
113.8002478433
 20
64.4360790384
 10
113.8065375303
 20
64.4443417323
 10
113.817666835
 20
64.4539194536
 10
113.8342825611
 20
64.4675689173
 10
113.8565532778
 20
64.4864840788
 10
113.8840254311
 20
64.5115143043
 10
113.90951573
 20
64.5366600138
 10
113.9376630922
 20
64.5667491835
 10
113.9684316617
 20
64.6026516688
 10
114.0008519319
 20
64.6442314965
 10
114.0328316864
 20
64.6895105374
 10
114.0650028278
 20
64.7400552762
 10
114.0971497548
 20
64.7966368479
 10
114.1280147162
 20
64.8582326603
 10
114.1545620662
 20
64.91879843
 10
114.1788784329
 20
64.9829050881
 10
114.2007524063
 20
65.0510983896
 10
114.2194002782
 20
65.122137813
 10
114.2345156436
 20
65.1960531604
 10
114.2456402917
 20
65.2719615382
 10
114.2525697973
 20
65.3504478169
 10
114.2549167302
 20
65.4300013912
 10
114.2549167302
 20
65.4300852102
 10
114.2549167302
 20
65.4300852102
  0
LINE
  5
1C7
330
1F
100
AcDbEntity
  8
0
  6
Continuous
 62
     7
370
    30
100
AcDbLine
 10
113.5837870565
 20
65.4300852102
 30
0.0
 11
114.2549167302
 21
65.4300852102
 31
0.0
  0
LINE
  5
1C8
330
1F
100
AcDbEntity
  8
0
  6
Continuous
 62
     7
370
    30
100
AcDbLine
 10
111.9784393263
 20
64.4300850463
 30
0.0
 11
113.8867132281
 21
64.4300850463
 31
0.0
  0
LINE
  5
1C9
330
1F
100
AcDbEntity
  8
0
  6
Continuous
 62
     7
370
    30
100
AcDbLine
 10
114.2549167302
 20
65.4300852102
 30
0.0
 11
114.2549167302
 21
71.4300861937
 31
0.0
  0
SPLINE
  5
1CA
330
1F
100
AcDbEntity
  8
0
  6
Continuous
 62
     7
370
    30
100
AcDbSpline
210
0.0
220
0.0
230
1.0
 70
     8
 71
     3
 72
    19
 73
    15
 74
     0
 42
0.000000001
 43
0.00000001
 40
0.0
 40
0.0
 40
0.0
 40
0.0
 40
0.0798756592686924
 40
0.1620101231304634
 40
0.2419489085324342
 40
0.3243271940970724
 40
0.40196295102593
 40
0.482069156312428
 40
0.5563402378395224
 40
0.6325662270798987
 40
0.7112333892284181
 40
0.7914787510905323
 40
0.9096542012779727
 40
1.0
 40
1.0
 40
1.0
 40
1.0
 10
100.7560707543676
 20
65.43008521020704
 30
0.0
 10
100.7581281662755
 20
65.37719271614564
 30
0.0
 10
100.7623011716641
 20
65.26991198063725
 30
0.0
 10
100.7956011047496
 20
65.11402638847107
 30
0.0
 10
100.8472520188903
 20
64.96551243182697
 30
0.0
 10
100.914492489404
 20
64.83287730177153
 30
0.0
 10
100.9928031116166
 20
64.71741292847977
 30
0.0
 10
101.073662015031
 20
64.62525790042345
 30
0.0
 10
101.1529131665367
 20
64.5540681079231
 30
0.0
 10
101.2254980568731
 20
64.50245758788974
 30
0.0
 10
101.2894321446661
 20
64.46723832752491
 30
0.0
 10
101.347654670448
 20
64.4428267799492
 30
0.0
 10
101.3885610429173
 20
64.43242378024593
 30
0.0
 10
101.3898796104719
 20
64.43149770313815
 30
0.0
 10
101.3904509049539
 20
64.4310964626103
 30
0.0
  0
LINE
  5
1CB
330
1F
100
AcDbEntity
  8
0
  6
Continuous
 62
     7
370
    30
100
AcDbLine
 10
101.3928728093
 20
64.4302526844
 30
0.0
 11
101.3692884621
 21
64.4300850463
 31
0.0
  0
LINE
  5
1CC
330
1F
100
AcDbEntity
  8
0
  6
Continuous
 62
     7
370
    30
100
AcDbLine
 10
100.7560707544
 20
65.4300852102
 30
0.0
 11
101.2645374898
 21
65.4300852102
 31
0.0
  0
LINE
  5
1CD
330
1F
100
AcDbEntity
  8
0
  6
Continuous
 62
     7
370
    30
100
AcDbLine
 10
101.3692884621
 20
64.4300850463
 30
0.0
 11
102.8150466186
 21
64.4300850463
 31
0.0
  0
LINE
  5
1CE
330
1F
100
AcDbEntity
  8
0
  6
Continuous
 62
     7
370
    30
100
AcDbLine
 10
100.7560707544
 20
71.4300861937
 30
0.0
 11
101.2645374898
 21
71.4300861937
 31
0.0
  0
SPLINE
  5
1CF
330
1F
100
AcDbEntity
  8
0
  6
Continuous
 62
     7
370
    30
100
AcDbSpline
210
0.0
220
0.0
230
1.0
 70
     8
 71
     3
 72
    20
 73
    16
 74
     0
 42
0.000000001
 43
0.00000001
 40
0.0
 40
0.0
 40
0.0
 40
0.0
 40
0.0596228168132118
 40
0.1197310389703069
 40
0.2300448526567935
 40
0.3439167184589241
 40
0.419314183201102
 40
0.4966554246486202
 40
0.5721675768740805
 40
0.6505388250542266
 40
0.7168704557838912
 40
0.7851396499534277
 40
0.8515034988527822
 40
0.919608422095376
 40
1.0
 40
1.0
 40
1.0
 40
1.0
 10
101.3692861337845
 20
72.43008635759645
 30
0.0
 10
101.3762758946033
 20
72.43009246809437
 30
0.0
 10
101.3903123217584
 20
72.4301047388374
 30
0.0
 10
101.3977179955696
 20
72.42976980229501
 30
0.0
 10
101.3807361921152
 20
72.42665091244652
 30
0.0
 10
101.3245627337997
 20
72.40936731476461
 30
0.0
 10
101.2490169313939
 20
72.37213958879671
 30
0.0
 10
101.1695260385385
 20
72.31974362624119
 30
0.0
 10
101.0795221854926
 20
72.24170656630643
 30
0.0
 10
100.9919618357168
 20
72.14213068219249
 30
0.0
 10
100.9133631492233
 20
72.02486504886957
 30
0.0
 10
100.8493519258292
 20
71.8986000860627
 30
0.0
 10
100.7996837708378
 20
71.7591693841983
 30
0.0
 10
100.7636693881184
 20
71.60259103351375
 30
0.0
 10
100.7587395965357
 20
71.49067447913554
 30
0.0
 10
100.7560707543676
 20
71.43008619368368
 30
0.0
  0
LINE
  5
1D0
330
1F
100
AcDbEntity
  8
0
  6
Continuous
 62
     7
370
    30
100
AcDbLine
 10
101.3692861338
 20
72.4300863576
 30
0.0
 11
102.8150466186
 21
72.4300863576
 31
0.0
  0
SPLINE
  5
1D1
330
1F
100
AcDbEntity
  8
0
  6
Continuous
 62
     7
370
    30
100
AcDbSpline
210
0.0
220
0.0
230
1.0
 70
     8
 71
     3
 72
    21
 73
    17
 74
     0
 42
0.000000001
 43
0.00000001
 40
0.0
 40
0.0
 40
0.0
 40
0.0
 40
0.0599624929436388
 40
0.1701969143744385
 40
0.2837327039615757
 40
0.3656656675624889
 40
0.449673346976679
 40
0.5178443465298357
 40
0.5879179935240307
 40
0.6561375256743973
 40
0.7265338753877774
 40
0.7918791829278362
 40
0.8589627029592138
 40
0.9272981808063916
 40
0.9974728052892903
 40
1.0
 40
1.0
 40
1.0
 40
1.0
 10
113.8867132280652
 20
72.43008635759645
 30
0.0
 10
113.9029733456777
 20
72.43008802953321
 30
0.0
 10
113.949125893865
 20
72.43009277514109
 30
0.0
 10
114.0560486874088
 20
72.42965806807707
 30
0.0
 10
114.2016399450531
 20
72.4214011305743
 30
0.0
 10
114.3564537427347
 20
72.3969606574309
 30
0.0
 10
114.4973969149593
 20
72.35777262779847
 30
0.0
 10
114.6349678710809
 20
72.29891646630952
 30
0.0
 10
114.7603995696231
 20
72.2235326323476
 30
0.0
 10
114.8781511251526
 20
72.12607734304052
 30
0.0
 10
114.9786716701741
 20
72.01171649823111
 30
0.0
 10
115.0599906628771
 20
71.88266783787485
 30
0.0
 10
115.1199569342151
 20
71.74351053882773
 30
0.0
 10
115.1581236147851
 20
71.59298199213553
 30
0.0
 10
115.1674910296395
 20
71.48669646344914
 30
0.0
 10
115.1675970603982
 20
71.43198792237715
 30
0.0
 10
115.1676007461433
 20
71.43008619368368
 30
0.0
  0
LINE
  5
1D2
330
1F
100
AcDbEntity
  8
0
  6
Continuous
 62
     7
370
    30
100
AcDbLine
 10
115.1676007461
 20
71.4300861937
 30
0.0
 11
115.1676007461
 21
65.4300852102
 31
0.0
  0
SPLINE
  5
1D3
330
1F
100
AcDbEntity
  8
0
  6
Continuous
 62
     7
370
    30
100
AcDbSpline
210
0.0
220
0.0
230
1.0
 70
     8
 71
     3
 72
    21
 73
    17
 74
     0
 42
0.000000001
 43
0.00000001
 40
0.0
 40
0.0
 40
0.0
 40
0.0
 40
0.0516600409660318
 40
0.1040915197245335
 40
0.1748007441707814
 40
0.2476373395083021
 40
0.3168201057298821
 40
0.3882280590577815
 40
0.4539251321068793
 40
0.5214746163494957
 40
0.5886003789775277
 40
0.6571579819966816
 40
0.7564599551039656
 40
0.8585913240339922
 40
0.9288933027756893
 40
1.0
 40
1.0
 40
1.0
 40
1.0
 10
115.1676007461433
 20
65.43008521020704
 30
0.0
 10
115.1662490701611
 20
65.39118025363602
 30
0.0
 10
115.1635255336611
 20
65.31278937398193
 30
0.0
 10
115.1389476915672
 20
65.1830883651383
 30
0.0
 10
115.0920489360694
 20
65.04270081898368
 30
0.0
 10
115.0160116277234
 20
64.90131717948086
 30
0.0
 10
114.918038055397
 20
64.77490998382955
 30
0.0
 10
114.806319393548
 20
64.67112820384133
 30
0.0
 10
114.6846707583463
 20
64.58849763586416
 30
0.0
 10
114.5608684289242
 20
64.52731438930458
 30
0.0
 10
114.4362538184313
 20
64.48397075934193
 30
0.0
 10
114.2986517265669
 20
64.45210158403239
 30
0.0
 10
114.1549428356681
 20
64.43503321765259
 30
0.0
 10
114.0341587021087
 20
64.43062818862805
 30
0.0
 10
113.9449408215125
 20
64.4300503982018
 30
0.0
 10
113.9061959214591
 20
64.43007345319687
 30
0.0
 10
113.8867132280652
 20
64.43008504629427
 30
0.0
  0
LINE
  5
1D4
330
1F
100
AcDbEntity
  8
0
  6
Continuous
 62
     7
370
    30
100
AcDbLine
 10
100.7560707544
 20
71.4300861937
 30
0.0
 11
100.7560707544
 21
65.4300852102
 31
0.0
  0
SPLINE
  5
1D5
330
1F
100
AcDbEntity
  8
0
  6
Continuous
 62
     7
370
    30
100
AcDbSpline
210
0.0
220
0.0
230
1.0
 70
     8
 71
     3
 72
    33
 73
    29
 74
     0
 42
0.000000001
 43
0.00000001
 40
0.0
 40
0.0
 40
0.0
 40
0.0
 40
0.0349862429107419
 40
0.0702091405107455
 40
0.1061786355847107
 40
0.1424082640514326
 40
0.1774173742782515
 40
0.2126768152956283
 40
0.2487426174491189
 40
0.2850987838854889
 40
0.3190935293832757
 40
0.3533450810548378
 40
0.388413079713863
 40
0.4237686832496745
 40
0.4563011716210512
 40
0.4890512299644013
 40
0.5224460228937918
 40
0.5560467723522408
 40
0.5905218244787069
 40
0.6251821602224347
 40
0.6603599141550683
 40
0.6956946957698898
 40
0.7474409948320219
 40
0.7995764822690158
 40
0.8528206070002744
 40
0.906423446041893
 40
0.9530962555420126
 40
1.0
 40
1.0
 40
1.0
 40
1.0
 10
100.261516115505
 20
71.43008619368368
 30
0.0
 10
100.262118501168
 20
71.45644390735619
 30
0.0
 10
100.2633273471639
 20
71.50933762410925
 30
0.0
 10
100.2731761714421
 20
71.58879585618794
 30
0.0
 10
100.2890905525821
 20
71.66808640231874
 30
0.0
 10
100.3114535050187
 20
71.74553308714695
 30
0.0
 10
100.3396611647993
 20
71.82024234585504
 30
0.0
 10
100.3735092977149
 20
71.89210899849482
 30
0.0
 10
100.4132712991122
 20
71.9615257976123
 30
0.0
 10
100.4576166714218
 20
72.02619874163436
 30
0.0
 10
100.5054838604828
 20
72.08550740552516
 30
0.0
 10
100.5562806193427
 20
72.13960344238713
 30
0.0
 10
100.6106844735629
 20
72.189450622042
 30
0.0
 10
100.6663491474856
 20
72.23327216211297
 30
0.0
 10
100.722007341484
 20
72.27107494278451
 30
0.0
 10
100.7770771788902
 20
72.3034189610266
 30
0.0
 10
100.8325734467785
 20
72.33139826597125
 30
0.0
 10
100.8882028693387
 20
72.3552491389959
 30
0.0
 10
100.9430716125509
 20
72.37500428154024
 30
0.0
 10
100.9967516591136
 20
72.39097234262849
 30
0.0
 10
101.0483615565236
 20
72.4034129333789
 30
0.0
 10
101.104971516835
 20
72.41420441270601
 30
0.0
 10
101.1642438665585
 20
72.42221118380212
 30
0.0
 10
101.2234196375047
 20
72.42711467124623
 30
0.0
 10
101.2749640549225
 20
72.42933204923969
 30
0.0
 10
101.3160127664293
 20
72.42999298832059
 30
0.0
 10
101.3479691821433
 20
72.43009189976237
 30
0.0
 10
101.3621688022891
 20
72.430088208022
 30
0.0
 10
101.3692861337845
 20
72.43008635759645
 30
0.0
  0
SPLINE
  5
1D6
330
1F
100
AcDbEntity
  8
0
  6
Continuous
 62
     7
370
    30
100
AcDbSpline
210
0.0
220
0.0
230
1.0
 70
     8
 71
     3
 72
    31
 73
    27
 74
     0
 42
0.000000001
 43
0.00000001
 40
0.0
 40
0.0
 40
0.0
 40
0.0
 40
0.0595725441034069
 40
0.1196320639941982
 40
0.1745931866708146
 40
0.2299507943850648
 40
0.2866383271228532
 40
0.3438602148412928
 40
0.3814482202620494
 40
0.4192457312767612
 40
0.4577747906301167
 40
0.4965938744980153
 40
0.5341963393098068
 40
0.5721239945371795
 40
0.6111276936641064
 40
0.6505256294140521
 40
0.683574025250754
 40
0.7168587153144338
 40
0.7508721177468871
 40
0.7851305381265049
 40
0.8182028281996944
 40
0.8514886414620358
 40
0.8854292828978387
 40
0.9195896451035656
 40
0.9596172386466676
 40
1.0
 40
1.0
 40
1.0
 40
1.0
 10
101.3692884620909
 20
64.43008504629427
 30
0.0
 10
101.3600054263519
 20
64.43008005501218
 30
0.0
 10
101.3413634706941
 20
64.43007003164679
 30
0.0
 10
101.2996056189587
 20
64.43030797046067
 30
0.0
 10
101.2492737623208
 20
64.43170985279234
 30
0.0
 10
101.1903073120366
 20
64.43539518998273
 30
0.0
 10
101.1213974611557
 20
64.44316387397265
 30
0.0
 10
101.0519813784364
 20
64.45560376346711
 30
0.0
 10
100.9863842549778
 20
64.47195096054445
 30
0.0
 10
100.9271723723222
 20
64.49038958923167
 30
0.0
 10
100.8650216880791
 20
64.51417023978864
 30
0.0
 10
100.8014185430675
 20
64.54370358435862
 30
0.0
 10
100.7375567110049
 20
64.57920367457463
 30
0.0
 10
100.6739894809432
 20
64.62108295675388
 30
0.0
 10
100.6109428766088
 20
64.67021249999993
 30
0.0
 10
100.5531214366019
 20
64.72357150151622
 30
0.0
 10
100.5014672101635
 20
64.77938198771402
 30
0.0
 10
100.4558066311613
 20
64.83655712892093
 30
0.0
 10
100.4136006454185
 20
64.89835012205448
 30
0.0
 10
100.3760091956591
 20
64.96354669746215
 30
0.0
 10
100.3435012036575
 20
65.03126732021512
 30
0.0
 10
100.3161260471071
 20
65.10126622196383
 30
0.0
 10
100.2937972370715
 20
65.17410657629821
 30
0.0
 10
100.27611819312
 20
65.25351968935307
 30
0.0
 10
100.2639124283073
 20
65.33907935148936
 30
0.0
 10
100.262317235064
 20
65.39966072917326
 30
0.0
 10
100.261516115505
 20
65.43008521020704
 30
0.0
  0
LINE
  5
1D7
330
1F
100
AcDbEntity
  8
0
  6
Continuous
 62
     7
370
    30
100
AcDbLine
 10
100.2615161155
 20
65.4300852102
 30
0.0
 11
100.2615161155
 21
71.4300861937
 31
0.0
  0
SPLINE
  5
1D8
330
1F
100
AcDbEntity
  8
0
  6
Continuous
 62
     7
370
    30
100
AcDbSpline
210
0.0
220
0.0
230
1.0
 70
     8
 71
     3
 72
    10
 73
     6
 74
     0
 42
0.000000001
 43
0.00000001
 40
0.0
 40
0.0
 40
0.0
 40
0.0
 40
0.3549457459217965
 40
0.7149264709653667
 40
1.0
 40
1.0
 40
1.0
 40
1.0
 10
115.2615148489063
 20
71.43008619368368
 30
0.0
 10
115.2601331862874
 20
71.46800520311913
 30
0.0
 10
115.2573502618785
 20
71.54438111101396
 30
0.0
 10
115.2402250220902
 20
71.65050506705177
 30
0.0
 10
115.2176357713737
 20
71.71541825550392
 30
0.0
 10
115.2076527391259
 20
71.74410581410223
 30
0.0
  0
LINE
  5
1D9
330
1F
100
AcDbEntity
  8
0
  6
Continuous
 62
     7
370
    30
100
AcDbLine
 10
115.1676007461
 20
71.4300861937
 30
0.0
 11
115.2615148489
 21
71.4300861937
 31
0.0
  0
LINE
  5
1DA
330
1F
100
AcDbEntity
  8
0
  6
Continuous
 62
     7
370
    30
100
AcDbLine
 10
113.8867132281
 20
72.4300863576
 30
0.0
 11
114.2615156163
 21
72.4300863576
 31
0.0
  0
LWPOLYLINE
  5
1DB
330
1F
100
AcDbEntity
  8
0
  6
Continuous
 62
     7
370
    30
100
AcDbPolyline
 90
        6
 70
   128
 43
0.0
 10
115.2069854465
 20
65.1076594722
 10
115.2129123834
 20
65.122137813
 10
115.2489345436
 20
65.2719615382
 10
115.2615148489
 20
65.4300013912
 10
115.2615148489
 20
65.4300852102
 10
115.2615148489
 20
65.4300852102
  0
LINE
  5
1DC
330
1F
100
AcDbEntity
  8
0
  6
Continuous
 62
     7
370
    30
100
AcDbLine
 10
115.1676007461
 20
65.4300852102
 30
0.0
 11
115.2615148489
 21
65.4300852102
 31
0.0
  0
LINE
  5
1DD
330
1F
100
AcDbEntity
  8
0
  6
Continuous
 62
     7
370
    30
100
AcDbLine
 10
113.8867132281
 20
64.4300850463
 30
0.0
 11
114.2615156163
 21
64.4300850463
 31
0.0
  0
LINE
  5
1DE
330
1F
100
AcDbEntity
  8
0
  6
Continuous
 62
     7
370
    30
100
AcDbLine
 10
101.2615153481
 20
64.4300850463
 30
0.0
 11
101.3692884621
 21
64.4300850463
 31
0.0
  0
LINE
  5
1DF
330
1F
100
AcDbEntity
  8
0
  6
Continuous
 62
     7
370
    30
100
AcDbLine
 10
101.2615153481
 20
72.4300863576
 30
0.0
 11
101.3692861338
 21
72.4300863576
 31
0.0
  0
LINE
  5
1E0
330
1F
100
AcDbEntity
  8
0
  6
Continuous
 62
     7
370
    30
100
AcDbLine
 10
115.2615148489
 20
65.4300852102
 30
0.0
 11
115.2615148489
 21
71.4300861937
 31
0.0
  0
CIRCLE
  5
1E1
330
1F
100
AcDbEntity
  8
0
  6
Continuous
 62
     7
370
    30
100
AcDbCircle
 10
107.7615154822
 20
48.0800858122
 30
0.0
 40
8.999999999999993
  0
CIRCLE
  5
1E2
330
1F
100
AcDbEntity
  8
0
  6
Continuous
 62
     7
370
    30
100
AcDbCircle
 10
107.7615154822
 20
48.0800858122
 30
0.0
 40
3.552699999999994
  0
CIRCLE
  5
1E3
330
1F
100
AcDbEntity
  8
0
  6
Continuous
 62
     7
370
    30
100
AcDbCircle
 10
107.7615154822
 20
48.0800858122
 30
0.0
 40
2.552699999999993
  0
CIRCLE
  5
1E4
330
1F
100
AcDbEntity
  8
0
  6
Continuous
 62
     7
370
    30
100
AcDbCircle
 10
107.7615154822
 20
48.0800858122
 30
0.0
 40
12.49999999999999
  0
CIRCLE
  5
1E5
330
1F
100
AcDbEntity
  8
0
  6
Continuous
 62
     7
370
    30
100
AcDbCircle
 10
107.7615154822
 20
48.0800858122
 30
0.0
 40
11.49999999999999
  0
CIRCLE
  5
1E6
330
1F
100
AcDbEntity
  8
0
  6
Continuous
 62
     7
370
    30
100
AcDbCircle
 10
107.7615154822
 20
48.0800858122
 30
0.0
 40
9.499999999999979
  0
LINE
  5
1E7
330
1F
100
AcDbEntity
  8
0
  6
Continuous
 62
     8
370
    30
100
AcDbLine
 10
105.2913604685
 20
63.9300858957
 30
0.0
 11
110.2316704959
 21
63.9300858957
 31
0.0
  0
ARC
  5
1E8
330
1F
100
AcDbEntity
  8
SLD-0
  6
HIDDEN
100
AcDbCircle
 10
107.7615154822
 20
46.2300858122
 30
0.0
 40
5.500000000000011
100
AcDbArc
 50
199.0735311144
 51
340.9264688856
  0
ARC
  5
1E9
330
1F
100
AcDbEntity
  8
SLD-0
  6
HIDDEN
100
AcDbCircle
 10
107.7615154822
 20
48.0800858122
 30
0.0
 40
6.350000000000015
100
AcDbArc
 50
324.9439483129
 51
215.0560516871
  0
DIMENSION
  5
1EA
330
1F
100
AcDbEntity
  8
SLD-0
100
AcDbDimension
  2
_D_5
 10
113.3556872926
 20
45.0754657437
 30
0.0
 11
82.8635246851
 21
60.122122063
 31
0.0
 70
   163
  1
<>
 71
     1
 42
-1.0
  3
SLDDIMSTYLE2
100
AcDbDiametricDimension
 15
102.1673436719
 25
51.0847058808
 35
0.0
 40
0.0
  0
DIMENSION
  5
1F4
330
1F
100
AcDbEntity
  8
SLD-0
100
AcDbDimension
  2
_D_6
 10
131.4323495087
 20
35.5800858122
 30
0.0
 11
131.4323495087
 21
54.0050858122
 31
0.0
 70
   160
  1
Max.: <>
 71
     2
 42
-1.0
  3
SLDDIMSTYLE3
100
AcDbAlignedDimension
 13
108.9402443985
 23
72.4300858122
 33
0.0
 14
107.7615154822
 24
35.5800858122
 34
0.0
 50
90.0
100
AcDbRotatedDimension
  0
DIMENSION
  5
200
330
1F
100
AcDbEntity
  8
SLD-0
100
AcDbDimension
  2
_D_7
 10
109.5665469625
 20
49.8851172925
 30
0.0
 11
82.8635246851
 21
34.853969948
 31
0.0
 70
   163
  1
1 HOLE,\P1/4"-20
 71
     1
 42
-1.0
  3
SLDDIMSTYLE4
100
AcDbDiametricDimension
 15
105.9564840019
 25
46.2750543319
 35
0.0
 40
0.0
  0
INSERT
  5
215
330
1F
100
AcDbEntity
  8
SLD-0
100
AcDbBlockReference
  2
SW_CENTERMARKSYMBOL_1
 10
107.7615154822
 20
48.0800858122
 30
0.0
  0
SPLINE
  5
216
330
1F
100
AcDbEntity
  8
0
  6
Continuous
 62
     7
370
    30
100
AcDbSpline
210
0.0
220
0.0
230
1.0
 70
     8
 71
     3
 72
    10
 73
     6
 74
     0
 42
0.000000001
 43
0.00000001
 40
0.0
 40
0.0
 40
0.0
 40
0.0
 40
0.0985097752456823
 40
0.6546253761711602
 40
0.9999999999999999
 40
0.9999999999999999
 40
0.9999999999999999
 40
0.9999999999999999
 10
232.1552766165885
 20
156.8636180024824
 30
0.0
 10
232.1300350639117
 20
156.9055638369796
 30
0.0
 10
231.9622977924073
 20
157.1843057955119
 30
0.0
 10
231.6726589528807
 20
157.5875627918393
 30
0.0
 10
231.3930550630731
 20
157.9244076347163
 30
0.0
 10
231.2859345579232
 20
158.0534580200703
 30
0.0
  0
SPLINE
  5
217
330
1F
100
AcDbEntity
  8
0
  6
Continuous
 62
     7
370
    30
100
AcDbSpline
210
0.0
220
0.0
230
1.0
 70
     8
 71
     3
 72
    10
 73
     6
 74
     0
 42
0.000000001
 43
0.00000001
 40
0.0
 40
0.0
 40
0.0
 40
0.0
 40
0.0814565581727709
 40
0.6475723975852719
 40
1.0
 40
1.0
 40
1.0
 40
1.0
 10
233.6156911041016
 20
153.5624666124435
 30
0.0
 10
233.6073808876386
 20
153.5989323935918
 30
0.0
 10
233.5413154053726
 20
153.8888321126297
 30
0.0
 10
233.3930422534
 20
154.3424550437653
 30
0.0
 10
233.2263238406048
 20
154.7531971523198
 30
0.0
 10
233.1623571648611
 20
154.910791066703
 30
0.0
  0
SPLINE
  5
218
330
1F
100
AcDbEntity
  8
0
  6
Continuous
 62
     7
370
    30
100
AcDbSpline
210
0.0
220
0.0
230
1.0
 70
     8
 71
     3
 72
    10
 73
     6
 74
     0
 42
0.000000001
 43
0.00000001
 40
0.0
 40
0.0
 40
0.0
 40
0.0
 40
0.0670390513453097
 40
0.6727064432830172
 40
1.0
 40
1.0
 40
1.0
 40
1.0
 10
229.7512346818893
 20
159.56665882522
 30
0.0
 10
229.7294228940453
 20
159.5850903833006
 30
0.0
 10
229.5105515059849
 20
159.7700427003718
 30
0.0
 10
229.171267429258
 20
160.0015713805979
 30
0.0
 10
228.8503852318449
 20
160.1776977011857
 30
0.0
 10
228.7378160232087
 20
160.2394848638529
 30
0.0
  0
SPLINE
  5
219
330
1F
100
AcDbEntity
  8
0
  6
Continuous
 62
     7
370
    30
100
AcDbSpline
210
0.0
220
0.0
230
1.0
 70
     8
 71
     3
 72
     9
 73
     5
 74
     0
 42
0.000000001
 43
0.00000001
 40
0.0
 40
0.0
 40
0.0
 40
0.0
 40
0.6033004862521774
 40
1.0
 40
1.0
 40
1.0
 40
1.0
 10
233.8389455029926
 20
150.3553030559876
 30
0.0
 10
233.8695165656953
 20
150.57416968911
 30
0.0
 10
233.9201895941436
 20
150.9369518152808
 30
0.0
 10
233.9126139969719
 20
151.3255354697039
 30
0.0
 10
233.9096087612575
 20
151.4796864164637
 30
0.0
  0
SPLINE
  5
21A
330
1F
100
AcDbEntity
  8
0
  6
Continuous
 62
     7
370
    30
100
AcDbSpline
210
0.0
220
0.0
230
1.0
 70
     8
 71
     3
 72
     9
 73
     5
 74
     0
 42
0.000000001
 43
0.00000001
 40
0.0
 40
0.0
 40
0.0
 40
0.0
 40
0.4606827873339991
 40
1.0
 40
1.0
 40
1.0
 40
1.0
 10
219.8732408686527
 20
157.7434862151931
 30
0.0
 10
219.7703041891096
 20
157.6559475821817
 30
0.0
 10
219.5468604608582
 20
157.4659282556121
 30
0.0
 10
219.3724636993644
 20
157.2242298092128
 30
0.0
 10
219.2784085240576
 20
157.093877676795
 30
0.0
  0
SPLINE
  5
21B
330
1F
100
AcDbEntity
  8
0
  6
Continuous
 62
     7
370
    30
100
AcDbSpline
210
0.0
220
0.0
230
1.0
 70
     8
 71
     3
 72
     9
 73
     5
 74
     0
 42
0.000000001
 43
0.00000001
 40
0.0
 40
0.0
 40
0.0
 40
0.0
 40
0.6423290737492633
 40
1.0
 40
1.0
 40
1.0
 40
1.0
 10
225.5517748489089
 20
144.6896115292874
 30
0.0
 10
225.7530171536109
 20
144.6648719229097
 30
0.0
 10
226.0663180968912
 20
144.6263564525866
 30
0.0
 10
226.3691488488765
 20
144.6608346500467
 30
0.0
 10
226.4774626044363
 20
144.6731664988677
 30
0.0
  0
SPLINE
  5
21C
330
1F
100
AcDbEntity
  8
0
  6
Continuous
 62
     7
370
    30
100
AcDbSpline
210
0.0
220
0.0
230
1.0
 70
     8
 71
     3
 72
     9
 73
     5
 74
     0
 42
0.000000001
 43
0.00000001
 40
0.0
 40
0.0
 40
0.0
 40
0.0
 40
0.6430331747328257
 40
1.0
 40
1.0
 40
1.0
 40
1.0
 10
226.8483917466858
 20
160.9182688995794
 30
0.0
 10
226.6477338270889
 20
160.9429474435415
 30
0.0
 10
226.3356847330741
 20
160.9813257806661
 30
0.0
 10
226.0340639130617
 20
160.9470026793312
 30
0.0
 10
225.9263952865074
 20
160.9347504708144
 30
0.0
  0
SPLINE
  5
21D
330
1F
100
AcDbEntity
  8
0
  6
Continuous
 62
     7
370
    30
100
AcDbSpline
210
0.0
220
0.0
230
1.0
 70
     8
 71
     3
 72
     9
 73
     5
 74
     0
 42
0.000000001
 43
0.00000001
 40
0.0
 40
0.0
 40
0.0
 40
0.0
 40
0.4992287830388632
 40
1.0
 40
1.0
 40
1.0
 40
1.0
 10
232.527960807589
 20
147.8636089442945
 30
0.0
 10
232.6314572951188
 20
147.9510749047541
 30
0.0
 10
232.8387700363832
 20
148.1262770634258
 30
0.0
 10
233.0007027636199
 20
148.3492925050847
 30
0.0
 10
233.081794012504
 20
148.4609722192052
 30
0.0
  0
SPLINE
  5
21E
330
1F
100
AcDbEntity
  8
0
  6
Continuous
 62
     7
370
    30
100
AcDbSpline
210
0.0
220
0.0
230
1.0
 70
     8
 71
     3
 72
    10
 73
     6
 74
     0
 42
0.000000001
 43
0.00000001
 40
0.0
 40
0.0
 40
0.0
 40
0.0
 40
0.0111570304068651
 40
0.6203165677391768
 40
1.0
 40
1.0
 40
1.0
 40
1.0
 10
218.5631726795239
 20
155.2515618323033
 30
0.0
 10
218.5623063658122
 20
155.2476799557911
 30
0.0
 10
218.5141404355783
 20
155.031852605088
 30
0.0
 10
218.4852105474009
 20
154.657032308017
 30
0.0
 10
218.4905289614943
 20
154.2740791126787
 30
0.0
 10
218.492571058955
 20
154.1270375822513
 30
0.0
  0
SPLINE
  5
21F
330
1F
100
AcDbEntity
  8
0
  6
Continuous
 62
     7
370
    30
100
AcDbSpline
210
0.0
220
0.0
230
1.0
 70
     8
 71
     3
 72
    10
 73
     6
 74
     0
 42
0.000000001
 43
0.00000001
 40
0.0
 40
0.0
 40
0.0
 40
0.0
 40
0.0738910968330287
 40
0.6761591157536393
 40
0.9999999999999999
 40
0.9999999999999999
 40
0.9999999999999999
 40
0.9999999999999999
 10
222.6435719066395
 20
146.0470573979255
 30
0.0
 10
222.6677455249822
 20
146.0266172313017
 30
0.0
 10
222.8889523158369
 20
145.8395743319193
 30
0.0
 10
223.2300788053568
 20
145.6064943852611
 30
0.0
 10
223.5504091807354
 20
145.4306876584617
 30
0.0
 10
223.6624220030491
 20
145.3692117287211
 30
0.0
  0
SPLINE
  5
220
330
1F
100
AcDbEntity
  8
0
  6
Continuous
 62
     7
370
    30
100
AcDbSpline
210
0.0
220
0.0
230
1.0
 70
     8
 71
     3
 72
    10
 73
     6
 74
     0
 42
0.000000001
 43
0.00000001
 40
0.0
 40
0.0
 40
0.0
 40
0.0
 40
0.0857940100662733
 40
0.6507220910264709
 40
1.0
 40
1.0
 40
1.0
 40
1.0
 10
218.7848117740489
 20
152.0513563005797
 30
0.0
 10
218.7935751791968
 20
152.0128690457094
 30
0.0
 10
218.8600430050736
 20
151.7209546457682
 30
0.0
 10
219.0084565663851
 20
151.2663903731013
 30
0.0
 10
219.174740551615
 20
150.856722998361
 30
0.0
 10
219.2382703504747
 20
150.7002071085074
 30
0.0
  0
SPLINE
  5
221
330
1F
100
AcDbEntity
  8
0
  6
Continuous
 62
     7
370
    30
100
AcDbSpline
210
0.0
220
0.0
230
1.0
 70
     8
 71
     3
 72
    10
 73
     6
 74
     0
 42
0.000000001
 43
0.00000001
 40
0.0
 40
0.0
 40
0.0
 40
0.0
 40
0.1009025398773123
 40
0.6570585803341449
 40
1.0
 40
1.0
 40
1.0
 40
1.0
 10
220.2447896034597
 20
148.7471730913735
 30
0.0
 10
220.2706391161493
 20
148.7042094061626
 30
0.0
 10
220.4389663369582
 20
148.4244378756842
 30
0.0
 10
220.7285134911984
 20
148.0211480285989
 30
0.0
 10
221.0073523378083
 20
147.6852126773418
 30
0.0
 10
221.1137094282858
 20
147.5570773512111
 30
0.0
  0
LINE
  5
222
330
1F
100
AcDbEntity
  8
0
  6
Continuous
 62
     7
370
    30
100
AcDbLine
 10
251.8046367877
 20
170.8310644216
 30
0.0
 11
249.5622940495
 21
173.4597790711
 31
0.0
  0
LINE
  5
223
330
1F
100
AcDbEntity
  8
0
  6
Continuous
 62
     7
370
    30
100
AcDbLine
 10
231.6188638391
 20
173.4597790711
 30
0.0
 11
229.3765211009
 21
170.8310644216
 31
0.0
  0
LINE
  5
224
330
1F
100
AcDbEntity
  8
0
  6
Continuous
 62
     7
370
    30
100
AcDbLine
 10
253.0905789443
 20
109.5054492341
 30
0.0
 11
253.0905789443
 21
167.6431550403
 31
0.0
  0
LINE
  5
225
330
1F
100
AcDbEntity
  8
0
  6
Continuous
 62
     7
370
    30
100
AcDbLine
 10
228.0905789443
 20
167.6431550403
 30
0.0
 11
228.0905789443
 21
160.1886185927
 31
0.0
  0
LINE
  5
226
330
1F
100
AcDbEntity
  8
0
  6
Continuous
 62
     7
370
    30
100
AcDbLine
 10
228.0905789443
 20
145.3038317234
 30
0.0
 11
228.0905789443
 21
109.5054492341
 31
0.0
  0
LINE
  5
227
330
1F
100
AcDbEntity
  8
0
  6
Continuous
 62
     7
370
    30
100
AcDbLine
 10
231.7503079703
 20
104.4037277758
 30
0.0
 11
232.4575296482
 21
103.9953246806
 31
0.0
  0
LINE
  5
228
330
1F
100
AcDbEntity
  8
0
  6
Continuous
 62
     7
370
    30
100
AcDbLine
 10
248.7236282403
 20
103.9953246806
 30
0.0
 11
249.4308499182
 21
104.4037277758
 31
0.0
  0
ARC
  5
229
330
1F
100
AcDbEntity
  8
0
  6
Continuous
 62
     7
370
    30
100
AcDbCircle
 10
229.4351335378
 20
154.6540969694
 30
0.0
 40
10.74612879032784
100
AcDbArc
 50
207.1707852561
 51
224.9840313275
  0
ARC
  5
22A
330
1F
100
AcDbEntity
  8
0
  6
Continuous
 62
     7
370
    30
100
AcDbCircle
 10
228.6234350023
 20
154.3649317428
 30
0.0
 40
9.89260606440985
100
AcDbArc
 50
188.9969136535
 51
207.8275983359
  0
ARC
  5
22B
330
1F
100
AcDbEntity
  8
0
  6
Continuous
 62
     7
370
    30
100
AcDbCircle
 10
224.1520938747
 20
153.7590207586
 30
0.0
 40
5.38246729869935
100
AcDbArc
 50
161.7163554102
 51
190.0697434212
  0
ARC
  5
22C
330
1F
100
AcDbEntity
  8
0
  6
Continuous
 62
     7
370
    30
100
AcDbCircle
 10
221.3760611551
 20
154.6799099949
 30
0.0
 40
2.457682202465348
100
AcDbArc
 50
113.6359726896
 51
161.7978870368
  0
ARC
  5
22D
330
1F
100
AcDbEntity
  8
0
  6
Continuous
 62
     7
370
    30
100
AcDbCircle
 10
221.3876479925
 20
154.1215513314
 30
0.0
 40
2.981482003358114
100
AcDbArc
 50
67.2828095425
 51
109.5345012519
  0
ARC
  5
22E
330
1F
100
AcDbEntity
  8
0
  6
Continuous
 62
     7
370
    30
100
AcDbCircle
 10
220.0268862325
 20
150.5523731493
 30
0.0
 40
6.80038955018733
100
AcDbArc
 50
44.0966421747
 51
68.3205204397
  0
ARC
  5
22F
330
1F
100
AcDbEntity
  8
0
  6
Continuous
 62
     7
370
    30
100
AcDbCircle
 10
217.3099241069
 20
147.6880225982
 30
0.0
 40
10.74612879032404
100
AcDbArc
 50
27.170785256
 51
44.9840313275
  0
ARC
  5
230
330
1F
100
AcDbEntity
  8
0
  6
Continuous
 62
     7
370
    30
100
AcDbCircle
 10
218.1216226425
 20
147.9771878249
 30
0.0
 40
9.892606064407166
100
AcDbArc
 50
8.9969136535
 51
27.8275983359
  0
ARC
  5
231
330
1F
100
AcDbEntity
  8
0
  6
Continuous
 62
     7
370
    30
100
AcDbCircle
 10
222.5929637701
 20
148.583098809
 30
0.0
 40
5.382467298700679
100
AcDbArc
 50
341.7163554102
 51
10.0697434212
  0
ARC
  5
232
330
1F
100
AcDbEntity
  8
0
  6
Continuous
 62
     7
370
    30
100
AcDbCircle
 10
225.3689957793
 20
147.6622100629
 30
0.0
 40
2.457683030305321
100
AcDbArc
 50
293.63606806
 51
341.7978813551
  0
ARC
  5
233
330
1F
100
AcDbEntity
  8
0
  6
Continuous
 62
     7
370
    30
100
AcDbCircle
 10
225.3574095582
 20
148.2205644204
 30
0.0
 40
2.981478272393273
100
AcDbArc
 50
247.2828542006
 51
289.5345973126
  0
ARC
  5
234
330
1F
100
AcDbEntity
  8
0
  6
Continuous
 62
     7
370
    30
100
AcDbCircle
 10
226.7181690913
 20
151.7897434114
 30
0.0
 40
6.800385790954089
100
AcDbArc
 50
224.0966375878
 51
248.3205605374
  0
LINE
  5
235
330
1F
100
AcDbEntity
  8
0
  6
Continuous
 62
     7
370
    30
100
AcDbLine
 10
224.6332345876
 20
148.7355912641
 30
0.0
 11
225.2835712576
 21
150.474773242
 31
0.0
  0
LINE
  5
236
330
1F
100
AcDbEntity
  8
0
  6
Continuous
 62
     7
370
    30
100
AcDbLine
 10
225.2835712576
 20
150.474773242
 30
0.0
 11
224.0228654924
 21
152.9102417617
 31
0.0
  0
LINE
  5
237
330
1F
100
AcDbEntity
  8
0
  6
Continuous
 62
     7
370
    30
100
AcDbLine
 10
224.0228654924
 20
152.9102417617
 30
0.0
 11
222.1118230571
 21
153.6065283035
 31
0.0
  0
LINE
  5
238
330
1F
100
AcDbEntity
  8
0
  6
Continuous
 62
     7
370
    30
100
AcDbLine
 10
222.1118230571
 20
153.6065283035
 30
0.0
 11
221.4614863872
 21
151.8673463257
 31
0.0
  0
LINE
  5
239
330
1F
100
AcDbEntity
  8
0
  6
Continuous
 62
     7
370
    30
100
AcDbLine
 10
221.4614863872
 20
151.8673463257
 30
0.0
 11
222.7221921524
 21
149.431877806
 31
0.0
  0
LINE
  5
23A
330
1F
100
AcDbEntity
  8
0
  6
Continuous
 62
     7
370
    30
100
AcDbLine
 10
222.7221921524
 20
149.431877806
 30
0.0
 11
224.6332345876
 21
148.7355912641
 31
0.0
  0
SPLINE
  5
23B
330
1F
100
AcDbEntity
  8
0
  6
Continuous
 62
     7
370
    30
100
AcDbSpline
210
0.0
220
0.0
230
1.0
 70
     8
 71
     3
 72
    14
 73
    10
 74
     0
 42
0.000000001
 43
0.00000001
 40
0.0
 40
0.0
 40
0.0
 40
0.0
 40
0.1016668178018491
 40
0.2451503566277797
 40
0.3857179482619052
 40
0.5189947498256845
 40
0.654524881172073
 40
0.8551934607833536
 40
1.0
 40
1.0
 40
1.0
 40
1.0
 10
228.6736928834757
 20
151.9866695139178
 30
0.0
 10
228.6160248119305
 20
151.9563487061723
 30
0.0
 10
228.4769691336766
 20
151.88323579684
 30
0.0
 10
228.2019513006918
 20
151.7957504598087
 30
0.0
 10
227.8842498348877
 20
151.766306421084
 30
0.0
 10
227.5849829837875
 20
151.8301190690369
 30
0.0
 10
227.2910128618077
 20
152.0043226268888
 30
0.0
 10
227.0514546531834
 20
152.273720285541
 30
0.0
 10
226.9237415560285
 20
152.5002368592079
 30
0.0
 10
226.8702103735966
 20
152.5951817027589
 30
0.0
  0
SPLINE
  5
23C
330
1F
100
AcDbEntity
  8
0
  6
Continuous
 62
     7
370
    30
100
AcDbSpline
210
0.0
220
0.0
230
1.0
 70
     8
 71
     3
 72
    15
 73
    11
 74
     0
 42
0.000000001
 43
0.00000001
 40
0.0
 40
0.0
 40
0.0
 40
0.0
 40
0.0601603551658501
 40
0.2838320692036749
 40
0.4497758847407952
 40
0.5879888622246087
 40
0.7265187921582589
 40
0.85895394037878
 40
0.9974639071650983
 40
1.0
 40
1.0
 40
1.0
 40
1.0
 10
226.8702103735966
 20
152.5951817027589
 30
0.0
 10
226.8502132806824
 20
152.6354453158424
 30
0.0
 10
226.7558684875994
 20
152.8254060397045
 30
0.0
 10
226.6508784951648
 20
153.1406149388354
 30
0.0
 10
226.6501093451369
 20
153.5106744082727
 30
0.0
 10
226.7639759722722
 20
153.8096255698965
 30
0.0
 10
226.956053459231
 20
154.0546465395229
 30
0.0
 10
227.1896590677948
 20
154.2557470238057
 30
0.0
 10
227.3464166580858
 20
154.359440766449
 30
0.0
 10
227.4212788534314
 20
154.4027408810794
 30
0.0
 10
227.4226249206504
 20
154.4035194431374
 30
0.0
  0
LINE
  5
23D
330
1F
100
AcDbEntity
  8
0
  6
Continuous
 62
     7
370
    30
100
AcDbLine
 10
227.4226249207
 20
154.4035194431
 30
0.0
 11
231.6652656078
 21
156.8527437786
 31
0.0
  0
SPLINE
  5
23E
330
1F
100
AcDbEntity
  8
0
  6
Continuous
 62
     7
370
    30
100
AcDbSpline
210
0.0
220
0.0
230
1.0
 70
     8
 71
     3
 72
    14
 73
    10
 74
     0
 42
0.000000001
 43
0.00000001
 40
0.0
 40
0.0
 40
0.0
 40
0.0
 40
0.1042081919727641
 40
0.247646152844042
 40
0.388094394440649
 40
0.5212797162840379
 40
0.6570207294505674
 40
0.8583721397204777
 40
1.0
 40
1.0
 40
1.0
 40
1.0
 10
231.6652656077696
 20
156.8527437786056
 30
0.0
 10
231.7189701582968
 20
156.8815691573082
 30
0.0
 10
231.8465966440507
 20
156.9500713931193
 30
0.0
 10
232.004540437697
 20
156.9886666551264
 30
0.0
 10
232.1251460328386
 20
156.9364041943315
 30
0.0
 10
232.205438720544
 20
156.7819983850072
 30
0.0
 10
232.2819482735043
 20
156.5175788310733
 30
0.0
 10
232.3726827232964
 20
156.1885962564654
 30
0.0
 10
232.4819460584981
 20
155.9566094353774
 30
0.0
 10
232.527064623089
 20
155.8608141500498
 30
0.0
  0
SPLINE
  5
23F
330
1F
100
AcDbEntity
  8
0
  6
Continuous
 62
     7
370
    30
100
AcDbSpline
210
0.0
220
0.0
230
1.0
 70
     8
 71
     3
 72
    15
 73
    11
 74
     0
 42
0.000000001
 43
0.00000001
 40
0.0
 40
0.0
 40
0.0
 40
0.0
 40
0.0639847162768258
 40
0.287689422183446
 40
0.45269350705873
 40
0.5906213491086685
 40
0.7288516567764014
 40
0.8613250307213988
 40
0.9999621028787014
 40
1.0
 40
1.0
 40
1.0
 40
1.0
 10
232.527064623089
 20
155.8608141500498
 30
0.0
 10
232.5498248848153
 20
155.8185979519559
 30
0.0
 10
232.6521600505515
 20
155.6287845974065
 30
0.0
 10
232.85717292085
 20
155.3524721788491
 30
0.0
 10
233.0813681569327
 20
155.0753985159271
 30
0.0
 10
233.1993776111041
 20
154.8730475415925
 30
0.0
 10
233.2080491543609
 20
154.7112141094713
 30
0.0
 10
233.1123202884485
 20
154.5671749232951
 30
0.0
 10
232.9898996352909
 20
154.478364364182
 30
0.0
 10
232.9163536692502
 20
154.4359054525652
 30
0.0
 10
232.916333570595
 20
154.4358938493859
 30
0.0
  0
LINE
  5
240
330
1F
100
AcDbEntity
  8
0
  6
Continuous
 62
     7
370
    30
100
AcDbLine
 10
232.9163335706
 20
154.4358938494
 30
0.0
 11
228.6736928835
 21
151.9866695139
 31
0.0
  0
SPLINE
  5
241
330
1F
100
AcDbEntity
  8
0
  6
Continuous
 62
     7
370
    30
100
AcDbSpline
210
0.0
220
0.0
230
1.0
 70
     8
 71
     3
 72
    14
 73
    10
 74
     0
 42
0.000000001
 43
0.00000001
 40
0.0
 40
0.0
 40
0.0
 40
0.0
 40
0.1016668178018472
 40
0.2451503566277765
 40
0.3857179482619028
 40
0.5189947498256812
 40
0.6545248811720726
 40
0.855193460783354
 40
1.0
 40
1.0
 40
1.0
 40
1.0
 10
226.733475969394
 20
155.349361713325
 30
0.0
 10
226.6768204463089
 20
155.3165256371451
 30
0.0
 10
226.5402063376986
 20
155.2373476323662
 30
0.0
 10
226.2869518400302
 20
155.0926562447605
 30
0.0
 10
225.9994522242112
 20
154.9605576481038
 30
0.0
 10
225.7220775350503
 20
154.8971324321446
 30
0.0
 10
225.4303553420428
 20
154.9231676712157
 30
0.0
 10
225.1613077574301
 20
155.0569206609226
 30
0.0
 10
224.9847194572765
 20
155.2173294204706
 30
0.0
 10
224.9107021425183
 20
155.2845650506631
 30
0.0
  0
ARC
  5
242
330
1F
100
AcDbEntity
  8
0
  6
Continuous
 62
     7
370
    30
100
AcDbCircle
 10
216.9463889111
 20
147.4944233638
 30
0.0
 40
12.54938761699826
100
AcDbArc
 50
33.4049215003
 51
38.7498950833
  0
ARC
  5
243
330
1F
100
AcDbEntity
  8
0
  6
Continuous
 62
     7
370
    30
100
AcDbCircle
 10
217.9085535571
 20
147.8031591192
 30
0.0
 40
11.54945816643965
100
AcDbArc
 50
15.5875659706
 51
21.2369460188
  0
SPLINE
  5
244
330
1F
100
AcDbEntity
  8
0
  6
Continuous
 62
     7
370
    30
100
AcDbSpline
210
0.0
220
0.0
230
1.0
 70
     8
 71
     3
 72
    15
 73
    11
 74
     0
 42
0.000000001
 43
0.00000001
 40
0.0
 40
0.0
 40
0.0
 40
0.0
 40
0.0601603551660014
 40
0.2838320692038296
 40
0.4497758847409163
 40
0.5879888622247176
 40
0.7265187921583472
 40
0.8589539403788782
 40
0.9974639071651985
 40
1.0
 40
1.0
 40
1.0
 40
1.0
 10
227.8925176576438
 20
149.5242060367513
 30
0.0
 10
227.8876289746907
 20
149.5634579036983
 30
0.0
 10
227.8645645330925
 20
149.7486452847392
 30
0.0
 10
227.8842061924203
 20
150.0177614703881
 30
0.0
 10
228.0282016160196
 20
150.2859385568876
 30
0.0
 10
228.2489674711372
 20
150.480092802548
 30
0.0
 10
228.5141433641975
 20
150.6348996871547
 30
0.0
 10
228.7905635180561
 20
150.7741379481756
 30
0.0
 10
228.9569658739527
 20
150.8626345482018
 30
0.0
 10
229.0318859807707
 20
150.9058462192818
 30
0.0
 10
229.0332330892727
 20
150.9066231910716
 30
0.0
  0
SPLINE
  5
245
330
1F
100
AcDbEntity
  8
0
  6
Continuous
 62
     7
370
    30
100
AcDbSpline
210
0.0
220
0.0
230
1.0
 70
     8
 71
     3
 72
    14
 73
    10
 74
     0
 42
0.000000001
 43
0.00000001
 40
0.0
 40
0.0
 40
0.0
 40
0.0
 40
0.1016668178019517
 40
0.2451503566278844
 40
0.3857179482619962
 40
0.5189947498257715
 40
0.6545248811721716
 40
0.8551934607834859
 40
1.0
 40
1.0
 40
1.0
 40
1.0
 10
229.382935859422
 20
148.5148132931201
 30
0.0
 10
229.3252268833945
 20
148.4867727928114
 30
0.0
 10
229.1860725716964
 20
148.4191584147937
 30
0.0
 10
228.9115367925578
 20
148.382621946615
 30
0.0
 10
228.6045788416452
 20
148.4382159657786
 30
0.0
 10
228.3359732979056
 20
148.5962146755765
 30
0.0
 10
228.1036498100702
 20
148.8633219871468
 30
0.0
 10
227.9557339790265
 20
149.1950038254114
 30
0.0
 10
227.911188836896
 20
149.4269749204238
 30
0.0
 10
227.8925176576438
 20
149.5242060367513
 30
0.0
  0
LINE
  5
246
330
1F
100
AcDbEntity
  8
0
  6
Continuous
 62
     7
370
    30
100
AcDbLine
 10
229.0332330893
 20
150.9066231911
 30
0.0
 11
233.2758737764
 21
153.3558475265
 31
0.0
  0
SPLINE
  5
247
330
1F
100
AcDbEntity
  8
0
  6
Continuous
 62
     7
370
    30
100
AcDbSpline
210
0.0
220
0.0
230
1.0
 70
     8
 71
     3
 72
    10
 73
     6
 74
     0
 42
0.000000001
 43
0.00000001
 40
0.0
 40
0.0
 40
0.0
 40
0.0
 40
0.332782149213517
 40
0.790842038689852
 40
1.0
 40
1.0
 40
1.0
 40
1.0
 10
233.275873776392
 20
153.3558475265398
 30
0.0
 10
233.3275047687472
 20
153.386567055209
 30
0.0
 10
233.4502035353435
 20
153.4595706545239
 30
0.0
 10
233.5584139674152
 20
153.5434107101168
 30
0.0
 10
233.5800239855153
 20
153.5535443273642
 30
0.0
 10
233.5867982457128
 20
153.5567209910606
 30
0.0
  0
LINE
  5
248
330
1F
100
AcDbEntity
  8
0
  6
Continuous
 62
     7
370
    30
100
AcDbLine
 10
233.6157441734
 20
153.5727779746
 30
0.0
 11
233.6141111173
 21
153.5620534169
 31
0.0
  0
SPLINE
  5
249
330
1F
100
AcDbEntity
  8
0
  6
Continuous
 62
     7
370
    30
100
AcDbSpline
210
0.0
220
0.0
230
1.0
 70
     8
 71
     3
 72
    10
 73
     6
 74
     0
 42
0.000000001
 43
0.00000001
 40
0.0
 40
0.0
 40
0.0
 40
0.0
 40
0.2835497424776964
 40
0.7041532078394099
 40
0.9999999999999999
 40
0.9999999999999999
 40
0.9999999999999999
 40
0.9999999999999999
 10
233.6073478378142
 20
153.5176378100801
 30
0.0
 10
233.5950889402415
 20
153.475571972471
 30
0.0
 10
233.5646458089058
 20
153.3711077813413
 30
0.0
 10
233.5185058388471
 20
153.1023242822052
 30
0.0
 10
233.5403512078338
 20
152.8811633782629
 30
0.0
 10
233.5493719071362
 20
152.7898384840421
 30
0.0
  0
SPLINE
  5
24A
330
1F
100
AcDbEntity
  8
0
  6
Continuous
 62
     7
370
    30
100
AcDbSpline
210
0.0
220
0.0
230
1.0
 70
     8
 71
     3
 72
    15
 73
    11
 74
     0
 42
0.000000001
 43
0.00000001
 40
0.0
 40
0.0
 40
0.0
 40
0.0
 40
0.063984716276751
 40
0.2876894221833665
 40
0.4526935070586683
 40
0.5906213491086141
 40
0.7288516567763491
 40
0.8613250307213508
 40
0.9999621028786488
 40
1.0
 40
1.0
 40
1.0
 40
1.0
 10
233.5493719071362
 20
152.7898384840421
 30
0.0
 10
233.5564990584695
 20
152.7473888957531
 30
0.0
 10
233.5885443056503
 20
152.5565261673167
 30
0.0
 10
233.6974441954867
 20
152.2389929197705
 30
0.0
 10
233.8434899791913
 20
151.8657268210235
 30
0.0
 10
233.9236808591611
 20
151.5628170681661
 30
0.0
 10
233.918841516332
 20
151.3136495698484
 30
0.0
 10
233.8211824305389
 20
151.1095830117155
 30
0.0
 10
233.6991426048989
 20
151.0065094261769
 30
0.0
 10
233.6255966451948
 20
150.964049232118
 30
0.0
 10
233.6255765465413
 20
150.9640376285883
 30
0.0
  0
LINE
  5
24B
330
1F
100
AcDbEntity
  8
0
  6
Continuous
 62
     7
370
    30
100
AcDbLine
 10
233.6255765465
 20
150.9640376286
 30
0.0
 11
229.3829358594
 21
148.5148132931
 31
0.0
  0
SPLINE
  5
24C
330
1F
100
AcDbEntity
  8
0
  6
Continuous
 62
     7
370
    30
100
AcDbSpline
210
0.0
220
0.0
230
1.0
 70
     8
 71
     3
 72
    15
 73
    11
 74
     0
 42
0.000000001
 43
0.00000001
 40
0.0
 40
0.0
 40
0.0
 40
0.0
 40
0.0601603551658475
 40
0.283832069203672
 40
0.4497758847407992
 40
0.5879888622246138
 40
0.7265187921582557
 40
0.858953940378782
 40
0.9974639071650967
 40
1.0
 40
1.0
 40
1.0
 40
1.0
 10
224.9107021425183
 20
155.2845650506631
 30
0.0
 10
224.8809591962247
 20
155.315054319447
 30
0.0
 10
224.7406341936966
 20
155.4589004158274
 30
0.0
 10
224.5389052247713
 20
155.7356039086639
 30
0.0
 10
224.4048375620355
 20
156.1148888660958
 30
0.0
 10
224.4074712682667
 20
156.4536447535523
 30
0.0
 10
224.5154535815301
 20
156.7465896094699
 30
0.0
 10
224.6958969256247
 20
156.9858289912125
 30
0.0
 10
224.8401325041088
 20
157.0995220790178
 30
0.0
 10
224.9149207270573
 20
157.1428791017512
 30
0.0
 10
224.9162654642082
 20
157.1436586870511
 30
0.0
  0
LINE
  5
24D
330
1F
100
AcDbEntity
  8
0
  6
Continuous
 62
     7
370
    30
100
AcDbLine
 10
224.9162654642
 20
157.1436586871
 30
0.0
 11
229.1589061513
 21
159.5928830225
 31
0.0
  0
SPLINE
  5
24E
330
1F
100
AcDbEntity
  8
0
  6
Continuous
 62
     7
370
    30
100
AcDbSpline
210
0.0
220
0.0
230
1.0
 70
     8
 71
     3
 72
    14
 73
    10
 74
     0
 42
0.000000001
 43
0.00000001
 40
0.0
 40
0.0
 40
0.0
 40
0.0
 40
0.10420819197271
 40
0.2476461528439904
 40
0.388094394440611
 40
0.5212797162840005
 40
0.65702072945052
 40
0.8583721397204155
 40
1.0
 40
1.0
 40
1.0
 40
1.0
 10
229.1589061513275
 20
159.5928830225192
 30
0.0
 10
229.2146286320238
 20
159.6201183421348
 30
0.0
 10
229.3470506394507
 20
159.6848418729496
 30
0.0
 10
229.549775000754
 20
159.6899522876455
 30
0.0
 10
229.7505660499348
 20
159.5894517886026
 30
0.0
 10
229.9316006321444
 20
159.3945725179604
 30
0.0
 10
230.1278767551649
 20
159.1115906793699
 30
0.0
 10
230.3307382363534
 20
158.8043125152699
 30
0.0
 10
230.4983455890171
 20
158.6244633596753
 30
0.0
 10
230.5675563920107
 20
158.5501974979539
 30
0.0
  0
SPLINE
  5
24F
330
1F
100
AcDbEntity
  8
0
  6
Continuous
 62
     7
370
    30
100
AcDbSpline
210
0.0
220
0.0
230
1.0
 70
     8
 71
     3
 72
    15
 73
    11
 74
     0
 42
0.000000001
 43
0.00000001
 40
0.0
 40
0.0
 40
0.0
 40
0.0
 40
0.0639847162767512
 40
0.2876894221833679
 40
0.4526935070586699
 40
0.5906213491086221
 40
0.7288516567763541
 40
0.8613250307213517
 40
0.9999621028786505
 40
1.0
 40
1.0
 40
1.0
 40
1.0
 10
230.5675563920107
 20
158.5501974979539
 30
0.0
 10
230.5998466265879
 20
158.5195238631663
 30
0.0
 10
230.7450306559658
 20
158.3816084236396
 30
0.0
 10
230.991407293141
 20
158.2206606401911
 30
0.0
 10
231.2220974620195
 20
158.1073351693835
 30
0.0
 10
231.3198647854491
 20
158.0444991702165
 30
0.0
 10
231.2990452152017
 20
157.989879762842
 30
0.0
 10
231.178514285679
 20
157.9142232109607
 30
0.0
 10
231.0496832805174
 20
157.8410551366133
 30
0.0
 10
230.9761367553214
 20
157.7985976515826
 30
0.0
 10
230.9761166565133
 20
157.7985860487931
 30
0.0
  0
LINE
  5
250
330
1F
100
AcDbEntity
  8
0
  6
Continuous
 62
     7
370
    30
100
AcDbLine
 10
230.9761166565
 20
157.7985860488
 30
0.0
 11
226.7334759694
 21
155.3493617133
 31
0.0
  0
ARC
  5
251
330
1F
100
AcDbEntity
  8
0
  6
Continuous
 62
     7
370
    30
100
AcDbCircle
 10
221.1890295982
 20
149.9436476993
 30
0.0
 40
12.54938761699828
100
AcDbArc
 50
33.4049215003
 51
38.7498950833
  0
ARC
  5
252
330
1F
100
AcDbEntity
  8
0
  6
Continuous
 62
     7
370
    30
100
AcDbCircle
 10
222.1511942442
 20
150.2523834547
 30
0.0
 40
11.54945816643288
100
AcDbArc
 50
15.5875659706
 51
21.2369460188
  0
SPLINE
  5
253
330
1F
100
AcDbEntity
  8
0
  6
Continuous
 62
     7
370
    30
100
AcDbSpline
210
0.0
220
0.0
230
1.0
 70
     8
 71
     3
 72
    14
 73
    10
 74
     0
 42
0.000000001
 43
0.00000001
 40
0.0
 40
0.0
 40
0.0
 40
0.0
 40
0.101667268476048
 40
0.2451514433434661
 40
0.3857196580931027
 40
0.5189970504533926
 40
0.654527782584995
 40
0.8551972517306873
 40
1.0
 40
1.0
 40
1.0
 40
1.0
 10
224.0821646724464
 20
157.7018592321162
 30
0.0
 10
224.0272220302605
 20
157.6669468906407
 30
0.0
 10
223.8947382108869
 20
157.5827623636881
 30
0.0
 10
223.6796609694955
 20
157.3899360590573
 30
0.0
 10
223.4552160075326
 20
157.1650726094752
 30
0.0
 10
223.2464209614077
 20
156.9754510134199
 30
0.0
 10
223.020238934487
 20
156.8377549369374
 30
0.0
 10
222.7917587119368
 20
156.7988490715321
 30
0.0
 10
222.6136865458638
 20
156.850208446181
 30
0.0
 10
222.5390485931202
 20
156.8717354408963
 30
0.0
  0
ARC
  5
254
330
1F
100
AcDbEntity
  8
0
  6
Continuous
 62
     7
370
    30
100
AcDbCircle
 10
220.1041725482
 20
150.8553908724
 30
0.0
 40
7.918241619285695
100
AcDbArc
 50
52.5749997178
 51
59.8421984073
  0
ARC
  5
255
330
1F
100
AcDbEntity
  8
0
  6
Continuous
 62
     7
370
    30
100
AcDbCircle
 10
223.1370364251
 20
148.4984760004
 30
0.0
 40
6.245920800835449
100
AcDbArc
 50
351.6362315786
 51
0.1498672528
  0
SPLINE
  5
256
330
1F
100
AcDbEntity
  8
0
  6
Continuous
 62
     7
370
    30
100
AcDbSpline
210
0.0
220
0.0
230
1.0
 70
     8
 71
     3
 72
    15
 73
    11
 74
     0
 42
0.000000001
 43
0.00000001
 40
0.0
 40
0.0
 40
0.0
 40
0.0
 40
0.0601603551658451
 40
0.2838320692036709
 40
0.4497758847407987
 40
0.5879888622246102
 40
0.7265187921582548
 40
0.8589539403787829
 40
0.9974639071650983
 40
1.0
 40
1.0
 40
1.0
 40
1.0
 10
227.703697583483
 20
146.8945035023226
 30
0.0
 10
227.715231580825
 20
146.922228629257
 30
0.0
 10
227.7696481201345
 20
147.0530337105278
 30
0.0
 10
227.9084191560549
 20
147.2038095682726
 30
0.0
 10
228.1698556636047
 20
147.3047466791224
 30
0.0
 10
228.4645434919732
 20
147.3571920676904
 30
0.0
 10
228.7722343646584
 20
147.4036674597757
 30
0.0
 10
229.0696492218012
 20
147.4738961044981
 30
0.0
 10
229.2402347899475
 20
147.5460698265429
 30
0.0
 10
229.3151812299808
 20
147.5891852170037
 30
0.0
 10
229.3165288119698
 20
147.5899604576103
 30
0.0
  0
SPLINE
  5
257
330
1F
100
AcDbEntity
  8
0
  6
Continuous
 62
     7
370
    30
100
AcDbSpline
210
0.0
220
0.0
230
1.0
 70
     8
 71
     3
 72
    15
 73
    11
 74
     0
 42
0.000000001
 43
0.00000001
 40
0.0
 40
0.0
 40
0.0
 40
0.0
 40
0.0601645437835315
 40
0.2838352609754936
 40
0.4497783369447488
 40
0.5879906984497443
 40
0.7265200109919983
 40
0.8589545689839824
 40
0.9974639184678973
 40
1.0
 40
1.0
 40
1.0
 40
1.0
 10
222.5390485931202
 20
156.8717354408963
 30
0.0
 10
222.5075314295277
 20
156.8842840482892
 30
0.0
 10
222.358844482184
 20
156.943483986164
 30
0.0
 10
222.1141879120713
 20
157.107403212665
 30
0.0
 10
221.8940050280531
 20
157.4007847634523
 30
0.0
 10
221.8108768914527
 20
157.7036875499741
 30
0.0
 10
221.8463004973893
 20
157.9894249249511
 30
0.0
 10
221.9774786436508
 20
158.2328605920706
 30
0.0
 10
222.1096702270828
 20
158.3486759110094
 30
0.0
 10
222.1843882375537
 20
158.3920430579185
 30
0.0
 10
222.185731712242
 20
158.3928228252572
 30
0.0
  0
LINE
  5
258
330
1F
100
AcDbEntity
  8
0
  6
Continuous
 62
     7
370
    30
100
AcDbLine
 10
222.1857317122
 20
158.3928228253
 30
0.0
 11
226.4283723994
 21
160.8420471607
 31
0.0
  0
SPLINE
  5
259
330
1F
100
AcDbEntity
  8
0
  6
Continuous
 62
     7
370
    30
100
AcDbSpline
210
0.0
220
0.0
230
1.0
 70
     8
 71
     3
 72
    14
 73
    10
 74
     0
 42
0.000000001
 43
0.00000001
 40
0.0
 40
0.0
 40
0.0
 40
0.0
 40
0.104208191972712
 40
0.2476461528439943
 40
0.3880943944406066
 40
0.5212797162839962
 40
0.6570207294505213
 40
0.8583721397204209
 40
1.0
 40
1.0
 40
1.0
 40
1.0
 10
226.4283723993613
 20
160.8420471607253
 30
0.0
 10
226.4860265367762
 20
160.8689642984909
 30
0.0
 10
226.6230390408419
 20
160.9329316842309
 30
0.0
 10
226.8678497675901
 20
160.9329907600391
 30
0.0
 10
227.1389269031232
 20
160.8365255847079
 30
0.0
 10
227.3995497180934
 20
160.6691819597563
 30
0.0
 10
227.6776472263991
 20
160.4519180346259
 30
0.0
 10
227.9401885866134
 20
160.2497815003255
 30
0.0
 10
228.1211646581575
 20
160.1702228972448
 30
0.0
 10
228.1958958619809
 20
160.1373704315459
 30
0.0
  0
LINE
  5
25A
330
1F
100
AcDbEntity
  8
0
  6
Continuous
 62
     7
370
    30
100
AcDbLine
 10
228.195895862
 20
160.1373704315
 30
0.0
 11
228.2645677469
 21
160.116309134
 31
0.0
  0
LWPOLYLINE
  5
25B
330
1F
100
AcDbEntity
  8
0
  6
Continuous
 62
     7
370
    30
100
AcDbPolyline
 90
        6
 70
   128
 43
0.0
 10
228.7371189218
 20
160.2382155683
 10
228.6883716145
 20
160.2612173592
 10
228.5332601948
 20
160.2424708392
 10
228.3248656566
 20
160.1511183741
 10
228.3248053596
 20
160.1510835676
 10
228.3248053596
 20
160.1510835676
  0
LINE
  5
25C
330
1F
100
AcDbEntity
  8
0
  6
Continuous
 62
     7
370
    30
100
AcDbLine
 10
228.3248053596
 20
160.1510835676
 30
0.0
 11
224.0821646724
 21
157.7018592321
 31
0.0
  0
ARC
  5
25D
330
1F
100
AcDbEntity
  8
0
  6
Continuous
 62
     7
370
    30
100
AcDbCircle
 10
224.3468132353
 20
153.3046152079
 30
0.0
 40
7.918241619291845
100
AcDbArc
 50
52.5749997178
 51
59.8421984073
  0
ARC
  5
25E
330
1F
100
AcDbEntity
  8
0
  6
Continuous
 62
     7
370
    30
100
AcDbCircle
 10
227.3796771123
 20
150.9477003358
 30
0.0
 40
6.245920800842357
100
AcDbArc
 50
351.6362315786
 51
0.1498672528
  0
LINE
  5
25F
330
1F
100
AcDbEntity
  8
0
  6
Continuous
 62
     7
370
    30
100
AcDbLine
 10
229.316528812
 20
147.5899604576
 30
0.0
 11
233.5591694991
 21
150.0391847931
 31
0.0
  0
SPLINE
  5
260
330
1F
100
AcDbEntity
  8
0
  6
Continuous
 62
     7
370
    30
100
AcDbSpline
210
0.0
220
0.0
230
1.0
 70
     8
 71
     3
 72
    14
 73
    10
 74
     0
 42
0.000000001
 43
0.00000001
 40
0.0
 40
0.0
 40
0.0
 40
0.0
 40
0.101666817801849
 40
0.2451503566277793
 40
0.3857179482619039
 40
0.5189947498256843
 40
0.6545248811720737
 40
0.85519346078336
 40
1.0
 40
1.0
 40
1.0
 40
1.0
 10
228.6711638145906
 20
145.8640741215317
 30
0.0
 10
228.614396538382
 20
145.837467961126
 30
0.0
 10
228.4775129581909
 20
145.7733122232659
 30
0.0
 10
228.2255754561224
 20
145.7678157339532
 30
0.0
 10
227.9674276688387
 20
145.8680454320244
 30
0.0
 10
227.7738212292132
 20
146.0619413223901
 30
0.0
 10
227.6505207728038
 20
146.3417943368337
 30
0.0
 10
227.6318448198675
 20
146.6457108697496
 30
0.0
 10
227.6824755984024
 20
146.8210216587448
 30
0.0
 10
227.703697583483
 20
146.8945035023226
 30
0.0
  0
SPLINE
  5
261
330
1F
100
AcDbEntity
  8
0
  6
Continuous
 62
     7
370
    30
100
AcDbSpline
210
0.0
220
0.0
230
1.0
 70
     8
 71
     3
 72
    10
 73
     6
 74
     0
 42
0.000000001
 43
0.00000001
 40
0.0
 40
0.0
 40
0.0
 40
0.0
 40
0.3397244665383228
 40
0.8073401483371215
 40
0.9999999999999999
 40
0.9999999999999999
 40
0.9999999999999999
 40
0.9999999999999999
 10
233.5591694990891
 20
150.0391847930784
 30
0.0
 10
233.6098925051726
 20
150.0727545932673
 30
0.0
 10
233.7304334826088
 20
150.1525317366102
 30
0.0
 10
233.8271911090736
 20
150.2766830058042
 30
0.0
 10
233.8278353337855
 20
150.3384412314521
 30
0.0
 10
233.8280233102153
 20
150.3564614820737
 30
0.0
  0
LWPOLYLINE
  5
262
330
1F
100
AcDbEntity
  8
0
  6
Continuous
 62
     7
370
    30
100
AcDbPolyline
 90
        9
 70
   128
 43
0.0
 10
233.3156011811
 20
149.898575796
 10
233.2937793862
 20
149.6648547588
 10
233.3010724261
 20
149.3144299563
 10
233.2898366417
 20
149.0042926229
 10
233.2284318766
 20
148.7127543068
 10
233.1064427414
 20
148.4826427335
 10
232.9138647975
 20
148.3133332694
 10
232.9138045017
 20
148.313298457
 10
232.9138045017
 20
148.313298457
  0
LINE
  5
263
330
1F
100
AcDbEntity
  8
0
  6
Continuous
 62
     7
370
    30
100
AcDbLine
 10
232.9138045017
 20
148.313298457
 30
0.0
 11
228.6711638146
 21
145.8640741215
 31
0.0
  0
SPLINE
  5
264
330
1F
100
AcDbEntity
  8
0
  6
Continuous
 62
     7
370
    30
100
AcDbSpline
210
0.0
220
0.0
230
1.0
 70
     8
 71
     3
 72
    14
 73
    10
 74
     0
 42
0.000000001
 43
0.00000001
 40
0.0
 40
0.0
 40
0.0
 40
0.0
 40
0.1423420290607031
 40
0.2849107341088651
 40
0.4234397130539345
 40
0.5557068270188708
 40
0.695479643979753
 40
0.9061224241315343
 40
1.0
 40
1.0
 40
1.0
 40
1.0
 10
221.4301757135335
 20
158.413812259935
 30
0.0
 10
221.3564335319144
 20
158.3607227440022
 30
0.0
 10
221.2088317361657
 20
158.2544591684602
 30
0.0
 10
221.0336102401506
 20
157.9944400662263
 30
0.0
 10
220.8995307276662
 20
157.708586459462
 30
0.0
 10
220.7927215712772
 20
157.4350958905663
 30
0.0
 10
220.6744417112404
 20
157.1730895040774
 30
0.0
 10
220.5457364736637
 20
157.0081954817239
 30
0.0
 10
220.4272477617353
 20
156.9495123768635
 30
0.0
 10
220.3907200458578
 20
156.9314215414897
 30
0.0
  0
ARC
  5
265
330
1F
100
AcDbEntity
  8
0
  6
Continuous
 62
     7
370
    30
100
AcDbCircle
 10
221.7143965293
 20
155.0355426427
 30
0.0
 40
3.390204577772346
100
AcDbArc
 50
82.0083642139
 51
94.8090872993
  0
ARC
  5
266
330
1F
100
AcDbEntity
  8
0
  6
Continuous
 62
     7
370
    30
100
AcDbCircle
 10
226.4094873893
 20
147.4441139379
 30
0.0
 40
2.758932053142023
100
AcDbArc
 50
310.3726553529
 51
325.0612940622
  0
SPLINE
  5
267
330
1F
100
AcDbEntity
  8
0
  6
Continuous
 62
     7
370
    30
100
AcDbSpline
210
0.0
220
0.0
230
1.0
 70
     8
 71
     3
 72
    15
 73
    11
 74
     0
 42
0.000000001
 43
0.00000001
 40
0.0
 40
0.0
 40
0.0
 40
0.0
 40
0.0601603551658486
 40
0.2838320692036709
 40
0.4497758847408007
 40
0.5879888622246141
 40
0.7265187921582558
 40
0.858953940378782
 40
0.9974639071650983
 40
1.0
 40
1.0
 40
1.0
 40
1.0
 10
226.3543443375004
 20
145.410700769907
 30
0.0
 10
226.3792148415485
 20
145.4194727436308
 30
0.0
 10
226.4965520249257
 20
145.4608582614886
 30
0.0
 10
226.7170295420167
 20
145.4527553722015
 30
0.0
 10
227.0371154002376
 20
145.3659067311069
 30
0.0
 10
227.3529406140903
 20
145.2777020952717
 30
0.0
 10
227.6611711854669
 20
145.22675592327
 30
0.0
 10
227.9521353900932
 20
145.2393186296142
 30
0.0
 10
228.1203217287884
 20
145.298417440287
 30
0.0
 10
228.1952558678163
 20
145.3414545113734
 30
0.0
 10
228.1966032286259
 20
145.3422283437506
 30
0.0
  0
LINE
  5
268
330
1F
100
AcDbEntity
  8
0
  6
Continuous
 62
     7
370
    30
100
AcDbLine
 10
225.6728164007
 20
160.8630365954
 30
0.0
 11
221.4301757135
 21
158.4138122599
 31
0.0
  0
ARC
  5
269
330
1F
100
AcDbEntity
  8
0
  6
Continuous
 62
     7
370
    30
100
AcDbCircle
 10
225.9570372164
 20
157.4847669781
 30
0.0
 40
3.390204577772105
100
AcDbArc
 50
82.0083642139
 51
94.8090872993
  0
SPLINE
  5
26A
330
1F
100
AcDbEntity
  8
0
  6
Continuous
 62
     7
370
    30
100
AcDbSpline
210
0.0
220
0.0
230
1.0
 70
     8
 71
     3
 72
    21
 73
    17
 74
     0
 42
0.000000001
 43
0.00000001
 40
0.0
 40
0.0
 40
0.0
 40
0.0
 40
0.0596186139421979
 40
0.119724432647
 40
0.2300285763054099
 40
0.3438891583503696
 40
0.4192797752130084
 40
0.4966132053796103
 40
0.5721190573051457
 40
0.6504830629739554
 40
0.7168085552557667
 40
0.7850714347492619
 40
0.8514283756875493
 40
0.9195273969664407
 40
0.9595859284054986
 40
1.0
 40
1.0
 40
1.0
 40
1.0
 10
220.3907200458578
 20
156.9314215414897
 30
0.0
 10
220.3660283397645
 20
156.9226205403781
 30
0.0
 10
220.3164431463554
 20
156.9049466161599
 30
0.0
 10
220.2131961372292
 20
156.8888483206143
 30
0.0
 10
220.0782336056343
 20
156.8938664599264
 30
0.0
 10
219.9363144615127
 20
156.9401046857887
 30
0.0
 10
219.8239465241531
 20
157.0141283617657
 30
0.0
 10
219.7446823937985
 20
157.10006562689
 30
0.0
 10
219.6895345498427
 20
157.2069173609892
 30
0.0
 10
219.6669392437362
 20
157.3217986069477
 30
0.0
 10
219.67467644591
 20
157.4370777957903
 30
0.0
 10
219.7074889645068
 20
157.5438279376142
 30
0.0
 10
219.7643921180584
 20
157.6442002850415
 30
0.0
 10
219.8319803480887
 20
157.720548279044
 30
0.0
 10
219.8999035376062
 20
157.77737449388
 30
0.0
 10
219.9416849659726
 20
157.8032862277773
 30
0.0
 10
219.9626679784969
 20
157.8162993357095
 30
0.0
  0
LINE
  5
26B
330
1F
100
AcDbEntity
  8
0
  6
Continuous
 62
     7
370
    30
100
AcDbLine
 10
219.9626679785
 20
157.8162993357
 30
0.0
 11
224.2053086656
 21
160.2655236712
 31
0.0
  0
SPLINE
  5
26C
330
1F
100
AcDbEntity
  8
0
  6
Continuous
 62
     7
370
    30
100
AcDbSpline
210
0.0
220
0.0
230
1.0
 70
     8
 71
     3
 72
    12
 73
     8
 74
     0
 42
0.000000001
 43
0.00000001
 40
0.0
 40
0.0
 40
0.0
 40
0.0
 40
0.1695971596237352
 40
0.3417240893207784
 40
0.5738567416535987
 40
0.8129743206404229
 40
1.0
 40
1.0
 40
1.0
 40
1.0
 10
224.2053086656162
 20
160.2655236711776
 30
0.0
 10
224.233688623013
 20
160.2804301158435
 30
0.0
 10
224.2908718630972
 20
160.3104653548755
 30
0.0
 10
224.3984543700055
 20
160.3459338100524
 30
0.0
 10
224.5284437001762
 20
160.3699384728954
 30
0.0
 10
224.6704031385256
 20
160.3767826388309
 30
0.0
 10
224.766140402122
 20
160.3678152674892
 30
0.0
 10
224.8081575557751
 20
160.3638796691091
 30
0.0
  0
LWPOLYLINE
  5
26D
330
1F
100
AcDbEntity
  8
0
  6
Continuous
 62
     7
370
    30
100
AcDbPolyline
 90
        5
 70
   128
 43
0.0
 10
225.9263087888
 20
160.9418836318
 10
225.8997002914
 20
160.9437337526
 10
225.6728766991
 20
160.8630714012
 10
225.6728164007
 20
160.8630365954
 10
225.6728164007
 20
160.8630365954
  0
ARC
  5
26E
330
1F
100
AcDbEntity
  8
0
  6
Continuous
 62
     7
370
    30
100
AcDbCircle
 10
230.6521280764
 20
149.8933382733
 30
0.0
 40
2.758932053144943
100
AcDbArc
 50
310.3726553529
 51
325.0612940622
  0
LINE
  5
26F
330
1F
100
AcDbEntity
  8
0
  6
Continuous
 62
     7
370
    30
100
AcDbLine
 10
228.1966032286
 20
145.3422283438
 30
0.0
 11
232.4392439157
 21
147.7914526792
 31
0.0
  0
SPLINE
  5
270
330
1F
100
AcDbEntity
  8
0
  6
Continuous
 62
     7
370
    30
100
AcDbSpline
210
0.0
220
0.0
230
1.0
 70
     8
 71
     3
 72
    14
 73
    10
 74
     0
 42
0.000000001
 43
0.00000001
 40
0.0
 40
0.0
 40
0.0
 40
0.0
 40
0.1170301179388447
 40
0.2821960573686575
 40
0.444005408570967
 40
0.5974222277726974
 40
0.7534328868910771
 40
0.9844253389642826
 40
1.0
 40
1.0
 40
1.0
 40
1.0
 10
226.7290954935893
 20
144.7447154195252
 30
0.0
 10
226.6740020253886
 20
144.7183108736648
 30
0.0
 10
226.5411545175261
 20
144.6546412912562
 30
0.0
 10
226.327833006293
 20
144.65201616928
 30
0.0
 10
226.1436518588973
 20
144.7442957801804
 30
0.0
 10
226.0486894283442
 20
144.9069725400409
 30
0.0
 10
226.0551753690891
 20
145.1125524794186
 30
0.0
 10
226.1283068557064
 20
145.2657511041836
 30
0.0
 10
226.2066505364918
 20
145.315109738473
 30
0.0
 10
226.2115991943121
 20
145.3182275265209
 30
0.0
  0
LINE
  5
271
330
1F
100
AcDbEntity
  8
0
  6
Continuous
 62
     7
370
    30
100
AcDbLine
 10
226.2969933959
 20
145.3735476489
 30
0.0
 11
226.3543443375
 21
145.4107007699
 31
0.0
  0
LINE
  5
272
330
1F
100
AcDbEntity
  8
0
  6
Continuous
 62
     7
370
    30
100
AcDbLine
 10
232.4392439157
 20
147.7914526792
 30
0.0
 11
232.5291367345
 21
147.8622135372
 31
0.0
  0
LINE
  5
273
330
1F
100
AcDbEntity
  8
0
  6
Continuous
 62
     7
370
    30
100
AcDbLine
 10
227.598471592
 20
145.2465955583
 30
0.0
 11
226.7290954936
 21
144.7447154195
 31
0.0
  0
SPLINE
  5
274
330
1F
100
AcDbEntity
  8
0
  6
Continuous
 62
     7
370
    30
100
AcDbSpline
210
0.0
220
0.0
230
1.0
 70
     8
 71
     3
 72
    19
 73
    15
 74
     0
 42
0.000000001
 43
0.00000001
 40
0.0
 40
0.0
 40
0.0
 40
0.0
 40
0.065989542949513
 40
0.151881193117923
 40
0.2328261878009929
 40
0.3163474011694107
 40
0.3937860895465561
 40
0.4732621395584628
 40
0.5552837102921782
 40
0.6389497358128603
 40
0.7621648371270935
 40
0.8889064825588301
 40
0.9443150215293211
 40
1.0
 40
1.0
 40
1.0
 40
1.0
 10
219.276213488741
 20
157.095376064786
 30
0.0
 10
219.2563850435309
 20
157.0656967088927
 30
0.0
 10
219.2107479958781
 20
156.9973868558073
 30
0.0
 10
219.1625813815335
 20
156.8721242161648
 30
0.0
 10
219.1265327225505
 20
156.7262275676953
 30
0.0
 10
219.1074470395349
 20
156.57593300129
 30
0.0
 10
219.100086577715
 20
156.4230589092027
 30
0.0
 10
219.100493503429
 20
156.2718018623982
 30
0.0
 10
219.1046993534286
 20
156.1210981809724
 30
0.0
 10
219.1091707237611
 20
155.9519348598939
 30
0.0
 10
219.1073004989202
 20
155.7706323523497
 30
0.0
 10
219.0896044704289
 20
155.621935890013
 30
0.0
 10
219.0649532027561
 20
155.5160150545635
 30
0.0
 10
219.0492374771692
 20
155.4704535194057
 30
0.0
 10
219.0413600612668
 20
155.4476160653148
 30
0.0
  0
LINE
  5
275
330
1F
100
AcDbEntity
  8
0
  6
Continuous
 62
     7
370
    30
100
AcDbLine
 10
223.5600997489
 20
153.0788500318
 30
0.0
 11
221.4614863872
 21
151.8673463257
 31
0.0
  0
LINE
  5
276
330
1F
100
AcDbEntity
  8
0
  6
Continuous
 62
     7
370
    30
100
AcDbLine
 10
225.1099017077
 20
150.8102731923
 30
0.0
 11
222.7221921524
 21
149.431877806
 31
0.0
  0
SPLINE
  5
277
330
1F
100
AcDbEntity
  8
0
  6
Continuous
 62
     7
370
    30
100
AcDbSpline
210
0.0
220
0.0
230
1.0
 70
     8
 71
     3
 72
    13
 73
     9
 74
     0
 42
0.000000001
 43
0.00000001
 40
0.0
 40
0.0
 40
0.0
 40
0.0
 40
0.0787164463590848
 40
0.3713783236296452
 40
0.5885064874900224
 40
0.7693504070154334
 40
0.9506090410226113
 40
1.0
 40
1.0
 40
1.0
 40
1.0
 10
224.2060160322612
 20
145.4703815833824
 30
0.0
 10
224.2375642292598
 20
145.4578460272599
 30
0.0
 10
224.3864062699868
 20
145.3987042083151
 30
0.0
 10
224.6291890201436
 20
145.2343894474733
 30
0.0
 10
224.9336921698192
 20
144.9874816910425
 30
0.0
 10
225.2114152213088
 20
144.8032616042397
 30
0.0
 10
225.4185143886628
 20
144.7016450351302
 30
0.0
 10
225.5287042728754
 20
144.6978535754827
 30
0.0
 10
225.5523001699261
 20
144.6970416779828
 30
0.0
  0
SPLINE
  5
278
330
1F
100
AcDbEntity
  8
0
  6
Continuous
 62
     7
370
    30
100
AcDbSpline
210
0.0
220
0.0
230
1.0
 70
     8
 71
     3
 72
    14
 73
    10
 74
     0
 42
0.000000001
 43
0.00000001
 40
0.0
 40
0.0
 40
0.0
 40
0.0
 40
0.1199894190523782
 40
0.343971479346135
 40
0.4966890479192554
 40
0.6503381977094681
 40
0.7848875262972319
 40
0.9193524348863313
 40
1.0
 40
1.0
 40
1.0
 40
1.0
 10
219.0413600612668
 20
155.4476160653148
 30
0.0
 10
219.016804003605
 20
155.393811525699
 30
0.0
 10
218.9464096009359
 20
155.2395710332178
 30
0.0
 10
218.77539724984
 20
155.1047134664919
 30
0.0
 10
218.6100992038017
 20
155.094428845355
 30
0.0
 10
218.5420233846293
 20
155.1909841901557
 30
0.0
 10
218.5827370775514
 20
155.3409814203031
 30
0.0
 10
218.6944741723457
 20
155.4737410836777
 30
0.0
 10
218.8023127576638
 20
155.5427101209943
 30
0.0
 10
218.842742395153
 20
155.5685672218498
 30
0.0
  0
LINE
  5
279
330
1F
100
AcDbEntity
  8
0
  6
Continuous
 62
     7
370
    30
100
AcDbLine
 10
218.8427423952
 20
155.5685672218
 30
0.0
 11
219.0966830804
 21
155.7151640591
 31
0.0
  0
SPLINE
  5
27A
330
1F
100
AcDbEntity
  8
0
  6
Continuous
 62
     7
370
    30
100
AcDbSpline
210
0.0
220
0.0
230
1.0
 70
     8
 71
     3
 72
    12
 73
     8
 74
     0
 42
0.000000001
 43
0.00000001
 40
0.0
 40
0.0
 40
0.0
 40
0.0
 40
0.0982555395656144
 40
0.305120271483241
 40
0.523723864192236
 40
0.853167525131492
 40
1.0
 40
1.0
 40
1.0
 40
1.0
 10
218.4950421173025
 20
154.127047477696
 30
0.0
 10
218.4935775987398
 20
154.0891995112569
 30
0.0
 10
218.4890297197762
 20
153.9716673919889
 30
0.0
 10
218.5648266099578
 20
153.7357529391323
 30
0.0
 10
218.6913009812631
 20
153.3965707414747
 30
0.0
 10
218.8055295894252
 20
153.0832304622267
 30
0.0
 10
218.8414622184509
 20
152.8804341588886
 30
0.0
 10
218.8525399871059
 20
152.8179135308861
 30
0.0
  0
SPLINE
  5
27B
330
1F
100
AcDbEntity
  8
0
  6
Continuous
 62
     7
370
    30
100
AcDbSpline
210
0.0
220
0.0
230
1.0
 70
     8
 71
     3
 72
    11
 73
     7
 74
     0
 42
0.000000001
 43
0.00000001
 40
0.0
 40
0.0
 40
0.0
 40
0.0
 40
0.1958918039845212
 40
0.4723561398455796
 40
0.7432020235107579
 40
1.0
 40
1.0
 40
1.0
 40
1.0
 10
224.0771065346764
 20
145.456668447344
 30
0.0
 10
224.0239028751646
 20
145.4291894711409
 30
0.0
 10
223.8956122845351
 20
145.3629291025998
 30
0.0
 10
223.7281764580901
 20
145.333984219078
 30
0.0
 10
223.6170801212798
 20
145.3688426593493
 30
0.0
 10
223.6324191759316
 20
145.4151450590305
 30
0.0
 10
223.6398845109678
 20
145.4376798849664
 30
0.0
  0
SPLINE
  5
27C
330
1F
100
AcDbEntity
  8
0
  6
Continuous
 62
     7
370
    30
100
AcDbSpline
210
0.0
220
0.0
230
1.0
 70
     8
 71
     3
 72
    10
 73
     6
 74
     0
 42
0.000000001
 43
0.00000001
 40
0.0
 40
0.0
 40
0.0
 40
0.0
 40
0.1420208694429687
 40
0.6403764501548651
 40
1.0
 40
1.0
 40
1.0
 40
1.0
 10
223.6943470066166
 20
145.4721684757785
 30
0.0
 10
223.7064487353902
 20
145.4809884680862
 30
0.0
 10
223.7610158010839
 20
145.5207580835419
 30
0.0
 10
223.9557357768503
 20
145.5420528692077
 30
0.0
 10
224.1320948136604
 20
145.4915499683123
 30
0.0
 10
224.2060160322612
 20
145.4703815833824
 30
0.0
  0
SPLINE
  5
27D
330
1F
100
AcDbEntity
  8
0
  6
Continuous
 62
     7
370
    30
100
AcDbSpline
210
0.0
220
0.0
230
1.0
 70
     8
 71
     3
 72
    11
 73
     7
 74
     0
 42
0.000000001
 43
0.00000001
 40
0.0
 40
0.0
 40
0.0
 40
0.0
 40
0.1973353686089794
 40
0.5656977023792166
 40
0.8168579957238382
 40
0.9999999999999999
 40
0.9999999999999999
 40
0.9999999999999999
 40
0.9999999999999999
 10
221.8343555022314
 20
147.0575545169743
 30
0.0
 10
221.8931485351373
 20
146.9951124121384
 30
0.0
 10
222.0616894503579
 20
146.8161107689643
 30
0.0
 10
222.2738473807841
 20
146.5007225146831
 30
0.0
 10
222.4754404914738
 20
146.1960799083638
 30
0.0
 10
222.596537433093
 20
146.0945136130651
 30
0.0
 10
222.6476031003054
 20
146.0516838721454
 30
0.0
  0
SPLINE
  5
27E
330
1F
100
AcDbEntity
  8
0
  6
Continuous
 62
     7
370
    30
100
AcDbSpline
210
0.0
220
0.0
230
1.0
 70
     8
 71
     3
 72
    11
 73
     7
 74
     0
 42
0.000000001
 43
0.00000001
 40
0.0
 40
0.0
 40
0.0
 40
0.0
 40
0.2163417713662974
 40
0.4628743685985673
 40
0.8344080674119326
 40
1.0
 40
1.0
 40
1.0
 40
1.0
 10
219.2340096114022
 20
150.6984050403614
 30
0.0
 10
219.2629961702892
 20
150.6429938874787
 30
0.0
 10
219.3250144067951
 20
150.5244388703781
 30
0.0
 10
219.5291817705802
 20
150.2747608148812
 30
0.0
 10
219.7306550498106
 20
150.0091187345141
 30
0.0
 10
219.8408690844394
 20
149.8087194953874
 30
0.0
 10
219.8748472711531
 20
149.7469378648784
 30
0.0
  0
SPLINE
  5
27F
330
1F
100
AcDbEntity
  8
0
  6
Continuous
 62
     7
370
    30
100
AcDbSpline
210
0.0
220
0.0
230
1.0
 70
     8
 71
     3
 72
    11
 73
     7
 74
     0
 42
0.000000001
 43
0.00000001
 40
0.0
 40
0.0
 40
0.0
 40
0.0
 40
0.2052667814382461
 40
0.5884345388914131
 40
0.8496896063602707
 40
1.0
 40
1.0
 40
1.0
 40
1.0
 10
218.8525399871059
 20
152.8179135308861
 30
0.0
 10
218.860581786381
 20
152.7399905036148
 30
0.0
 10
218.8836350657043
 20
152.516609982421
 30
0.0
 10
218.843030946396
 20
152.2446670711861
 30
0.0
 10
218.7846661036382
 20
152.070663305904
 30
0.0
 10
218.7904077370626
 20
152.0578765894632
 30
0.0
 10
218.792504674881
 20
152.0532066728565
 30
0.0
  0
SPLINE
  5
280
330
1F
100
AcDbEntity
  8
0
  6
Continuous
 62
     7
370
    30
100
AcDbSpline
210
0.0
220
0.0
230
1.0
 70
     8
 71
     3
 72
    11
 73
     7
 74
     0
 42
0.000000001
 43
0.00000001
 40
0.0
 40
0.0
 40
0.0
 40
0.0
 40
0.2209766056931909
 40
0.4660511211972377
 40
0.8353874371746397
 40
1.0
 40
1.0
 40
1.0
 40
1.0
 10
221.1094267980268
 20
147.5537648567374
 30
0.0
 10
221.1331483694308
 20
147.5356402611837
 30
0.0
 10
221.1831783937167
 20
147.4974145492242
 30
0.0
 10
221.3946664104684
 20
147.3947847111517
 30
0.0
 10
221.6319272060255
 20
147.2461890373916
 30
0.0
 10
221.7866542713287
 20
147.1020053125562
 30
0.0
 10
221.8343555022314
 20
147.0575545169743
 30
0.0
  0
SPLINE
  5
281
330
1F
100
AcDbEntity
  8
0
  6
Continuous
 62
     7
370
    30
100
AcDbSpline
210
0.0
220
0.0
230
1.0
 70
     8
 71
     3
 72
    11
 73
     7
 74
     0
 42
0.000000001
 43
0.00000001
 40
0.0
 40
0.0
 40
0.0
 40
0.0
 40
0.2141427048673646
 40
0.6138789867151188
 40
0.8864309623250807
 40
1.0
 40
1.0
 40
1.0
 40
1.0
 10
219.8748472711531
 20
149.7469378648784
 30
0.0
 10
219.9134379881174
 20
149.6658368621592
 30
0.0
 10
220.0240652926585
 20
149.4333460967059
 30
0.0
 10
220.1224203298657
 20
149.095840535542
 30
0.0
 10
220.1871183646953
 20
148.8321496566901
 30
0.0
 10
220.2366742178365
 20
148.7695251527002
 30
0.0
 10
220.2512499864654
 20
148.7511055267065
 30
0.0
  0
LWPOLYLINE
  5
282
330
1F
100
AcDbEntity
  8
0
  6
Continuous
 62
     7
370
    30
100
AcDbPolyline
 90
       63
 70
   128
 43
0.0
 10
247.6620162847
 20
174.9915721713
 10
248.3411404764
 20
174.5576326715
 10
248.9407334185
 20
174.0862565291
 10
249.4546424761
 20
173.5822807014
 10
249.877594247
 20
173.0508766621
 10
250.2052486734
 20
172.4974973359
 10
250.4342435778
 20
171.9278211436
 10
250.5622291623
 20
171.3476937337
 10
250.5878921219
 20
170.7630679985
 10
250.5109691197
 20
170.1799429892
 10
250.3322494899
 20
169.6043023574
 10
250.0535671377
 20
169.0420529551
 10
249.6777817211
 20
168.4989642219
 10
249.2087493072
 20
167.9806089831
 10
248.651282803
 20
167.492306265
 10
248.0111025694
 20
167.0390667142
 10
247.2947777218
 20
166.6255411819
 10
246.5096587226
 20
166.2559729995
 10
245.663801955
 20
165.9341544367
 10
244.7658870541
 20
165.6633877876
 10
243.825127842
 20
165.4464514842
 10
242.8511777811
 20
165.2855715867
 10
241.8540309171
 20
165.1823989405
 10
240.8439193261
 20
165.1379922366
 10
239.8312081199
 20
165.1528071478
 10
238.8262890861
 20
165.2266916531
 10
237.8394740536
 20
165.3588875975
 10
236.8808890801
 20
165.5480384717
 10
235.9603705447
 20
165.7922033318
 10
235.0873642131
 20
166.0888767159
 10
234.2708283117
 20
166.4350143536
 10
233.5191416038
 20
166.8270644045
 10
232.8400174122
 20
167.2610039043
 10
232.2404244701
 20
167.7323800466
 10
231.7265154124
 20
168.2363558744
 10
231.3035636416
 20
168.7677599137
 10
230.9759092151
 20
169.3211392398
 10
230.7469143108
 20
169.8908154322
 10
230.6189287262
 20
170.4709428421
 10
230.5932657667
 20
171.0555685773
 10
230.6701887688
 20
171.6386935866
 10
230.8489083987
 20
172.2143342183
 10
231.1275907509
 20
172.7765836207
 10
231.5033761674
 20
173.3196723539
 10
231.9724085814
 20
173.8380275926
 10
232.5298750855
 20
174.3263303108
 10
233.1700553191
 20
174.7795698616
 10
233.8863801667
 20
175.1930953939
 10
234.671499166
 20
175.5626635763
 10
235.5173559336
 20
175.8844821391
 10
236.4152708344
 20
176.1552487882
 10
237.3560300466
 20
176.3721850916
 10
238.3299801074
 20
176.5330649891
 10
239.3271269715
 20
176.6362376353
 10
240.3372385625
 20
176.6806443392
 10
241.3499497686
 20
176.665829428
 10
242.3548688025
 20
176.5919449227
 10
243.3416838349
 20
176.4597489783
 10
244.3002688084
 20
176.2705981041
 10
245.2207873438
 20
176.026433244
 10
246.0937936754
 20
175.7297598599
 10
246.9103295768
 20
175.3836222221
 10
247.6620162847
 20
174.9915721713
  0
LWPOLYLINE
  5
283
330
1F
100
AcDbEntity
  8
0
  6
Continuous
 62
     7
370
    30
100
AcDbPolyline
 90
       47
 70
   128
 43
0.0
 10
251.8046367877
 20
170.8310644216
 10
251.9982933013
 20
170.5932055727
 10
252.415723869
 20
169.982128483
 10
252.7351675617
 20
169.3516699228
 10
252.9539773684
 20
168.7070540701
 10
253.070340162
 20
168.053622415
 10
253.0832917238
 20
167.396789498
 10
252.9927247332
 20
166.7419980435
 10
252.7993896566
 20
166.0946738596
 10
252.5048885294
 20
165.4601808785
 10
252.1116616808
 20
164.8437767087
 10
251.6229675122
 20
164.2505690695
 10
251.0428554975
 20
163.6854734661
 10
250.3761326273
 20
163.1531724586
 10
249.6283235776
 20
162.6580768608
 10
248.8056249295
 20
162.2042891908
 10
247.9148538231
 20
161.7955696762
 10
246.9633914684
 20
161.4353050955
 10
245.9591219821
 20
161.1264807145
 10
244.9103670575
 20
160.8716555494
 10
243.825817008
 20
160.6729411616
 10
242.7144587571
 20
160.5319841611
 10
241.5855013692
 20
160.4499525622
 10
240.4482997407
 20
160.4275261044
 10
239.3122770825
 20
160.4648906204
 10
238.1868468361
 20
160.5617364962
 10
237.081334671
 20
160.7172612361
 10
236.0049012091
 20
160.9301761134
 10
234.9664661171
 20
161.1987168482
 10
233.9746341953
 20
161.5206582275
 10
233.0376240753
 20
161.8933325435
 10
232.163200118
 20
162.3136516996
 10
231.3586080757
 20
162.7781327988
 10
230.6305150516
 20
163.2829270045
 10
229.9849542536
 20
163.8238514329
 10
229.427275002
 20
164.3964238139
 10
228.9620984025
 20
164.9958996323
 10
228.5932790551
 20
165.6173114427
 10
228.3238731129
 20
166.2555100312
 10
228.1561129585
 20
166.9052070832
 10
228.0913887054
 20
167.5610190044
 10
228.130236679
 20
168.2175115307
 10
228.2723349728
 20
168.8692447583
 10
228.5165061157
 20
169.5108182202
 10
228.8607268285
 20
170.1369156369
 10
229.3021447902
 20
170.7423489679
 10
229.3765211009
 20
170.8310644216
  0
LWPOLYLINE
  5
284
330
1F
100
AcDbEntity
  8
0
  6
Continuous
 62
     7
370
    30
100
AcDbPolyline
 90
       37
 70
   128
 43
0.0
 10
253.0905789443
 20
109.5054492341
 10
253.0832917238
 20
109.2590836917
 10
252.9927247332
 20
108.6042922372
 10
252.7993896566
 20
107.9569680533
 10
252.5048885294
 20
107.3224750722
 10
252.1116616808
 20
106.7060709025
 10
251.6229675122
 20
106.1128632632
 10
251.0428554975
 20
105.5477676598
 10
250.3761326273
 20
105.0154666523
 10
249.6283235776
 20
104.5203710546
 10
248.8056249295
 20
104.0665833846
 10
247.9148538231
 20
103.6578638699
 10
246.9633914684
 20
103.2975992892
 10
245.9591219821
 20
102.9887749083
 10
244.9103670575
 20
102.7339497431
 10
243.825817008
 20
102.5352353553
 10
242.7144587571
 20
102.3942783549
 10
241.5855013692
 20
102.3122467559
 10
240.4482997407
 20
102.2898202981
 10
239.3122770825
 20
102.3271848142
 10
238.1868468361
 20
102.4240306899
 10
237.081334671
 20
102.5795554299
 10
236.0049012091
 20
102.7924703071
 10
234.9664661171
 20
103.0610110419
 10
233.9746341953
 20
103.3829524212
 10
233.0376240753
 20
103.7556267372
 10
232.163200118
 20
104.1759458933
 10
231.3586080757
 20
104.6404269926
 10
230.6305150516
 20
105.1452211983
 10
229.9849542536
 20
105.6861456267
 10
229.427275002
 20
106.2587180076
 10
228.9620984025
 20
106.858193826
 10
228.5932790551
 20
107.4796056364
 10
228.3238731129
 20
108.1178042249
 10
228.1561129585
 20
108.7675012769
 10
228.0913887054
 20
109.4233131982
 10
228.0905789443
 20
109.5054492341
  0
SPLINE
  5
285
330
1F
100
AcDbEntity
  8
0
  6
Continuous
 62
     7
370
    30
100
AcDbSpline
210
0.0
220
0.0
230
1.0
 70
     8
 71
     3
 72
     9
 73
     5
 74
     0
 42
0.000000001
 43
0.00000001
 40
0.0
 40
0.0
 40
0.0
 40
0.0
 40
0.6625127000828507
 40
1.0
 40
1.0
 40
1.0
 40
1.0
 10
233.6980918593893
 20
155.090860165895
 30
0.0
 10
233.6827084453749
 20
154.8651687173488
 30
0.0
 10
233.6594886429282
 20
154.5245089103475
 30
0.0
 10
233.4757039087568
 20
154.3071496730267
 30
0.0
 10
233.4136788950553
 20
154.2337936909113
 30
0.0
  0
SPLINE
  5
286
330
1F
100
AcDbEntity
  8
0
  6
Continuous
 62
     7
370
    30
100
AcDbSpline
210
0.0
220
0.0
230
1.0
 70
     8
 71
     3
 72
    14
 73
    10
 74
     0
 42
0.000000001
 43
0.00000001
 40
0.0
 40
0.0
 40
0.0
 40
0.0
 40
0.0810809300092958
 40
0.2418184367946648
 40
0.3997669337721787
 40
0.5573825012306097
 40
0.7175591253395305
 40
0.8793798176939378
 40
1.0
 40
1.0
 40
1.0
 40
1.0
 10
230.9204876412644
 20
158.280501326272
 30
0.0
 10
230.9952570388839
 20
158.2898409469036
 30
0.0
 10
231.2182517535515
 20
158.3176957391601
 30
0.0
 10
231.7084724177233
 20
158.0993094872463
 30
0.0
 10
232.3139230539964
 20
157.6769926168299
 30
0.0
 10
232.8961609875785
 20
157.0814520109955
 30
0.0
 10
233.3693167458008
 20
156.3796560429008
 30
0.0
 10
233.6530214500211
 20
155.6838196379472
 30
0.0
 10
233.6846040741006
 20
155.2683094093355
 30
0.0
 10
233.6980918593893
 20
155.090860165895
 30
0.0
  0
LWPOLYLINE
  5
287
330
1F
100
AcDbEntity
  8
0
  6
Continuous
 62
     7
370
    30
100
AcDbPolyline
 90
       54
 70
   128
 43
0.0
 10
245.8012848059
 20
173.9173947531
 10
246.3809980667
 20
173.5405066113
 10
246.8794265358
 20
173.126682353
 10
247.2895733701
 20
172.6817311639
 10
247.605681007
 20
172.2118991831
 10
247.8233119882
 20
171.7237818218
 10
247.9394112518
 20
171.2242311779
 10
247.9523490187
 20
170.7202598472
 10
247.861943671
 20
170.2189424827
 10
247.6694643015
 20
169.7273164811
 10
247.3776128986
 20
169.252283194
 10
246.9904864165
 20
168.8005110472
 10
246.5135192622
 20
168.3783419316
 10
245.9534070091
 20
167.9917021761
 10
245.3180124054
 20
167.6460193552
 10
244.6162549985
 20
167.3461460982
 10
243.8579859243
 20
167.0962919681
 10
243.0538496183
 20
166.8999643693
 10
242.2151343916
 20
166.7599193109
 10
241.3536139675
 20
166.6781227185
 10
240.4813822043
 20
166.6557228371
 10
239.6106833239
 20
166.6930341117
 10
238.7537400301
 20
166.789532774
 10
237.9225819282
 20
166.9438641942
 10
237.1288766561
 20
167.1538618976
 10
236.383766096
 20
167.4165779765
 10
235.6977099669
 20
167.7283244733
 10
235.0803389929
 20
168.0847251504
 10
234.5403197092
 20
168.4807769236
 10
234.0852328028
 20
168.9109200941
 10
233.7214666964
 20
169.3691163946
 10
233.4541278686
 20
169.8489337537
 10
233.2869691707
 20
170.3436365871
 10
233.2223371442
 20
170.8462803517
 10
233.2611390813
 20
171.3498090307
 10
233.4028302877
 20
171.8471541853
 10
233.6454217295
 20
172.3313341796
 10
233.9855079546
 20
172.7955521879
 10
234.4183148979
 20
173.2332916069
 10
234.9377668987
 20
173.6384075347
 10
235.5365719894
 20
174.0052130317
 10
236.2063242593
 20
174.3285589528
 10
236.9376218546
 20
174.6039062301
 10
237.72019896
 20
174.8273895913
 10
238.5430699085
 20
174.9958718199
 10
239.3946833956
 20
175.1069877947
 10
240.2630846348
 20
175.1591776911
 10
241.1360831762
 20
175.1517088772
 10
242.0014240339
 20
175.0846861989
 10
242.8469597193
 20
174.9590505077
 10
243.6608207645
 20
174.7765654532
 10
244.4315823447
 20
174.5397927257
 10
245.1484246567
 20
174.2520560951
 10
245.8012848059
 20
173.9173947531
  0
LWPOLYLINE
  5
288
330
1F
100
AcDbEntity
  8
0
  6
Continuous
 62
     7
370
    30
100
AcDbPolyline
 90
       14
 70
   128
 43
0.0
 10
234.3290959979
 20
168.6662942046
 10
234.3057975262
 20
168.75219978
 10
234.2412985241
 20
169.221051626
 10
234.2813182614
 20
169.6908119011
 10
234.4251979531
 20
170.1537476419
 10
234.670569122
 20
170.6022382276
 10
235.0133925886
 20
171.028900826
 10
235.4480249609
 20
171.4267119267
 10
235.9673115341
 20
171.7891229587
 10
236.5627040675
 20
172.1101680892
 10
237.2244015011
 20
172.3845624308
 10
237.9415112964
 20
172.6077890385
 10
238.7022287439
 20
172.7761732653
 10
239.4940312859
 20
172.8869432527
  0
SPLINE
  5
289
330
1F
100
AcDbEntity
  8
0
  6
Continuous
 62
     7
370
    30
100
AcDbSpline
210
0.0
220
0.0
230
1.0
 70
     8
 71
     3
 72
    22
 73
    18
 74
     0
 42
0.000000001
 43
0.00000001
 40
0.0
 40
0.0
 40
0.0
 40
0.0
 40
0.078438551632428
 40
0.15682496441443
 40
0.2334552783494666
 40
0.3100270025302156
 40
0.3771020742379796
 40
0.4441522414500241
 40
0.5049152957753931
 40
0.5656784286120609
 40
0.6243753942097473
 40
0.6830864253274584
 40
0.7433534674961615
 40
0.8036429168149783
 40
0.8684986018096571
 40
0.9333820935635594
 40
1.0
 40
1.0
 40
1.0
 40
1.0
 10
239.4940312859269
 20
172.8869432527363
 30
0.0
 10
239.797188482551
 20
173.1016139129825
 30
0.0
 10
240.4033013643304
 20
173.5308125398477
 30
0.0
 10
241.4053684587151
 20
173.9991036797763
 30
0.0
 10
242.4371443117319
 20
174.3073149667072
 30
0.0
 10
243.4272734463834
 20
174.4333728246698
 30
0.0
 10
244.3408430968081
 20
174.3866831432516
 30
0.0
 10
245.129592009646
 20
174.2032661978881
 30
0.0
 10
245.8081794178468
 20
173.8935159432945
 30
0.0
 10
246.3641438084327
 20
173.4913178986738
 30
0.0
 10
246.8031651832609
 20
172.9983584306165
 30
0.0
 10
247.128436991579
 20
172.4318648178175
 30
0.0
 10
247.3320803627956
 20
171.7972388742442
 30
0.0
 10
247.4190095896139
 20
171.0949305286106
 30
0.0
 10
247.3737061990178
 20
170.3427018341237
 30
0.0
 10
247.2108482174199
 20
169.5487864913154
 30
0.0
 10
246.9950434746792
 20
169.0197411861743
 30
0.0
 10
246.8857179438615
 20
168.7517296583614
 30
0.0
  0
LINE
  5
28A
330
1F
100
AcDbEntity
  8
0
  6
Continuous
 62
     7
370
    30
100
AcDbLine
 10
239.4940312859
 20
166.7026177633
 30
0.0
 11
239.4940312859
 21
172.8869432527
 31
0.0
  0
ARC
  5
28B
330
1F
100
AcDbEntity
  8
0
  6
Continuous
 62
     7
370
    30
100
AcDbCircle
 10
240.5905789443
 20
119.5310836618
 30
0.0
 40
17.53585749186805
100
AcDbArc
 50
242.3677125134
 51
297.6322874866
  0
ENDSEC
  0
SECTION
  2
OBJECTS
  0
DICTIONARY
  5
C
330
0
100
AcDbDictionary
281
     1
  3
ACAD_GROUP
350
D
  3
ACAD_LAYOUT
350
1A
  3
ACAD_MLINESTYLE
350
17
  3
ACAD_PLOTSETTINGS
350
19
  3
ACAD_PLOTSTYLENAME
350
E
  3
ACAD_SCALELIST
350
47
  0
DICTIONARY
  5
D
102
{ACAD_REACTORS
330
C
102
}
330
C
100
AcDbDictionary
281
     1
  0
DICTIONARY
  5
1A
102
{ACAD_REACTORS
330
C
102
}
330
C
100
AcDbDictionary
281
     1
  3
Layout1
350
1E
  3
Layout2
350
26
  3
Model
350
22
  0
DICTIONARY
  5
17
102
{ACAD_REACTORS
330
C
102
}
330
C
100
AcDbDictionary
281
     1
  3
Standard
350
18
  0
DICTIONARY
  5
19
102
{ACAD_REACTORS
330
C
102
}
330
C
100
AcDbDictionary
281
     1
  0
ACDBDICTIONARYWDFLT
  5
E
102
{ACAD_REACTORS
330
C
102
}
330
C
100
AcDbDictionary
281
     1
  3
Normal
350
F
100
AcDbDictionaryWithDefault
340
F
  0
DICTIONARY
  5
47
102
{ACAD_REACTORS
330
C
102
}
330
C
100
AcDbDictionary
281
     1
  3
A0
350
48
  3
A1
350
49
  3
A2
350
4A
  3
A3
350
4B
  3
A4
350
4C
  3
A5
350
4D
  3
A6
350
4E
  3
A7
350
4F
  3
A8
350
50
  3
A9
350
51
  3
B0
350
52
  3
B1
350
53
  3
B2
350
54
  3
B3
350
55
  3
B4
350
56
  3
B5
350
57
  3
B6
350
58
  3
B7
350
59
  3
B8
350
5A
  3
B9
350
5B
  3
C0
350
5C
  3
C1
350
5D
  3
C2
350
5E
  3
C3
350
5F
  3
C4
350
60
  3
C5
350
61
  3
C6
350
62
  3
C7
350
63
  3
C8
350
64
  3
C9
350
65
  3
D0
350
66
  3
D1
350
67
  3
D2
350
68
  0
LAYOUT
  5
1E
102
{ACAD_REACTORS
330
1A
102
}
330
1A
100
AcDbPlotSettings
  1

  2
none_device
  4

  6

 40
0.0
 41
0.0
 42
0.0
 43
0.0
 44
0.0
 45
0.0
 46
0.0
 47
0.0
 48
0.0
 49
0.0
140
0.0
141
0.0
142
1.0
143
1.0
 70
   688
 72
     1
 73
     0
 74
     5
  7

 75
    16
147
1.0
148
0.0
149
0.0
100
AcDbLayout
  1
Layout1
 70
     1
 71
     1
 10
0.0
 20
0.0
 11
420.0
 21
297.0
 12
0.0
 22
0.0
 32
0.0
 14
1.0000000000E+20
 24
1.0000000000E+20
 34
1.0000000000E+20
 15
-1.0000000000E+20
 25
-1.0000000000E+20
 35
-1.0000000000E+20
146
0.0
 13
0.0
 23
0.0
 33
0.0
 16
1.0
 26
0.0
 36
0.0
 17
0.0
 27
1.0
 37
0.0
 76
     0
330
1B
  0
LAYOUT
  5
26
102
{ACAD_REACTORS
330
1A
102
}
330
1A
100
AcDbPlotSettings
  1

  2
none_device
  4

  6

 40
0.0
 41
0.0
 42
0.0
 43
0.0
 44
0.0
 45
0.0
 46
0.0
 47
0.0
 48
0.0
 49
0.0
140
0.0
141
0.0
142
1.0
143
1.0
 70
   688
 72
     1
 73
     0
 74
     5
  7

 75
    16
147
1.0
148
0.0
149
0.0
100
AcDbLayout
  1
Layout2
 70
     1
 71
     2
 10
0.0
 20
0.0
 11
0.0
 21
0.0
 12
0.0
 22
0.0
 32
0.0
 14
0.0
 24
0.0
 34
0.0
 15
0.0
 25
0.0
 35
0.0
146
0.0
 13
0.0
 23
0.0
 33
0.0
 16
1.0
 26
0.0
 36
0.0
 17
0.0
 27
1.0
 37
0.0
 76
     0
330
23
  0
LAYOUT
  5
22
102
{ACAD_REACTORS
330
1A
102
}
330
1A
100
AcDbPlotSettings
  1

  2
none_device
  4
Letter_(8.50_x_11.00_Inches)
  6

 40
6.35
 41
6.35
 42
6.35000508
 43
6.35000508
 44
215.9
 45
279.4
 46
0.0
 47
0.0
 48
0.0
 49
0.0
140
0.0
141
0.0
142
1.0
143
1.0
 70
  1712
 72
     1
 73
     0
 74
     0
  7

 75
     0
147
1.0
148
0.0
149
0.0
100
AcDbLayout
  1
Model
 70
     1
 71
     0
 10
0.0
 20
0.0
 11
297.0
 21
210.0
 12
0.0
 22
0.0
 32
0.0
 14
0.0
 24
0.0
 34
0.0
 15
297.0
 25
210.0
 35
0.0
146
0.0
 13
0.0
 23
0.0
 33
0.0
 16
1.0
 26
0.0
 36
0.0
 17
0.0
 27
1.0
 37
0.0
 76
     0
330
1F
331
29
  0
MLINESTYLE
  5
18
102
{ACAD_REACTORS
330
17
102
}
330
17
100
AcDbMlineStyle
  2
Standard
 70
     0
  3

 62
   256
 51
90.0
 52
90.0
 71
     2
 49
0.5
 62
   256
  6
BYLAYER
 49
-0.5
 62
   256
  6
BYLAYER
  0
ACDBPLACEHOLDER
  5
F
102
{ACAD_REACTORS
330
E
102
}
330
E
  0
SCALE
  5
48
102
{ACAD_REACTORS
330
47
102
}
330
47
100
AcDbScale
 70
     0
300
1:1
140
1.0
141
1.0
290
     1
  0
SCALE
  5
49
102
{ACAD_REACTORS
330
47
102
}
330
47
100
AcDbScale
 70
     0
300
1:2
140
1.0
141
2.0
290
     0
  0
SCALE
  5
4A
102
{ACAD_REACTORS
330
47
102
}
330
47
100
AcDbScale
 70
     0
300
1:4
140
1.0
141
4.0
290
     0
  0
SCALE
  5
4B
102
{ACAD_REACTORS
330
47
102
}
330
47
100
AcDbScale
 70
     0
300
1:5
140
1.0
141
5.0
290
     0
  0
SCALE
  5
4C
102
{ACAD_REACTORS
330
47
102
}
330
47
100
AcDbScale
 70
     0
300
1:8
140
1.0
141
8.0
290
     0
  0
SCALE
  5
4D
102
{ACAD_REACTORS
330
47
102
}
330
47
100
AcDbScale
 70
     0
300
1:10
140
1.0
141
10.0
290
     0
  0
SCALE
  5
4E
102
{ACAD_REACTORS
330
47
102
}
330
47
100
AcDbScale
 70
     0
300
1:16
140
1.0
141
16.0
290
     0
  0
SCALE
  5
4F
102
{ACAD_REACTORS
330
47
102
}
330
47
100
AcDbScale
 70
     0
300
1:20
140
1.0
141
20.0
290
     0
  0
SCALE
  5
50
102
{ACAD_REACTORS
330
47
102
}
330
47
100
AcDbScale
 70
     0
300
1:30
140
1.0
141
30.0
290
     0
  0
SCALE
  5
51
102
{ACAD_REACTORS
330
47
102
}
330
47
100
AcDbScale
 70
     0
300
1:40
140
1.0
141
40.0
290
     0
  0
SCALE
  5
52
102
{ACAD_REACTORS
330
47
102
}
330
47
100
AcDbScale
 70
     0
300
1:50
140
1.0
141
50.0
290
     0
  0
SCALE
  5
53
102
{ACAD_REACTORS
330
47
102
}
330
47
100
AcDbScale
 70
     0
300
1:100
140
1.0
141
100.0
290
     0
  0
SCALE
  5
54
102
{ACAD_REACTORS
330
47
102
}
330
47
100
AcDbScale
 70
     0
300
2:1
140
2.0
141
1.0
290
     0
  0
SCALE
  5
55
102
{ACAD_REACTORS
330
47
102
}
330
47
100
AcDbScale
 70
     0
300
4:1
140
4.0
141
1.0
290
     0
  0
SCALE
  5
56
102
{ACAD_REACTORS
330
47
102
}
330
47
100
AcDbScale
 70
     0
300
8:1
140
8.0
141
1.0
290
     0
  0
SCALE
  5
57
102
{ACAD_REACTORS
330
47
102
}
330
47
100
AcDbScale
 70
     0
300
10:1
140
10.0
141
1.0
290
     0
  0
SCALE
  5
58
102
{ACAD_REACTORS
330
47
102
}
330
47
100
AcDbScale
 70
     0
300
100:1
140
100.0
141
1.0
290
     0
  0
SCALE
  5
59
102
{ACAD_REACTORS
330
47
102
}
330
47
100
AcDbScale
 70
     0
300
1/128" = 1'-0"
140
0.0078125
141
12.0
290
     0
  0
SCALE
  5
5A
102
{ACAD_REACTORS
330
47
102
}
330
47
100
AcDbScale
 70
     0
300
1/64" = 1'-0"
140
0.015625
141
12.0
290
     0
  0
SCALE
  5
5B
102
{ACAD_REACTORS
330
47
102
}
330
47
100
AcDbScale
 70
     0
300
1/32" = 1'-0"
140
0.03125
141
12.0
290
     0
  0
SCALE
  5
5C
102
{ACAD_REACTORS
330
47
102
}
330
47
100
AcDbScale
 70
     0
300
1/16" = 1'-0"
140
0.0625
141
12.0
290
     0
  0
SCALE
  5
5D
102
{ACAD_REACTORS
330
47
102
}
330
47
100
AcDbScale
 70
     0
300
3/32" = 1'-0"
140
0.09375
141
12.0
290
     0
  0
SCALE
  5
5E
102
{ACAD_REACTORS
330
47
102
}
330
47
100
AcDbScale
 70
     0
300
1/8" = 1'-0"
140
0.125
141
12.0
290
     0
  0
SCALE
  5
5F
102
{ACAD_REACTORS
330
47
102
}
330
47
100
AcDbScale
 70
     0
300
3/16" = 1'-0"
140
0.1875
141
12.0
290
     0
  0
SCALE
  5
60
102
{ACAD_REACTORS
330
47
102
}
330
47
100
AcDbScale
 70
     0
300
1/4" = 1'-0"
140
0.25
141
12.0
290
     0
  0
SCALE
  5
61
102
{ACAD_REACTORS
330
47
102
}
330
47
100
AcDbScale
 70
     0
300
3/8" = 1'-0"
140
0.375
141
12.0
290
     0
  0
SCALE
  5
62
102
{ACAD_REACTORS
330
47
102
}
330
47
100
AcDbScale
 70
     0
300
1/2" = 1'-0"
140
0.5
141
12.0
290
     0
  0
SCALE
  5
63
102
{ACAD_REACTORS
330
47
102
}
330
47
100
AcDbScale
 70
     0
300
3/4" = 1'-0"
140
0.75
141
12.0
290
     0
  0
SCALE
  5
64
102
{ACAD_REACTORS
330
47
102
}
330
47
100
AcDbScale
 70
     0
300
1" = 1'-0"
140
1.0
141
12.0
290
     0
  0
SCALE
  5
65
102
{ACAD_REACTORS
330
47
102
}
330
47
100
AcDbScale
 70
     0
300
1-1/2" = 1'-0"
140
1.5
141
12.0
290
     0
  0
SCALE
  5
66
102
{ACAD_REACTORS
330
47
102
}
330
47
100
AcDbScale
 70
     0
300
3" = 1'-0"
140
3.0
141
12.0
290
     0
  0
SCALE
  5
67
102
{ACAD_REACTORS
330
47
102
}
330
47
100
AcDbScale
 70
     0
300
6" = 1'-0"
140
6.0
141
12.0
290
     0
  0
SCALE
  5
68
102
{ACAD_REACTORS
330
47
102
}
330
47
100
AcDbScale
 70
     0
300
1'-0" = 1'-0"
140
12.0
141
12.0
290
     0
  0
ENDSEC
  0
EOF
