  0
SECTION
  2
HEADER
  9
$ACADVER
  1
AC1015
  9
$ACADMAINTVER
 70
     6
  9
$DWGCODEPAGE
  3
ANSI_950
  9
$INSBASE
 10
0.0
 20
0.0
 30
0.0
  9
$EXTMIN
 10
0.0
 20
0.0
 30
0.0
  9
$EXTMAX
 10
297.0
 20
210.0
 30
0.0
  9
$LIMMIN
 10
0.0
 20
0.0
  9
$LIMMAX
 10
297.0
 20
210.0
  9
$ORTHOMODE
 70
     0
  9
$REGENMODE
 70
     1
  9
$FILLMODE
 70
     1
  9
$QTEXTMODE
 70
     0
  9
$MIRRTEXT
 70
     1
  9
$LTSCALE
 40
1.0
  9
$ATTMODE
 70
     1
  9
$TEXTSIZE
 40
2.5
  9
$TRACEWID
 40
1.0
  9
$TEXTSTYLE
  7
Standard
  9
$CLAYER
  8
0
  9
$CELTYPE
  6
ByLayer
  9
$CECOLOR
 62
   256
  9
$CELTSCALE
 40
1.0
  9
$DISPSILH
 70
     0
  9
$DIMSCALE
 40
1.0
  9
$DIMASZ
 40
2.0
  9
$DIMEXO
 40
1.0
  9
$DIMDLI
 40
3.75
  9
$DIMRND
 40
0.0
  9
$DIMDLE
 40
0.0
  9
$DIMEXE
 40
1.0
  9
$DIMTP
 40
0.0
  9
$DIMTM
 40
0.0
  9
$DIMTXT
 40
2.5
  9
$DIMCEN
 40
2.5
  9
$DIMTSZ
 40
0.0
  9
$DIMTOL
 70
     0
  9
$DIMLIM
 70
     0
  9
$DIMTIH
 70
     1
  9
$DIMTOH
 70
     1
  9
$DIMSE1
 70
     0
  9
$DIMSE2
 70
     0
  9
$DIMTAD
 70
     1
  9
$DIMZIN
 70
     0
  9
$DIMBLK
  1

  9
$DIMASO
 70
     1
  9
$DIMSHO
 70
     1
  9
$DIMPOST
  1

  9
$DIMAPOST
  1

  9
$DIMALT
 70
     0
  9
$DIMALTD
 70
     3
  9
$DIMALTF
 40
0.0393700787
  9
$DIMLFAC
 40
1.0
  9
$DIMTOFL
 70
     1
  9
$DIMTVP
 40
0.0
  9
$DIMTIX
 70
     0
  9
$DIMSOXD
 70
     0
  9
$DIMSAH
 70
     0
  9
$DIMBLK1
  1

  9
$DIMBLK2
  1

  9
$DIMSTYLE
  2
ISO-25
  9
$DIMCLRD
 70
     0
  9
$DIMCLRE
 70
     0
  9
$DIMCLRT
 70
     0
  9
$DIMTFAC
 40
1.0
  9
$DIMGAP
 40
1.0
  9
$DIMJUST
 70
     0
  9
$DIMSD1
 70
     0
  9
$DIMSD2
 70
     0
  9
$DIMTOLJ
 70
     0
  9
$DIMTZIN
 70
     0
  9
$DIMALTZ
 70
     0
  9
$DIMALTTZ
 70
     0
  9
$DIMUPT
 70
     0
  9
$DIMDEC
 70
     2
  9
$DIMTDEC
 70
     2
  9
$DIMALTU
 70
     2
  9
$DIMALTTD
 70
     3
  9
$DIMTXSTY
  7
Standard
  9
$DIMAUNIT
 70
     0
  9
$DIMADEC
 70
     1
  9
$DIMALTRND
 40
0.0
  9
$DIMAZIN
 70
     0
  9
$DIMDSEP
 70
    44
  9
$DIMATFIT
 70
     3
  9
$DIMFRAC
 70
     0
  9
$DIMLDRBLK
  1

  9
$DIMLUNIT
 70
     2
  9
$DIMLWD
 70
    -2
  9
$DIMLWE
 70
    -2
  9
$DIMTMOVE
 70
     0
  9
$LUNITS
 70
     2
  9
$LUPREC
 70
     2
  9
$SKETCHINC
 40
1.0
  9
$FILLETRAD
 40
10.0
  9
$AUNITS
 70
     0
  9
$AUPREC
 70
     1
  9
$MENU
  1
.
  9
$ELEVATION
 40
0.0
  9
$PELEVATION
 40
0.0
  9
$THICKNESS
 40
0.0
  9
$LIMCHECK
 70
     0
  9
$CHAMFERA
 40
0.0
  9
$CHAMFERB
 40
0.0
  9
$CHAMFERC
 40
0.0
  9
$CHAMFERD
 40
0.0
  9
$SKPOLY
 70
     0
  9
$TDCREATE
 40
2457445.660401227
  9
$TDUCREATE
 40
2457445.327067893
  9
$TDUPDATE
 40
2457445.660404838
  9
$TDUUPDATE
 40
2457445.327071505
  9
$TDINDWG
 40
0.0000000116
  9
$TDUSRTIMER
 40
0.0000000116
  9
$USRTIMER
 70
     1
  9
$ANGBASE
 50
0.0
  9
$ANGDIR
 70
     0
  9
$PDMODE
 70
     0
  9
$PDSIZE
 40
-1.0
  9
$PLINEWID
 40
0.0
  9
$SPLFRAME
 70
     0
  9
$SPLINETYPE
 70
     6
  9
$SPLINESEGS
 70
     8
  9
$HANDSEED
  5
228
  9
$SURFTAB1
 70
     6
  9
$SURFTAB2
 70
     6
  9
$SURFTYPE
 70
     6
  9
$SURFU
 70
     6
  9
$SURFV
 70
     6
  9
$UCSBASE
  2

  9
$UCSNAME
  2

  9
$UCSORG
 10
0.0
 20
0.0
 30
0.0
  9
$UCSXDIR
 10
1.0
 20
0.0
 30
0.0
  9
$UCSYDIR
 10
0.0
 20
1.0
 30
0.0
  9
$UCSORTHOREF
  2

  9
$UCSORTHOVIEW
 70
     0
  9
$UCSORGTOP
 10
0.0
 20
0.0
 30
0.0
  9
$UCSORGBOTTOM
 10
0.0
 20
0.0
 30
0.0
  9
$UCSORGLEFT
 10
0.0
 20
0.0
 30
0.0
  9
$UCSORGRIGHT
 10
0.0
 20
0.0
 30
0.0
  9
$UCSORGFRONT
 10
0.0
 20
0.0
 30
0.0
  9
$UCSORGBACK
 10
0.0
 20
0.0
 30
0.0
  9
$PUCSBASE
  2

  9
$PUCSNAME
  2

  9
$PUCSORG
 10
0.0
 20
0.0
 30
0.0
  9
$PUCSXDIR
 10
1.0
 20
0.0
 30
0.0
  9
$PUCSYDIR
 10
0.0
 20
1.0
 30
0.0
  9
$PUCSORTHOREF
  2

  9
$PUCSORTHOVIEW
 70
     0
  9
$PUCSORGTOP
 10
0.0
 20
0.0
 30
0.0
  9
$PUCSORGBOTTOM
 10
0.0
 20
0.0
 30
0.0
  9
$PUCSORGLEFT
 10
0.0
 20
0.0
 30
0.0
  9
$PUCSORGRIGHT
 10
0.0
 20
0.0
 30
0.0
  9
$PUCSORGFRONT
 10
0.0
 20
0.0
 30
0.0
  9
$PUCSORGBACK
 10
0.0
 20
0.0
 30
0.0
  9
$USERI1
 70
     0
  9
$USERI2
 70
     0
  9
$USERI3
 70
     0
  9
$USERI4
 70
     0
  9
$USERI5
 70
     0
  9
$USERR1
 40
0.0
  9
$USERR2
 40
0.0
  9
$USERR3
 40
0.0
  9
$USERR4
 40
0.0
  9
$USERR5
 40
0.0
  9
$WORLDVIEW
 70
     1
  9
$SHADEDGE
 70
     3
  9
$SHADEDIF
 70
    70
  9
$TILEMODE
 70
     1
  9
$MAXACTVP
 70
    64
  9
$PINSBASE
 10
0.0
 20
0.0
 30
0.0
  9
$PLIMCHECK
 70
     0
  9
$PEXTMIN
 10
1.0000000000E+20
 20
1.0000000000E+20
 30
1.0000000000E+20
  9
$PEXTMAX
 10
-1.0000000000E+20
 20
-1.0000000000E+20
 30
-1.0000000000E+20
  9
$PLIMMIN
 10
0.0
 20
0.0
  9
$PLIMMAX
 10
420.0
 20
297.0
  9
$UNITMODE
 70
     0
  9
$VISRETAIN
 70
     1
  9
$PLINEGEN
 70
     0
  9
$PSLTSCALE
 70
     1
  9
$TREEDEPTH
 70
  3020
  9
$CMLSTYLE
  2
Standard
  9
$CMLJUST
 70
     0
  9
$CMLSCALE
 40
20.0
  9
$PROXYGRAPHICS
 70
     1
  9
$MEASUREMENT
 70
     1
  9
$CELWEIGHT
370
    -1
  9
$ENDCAPS
280
     0
  9
$JOINSTYLE
280
     0
  9
$LWDISPLAY
290
     1
  9
$INSUNITS
 70
     4
  9
$HYPERLINKBASE
  1

  9
$STYLESHEET
  1

  9
$XEDIT
290
     1
  9
$CEPSNTYPE
380
     0
  9
$PSTYLEMODE
290
     1
  9
$FINGERPRINTGUID
  2
{F90E4C25-3779-4D76-9CF4-2AB8A0A39637}
  9
$VERSIONGUID
  2
{FAEB1C32-E019-11D5-929B-00C0DF256EC4}
  9
$EXTNAMES
290
     1
  9
$PSVPSCALE
 40
0.0
  9
$OLESTARTUP
290
     0
  0
ENDSEC
  0
SECTION
  2
CLASSES
  0
CLASS
  1
ACDBDICTIONARYWDFLT
  2
AcDbDictionaryWithDefault
  3
ObjectDBX Classes
 90
        0
280
     0
281
     0
  0
CLASS
  1
VISUALSTYLE
  2
AcDbVisualStyle
  3
ObjectDBX Classes
 90
     4095
280
     0
281
     0
  0
CLASS
  1
MATERIAL
  2
AcDbMaterial
  3
ObjectDBX Classes
 90
     1153
280
     0
281
     0
  0
CLASS
  1
SCALE
  2
AcDbScale
  3
ObjectDBX Classes
 90
     1153
280
     0
281
     0
  0
CLASS
  1
TABLESTYLE
  2
AcDbTableStyle
  3
ObjectDBX Classes
 90
     4095
280
     0
281
     0
  0
CLASS
  1
MLEADERSTYLE
  2
AcDbMLeaderStyle
  3
ACDB_MLEADERSTYLE_CLASS
 90
     4095
280
     0
281
     0
  0
CLASS
  1
SUN
  2
AcDbSun
  3
SCENEOE
 90
     1153
280
     0
281
     0
  0
CLASS
  1
ACDBPLACEHOLDER
  2
AcDbPlaceHolder
  3
ObjectDBX Classes
 90
        0
280
     0
281
     0
  0
CLASS
  1
LAYOUT
  2
AcDbLayout
  3
ObjectDBX Classes
 90
        0
280
     0
281
     0
  0
ENDSEC
  0
SECTION
  2
TABLES
  0
TABLE
  2
VPORT
  5
8
330
0
100
AcDbSymbolTable
 70
     1
  0
VPORT
  5
29
330
8
100
AcDbSymbolTableRecord
100
AcDbViewportTableRecord
  2
*Active
 70
     0
 10
0.0
 20
0.0
 11
1.0
 21
1.0
 12
148.5
 22
105.0
 13
0.0
 23
0.0
 14
10.0
 24
10.0
 15
10.0
 25
10.0
 16
0.0
 26
0.0
 36
1.0
 17
0.0
 27
0.0
 37
0.0
 40
210.0
 41
1.4142857143
 42
50.0
 43
0.0
 44
0.0
 50
0.0
 51
0.0
 71
     0
 72
  2000
 73
     1
 74
     3
 75
     0
 76
     0
 77
     0
 78
     0
281
     0
 65
     1
110
0.0
120
0.0
130
0.0
111
1.0
121
0.0
131
0.0
112
0.0
122
1.0
132
0.0
 79
     0
146
0.0
  0
ENDTAB
  0
TABLE
  2
LTYPE
  5
5
330
0
100
AcDbSymbolTable
 70
     6
  0
LTYPE
  5
14
330
5
100
AcDbSymbolTableRecord
100
AcDbLinetypeTableRecord
  2
ByBlock
 70
     0
  3

 72
    65
 73
     0
 40
0.0
  0
LTYPE
  5
15
330
5
100
AcDbSymbolTableRecord
100
AcDbLinetypeTableRecord
  2
ByLayer
 70
     0
  3

 72
    65
 73
     0
 40
0.0
  0
LTYPE
  5
16
330
5
100
AcDbSymbolTableRecord
100
AcDbLinetypeTableRecord
  2
Continuous
 70
     0
  3
Solid line
 72
    65
 73
     0
 40
0.0
  0
LTYPE
  5
6E
330
5
100
AcDbSymbolTableRecord
100
AcDbLinetypeTableRecord
  2
HIDDEN
 70
     0
  3
Hidden __ __ __ __ __ __ __ __ __ __ __ __ __ __
 72
    65
 73
     2
 40
1.905
 49
1.27
 74
     0
 49
-0.635
 74
     0
  0
LTYPE
  5
6F
330
5
100
AcDbSymbolTableRecord
100
AcDbLinetypeTableRecord
  2
PHANTOM
 70
     0
  3
Phantom ______  __  __  ______  __  __  ______
 72
    65
 73
     6
 40
12.7
 49
6.35
 74
     0
 49
-1.27
 74
     0
 49
1.27
 74
     0
 49
-1.27
 74
     0
 49
1.27
 74
     0
 49
-1.27
 74
     0
  0
LTYPE
  5
70
330
5
100
AcDbSymbolTableRecord
100
AcDbLinetypeTableRecord
  2
CENTER
 70
     0
  3
Center ____ _ ____ _ ____ _ ____ _ ____ _ ____
 72
    65
 73
     4
 40
10.16
 49
6.35
 74
     0
 49
-1.27
 74
     0
 49
1.27
 74
     0
 49
-1.27
 74
     0
  0
LTYPE
  5
71
330
5
100
AcDbSymbolTableRecord
100
AcDbLinetypeTableRecord
  2
CENTERX2
 70
     0
  3
Center (2x) ________  __  ________  __  _____
 72
    65
 73
     4
 40
20.32
 49
12.7
 74
     0
 49
-2.54
 74
     0
 49
2.54
 74
     0
 49
-2.54
 74
     0
  0
LTYPE
  5
72
330
5
100
AcDbSymbolTableRecord
100
AcDbLinetypeTableRecord
  2
DOT2
 70
     0
  3
Dot (.5x) ........................................
 72
    65
 73
     2
 40
0.635
 49
0.0
 74
     0
 49
-0.635
 74
     0
  0
ENDTAB
  0
TABLE
  2
LAYER
  5
2
330
0
100
AcDbSymbolTable
 70
     3
  0
LAYER
  5
10
330
2
100
AcDbSymbolTableRecord
100
AcDbLayerTableRecord
  2
0
 70
     0
 62
     7
  6
Continuous
370
    -3
390
F
  0
LAYER
  5
73
330
2
100
AcDbSymbolTableRecord
100
AcDbLayerTableRecord
  2
SLD-0
 70
     0
 62
     7
  6
Continuous
370
    15
390
F
  0
LAYER
  5
74
330
2
100
AcDbSymbolTableRecord
100
AcDbLayerTableRecord
  2
DIM
 70
     0
 62
     7
  6
Continuous
370
    -3
390
F
  0
ENDTAB
  0
TABLE
  2
STYLE
  5
3
330
0
100
AcDbSymbolTable
 70
     3
  0
STYLE
  5
11
330
3
100
AcDbSymbolTableRecord
100
AcDbTextStyleTableRecord
  2
Standard
 70
     0
 40
0.0
 41
1.0
 50
0.0
 71
     0
 42
2.5
  3
txt
  4

  0
STYLE
  5
C5
330
3
100
AcDbSymbolTableRecord
100
AcDbTextStyleTableRecord
  2
SLDTEXTSTYLE0
 70
     0
 40
0.0
 41
0.605
 50
0.0
 71
     0
 42
2.5
  3
TXT
  4

  0
STYLE
  5
CE
330
3
100
AcDbSymbolTableRecord
100
AcDbTextStyleTableRecord
  2
SLDTEXTSTYLE1
 70
     0
 40
0.0
 41
0.7
 50
0.0
 71
     0
 42
2.5
  3
TXT
  4

  0
ENDTAB
  0
TABLE
  2
VIEW
  5
6
330
0
100
AcDbSymbolTable
 70
     0
  0
ENDTAB
  0
TABLE
  2
UCS
  5
7
330
0
100
AcDbSymbolTable
 70
     0
  0
ENDTAB
  0
TABLE
  2
APPID
  5
9
330
0
100
AcDbSymbolTable
 70
     1
  0
APPID
  5
12
330
9
100
AcDbSymbolTableRecord
100
AcDbRegAppTableRecord
  2
ACAD
 70
     0
  0
ENDTAB
  0
TABLE
  2
DIMSTYLE
  5
A
330
0
100
AcDbSymbolTable
 70
     5
100
AcDbDimStyleTable
  0
DIMSTYLE
105
27
330
A
100
AcDbSymbolTableRecord
100
AcDbDimStyleTableRecord
  2
ISO-25
 70
     0
 41
2.5
 42
0.625
 43
3.75
 44
1.25
 73
     0
 74
     0
 77
     1
 78
     8
140
2.5
141
2.5
143
0.0393700787
147
0.625
171
     3
172
     1
178
     0
271
     2
272
     2
274
     3
278
    44
283
     0
284
     8
340
11
  0
DIMSTYLE
105
121
102
{ACAD_REACTORS
330
120
330
12B
330
135
330
13F
330
149
330
153
330
15D
330
1D5
330
1EB
102
}
330
A
100
AcDbSymbolTableRecord
100
AcDbDimStyleTableRecord
  2
SLDDIMSTYLE0
 70
     0
 41
2.0
 44
0.0
 45
0.000000001
 73
     0
 74
     0
 77
     1
 78
    12
 79
     3
140
2.5
147
0.625
173
     1
178
     0
271
     2
272
     2
276
     2
284
    12
340
C5
  0
DIMSTYLE
105
168
102
{ACAD_REACTORS
330
167
102
}
330
A
100
AcDbSymbolTableRecord
100
AcDbDimStyleTableRecord
  2
SLDDIMSTYLE1
 70
     0
 41
2.0
 44
0.0
 45
0.000000001
 78
    12
 79
     3
140
2.5
141
0.0
147
0.625
173
     1
178
     0
271
     2
272
     2
276
     2
284
    12
340
C5
  0
DIMSTYLE
105
174
102
{ACAD_REACTORS
330
173
102
}
330
A
100
AcDbSymbolTableRecord
100
AcDbDimStyleTableRecord
  2
SLDDIMSTYLE2
 70
     0
  3
<>
 41
2.0
 44
0.0
 45
0.000000001
 78
    12
 79
     3
140
2.5
141
0.0
147
0.625
173
     1
178
     0
271
     2
272
     2
276
     2
284
    12
340
C5
  0
DIMSTYLE
105
1E0
102
{ACAD_REACTORS
330
1DF
102
}
330
A
100
AcDbSymbolTableRecord
100
AcDbDimStyleTableRecord
  2
SLDDIMSTYLE3
 70
     0
 41
2.0
 44
0.0
 45
0.000000001
 73
     0
 74
     0
 77
     1
 78
     8
 79
     2
140
2.5
147
0.625
173
     1
178
     0
271
     2
272
     2
276
     2
284
    12
340
C5
  0
ENDTAB
  0
TABLE
  2
BLOCK_RECORD
  5
1
330
0
100
AcDbSymbolTable
 70
    21
  0
BLOCK_RECORD
  5
1F
330
1
100
AcDbSymbolTableRecord
100
AcDbBlockTableRecord
  2
*Model_Space
340
22
  0
BLOCK_RECORD
  5
1B
330
1
100
AcDbSymbolTableRecord
100
AcDbBlockTableRecord
  2
*Paper_Space
340
1E
  0
BLOCK_RECORD
  5
23
330
1
100
AcDbSymbolTableRecord
100
AcDbBlockTableRecord
  2
*Paper_Space0
340
26
  0
BLOCK_RECORD
  5
C7
330
1
100
AcDbSymbolTableRecord
100
AcDbBlockTableRecord
  2
SW_NOTE_0
340
0
102
{BLKREFS
331
CD
102
}
  0
BLOCK_RECORD
  5
FE
330
1
100
AcDbSymbolTableRecord
100
AcDbBlockTableRecord
  2
SW_NOTE_1
340
0
102
{BLKREFS
331
103
102
}
  0
BLOCK_RECORD
  5
122
330
1
100
AcDbSymbolTableRecord
100
AcDbBlockTableRecord
  2
_D
340
0
  0
BLOCK_RECORD
  5
12C
330
1
100
AcDbSymbolTableRecord
100
AcDbBlockTableRecord
  2
_D_1
340
0
  0
BLOCK_RECORD
  5
136
330
1
100
AcDbSymbolTableRecord
100
AcDbBlockTableRecord
  2
_D_2
340
0
  0
BLOCK_RECORD
  5
140
330
1
100
AcDbSymbolTableRecord
100
AcDbBlockTableRecord
  2
_D_3
340
0
  0
BLOCK_RECORD
  5
14A
330
1
100
AcDbSymbolTableRecord
100
AcDbBlockTableRecord
  2
_D_4
340
0
  0
BLOCK_RECORD
  5
154
330
1
100
AcDbSymbolTableRecord
100
AcDbBlockTableRecord
  2
_D_5
340
0
  0
BLOCK_RECORD
  5
15E
330
1
100
AcDbSymbolTableRecord
100
AcDbBlockTableRecord
  2
_D_6
340
0
  0
BLOCK_RECORD
  5
169
330
1
100
AcDbSymbolTableRecord
100
AcDbBlockTableRecord
  2
_D_7
340
0
  0
BLOCK_RECORD
  5
175
330
1
100
AcDbSymbolTableRecord
100
AcDbBlockTableRecord
  2
_D_8
340
0
  0
BLOCK_RECORD
  5
17D
330
1
100
AcDbSymbolTableRecord
100
AcDbBlockTableRecord
  2
SW_CENTERMARKSYMBOL_0
340
0
102
{BLKREFS
331
188
102
}
  0
BLOCK_RECORD
  5
189
330
1
100
AcDbSymbolTableRecord
100
AcDbBlockTableRecord
  2
SW_CENTERMARKSYMBOL_1
340
0
102
{BLKREFS
331
194
102
}
  0
BLOCK_RECORD
  5
195
330
1
100
AcDbSymbolTableRecord
100
AcDbBlockTableRecord
  2
SW_CENTERMARKSYMBOL_2
340
0
102
{BLKREFS
331
1A0
102
}
  0
BLOCK_RECORD
  5
1A1
330
1
100
AcDbSymbolTableRecord
100
AcDbBlockTableRecord
  2
SW_CENTERMARKSYMBOL_3
340
0
102
{BLKREFS
331
1AC
102
}
  0
BLOCK_RECORD
  5
1AD
330
1
100
AcDbSymbolTableRecord
100
AcDbBlockTableRecord
  2
SW_CENTERMARKSYMBOL_4
340
0
102
{BLKREFS
331
1B8
102
}
  0
BLOCK_RECORD
  5
1B9
330
1
100
AcDbSymbolTableRecord
100
AcDbBlockTableRecord
  2
SW_CENTERMARKSYMBOL_5
340
0
102
{BLKREFS
331
1C4
102
}
  0
BLOCK_RECORD
  5
1D6
330
1
100
AcDbSymbolTableRecord
100
AcDbBlockTableRecord
  2
_D_9
340
0
  0
BLOCK_RECORD
  5
1E1
330
1
100
AcDbSymbolTableRecord
100
AcDbBlockTableRecord
  2
_D_10
340
0
  0
BLOCK_RECORD
  5
1EC
330
1
100
AcDbSymbolTableRecord
100
AcDbBlockTableRecord
  2
_D_11
340
0
  0
ENDTAB
  0
ENDSEC
  0
SECTION
  2
BLOCKS
  0
BLOCK
  5
20
330
1F
100
AcDbEntity
  8
0
100
AcDbBlockBegin
  2
*Model_Space
 70
     0
 10
0.0
 20
0.0
 30
0.0
  3
*Model_Space
  1

  0
ENDBLK
  5
21
330
1F
100
AcDbEntity
  8
0
100
AcDbBlockEnd
  0
BLOCK
  5
1C
330
1B
100
AcDbEntity
 67
     1
  8
0
100
AcDbBlockBegin
  2
*Paper_Space
 70
     0
 10
0.0
 20
0.0
 30
0.0
  3
*Paper_Space
  1

  0
ENDBLK
  5
1D
330
1B
100
AcDbEntity
 67
     1
  8
0
100
AcDbBlockEnd
  0
BLOCK
  5
24
330
23
100
AcDbEntity
  8
0
100
AcDbBlockBegin
  2
*Paper_Space0
 70
     0
 10
0.0
 20
0.0
 30
0.0
  3
*Paper_Space0
  1

  0
ENDBLK
  5
25
330
23
100
AcDbEntity
  8
0
100
AcDbBlockEnd
  0
BLOCK
  5
C8
330
C7
100
AcDbEntity
  8
0
100
AcDbBlockBegin
  2
SW_NOTE_0
 70
     0
 10
0.0
 20
0.0
 30
0.0
  3
SW_NOTE_0
  1

  0
MTEXT
  5
CA
330
C7
100
AcDbEntity
  8
0
  6
Continuous
 62
     0
370
     0
100
AcDbMText
 10
0.0
 20
3.4106583948
 30
0.0
 40
2.6458333333
 41
0.0
 71
     1
 72
     1
  1
PROPRIETARY AND CONFIDENTIAL
  7
SLDTEXTSTYLE0
 73
     1
 44
1.0
  0
MTEXT
  5
CB
330
C7
100
AcDbEntity
  8
0
  6
Continuous
 62
     0
370
     0
100
AcDbMText
 10
0.0
 20
-0.08198348
 30
0.0
 40
1.8520833333
 41
0.0
 71
     1
 72
     1
  1
THE INFORMATION CONTAINED IN THIS DRAWING IS THE SOLE PROPERTY OF UNICE E-O SERVICES INC. ANY REPRODUCTION IN PART OR AS A WHOLE WITHOUT THE WRITTEN PERMISSION OF UNICE E-O SERVICES INC IS
  7
SLDTEXTSTYLE0
 73
     1
 44
1.0
  0
MTEXT
  5
CC
330
C7
100
AcDbEntity
  8
0
  6
Continuous
 62
     0
370
     0
100
AcDbMText
 10
0.0
 20
-2.5514278946
 30
0.0
 40
1.8520833333
 41
0.0
 71
     1
 72
     1
  1
PROHIBITED.
  7
SLDTEXTSTYLE0
 73
     1
 44
1.0
  0
ENDBLK
  5
C9
330
C7
100
AcDbEntity
  8
0
100
AcDbBlockEnd
  0
BLOCK
  5
FF
330
FE
100
AcDbEntity
  8
0
100
AcDbBlockBegin
  2
SW_NOTE_1
 70
     0
 10
0.0
 20
0.0
 30
0.0
  3
SW_NOTE_1
  1

  0
MTEXT
  5
101
330
FE
100
AcDbEntity
  8
SLD-0
 62
     0
100
AcDbMText
 10
0.0
 20
2.3874608764
 30
0.0
 40
1.8520833333
 41
0.0
 71
     1
 72
     1
  1
No.5, Andong Rd., Chung Li District,
  7
SLDTEXTSTYLE1
 73
     1
 44
1.0
  0
MTEXT
  5
102
330
FE
100
AcDbEntity
  8
SLD-0
 62
     0
100
AcDbMText
 10
0.0
 20
-0.0819835382
 30
0.0
 40
1.8520833333
 41
0.0
 71
     1
 72
     1
  1
Taoyuan City 32063, Taiwan, R.O.C.
  7
SLDTEXTSTYLE1
 73
     1
 44
1.0
  0
ENDBLK
  5
100
330
FE
100
AcDbEntity
  8
0
100
AcDbBlockEnd
  0
BLOCK
  5
123
330
122
100
AcDbEntity
  8
0
100
AcDbBlockBegin
  2
_D
 70
     0
 10
0.0
 20
0.0
 30
0.0
  3
_D
  1

  0
SOLID
  5
125
330
122
100
AcDbEntity
  8
SLD-0
100
AcDbTrace
 10
75.7633918366
 20
91.888571629
 30
0.0
 11
77.7633918366
 21
91.638571629
 31
0.0
 12
77.7633918366
 22
92.138571629
 32
0.0
 13
77.7633918366
 23
92.138571629
 33
0.0
  0
SOLID
  5
126
330
122
100
AcDbEntity
  8
SLD-0
100
AcDbTrace
 10
101.1633918366
 20
91.888571629
 30
0.0
 11
99.1633918366
 21
92.138571629
 31
0.0
 12
99.1633918366
 22
91.638571629
 32
0.0
 13
99.1633918366
 23
91.638571629
 33
0.0
  0
LINE
  5
127
330
122
100
AcDbEntity
  8
SLD-0
100
AcDbLine
 10
75.7633918366
 20
104.8046380491
 30
0.0
 11
75.7633918366
 21
90.888571629
 31
0.0
  0
LINE
  5
128
330
122
100
AcDbEntity
  8
SLD-0
100
AcDbLine
 10
101.1633918366
 20
105.8502680491
 30
0.0
 11
101.1633918366
 21
90.888571629
 31
0.0
  0
LINE
  5
129
330
122
100
AcDbEntity
  8
SLD-0
100
AcDbLine
 10
75.7633918366
 20
91.888571629
 30
0.0
 11
101.1633918366
 21
91.888571629
 31
0.0
  0
MTEXT
  5
12A
330
122
100
AcDbEntity
  8
SLD-0
100
AcDbMText
 10
85.1213780305
 20
95.1112408038
 30
0.0
 40
2.5
 41
0.0
 71
     1
 72
     1
  1
25.4
  7
SLDTEXTSTYLE0
 73
     1
 44
1.0
  0
ENDBLK
  5
124
330
122
100
AcDbEntity
  8
0
100
AcDbBlockEnd
  0
BLOCK
  5
12D
330
12C
100
AcDbEntity
  8
0
100
AcDbBlockBegin
  2
_D_1
 70
     0
 10
0.0
 20
0.0
 30
0.0
  3
_D_1
  1

  0
SOLID
  5
12F
330
12C
100
AcDbEntity
  8
SLD-0
100
AcDbTrace
 10
101.1633918366
 20
91.888571629
 30
0.0
 11
103.1633918366
 21
91.638571629
 31
0.0
 12
103.1633918366
 22
92.138571629
 32
0.0
 13
103.1633918366
 23
92.138571629
 33
0.0
  0
SOLID
  5
130
330
12C
100
AcDbEntity
  8
SLD-0
100
AcDbTrace
 10
126.5633918366
 20
91.888571629
 30
0.0
 11
124.5633918366
 21
92.138571629
 31
0.0
 12
124.5633918366
 22
91.638571629
 32
0.0
 13
124.5633918366
 23
91.638571629
 33
0.0
  0
LINE
  5
131
330
12C
100
AcDbEntity
  8
SLD-0
100
AcDbLine
 10
101.1633918366
 20
105.8502680491
 30
0.0
 11
101.1633918366
 21
90.888571629
 31
0.0
  0
LINE
  5
132
330
12C
100
AcDbEntity
  8
SLD-0
100
AcDbLine
 10
126.5633918366
 20
104.8046380491
 30
0.0
 11
126.5633918366
 21
90.888571629
 31
0.0
  0
LINE
  5
133
330
12C
100
AcDbEntity
  8
SLD-0
100
AcDbLine
 10
101.1633918366
 20
91.888571629
 30
0.0
 11
126.5633918366
 21
91.888571629
 31
0.0
  0
MTEXT
  5
134
330
12C
100
AcDbEntity
  8
SLD-0
100
AcDbMText
 10
110.5213780305
 20
95.1112408038
 30
0.0
 40
2.5
 41
0.0
 71
     1
 72
     1
  1
25.4
  7
SLDTEXTSTYLE0
 73
     1
 44
1.0
  0
ENDBLK
  5
12E
330
12C
100
AcDbEntity
  8
0
100
AcDbBlockEnd
  0
BLOCK
  5
137
330
136
100
AcDbEntity
  8
0
100
AcDbBlockBegin
  2
_D_2
 70
     0
 10
0.0
 20
0.0
 30
0.0
  3
_D_2
  1

  0
SOLID
  5
139
330
136
100
AcDbEntity
  8
SLD-0
100
AcDbTrace
 10
55.0273243193
 20
113.6046380491
 30
0.0
 11
55.2773243193
 21
115.6046380491
 31
0.0
 12
54.7773243193
 22
115.6046380491
 32
0.0
 13
54.7773243193
 23
115.6046380491
 33
0.0
  0
SOLID
  5
13A
330
136
100
AcDbEntity
  8
SLD-0
100
AcDbTrace
 10
55.0273243193
 20
126.3046380491
 30
0.0
 11
54.7773243193
 21
124.3046380491
 31
0.0
 12
55.2773243193
 22
124.3046380491
 32
0.0
 13
55.2773243193
 23
124.3046380491
 33
0.0
  0
LINE
  5
13B
330
136
100
AcDbEntity
  8
SLD-0
100
AcDbLine
 10
93.4090218366
 20
113.6046380491
 30
0.0
 11
54.0273243193
 21
113.6046380491
 31
0.0
  0
LINE
  5
13C
330
136
100
AcDbEntity
  8
SLD-0
100
AcDbLine
 10
100.1633918366
 20
126.3046380491
 30
0.0
 11
54.0273243193
 21
126.3046380491
 31
0.0
  0
LINE
  5
13D
330
136
100
AcDbEntity
  8
SLD-0
100
AcDbLine
 10
55.0273243193
 20
113.6046380491
 30
0.0
 11
55.0273243193
 21
126.3046380491
 31
0.0
  0
MTEXT
  5
13E
330
136
100
AcDbEntity
  8
SLD-0
100
AcDbMText
 10
51.8046551444
 20
116.612624243
 30
0.0
 40
2.5
 41
0.0
 71
     1
 72
     1
  1
12.7
  7
SLDTEXTSTYLE0
 11
6.123233995736766E-17
 21
1.0
 31
0.0
 73
     1
 44
1.0
  0
ENDBLK
  5
138
330
136
100
AcDbEntity
  8
0
100
AcDbBlockEnd
  0
BLOCK
  5
141
330
140
100
AcDbEntity
  8
0
100
AcDbBlockBegin
  2
_D_3
 70
     0
 10
0.0
 20
0.0
 30
0.0
  3
_D_3
  1

  0
SOLID
  5
143
330
140
100
AcDbEntity
  8
SLD-0
100
AcDbTrace
 10
55.0273243193
 20
126.3046380491
 30
0.0
 11
55.2773243193
 21
128.3046380491
 31
0.0
 12
54.7773243193
 22
128.3046380491
 32
0.0
 13
54.7773243193
 23
128.3046380491
 33
0.0
  0
SOLID
  5
144
330
140
100
AcDbEntity
  8
SLD-0
100
AcDbTrace
 10
55.0273243193
 20
139.0046380491
 30
0.0
 11
54.7773243193
 21
137.0046380491
 31
0.0
 12
55.2773243193
 22
137.0046380491
 32
0.0
 13
55.2773243193
 23
137.0046380491
 33
0.0
  0
LINE
  5
145
330
140
100
AcDbEntity
  8
SLD-0
100
AcDbLine
 10
100.1633918366
 20
126.3046380491
 30
0.0
 11
54.0273243193
 21
126.3046380491
 31
0.0
  0
LINE
  5
146
330
140
100
AcDbEntity
  8
SLD-0
100
AcDbLine
 10
93.4090218366
 20
139.0046380491
 30
0.0
 11
54.0273243193
 21
139.0046380491
 31
0.0
  0
LINE
  5
147
330
140
100
AcDbEntity
  8
SLD-0
100
AcDbLine
 10
55.0273243193
 20
126.3046380491
 30
0.0
 11
55.0273243193
 21
139.0046380491
 31
0.0
  0
MTEXT
  5
148
330
140
100
AcDbEntity
  8
SLD-0
100
AcDbMText
 10
51.8046551444
 20
129.312624243
 30
0.0
 40
2.5
 41
0.0
 71
     1
 72
     1
  1
12.7
  7
SLDTEXTSTYLE0
 11
6.123233995736766E-17
 21
1.0
 31
0.0
 73
     1
 44
1.0
  0
ENDBLK
  5
142
330
140
100
AcDbEntity
  8
0
100
AcDbBlockEnd
  0
BLOCK
  5
14B
330
14A
100
AcDbEntity
  8
0
100
AcDbBlockBegin
  2
_D_4
 70
     0
 10
0.0
 20
0.0
 30
0.0
  3
_D_4
  1

  0
SOLID
  5
14D
330
14A
100
AcDbEntity
  8
SLD-0
100
AcDbTrace
 10
47.5341561098
 20
142.3046380491
 30
0.0
 11
47.2841561098
 21
140.3046380491
 31
0.0
 12
47.7841561098
 22
140.3046380491
 32
0.0
 13
47.7841561098
 23
140.3046380491
 33
0.0
  0
SOLID
  5
14E
330
14A
100
AcDbEntity
  8
SLD-0
100
AcDbTrace
 10
47.5341561098
 20
110.3046380491
 30
0.0
 11
47.7841561098
 21
112.3046380491
 31
0.0
 12
47.2841561098
 22
112.3046380491
 32
0.0
 13
47.2841561098
 23
112.3046380491
 33
0.0
  0
LINE
  5
14F
330
14A
100
AcDbEntity
  8
SLD-0
100
AcDbLine
 10
70.2633918366
 20
142.3046380491
 30
0.0
 11
46.5341561098
 21
142.3046380491
 31
0.0
  0
LINE
  5
150
330
14A
100
AcDbEntity
  8
SLD-0
100
AcDbLine
 10
70.2633918366
 20
110.3046380491
 30
0.0
 11
46.5341561098
 21
110.3046380491
 31
0.0
  0
LINE
  5
151
330
14A
100
AcDbEntity
  8
SLD-0
100
AcDbLine
 10
47.5341561098
 20
142.3046380491
 30
0.0
 11
47.5341561098
 21
110.3046380491
 31
0.0
  0
MTEXT
  5
152
330
14A
100
AcDbEntity
  8
SLD-0
100
AcDbMText
 10
44.311486935
 20
124.3949158243
 30
0.0
 40
2.5
 41
0.0
 71
     1
 72
     1
  1
32
  7
SLDTEXTSTYLE0
 11
-7.044195017643634E-15
 21
1.0
 31
0.0
 73
     1
 44
1.0
  0
ENDBLK
  5
14C
330
14A
100
AcDbEntity
  8
0
100
AcDbBlockEnd
  0
BLOCK
  5
155
330
154
100
AcDbEntity
  8
0
100
AcDbBlockBegin
  2
_D_5
 70
     0
 10
0.0
 20
0.0
 30
0.0
  3
_D_5
  1

  0
SOLID
  5
157
330
154
100
AcDbEntity
  8
SLD-0
100
AcDbTrace
 10
39.7221296787
 20
151.3046380491
 30
0.0
 11
39.4721296787
 21
149.3046380491
 31
0.0
 12
39.9721296787
 22
149.3046380491
 32
0.0
 13
39.9721296787
 23
149.3046380491
 33
0.0
  0
SOLID
  5
158
330
154
100
AcDbEntity
  8
SLD-0
100
AcDbTrace
 10
39.7221296787
 20
101.3046380491
 30
0.0
 11
39.9721296787
 21
103.3046380491
 31
0.0
 12
39.4721296787
 22
103.3046380491
 32
0.0
 13
39.4721296787
 23
103.3046380491
 33
0.0
  0
LINE
  5
159
330
154
100
AcDbEntity
  8
SLD-0
100
AcDbLine
 10
67.6633918366
 20
151.3046380491
 30
0.0
 11
38.7221296787
 21
151.3046380491
 31
0.0
  0
LINE
  5
15A
330
154
100
AcDbEntity
  8
SLD-0
100
AcDbLine
 10
67.6633918366
 20
101.3046380491
 30
0.0
 11
38.7221296787
 21
101.3046380491
 31
0.0
  0
LINE
  5
15B
330
154
100
AcDbEntity
  8
SLD-0
100
AcDbLine
 10
39.7221296787
 20
151.3046380491
 30
0.0
 11
39.7221296787
 21
101.3046380491
 31
0.0
  0
MTEXT
  5
15C
330
154
100
AcDbEntity
  8
SLD-0
100
AcDbMText
 10
36.4994605039
 20
124.3949158243
 30
0.0
 40
2.5
 41
0.0
 71
     1
 72
     1
  1
50
  7
SLDTEXTSTYLE0
 11
-7.044195017643634E-15
 21
1.0
 31
0.0
 73
     1
 44
1.0
  0
ENDBLK
  5
156
330
154
100
AcDbEntity
  8
0
100
AcDbBlockEnd
  0
BLOCK
  5
15F
330
15E
100
AcDbEntity
  8
0
100
AcDbBlockBegin
  2
_D_6
 70
     0
 10
0.0
 20
0.0
 30
0.0
  3
_D_6
  1

  0
SOLID
  5
161
330
15E
100
AcDbEntity
  8
SLD-0
100
AcDbTrace
 10
63.6633918366
 20
82.6612111042
 30
0.0
 11
65.6633918366
 21
82.4112111042
 31
0.0
 12
65.6633918366
 22
82.9112111042
 32
0.0
 13
65.6633918366
 23
82.9112111042
 33
0.0
  0
SOLID
  5
162
330
15E
100
AcDbEntity
  8
SLD-0
100
AcDbTrace
 10
138.6633918366
 20
82.6612111042
 30
0.0
 11
136.6633918366
 21
82.9112111042
 31
0.0
 12
136.6633918366
 22
82.4112111042
 32
0.0
 13
136.6633918366
 23
82.4112111042
 33
0.0
  0
LINE
  5
163
330
15E
100
AcDbEntity
  8
SLD-0
100
AcDbLine
 10
63.6633918366
 20
105.3046380491
 30
0.0
 11
63.6633918366
 21
81.6612111042
 31
0.0
  0
LINE
  5
164
330
15E
100
AcDbEntity
  8
SLD-0
100
AcDbLine
 10
138.6633918366
 20
105.3046380491
 30
0.0
 11
138.6633918366
 21
81.6612111042
 31
0.0
  0
LINE
  5
165
330
15E
100
AcDbEntity
  8
SLD-0
100
AcDbLine
 10
63.6633918366
 20
82.6612111042
 30
0.0
 11
138.6633918366
 21
82.6612111042
 31
0.0
  0
MTEXT
  5
166
330
15E
100
AcDbEntity
  8
SLD-0
100
AcDbMText
 10
99.2536696118
 20
85.883880279
 30
0.0
 40
2.5
 41
0.0
 71
     1
 72
     1
  1
75
  7
SLDTEXTSTYLE0
 73
     1
 44
1.0
  0
ENDBLK
  5
160
330
15E
100
AcDbEntity
  8
0
100
AcDbBlockEnd
  0
BLOCK
  5
16A
330
169
100
AcDbEntity
  8
0
100
AcDbBlockBegin
  2
_D_7
 70
     0
 10
0.0
 20
0.0
 30
0.0
  3
_D_7
  1

  0
SOLID
  5
16C
330
169
100
AcDbEntity
  8
SLD-0
100
AcDbTrace
 10
74.6739974223
 20
145.6307799298
 30
0.0
 11
74.2890678913
 21
147.6092463197
 31
0.0
 12
73.8139047655
 22
147.4536185462
 32
0.0
 13
73.8139047655
 23
147.4536185462
 33
0.0
  0
LINE
  5
16D
330
169
100
AcDbEntity
  8
SLD-0
100
AcDbLine
 10
74.6739974223
 20
145.6307799298
 30
0.0
 11
70.2300525847
 21
159.199043954
 31
0.0
  0
LINE
  5
16E
330
169
100
AcDbEntity
  8
SLD-0
100
AcDbLine
 10
70.2300525847
 20
159.199043954
 30
0.0
 11
46.821198875
 21
159.199043954
 31
0.0
  0
MTEXT
  5
16F
330
169
100
AcDbEntity
  8
SLD-0
100
AcDbMText
 10
46.821198875
 20
162.4286575356
 30
0.0
 40
2.5
 41
0.0
 71
     1
 72
     1
  1
2-
  7
SLDTEXTSTYLE0
 73
     1
 44
1.0
  0
MTEXT
  5
170
330
169
100
AcDbEntity
  8
SLD-0
100
AcDbMText
 10
49.8732821847
 20
162.4217130706
 30
0.0
 40
2.5
 41
0.0
 71
     1
 72
     1
  1
%%c
  7
SLDTEXTSTYLE0
 73
     1
 44
1.0
  0
MTEXT
  5
171
330
169
100
AcDbEntity
  8
SLD-0
100
AcDbMText
 10
53.5182473081
 20
162.4286575356
 30
0.0
 40
2.5
 41
0.0
 71
     1
 72
     1
  1
7
  7
SLDTEXTSTYLE0
 73
     1
 44
1.0
  0
MTEXT
  5
172
330
169
100
AcDbEntity
  8
SLD-0
100
AcDbMText
 10
56.3654698821
 20
162.4286575356
 30
0.0
 40
2.5
 41
0.0
 71
     1
 72
     1
  1
HOLES.
  7
SLDTEXTSTYLE0
 73
     1
 44
1.0
  0
ENDBLK
  5
16B
330
169
100
AcDbEntity
  8
0
100
AcDbBlockEnd
  0
BLOCK
  5
176
330
175
100
AcDbEntity
  8
0
100
AcDbBlockBegin
  2
_D_8
 70
     0
 10
0.0
 20
0.0
 30
0.0
  3
_D_8
  1

  0
SOLID
  5
178
330
175
100
AcDbEntity
  8
SLD-0
100
AcDbTrace
 10
102.6527323852
 20
144.5629326462
 30
0.0
 11
103.4118519319
 21
146.4300795375
 31
0.0
 12
102.9288890188
 22
146.55948906
 32
0.0
 13
102.9288890188
 23
146.55948906
 33
0.0
  0
LINE
  5
179
330
175
100
AcDbEntity
  8
SLD-0
100
AcDbLine
 10
102.6527323852
 20
144.5629326462
 30
0.0
 11
107.1482343786
 21
161.3403744912
 31
0.0
  0
LINE
  5
17A
330
175
100
AcDbEntity
  8
SLD-0
100
AcDbLine
 10
107.1482343786
 20
161.3403744912
 30
0.0
 11
128.1308735722
 21
161.3403744912
 31
0.0
  0
MTEXT
  5
17B
330
175
100
AcDbEntity
  8
SLD-0
100
AcDbMText
 10
108.3982343786
 20
168.3998491326
 30
0.0
 40
2.5
 41
0.0
 71
     1
 72
     1
  1
3 HOLES,
  7
SLDTEXTSTYLE0
 73
     1
 44
1.0
  0
MTEXT
  5
17C
330
175
100
AcDbEntity
  8
SLD-0
100
AcDbMText
 10
109.3357343786
 20
164.5630436661
 30
0.0
 40
2.5
 41
0.0
 71
     1
 72
     1
  1
1/4"-20 CLR
  7
SLDTEXTSTYLE0
 73
     1
 44
1.0
  0
ENDBLK
  5
177
330
175
100
AcDbEntity
  8
0
100
AcDbBlockEnd
  0
BLOCK
  5
17E
330
17D
100
AcDbEntity
  8
0
100
AcDbBlockBegin
  2
SW_CENTERMARKSYMBOL_0
 70
     0
 10
0.0
 20
0.0
 30
0.0
  3
SW_CENTERMARKSYMBOL_0
  1

  0
LINE
  5
180
330
17D
100
AcDbEntity
  8
SLD-0
 62
     0
100
AcDbLine
 10
0.0
 20
0.0
 30
0.0
 11
0.0
 21
1.0
 31
0.0
  0
LINE
  5
181
330
17D
100
AcDbEntity
  8
SLD-0
 62
     0
100
AcDbLine
 10
0.0
 20
0.0
 30
0.0
 11
-1.0
 21
0.0
 31
0.0
  0
LINE
  5
182
330
17D
100
AcDbEntity
  8
SLD-0
 62
     0
100
AcDbLine
 10
0.0
 20
0.0
 30
0.0
 11
0.0
 21
-1.0
 31
0.0
  0
LINE
  5
183
330
17D
100
AcDbEntity
  8
SLD-0
 62
     0
100
AcDbLine
 10
0.0
 20
0.0
 30
0.0
 11
1.0
 21
0.0
 31
0.0
  0
LINE
  5
184
330
17D
100
AcDbEntity
  8
SLD-0
 62
     0
100
AcDbLine
 10
0.0
 20
2.0
 30
0.0
 11
0.0
 21
6.75437
 31
0.0
  0
LINE
  5
185
330
17D
100
AcDbEntity
  8
SLD-0
 62
     0
100
AcDbLine
 10
-2.0
 20
0.0
 30
0.0
 11
-6.75437
 21
0.0
 31
0.0
  0
LINE
  5
186
330
17D
100
AcDbEntity
  8
SLD-0
 62
     0
100
AcDbLine
 10
0.0
 20
-2.0
 30
0.0
 11
0.0
 21
-6.75437
 31
0.0
  0
LINE
  5
187
330
17D
100
AcDbEntity
  8
SLD-0
 62
     0
100
AcDbLine
 10
2.0
 20
0.0
 30
0.0
 11
6.75437
 21
0.0
 31
0.0
  0
ENDBLK
  5
17F
330
17D
100
AcDbEntity
  8
0
100
AcDbBlockEnd
  0
BLOCK
  5
18A
330
189
100
AcDbEntity
  8
0
100
AcDbBlockBegin
  2
SW_CENTERMARKSYMBOL_1
 70
     0
 10
0.0
 20
0.0
 30
0.0
  3
SW_CENTERMARKSYMBOL_1
  1

  0
LINE
  5
18C
330
189
100
AcDbEntity
  8
SLD-0
 62
     0
100
AcDbLine
 10
0.0
 20
0.0
 30
0.0
 11
0.0
 21
1.0
 31
0.0
  0
LINE
  5
18D
330
189
100
AcDbEntity
  8
SLD-0
 62
     0
100
AcDbLine
 10
0.0
 20
0.0
 30
0.0
 11
-1.0
 21
0.0
 31
0.0
  0
LINE
  5
18E
330
189
100
AcDbEntity
  8
SLD-0
 62
     0
100
AcDbLine
 10
0.0
 20
0.0
 30
0.0
 11
0.0
 21
-1.0
 31
0.0
  0
LINE
  5
18F
330
189
100
AcDbEntity
  8
SLD-0
 62
     0
100
AcDbLine
 10
0.0
 20
0.0
 30
0.0
 11
1.0
 21
0.0
 31
0.0
  0
LINE
  5
190
330
189
100
AcDbEntity
  8
SLD-0
 62
     0
100
AcDbLine
 10
0.0
 20
2.0
 30
0.0
 11
0.0
 21
6.75437
 31
0.0
  0
LINE
  5
191
330
189
100
AcDbEntity
  8
SLD-0
 62
     0
100
AcDbLine
 10
-2.0
 20
0.0
 30
0.0
 11
-6.75437
 21
0.0
 31
0.0
  0
LINE
  5
192
330
189
100
AcDbEntity
  8
SLD-0
 62
     0
100
AcDbLine
 10
0.0
 20
-2.0
 30
0.0
 11
0.0
 21
-6.75437
 31
0.0
  0
LINE
  5
193
330
189
100
AcDbEntity
  8
SLD-0
 62
     0
100
AcDbLine
 10
2.0
 20
0.0
 30
0.0
 11
6.75437
 21
0.0
 31
0.0
  0
ENDBLK
  5
18B
330
189
100
AcDbEntity
  8
0
100
AcDbBlockEnd
  0
BLOCK
  5
196
330
195
100
AcDbEntity
  8
0
100
AcDbBlockBegin
  2
SW_CENTERMARKSYMBOL_2
 70
     0
 10
0.0
 20
0.0
 30
0.0
  3
SW_CENTERMARKSYMBOL_2
  1

  0
LINE
  5
198
330
195
100
AcDbEntity
  8
SLD-0
 62
     0
100
AcDbLine
 10
0.0
 20
0.0
 30
0.0
 11
0.0
 21
1.0
 31
0.0
  0
LINE
  5
199
330
195
100
AcDbEntity
  8
SLD-0
 62
     0
100
AcDbLine
 10
0.0
 20
0.0
 30
0.0
 11
-1.0
 21
0.0
 31
0.0
  0
LINE
  5
19A
330
195
100
AcDbEntity
  8
SLD-0
 62
     0
100
AcDbLine
 10
0.0
 20
0.0
 30
0.0
 11
0.0
 21
-1.0
 31
0.0
  0
LINE
  5
19B
330
195
100
AcDbEntity
  8
SLD-0
 62
     0
100
AcDbLine
 10
0.0
 20
0.0
 30
0.0
 11
1.0
 21
0.0
 31
0.0
  0
LINE
  5
19C
330
195
100
AcDbEntity
  8
SLD-0
 62
     0
100
AcDbLine
 10
0.0
 20
2.0
 30
0.0
 11
0.0
 21
4.5
 31
0.0
  0
LINE
  5
19D
330
195
100
AcDbEntity
  8
SLD-0
 62
     0
100
AcDbLine
 10
-2.0
 20
0.0
 30
0.0
 11
-4.5
 21
0.0
 31
0.0
  0
LINE
  5
19E
330
195
100
AcDbEntity
  8
SLD-0
 62
     0
100
AcDbLine
 10
0.0
 20
-2.0
 30
0.0
 11
0.0
 21
-4.5
 31
0.0
  0
LINE
  5
19F
330
195
100
AcDbEntity
  8
SLD-0
 62
     0
100
AcDbLine
 10
2.0
 20
0.0
 30
0.0
 11
4.5
 21
0.0
 31
0.0
  0
ENDBLK
  5
197
330
195
100
AcDbEntity
  8
0
100
AcDbBlockEnd
  0
BLOCK
  5
1A2
330
1A1
100
AcDbEntity
  8
0
100
AcDbBlockBegin
  2
SW_CENTERMARKSYMBOL_3
 70
     0
 10
0.0
 20
0.0
 30
0.0
  3
SW_CENTERMARKSYMBOL_3
  1

  0
LINE
  5
1A4
330
1A1
100
AcDbEntity
  8
SLD-0
 62
     0
100
AcDbLine
 10
0.0
 20
0.0
 30
0.0
 11
0.0
 21
1.0
 31
0.0
  0
LINE
  5
1A5
330
1A1
100
AcDbEntity
  8
SLD-0
 62
     0
100
AcDbLine
 10
0.0
 20
0.0
 30
0.0
 11
-1.0
 21
0.0
 31
0.0
  0
LINE
  5
1A6
330
1A1
100
AcDbEntity
  8
SLD-0
 62
     0
100
AcDbLine
 10
0.0
 20
0.0
 30
0.0
 11
0.0
 21
-1.0
 31
0.0
  0
LINE
  5
1A7
330
1A1
100
AcDbEntity
  8
SLD-0
 62
     0
100
AcDbLine
 10
0.0
 20
0.0
 30
0.0
 11
1.0
 21
0.0
 31
0.0
  0
LINE
  5
1A8
330
1A1
100
AcDbEntity
  8
SLD-0
 62
     0
100
AcDbLine
 10
0.0
 20
2.0
 30
0.0
 11
0.0
 21
4.5
 31
0.0
  0
LINE
  5
1A9
330
1A1
100
AcDbEntity
  8
SLD-0
 62
     0
100
AcDbLine
 10
-2.0
 20
0.0
 30
0.0
 11
-4.5
 21
0.0
 31
0.0
  0
LINE
  5
1AA
330
1A1
100
AcDbEntity
  8
SLD-0
 62
     0
100
AcDbLine
 10
0.0
 20
-2.0
 30
0.0
 11
0.0
 21
-4.5
 31
0.0
  0
LINE
  5
1AB
330
1A1
100
AcDbEntity
  8
SLD-0
 62
     0
100
AcDbLine
 10
2.0
 20
0.0
 30
0.0
 11
4.5
 21
0.0
 31
0.0
  0
ENDBLK
  5
1A3
330
1A1
100
AcDbEntity
  8
0
100
AcDbBlockEnd
  0
BLOCK
  5
1AE
330
1AD
100
AcDbEntity
  8
0
100
AcDbBlockBegin
  2
SW_CENTERMARKSYMBOL_4
 70
     0
 10
0.0
 20
0.0
 30
0.0
  3
SW_CENTERMARKSYMBOL_4
  1

  0
LINE
  5
1B0
330
1AD
100
AcDbEntity
  8
SLD-0
 62
     0
100
AcDbLine
 10
0.0
 20
0.0
 30
0.0
 11
0.0
 21
1.0
 31
0.0
  0
LINE
  5
1B1
330
1AD
100
AcDbEntity
  8
SLD-0
 62
     0
100
AcDbLine
 10
0.0
 20
0.0
 30
0.0
 11
-1.0
 21
0.0
 31
0.0
  0
LINE
  5
1B2
330
1AD
100
AcDbEntity
  8
SLD-0
 62
     0
100
AcDbLine
 10
0.0
 20
0.0
 30
0.0
 11
0.0
 21
-1.0
 31
0.0
  0
LINE
  5
1B3
330
1AD
100
AcDbEntity
  8
SLD-0
 62
     0
100
AcDbLine
 10
0.0
 20
0.0
 30
0.0
 11
1.0
 21
0.0
 31
0.0
  0
LINE
  5
1B4
330
1AD
100
AcDbEntity
  8
SLD-0
 62
     0
100
AcDbLine
 10
0.0
 20
2.0
 30
0.0
 11
0.0
 21
4.5
 31
0.0
  0
LINE
  5
1B5
330
1AD
100
AcDbEntity
  8
SLD-0
 62
     0
100
AcDbLine
 10
-2.0
 20
0.0
 30
0.0
 11
-4.5
 21
0.0
 31
0.0
  0
LINE
  5
1B6
330
1AD
100
AcDbEntity
  8
SLD-0
 62
     0
100
AcDbLine
 10
0.0
 20
-2.0
 30
0.0
 11
0.0
 21
-4.5
 31
0.0
  0
LINE
  5
1B7
330
1AD
100
AcDbEntity
  8
SLD-0
 62
     0
100
AcDbLine
 10
2.0
 20
0.0
 30
0.0
 11
4.5
 21
0.0
 31
0.0
  0
ENDBLK
  5
1AF
330
1AD
100
AcDbEntity
  8
0
100
AcDbBlockEnd
  0
BLOCK
  5
1BA
330
1B9
100
AcDbEntity
  8
0
100
AcDbBlockBegin
  2
SW_CENTERMARKSYMBOL_5
 70
     0
 10
0.0
 20
0.0
 30
0.0
  3
SW_CENTERMARKSYMBOL_5
  1

  0
LINE
  5
1BC
330
1B9
100
AcDbEntity
  8
SLD-0
 62
     0
100
AcDbLine
 10
0.0
 20
0.0
 30
0.0
 11
0.0
 21
1.0
 31
0.0
  0
LINE
  5
1BD
330
1B9
100
AcDbEntity
  8
SLD-0
 62
     0
100
AcDbLine
 10
0.0
 20
0.0
 30
0.0
 11
-1.0
 21
0.0
 31
0.0
  0
LINE
  5
1BE
330
1B9
100
AcDbEntity
  8
SLD-0
 62
     0
100
AcDbLine
 10
0.0
 20
0.0
 30
0.0
 11
0.0
 21
-1.0
 31
0.0
  0
LINE
  5
1BF
330
1B9
100
AcDbEntity
  8
SLD-0
 62
     0
100
AcDbLine
 10
0.0
 20
0.0
 30
0.0
 11
1.0
 21
0.0
 31
0.0
  0
LINE
  5
1C0
330
1B9
100
AcDbEntity
  8
SLD-0
 62
     0
100
AcDbLine
 10
0.0
 20
2.0
 30
0.0
 11
0.0
 21
4.5
 31
0.0
  0
LINE
  5
1C1
330
1B9
100
AcDbEntity
  8
SLD-0
 62
     0
100
AcDbLine
 10
-2.0
 20
0.0
 30
0.0
 11
-4.5
 21
0.0
 31
0.0
  0
LINE
  5
1C2
330
1B9
100
AcDbEntity
  8
SLD-0
 62
     0
100
AcDbLine
 10
0.0
 20
-2.0
 30
0.0
 11
0.0
 21
-4.5
 31
0.0
  0
LINE
  5
1C3
330
1B9
100
AcDbEntity
  8
SLD-0
 62
     0
100
AcDbLine
 10
2.0
 20
0.0
 30
0.0
 11
4.5
 21
0.0
 31
0.0
  0
ENDBLK
  5
1BB
330
1B9
100
AcDbEntity
  8
0
100
AcDbBlockEnd
  0
BLOCK
  5
1D7
330
1D6
100
AcDbEntity
  8
0
100
AcDbBlockBegin
  2
_D_9
 70
     0
 10
0.0
 20
0.0
 30
0.0
  3
_D_9
  1

  0
SOLID
  5
1D9
330
1D6
100
AcDbEntity
  8
SLD-0
100
AcDbTrace
 10
88.6633918366
 20
66.7148206813
 30
0.0
 11
90.6633918366
 21
66.4648206813
 31
0.0
 12
90.6633918366
 22
66.9648206813
 32
0.0
 13
90.6633918366
 23
66.9648206813
 33
0.0
  0
SOLID
  5
1DA
330
1D6
100
AcDbEntity
  8
SLD-0
100
AcDbTrace
 10
113.6633918366
 20
66.7148206813
 30
0.0
 11
111.6633918366
 21
66.9648206813
 31
0.0
 12
111.6633918366
 22
66.4648206813
 32
0.0
 13
111.6633918366
 23
66.4648206813
 33
0.0
  0
LINE
  5
1DB
330
1D6
100
AcDbEntity
  8
SLD-0
100
AcDbLine
 10
88.6633918366
 20
58.3193635836
 30
0.0
 11
88.6633918366
 21
67.7148206813
 31
0.0
  0
LINE
  5
1DC
330
1D6
100
AcDbEntity
  8
SLD-0
100
AcDbLine
 10
113.6633918366
 20
58.3193635836
 30
0.0
 11
113.6633918366
 21
67.7148206813
 31
0.0
  0
LINE
  5
1DD
330
1D6
100
AcDbEntity
  8
SLD-0
100
AcDbLine
 10
88.6633918366
 20
66.7148206813
 30
0.0
 11
113.6633918366
 21
66.7148206813
 31
0.0
  0
MTEXT
  5
1DE
330
1D6
100
AcDbEntity
  8
SLD-0
100
AcDbMText
 10
99.2536696118
 20
69.9374898561
 30
0.0
 40
2.5
 41
0.0
 71
     1
 72
     1
  1
25
  7
SLDTEXTSTYLE0
 73
     1
 44
1.0
  0
ENDBLK
  5
1D8
330
1D6
100
AcDbEntity
  8
0
100
AcDbBlockEnd
  0
BLOCK
  5
1E2
330
1E1
100
AcDbEntity
  8
0
100
AcDbBlockBegin
  2
_D_10
 70
     0
 10
0.0
 20
0.0
 30
0.0
  3
_D_10
  1

  0
SOLID
  5
1E4
330
1E1
100
AcDbEntity
  8
SLD-0
100
AcDbTrace
 10
56.6633918366
 20
56.8193635836
 30
0.0
 11
56.9133918366
 21
58.8193635836
 31
0.0
 12
56.4133918366
 22
58.8193635836
 32
0.0
 13
56.4133918366
 23
58.8193635836
 33
0.0
  0
SOLID
  5
1E5
330
1E1
100
AcDbEntity
  8
SLD-0
100
AcDbTrace
 10
56.6633918366
 20
57.3193635836
 30
0.0
 11
56.4133918366
 21
55.3193635836
 31
0.0
 12
56.9133918366
 22
55.3193635836
 32
0.0
 13
56.9133918366
 23
55.3193635836
 33
0.0
  0
LINE
  5
1E6
330
1E1
100
AcDbEntity
  8
SLD-0
100
AcDbLine
 10
87.6633918366
 20
56.8193635836
 30
0.0
 11
55.6633918366
 21
56.8193635836
 31
0.0
  0
LINE
  5
1E7
330
1E1
100
AcDbEntity
  8
SLD-0
100
AcDbLine
 10
62.6633918366
 20
57.3193635836
 30
0.0
 11
55.6633918366
 21
57.3193635836
 31
0.0
  0
LINE
  5
1E8
330
1E1
100
AcDbEntity
  8
SLD-0
100
AcDbLine
 10
56.6633918366
 20
56.8193635836
 30
0.0
 11
56.6633918366
 21
57.3193635836
 31
0.0
  0
LINE
  5
1E9
330
1E1
100
AcDbEntity
  8
SLD-0
100
AcDbLine
 10
56.6633918366
 20
57.3193635836
 30
0.0
 11
56.6633918366
 21
64.5855569371
 31
0.0
  0
MTEXT
  5
1EA
330
1E1
100
AcDbEntity
  8
SLD-0
100
AcDbMText
 10
53.4407226618
 20
59.8112514333
 30
0.0
 40
2.5
 41
0.0
 71
     1
 72
     1
  1
0.5
  7
SLDTEXTSTYLE0
 11
6.123233995736766E-17
 21
1.0
 31
0.0
 73
     1
 44
1.0
  0
ENDBLK
  5
1E3
330
1E1
100
AcDbEntity
  8
0
100
AcDbBlockEnd
  0
BLOCK
  5
1ED
330
1EC
100
AcDbEntity
  8
0
100
AcDbBlockBegin
  2
_D_11
 70
     0
 10
0.0
 20
0.0
 30
0.0
  3
_D_11
  1

  0
SOLID
  5
1EF
330
1EC
100
AcDbEntity
  8
SLD-0
100
AcDbTrace
 10
49.6633918366
 20
57.3193635836
 30
0.0
 11
49.4133918366
 21
55.3193635836
 31
0.0
 12
49.9133918366
 22
55.3193635836
 32
0.0
 13
49.9133918366
 23
55.3193635836
 33
0.0
  0
SOLID
  5
1F0
330
1EC
100
AcDbEntity
  8
SLD-0
100
AcDbTrace
 10
49.6633918366
 20
47.8193635836
 30
0.0
 11
49.9133918366
 21
49.8193635836
 31
0.0
 12
49.4133918366
 22
49.8193635836
 32
0.0
 13
49.4133918366
 23
49.8193635836
 33
0.0
  0
LINE
  5
1F1
330
1EC
100
AcDbEntity
  8
SLD-0
100
AcDbLine
 10
62.6633918366
 20
57.3193635836
 30
0.0
 11
48.6633918366
 21
57.3193635836
 31
0.0
  0
LINE
  5
1F2
330
1EC
100
AcDbEntity
  8
SLD-0
100
AcDbLine
 10
62.6633918366
 20
47.8193635836
 30
0.0
 11
48.6633918366
 21
47.8193635836
 31
0.0
  0
LINE
  5
1F3
330
1EC
100
AcDbEntity
  8
SLD-0
100
AcDbLine
 10
49.6633918366
 20
57.3193635836
 30
0.0
 11
49.6633918366
 21
47.8193635836
 31
0.0
  0
MTEXT
  5
1F4
330
1EC
100
AcDbEntity
  8
SLD-0
100
AcDbMText
 10
46.4407226618
 20
50.1822108317
 30
0.0
 40
2.5
 41
0.0
 71
     1
 72
     1
  1
9.5
  7
SLDTEXTSTYLE0
 11
-7.044195017643634E-15
 21
1.0
 31
0.0
 73
     1
 44
1.0
  0
ENDBLK
  5
1EE
330
1EC
100
AcDbEntity
  8
0
100
AcDbBlockEnd
  0
ENDSEC
  0
SECTION
  2
ENTITIES
  0
HATCH
  5
75
330
1F
100
AcDbEntity
  8
DIM
 62
     7
100
AcDbHatch
 10
0.0
 20
0.0
 30
0.0
210
0.0
220
0.0
230
1.0
  2
SOLID
 70
     1
 71
     0
 91
        1
 92
        0
 93
       10
 72
     2
 10
191.9122518160186
 20
35.54109251784668
 40
3.045751395731247
 50
249.211220914341
 51
308.9221353953366
 73
     1
 72
     1
 10
193.8257867772531
 20
33.1714964516928
 11
194.7906064384703
 21
32.32420966805046
 72
     1
 10
194.7906064384703
 20
32.32420966805046
 11
191.5804664653145
 21
29.20716995528805
 72
     1
 10
191.5804664653145
 20
29.20716995528805
 11
190.6396660098205
 21
30.01716702539805
 72
     1
 10
190.6396660098205
 20
30.01716702539805
 11
191.2707179302356
 21
30.63306741586907
 72
     1
 10
191.2707179302356
 20
30.63306741586907
 11
187.26151562004
 21
34.11767125614376
 72
     2
 10
188.2764570495807
 20
35.26523163190427
 40
1.531992467805808
 50
131.4906380929588
 51
229.7089352075141
 73
     0
 72
     1
 10
187.2857622020652
 20
36.43378828030431
 11
188.5923904569469
 21
37.69537535681183
 72
     1
 10
188.5923904569469
 20
37.69537535681183
 11
189.6075843043494
 21
36.79984345599404
 72
     2
 10
191.5808546077221
 20
35.15245076859926
 40
2.570544369711283
 50
140.1430462780656
 51
253.0452525074004
 73
     1
 97
        0
 75
     0
 76
     1
 98
        1
 10
0.0
 20
0.0
  0
HATCH
  5
76
330
1F
100
AcDbEntity
  8
DIM
 62
     1
100
AcDbHatch
 10
0.0
 20
0.0
 30
0.0
210
0.0
220
0.0
230
1.0
  2
SOLID
 70
     1
 71
     0
 91
        1
 92
        0
 93
       10
 72
     2
 10
192.0454172549825
 20
34.78689287914464
 40
3.18163670452787
 50
234.1674444878508
 51
314.4407074583991
 73
     0
 72
     2
 10
192.363073545707
 20
35.32771468462281
 40
2.57756748834625
 50
317.8184992995781
 51
398.0564711573081
 73
     0
 72
     1
 10
194.3926593887544
 20
33.73880453528117
 11
195.3781082817372
 21
32.88010759539168
 72
     1
 10
195.3781082817372
 20
32.88010759539168
 11
196.619789596531
 21
34.0845405377989
 72
     2
 10
195.7263972708689
 20
35.31248726961983
 40
1.518552937418266
 50
306.0377529468128
 51
403.4396461533867
 73
     1
 72
     1
 10
196.8290171355412
 20
36.35662924165796
 11
192.7022612771979
 21
39.94580551029192
 72
     1
 10
192.7022612771979
 20
39.94580551029192
 11
193.3265125791251
 21
40.55486394112924
 72
     1
 10
193.3265125791251
 20
40.55486394112924
 11
192.3960060689411
 21
41.38505616097378
 72
     1
 10
192.3960060689411
 20
41.38505616097378
 11
189.1604206205312
 21
38.25813591435967
 72
     1
 10
189.1604206205312
 20
38.25813591435967
 11
190.1828284978798
 21
37.36634538723887
 97
        0
 75
     0
 76
     1
 98
        1
 10
0.0
 20
0.0
  0
LINE
  5
77
330
1F
100
AcDbEntity
  8
0
  6
Continuous
 62
     7
370
     0
100
AcDbLine
 10
167.8593775185
 20
17.7745192513
 30
0.0
 11
168.8593775185
 21
17.7745192513
 31
0.0
  0
LINE
  5
78
330
1F
100
AcDbEntity
  8
0
  6
Continuous
 62
     7
370
     0
100
AcDbLine
 10
164.8593775185
 20
17.7745192513
 30
0.0
 11
167.3593775185
 21
17.7745192513
 31
0.0
  0
LINE
  5
79
330
1F
100
AcDbEntity
  8
0
  6
Continuous
 62
     7
370
     0
100
AcDbLine
 10
181.3593775185
 20
15.2745192513
 30
0.0
 11
181.3593775185
 21
20.2745192513
 31
0.0
  0
LINE
  5
7A
330
1F
100
AcDbEntity
  8
0
  6
Continuous
 62
     7
370
     0
100
AcDbLine
 10
174.3593775185
 20
16.2745192513
 30
0.0
 11
181.3593775185
 21
15.2745192513
 31
0.0
  0
LINE
  5
7B
330
1F
100
AcDbEntity
  8
0
  6
Continuous
 62
     7
370
     0
100
AcDbLine
 10
168.3593775185
 20
16.7745192513
 30
0.0
 11
168.3593775185
 21
14.2745192513
 31
0.0
  0
LINE
  5
7C
330
1F
100
AcDbEntity
  8
0
  6
Continuous
 62
     7
370
     0
100
AcDbLine
 10
181.3593775185
 20
20.2745192513
 30
0.0
 11
174.3593775185
 21
19.2745192513
 31
0.0
  0
LINE
  5
7D
330
1F
100
AcDbEntity
  8
0
  6
Continuous
 62
     7
370
     0
100
AcDbLine
 10
173.3593775185
 20
17.7745192513
 30
0.0
 11
182.3593775185
 21
17.7745192513
 31
0.0
  0
LINE
  5
7E
330
1F
100
AcDbEntity
  8
0
  6
Continuous
 62
     7
370
     0
100
AcDbLine
 10
168.3593775185
 20
18.2745192513
 30
0.0
 11
168.3593775185
 21
17.2745192513
 31
0.0
  0
LINE
  5
7F
330
1F
100
AcDbEntity
  8
0
  6
Continuous
 62
     7
370
     0
100
AcDbLine
 10
169.3593775185
 20
17.7745192513
 30
0.0
 11
171.8593775185
 21
17.7745192513
 31
0.0
  0
LINE
  5
80
330
1F
100
AcDbEntity
  8
0
  6
Continuous
 62
     7
370
     0
100
AcDbLine
 10
168.3593775185
 20
21.2745192513
 30
0.0
 11
168.3593775185
 21
18.7745192513
 31
0.0
  0
LINE
  5
81
330
1F
100
AcDbEntity
  8
0
  6
Continuous
 62
     7
370
     0
100
AcDbLine
 10
174.3593775185
 20
19.2745192513
 30
0.0
 11
174.3593775185
 21
16.2745192513
 31
0.0
  0
LINE
  5
82
330
1F
100
AcDbEntity
  8
0
370
     0
100
AcDbLine
 10
194.7906064385
 20
32.3242096681
 30
0.0
 11
191.5804664653
 21
29.2071699553
 31
0.0
  0
LINE
  5
83
330
1F
100
AcDbEntity
  8
0
370
     0
100
AcDbLine
 10
191.5804664653
 20
29.2071699553
 30
0.0
 11
190.6396660098
 21
30.0171670254
 31
0.0
  0
LINE
  5
84
330
1F
100
AcDbEntity
  8
0
370
     0
100
AcDbLine
 10
190.6396660098
 20
30.0171670254
 30
0.0
 11
191.2707179302
 21
30.6330674159
 31
0.0
  0
LINE
  5
85
330
1F
100
AcDbEntity
  8
0
370
     0
100
AcDbLine
 10
187.26151562
 20
34.1176712561
 30
0.0
 11
191.2707179302
 21
30.6330674159
 31
0.0
  0
LINE
  5
86
330
1F
100
AcDbEntity
  8
0
370
     0
100
AcDbLine
 10
188.5923904569
 20
37.6953753568
 30
0.0
 11
187.2857622021
 21
36.4337882803
 31
0.0
  0
LINE
  5
87
330
1F
100
AcDbEntity
  8
0
370
     0
100
AcDbLine
 10
188.5923904569
 20
37.6953753568
 30
0.0
 11
189.6075843043
 21
36.799843456
 31
0.0
  0
LINE
  5
88
330
1F
100
AcDbEntity
  8
0
370
     0
100
AcDbLine
 10
193.8257867773
 20
33.1714964517
 30
0.0
 11
194.7906064385
 21
32.3242096681
 31
0.0
  0
LINE
  5
89
330
1F
100
AcDbEntity
  8
0
 62
     1
370
     0
100
AcDbLine
 10
190.1828284979
 20
37.3663453872
 30
0.0
 11
189.1604206205
 21
38.2581359144
 31
0.0
  0
LINE
  5
8A
330
1F
100
AcDbEntity
  8
0
 62
     1
370
     0
100
AcDbLine
 10
189.1604206205
 20
38.2581359144
 30
0.0
 11
192.3960060689
 21
41.385056161
 31
0.0
  0
LINE
  5
8B
330
1F
100
AcDbEntity
  8
0
 62
     1
370
     0
100
AcDbLine
 10
192.3960060689
 20
41.385056161
 30
0.0
 11
193.3265125791
 21
40.5548639411
 31
0.0
  0
LINE
  5
8C
330
1F
100
AcDbEntity
  8
0
 62
     1
370
     0
100
AcDbLine
 10
193.3265125791
 20
40.5548639411
 30
0.0
 11
192.7022612772
 21
39.9458055103
 31
0.0
  0
LINE
  5
8D
330
1F
100
AcDbEntity
  8
0
 62
     1
370
     0
100
AcDbLine
 10
192.7022612772
 20
39.9458055103
 30
0.0
 11
196.8290171355
 21
36.3566292417
 31
0.0
  0
LINE
  5
8E
330
1F
100
AcDbEntity
  8
0
 62
     1
370
     0
100
AcDbLine
 10
194.3926593888
 20
33.7388045353
 30
0.0
 11
195.3781082817
 21
32.8801075954
 31
0.0
  0
LINE
  5
8F
330
1F
100
AcDbEntity
  8
0
 62
     1
370
     0
100
AcDbLine
 10
195.3781082817
 20
32.8801075954
 30
0.0
 11
196.6197895965
 21
34.0845405378
 31
0.0
  0
LINE
  5
90
330
1F
100
AcDbEntity
  8
0
  6
Continuous
 62
     7
370
     0
100
AcDbLine
 10
185.6907965209
 20
13.1152464079
 30
0.0
 11
285.6907965209
 21
13.1152464079
 31
0.0
  0
LINE
  5
91
330
1F
100
AcDbEntity
  8
0
  6
Continuous
 62
     7
370
     0
100
AcDbLine
 10
185.6907965209
 20
18.1152464079
 30
0.0
 11
235.6907965209
 21
18.1152464079
 31
0.0
  0
LINE
  5
92
330
1F
100
AcDbEntity
  8
0
  6
Continuous
 62
     7
370
     0
100
AcDbLine
 10
185.6907965209
 20
23.1152464079
 30
0.0
 11
235.6907965209
 21
23.1152464079
 31
0.0
  0
LINE
  5
93
330
1F
100
AcDbEntity
  8
0
  6
Continuous
 62
     7
370
     0
100
AcDbLine
 10
185.6907965209
 20
28.1152464079
 30
0.0
 11
285.6907965209
 21
28.1152464079
 31
0.0
  0
LINE
  5
94
330
1F
100
AcDbEntity
  8
0
  6
Continuous
 62
     7
370
     0
100
AcDbLine
 10
235.6907965209
 20
33.1152464079
 30
0.0
 11
285.6907965209
 21
33.1152464079
 31
0.0
  0
LINE
  5
95
330
1F
100
AcDbEntity
  8
0
  6
Continuous
 62
     7
370
    15
100
AcDbLine
 10
235.6907965209
 20
18.1152464079
 30
0.0
 11
285.6907965209
 21
18.1152464079
 31
0.0
  0
LINE
  5
96
330
1F
100
AcDbEntity
  8
0
  6
Continuous
 62
     7
370
     0
100
AcDbLine
 10
185.6907965209
 20
43.1152464079
 30
0.0
 11
285.6907965209
 21
43.1152464079
 31
0.0
  0
LINE
  5
97
330
1F
100
AcDbEntity
  8
0
  6
Continuous
 62
     7
370
     0
100
AcDbLine
 10
251.237217675
 20
8.1152464079
 30
0.0
 11
251.237217675
 21
18.1152464079
 31
0.0
  0
LINE
  5
98
330
1F
100
AcDbEntity
  8
0
  6
Continuous
 62
     7
370
     0
100
AcDbLine
 10
235.6907965209
 20
8.1152464079
 30
0.0
 11
235.6907965209
 21
43.1152464079
 31
0.0
  0
LINE
  5
99
330
1F
100
AcDbEntity
  8
0
  6
Continuous
 62
     7
370
     0
100
AcDbLine
 10
251.237217675
 20
28.1152464079
 30
0.0
 11
251.237217675
 21
33.1152464079
 31
0.0
  0
LINE
  5
9A
330
1F
100
AcDbEntity
  8
0
  6
Continuous
 62
     7
370
     0
100
AcDbLine
 10
214.4164086353
 20
8.1152464079
 30
0.0
 11
214.4164086353
 21
28.1152464079
 31
0.0
  0
LINE
  5
9B
330
1F
100
AcDbEntity
  8
0
  6
Continuous
 62
     7
370
     0
100
AcDbLine
 10
199.7785887506
 20
8.1152464079
 30
0.0
 11
199.7785887506
 21
28.1152464079
 31
0.0
  0
LINE
  5
9C
330
1F
100
AcDbEntity
  8
0
  6
Continuous
 62
     7
370
     0
100
AcDbLine
 10
185.6907965209
 20
8.1152464079
 30
0.0
 11
185.6907965209
 21
43.1152464079
 31
0.0
  0
LINE
  5
9D
330
1F
100
AcDbEntity
  8
0
  6
Continuous
 62
     7
370
    15
100
AcDbLine
 10
8.6907965209
 20
104.7436369915
 30
0.0
 11
14.6907965209
 21
104.7436369915
 31
0.0
  0
LINE
  5
9E
330
1F
100
AcDbEntity
  8
0
  6
Continuous
 62
     7
370
    15
100
AcDbLine
 10
285.6907965209
 20
104.7436369915
 30
0.0
 11
279.6907965209
 21
104.7436369915
 31
0.0
  0
LINE
  5
9F
330
1F
100
AcDbEntity
  8
0
  6
Continuous
 62
     7
370
    15
100
AcDbLine
 10
147.1907965209
 20
8.1152464079
 30
0.0
 11
147.1907965209
 21
14.1152464079
 31
0.0
  0
LINE
  5
A0
330
1F
100
AcDbEntity
  8
0
  6
Continuous
 62
     7
370
    15
100
AcDbLine
 10
147.1907965209
 20
201.3720275751
 30
0.0
 11
147.1907965209
 21
195.3720275751
 31
0.0
  0
LINE
  5
A1
330
1F
100
AcDbEntity
  8
0
  6
Continuous
 62
     7
370
    15
100
AcDbLine
 10
43.3207965209
 20
201.3720275751
 30
0.0
 11
43.3207965209
 21
202.8720275751
 31
0.0
  0
LINE
  5
A2
330
1F
100
AcDbEntity
  8
0
  6
Continuous
 62
     7
370
    15
100
AcDbLine
 10
77.9507965209
 20
201.3720275751
 30
0.0
 11
77.9507965209
 21
202.8720275751
 31
0.0
  0
LINE
  5
A3
330
1F
100
AcDbEntity
  8
0
  6
Continuous
 62
     7
370
    15
100
AcDbLine
 10
112.5807965209
 20
201.3720275751
 30
0.0
 11
112.5807965209
 21
202.8720275751
 31
0.0
  0
LINE
  5
A4
330
1F
100
AcDbEntity
  8
0
  6
Continuous
 62
     7
370
    15
100
AcDbLine
 10
147.2107965209
 20
201.3720275751
 30
0.0
 11
147.2107965209
 21
202.8720275751
 31
0.0
  0
LINE
  5
A5
330
1F
100
AcDbEntity
  8
0
  6
Continuous
 62
     7
370
    15
100
AcDbLine
 10
181.8407965209
 20
201.3720275751
 30
0.0
 11
181.8407965209
 21
202.8720275751
 31
0.0
  0
LINE
  5
A6
330
1F
100
AcDbEntity
  8
0
  6
Continuous
 62
     7
370
    15
100
AcDbLine
 10
216.4707965209
 20
201.3720275751
 30
0.0
 11
216.4707965209
 21
202.8720275751
 31
0.0
  0
LINE
  5
A7
330
1F
100
AcDbEntity
  8
0
  6
Continuous
 62
     7
370
    15
100
AcDbLine
 10
251.1007965209
 20
201.3720275751
 30
0.0
 11
251.1007965209
 21
202.8720275751
 31
0.0
  0
LINE
  5
A8
330
1F
100
AcDbEntity
  8
0
  6
Continuous
 62
     7
370
    15
100
AcDbLine
 10
43.3157965209
 20
8.1152464079
 30
0.0
 11
43.3157965209
 21
6.6152464079
 31
0.0
  0
LINE
  5
A9
330
1F
100
AcDbEntity
  8
0
  6
Continuous
 62
     7
370
    15
100
AcDbLine
 10
77.9407965209
 20
8.1152464079
 30
0.0
 11
77.9407965209
 21
6.6152464079
 31
0.0
  0
LINE
  5
AA
330
1F
100
AcDbEntity
  8
0
  6
Continuous
 62
     7
370
    15
100
AcDbLine
 10
112.5657965209
 20
8.1152464079
 30
0.0
 11
112.5657965209
 21
6.6152464079
 31
0.0
  0
LINE
  5
AB
330
1F
100
AcDbEntity
  8
0
  6
Continuous
 62
     7
370
    15
100
AcDbLine
 10
147.1907965209
 20
8.1152464079
 30
0.0
 11
147.1907965209
 21
6.6152464079
 31
0.0
  0
LINE
  5
AC
330
1F
100
AcDbEntity
  8
0
  6
Continuous
 62
     7
370
    15
100
AcDbLine
 10
181.8157965209
 20
8.1152464079
 30
0.0
 11
181.8157965209
 21
6.6152464079
 31
0.0
  0
LINE
  5
AD
330
1F
100
AcDbEntity
  8
0
  6
Continuous
 62
     7
370
    15
100
AcDbLine
 10
216.4407965209
 20
8.1152464079
 30
0.0
 11
216.4407965209
 21
6.6152464079
 31
0.0
  0
LINE
  5
AE
330
1F
100
AcDbEntity
  8
0
  6
Continuous
 62
     7
370
     0
100
AcDbLine
 10
285.6907965209
 20
201.3720275751
 30
0.0
 11
8.6907965209
 21
201.3720275751
 31
0.0
  0
LINE
  5
AF
330
1F
100
AcDbEntity
  8
0
  6
Continuous
 62
     7
370
     0
100
AcDbLine
 10
285.6907965209
 20
8.1152464079
 30
0.0
 11
285.6907965209
 21
201.3720275751
 31
0.0
  0
LINE
  5
B0
330
1F
100
AcDbEntity
  8
0
  6
Continuous
 62
     7
370
     0
100
AcDbLine
 10
8.6907965209
 20
201.3720275751
 30
0.0
 11
8.6907965209
 21
8.1152464079
 31
0.0
  0
LINE
  5
B1
330
1F
100
AcDbEntity
  8
0
  6
Continuous
 62
     7
370
     0
100
AcDbLine
 10
8.6907965209
 20
8.1152464079
 30
0.0
 11
285.6907965209
 21
8.1152464079
 31
0.0
  0
LINE
  5
B2
330
1F
100
AcDbEntity
  8
0
  6
Continuous
 62
     7
370
    15
100
AcDbLine
 10
251.0657965209
 20
8.1152464079
 30
0.0
 11
251.0657965209
 21
6.6152464079
 31
0.0
  0
LINE
  5
B3
330
1F
100
AcDbEntity
  8
0
  6
Continuous
 62
     7
370
    15
100
AcDbLine
 10
8.6907965209
 20
40.3252464079
 30
0.0
 11
7.1907965209
 21
40.3252464079
 31
0.0
  0
LINE
  5
B4
330
1F
100
AcDbEntity
  8
0
  6
Continuous
 62
     7
370
    15
100
AcDbLine
 10
8.6907965209
 20
72.5352464079
 30
0.0
 11
7.1907965209
 21
72.5352464079
 31
0.0
  0
LINE
  5
B5
330
1F
100
AcDbEntity
  8
0
  6
Continuous
 62
     7
370
    15
100
AcDbLine
 10
8.6907965209
 20
104.7452464079
 30
0.0
 11
7.1907965209
 21
104.7452464079
 31
0.0
  0
LINE
  5
B6
330
1F
100
AcDbEntity
  8
0
  6
Continuous
 62
     7
370
    15
100
AcDbLine
 10
8.6907965209
 20
136.9552464079
 30
0.0
 11
7.1907965209
 21
136.9552464079
 31
0.0
  0
LINE
  5
B7
330
1F
100
AcDbEntity
  8
0
  6
Continuous
 62
     7
370
    15
100
AcDbLine
 10
8.6907965209
 20
169.1652464079
 30
0.0
 11
7.1907965209
 21
169.1652464079
 31
0.0
  0
LINE
  5
B8
330
1F
100
AcDbEntity
  8
0
  6
Continuous
 62
     7
370
    15
100
AcDbLine
 10
285.6907965209
 20
40.3252464079
 30
0.0
 11
287.1907965209
 21
40.3252464079
 31
0.0
  0
LINE
  5
B9
330
1F
100
AcDbEntity
  8
0
  6
Continuous
 62
     7
370
    15
100
AcDbLine
 10
285.6907965209
 20
72.5352464079
 30
0.0
 11
287.1907965209
 21
72.5352464079
 31
0.0
  0
LINE
  5
BA
330
1F
100
AcDbEntity
  8
0
  6
Continuous
 62
     7
370
    15
100
AcDbLine
 10
285.6907965209
 20
104.7452464079
 30
0.0
 11
287.1907965209
 21
104.7452464079
 31
0.0
  0
LINE
  5
BB
330
1F
100
AcDbEntity
  8
0
  6
Continuous
 62
     7
370
    15
100
AcDbLine
 10
285.6907965209
 20
136.9552464079
 30
0.0
 11
287.1907965209
 21
136.9552464079
 31
0.0
  0
LINE
  5
BC
330
1F
100
AcDbEntity
  8
0
  6
Continuous
 62
     7
370
    15
100
AcDbLine
 10
285.6907965209
 20
169.1652464079
 30
0.0
 11
287.1907965209
 21
169.1652464079
 31
0.0
  0
CIRCLE
  5
BD
330
1F
100
AcDbEntity
  8
0
  6
Continuous
 62
     7
370
     0
100
AcDbCircle
 10
168.3593775185
 20
17.7745192513
 30
0.0
 40
1.5
  0
CIRCLE
  5
BE
330
1F
100
AcDbEntity
  8
0
  6
Continuous
 62
     7
370
     0
100
AcDbCircle
 10
168.3593775185
 20
17.7745192513
 30
0.0
 40
2.5
  0
ARC
  5
BF
330
1F
100
AcDbEntity
  8
0
370
     0
100
AcDbCircle
 10
188.2764570496
 20
35.2652316319
 30
0.0
 40
1.531992467805807
100
AcDbArc
 50
130.2910647925
 51
228.509361907
  0
ARC
  5
C0
330
1F
100
AcDbEntity
  8
0
370
     0
100
AcDbCircle
 10
191.5808546077
 20
35.1524507686
 30
0.0
 40
2.570544369711294
100
AcDbArc
 50
140.1430462781
 51
253.0452525074
  0
ARC
  5
C1
330
1F
100
AcDbEntity
  8
0
370
     0
100
AcDbCircle
 10
191.912251816
 20
35.5410925178
 30
0.0
 40
3.045751395731247
100
AcDbArc
 50
249.2112209143
 51
308.9221353953
  0
ARC
  5
C2
330
1F
100
AcDbEntity
  8
0
 62
     1
370
     0
100
AcDbCircle
 10
195.7263972709
 20
35.3124872696
 30
0.0
 40
1.51855293741827
100
AcDbArc
 50
306.0377529468
 51
43.4396461534
  0
ARC
  5
C3
330
1F
100
AcDbEntity
  8
0
 62
     1
370
     0
100
AcDbCircle
 10
192.045417255
 20
34.7868928791
 30
0.0
 40
3.18163670452787
100
AcDbArc
 50
45.5592925416
 51
125.8325555121
  0
ARC
  5
C4
330
1F
100
AcDbEntity
  8
0
 62
     1
370
     0
100
AcDbCircle
 10
192.3630735457
 20
35.3277146846
 30
0.0
 40
2.57756748834625
100
AcDbArc
 50
321.9435288427
 51
42.1815007004
  0
MTEXT
  5
C6
330
1F
100
AcDbEntity
  8
0
  6
Continuous
 62
     7
370
     0
100
AcDbMText
 10
165.5426850804
 20
13.2208440369
 30
0.0
 40
2.6458333333
 41
0.0
 71
     1
 72
     1
  1
UNIT:m/m
  7
SLDTEXTSTYLE0
 73
     1
 44
1.0
  0
INSERT
  5
CD
330
1F
100
AcDbEntity
  8
0
  6
Continuous
 62
     7
370
     0
100
AcDbBlockReference
  2
SW_NOTE_0
 10
12.2315076053
 20
193.8904304251
 30
0.0
  0
MTEXT
  5
CF
330
1F
100
AcDbEntity
  8
0
  6
Continuous
 62
     7
370
     0
100
AcDbMText
 10
198.7251893935
 20
40.4406774139
 30
0.0
 40
2.38125
 41
0.0
 71
     1
 72
     1
  1
Unice E-O Services Inc.
  7
SLDTEXTSTYLE1
 73
     1
 44
1.0
  0
MTEXT
  5
D0
330
1F
100
AcDbEntity
  8
0
  6
Continuous
 62
     7
370
     0
100
AcDbMText
 10
217.5590538149
 20
21.5867148511
 30
0.0
 40
1.8520833333
 41
0.0
 71
     1
 72
     1
  1
2010/12/30
  7
SLDTEXTSTYLE0
 73
     1
 44
1.0
  0
MTEXT
  5
D1
330
1F
100
AcDbEntity
  8
0
  6
Continuous
 62
     7
370
     0
100
AcDbMText
 10
252.6088982507
 20
16.87117774
 30
0.0
 40
2.5
 41
0.0
 71
     1
 72
     1
  1
1:1
  7
SLDTEXTSTYLE0
 73
     1
 44
1.0
  0
MTEXT
  5
D2
330
1F
100
AcDbEntity
  8
0
  6
Continuous
 62
     7
370
     0
100
AcDbMText
 10
252.3075599985
 20
32.1519195438
 30
0.0
 40
2.5
 41
0.0
 71
     1
 72
     1
  1
02SDB-2
  7
SLDTEXTSTYLE0
 73
     1
 44
1.0
  0
MTEXT
  5
D3
330
1F
100
AcDbEntity
  8
0
  6
Continuous
 62
     7
370
     0
100
AcDbMText
 10
252.3075599985
 20
38.1082117879
 30
0.0
 40
2.5
 41
0.0
 71
     1
 72
     1
  1
02SDB-2
  7
SLDTEXTSTYLE0
 73
     1
 44
1.0
  0
MTEXT
  5
D4
330
1F
100
AcDbEntity
  8
0
  6
Continuous
 62
     7
370
     0
100
AcDbMText
 10
236.3921866786
 20
16.5064795728
 30
0.0
 40
2.1166666667
 41
0.0
 71
     1
 72
     1
  1
SCALE:
  7
SLDTEXTSTYLE0
 73
     1
 44
1.0
  0
MTEXT
  5
D5
330
1F
100
AcDbEntity
  8
0
  6
Continuous
 62
     7
370
     0
100
AcDbMText
 10
186.3336086789
 20
21.5867148511
 30
0.0
 40
1.8520833333
 41
0.0
 71
     1
 72
     1
  1
DRAWN
  7
SLDTEXTSTYLE0
 73
     1
 44
1.0
  0
MTEXT
  5
D6
330
1F
100
AcDbEntity
  8
0
  6
Continuous
 62
     7
370
     0
100
AcDbMText
 10
203.2228367937
 20
26.683208308
 30
0.0
 40
1.8520833333
 41
0.0
 71
     1
 72
     1
  1
NAME
  7
SLDTEXTSTYLE0
 73
     1
 44
1.0
  0
MTEXT
  5
D7
330
1F
100
AcDbEntity
  8
0
  6
Continuous
 62
     7
370
     0
100
AcDbMText
 10
220.8710155758
 20
26.683208308
 30
0.0
 40
1.8520833333
 41
0.0
 71
     1
 72
     1
  1
DATE
  7
SLDTEXTSTYLE0
 73
     1
 44
1.0
  0
MTEXT
  5
D8
330
1F
100
AcDbEntity
  8
0
  6
Continuous
 62
     7
370
     0
100
AcDbMText
 10
236.2756316645
 20
31.7872213766
 30
0.0
 40
2.1166666667
 41
0.0
 71
     1
 72
     1
  1
DWG. NO.
  7
SLDTEXTSTYLE0
 73
     1
 44
1.0
  0
MTEXT
  5
D9
330
1F
100
AcDbEntity
  8
0
  6
Continuous
 62
     7
370
     0
100
AcDbMText
 10
236.3629907088
 20
41.8840658243
 30
0.0
 40
2.1166666667
 41
0.0
 71
     1
 72
     1
  1
TITLE:
  7
SLDTEXTSTYLE0
 73
     1
 44
1.0
  0
MTEXT
  5
DA
330
1F
100
AcDbEntity
  8
0
  6
Continuous
 62
     7
370
     0
100
AcDbMText
 10
203.0314209802
 20
16.2403789724
 30
0.0
 40
1.8520833333
 41
0.0
 71
     1
 72
     1
  1
Johnny
  7
SLDTEXTSTYLE0
 73
     1
 44
1.0
  0
MTEXT
  5
DB
330
1F
100
AcDbEntity
  8
0
  6
Continuous
 62
     7
370
     0
100
AcDbMText
 10
217.5590538149
 20
16.2403789724
 30
0.0
 40
1.8520833333
 41
0.0
 71
     1
 72
     1
  1
2010/12/30
  7
SLDTEXTSTYLE0
 73
     1
 44
1.0
  0
MTEXT
  5
DC
330
1F
100
AcDbEntity
  8
0
  6
Continuous
 62
     7
370
     0
100
AcDbMText
 10
186.3336086789
 20
16.2403789724
 30
0.0
 40
1.8520833333
 41
0.0
 71
     1
 72
     1
  1
ENG APPR.
  7
SLDTEXTSTYLE0
 73
     1
 44
1.0
  0
MTEXT
  5
DD
330
1F
100
AcDbEntity
  8
0
  6
Continuous
 62
     7
370
     0
100
AcDbMText
 10
236.3921866786
 20
11.6853389288
 30
0.0
 40
2.1166666667
 41
0.0
 71
     1
 72
     1
  1
REV
  7
SLDTEXTSTYLE0
 73
     1
 44
1.0
  0
MTEXT
  5
DE
330
1F
100
AcDbEntity
  8
0
  6
Continuous
 62
     7
370
     0
100
AcDbMText
 10
236.3629907088
 20
26.9493089085
 30
0.0
 40
2.1166666667
 41
0.0
 71
     1
 72
     1
  1
MATERIAL:
  7
SLDTEXTSTYLE0
 73
     1
 44
1.0
  0
MTEXT
  5
DF
330
1F
100
AcDbEntity
  8
0
  6
Continuous
 62
     7
370
     0
100
AcDbMText
 10
252.6088982507
 20
22.2175136187
 30
0.0
 40
2.5
 41
0.0
 71
     1
 72
     1
  1
N/A
  7
SLDTEXTSTYLE0
 73
     1
 44
1.0
  0
MTEXT
  5
E0
330
1F
100
AcDbEntity
  8
0
  6
Continuous
 62
     7
370
     0
100
AcDbMText
 10
26.6029931533
 20
204.453351657
 30
0.0
 40
2.1166666667
 41
0.0
 71
     1
 72
     1
  1
1
  7
SLDTEXTSTYLE0
 73
     1
 44
1.0
  0
MTEXT
  5
E1
330
1F
100
AcDbEntity
  8
0
  6
Continuous
 62
     7
370
     0
100
AcDbMText
 10
60.7170995724
 20
204.453351657
 30
0.0
 40
2.1166666667
 41
0.0
 71
     1
 72
     1
  1
2
  7
SLDTEXTSTYLE0
 73
     1
 44
1.0
  0
MTEXT
  5
E2
330
1F
100
AcDbEntity
  8
0
  6
Continuous
 62
     7
370
     0
100
AcDbMText
 10
94.9009943906
 20
204.453351657
 30
0.0
 40
2.1166666667
 41
0.0
 71
     1
 72
     1
  1
3
  7
SLDTEXTSTYLE0
 73
     1
 44
1.0
  0
MTEXT
  5
E3
330
1F
100
AcDbEntity
  8
0
  6
Continuous
 62
     7
370
     0
100
AcDbMText
 10
129.2533362851
 20
204.2992584364
 30
0.0
 40
2.1166666667
 41
0.0
 71
     1
 72
     1
  1
4
  7
SLDTEXTSTYLE0
 73
     1
 44
1.0
  0
MTEXT
  5
E4
330
1F
100
AcDbEntity
  8
0
  6
Continuous
 62
     7
370
     0
100
AcDbMText
 10
163.702323464
 20
204.453351657
 30
0.0
 40
2.1166666667
 41
0.0
 71
     1
 72
     1
  1
5
  7
SLDTEXTSTYLE0
 73
     1
 44
1.0
  0
MTEXT
  5
E5
330
1F
100
AcDbEntity
  8
0
  6
Continuous
 62
     7
370
     0
100
AcDbMText
 10
198.6382170415
 20
204.453351657
 30
0.0
 40
2.1166666667
 41
0.0
 71
     1
 72
     1
  1
6
  7
SLDTEXTSTYLE0
 73
     1
 44
1.0
  0
MTEXT
  5
E6
330
1F
100
AcDbEntity
  8
0
  6
Continuous
 62
     7
370
     0
100
AcDbMText
 10
234.3630657407
 20
204.453351657
 30
0.0
 40
2.1166666667
 41
0.0
 71
     1
 72
     1
  1
7
  7
SLDTEXTSTYLE0
 73
     1
 44
1.0
  0
MTEXT
  5
E7
330
1F
100
AcDbEntity
  8
0
  6
Continuous
 62
     7
370
     0
100
AcDbMText
 10
266.2787820494
 20
204.453351657
 30
0.0
 40
2.1166666667
 41
0.0
 71
     1
 72
     1
  1
8
  7
SLDTEXTSTYLE0
 73
     1
 44
1.0
  0
MTEXT
  5
E8
330
1F
100
AcDbEntity
  8
0
  6
Continuous
 62
     7
370
     0
100
AcDbMText
 10
5.3568236555
 20
185.8113022879
 30
0.0
 40
2.1166666667
 41
0.0
 71
     1
 72
     1
  1
A
  7
SLDTEXTSTYLE0
 73
     1
 44
1.0
  0
MTEXT
  5
E9
330
1F
100
AcDbEntity
  8
0
  6
Continuous
 62
     7
370
     0
100
AcDbMText
 10
5.5910431831
 20
154.2993048238
 30
0.0
 40
2.1166666667
 41
0.0
 71
     1
 72
     1
  1
B
  7
SLDTEXTSTYLE0
 73
     1
 44
1.0
  0
MTEXT
  5
EA
330
1F
100
AcDbEntity
  8
0
  6
Continuous
 62
     7
370
     0
100
AcDbMText
 10
5.5910431831
 20
121.274351423
 30
0.0
 40
2.1166666667
 41
0.0
 71
     1
 72
     1
  1
C
  7
SLDTEXTSTYLE0
 73
     1
 44
1.0
  0
MTEXT
  5
EB
330
1F
100
AcDbEntity
  8
0
  6
Continuous
 62
     7
370
     0
100
AcDbMText
 10
5.5910431831
 20
88.7453220221
 30
0.0
 40
2.1166666667
 41
0.0
 71
     1
 72
     1
  1
D
  7
SLDTEXTSTYLE0
 73
     1
 44
1.0
  0
MTEXT
  5
EC
330
1F
100
AcDbEntity
  8
0
  6
Continuous
 62
     7
370
     0
100
AcDbMText
 10
5.5910431831
 20
57.5558849197
 30
0.0
 40
2.1166666667
 41
0.0
 71
     1
 72
     1
  1
E
  7
SLDTEXTSTYLE0
 73
     1
 44
1.0
  0
MTEXT
  5
ED
330
1F
100
AcDbEntity
  8
0
  6
Continuous
 62
     7
370
     0
100
AcDbMText
 10
5.5910431831
 20
25.5694212252
 30
0.0
 40
2.1166666667
 41
0.0
 71
     1
 72
     1
  1
F
  7
SLDTEXTSTYLE0
 73
     1
 44
1.0
  0
MTEXT
  5
EE
330
1F
100
AcDbEntity
  8
0
  6
Continuous
 62
     7
370
     0
100
AcDbMText
 10
266.1858616964
 20
6.6236223963
 30
0.0
 40
2.1166666667
 41
0.0
 71
     1
 72
     1
  1
8
  7
SLDTEXTSTYLE0
 73
     1
 44
1.0
  0
MTEXT
  5
EF
330
1F
100
AcDbEntity
  8
0
  6
Continuous
 62
     7
370
     0
100
AcDbMText
 10
234.2701453876
 20
6.6236223963
 30
0.0
 40
2.1166666667
 41
0.0
 71
     1
 72
     1
  1
7
  7
SLDTEXTSTYLE0
 73
     1
 44
1.0
  0
MTEXT
  5
F0
330
1F
100
AcDbEntity
  8
0
  6
Continuous
 62
     7
370
     0
100
AcDbMText
 10
198.5452966885
 20
6.6236223963
 30
0.0
 40
2.1166666667
 41
0.0
 71
     1
 72
     1
  1
6
  7
SLDTEXTSTYLE0
 73
     1
 44
1.0
  0
MTEXT
  5
F1
330
1F
100
AcDbEntity
  8
0
  6
Continuous
 62
     7
370
     0
100
AcDbMText
 10
163.6094031109
 20
6.6236223963
 30
0.0
 40
2.1166666667
 41
0.0
 71
     1
 72
     1
  1
5
  7
SLDTEXTSTYLE0
 73
     1
 44
1.0
  0
MTEXT
  5
F2
330
1F
100
AcDbEntity
  8
0
  6
Continuous
 62
     7
370
     0
100
AcDbMText
 10
129.1604159321
 20
6.4695291758
 30
0.0
 40
2.1166666667
 41
0.0
 71
     1
 72
     1
  1
4
  7
SLDTEXTSTYLE0
 73
     1
 44
1.0
  0
MTEXT
  5
F3
330
1F
100
AcDbEntity
  8
0
  6
Continuous
 62
     7
370
     0
100
AcDbMText
 10
94.8080740376
 20
6.6236223963
 30
0.0
 40
2.1166666667
 41
0.0
 71
     1
 72
     1
  1
3
  7
SLDTEXTSTYLE0
 73
     1
 44
1.0
  0
MTEXT
  5
F4
330
1F
100
AcDbEntity
  8
0
  6
Continuous
 62
     7
370
     0
100
AcDbMText
 10
60.6241792194
 20
6.6236223963
 30
0.0
 40
2.1166666667
 41
0.0
 71
     1
 72
     1
  1
2
  7
SLDTEXTSTYLE0
 73
     1
 44
1.0
  0
MTEXT
  5
F5
330
1F
100
AcDbEntity
  8
0
  6
Continuous
 62
     7
370
     0
100
AcDbMText
 10
26.5100728003
 20
6.6236223963
 30
0.0
 40
2.1166666667
 41
0.0
 71
     1
 72
     1
  1
1
  7
SLDTEXTSTYLE0
 73
     1
 44
1.0
  0
MTEXT
  5
F6
330
1F
100
AcDbEntity
  8
0
  6
Continuous
 62
     7
370
     0
100
AcDbMText
 10
287.1023846145
 20
186.6424909092
 30
0.0
 40
2.1166666667
 41
0.0
 71
     1
 72
     1
  1
A
  7
SLDTEXTSTYLE0
 73
     1
 44
1.0
  0
MTEXT
  5
F7
330
1F
100
AcDbEntity
  8
0
  6
Continuous
 62
     7
370
     0
100
AcDbMText
 10
287.3366041421
 20
155.1304934451
 30
0.0
 40
2.1166666667
 41
0.0
 71
     1
 72
     1
  1
B
  7
SLDTEXTSTYLE0
 73
     1
 44
1.0
  0
MTEXT
  5
F8
330
1F
100
AcDbEntity
  8
0
  6
Continuous
 62
     7
370
     0
100
AcDbMText
 10
287.3366041421
 20
122.1055400442
 30
0.0
 40
2.1166666667
 41
0.0
 71
     1
 72
     1
  1
C
  7
SLDTEXTSTYLE0
 73
     1
 44
1.0
  0
MTEXT
  5
F9
330
1F
100
AcDbEntity
  8
0
  6
Continuous
 62
     7
370
     0
100
AcDbMText
 10
287.3366041421
 20
89.5765106433
 30
0.0
 40
2.1166666667
 41
0.0
 71
     1
 72
     1
  1
D
  7
SLDTEXTSTYLE0
 73
     1
 44
1.0
  0
MTEXT
  5
FA
330
1F
100
AcDbEntity
  8
0
  6
Continuous
 62
     7
370
     0
100
AcDbMText
 10
287.3366041421
 20
58.3870735409
 30
0.0
 40
2.1166666667
 41
0.0
 71
     1
 72
     1
  1
E
  7
SLDTEXTSTYLE0
 73
     1
 44
1.0
  0
MTEXT
  5
FB
330
1F
100
AcDbEntity
  8
0
  6
Continuous
 62
     7
370
     0
100
AcDbMText
 10
287.3366041421
 20
26.4006098464
 30
0.0
 40
2.1166666667
 41
0.0
 71
     1
 72
     1
  1
F
  7
SLDTEXTSTYLE0
 73
     1
 44
1.0
  0
MTEXT
  5
FC
330
1F
100
AcDbEntity
  8
0
  6
Continuous
 62
     7
370
     0
100
AcDbMText
 10
203.1553128802
 20
21.5867148511
 30
0.0
 40
1.8520833333
 41
0.0
 71
     1
 72
     1
  1
Miki
  7
SLDTEXTSTYLE0
 73
     1
 44
1.0
  0
MTEXT
  5
FD
330
1F
100
AcDbEntity
  8
0
  6
Continuous
 62
     7
370
     0
100
AcDbMText
 10
252.8482239645
 20
12.0500370959
 30
0.0
 40
2.5
 41
0.0
 71
     1
 72
     1
  1
0
  7
SLDTEXTSTYLE0
 73
     1
 44
1.0
  0
INSERT
  5
103
330
1F
100
AcDbEntity
  8
SLD-0
 62
     7
100
AcDbBlockReference
  2
SW_NOTE_1
 10
198.7251893935
 20
33.1437602047
 30
0.0
  0
LINE
  5
104
330
1F
100
AcDbEntity
  8
0
  6
Continuous
 62
     7
370
    30
100
AcDbLine
 10
68.6633918366
 20
101.3046380491
 30
0.0
 11
88.6633918366
 21
101.3046380491
 31
0.0
  0
ARC
  5
105
330
1F
100
AcDbEntity
  8
0
  6
Continuous
 62
     7
370
    30
100
AcDbCircle
 10
68.6633918366
 20
106.3046380491
 30
0.0
 40
5.0
100
AcDbArc
 50
180.0
 51
270.0
  0
LINE
  5
106
330
1F
100
AcDbEntity
  8
0
  6
Continuous
 62
     7
370
    30
100
AcDbLine
 10
63.6633918366
 20
146.3046380491
 30
0.0
 11
63.6633918366
 21
106.3046380491
 31
0.0
  0
ARC
  5
107
330
1F
100
AcDbEntity
  8
0
  6
Continuous
 62
     7
370
    30
100
AcDbCircle
 10
68.6633918366
 20
146.3046380491
 30
0.0
 40
5.0
100
AcDbArc
 50
90.0
 51
180.0
  0
LINE
  5
108
330
1F
100
AcDbEntity
  8
0
  6
Continuous
 62
     7
370
    30
100
AcDbLine
 10
88.6633918366
 20
151.3046380491
 30
0.0
 11
68.6633918366
 21
151.3046380491
 31
0.0
  0
LINE
  5
109
330
1F
100
AcDbEntity
  8
0
  6
Continuous
 62
     7
370
    30
100
AcDbLine
 10
88.6633918366
 20
151.3046380491
 30
0.0
 11
88.6633918366
 21
101.3046380491
 31
0.0
  0
LINE
  5
10A
330
1F
100
AcDbEntity
  8
0
  6
Continuous
 62
     7
370
    30
100
AcDbLine
 10
72.2633918366
 20
142.3046380491
 30
0.0
 11
72.2633918366
 21
110.3046380491
 31
0.0
  0
ARC
  5
10B
330
1F
100
AcDbEntity
  8
0
  6
Continuous
 62
     7
370
    30
100
AcDbCircle
 10
75.7633918366
 20
110.3046380491
 30
0.0
 40
3.500000000000014
100
AcDbArc
 50
180.0
 51
0.0
  0
LINE
  5
10C
330
1F
100
AcDbEntity
  8
0
  6
Continuous
 62
     7
370
    30
100
AcDbLine
 10
79.2633918366
 20
110.3046380491
 30
0.0
 11
79.2633918366
 21
142.3046380491
 31
0.0
  0
ARC
  5
10D
330
1F
100
AcDbEntity
  8
0
  6
Continuous
 62
     7
370
    30
100
AcDbCircle
 10
75.7633918366
 20
142.3046380491
 30
0.0
 40
3.500000000000014
100
AcDbArc
 50
0.0
 51
180.0
  0
LINE
  5
10E
330
1F
100
AcDbEntity
  8
0
  6
Continuous
 62
     7
370
    30
100
AcDbLine
 10
113.6633918366
 20
101.3046380491
 30
0.0
 11
113.6633918366
 21
151.3046380491
 31
0.0
  0
LINE
  5
10F
330
1F
100
AcDbEntity
  8
0
  6
Continuous
 62
     7
370
    30
100
AcDbLine
 10
123.0633918366
 20
142.3046380491
 30
0.0
 11
123.0633918366
 21
110.3046380491
 31
0.0
  0
ARC
  5
110
330
1F
100
AcDbEntity
  8
0
  6
Continuous
 62
     7
370
    30
100
AcDbCircle
 10
126.5633918366
 20
110.3046380491
 30
0.0
 40
3.500000000000014
100
AcDbArc
 50
180.0
 51
0.0
  0
LINE
  5
111
330
1F
100
AcDbEntity
  8
0
  6
Continuous
 62
     7
370
    30
100
AcDbLine
 10
130.0633918366
 20
110.3046380491
 30
0.0
 11
130.0633918366
 21
142.3046380491
 31
0.0
  0
ARC
  5
112
330
1F
100
AcDbEntity
  8
0
  6
Continuous
 62
     7
370
    30
100
AcDbCircle
 10
126.5633918366
 20
142.3046380491
 30
0.0
 40
3.500000000000014
100
AcDbArc
 50
0.0
 51
180.0
  0
LINE
  5
113
330
1F
100
AcDbEntity
  8
0
  6
Continuous
 62
     7
370
    30
100
AcDbLine
 10
113.6633918366
 20
101.3046380491
 30
0.0
 11
133.6633918366
 21
101.3046380491
 31
0.0
  0
ARC
  5
114
330
1F
100
AcDbEntity
  8
0
  6
Continuous
 62
     7
370
    30
100
AcDbCircle
 10
133.6633918366
 20
106.3046380491
 30
0.0
 40
4.999999999999986
100
AcDbArc
 50
270.0
 51
0.0
  0
LINE
  5
115
330
1F
100
AcDbEntity
  8
0
  6
Continuous
 62
     7
370
    30
100
AcDbLine
 10
138.6633918366
 20
106.3046380491
 30
0.0
 11
138.6633918366
 21
146.3046380491
 31
0.0
  0
ARC
  5
116
330
1F
100
AcDbEntity
  8
0
  6
Continuous
 62
     7
370
    30
100
AcDbCircle
 10
133.6633918366
 20
146.3046380491
 30
0.0
 40
5.0
100
AcDbArc
 50
0.0
 51
90.0
  0
LINE
  5
117
330
1F
100
AcDbEntity
  8
0
  6
Continuous
 62
     7
370
    30
100
AcDbLine
 10
133.6633918366
 20
151.3046380491
 30
0.0
 11
113.6633918366
 21
151.3046380491
 31
0.0
  0
CIRCLE
  5
118
330
1F
100
AcDbEntity
  8
0
  6
Continuous
 62
     7
370
    30
100
AcDbCircle
 10
101.1633918366
 20
126.3046380491
 30
0.0
 40
5.754369999999994
  0
CIRCLE
  5
119
330
1F
100
AcDbEntity
  8
0
  6
Continuous
 62
     7
370
    30
100
AcDbCircle
 10
101.1633918366
 20
139.0046380491
 30
0.0
 40
5.754369999999966
  0
CIRCLE
  5
11A
330
1F
100
AcDbEntity
  8
0
  6
Continuous
 62
     7
370
    30
100
AcDbCircle
 10
101.1633918366
 20
113.6046380491
 30
0.0
 40
5.754369999999994
  0
LINE
  5
11B
330
1F
100
AcDbEntity
  8
0
  6
Continuous
 62
     7
370
    30
100
AcDbLine
 10
88.6633918366
 20
101.3046380491
 30
0.0
 11
113.6633918366
 21
101.3046380491
 31
0.0
  0
LINE
  5
11C
330
1F
100
AcDbEntity
  8
0
  6
Continuous
 62
     7
370
    30
100
AcDbLine
 10
113.6633918366
 20
151.3046380491
 30
0.0
 11
88.6633918366
 21
151.3046380491
 31
0.0
  0
CIRCLE
  5
11D
330
1F
100
AcDbEntity
  8
0
  6
Continuous
 62
     7
370
    30
100
AcDbCircle
 10
101.1633918366
 20
126.3046380491
 30
0.0
 40
3.378199999999993
  0
CIRCLE
  5
11E
330
1F
100
AcDbEntity
  8
0
  6
Continuous
 62
     7
370
    30
100
AcDbCircle
 10
101.1633918366
 20
113.6046380491
 30
0.0
 40
3.378199999999993
  0
CIRCLE
  5
11F
330
1F
100
AcDbEntity
  8
0
  6
Continuous
 62
     7
370
    30
100
AcDbCircle
 10
101.1633918366
 20
139.0046380491
 30
0.0
 40
3.378199999999993
  0
DIMENSION
  5
120
330
1F
100
AcDbEntity
  8
SLD-0
100
AcDbDimension
  2
_D
 10
101.1633918366
 20
91.888571629
 30
0.0
 11
88.4633918366
 21
91.888571629
 31
0.0
 70
   160
  1
<>
 71
     2
 42
-1.0
  3
SLDDIMSTYLE0
100
AcDbAlignedDimension
 13
75.7633918366
 23
105.8046380491
 33
0.0
 14
101.1633918366
 24
106.8502680491
 34
0.0
100
AcDbRotatedDimension
  0
DIMENSION
  5
12B
330
1F
100
AcDbEntity
  8
SLD-0
100
AcDbDimension
  2
_D_1
 10
126.5633918366
 20
91.888571629
 30
0.0
 11
113.8633918366
 21
91.888571629
 31
0.0
 70
   160
  1
<>
 71
     2
 42
-1.0
  3
SLDDIMSTYLE0
100
AcDbAlignedDimension
 13
101.1633918366
 23
106.8502680491
 33
0.0
 14
126.5633918366
 24
105.8046380491
 34
0.0
100
AcDbRotatedDimension
  0
DIMENSION
  5
135
330
1F
100
AcDbEntity
  8
SLD-0
100
AcDbDimension
  2
_D_2
 10
55.0273243193
 20
126.3046380491
 30
0.0
 11
55.0273243193
 21
119.9546380491
 31
0.0
 70
   160
  1
<>
 71
     2
 42
-1.0
  3
SLDDIMSTYLE0
100
AcDbAlignedDimension
 13
94.4090218366
 23
113.6046380491
 33
0.0
 14
101.1633918366
 24
126.3046380491
 34
0.0
 50
90.0
100
AcDbRotatedDimension
  0
DIMENSION
  5
13F
330
1F
100
AcDbEntity
  8
SLD-0
100
AcDbDimension
  2
_D_3
 10
55.0273243193
 20
139.0046380491
 30
0.0
 11
55.0273243193
 21
132.6546380491
 31
0.0
 70
   160
  1
<>
 71
     2
 42
-1.0
  3
SLDDIMSTYLE0
100
AcDbAlignedDimension
 13
101.1633918366
 23
126.3046380491
 33
0.0
 14
94.4090218366
 24
139.0046380491
 34
0.0
 50
90.0
100
AcDbRotatedDimension
  0
DIMENSION
  5
149
330
1F
100
AcDbEntity
  8
SLD-0
100
AcDbDimension
  2
_D_4
 10
47.5341561098
 20
110.3046380491
 30
0.0
 11
47.5341561098
 21
126.3046380491
 31
0.0
 70
   160
  1
<>
 71
     2
 42
-1.0
  3
SLDDIMSTYLE0
100
AcDbAlignedDimension
 13
71.2633918366
 23
142.3046380491
 33
0.0
 14
71.2633918366
 24
110.3046380491
 34
0.0
 50
90.0
100
AcDbRotatedDimension
  0
DIMENSION
  5
153
330
1F
100
AcDbEntity
  8
SLD-0
100
AcDbDimension
  2
_D_5
 10
39.7221296787
 20
101.3046380491
 30
0.0
 11
39.7221296787
 21
126.3046380491
 31
0.0
 70
   160
  1
<>
 71
     2
 42
-1.0
  3
SLDDIMSTYLE0
100
AcDbAlignedDimension
 13
68.6633918366
 23
151.3046380491
 33
0.0
 14
68.6633918366
 24
101.3046380491
 34
0.0
 50
90.0
100
AcDbRotatedDimension
  0
DIMENSION
  5
15D
330
1F
100
AcDbEntity
  8
SLD-0
100
AcDbDimension
  2
_D_6
 10
138.6633918366
 20
82.6612111042
 30
0.0
 11
101.1633918366
 21
82.6612111042
 31
0.0
 70
   160
  1
<>
 71
     2
 42
-1.0
  3
SLDDIMSTYLE0
100
AcDbAlignedDimension
 13
63.6633918366
 23
106.3046380491
 33
0.0
 14
138.6633918366
 24
106.3046380491
 34
0.0
100
AcDbRotatedDimension
  0
DIMENSION
  5
167
330
1F
100
AcDbEntity
  8
SLD-0
100
AcDbDimension
  2
_D_7
 10
76.8527862509
 20
138.9784961685
 30
0.0
 11
57.9006257298
 21
161.3136272265
 31
0.0
 70
   163
  1
2-<> HOLES.
 71
     1
 42
-1.0
  3
SLDDIMSTYLE1
100
AcDbDiametricDimension
 15
74.6739974223
 25
145.6307799298
 35
0.0
 40
0.0
  0
DIMENSION
  5
173
330
1F
100
AcDbEntity
  8
SLD-0
100
AcDbDimension
  2
_D_8
 10
99.674051288
 20
133.4463434521
 30
0.0
 11
118.2645539754
 21
165.1771799578
 31
0.0
 70
   163
  1
3 HOLES,\P 1/4"-20 CLR
 71
     1
 42
-1.0
  3
SLDDIMSTYLE2
100
AcDbDiametricDimension
 15
102.6527323852
 25
144.5629326462
 35
0.0
 40
0.0
  0
INSERT
  5
188
330
1F
100
AcDbEntity
  8
SLD-0
100
AcDbBlockReference
  2
SW_CENTERMARKSYMBOL_0
 10
101.1633918366
 20
139.0046380491
 30
0.0
  0
INSERT
  5
194
330
1F
100
AcDbEntity
  8
SLD-0
100
AcDbBlockReference
  2
SW_CENTERMARKSYMBOL_1
 10
101.1633918366
 20
113.6046380491
 30
0.0
  0
INSERT
  5
1A0
330
1F
100
AcDbEntity
  8
SLD-0
100
AcDbBlockReference
  2
SW_CENTERMARKSYMBOL_2
 10
75.7633918366
 20
110.3046380491
 30
0.0
  0
INSERT
  5
1AC
330
1F
100
AcDbEntity
  8
SLD-0
100
AcDbBlockReference
  2
SW_CENTERMARKSYMBOL_3
 10
75.7633918366
 20
142.3046380491
 30
0.0
  0
INSERT
  5
1B8
330
1F
100
AcDbEntity
  8
SLD-0
100
AcDbBlockReference
  2
SW_CENTERMARKSYMBOL_4
 10
126.5633918366
 20
142.3046380491
 30
0.0
  0
INSERT
  5
1C4
330
1F
100
AcDbEntity
  8
SLD-0
100
AcDbBlockReference
  2
SW_CENTERMARKSYMBOL_5
 10
126.5633918366
 20
110.3046380491
 30
0.0
  0
LINE
  5
1C5
330
1F
100
AcDbEntity
  8
SLD-0
  6
CENTERX2
370
     0
100
AcDbLine
 10
66.6633918366
 20
126.3046380491
 30
0.0
 11
135.6633918366
 21
126.3046380491
 31
0.0
  0
LINE
  5
1C6
330
1F
100
AcDbEntity
  8
SLD-0
  6
CENTERX2
370
     0
100
AcDbLine
 10
101.1633918366
 20
104.3046380491
 30
0.0
 11
101.1633918366
 21
148.3046380491
 31
0.0
  0
LINE
  5
1C7
330
1F
100
AcDbEntity
  8
0
  6
Continuous
 62
     7
370
    30
100
AcDbLine
 10
138.6633918366
 20
47.8193635836
 30
0.0
 11
138.6633918366
 21
57.3193635836
 31
0.0
  0
LINE
  5
1C8
330
1F
100
AcDbEntity
  8
0
  6
Continuous
 62
     7
370
    30
100
AcDbLine
 10
133.6633918366
 20
47.8193635836
 30
0.0
 11
138.6633918366
 21
47.8193635836
 31
0.0
  0
LINE
  5
1C9
330
1F
100
AcDbEntity
  8
0
  6
Continuous
 62
     7
370
    30
100
AcDbLine
 10
133.6633918366
 20
47.8193635836
 30
0.0
 11
133.6633918366
 21
57.3193635836
 31
0.0
  0
LINE
  5
1CA
330
1F
100
AcDbEntity
  8
0
  6
Continuous
 62
     7
370
    30
100
AcDbLine
 10
133.6633918366
 20
57.3193635836
 30
0.0
 11
138.6633918366
 21
57.3193635836
 31
0.0
  0
LINE
  5
1CB
330
1F
100
AcDbEntity
  8
0
  6
Continuous
 62
     7
370
    30
100
AcDbLine
 10
88.6633918366
 20
56.8193635836
 30
0.0
 11
113.6633918366
 21
56.8193635836
 31
0.0
  0
LINE
  5
1CC
330
1F
100
AcDbEntity
  8
0
  6
Continuous
 62
     7
370
    30
100
AcDbLine
 10
113.6633918366
 20
56.8193635836
 30
0.0
 11
113.6633918366
 21
57.3193635836
 31
0.0
  0
LINE
  5
1CD
330
1F
100
AcDbEntity
  8
0
  6
Continuous
 62
     7
370
    30
100
AcDbLine
 10
68.6633918366
 20
47.8193635836
 30
0.0
 11
68.6633918366
 21
57.3193635836
 31
0.0
  0
LINE
  5
1CE
330
1F
100
AcDbEntity
  8
0
  6
Continuous
 62
     7
370
    30
100
AcDbLine
 10
68.6633918366
 20
57.3193635836
 30
0.0
 11
88.6633918366
 21
57.3193635836
 31
0.0
  0
LINE
  5
1CF
330
1F
100
AcDbEntity
  8
0
  6
Continuous
 62
     7
370
    30
100
AcDbLine
 10
88.6633918366
 20
56.8193635836
 30
0.0
 11
88.6633918366
 21
57.3193635836
 31
0.0
  0
LINE
  5
1D0
330
1F
100
AcDbEntity
  8
0
  6
Continuous
 62
     7
370
    30
100
AcDbLine
 10
68.6633918366
 20
47.8193635836
 30
0.0
 11
133.6633918366
 21
47.8193635836
 31
0.0
  0
LINE
  5
1D1
330
1F
100
AcDbEntity
  8
0
  6
Continuous
 62
     7
370
    30
100
AcDbLine
 10
113.6633918366
 20
57.3193635836
 30
0.0
 11
133.6633918366
 21
57.3193635836
 31
0.0
  0
LINE
  5
1D2
330
1F
100
AcDbEntity
  8
0
  6
Continuous
 62
     7
370
    30
100
AcDbLine
 10
63.6633918366
 20
47.8193635836
 30
0.0
 11
63.6633918366
 21
57.3193635836
 31
0.0
  0
LINE
  5
1D3
330
1F
100
AcDbEntity
  8
0
  6
Continuous
 62
     7
370
    30
100
AcDbLine
 10
63.6633918366
 20
57.3193635836
 30
0.0
 11
68.6633918366
 21
57.3193635836
 31
0.0
  0
LINE
  5
1D4
330
1F
100
AcDbEntity
  8
0
  6
Continuous
 62
     7
370
    30
100
AcDbLine
 10
63.6633918366
 20
47.8193635836
 30
0.0
 11
68.6633918366
 21
47.8193635836
 31
0.0
  0
DIMENSION
  5
1D5
330
1F
100
AcDbEntity
  8
SLD-0
100
AcDbDimension
  2
_D_9
 10
113.6633918366
 20
66.7148206813
 30
0.0
 11
101.1633918366
 21
66.7148206813
 31
0.0
 70
   160
  1
<>
 71
     2
 42
-1.0
  3
SLDDIMSTYLE0
100
AcDbAlignedDimension
 13
88.6633918366
 23
57.3193635836
 33
0.0
 14
113.6633918366
 24
57.3193635836
 34
0.0
100
AcDbRotatedDimension
  0
DIMENSION
  5
1DF
330
1F
100
AcDbEntity
  8
SLD-0
100
AcDbDimension
  2
_D_10
 10
56.6633918366
 20
57.3193635836
 30
0.0
 11
56.6633918366
 21
62.1984041852
 31
0.0
 70
   160
  1
<>
 71
     2
 42
-1.0
  3
SLDDIMSTYLE3
100
AcDbAlignedDimension
 13
88.6633918366
 23
56.8193635836
 33
0.0
 14
63.6633918366
 24
57.3193635836
 34
0.0
 50
90.0
100
AcDbRotatedDimension
  0
DIMENSION
  5
1EB
330
1F
100
AcDbEntity
  8
SLD-0
100
AcDbDimension
  2
_D_11
 10
49.6633918366
 20
47.8193635836
 30
0.0
 11
49.6633918366
 21
52.5693635836
 31
0.0
 70
   160
  1
<>
 71
     2
 42
-1.0
  3
SLDDIMSTYLE0
100
AcDbAlignedDimension
 13
63.6633918366
 23
57.3193635836
 33
0.0
 14
63.6633918366
 24
47.8193635836
 34
0.0
 50
90.0
100
AcDbRotatedDimension
  0
LINE
  5
1F5
330
1F
100
AcDbEntity
  8
SLD-0
  6
CENTERX2
370
     0
100
AcDbLine
 10
101.1633918366
 20
47.1072986134
 30
0.0
 11
101.1633918366
 21
59.3193635836
 31
0.0
  0
LINE
  5
1F6
330
1F
100
AcDbEntity
  8
0
  6
Continuous
 62
     7
370
    30
100
AcDbLine
 10
267.7041620864
 20
139.9669567959
 30
0.0
 11
267.7041620864
 21
147.7240945088
 31
0.0
  0
LINE
  5
1F7
330
1F
100
AcDbEntity
  8
0
  6
Continuous
 62
     7
370
    30
100
AcDbLine
 10
183.4579500618
 20
157.9291959066
 30
0.0
 11
183.4579500618
 21
150.1720581937
 31
0.0
  0
LINE
  5
1F8
330
1F
100
AcDbEntity
  8
0
  6
Continuous
 62
     7
370
    30
100
AcDbLine
 10
266.2396959923
 20
149.7651147884
 30
0.0
 11
252.0975603686
 21
157.9291959066
 31
0.0
  0
ARC
  5
1F9
330
1F
100
AcDbEntity
  8
0
  6
Continuous
 62
     7
370
    30
100
AcDbCircle
 10
265.4650608583
 20
147.7240945088
 30
0.0
 40
2.183076584171374
100
AcDbArc
 50
290.7834207995
 51
69.2165792005
  0
LINE
  5
1FA
330
1F
100
AcDbEntity
  8
0
  6
Continuous
 62
     7
370
    30
100
AcDbLine
 10
237.9554247449
 20
129.3549119928
 30
0.0
 11
266.2396959923
 21
145.6830742293
 31
0.0
  0
ARC
  5
1FB
330
1F
100
AcDbEntity
  8
0
  6
Continuous
 62
     7
370
    30
100
AcDbCircle
 10
234.4198908389
 20
136.1784674176
 30
0.0
 40
7.685109539558465
100
AcDbArc
 50
242.6096722366
 51
297.3903277634
  0
LINE
  5
1FC
330
1F
100
AcDbEntity
  8
0
  6
Continuous
 62
     7
370
    30
100
AcDbLine
 10
216.7422213093
 20
137.5189931111
 30
0.0
 11
230.884356933
 21
129.3549119928
 31
0.0
  0
LINE
  5
1FD
330
1F
100
AcDbEntity
  8
0
  6
Continuous
 62
     7
370
    30
100
AcDbLine
 10
216.7422213093
 20
137.5189931111
 30
0.0
 11
252.0975603686
 21
157.9291959066
 31
0.0
  0
LINE
  5
1FE
330
1F
100
AcDbEntity
  8
0
  6
Continuous
 62
     7
370
    30
100
AcDbLine
 10
252.3804030811
 20
150.4182412779
 30
0.0
 11
229.7529860831
 21
137.3557114887
 31
0.0
  0
LWPOLYLINE
  5
1FF
330
1F
100
AcDbEntity
  8
0
  6
Continuous
 62
     7
370
    30
100
AcDbPolyline
 90
       22
 70
   128
 43
0.0
 10
229.7529860831
 20
137.3557114887
 10
229.4117675881
 20
137.1268151301
 10
229.13345594
 20
136.8711168237
 10
228.9242681612
 20
136.5943284471
 10
228.7888771609
 20
136.3026329952
 10
228.7303073505
 20
136.0025464625
 10
228.7498670826
 20
135.7007722861
 10
228.8471194252
 20
135.4040516026
 10
229.0198919217
 20
135.1190126617
 10
229.26432512
 20
134.8520227623
 10
229.5749587862
 20
134.6090460175
 10
229.9448538778
 20
134.3955101264
 10
230.3657475494
 20
134.2161851279
 10
230.8282377321
 20
134.0750768461
 10
231.3219931594
 20
133.9753374069
 10
231.8359841509
 20
133.9191948246
 10
232.3587289972
 20
133.9079032316
 10
232.8785504423
 20
133.9417148634
 10
233.3838365341
 20
134.0198744242
 10
233.8633000162
 20
134.1406359584
 10
234.3062304668
 20
134.301301853
 10
234.7027335514
 20
134.4982830973
  0
LINE
  5
200
330
1F
100
AcDbEntity
  8
0
  6
Continuous
 62
     7
370
    30
100
AcDbLine
 10
234.7027335514
 20
134.4982830973
 30
0.0
 11
257.3301505494
 21
147.5608128865
 31
0.0
  0
LWPOLYLINE
  5
201
330
1F
100
AcDbEntity
  8
0
  6
Continuous
 62
     7
370
    30
100
AcDbPolyline
 90
       22
 70
   128
 43
0.0
 10
257.3301505494
 20
147.5608128865
 10
257.6713690444
 20
147.789709245
 10
257.9496806925
 20
148.0454075515
 10
258.1588684713
 20
148.3221959281
 10
258.2942594715
 20
148.6138913799
 10
258.352829282
 20
148.9139779127
 10
258.3332695498
 20
149.215752089
 10
258.2360172072
 20
149.5124727725
 10
258.0632447108
 20
149.7975117135
 10
257.8188115125
 20
150.0645016129
 10
257.5081778462
 20
150.3074783576
 10
257.1382827547
 20
150.5210142487
 10
256.717389083
 20
150.7003392473
 10
256.2548989003
 20
150.841447529
 10
255.7611434731
 20
150.9411869682
 10
255.2471524816
 20
150.9973295506
 10
254.7244076353
 20
151.0086211436
 10
254.2045861901
 20
150.9748095117
 10
253.6993000984
 20
150.896649951
 10
253.2198366163
 20
150.7758884167
 10
252.7769061657
 20
150.6152225222
 10
252.3804030811
 20
150.4182412779
  0
LINE
  5
202
330
1F
100
AcDbEntity
  8
0
  6
Continuous
 62
     7
370
    30
100
AcDbLine
 10
237.9554247449
 20
121.5977742799
 30
0.0
 11
237.9554247449
 21
129.3549119928
 31
0.0
  0
ARC
  5
203
330
1F
100
AcDbEntity
  8
0
  6
Continuous
 62
     7
370
    30
100
AcDbCircle
 10
234.4198908389
 20
128.4213297047
 30
0.0
 40
7.685109539558553
100
AcDbArc
 50
242.6096722366
 51
297.3903277634
  0
LINE
  5
204
330
1F
100
AcDbEntity
  8
0
  6
Continuous
 62
     7
370
    30
100
AcDbLine
 10
230.884356933
 20
121.5977742799
 30
0.0
 11
230.884356933
 21
129.3549119928
 31
0.0
  0
LINE
  5
205
330
1F
100
AcDbEntity
  8
0
  6
Continuous
 62
     7
370
    30
100
AcDbLine
 10
266.2396959923
 20
137.9259365164
 30
0.0
 11
266.2396959923
 21
145.6830742293
 31
0.0
  0
LINE
  5
206
330
1F
100
AcDbEntity
  8
0
  6
Continuous
 62
     7
370
    30
100
AcDbLine
 10
237.9554247449
 20
121.5977742799
 30
0.0
 11
266.2396959923
 21
137.9259365164
 31
0.0
  0
LINE
  5
207
330
1F
100
AcDbEntity
  8
0
  6
Continuous
 62
     7
370
    30
100
AcDbLine
 10
199.0645517796
 20
147.3158241029
 30
0.0
 11
216.7422213093
 21
137.1107227051
 31
0.0
  0
LINE
  5
208
330
1F
100
AcDbEntity
  8
0
  6
Continuous
 62
     7
370
    30
100
AcDbLine
 10
216.7422213093
 20
137.1107227051
 30
0.0
 11
216.7422213093
 21
137.5189931111
 31
0.0
  0
LINE
  5
209
330
1F
100
AcDbEntity
  8
0
  6
Continuous
 62
     7
370
    30
100
AcDbLine
 10
184.9224161559
 20
148.1310379142
 30
0.0
 11
230.884356933
 21
121.5977742799
 31
0.0
  0
LINE
  5
20A
330
1F
100
AcDbEntity
  8
0
  6
Continuous
 62
     7
370
    30
100
AcDbLine
 10
184.9224161559
 20
148.1310379142
 30
0.0
 11
184.9224161559
 21
155.8881756271
 31
0.0
  0
LINE
  5
20B
330
1F
100
AcDbEntity
  8
0
  6
Continuous
 62
     7
370
    30
100
AcDbLine
 10
184.9224161559
 20
155.8881756271
 30
0.0
 11
199.0645517796
 21
147.7240945088
 31
0.0
  0
LINE
  5
20C
330
1F
100
AcDbEntity
  8
0
  6
Continuous
 62
     7
370
    30
100
AcDbLine
 10
199.0645517796
 20
147.3158241029
 30
0.0
 11
199.0645517796
 21
147.7240945088
 31
0.0
  0
LINE
  5
20D
330
1F
100
AcDbEntity
  8
0
  6
Continuous
 62
     7
370
    30
100
AcDbLine
 10
234.4198908389
 20
167.7260268985
 30
0.0
 11
199.0645517796
 21
147.3158241029
 31
0.0
  0
LINE
  5
20E
330
1F
100
AcDbEntity
  8
0
  6
Continuous
 62
     7
370
    30
100
AcDbLine
 10
251.743949511
 20
157.7250607037
 30
0.0
 11
234.4198908389
 21
167.7260268985
 31
0.0
  0
LWPOLYLINE
  5
20F
330
1F
100
AcDbEntity
  8
0
  6
Continuous
 62
     7
370
    30
100
AcDbPolyline
 90
       56
 70
   128
 43
0.0
 10
212.5318459046
 20
144.8852261185
 10
213.0221942327
 20
144.6327763031
 10
213.5591951591
 20
144.4142398061
 10
214.1358480556
 20
144.2324655849
 10
214.7446353697
 20
144.0898233447
 10
215.3776206278
 20
143.988172645
 10
216.026551899
 20
143.9288386582
 10
216.6829693718
 20
143.9125948936
 10
217.3383156405
 20
143.9396531135
 10
217.9840472644
 20
144.0096605726
 10
218.6117461442
 20
144.1217046166
 10
219.213229265
 20
144.2743245801
 10
219.7806553746
 20
144.4655308283
 10
220.3066272057
 20
144.6928306956
 10
220.7842879113
 20
144.9532609804
 10
221.2074104536
 20
145.2434265758
 10
221.570478783
 20
145.5595447295
 10
221.8687597488
 20
145.8974943578
 10
222.0983648023
 20
146.2528697706
 10
222.2563006906
 20
146.6210381059
 10
222.3405084778
 20
146.9971997263
 10
222.3498903866
 20
147.37645079
 10
222.2843241095
 20
147.7538471792
 10
222.1446644032
 20
148.124468955
 10
221.9327319455
 20
148.4834844956
 10
221.6512896002
 20
148.8262134844
 10
221.3040063986
 20
149.148187925
 10
220.8954097084
 20
149.4452103881
 10
220.4308262122
 20
149.7134087317
 10
219.9163124665
 20
149.9492865802
 10
219.3585759447
 20
150.1497689051
 10
218.7648875955
 20
150.3122421127
 10
218.1429870542
 20
150.4345881163
 10
217.5009817456
 20
150.5152119486
 10
216.8472411907
 20
150.5530625547
 10
216.1902878974
 20
150.547646494
 10
215.5386862565
 20
150.4990343732
 10
214.900930892
 20
150.4078599256
 10
214.2853359203
 20
150.2753117496
 10
213.6999265632
 20
150.1031178133
 10
213.1523345272
 20
149.893522928
 10
212.6496985117
 20
149.6492594837
 10
212.1985711459
 20
149.3735118278
 10
211.804833565
 20
149.0698747528
 10
211.4736187404
 20
148.7423066322
 10
211.209244564
 20
148.3950778175
 10
211.0151575573
 20
148.0327149674
 10
210.8938879415
 20
147.6599420356
 10
210.8470166513
 20
147.2816186875
 10
210.8751547257
 20
146.9026769464
 10
210.9779353419
 20
146.5280568976
 10
211.1540185974
 20
146.1626422862
 10
211.4011089776
 20
145.8111968504
 10
211.7159852816
 20
145.4783022192
 10
212.0945426152
 20
145.168298183
 10
212.5318459046
 20
144.8852261185
  0
LWPOLYLINE
  5
210
330
1F
100
AcDbEntity
  8
0
  6
Continuous
 62
     7
370
    30
100
AcDbPolyline
 90
       56
 70
   128
 43
0.0
 10
221.5121020256
 20
150.0694176286
 10
222.0024503537
 20
149.8169678131
 10
222.5394512802
 20
149.5984313161
 10
223.1161041767
 20
149.416657095
 10
223.7248914908
 20
149.2740148547
 10
224.3578767489
 20
149.1723641551
 10
225.0068080201
 20
149.1130301683
 10
225.6632254928
 20
149.0967864037
 10
226.3185717616
 20
149.1238446236
 10
226.9643033855
 20
149.1938520827
 10
227.5920022653
 20
149.3058961267
 10
228.1934853861
 20
149.4585160901
 10
228.7609114956
 20
149.6497223384
 10
229.2868833268
 20
149.8770222057
 10
229.7645440324
 20
150.1374524905
 10
230.1876665746
 20
150.4276180859
 10
230.5507349041
 20
150.7437362396
 10
230.8490158699
 20
151.0816858679
 10
231.0786209234
 20
151.4370612807
 10
231.2365568117
 20
151.805229616
 10
231.3207645988
 20
152.1813912364
 10
231.3301465077
 20
152.5606423001
 10
231.2645802306
 20
152.9380386893
 10
231.1249205243
 20
153.308660465
 10
230.9129880666
 20
153.6676760056
 10
230.6315457213
 20
154.0104049945
 10
230.2842625197
 20
154.3323794351
 10
229.8756658295
 20
154.6294018982
 10
229.4110823333
 20
154.8976002418
 10
228.8965685876
 20
155.1334780902
 10
228.3388320658
 20
155.3339604151
 10
227.7451437165
 20
155.4964336227
 10
227.1232431753
 20
155.6187796263
 10
226.4812378667
 20
155.6994034587
 10
225.8274973118
 20
155.7372540648
 10
225.1705440185
 20
155.7318380041
 10
224.5189423776
 20
155.6832258833
 10
223.881187013
 20
155.5920514357
 10
223.2655920413
 20
155.4595032596
 10
222.6801826843
 20
155.2873093234
 10
222.1325906483
 20
155.0777144381
 10
221.6299546328
 20
154.8334509938
 10
221.178827267
 20
154.5577033379
 10
220.7850896861
 20
154.2540662629
 10
220.4538748615
 20
153.9264981423
 10
220.189500685
 20
153.5792693276
 10
219.9954136784
 20
153.2169064774
 10
219.8741440625
 20
152.8441335457
 10
219.8272727723
 20
152.4658101975
 10
219.8554108468
 20
152.0868684565
 10
219.958191463
 20
151.7122484077
 10
220.1342747184
 20
151.3468337962
 10
220.3813650986
 20
150.9953883605
 10
220.6962414026
 20
150.6624937292
 10
221.0747987362
 20
150.352489693
 10
221.5121020256
 20
150.0694176286
  0
LWPOLYLINE
  5
211
330
1F
100
AcDbEntity
  8
0
  6
Continuous
 62
     7
370
    30
100
AcDbPolyline
 90
       56
 70
   128
 43
0.0
 10
230.4923581467
 20
155.2536091387
 10
230.9827064748
 20
155.0011593232
 10
231.5197074013
 20
154.7826228262
 10
232.0963602977
 20
154.6008486051
 10
232.7051476118
 20
154.4582063648
 10
233.3381328699
 20
154.3565556651
 10
233.9870641411
 20
154.2972216784
 10
234.6434816139
 20
154.2809779138
 10
235.2988278827
 20
154.3080361336
 10
235.9445595066
 20
154.3780435927
 10
236.5722583863
 20
154.4900876367
 10
237.1737415072
 20
154.6427076002
 10
237.7411676167
 20
154.8339138485
 10
238.2671394479
 20
155.0612137157
 10
238.7448001535
 20
155.3216440006
 10
239.1679226957
 20
155.611809596
 10
239.5309910252
 20
155.9279277496
 10
239.8292719909
 20
156.265877378
 10
240.0588770445
 20
156.6212527908
 10
240.2168129327
 20
156.989421126
 10
240.3010207199
 20
157.3655827465
 10
240.3104026287
 20
157.7448338101
 10
240.2448363516
 20
158.1222301994
 10
240.1051766453
 20
158.4928519751
 10
239.8932441877
 20
158.8518675157
 10
239.6118018424
 20
159.1945965046
 10
239.2645186408
 20
159.5165709452
 10
238.8559219505
 20
159.8135934083
 10
238.3913384544
 20
160.0817917518
 10
237.8768247086
 20
160.3176696003
 10
237.3190881869
 20
160.5181519252
 10
236.7253998376
 20
160.6806251328
 10
236.1034992963
 20
160.8029711364
 10
235.4614939878
 20
160.8835949687
 10
234.8077534329
 20
160.9214455748
 10
234.1508001395
 20
160.9160295142
 10
233.4991984987
 20
160.8674173934
 10
232.8614431341
 20
160.7762429458
 10
232.2458481624
 20
160.6436947697
 10
231.6604388054
 20
160.4715008334
 10
231.1128467693
 20
160.2619059482
 10
230.6102107538
 20
160.0176425038
 10
230.1590833881
 20
159.741894848
 10
229.7653458071
 20
159.4382577729
 10
229.4341309826
 20
159.1106896524
 10
229.1697568061
 20
158.7634608377
 10
228.9756697995
 20
158.4010979875
 10
228.8544001836
 20
158.0283250557
 10
228.8075288934
 20
157.6500017076
 10
228.8356669678
 20
157.2710599666
 10
228.938447584
 20
156.8964399177
 10
229.1145308395
 20
156.5310253063
 10
229.3616212197
 20
156.1795798706
 10
229.6764975237
 20
155.8466852393
 10
230.0550548573
 20
155.5366812031
 10
230.4923581467
 20
155.2536091387
  0
ARC
  5
212
330
1F
100
AcDbEntity
  8
0
  6
Continuous
 62
     7
370
    30
100
AcDbCircle
 10
216.600799953
 20
136.7673960621
 30
0.0
 40
8.895688086434587
100
AcDbArc
 50
64.2018657509
 51
115.7981342491
  0
ARC
  5
213
330
1F
100
AcDbEntity
  8
0
  6
Continuous
 62
     7
370
    30
100
AcDbCircle
 10
216.600799953
 20
138.7044208992
 30
0.0
 40
5.566965878988794
100
AcDbArc
 50
73.4529451987
 51
106.5470548013
  0
ARC
  5
214
330
1F
100
AcDbEntity
  8
0
  6
Continuous
 62
     7
370
    30
100
AcDbCircle
 10
265.1910895984
 20
140.2242286588
 30
0.0
 40
2.526207066186363
100
AcDbArc
 50
294.5250616912
 51
354.1547973512
  0
LINE
  5
215
330
1F
100
AcDbEntity
  8
0
  6
Continuous
 62
     7
370
    30
100
AcDbLine
 10
234.4198908389
 20
167.7260268985
 30
0.0
 11
234.4198908389
 21
168.1342973044
 31
0.0
  0
LINE
  5
216
330
1F
100
AcDbEntity
  8
0
  6
Continuous
 62
     7
370
    30
100
AcDbLine
 10
234.4198908389
 20
168.1342973044
 30
0.0
 11
199.0645517796
 21
147.7240945088
 31
0.0
  0
ARC
  5
217
330
1F
100
AcDbEntity
  8
0
  6
Continuous
 62
     7
370
    30
100
AcDbCircle
 10
185.6970512898
 20
157.9291959066
 30
0.0
 40
2.183076584171371
100
AcDbArc
 50
110.7834207995
 51
249.2165792005
  0
LINE
  5
218
330
1F
100
AcDbEntity
  8
0
  6
Continuous
 62
     7
370
    30
100
AcDbLine
 10
213.2066874033
 20
176.2983784226
 30
0.0
 11
184.9224161559
 21
159.9702161862
 31
0.0
  0
ARC
  5
219
330
1F
100
AcDbEntity
  8
0
  6
Continuous
 62
     7
370
    30
100
AcDbCircle
 10
216.7422213093
 20
169.4748229979
 30
0.0
 40
7.685109539558756
100
AcDbArc
 50
62.6096722366
 51
117.3903277634
  0
LINE
  5
21A
330
1F
100
AcDbEntity
  8
0
  6
Continuous
 62
     7
370
    30
100
AcDbLine
 10
234.4198908389
 20
168.1342973044
 30
0.0
 11
220.2777552152
 21
176.2983784226
 31
0.0
  0
LINE
  5
21B
330
1F
100
AcDbEntity
  8
0
  6
Continuous
 62
     7
370
    30
100
AcDbLine
 10
216.4593785968
 20
171.1550073182
 30
0.0
 11
193.8319615988
 21
158.092477529
 31
0.0
  0
LWPOLYLINE
  5
21C
330
1F
100
AcDbEntity
  8
0
  6
Continuous
 62
     7
370
    30
100
AcDbPolyline
 90
       22
 70
   128
 43
0.0
 10
193.8319615988
 20
158.092477529
 10
193.4907431038
 20
157.8635811704
 10
193.2124314557
 20
157.607882864
 10
193.0032436769
 20
157.3310944874
 10
192.8678526767
 20
157.0393990355
 10
192.8092828662
 20
156.7393125028
 10
192.8288425983
 20
156.4375383264
 10
192.926094941
 20
156.1408176429
 10
193.0988674374
 20
155.855778702
 10
193.3433006357
 20
155.5887888026
 10
193.653934302
 20
155.3458120578
 10
194.0238293935
 20
155.1322761667
 10
194.4447230652
 20
154.9529511682
 10
194.9072132479
 20
154.8118428864
 10
195.4009686751
 20
154.7121034472
 10
195.9149596666
 20
154.6559608649
 10
196.4377045129
 20
154.6446692719
 10
196.957525958
 20
154.6784809037
 10
197.4628120498
 20
154.7566404645
 10
197.9422755319
 20
154.8774019987
 10
198.3852059825
 20
155.0380678933
 10
198.7817090671
 20
155.2350491376
  0
LINE
  5
21D
330
1F
100
AcDbEntity
  8
0
  6
Continuous
 62
     7
370
    30
100
AcDbLine
 10
198.7817090671
 20
155.2350491376
 30
0.0
 11
221.4091260651
 21
168.2975789268
 31
0.0
  0
LWPOLYLINE
  5
21E
330
1F
100
AcDbEntity
  8
0
  6
Continuous
 62
     7
370
    30
100
AcDbPolyline
 90
       22
 70
   128
 43
0.0
 10
221.4091260651
 20
168.2975789268
 10
221.7503445601
 20
168.5264752853
 10
222.0286562082
 20
168.7821735918
 10
222.237843987
 20
169.0589619684
 10
222.3732349873
 20
169.3506574202
 10
222.4318047977
 20
169.650743953
 10
222.4122450656
 20
169.9525181293
 10
222.314992723
 20
170.2492388128
 10
222.1422202265
 20
170.5342777538
 10
221.8977870282
 20
170.8012676532
 10
221.587153362
 20
171.0442443979
 10
221.2172582704
 20
171.257780289
 10
220.7963645987
 20
171.4371052876
 10
220.3338744161
 20
171.5782135693
 10
219.8401189888
 20
171.6779530085
 10
219.3261279973
 20
171.7340955909
 10
218.803383151
 20
171.7453871839
 10
218.2835617059
 20
171.711575552
 10
217.7782756141
 20
171.6334159913
 10
217.298812132
 20
171.512654457
 10
216.8558816814
 20
171.3519885625
 10
216.4593785968
 20
171.1550073182
  0
ARC
  5
21F
330
1F
100
AcDbEntity
  8
0
  6
Continuous
 62
     7
370
    30
100
AcDbCircle
 10
225.5810560741
 20
141.9515875721
 30
0.0
 40
8.895688086434843
100
AcDbArc
 50
64.2018657509
 51
115.7981342491
  0
ARC
  5
220
330
1F
100
AcDbEntity
  8
0
  6
Continuous
 62
     7
370
    30
100
AcDbCircle
 10
225.5810560741
 20
143.8886124093
 30
0.0
 40
5.566965878989175
100
AcDbArc
 50
73.4529451987
 51
106.5470548013
  0
ARC
  5
221
330
1F
100
AcDbEntity
  8
0
  6
Continuous
 62
     7
370
    30
100
AcDbCircle
 10
234.5613121952
 20
147.1357790822
 30
0.0
 40
8.895688086434612
100
AcDbArc
 50
64.2018657509
 51
115.7981342491
  0
ARC
  5
222
330
1F
100
AcDbEntity
  8
0
  6
Continuous
 62
     7
370
    30
100
AcDbCircle
 10
185.9710225498
 20
150.4293300566
 30
0.0
 40
2.526207066186583
100
AcDbArc
 50
185.8452026488
 51
245.4749383088
  0
ARC
  5
223
330
1F
100
AcDbEntity
  8
0
  6
Continuous
 62
     7
370
    30
100
AcDbCircle
 10
234.5613121952
 20
149.0728039194
 30
0.0
 40
5.566965878989012
100
AcDbArc
 50
73.4529451987
 51
106.5470548013
  0
LINE
  5
224
330
1F
100
AcDbEntity
  8
0
  6
Continuous
 62
     8
370
    30
100
AcDbLine
 10
229.7529860831
 20
134.4982830973
 30
0.0
 11
229.7529860831
 21
137.3557114887
 31
0.0
  0
LINE
  5
225
330
1F
100
AcDbEntity
  8
0
  6
Continuous
 62
     8
370
    30
100
AcDbLine
 10
252.3804030811
 20
144.7033844951
 30
0.0
 11
252.3804030811
 21
150.4182412779
 31
0.0
  0
LINE
  5
226
330
1F
100
AcDbEntity
  8
0
  6
Continuous
 62
     8
370
    30
100
AcDbLine
 10
193.8319615988
 20
155.2350491376
 30
0.0
 11
193.8319615988
 21
158.092477529
 31
0.0
  0
LINE
  5
227
330
1F
100
AcDbEntity
  8
0
  6
Continuous
 62
     8
370
    30
100
AcDbLine
 10
216.4593785968
 20
165.4401505354
 30
0.0
 11
216.4593785968
 21
171.1550073182
 31
0.0
  0
ENDSEC
  0
SECTION
  2
OBJECTS
  0
DICTIONARY
  5
C
330
0
100
AcDbDictionary
281
     1
  3
ACAD_GROUP
350
D
  3
ACAD_LAYOUT
350
1A
  3
ACAD_MLINESTYLE
350
17
  3
ACAD_PLOTSETTINGS
350
19
  3
ACAD_PLOTSTYLENAME
350
E
  3
ACAD_SCALELIST
350
47
  0
DICTIONARY
  5
D
102
{ACAD_REACTORS
330
C
102
}
330
C
100
AcDbDictionary
281
     1
  0
DICTIONARY
  5
1A
102
{ACAD_REACTORS
330
C
102
}
330
C
100
AcDbDictionary
281
     1
  3
Layout1
350
1E
  3
Layout2
350
26
  3
Model
350
22
  0
DICTIONARY
  5
17
102
{ACAD_REACTORS
330
C
102
}
330
C
100
AcDbDictionary
281
     1
  3
Standard
350
18
  0
DICTIONARY
  5
19
102
{ACAD_REACTORS
330
C
102
}
330
C
100
AcDbDictionary
281
     1
  0
ACDBDICTIONARYWDFLT
  5
E
102
{ACAD_REACTORS
330
C
102
}
330
C
100
AcDbDictionary
281
     1
  3
Normal
350
F
100
AcDbDictionaryWithDefault
340
F
  0
DICTIONARY
  5
47
102
{ACAD_REACTORS
330
C
102
}
330
C
100
AcDbDictionary
281
     1
  3
A0
350
48
  3
A1
350
49
  3
A2
350
4A
  3
A3
350
4B
  3
A4
350
4C
  3
A5
350
4D
  3
A6
350
4E
  3
A7
350
4F
  3
A8
350
50
  3
A9
350
51
  3
B0
350
52
  3
B1
350
53
  3
B2
350
54
  3
B3
350
55
  3
B4
350
56
  3
B5
350
57
  3
B6
350
58
  3
B7
350
59
  3
B8
350
5A
  3
B9
350
5B
  3
C0
350
5C
  3
C1
350
5D
  3
C2
350
5E
  3
C3
350
5F
  3
C4
350
60
  3
C5
350
61
  3
C6
350
62
  3
C7
350
63
  3
C8
350
64
  3
C9
350
65
  3
D0
350
66
  3
D1
350
67
  3
D2
350
68
  0
LAYOUT
  5
1E
102
{ACAD_REACTORS
330
1A
102
}
330
1A
100
AcDbPlotSettings
  1

  2
none_device
  4

  6

 40
0.0
 41
0.0
 42
0.0
 43
0.0
 44
0.0
 45
0.0
 46
0.0
 47
0.0
 48
0.0
 49
0.0
140
0.0
141
0.0
142
1.0
143
1.0
 70
   688
 72
     1
 73
     0
 74
     5
  7

 75
    16
147
1.0
148
0.0
149
0.0
100
AcDbLayout
  1
Layout1
 70
     1
 71
     1
 10
0.0
 20
0.0
 11
420.0
 21
297.0
 12
0.0
 22
0.0
 32
0.0
 14
1.0000000000E+20
 24
1.0000000000E+20
 34
1.0000000000E+20
 15
-1.0000000000E+20
 25
-1.0000000000E+20
 35
-1.0000000000E+20
146
0.0
 13
0.0
 23
0.0
 33
0.0
 16
1.0
 26
0.0
 36
0.0
 17
0.0
 27
1.0
 37
0.0
 76
     0
330
1B
  0
LAYOUT
  5
26
102
{ACAD_REACTORS
330
1A
102
}
330
1A
100
AcDbPlotSettings
  1

  2
none_device
  4

  6

 40
0.0
 41
0.0
 42
0.0
 43
0.0
 44
0.0
 45
0.0
 46
0.0
 47
0.0
 48
0.0
 49
0.0
140
0.0
141
0.0
142
1.0
143
1.0
 70
   688
 72
     1
 73
     0
 74
     5
  7

 75
    16
147
1.0
148
0.0
149
0.0
100
AcDbLayout
  1
Layout2
 70
     1
 71
     2
 10
0.0
 20
0.0
 11
0.0
 21
0.0
 12
0.0
 22
0.0
 32
0.0
 14
0.0
 24
0.0
 34
0.0
 15
0.0
 25
0.0
 35
0.0
146
0.0
 13
0.0
 23
0.0
 33
0.0
 16
1.0
 26
0.0
 36
0.0
 17
0.0
 27
1.0
 37
0.0
 76
     0
330
23
  0
LAYOUT
  5
22
102
{ACAD_REACTORS
330
1A
102
}
330
1A
100
AcDbPlotSettings
  1

  2
none_device
  4
Letter_(8.50_x_11.00_Inches)
  6

 40
6.35
 41
6.35
 42
6.35000508
 43
6.35000508
 44
215.9
 45
279.4
 46
0.0
 47
0.0
 48
0.0
 49
0.0
140
0.0
141
0.0
142
1.0
143
1.0
 70
  1712
 72
     1
 73
     0
 74
     0
  7

 75
     0
147
1.0
148
0.0
149
0.0
100
AcDbLayout
  1
Model
 70
     1
 71
     0
 10
0.0
 20
0.0
 11
297.0
 21
210.0
 12
0.0
 22
0.0
 32
0.0
 14
0.0
 24
0.0
 34
0.0
 15
297.0
 25
210.0
 35
0.0
146
0.0
 13
0.0
 23
0.0
 33
0.0
 16
1.0
 26
0.0
 36
0.0
 17
0.0
 27
1.0
 37
0.0
 76
     0
330
1F
331
29
  0
MLINESTYLE
  5
18
102
{ACAD_REACTORS
330
17
102
}
330
17
100
AcDbMlineStyle
  2
Standard
 70
     0
  3

 62
   256
 51
90.0
 52
90.0
 71
     2
 49
0.5
 62
   256
  6
BYLAYER
 49
-0.5
 62
   256
  6
BYLAYER
  0
ACDBPLACEHOLDER
  5
F
102
{ACAD_REACTORS
330
E
102
}
330
E
  0
SCALE
  5
48
102
{ACAD_REACTORS
330
47
102
}
330
47
100
AcDbScale
 70
     0
300
1:1
140
1.0
141
1.0
290
     1
  0
SCALE
  5
49
102
{ACAD_REACTORS
330
47
102
}
330
47
100
AcDbScale
 70
     0
300
1:2
140
1.0
141
2.0
290
     0
  0
SCALE
  5
4A
102
{ACAD_REACTORS
330
47
102
}
330
47
100
AcDbScale
 70
     0
300
1:4
140
1.0
141
4.0
290
     0
  0
SCALE
  5
4B
102
{ACAD_REACTORS
330
47
102
}
330
47
100
AcDbScale
 70
     0
300
1:5
140
1.0
141
5.0
290
     0
  0
SCALE
  5
4C
102
{ACAD_REACTORS
330
47
102
}
330
47
100
AcDbScale
 70
     0
300
1:8
140
1.0
141
8.0
290
     0
  0
SCALE
  5
4D
102
{ACAD_REACTORS
330
47
102
}
330
47
100
AcDbScale
 70
     0
300
1:10
140
1.0
141
10.0
290
     0
  0
SCALE
  5
4E
102
{ACAD_REACTORS
330
47
102
}
330
47
100
AcDbScale
 70
     0
300
1:16
140
1.0
141
16.0
290
     0
  0
SCALE
  5
4F
102
{ACAD_REACTORS
330
47
102
}
330
47
100
AcDbScale
 70
     0
300
1:20
140
1.0
141
20.0
290
     0
  0
SCALE
  5
50
102
{ACAD_REACTORS
330
47
102
}
330
47
100
AcDbScale
 70
     0
300
1:30
140
1.0
141
30.0
290
     0
  0
SCALE
  5
51
102
{ACAD_REACTORS
330
47
102
}
330
47
100
AcDbScale
 70
     0
300
1:40
140
1.0
141
40.0
290
     0
  0
SCALE
  5
52
102
{ACAD_REACTORS
330
47
102
}
330
47
100
AcDbScale
 70
     0
300
1:50
140
1.0
141
50.0
290
     0
  0
SCALE
  5
53
102
{ACAD_REACTORS
330
47
102
}
330
47
100
AcDbScale
 70
     0
300
1:100
140
1.0
141
100.0
290
     0
  0
SCALE
  5
54
102
{ACAD_REACTORS
330
47
102
}
330
47
100
AcDbScale
 70
     0
300
2:1
140
2.0
141
1.0
290
     0
  0
SCALE
  5
55
102
{ACAD_REACTORS
330
47
102
}
330
47
100
AcDbScale
 70
     0
300
4:1
140
4.0
141
1.0
290
     0
  0
SCALE
  5
56
102
{ACAD_REACTORS
330
47
102
}
330
47
100
AcDbScale
 70
     0
300
8:1
140
8.0
141
1.0
290
     0
  0
SCALE
  5
57
102
{ACAD_REACTORS
330
47
102
}
330
47
100
AcDbScale
 70
     0
300
10:1
140
10.0
141
1.0
290
     0
  0
SCALE
  5
58
102
{ACAD_REACTORS
330
47
102
}
330
47
100
AcDbScale
 70
     0
300
100:1
140
100.0
141
1.0
290
     0
  0
SCALE
  5
59
102
{ACAD_REACTORS
330
47
102
}
330
47
100
AcDbScale
 70
     0
300
1/128" = 1'-0"
140
0.0078125
141
12.0
290
     0
  0
SCALE
  5
5A
102
{ACAD_REACTORS
330
47
102
}
330
47
100
AcDbScale
 70
     0
300
1/64" = 1'-0"
140
0.015625
141
12.0
290
     0
  0
SCALE
  5
5B
102
{ACAD_REACTORS
330
47
102
}
330
47
100
AcDbScale
 70
     0
300
1/32" = 1'-0"
140
0.03125
141
12.0
290
     0
  0
SCALE
  5
5C
102
{ACAD_REACTORS
330
47
102
}
330
47
100
AcDbScale
 70
     0
300
1/16" = 1'-0"
140
0.0625
141
12.0
290
     0
  0
SCALE
  5
5D
102
{ACAD_REACTORS
330
47
102
}
330
47
100
AcDbScale
 70
     0
300
3/32" = 1'-0"
140
0.09375
141
12.0
290
     0
  0
SCALE
  5
5E
102
{ACAD_REACTORS
330
47
102
}
330
47
100
AcDbScale
 70
     0
300
1/8" = 1'-0"
140
0.125
141
12.0
290
     0
  0
SCALE
  5
5F
102
{ACAD_REACTORS
330
47
102
}
330
47
100
AcDbScale
 70
     0
300
3/16" = 1'-0"
140
0.1875
141
12.0
290
     0
  0
SCALE
  5
60
102
{ACAD_REACTORS
330
47
102
}
330
47
100
AcDbScale
 70
     0
300
1/4" = 1'-0"
140
0.25
141
12.0
290
     0
  0
SCALE
  5
61
102
{ACAD_REACTORS
330
47
102
}
330
47
100
AcDbScale
 70
     0
300
3/8" = 1'-0"
140
0.375
141
12.0
290
     0
  0
SCALE
  5
62
102
{ACAD_REACTORS
330
47
102
}
330
47
100
AcDbScale
 70
     0
300
1/2" = 1'-0"
140
0.5
141
12.0
290
     0
  0
SCALE
  5
63
102
{ACAD_REACTORS
330
47
102
}
330
47
100
AcDbScale
 70
     0
300
3/4" = 1'-0"
140
0.75
141
12.0
290
     0
  0
SCALE
  5
64
102
{ACAD_REACTORS
330
47
102
}
330
47
100
AcDbScale
 70
     0
300
1" = 1'-0"
140
1.0
141
12.0
290
     0
  0
SCALE
  5
65
102
{ACAD_REACTORS
330
47
102
}
330
47
100
AcDbScale
 70
     0
300
1-1/2" = 1'-0"
140
1.5
141
12.0
290
     0
  0
SCALE
  5
66
102
{ACAD_REACTORS
330
47
102
}
330
47
100
AcDbScale
 70
     0
300
3" = 1'-0"
140
3.0
141
12.0
290
     0
  0
SCALE
  5
67
102
{ACAD_REACTORS
330
47
102
}
330
47
100
AcDbScale
 70
     0
300
6" = 1'-0"
140
6.0
141
12.0
290
     0
  0
SCALE
  5
68
102
{ACAD_REACTORS
330
47
102
}
330
47
100
AcDbScale
 70
     0
300
1'-0" = 1'-0"
140
12.0
141
12.0
290
     0
  0
ENDSEC
  0
EOF
