  0
SECTION
  2
HEADER
  9
$ACADVER
  1
AC1015
  9
$ACADMAINTVER
 70
     6
  9
$DWGCODEPAGE
  3
ANSI_950
  9
$INSBASE
 10
0.0
 20
0.0
 30
0.0
  9
$EXTMIN
 10
0.0
 20
0.0
 30
0.0
  9
$EXTMAX
 10
297.0
 20
210.0
 30
0.0
  9
$LIMMIN
 10
0.0
 20
0.0
  9
$LIMMAX
 10
297.0
 20
210.0
  9
$ORTHOMODE
 70
     0
  9
$REGENMODE
 70
     1
  9
$FILLMODE
 70
     1
  9
$QTEXTMODE
 70
     0
  9
$MIRRTEXT
 70
     1
  9
$LTSCALE
 40
1.0
  9
$ATTMODE
 70
     1
  9
$TEXTSIZE
 40
2.5
  9
$TRACEWID
 40
1.0
  9
$TEXTSTYLE
  7
Standard
  9
$CLAYER
  8
0
  9
$CELTYPE
  6
ByLayer
  9
$CECOLOR
 62
   256
  9
$CELTSCALE
 40
1.0
  9
$DISPSILH
 70
     0
  9
$DIMSCALE
 40
1.0
  9
$DIMASZ
 40
2.0
  9
$DIMEXO
 40
1.0
  9
$DIMDLI
 40
3.75
  9
$DIMRND
 40
0.0
  9
$DIMDLE
 40
0.0
  9
$DIMEXE
 40
1.0
  9
$DIMTP
 40
0.0
  9
$DIMTM
 40
0.0
  9
$DIMTXT
 40
2.5
  9
$DIMCEN
 40
2.5
  9
$DIMTSZ
 40
0.0
  9
$DIMTOL
 70
     0
  9
$DIMLIM
 70
     0
  9
$DIMTIH
 70
     1
  9
$DIMTOH
 70
     1
  9
$DIMSE1
 70
     0
  9
$DIMSE2
 70
     0
  9
$DIMTAD
 70
     1
  9
$DIMZIN
 70
     0
  9
$DIMBLK
  1

  9
$DIMASO
 70
     1
  9
$DIMSHO
 70
     1
  9
$DIMPOST
  1

  9
$DIMAPOST
  1

  9
$DIMALT
 70
     0
  9
$DIMALTD
 70
     3
  9
$DIMALTF
 40
0.0393700787
  9
$DIMLFAC
 40
2.0
  9
$DIMTOFL
 70
     1
  9
$DIMTVP
 40
0.0
  9
$DIMTIX
 70
     0
  9
$DIMSOXD
 70
     0
  9
$DIMSAH
 70
     0
  9
$DIMBLK1
  1

  9
$DIMBLK2
  1

  9
$DIMSTYLE
  2
ISO-25
  9
$DIMCLRD
 70
     0
  9
$DIMCLRE
 70
     0
  9
$DIMCLRT
 70
     0
  9
$DIMTFAC
 40
1.0
  9
$DIMGAP
 40
1.0
  9
$DIMJUST
 70
     0
  9
$DIMSD1
 70
     0
  9
$DIMSD2
 70
     0
  9
$DIMTOLJ
 70
     0
  9
$DIMTZIN
 70
     0
  9
$DIMALTZ
 70
     0
  9
$DIMALTTZ
 70
     0
  9
$DIMUPT
 70
     0
  9
$DIMDEC
 70
     2
  9
$DIMTDEC
 70
     2
  9
$DIMALTU
 70
     2
  9
$DIMALTTD
 70
     3
  9
$DIMTXSTY
  7
Standard
  9
$DIMAUNIT
 70
     0
  9
$DIMADEC
 70
     1
  9
$DIMALTRND
 40
0.0
  9
$DIMAZIN
 70
     0
  9
$DIMDSEP
 70
    44
  9
$DIMATFIT
 70
     3
  9
$DIMFRAC
 70
     0
  9
$DIMLDRBLK
  1

  9
$DIMLUNIT
 70
     2
  9
$DIMLWD
 70
    -2
  9
$DIMLWE
 70
    -2
  9
$DIMTMOVE
 70
     0
  9
$LUNITS
 70
     2
  9
$LUPREC
 70
     2
  9
$SKETCHINC
 40
1.0
  9
$FILLETRAD
 40
10.0
  9
$AUNITS
 70
     0
  9
$AUPREC
 70
     1
  9
$MENU
  1
.
  9
$ELEVATION
 40
0.0
  9
$PELEVATION
 40
0.0
  9
$THICKNESS
 40
0.0
  9
$LIMCHECK
 70
     0
  9
$CHAMFERA
 40
0.0
  9
$CHAMFERB
 40
0.0
  9
$CHAMFERC
 40
0.0
  9
$CHAMFERD
 40
0.0
  9
$SKPOLY
 70
     0
  9
$TDCREATE
 40
2457450.563243403
  9
$TDUCREATE
 40
2457450.22991007
  9
$TDUPDATE
 40
2457450.563247639
  9
$TDUUPDATE
 40
2457450.229914306
  9
$TDINDWG
 40
0.0000000116
  9
$TDUSRTIMER
 40
0.0000000116
  9
$USRTIMER
 70
     1
  9
$ANGBASE
 50
0.0
  9
$ANGDIR
 70
     0
  9
$PDMODE
 70
     0
  9
$PDSIZE
 40
-1.0
  9
$PLINEWID
 40
0.0
  9
$SPLFRAME
 70
     0
  9
$SPLINETYPE
 70
     6
  9
$SPLINESEGS
 70
     8
  9
$HANDSEED
  5
275
  9
$SURFTAB1
 70
     6
  9
$SURFTAB2
 70
     6
  9
$SURFTYPE
 70
     6
  9
$SURFU
 70
     6
  9
$SURFV
 70
     6
  9
$UCSBASE
  2

  9
$UCSNAME
  2

  9
$UCSORG
 10
0.0
 20
0.0
 30
0.0
  9
$UCSXDIR
 10
1.0
 20
0.0
 30
0.0
  9
$UCSYDIR
 10
0.0
 20
1.0
 30
0.0
  9
$UCSORTHOREF
  2

  9
$UCSORTHOVIEW
 70
     0
  9
$UCSORGTOP
 10
0.0
 20
0.0
 30
0.0
  9
$UCSORGBOTTOM
 10
0.0
 20
0.0
 30
0.0
  9
$UCSORGLEFT
 10
0.0
 20
0.0
 30
0.0
  9
$UCSORGRIGHT
 10
0.0
 20
0.0
 30
0.0
  9
$UCSORGFRONT
 10
0.0
 20
0.0
 30
0.0
  9
$UCSORGBACK
 10
0.0
 20
0.0
 30
0.0
  9
$PUCSBASE
  2

  9
$PUCSNAME
  2

  9
$PUCSORG
 10
0.0
 20
0.0
 30
0.0
  9
$PUCSXDIR
 10
1.0
 20
0.0
 30
0.0
  9
$PUCSYDIR
 10
0.0
 20
1.0
 30
0.0
  9
$PUCSORTHOREF
  2

  9
$PUCSORTHOVIEW
 70
     0
  9
$PUCSORGTOP
 10
0.0
 20
0.0
 30
0.0
  9
$PUCSORGBOTTOM
 10
0.0
 20
0.0
 30
0.0
  9
$PUCSORGLEFT
 10
0.0
 20
0.0
 30
0.0
  9
$PUCSORGRIGHT
 10
0.0
 20
0.0
 30
0.0
  9
$PUCSORGFRONT
 10
0.0
 20
0.0
 30
0.0
  9
$PUCSORGBACK
 10
0.0
 20
0.0
 30
0.0
  9
$USERI1
 70
     0
  9
$USERI2
 70
     0
  9
$USERI3
 70
     0
  9
$USERI4
 70
     0
  9
$USERI5
 70
     0
  9
$USERR1
 40
0.0
  9
$USERR2
 40
0.0
  9
$USERR3
 40
0.0
  9
$USERR4
 40
0.0
  9
$USERR5
 40
0.0
  9
$WORLDVIEW
 70
     1
  9
$SHADEDGE
 70
     3
  9
$SHADEDIF
 70
    70
  9
$TILEMODE
 70
     1
  9
$MAXACTVP
 70
    64
  9
$PINSBASE
 10
0.0
 20
0.0
 30
0.0
  9
$PLIMCHECK
 70
     0
  9
$PEXTMIN
 10
1.0000000000E+20
 20
1.0000000000E+20
 30
1.0000000000E+20
  9
$PEXTMAX
 10
-1.0000000000E+20
 20
-1.0000000000E+20
 30
-1.0000000000E+20
  9
$PLIMMIN
 10
0.0
 20
0.0
  9
$PLIMMAX
 10
420.0
 20
297.0
  9
$UNITMODE
 70
     0
  9
$VISRETAIN
 70
     1
  9
$PLINEGEN
 70
     0
  9
$PSLTSCALE
 70
     1
  9
$TREEDEPTH
 70
  3020
  9
$CMLSTYLE
  2
Standard
  9
$CMLJUST
 70
     0
  9
$CMLSCALE
 40
20.0
  9
$PROXYGRAPHICS
 70
     1
  9
$MEASUREMENT
 70
     1
  9
$CELWEIGHT
370
    -1
  9
$ENDCAPS
280
     0
  9
$JOINSTYLE
280
     0
  9
$LWDISPLAY
290
     1
  9
$INSUNITS
 70
     4
  9
$HYPERLINKBASE
  1

  9
$STYLESHEET
  1

  9
$XEDIT
290
     1
  9
$CEPSNTYPE
380
     0
  9
$PSTYLEMODE
290
     1
  9
$FINGERPRINTGUID
  2
{595AD0A5-EC01-42EC-8ACA-B74F1CE4FA9D}
  9
$VERSIONGUID
  2
{FAEB1C32-E019-11D5-929B-00C0DF256EC4}
  9
$EXTNAMES
290
     1
  9
$PSVPSCALE
 40
0.0
  9
$OLESTARTUP
290
     0
  0
ENDSEC
  0
SECTION
  2
CLASSES
  0
CLASS
  1
ACDBDICTIONARYWDFLT
  2
AcDbDictionaryWithDefault
  3
ObjectDBX Classes
 90
        0
280
     0
281
     0
  0
CLASS
  1
VISUALSTYLE
  2
AcDbVisualStyle
  3
ObjectDBX Classes
 90
     4095
280
     0
281
     0
  0
CLASS
  1
MATERIAL
  2
AcDbMaterial
  3
ObjectDBX Classes
 90
     1153
280
     0
281
     0
  0
CLASS
  1
SCALE
  2
AcDbScale
  3
ObjectDBX Classes
 90
     1153
280
     0
281
     0
  0
CLASS
  1
TABLESTYLE
  2
AcDbTableStyle
  3
ObjectDBX Classes
 90
     4095
280
     0
281
     0
  0
CLASS
  1
MLEADERSTYLE
  2
AcDbMLeaderStyle
  3
ACDB_MLEADERSTYLE_CLASS
 90
     4095
280
     0
281
     0
  0
CLASS
  1
SUN
  2
AcDbSun
  3
SCENEOE
 90
     1153
280
     0
281
     0
  0
CLASS
  1
ACDBPLACEHOLDER
  2
AcDbPlaceHolder
  3
ObjectDBX Classes
 90
        0
280
     0
281
     0
  0
CLASS
  1
LAYOUT
  2
AcDbLayout
  3
ObjectDBX Classes
 90
        0
280
     0
281
     0
  0
ENDSEC
  0
SECTION
  2
TABLES
  0
TABLE
  2
VPORT
  5
8
330
0
100
AcDbSymbolTable
 70
     1
  0
VPORT
  5
29
330
8
100
AcDbSymbolTableRecord
100
AcDbViewportTableRecord
  2
*Active
 70
     0
 10
0.0
 20
0.0
 11
1.0
 21
1.0
 12
148.5
 22
105.0
 13
0.0
 23
0.0
 14
10.0
 24
10.0
 15
10.0
 25
10.0
 16
0.0
 26
0.0
 36
1.0
 17
0.0
 27
0.0
 37
0.0
 40
210.0
 41
1.4142857143
 42
50.0
 43
0.0
 44
0.0
 50
0.0
 51
0.0
 71
     0
 72
  2000
 73
     1
 74
     3
 75
     0
 76
     0
 77
     0
 78
     0
281
     0
 65
     1
110
0.0
120
0.0
130
0.0
111
1.0
121
0.0
131
0.0
112
0.0
122
1.0
132
0.0
 79
     0
146
0.0
  0
ENDTAB
  0
TABLE
  2
LTYPE
  5
5
330
0
100
AcDbSymbolTable
 70
     6
  0
LTYPE
  5
14
330
5
100
AcDbSymbolTableRecord
100
AcDbLinetypeTableRecord
  2
ByBlock
 70
     0
  3

 72
    65
 73
     0
 40
0.0
  0
LTYPE
  5
15
330
5
100
AcDbSymbolTableRecord
100
AcDbLinetypeTableRecord
  2
ByLayer
 70
     0
  3

 72
    65
 73
     0
 40
0.0
  0
LTYPE
  5
16
330
5
100
AcDbSymbolTableRecord
100
AcDbLinetypeTableRecord
  2
Continuous
 70
     0
  3
Solid line
 72
    65
 73
     0
 40
0.0
  0
LTYPE
  5
6E
330
5
100
AcDbSymbolTableRecord
100
AcDbLinetypeTableRecord
  2
HIDDEN
 70
     0
  3
Hidden __ __ __ __ __ __ __ __ __ __ __ __ __ __
 72
    65
 73
     2
 40
1.905
 49
1.27
 74
     0
 49
-0.635
 74
     0
  0
LTYPE
  5
6F
330
5
100
AcDbSymbolTableRecord
100
AcDbLinetypeTableRecord
  2
PHANTOM
 70
     0
  3
Phantom ______  __  __  ______  __  __  ______
 72
    65
 73
     6
 40
12.7
 49
6.35
 74
     0
 49
-1.27
 74
     0
 49
1.27
 74
     0
 49
-1.27
 74
     0
 49
1.27
 74
     0
 49
-1.27
 74
     0
  0
LTYPE
  5
70
330
5
100
AcDbSymbolTableRecord
100
AcDbLinetypeTableRecord
  2
CENTER
 70
     0
  3
Center ____ _ ____ _ ____ _ ____ _ ____ _ ____
 72
    65
 73
     4
 40
10.16
 49
6.35
 74
     0
 49
-1.27
 74
     0
 49
1.27
 74
     0
 49
-1.27
 74
     0
  0
LTYPE
  5
71
330
5
100
AcDbSymbolTableRecord
100
AcDbLinetypeTableRecord
  2
CENTERX2
 70
     0
  3
Center (2x) ________  __  ________  __  _____
 72
    65
 73
     4
 40
20.32
 49
12.7
 74
     0
 49
-2.54
 74
     0
 49
2.54
 74
     0
 49
-2.54
 74
     0
  0
LTYPE
  5
72
330
5
100
AcDbSymbolTableRecord
100
AcDbLinetypeTableRecord
  2
DOT2
 70
     0
  3
Dot (.5x) ........................................
 72
    65
 73
     2
 40
0.635
 49
0.0
 74
     0
 49
-0.635
 74
     0
  0
ENDTAB
  0
TABLE
  2
LAYER
  5
2
330
0
100
AcDbSymbolTable
 70
     3
  0
LAYER
  5
10
330
2
100
AcDbSymbolTableRecord
100
AcDbLayerTableRecord
  2
0
 70
     0
 62
     7
  6
Continuous
370
    -3
390
F
  0
LAYER
  5
73
330
2
100
AcDbSymbolTableRecord
100
AcDbLayerTableRecord
  2
SLD-0
 70
     0
 62
     7
  6
Continuous
370
    15
390
F
  0
LAYER
  5
74
330
2
100
AcDbSymbolTableRecord
100
AcDbLayerTableRecord
  2
DIM
 70
     0
 62
     7
  6
Continuous
370
    -3
390
F
  0
ENDTAB
  0
TABLE
  2
STYLE
  5
3
330
0
100
AcDbSymbolTable
 70
     3
  0
STYLE
  5
11
330
3
100
AcDbSymbolTableRecord
100
AcDbTextStyleTableRecord
  2
Standard
 70
     0
 40
0.0
 41
1.0
 50
0.0
 71
     0
 42
2.5
  3
txt
  4

  0
STYLE
  5
C5
330
3
100
AcDbSymbolTableRecord
100
AcDbTextStyleTableRecord
  2
SLDTEXTSTYLE0
 70
     0
 40
0.0
 41
0.605
 50
0.0
 71
     0
 42
2.5
  3
TXT
  4

  0
STYLE
  5
CE
330
3
100
AcDbSymbolTableRecord
100
AcDbTextStyleTableRecord
  2
SLDTEXTSTYLE1
 70
     0
 40
0.0
 41
0.7
 50
0.0
 71
     0
 42
2.5
  3
TXT
  4

  0
ENDTAB
  0
TABLE
  2
VIEW
  5
6
330
0
100
AcDbSymbolTable
 70
     0
  0
ENDTAB
  0
TABLE
  2
UCS
  5
7
330
0
100
AcDbSymbolTable
 70
     0
  0
ENDTAB
  0
TABLE
  2
APPID
  5
9
330
0
100
AcDbSymbolTable
 70
     1
  0
APPID
  5
12
330
9
100
AcDbSymbolTableRecord
100
AcDbRegAppTableRecord
  2
ACAD
 70
     0
  0
ENDTAB
  0
TABLE
  2
DIMSTYLE
  5
A
330
0
100
AcDbSymbolTable
 70
     4
100
AcDbDimStyleTable
  0
DIMSTYLE
105
27
330
A
100
AcDbSymbolTableRecord
100
AcDbDimStyleTableRecord
  2
ISO-25
 70
     0
 41
2.5
 42
0.625
 43
3.75
 44
1.25
 73
     0
 74
     0
 77
     1
 78
     8
140
2.5
141
2.5
143
0.0393700787
147
0.625
171
     3
172
     1
178
     0
271
     2
272
     2
274
     3
278
    44
283
     0
284
     8
340
11
  0
DIMSTYLE
105
14D
102
{ACAD_REACTORS
330
14C
330
157
330
161
330
16B
330
1DE
330
1E8
330
1F2
102
}
330
A
100
AcDbSymbolTableRecord
100
AcDbDimStyleTableRecord
  2
SLDDIMSTYLE0
 70
     0
 41
2.0
 44
0.0
 45
0.000000001
 73
     0
 74
     0
 77
     1
 78
    12
 79
     3
140
2.5
147
0.625
173
     1
178
     0
271
     2
272
     2
276
     2
284
    12
340
C5
  0
DIMSTYLE
105
176
102
{ACAD_REACTORS
330
175
102
}
330
A
100
AcDbSymbolTableRecord
100
AcDbDimStyleTableRecord
  2
SLDDIMSTYLE1
 70
     0
 41
2.0
 44
0.0
 45
0.000000001
 78
    12
 79
     3
140
2.5
141
0.0
147
0.625
173
     1
178
     0
271
     2
272
     2
276
     2
284
    12
340
C5
  0
DIMSTYLE
105
17F
102
{ACAD_REACTORS
330
17E
102
}
330
A
100
AcDbSymbolTableRecord
100
AcDbDimStyleTableRecord
  2
SLDDIMSTYLE2
 70
     0
  3
<>
 41
2.0
 44
0.0
 45
0.000000001
 78
    12
 79
     3
140
2.5
141
0.0
147
0.625
173
     1
178
     0
271
     2
272
     2
276
     2
284
    12
340
C5
  0
ENDTAB
  0
TABLE
  2
BLOCK_RECORD
  5
1
330
0
100
AcDbSymbolTable
 70
    15
  0
BLOCK_RECORD
  5
1F
330
1
100
AcDbSymbolTableRecord
100
AcDbBlockTableRecord
  2
*Model_Space
340
22
  0
BLOCK_RECORD
  5
1B
330
1
100
AcDbSymbolTableRecord
100
AcDbBlockTableRecord
  2
*Paper_Space
340
1E
  0
BLOCK_RECORD
  5
23
330
1
100
AcDbSymbolTableRecord
100
AcDbBlockTableRecord
  2
*Paper_Space0
340
26
  0
BLOCK_RECORD
  5
C7
330
1
100
AcDbSymbolTableRecord
100
AcDbBlockTableRecord
  2
SW_NOTE_0
340
0
102
{BLKREFS
331
CD
102
}
  0
BLOCK_RECORD
  5
FE
330
1
100
AcDbSymbolTableRecord
100
AcDbBlockTableRecord
  2
SW_NOTE_1
340
0
102
{BLKREFS
331
103
102
}
  0
BLOCK_RECORD
  5
14E
330
1
100
AcDbSymbolTableRecord
100
AcDbBlockTableRecord
  2
_D
340
0
  0
BLOCK_RECORD
  5
158
330
1
100
AcDbSymbolTableRecord
100
AcDbBlockTableRecord
  2
_D_1
340
0
  0
BLOCK_RECORD
  5
162
330
1
100
AcDbSymbolTableRecord
100
AcDbBlockTableRecord
  2
_D_2
340
0
  0
BLOCK_RECORD
  5
16C
330
1
100
AcDbSymbolTableRecord
100
AcDbBlockTableRecord
  2
_D_3
340
0
  0
BLOCK_RECORD
  5
177
330
1
100
AcDbSymbolTableRecord
100
AcDbBlockTableRecord
  2
_D_4
340
0
  0
BLOCK_RECORD
  5
180
330
1
100
AcDbSymbolTableRecord
100
AcDbBlockTableRecord
  2
_D_5
340
0
  0
BLOCK_RECORD
  5
188
330
1
100
AcDbSymbolTableRecord
100
AcDbBlockTableRecord
  2
SW_CENTERMARKSYMBOL_0
340
0
102
{BLKREFS
331
193
102
}
  0
BLOCK_RECORD
  5
194
330
1
100
AcDbSymbolTableRecord
100
AcDbBlockTableRecord
  2
SW_CENTERMARKSYMBOL_1
340
0
102
{BLKREFS
331
19F
102
}
  0
BLOCK_RECORD
  5
1A0
330
1
100
AcDbSymbolTableRecord
100
AcDbBlockTableRecord
  2
SW_CENTERMARKSYMBOL_2
340
0
102
{BLKREFS
331
1AB
102
}
  0
BLOCK_RECORD
  5
1DF
330
1
100
AcDbSymbolTableRecord
100
AcDbBlockTableRecord
  2
_D_6
340
0
  0
BLOCK_RECORD
  5
1E9
330
1
100
AcDbSymbolTableRecord
100
AcDbBlockTableRecord
  2
_D_7
340
0
  0
BLOCK_RECORD
  5
1F3
330
1
100
AcDbSymbolTableRecord
100
AcDbBlockTableRecord
  2
_D_8
340
0
  0
ENDTAB
  0
ENDSEC
  0
SECTION
  2
BLOCKS
  0
BLOCK
  5
20
330
1F
100
AcDbEntity
  8
0
100
AcDbBlockBegin
  2
*Model_Space
 70
     0
 10
0.0
 20
0.0
 30
0.0
  3
*Model_Space
  1

  0
ENDBLK
  5
21
330
1F
100
AcDbEntity
  8
0
100
AcDbBlockEnd
  0
BLOCK
  5
1C
330
1B
100
AcDbEntity
 67
     1
  8
0
100
AcDbBlockBegin
  2
*Paper_Space
 70
     0
 10
0.0
 20
0.0
 30
0.0
  3
*Paper_Space
  1

  0
ENDBLK
  5
1D
330
1B
100
AcDbEntity
 67
     1
  8
0
100
AcDbBlockEnd
  0
BLOCK
  5
24
330
23
100
AcDbEntity
  8
0
100
AcDbBlockBegin
  2
*Paper_Space0
 70
     0
 10
0.0
 20
0.0
 30
0.0
  3
*Paper_Space0
  1

  0
ENDBLK
  5
25
330
23
100
AcDbEntity
  8
0
100
AcDbBlockEnd
  0
BLOCK
  5
C8
330
C7
100
AcDbEntity
  8
0
100
AcDbBlockBegin
  2
SW_NOTE_0
 70
     0
 10
0.0
 20
0.0
 30
0.0
  3
SW_NOTE_0
  1

  0
MTEXT
  5
CA
330
C7
100
AcDbEntity
  8
0
  6
Continuous
 62
     0
370
     0
100
AcDbMText
 10
0.0
 20
3.4106583948
 30
0.0
 40
2.6458333333
 41
0.0
 71
     1
 72
     1
  1
PROPRIETARY AND CONFIDENTIAL
  7
SLDTEXTSTYLE0
 73
     1
 44
1.0
  0
MTEXT
  5
CB
330
C7
100
AcDbEntity
  8
0
  6
Continuous
 62
     0
370
     0
100
AcDbMText
 10
0.0
 20
-0.08198348
 30
0.0
 40
1.8520833333
 41
0.0
 71
     1
 72
     1
  1
THE INFORMATION CONTAINED IN THIS DRAWING IS THE SOLE PROPERTY OF UNICE E-O SERVICES INC. ANY REPRODUCTION IN PART OR AS A WHOLE WITHOUT THE WRITTEN PERMISSION OF UNICE E-O SERVICES INC IS
  7
SLDTEXTSTYLE0
 73
     1
 44
1.0
  0
MTEXT
  5
CC
330
C7
100
AcDbEntity
  8
0
  6
Continuous
 62
     0
370
     0
100
AcDbMText
 10
0.0
 20
-2.5514278946
 30
0.0
 40
1.8520833333
 41
0.0
 71
     1
 72
     1
  1
PROHIBITED.
  7
SLDTEXTSTYLE0
 73
     1
 44
1.0
  0
ENDBLK
  5
C9
330
C7
100
AcDbEntity
  8
0
100
AcDbBlockEnd
  0
BLOCK
  5
FF
330
FE
100
AcDbEntity
  8
0
100
AcDbBlockBegin
  2
SW_NOTE_1
 70
     0
 10
0.0
 20
0.0
 30
0.0
  3
SW_NOTE_1
  1

  0
MTEXT
  5
101
330
FE
100
AcDbEntity
  8
SLD-0
 62
     0
100
AcDbMText
 10
0.0
 20
2.3874608764
 30
0.0
 40
1.8520833333
 41
0.0
 71
     1
 72
     1
  1
No.5, Andong Rd., Chung Li District,
  7
SLDTEXTSTYLE1
 73
     1
 44
1.0
  0
MTEXT
  5
102
330
FE
100
AcDbEntity
  8
SLD-0
 62
     0
100
AcDbMText
 10
0.0
 20
-0.0819835382
 30
0.0
 40
1.8520833333
 41
0.0
 71
     1
 72
     1
  1
Taoyuan City 32063, Taiwan, R.O.C.
  7
SLDTEXTSTYLE1
 73
     1
 44
1.0
  0
ENDBLK
  5
100
330
FE
100
AcDbEntity
  8
0
100
AcDbBlockEnd
  0
BLOCK
  5
14F
330
14E
100
AcDbEntity
  8
0
100
AcDbBlockBegin
  2
_D
 70
     0
 10
0.0
 20
0.0
 30
0.0
  3
_D
  1

  0
SOLID
  5
151
330
14E
100
AcDbEntity
  8
SLD-0
 62
     7
100
AcDbTrace
 10
116.0227263611
 20
125.8976293032
 30
0.0
 11
115.7727263611
 21
123.8976293032
 31
0.0
 12
116.2727263611
 22
123.8976293032
 32
0.0
 13
116.2727263611
 23
123.8976293032
 33
0.0
  0
SOLID
  5
152
330
14E
100
AcDbEntity
  8
SLD-0
 62
     7
100
AcDbTrace
 10
116.0227263611
 20
99.8976293032
 30
0.0
 11
116.2727263611
 21
101.8976293032
 31
0.0
 12
115.7727263611
 22
101.8976293032
 32
0.0
 13
115.7727263611
 23
101.8976293032
 33
0.0
  0
LINE
  5
153
330
14E
100
AcDbEntity
  8
SLD-0
 62
     7
100
AcDbLine
 10
107.0227263611
 20
125.8976293032
 30
0.0
 11
117.0227263611
 21
125.8976293032
 31
0.0
  0
LINE
  5
154
330
14E
100
AcDbEntity
  8
SLD-0
 62
     7
100
AcDbLine
 10
95.1727263611
 20
99.8976293032
 30
0.0
 11
117.0227263611
 21
99.8976293032
 31
0.0
  0
LINE
  5
155
330
14E
100
AcDbEntity
  8
SLD-0
 62
     7
100
AcDbLine
 10
116.0227263611
 20
125.8976293032
 30
0.0
 11
116.0227263611
 21
99.8976293032
 31
0.0
  0
MTEXT
  5
156
330
14E
100
AcDbEntity
  8
SLD-0
 62
     7
100
AcDbMText
 10
112.8000571863
 20
110.9885574419
 30
0.0
 40
2.5
 41
0.0
 71
     1
 72
     1
  1
26
  7
SLDTEXTSTYLE0
 11
-1.414962237524464E-14
 21
1.0
 31
0.0
 73
     1
 44
1.0
  0
ENDBLK
  5
150
330
14E
100
AcDbEntity
  8
0
100
AcDbBlockEnd
  0
BLOCK
  5
159
330
158
100
AcDbEntity
  8
0
100
AcDbBlockBegin
  2
_D_1
 70
     0
 10
0.0
 20
0.0
 30
0.0
  3
_D_1
  1

  0
SOLID
  5
15B
330
158
100
AcDbEntity
  8
SLD-0
 62
     7
100
AcDbTrace
 10
123.0227263611
 20
125.8976293032
 30
0.0
 11
122.7727263611
 21
123.8976293032
 31
0.0
 12
123.2727263611
 22
123.8976293032
 32
0.0
 13
123.2727263611
 23
123.8976293032
 33
0.0
  0
SOLID
  5
15C
330
158
100
AcDbEntity
  8
SLD-0
 62
     7
100
AcDbTrace
 10
123.0227263611
 20
79.3976293032
 30
0.0
 11
123.2727263611
 21
81.3976293032
 31
0.0
 12
122.7727263611
 22
81.3976293032
 32
0.0
 13
122.7727263611
 23
81.3976293032
 33
0.0
  0
LINE
  5
15D
330
158
100
AcDbEntity
  8
SLD-0
 62
     7
100
AcDbLine
 10
107.0227263611
 20
125.8976293032
 30
0.0
 11
124.0227263611
 21
125.8976293032
 31
0.0
  0
LINE
  5
15E
330
158
100
AcDbEntity
  8
SLD-0
 62
     7
100
AcDbLine
 10
95.1727263611
 20
79.3976293032
 30
0.0
 11
124.0227263611
 21
79.3976293032
 31
0.0
  0
LINE
  5
15F
330
158
100
AcDbEntity
  8
SLD-0
 62
     7
100
AcDbLine
 10
123.0227263611
 20
125.8976293032
 30
0.0
 11
123.0227263611
 21
79.3976293032
 31
0.0
  0
MTEXT
  5
160
330
158
100
AcDbEntity
  8
SLD-0
 62
     7
100
AcDbMText
 10
119.8000571863
 20
99.3056513105
 30
0.0
 40
2.5
 41
0.0
 71
     1
 72
     1
  1
46.5
  7
SLDTEXTSTYLE0
 11
-1.414962237524464E-14
 21
1.0
 31
0.0
 73
     1
 44
1.0
  0
ENDBLK
  5
15A
330
158
100
AcDbEntity
  8
0
100
AcDbBlockEnd
  0
BLOCK
  5
163
330
162
100
AcDbEntity
  8
0
100
AcDbBlockBegin
  2
_D_2
 70
     0
 10
0.0
 20
0.0
 30
0.0
  3
_D_2
  1

  0
SOLID
  5
165
330
162
100
AcDbEntity
  8
SLD-0
 62
     7
100
AcDbTrace
 10
131.0817604937
 20
59.3976293032
 30
0.0
 11
131.3317604937
 21
61.3976293032
 31
0.0
 12
130.8317604937
 22
61.3976293032
 32
0.0
 13
130.8317604937
 23
61.3976293032
 33
0.0
  0
SOLID
  5
166
330
162
100
AcDbEntity
  8
SLD-0
 62
     7
100
AcDbTrace
 10
131.0817604937
 20
125.8976293032
 30
0.0
 11
130.8317604937
 21
123.8976293032
 31
0.0
 12
131.3317604937
 22
123.8976293032
 32
0.0
 13
131.3317604937
 23
123.8976293032
 33
0.0
  0
LINE
  5
167
330
162
100
AcDbEntity
  8
SLD-0
 62
     7
100
AcDbLine
 10
88.3727263611
 20
59.3976293032
 30
0.0
 11
132.0817604937
 21
59.3976293032
 31
0.0
  0
LINE
  5
168
330
162
100
AcDbEntity
  8
SLD-0
 62
     7
100
AcDbLine
 10
107.0227263611
 20
125.8976293032
 30
0.0
 11
132.0817604937
 21
125.8976293032
 31
0.0
  0
LINE
  5
169
330
162
100
AcDbEntity
  8
SLD-0
 62
     7
100
AcDbLine
 10
131.0817604937
 20
59.3976293032
 30
0.0
 11
131.0817604937
 21
125.8976293032
 31
0.0
  0
MTEXT
  5
16A
330
162
100
AcDbEntity
  8
SLD-0
 62
     7
100
AcDbMText
 10
127.8590913189
 20
89.3056513105
 30
0.0
 40
2.5
 41
0.0
 71
     1
 72
     1
  1
66.5
  7
SLDTEXTSTYLE0
 11
-2.825347524068039E-15
 21
1.0
 31
0.0
 73
     1
 44
1.0
  0
ENDBLK
  5
164
330
162
100
AcDbEntity
  8
0
100
AcDbBlockEnd
  0
BLOCK
  5
16D
330
16C
100
AcDbEntity
  8
0
100
AcDbBlockBegin
  2
_D_3
 70
     0
 10
0.0
 20
0.0
 30
0.0
  3
_D_3
  1

  0
SOLID
  5
16F
330
16C
100
AcDbEntity
  8
SLD-0
 62
     7
100
AcDbTrace
 10
65.7227263611
 20
145.8976293032
 30
0.0
 11
67.7227263611
 21
145.6476293032
 31
0.0
 12
67.7227263611
 22
146.1476293032
 32
0.0
 13
67.7227263611
 23
146.1476293032
 33
0.0
  0
SOLID
  5
170
330
16C
100
AcDbEntity
  8
SLD-0
 62
     7
100
AcDbTrace
 10
109.0227263611
 20
145.8976293032
 30
0.0
 11
107.0227263611
 21
146.1476293032
 31
0.0
 12
107.0227263611
 22
145.6476293032
 32
0.0
 13
107.0227263611
 23
145.6476293032
 33
0.0
  0
LINE
  5
171
330
16C
100
AcDbEntity
  8
SLD-0
 62
     7
100
AcDbLine
 10
65.7227263611
 20
123.8976293032
 30
0.0
 11
65.7227263611
 21
146.8976293032
 31
0.0
  0
LINE
  5
172
330
16C
100
AcDbEntity
  8
SLD-0
 62
     7
100
AcDbLine
 10
109.0227263611
 20
123.8976293032
 30
0.0
 11
109.0227263611
 21
146.8976293032
 31
0.0
  0
LINE
  5
173
330
16C
100
AcDbEntity
  8
SLD-0
 62
     7
100
AcDbLine
 10
65.7227263611
 20
145.8976293032
 30
0.0
 11
109.0227263611
 21
145.8976293032
 31
0.0
  0
MTEXT
  5
174
330
16C
100
AcDbEntity
  8
SLD-0
 62
     7
100
AcDbMText
 10
84.0307483684
 20
149.120298478
 30
0.0
 40
2.5
 41
0.0
 71
     1
 72
     1
  1
43.3
  7
SLDTEXTSTYLE0
 73
     1
 44
1.0
  0
ENDBLK
  5
16E
330
16C
100
AcDbEntity
  8
0
100
AcDbBlockEnd
  0
BLOCK
  5
178
330
177
100
AcDbEntity
  8
0
100
AcDbBlockBegin
  2
_D_4
 70
     0
 10
0.0
 20
0.0
 30
0.0
  3
_D_4
  1

  0
SOLID
  5
17A
330
177
100
AcDbEntity
  8
SLD-0
 62
     7
100
AcDbTrace
 10
84.2984614689
 20
74.4794085504
 30
0.0
 11
83.026377853
 21
72.9159817776
 31
0.0
 12
83.4503624006
 22
72.650958942
 32
0.0
 13
83.4503624006
 23
72.650958942
 33
0.0
  0
LINE
  5
17B
330
177
100
AcDbEntity
  8
SLD-0
 62
     7
100
AcDbLine
 10
84.2984614689
 20
74.4794085504
 30
0.0
 11
74.8668019981
 21
59.3906035938
 31
0.0
  0
LINE
  5
17C
330
177
100
AcDbEntity
  8
SLD-0
 62
     7
100
AcDbLine
 10
74.8668019981
 20
59.3906035938
 30
0.0
 11
20.6654176623
 21
59.3906035938
 31
0.0
  0
MTEXT
  5
17D
330
177
100
AcDbEntity
  8
SLD-0
 62
     7
100
AcDbMText
 10
20.6654176623
 20
62.6132727686
 30
0.0
 40
2.5
 41
0.0
 71
     1
 72
     1
  1
Both of M6 and 1/4"-20 SLOT CLR
  7
SLDTEXTSTYLE0
 73
     1
 44
1.0
  0
ENDBLK
  5
179
330
177
100
AcDbEntity
  8
0
100
AcDbBlockEnd
  0
BLOCK
  5
181
330
180
100
AcDbEntity
  8
0
100
AcDbBlockBegin
  2
_D_5
 70
     0
 10
0.0
 20
0.0
 30
0.0
  3
_D_5
  1

  0
SOLID
  5
183
330
180
100
AcDbEntity
  8
SLD-0
100
AcDbTrace
 10
83.4836390646
 20
119.5085420067
 30
0.0
 11
81.8926488069
 21
118.2711051396
 31
0.0
 12
82.2462021975
 22
117.917551749
 32
0.0
 13
82.2462021975
 23
117.917551749
 33
0.0
  0
LINE
  5
184
330
180
100
AcDbEntity
  8
SLD-0
100
AcDbLine
 10
83.4836390646
 20
119.5085420067
 30
0.0
 11
63.9848583699
 21
100.009761312
 31
0.0
  0
LINE
  5
185
330
180
100
AcDbEntity
  8
SLD-0
100
AcDbLine
 10
63.9848583699
 20
100.009761312
 30
0.0
 11
31.5473612905
 21
100.009761312
 31
0.0
  0
MTEXT
  5
186
330
180
100
AcDbEntity
  8
SLD-0
100
AcDbMText
 10
31.5473612905
 20
107.0692359534
 30
0.0
 40
2.5
 41
0.0
 71
     1
 72
     1
  1
1 HOLE for both of
  7
SLDTEXTSTYLE0
 73
     1
 44
1.0
  0
MTEXT
  5
187
330
180
100
AcDbEntity
  8
SLD-0
100
AcDbMText
 10
31.5473612905
 20
103.2324304868
 30
0.0
 40
2.5
 41
0.0
 71
     1
 72
     1
  1
M6 and 1/4"-20 CLR
  7
SLDTEXTSTYLE0
 73
     1
 44
1.0
  0
ENDBLK
  5
182
330
180
100
AcDbEntity
  8
0
100
AcDbBlockEnd
  0
BLOCK
  5
189
330
188
100
AcDbEntity
  8
0
100
AcDbBlockBegin
  2
SW_CENTERMARKSYMBOL_0
 70
     0
 10
0.0
 20
0.0
 30
0.0
  3
SW_CENTERMARKSYMBOL_0
  1

  0
LINE
  5
18B
330
188
100
AcDbEntity
  8
SLD-0
 62
     0
100
AcDbLine
 10
0.0
 20
0.0
 30
0.0
 11
0.0
 21
-1.0
 31
0.0
  0
LINE
  5
18C
330
188
100
AcDbEntity
  8
SLD-0
 62
     0
100
AcDbLine
 10
0.0
 20
0.0
 30
0.0
 11
1.0
 21
0.0
 31
0.0
  0
LINE
  5
18D
330
188
100
AcDbEntity
  8
SLD-0
 62
     0
100
AcDbLine
 10
0.0
 20
0.0
 30
0.0
 11
0.0
 21
1.0
 31
0.0
  0
LINE
  5
18E
330
188
100
AcDbEntity
  8
SLD-0
 62
     0
100
AcDbLine
 10
0.0
 20
0.0
 30
0.0
 11
-1.0
 21
0.0
 31
0.0
  0
LINE
  5
18F
330
188
100
AcDbEntity
  8
SLD-0
 62
     0
100
AcDbLine
 10
0.0
 20
-2.0
 30
0.0
 11
0.0
 21
-16.5
 31
0.0
  0
LINE
  5
190
330
188
100
AcDbEntity
  8
SLD-0
 62
     0
100
AcDbLine
 10
2.0
 20
0.0
 30
0.0
 11
16.5
 21
0.0
 31
0.0
  0
LINE
  5
191
330
188
100
AcDbEntity
  8
SLD-0
 62
     0
100
AcDbLine
 10
0.0
 20
2.0
 30
0.0
 11
0.0
 21
16.5
 31
0.0
  0
LINE
  5
192
330
188
100
AcDbEntity
  8
SLD-0
 62
     0
100
AcDbLine
 10
-2.0
 20
0.0
 30
0.0
 11
-16.5
 21
0.0
 31
0.0
  0
ENDBLK
  5
18A
330
188
100
AcDbEntity
  8
0
100
AcDbBlockEnd
  0
BLOCK
  5
195
330
194
100
AcDbEntity
  8
0
100
AcDbBlockBegin
  2
SW_CENTERMARKSYMBOL_1
 70
     0
 10
0.0
 20
0.0
 30
0.0
  3
SW_CENTERMARKSYMBOL_1
  1

  0
LINE
  5
197
330
194
100
AcDbEntity
  8
SLD-0
 62
     0
100
AcDbLine
 10
0.0
 20
0.0
 30
0.0
 11
0.0
 21
-1.0
 31
0.0
  0
LINE
  5
198
330
194
100
AcDbEntity
  8
SLD-0
 62
     0
100
AcDbLine
 10
0.0
 20
0.0
 30
0.0
 11
1.0
 21
0.0
 31
0.0
  0
LINE
  5
199
330
194
100
AcDbEntity
  8
SLD-0
 62
     0
100
AcDbLine
 10
0.0
 20
0.0
 30
0.0
 11
0.0
 21
1.0
 31
0.0
  0
LINE
  5
19A
330
194
100
AcDbEntity
  8
SLD-0
 62
     0
100
AcDbLine
 10
0.0
 20
0.0
 30
0.0
 11
-1.0
 21
0.0
 31
0.0
  0
LINE
  5
19B
330
194
100
AcDbEntity
  8
SLD-0
 62
     0
100
AcDbLine
 10
0.0
 20
-2.0
 30
0.0
 11
0.0
 21
-6.8
 31
0.0
  0
LINE
  5
19C
330
194
100
AcDbEntity
  8
SLD-0
 62
     0
100
AcDbLine
 10
2.0
 20
0.0
 30
0.0
 11
6.8
 21
0.0
 31
0.0
  0
LINE
  5
19D
330
194
100
AcDbEntity
  8
SLD-0
 62
     0
100
AcDbLine
 10
0.0
 20
2.0
 30
0.0
 11
0.0
 21
6.8
 31
0.0
  0
LINE
  5
19E
330
194
100
AcDbEntity
  8
SLD-0
 62
     0
100
AcDbLine
 10
-2.0
 20
0.0
 30
0.0
 11
-6.8
 21
0.0
 31
0.0
  0
ENDBLK
  5
196
330
194
100
AcDbEntity
  8
0
100
AcDbBlockEnd
  0
BLOCK
  5
1A1
330
1A0
100
AcDbEntity
  8
0
100
AcDbBlockBegin
  2
SW_CENTERMARKSYMBOL_2
 70
     0
 10
0.0
 20
0.0
 30
0.0
  3
SW_CENTERMARKSYMBOL_2
  1

  0
LINE
  5
1A3
330
1A0
100
AcDbEntity
  8
SLD-0
 62
     0
100
AcDbLine
 10
0.0
 20
0.0
 30
0.0
 11
0.0
 21
-1.0
 31
0.0
  0
LINE
  5
1A4
330
1A0
100
AcDbEntity
  8
SLD-0
 62
     0
100
AcDbLine
 10
0.0
 20
0.0
 30
0.0
 11
1.0
 21
0.0
 31
0.0
  0
LINE
  5
1A5
330
1A0
100
AcDbEntity
  8
SLD-0
 62
     0
100
AcDbLine
 10
0.0
 20
0.0
 30
0.0
 11
0.0
 21
1.0
 31
0.0
  0
LINE
  5
1A6
330
1A0
100
AcDbEntity
  8
SLD-0
 62
     0
100
AcDbLine
 10
0.0
 20
0.0
 30
0.0
 11
-1.0
 21
0.0
 31
0.0
  0
LINE
  5
1A7
330
1A0
100
AcDbEntity
  8
SLD-0
 62
     0
100
AcDbLine
 10
0.0
 20
-2.0
 30
0.0
 11
0.0
 21
-6.8
 31
0.0
  0
LINE
  5
1A8
330
1A0
100
AcDbEntity
  8
SLD-0
 62
     0
100
AcDbLine
 10
2.0
 20
0.0
 30
0.0
 11
6.8
 21
0.0
 31
0.0
  0
LINE
  5
1A9
330
1A0
100
AcDbEntity
  8
SLD-0
 62
     0
100
AcDbLine
 10
0.0
 20
2.0
 30
0.0
 11
0.0
 21
6.8
 31
0.0
  0
LINE
  5
1AA
330
1A0
100
AcDbEntity
  8
SLD-0
 62
     0
100
AcDbLine
 10
-2.0
 20
0.0
 30
0.0
 11
-6.8
 21
0.0
 31
0.0
  0
ENDBLK
  5
1A2
330
1A0
100
AcDbEntity
  8
0
100
AcDbBlockEnd
  0
BLOCK
  5
1E0
330
1DF
100
AcDbEntity
  8
0
100
AcDbBlockBegin
  2
_D_6
 70
     0
 10
0.0
 20
0.0
 30
0.0
  3
_D_6
  1

  0
SOLID
  5
1E2
330
1DF
100
AcDbEntity
  8
SLD-0
 62
     7
100
AcDbTrace
 10
163.2056958852
 20
50.9213638375
 30
0.0
 11
161.2056958852
 21
51.1713638375
 31
0.0
 12
161.2056958852
 22
50.6713638375
 32
0.0
 13
161.2056958852
 23
50.6713638375
 33
0.0
  0
SOLID
  5
1E3
330
1DF
100
AcDbEntity
  8
SLD-0
 62
     7
100
AcDbTrace
 10
151.7056958852
 20
50.9213638375
 30
0.0
 11
153.7056958852
 21
50.6713638375
 31
0.0
 12
153.7056958852
 22
51.1713638375
 32
0.0
 13
153.7056958852
 23
51.1713638375
 33
0.0
  0
LINE
  5
1E4
330
1DF
100
AcDbEntity
  8
SLD-0
 62
     7
100
AcDbLine
 10
163.2056958852
 20
58.6476293032
 30
0.0
 11
163.2056958852
 21
49.9213638375
 31
0.0
  0
LINE
  5
1E5
330
1DF
100
AcDbEntity
  8
SLD-0
 62
     7
100
AcDbLine
 10
151.7056958852
 20
58.6476293032
 30
0.0
 11
151.7056958852
 21
49.9213638375
 31
0.0
  0
LINE
  5
1E6
330
1DF
100
AcDbEntity
  8
SLD-0
 62
     7
100
AcDbLine
 10
163.2056958852
 20
50.9213638375
 30
0.0
 11
151.7056958852
 21
50.9213638375
 31
0.0
  0
MTEXT
  5
1E7
330
1DF
100
AcDbEntity
  8
SLD-0
 62
     7
100
AcDbMText
 10
154.1137178926
 20
54.1440330123
 30
0.0
 40
2.5
 41
0.0
 71
     1
 72
     1
  1
11.5
  7
SLDTEXTSTYLE0
 73
     1
 44
1.0
  0
ENDBLK
  5
1E1
330
1DF
100
AcDbEntity
  8
0
100
AcDbBlockEnd
  0
BLOCK
  5
1EA
330
1E9
100
AcDbEntity
  8
0
100
AcDbBlockBegin
  2
_D_7
 70
     0
 10
0.0
 20
0.0
 30
0.0
  3
_D_7
  1

  0
SOLID
  5
1EC
330
1E9
100
AcDbEntity
  8
SLD-0
 62
     7
100
AcDbTrace
 10
150.7056958852
 20
142.9366786113
 30
0.0
 11
152.7056958852
 21
142.6866786113
 31
0.0
 12
152.7056958852
 22
143.1866786113
 32
0.0
 13
152.7056958852
 23
143.1866786113
 33
0.0
  0
SOLID
  5
1ED
330
1E9
100
AcDbEntity
  8
SLD-0
 62
     7
100
AcDbTrace
 10
158.4056958852
 20
142.9366786113
 30
0.0
 11
156.4056958852
 21
143.1866786113
 31
0.0
 12
156.4056958852
 22
142.6866786113
 32
0.0
 13
156.4056958852
 23
142.6866786113
 33
0.0
  0
LINE
  5
1EE
330
1E9
100
AcDbEntity
  8
SLD-0
 62
     7
100
AcDbLine
 10
150.7056958852
 20
136.9476293032
 30
0.0
 11
150.7056958852
 21
143.9366786113
 31
0.0
  0
LINE
  5
1EF
330
1E9
100
AcDbEntity
  8
SLD-0
 62
     7
100
AcDbLine
 10
158.4056958852
 20
139.3976293032
 30
0.0
 11
158.4056958852
 21
143.9366786113
 31
0.0
  0
LINE
  5
1F0
330
1E9
100
AcDbEntity
  8
SLD-0
 62
     7
100
AcDbLine
 10
150.7056958852
 20
142.9366786113
 30
0.0
 11
158.4056958852
 21
142.9366786113
 31
0.0
  0
MTEXT
  5
1F1
330
1E9
100
AcDbEntity
  8
SLD-0
 62
     7
100
AcDbMText
 10
152.1685431333
 20
146.1593477861
 30
0.0
 40
2.5
 41
0.0
 71
     1
 72
     1
  1
7.7
  7
SLDTEXTSTYLE0
 73
     1
 44
1.0
  0
ENDBLK
  5
1EB
330
1E9
100
AcDbEntity
  8
0
100
AcDbBlockEnd
  0
BLOCK
  5
1F4
330
1F3
100
AcDbEntity
  8
0
100
AcDbBlockBegin
  2
_D_8
 70
     0
 10
0.0
 20
0.0
 30
0.0
  3
_D_8
  1

  0
SOLID
  5
1F6
330
1F3
100
AcDbEntity
  8
SLD-0
 62
     7
100
AcDbTrace
 10
150.7056958852
 20
149.2421903889
 30
0.0
 11
152.7056958852
 21
148.9921903889
 31
0.0
 12
152.7056958852
 22
149.4921903889
 32
0.0
 13
152.7056958852
 23
149.4921903889
 33
0.0
  0
SOLID
  5
1F7
330
1F3
100
AcDbEntity
  8
SLD-0
 62
     7
100
AcDbTrace
 10
163.2056958852
 20
149.2421903889
 30
0.0
 11
161.2056958852
 21
149.4921903889
 31
0.0
 12
161.2056958852
 22
148.9921903889
 32
0.0
 13
161.2056958852
 23
148.9921903889
 33
0.0
  0
LINE
  5
1F8
330
1F3
100
AcDbEntity
  8
SLD-0
 62
     7
100
AcDbLine
 10
150.7056958852
 20
136.9476293032
 30
0.0
 11
150.7056958852
 21
150.2421903889
 31
0.0
  0
LINE
  5
1F9
330
1F3
100
AcDbEntity
  8
SLD-0
 62
     7
100
AcDbLine
 10
163.2056958852
 20
139.3976293032
 30
0.0
 11
163.2056958852
 21
150.2421903889
 31
0.0
  0
LINE
  5
1FA
330
1F3
100
AcDbEntity
  8
SLD-0
 62
     7
100
AcDbLine
 10
150.7056958852
 20
149.2421903889
 30
0.0
 11
163.2056958852
 21
149.2421903889
 31
0.0
  0
MTEXT
  5
1FB
330
1F3
100
AcDbEntity
  8
SLD-0
 62
     7
100
AcDbMText
 10
153.6136820791
 20
152.4648595637
 30
0.0
 40
2.5
 41
0.0
 71
     1
 72
     1
  1
12.5
  7
SLDTEXTSTYLE0
 73
     1
 44
1.0
  0
ENDBLK
  5
1F5
330
1F3
100
AcDbEntity
  8
0
100
AcDbBlockEnd
  0
ENDSEC
  0
SECTION
  2
ENTITIES
  0
HATCH
  5
75
330
1F
100
AcDbEntity
  8
DIM
 62
     7
100
AcDbHatch
 10
0.0
 20
0.0
 30
0.0
210
0.0
220
0.0
230
1.0
  2
SOLID
 70
     1
 71
     0
 91
        1
 92
        0
 93
       10
 72
     2
 10
192.0729248498105
 20
35.91848103159581
 40
3.045751395731247
 50
249.211220914341
 51
308.9221353953366
 73
     1
 72
     1
 10
193.9864598110451
 20
33.54888496544194
 11
194.9512794722622
 21
32.70159818179959
 72
     1
 10
194.9512794722622
 20
32.70159818179959
 11
191.7411394991064
 21
29.58455846903718
 72
     1
 10
191.7411394991064
 20
29.58455846903718
 11
190.8003390436124
 21
30.39455553914718
 72
     1
 10
190.8003390436124
 20
30.39455553914718
 11
191.4313909640276
 21
31.01045592961821
 72
     1
 10
191.4313909640276
 20
31.01045592961821
 11
187.422188653832
 21
34.4950597698929
 72
     2
 10
188.4371300833727
 20
35.6426201456534
 40
1.531992467805808
 50
131.4906380929589
 51
229.7089352075143
 73
     0
 72
     1
 10
187.4464352358572
 20
36.81117679405345
 11
188.7530634907388
 21
38.07276387056097
 72
     1
 10
188.7530634907388
 20
38.07276387056097
 11
189.7682573381413
 21
37.17723196974318
 72
     2
 10
191.741527641514
 20
35.52983928234839
 40
2.570544369711283
 50
140.1430462780655
 51
253.0452525074004
 73
     1
 97
        0
 75
     0
 76
     1
 98
        1
 10
0.0
 20
0.0
  0
HATCH
  5
76
330
1F
100
AcDbEntity
  8
DIM
 62
     1
100
AcDbHatch
 10
0.0
 20
0.0
 30
0.0
210
0.0
220
0.0
230
1.0
  2
SOLID
 70
     1
 71
     0
 91
        1
 92
        0
 93
       10
 72
     2
 10
192.2060902887744
 20
35.16428139289378
 40
3.18163670452787
 50
234.1674444878508
 51
314.4407074583992
 73
     0
 72
     2
 10
192.5237465794989
 20
35.70510319837194
 40
2.57756748834625
 50
317.8184992995781
 51
398.056471157308
 73
     0
 72
     1
 10
194.5533324225464
 20
34.11619304903031
 11
195.5387813155292
 21
33.25749610914082
 72
     1
 10
195.5387813155292
 20
33.25749610914082
 11
196.7804626303229
 21
34.46192905154803
 72
     2
 10
195.8870703046608
 20
35.68987578336896
 40
1.518552937418265
 50
306.0377529468128
 51
403.4396461533871
 73
     1
 72
     1
 10
196.9896901693331
 20
36.73401775540711
 11
192.8629343109898
 21
40.32319402404105
 72
     1
 10
192.8629343109898
 20
40.32319402404105
 11
193.4871856129171
 21
40.93225245487837
 72
     1
 10
193.4871856129171
 20
40.93225245487837
 11
192.556679102733
 21
41.76244467472291
 72
     1
 10
192.556679102733
 20
41.76244467472291
 11
189.3210936543232
 21
38.6355244281088
 72
     1
 10
189.3210936543232
 20
38.6355244281088
 11
190.3435015316717
 21
37.743733900988
 97
        0
 75
     0
 76
     1
 98
        1
 10
0.0
 20
0.0
  0
LINE
  5
77
330
1F
100
AcDbEntity
  8
0
  6
Continuous
 62
     7
370
     0
100
AcDbLine
 10
167.8593775185
 20
17.7745192513
 30
0.0
 11
168.8593775185
 21
17.7745192513
 31
0.0
  0
LINE
  5
78
330
1F
100
AcDbEntity
  8
0
  6
Continuous
 62
     7
370
     0
100
AcDbLine
 10
164.8593775185
 20
17.7745192513
 30
0.0
 11
167.3593775185
 21
17.7745192513
 31
0.0
  0
LINE
  5
79
330
1F
100
AcDbEntity
  8
0
  6
Continuous
 62
     7
370
     0
100
AcDbLine
 10
181.3593775185
 20
15.2745192513
 30
0.0
 11
181.3593775185
 21
20.2745192513
 31
0.0
  0
LINE
  5
7A
330
1F
100
AcDbEntity
  8
0
  6
Continuous
 62
     7
370
     0
100
AcDbLine
 10
174.3593775185
 20
16.2745192513
 30
0.0
 11
181.3593775185
 21
15.2745192513
 31
0.0
  0
LINE
  5
7B
330
1F
100
AcDbEntity
  8
0
  6
Continuous
 62
     7
370
     0
100
AcDbLine
 10
168.3593775185
 20
16.7745192513
 30
0.0
 11
168.3593775185
 21
14.2745192513
 31
0.0
  0
LINE
  5
7C
330
1F
100
AcDbEntity
  8
0
  6
Continuous
 62
     7
370
     0
100
AcDbLine
 10
181.3593775185
 20
20.2745192513
 30
0.0
 11
174.3593775185
 21
19.2745192513
 31
0.0
  0
LINE
  5
7D
330
1F
100
AcDbEntity
  8
0
  6
Continuous
 62
     7
370
     0
100
AcDbLine
 10
173.3593775185
 20
17.7745192513
 30
0.0
 11
182.3593775185
 21
17.7745192513
 31
0.0
  0
LINE
  5
7E
330
1F
100
AcDbEntity
  8
0
  6
Continuous
 62
     7
370
     0
100
AcDbLine
 10
168.3593775185
 20
18.2745192513
 30
0.0
 11
168.3593775185
 21
17.2745192513
 31
0.0
  0
LINE
  5
7F
330
1F
100
AcDbEntity
  8
0
  6
Continuous
 62
     7
370
     0
100
AcDbLine
 10
169.3593775185
 20
17.7745192513
 30
0.0
 11
171.8593775185
 21
17.7745192513
 31
0.0
  0
LINE
  5
80
330
1F
100
AcDbEntity
  8
0
  6
Continuous
 62
     7
370
     0
100
AcDbLine
 10
168.3593775185
 20
21.2745192513
 30
0.0
 11
168.3593775185
 21
18.7745192513
 31
0.0
  0
LINE
  5
81
330
1F
100
AcDbEntity
  8
0
  6
Continuous
 62
     7
370
     0
100
AcDbLine
 10
174.3593775185
 20
19.2745192513
 30
0.0
 11
174.3593775185
 21
16.2745192513
 31
0.0
  0
LINE
  5
82
330
1F
100
AcDbEntity
  8
0
370
     0
100
AcDbLine
 10
194.9512794723
 20
32.7015981818
 30
0.0
 11
191.7411394991
 21
29.584558469
 31
0.0
  0
LINE
  5
83
330
1F
100
AcDbEntity
  8
0
370
     0
100
AcDbLine
 10
191.7411394991
 20
29.584558469
 30
0.0
 11
190.8003390436
 21
30.3945555391
 31
0.0
  0
LINE
  5
84
330
1F
100
AcDbEntity
  8
0
370
     0
100
AcDbLine
 10
190.8003390436
 20
30.3945555391
 30
0.0
 11
191.431390964
 21
31.0104559296
 31
0.0
  0
LINE
  5
85
330
1F
100
AcDbEntity
  8
0
370
     0
100
AcDbLine
 10
187.4221886538
 20
34.4950597699
 30
0.0
 11
191.431390964
 21
31.0104559296
 31
0.0
  0
LINE
  5
86
330
1F
100
AcDbEntity
  8
0
370
     0
100
AcDbLine
 10
188.7530634907
 20
38.0727638706
 30
0.0
 11
187.4464352359
 21
36.8111767941
 31
0.0
  0
LINE
  5
87
330
1F
100
AcDbEntity
  8
0
370
     0
100
AcDbLine
 10
188.7530634907
 20
38.0727638706
 30
0.0
 11
189.7682573381
 21
37.1772319697
 31
0.0
  0
LINE
  5
88
330
1F
100
AcDbEntity
  8
0
370
     0
100
AcDbLine
 10
193.986459811
 20
33.5488849654
 30
0.0
 11
194.9512794723
 21
32.7015981818
 31
0.0
  0
LINE
  5
89
330
1F
100
AcDbEntity
  8
0
 62
     1
370
     0
100
AcDbLine
 10
190.3435015317
 20
37.743733901
 30
0.0
 11
189.3210936543
 21
38.6355244281
 31
0.0
  0
LINE
  5
8A
330
1F
100
AcDbEntity
  8
0
 62
     1
370
     0
100
AcDbLine
 10
189.3210936543
 20
38.6355244281
 30
0.0
 11
192.5566791027
 21
41.7624446747
 31
0.0
  0
LINE
  5
8B
330
1F
100
AcDbEntity
  8
0
 62
     1
370
     0
100
AcDbLine
 10
192.5566791027
 20
41.7624446747
 30
0.0
 11
193.4871856129
 21
40.9322524549
 31
0.0
  0
LINE
  5
8C
330
1F
100
AcDbEntity
  8
0
 62
     1
370
     0
100
AcDbLine
 10
193.4871856129
 20
40.9322524549
 30
0.0
 11
192.862934311
 21
40.323194024
 31
0.0
  0
LINE
  5
8D
330
1F
100
AcDbEntity
  8
0
 62
     1
370
     0
100
AcDbLine
 10
192.862934311
 20
40.323194024
 30
0.0
 11
196.9896901693
 21
36.7340177554
 31
0.0
  0
LINE
  5
8E
330
1F
100
AcDbEntity
  8
0
 62
     1
370
     0
100
AcDbLine
 10
194.5533324225
 20
34.116193049
 30
0.0
 11
195.5387813155
 21
33.2574961091
 31
0.0
  0
LINE
  5
8F
330
1F
100
AcDbEntity
  8
0
 62
     1
370
     0
100
AcDbLine
 10
195.5387813155
 20
33.2574961091
 30
0.0
 11
196.7804626303
 21
34.4619290515
 31
0.0
  0
LINE
  5
90
330
1F
100
AcDbEntity
  8
0
  6
Continuous
 62
     7
370
     0
100
AcDbLine
 10
185.6907965209
 20
13.1152464079
 30
0.0
 11
285.6907965209
 21
13.1152464079
 31
0.0
  0
LINE
  5
91
330
1F
100
AcDbEntity
  8
0
  6
Continuous
 62
     7
370
     0
100
AcDbLine
 10
185.6907965209
 20
18.1152464079
 30
0.0
 11
235.6907965209
 21
18.1152464079
 31
0.0
  0
LINE
  5
92
330
1F
100
AcDbEntity
  8
0
  6
Continuous
 62
     7
370
     0
100
AcDbLine
 10
185.6907965209
 20
23.1152464079
 30
0.0
 11
235.6907965209
 21
23.1152464079
 31
0.0
  0
LINE
  5
93
330
1F
100
AcDbEntity
  8
0
  6
Continuous
 62
     7
370
     0
100
AcDbLine
 10
185.6907965209
 20
28.1152464079
 30
0.0
 11
285.6907965209
 21
28.1152464079
 31
0.0
  0
LINE
  5
94
330
1F
100
AcDbEntity
  8
0
  6
Continuous
 62
     7
370
     0
100
AcDbLine
 10
235.6907965209
 20
33.1152464079
 30
0.0
 11
285.6907965209
 21
33.1152464079
 31
0.0
  0
LINE
  5
95
330
1F
100
AcDbEntity
  8
0
  6
Continuous
 62
     7
370
    15
100
AcDbLine
 10
235.6907965209
 20
18.1152464079
 30
0.0
 11
285.6907965209
 21
18.1152464079
 31
0.0
  0
LINE
  5
96
330
1F
100
AcDbEntity
  8
0
  6
Continuous
 62
     7
370
     0
100
AcDbLine
 10
185.6907965209
 20
43.1152464079
 30
0.0
 11
285.6907965209
 21
43.1152464079
 31
0.0
  0
LINE
  5
97
330
1F
100
AcDbEntity
  8
0
  6
Continuous
 62
     7
370
     0
100
AcDbLine
 10
251.237217675
 20
8.1152464079
 30
0.0
 11
251.237217675
 21
18.1152464079
 31
0.0
  0
LINE
  5
98
330
1F
100
AcDbEntity
  8
0
  6
Continuous
 62
     7
370
     0
100
AcDbLine
 10
235.6907965209
 20
8.1152464079
 30
0.0
 11
235.6907965209
 21
43.1152464079
 31
0.0
  0
LINE
  5
99
330
1F
100
AcDbEntity
  8
0
  6
Continuous
 62
     7
370
     0
100
AcDbLine
 10
251.237217675
 20
28.1152464079
 30
0.0
 11
251.237217675
 21
33.1152464079
 31
0.0
  0
LINE
  5
9A
330
1F
100
AcDbEntity
  8
0
  6
Continuous
 62
     7
370
     0
100
AcDbLine
 10
214.4164086353
 20
8.1152464079
 30
0.0
 11
214.4164086353
 21
28.1152464079
 31
0.0
  0
LINE
  5
9B
330
1F
100
AcDbEntity
  8
0
  6
Continuous
 62
     7
370
     0
100
AcDbLine
 10
199.7785887506
 20
8.1152464079
 30
0.0
 11
199.7785887506
 21
28.1152464079
 31
0.0
  0
LINE
  5
9C
330
1F
100
AcDbEntity
  8
0
  6
Continuous
 62
     7
370
     0
100
AcDbLine
 10
185.6907965209
 20
8.1152464079
 30
0.0
 11
185.6907965209
 21
43.1152464079
 31
0.0
  0
LINE
  5
9D
330
1F
100
AcDbEntity
  8
0
  6
Continuous
 62
     7
370
    15
100
AcDbLine
 10
8.6907965209
 20
104.7436369915
 30
0.0
 11
14.6907965209
 21
104.7436369915
 31
0.0
  0
LINE
  5
9E
330
1F
100
AcDbEntity
  8
0
  6
Continuous
 62
     7
370
    15
100
AcDbLine
 10
285.6907965209
 20
104.7436369915
 30
0.0
 11
279.6907965209
 21
104.7436369915
 31
0.0
  0
LINE
  5
9F
330
1F
100
AcDbEntity
  8
0
  6
Continuous
 62
     7
370
    15
100
AcDbLine
 10
147.1907965209
 20
8.1152464079
 30
0.0
 11
147.1907965209
 21
14.1152464079
 31
0.0
  0
LINE
  5
A0
330
1F
100
AcDbEntity
  8
0
  6
Continuous
 62
     7
370
    15
100
AcDbLine
 10
147.1907965209
 20
201.3720275751
 30
0.0
 11
147.1907965209
 21
195.3720275751
 31
0.0
  0
LINE
  5
A1
330
1F
100
AcDbEntity
  8
0
  6
Continuous
 62
     7
370
    15
100
AcDbLine
 10
43.3207965209
 20
201.3720275751
 30
0.0
 11
43.3207965209
 21
202.8720275751
 31
0.0
  0
LINE
  5
A2
330
1F
100
AcDbEntity
  8
0
  6
Continuous
 62
     7
370
    15
100
AcDbLine
 10
77.9507965209
 20
201.3720275751
 30
0.0
 11
77.9507965209
 21
202.8720275751
 31
0.0
  0
LINE
  5
A3
330
1F
100
AcDbEntity
  8
0
  6
Continuous
 62
     7
370
    15
100
AcDbLine
 10
112.5807965209
 20
201.3720275751
 30
0.0
 11
112.5807965209
 21
202.8720275751
 31
0.0
  0
LINE
  5
A4
330
1F
100
AcDbEntity
  8
0
  6
Continuous
 62
     7
370
    15
100
AcDbLine
 10
147.2107965209
 20
201.3720275751
 30
0.0
 11
147.2107965209
 21
202.8720275751
 31
0.0
  0
LINE
  5
A5
330
1F
100
AcDbEntity
  8
0
  6
Continuous
 62
     7
370
    15
100
AcDbLine
 10
181.8407965209
 20
201.3720275751
 30
0.0
 11
181.8407965209
 21
202.8720275751
 31
0.0
  0
LINE
  5
A6
330
1F
100
AcDbEntity
  8
0
  6
Continuous
 62
     7
370
    15
100
AcDbLine
 10
216.4707965209
 20
201.3720275751
 30
0.0
 11
216.4707965209
 21
202.8720275751
 31
0.0
  0
LINE
  5
A7
330
1F
100
AcDbEntity
  8
0
  6
Continuous
 62
     7
370
    15
100
AcDbLine
 10
251.1007965209
 20
201.3720275751
 30
0.0
 11
251.1007965209
 21
202.8720275751
 31
0.0
  0
LINE
  5
A8
330
1F
100
AcDbEntity
  8
0
  6
Continuous
 62
     7
370
    15
100
AcDbLine
 10
43.3157965209
 20
8.1152464079
 30
0.0
 11
43.3157965209
 21
6.6152464079
 31
0.0
  0
LINE
  5
A9
330
1F
100
AcDbEntity
  8
0
  6
Continuous
 62
     7
370
    15
100
AcDbLine
 10
77.9407965209
 20
8.1152464079
 30
0.0
 11
77.9407965209
 21
6.6152464079
 31
0.0
  0
LINE
  5
AA
330
1F
100
AcDbEntity
  8
0
  6
Continuous
 62
     7
370
    15
100
AcDbLine
 10
112.5657965209
 20
8.1152464079
 30
0.0
 11
112.5657965209
 21
6.6152464079
 31
0.0
  0
LINE
  5
AB
330
1F
100
AcDbEntity
  8
0
  6
Continuous
 62
     7
370
    15
100
AcDbLine
 10
147.1907965209
 20
8.1152464079
 30
0.0
 11
147.1907965209
 21
6.6152464079
 31
0.0
  0
LINE
  5
AC
330
1F
100
AcDbEntity
  8
0
  6
Continuous
 62
     7
370
    15
100
AcDbLine
 10
181.8157965209
 20
8.1152464079
 30
0.0
 11
181.8157965209
 21
6.6152464079
 31
0.0
  0
LINE
  5
AD
330
1F
100
AcDbEntity
  8
0
  6
Continuous
 62
     7
370
    15
100
AcDbLine
 10
216.4407965209
 20
8.1152464079
 30
0.0
 11
216.4407965209
 21
6.6152464079
 31
0.0
  0
LINE
  5
AE
330
1F
100
AcDbEntity
  8
0
  6
Continuous
 62
     7
370
     0
100
AcDbLine
 10
285.6907965209
 20
201.3720275751
 30
0.0
 11
8.6907965209
 21
201.3720275751
 31
0.0
  0
LINE
  5
AF
330
1F
100
AcDbEntity
  8
0
  6
Continuous
 62
     7
370
     0
100
AcDbLine
 10
285.6907965209
 20
8.1152464079
 30
0.0
 11
285.6907965209
 21
201.3720275751
 31
0.0
  0
LINE
  5
B0
330
1F
100
AcDbEntity
  8
0
  6
Continuous
 62
     7
370
     0
100
AcDbLine
 10
8.6907965209
 20
201.3720275751
 30
0.0
 11
8.6907965209
 21
8.1152464079
 31
0.0
  0
LINE
  5
B1
330
1F
100
AcDbEntity
  8
0
  6
Continuous
 62
     7
370
     0
100
AcDbLine
 10
8.6907965209
 20
8.1152464079
 30
0.0
 11
285.6907965209
 21
8.1152464079
 31
0.0
  0
LINE
  5
B2
330
1F
100
AcDbEntity
  8
0
  6
Continuous
 62
     7
370
    15
100
AcDbLine
 10
251.0657965209
 20
8.1152464079
 30
0.0
 11
251.0657965209
 21
6.6152464079
 31
0.0
  0
LINE
  5
B3
330
1F
100
AcDbEntity
  8
0
  6
Continuous
 62
     7
370
    15
100
AcDbLine
 10
8.6907965209
 20
40.3252464079
 30
0.0
 11
7.1907965209
 21
40.3252464079
 31
0.0
  0
LINE
  5
B4
330
1F
100
AcDbEntity
  8
0
  6
Continuous
 62
     7
370
    15
100
AcDbLine
 10
8.6907965209
 20
72.5352464079
 30
0.0
 11
7.1907965209
 21
72.5352464079
 31
0.0
  0
LINE
  5
B5
330
1F
100
AcDbEntity
  8
0
  6
Continuous
 62
     7
370
    15
100
AcDbLine
 10
8.6907965209
 20
104.7452464079
 30
0.0
 11
7.1907965209
 21
104.7452464079
 31
0.0
  0
LINE
  5
B6
330
1F
100
AcDbEntity
  8
0
  6
Continuous
 62
     7
370
    15
100
AcDbLine
 10
8.6907965209
 20
136.9552464079
 30
0.0
 11
7.1907965209
 21
136.9552464079
 31
0.0
  0
LINE
  5
B7
330
1F
100
AcDbEntity
  8
0
  6
Continuous
 62
     7
370
    15
100
AcDbLine
 10
8.6907965209
 20
169.1652464079
 30
0.0
 11
7.1907965209
 21
169.1652464079
 31
0.0
  0
LINE
  5
B8
330
1F
100
AcDbEntity
  8
0
  6
Continuous
 62
     7
370
    15
100
AcDbLine
 10
285.6907965209
 20
40.3252464079
 30
0.0
 11
287.1907965209
 21
40.3252464079
 31
0.0
  0
LINE
  5
B9
330
1F
100
AcDbEntity
  8
0
  6
Continuous
 62
     7
370
    15
100
AcDbLine
 10
285.6907965209
 20
72.5352464079
 30
0.0
 11
287.1907965209
 21
72.5352464079
 31
0.0
  0
LINE
  5
BA
330
1F
100
AcDbEntity
  8
0
  6
Continuous
 62
     7
370
    15
100
AcDbLine
 10
285.6907965209
 20
104.7452464079
 30
0.0
 11
287.1907965209
 21
104.7452464079
 31
0.0
  0
LINE
  5
BB
330
1F
100
AcDbEntity
  8
0
  6
Continuous
 62
     7
370
    15
100
AcDbLine
 10
285.6907965209
 20
136.9552464079
 30
0.0
 11
287.1907965209
 21
136.9552464079
 31
0.0
  0
LINE
  5
BC
330
1F
100
AcDbEntity
  8
0
  6
Continuous
 62
     7
370
    15
100
AcDbLine
 10
285.6907965209
 20
169.1652464079
 30
0.0
 11
287.1907965209
 21
169.1652464079
 31
0.0
  0
CIRCLE
  5
BD
330
1F
100
AcDbEntity
  8
0
  6
Continuous
 62
     7
370
     0
100
AcDbCircle
 10
168.3593775185
 20
17.7745192513
 30
0.0
 40
1.5
  0
CIRCLE
  5
BE
330
1F
100
AcDbEntity
  8
0
  6
Continuous
 62
     7
370
     0
100
AcDbCircle
 10
168.3593775185
 20
17.7745192513
 30
0.0
 40
2.5
  0
ARC
  5
BF
330
1F
100
AcDbEntity
  8
0
370
     0
100
AcDbCircle
 10
188.4371300834
 20
35.6426201457
 30
0.0
 40
1.531992467805803
100
AcDbArc
 50
130.2910647925
 51
228.509361907
  0
ARC
  5
C0
330
1F
100
AcDbEntity
  8
0
370
     0
100
AcDbCircle
 10
191.7415276415
 20
35.5298392823
 30
0.0
 40
2.570544369711294
100
AcDbArc
 50
140.1430462781
 51
253.0452525074
  0
ARC
  5
C1
330
1F
100
AcDbEntity
  8
0
370
     0
100
AcDbCircle
 10
192.0729248498
 20
35.9184810316
 30
0.0
 40
3.045751395731247
100
AcDbArc
 50
249.2112209143
 51
308.9221353953
  0
ARC
  5
C2
330
1F
100
AcDbEntity
  8
0
 62
     1
370
     0
100
AcDbCircle
 10
195.8870703047
 20
35.6898757834
 30
0.0
 40
1.51855293741828
100
AcDbArc
 50
306.0377529468
 51
43.4396461534
  0
ARC
  5
C3
330
1F
100
AcDbEntity
  8
0
 62
     1
370
     0
100
AcDbCircle
 10
192.2060902888
 20
35.1642813929
 30
0.0
 40
3.18163670452787
100
AcDbArc
 50
45.5592925416
 51
125.8325555121
  0
ARC
  5
C4
330
1F
100
AcDbEntity
  8
0
 62
     1
370
     0
100
AcDbCircle
 10
192.5237465795
 20
35.7051031984
 30
0.0
 40
2.577567488346255
100
AcDbArc
 50
321.9435288427
 51
42.1815007004
  0
MTEXT
  5
C6
330
1F
100
AcDbEntity
  8
0
  6
Continuous
 62
     7
370
     0
100
AcDbMText
 10
165.5426850804
 20
13.2208440369
 30
0.0
 40
2.6458333333
 41
0.0
 71
     1
 72
     1
  1
UNIT:m/m
  7
SLDTEXTSTYLE0
 73
     1
 44
1.0
  0
INSERT
  5
CD
330
1F
100
AcDbEntity
  8
0
  6
Continuous
 62
     7
370
     0
100
AcDbBlockReference
  2
SW_NOTE_0
 10
12.2315076053
 20
193.8904304251
 30
0.0
  0
MTEXT
  5
CF
330
1F
100
AcDbEntity
  8
0
  6
Continuous
 62
     7
370
     0
100
AcDbMText
 10
198.7251893935
 20
40.4406774139
 30
0.0
 40
2.38125
 41
0.0
 71
     1
 72
     1
  1
Unice E-O Services Inc.
  7
SLDTEXTSTYLE1
 73
     1
 44
1.0
  0
MTEXT
  5
D0
330
1F
100
AcDbEntity
  8
0
  6
Continuous
 62
     7
370
     0
100
AcDbMText
 10
217.5590538149
 20
21.5867148511
 30
0.0
 40
1.8520833333
 41
0.0
 71
     1
 72
     1
  1
2010/12/30
  7
SLDTEXTSTYLE0
 73
     1
 44
1.0
  0
MTEXT
  5
D1
330
1F
100
AcDbEntity
  8
0
  6
Continuous
 62
     7
370
     0
100
AcDbMText
 10
252.6088982507
 20
16.87117774
 30
0.0
 40
2.5
 41
0.0
 71
     1
 72
     1
  1
1:1
  7
SLDTEXTSTYLE0
 73
     1
 44
1.0
  0
MTEXT
  5
D2
330
1F
100
AcDbEntity
  8
0
  6
Continuous
 62
     7
370
     0
100
AcDbMText
 10
252.3075599985
 20
32.1519195438
 30
0.0
 40
2.5
 41
0.0
 71
     1
 72
     1
  1
02BCF-3(M)
  7
SLDTEXTSTYLE0
 73
     1
 44
1.0
  0
MTEXT
  5
D3
330
1F
100
AcDbEntity
  8
0
  6
Continuous
 62
     7
370
     0
100
AcDbMText
 10
252.3075599985
 20
38.1082117879
 30
0.0
 40
2.5
 41
0.0
 71
     1
 72
     1
  1
02BCF-3(M)
  7
SLDTEXTSTYLE0
 73
     1
 44
1.0
  0
MTEXT
  5
D4
330
1F
100
AcDbEntity
  8
0
  6
Continuous
 62
     7
370
     0
100
AcDbMText
 10
236.3921866786
 20
16.5064795728
 30
0.0
 40
2.1166666667
 41
0.0
 71
     1
 72
     1
  1
SCALE:
  7
SLDTEXTSTYLE0
 73
     1
 44
1.0
  0
MTEXT
  5
D5
330
1F
100
AcDbEntity
  8
0
  6
Continuous
 62
     7
370
     0
100
AcDbMText
 10
186.3336086789
 20
21.5867148511
 30
0.0
 40
1.8520833333
 41
0.0
 71
     1
 72
     1
  1
DRAWN
  7
SLDTEXTSTYLE0
 73
     1
 44
1.0
  0
MTEXT
  5
D6
330
1F
100
AcDbEntity
  8
0
  6
Continuous
 62
     7
370
     0
100
AcDbMText
 10
203.2228367937
 20
26.683208308
 30
0.0
 40
1.8520833333
 41
0.0
 71
     1
 72
     1
  1
NAME
  7
SLDTEXTSTYLE0
 73
     1
 44
1.0
  0
MTEXT
  5
D7
330
1F
100
AcDbEntity
  8
0
  6
Continuous
 62
     7
370
     0
100
AcDbMText
 10
220.8710155758
 20
26.683208308
 30
0.0
 40
1.8520833333
 41
0.0
 71
     1
 72
     1
  1
DATE
  7
SLDTEXTSTYLE0
 73
     1
 44
1.0
  0
MTEXT
  5
D8
330
1F
100
AcDbEntity
  8
0
  6
Continuous
 62
     7
370
     0
100
AcDbMText
 10
236.2756316645
 20
31.7872213766
 30
0.0
 40
2.1166666667
 41
0.0
 71
     1
 72
     1
  1
DWG. NO.
  7
SLDTEXTSTYLE0
 73
     1
 44
1.0
  0
MTEXT
  5
D9
330
1F
100
AcDbEntity
  8
0
  6
Continuous
 62
     7
370
     0
100
AcDbMText
 10
236.3629907088
 20
41.8840658243
 30
0.0
 40
2.1166666667
 41
0.0
 71
     1
 72
     1
  1
TITLE:
  7
SLDTEXTSTYLE0
 73
     1
 44
1.0
  0
MTEXT
  5
DA
330
1F
100
AcDbEntity
  8
0
  6
Continuous
 62
     7
370
     0
100
AcDbMText
 10
203.0314209802
 20
16.2403789724
 30
0.0
 40
1.8520833333
 41
0.0
 71
     1
 72
     1
  1
Johnny
  7
SLDTEXTSTYLE0
 73
     1
 44
1.0
  0
MTEXT
  5
DB
330
1F
100
AcDbEntity
  8
0
  6
Continuous
 62
     7
370
     0
100
AcDbMText
 10
217.5590538149
 20
16.2403789724
 30
0.0
 40
1.8520833333
 41
0.0
 71
     1
 72
     1
  1
2010/12/30
  7
SLDTEXTSTYLE0
 73
     1
 44
1.0
  0
MTEXT
  5
DC
330
1F
100
AcDbEntity
  8
0
  6
Continuous
 62
     7
370
     0
100
AcDbMText
 10
186.3336086789
 20
16.2403789724
 30
0.0
 40
1.8520833333
 41
0.0
 71
     1
 72
     1
  1
ENG APPR.
  7
SLDTEXTSTYLE0
 73
     1
 44
1.0
  0
MTEXT
  5
DD
330
1F
100
AcDbEntity
  8
0
  6
Continuous
 62
     7
370
     0
100
AcDbMText
 10
236.3921866786
 20
11.6853389288
 30
0.0
 40
2.1166666667
 41
0.0
 71
     1
 72
     1
  1
REV
  7
SLDTEXTSTYLE0
 73
     1
 44
1.0
  0
MTEXT
  5
DE
330
1F
100
AcDbEntity
  8
0
  6
Continuous
 62
     7
370
     0
100
AcDbMText
 10
236.3629907088
 20
26.9493089085
 30
0.0
 40
2.1166666667
 41
0.0
 71
     1
 72
     1
  1
MATERIAL:
  7
SLDTEXTSTYLE0
 73
     1
 44
1.0
  0
MTEXT
  5
DF
330
1F
100
AcDbEntity
  8
0
  6
Continuous
 62
     7
370
     0
100
AcDbMText
 10
252.6088982507
 20
22.2175136187
 30
0.0
 40
2.5
 41
0.0
 71
     1
 72
     1
  1
N/A
  7
SLDTEXTSTYLE0
 73
     1
 44
1.0
  0
MTEXT
  5
E0
330
1F
100
AcDbEntity
  8
0
  6
Continuous
 62
     7
370
     0
100
AcDbMText
 10
26.6029931533
 20
204.453351657
 30
0.0
 40
2.1166666667
 41
0.0
 71
     1
 72
     1
  1
1
  7
SLDTEXTSTYLE0
 73
     1
 44
1.0
  0
MTEXT
  5
E1
330
1F
100
AcDbEntity
  8
0
  6
Continuous
 62
     7
370
     0
100
AcDbMText
 10
60.7170995724
 20
204.453351657
 30
0.0
 40
2.1166666667
 41
0.0
 71
     1
 72
     1
  1
2
  7
SLDTEXTSTYLE0
 73
     1
 44
1.0
  0
MTEXT
  5
E2
330
1F
100
AcDbEntity
  8
0
  6
Continuous
 62
     7
370
     0
100
AcDbMText
 10
94.9009943906
 20
204.453351657
 30
0.0
 40
2.1166666667
 41
0.0
 71
     1
 72
     1
  1
3
  7
SLDTEXTSTYLE0
 73
     1
 44
1.0
  0
MTEXT
  5
E3
330
1F
100
AcDbEntity
  8
0
  6
Continuous
 62
     7
370
     0
100
AcDbMText
 10
129.2533362851
 20
204.2992584364
 30
0.0
 40
2.1166666667
 41
0.0
 71
     1
 72
     1
  1
4
  7
SLDTEXTSTYLE0
 73
     1
 44
1.0
  0
MTEXT
  5
E4
330
1F
100
AcDbEntity
  8
0
  6
Continuous
 62
     7
370
     0
100
AcDbMText
 10
163.702323464
 20
204.453351657
 30
0.0
 40
2.1166666667
 41
0.0
 71
     1
 72
     1
  1
5
  7
SLDTEXTSTYLE0
 73
     1
 44
1.0
  0
MTEXT
  5
E5
330
1F
100
AcDbEntity
  8
0
  6
Continuous
 62
     7
370
     0
100
AcDbMText
 10
198.6382170415
 20
204.453351657
 30
0.0
 40
2.1166666667
 41
0.0
 71
     1
 72
     1
  1
6
  7
SLDTEXTSTYLE0
 73
     1
 44
1.0
  0
MTEXT
  5
E6
330
1F
100
AcDbEntity
  8
0
  6
Continuous
 62
     7
370
     0
100
AcDbMText
 10
234.3630657407
 20
204.453351657
 30
0.0
 40
2.1166666667
 41
0.0
 71
     1
 72
     1
  1
7
  7
SLDTEXTSTYLE0
 73
     1
 44
1.0
  0
MTEXT
  5
E7
330
1F
100
AcDbEntity
  8
0
  6
Continuous
 62
     7
370
     0
100
AcDbMText
 10
266.2787820494
 20
204.453351657
 30
0.0
 40
2.1166666667
 41
0.0
 71
     1
 72
     1
  1
8
  7
SLDTEXTSTYLE0
 73
     1
 44
1.0
  0
MTEXT
  5
E8
330
1F
100
AcDbEntity
  8
0
  6
Continuous
 62
     7
370
     0
100
AcDbMText
 10
5.3568236555
 20
185.8113022879
 30
0.0
 40
2.1166666667
 41
0.0
 71
     1
 72
     1
  1
A
  7
SLDTEXTSTYLE0
 73
     1
 44
1.0
  0
MTEXT
  5
E9
330
1F
100
AcDbEntity
  8
0
  6
Continuous
 62
     7
370
     0
100
AcDbMText
 10
5.5910431831
 20
154.2993048238
 30
0.0
 40
2.1166666667
 41
0.0
 71
     1
 72
     1
  1
B
  7
SLDTEXTSTYLE0
 73
     1
 44
1.0
  0
MTEXT
  5
EA
330
1F
100
AcDbEntity
  8
0
  6
Continuous
 62
     7
370
     0
100
AcDbMText
 10
5.5910431831
 20
121.274351423
 30
0.0
 40
2.1166666667
 41
0.0
 71
     1
 72
     1
  1
C
  7
SLDTEXTSTYLE0
 73
     1
 44
1.0
  0
MTEXT
  5
EB
330
1F
100
AcDbEntity
  8
0
  6
Continuous
 62
     7
370
     0
100
AcDbMText
 10
5.5910431831
 20
88.7453220221
 30
0.0
 40
2.1166666667
 41
0.0
 71
     1
 72
     1
  1
D
  7
SLDTEXTSTYLE0
 73
     1
 44
1.0
  0
MTEXT
  5
EC
330
1F
100
AcDbEntity
  8
0
  6
Continuous
 62
     7
370
     0
100
AcDbMText
 10
5.5910431831
 20
57.5558849197
 30
0.0
 40
2.1166666667
 41
0.0
 71
     1
 72
     1
  1
E
  7
SLDTEXTSTYLE0
 73
     1
 44
1.0
  0
MTEXT
  5
ED
330
1F
100
AcDbEntity
  8
0
  6
Continuous
 62
     7
370
     0
100
AcDbMText
 10
5.5910431831
 20
25.5694212252
 30
0.0
 40
2.1166666667
 41
0.0
 71
     1
 72
     1
  1
F
  7
SLDTEXTSTYLE0
 73
     1
 44
1.0
  0
MTEXT
  5
EE
330
1F
100
AcDbEntity
  8
0
  6
Continuous
 62
     7
370
     0
100
AcDbMText
 10
266.1858616964
 20
6.6236223963
 30
0.0
 40
2.1166666667
 41
0.0
 71
     1
 72
     1
  1
8
  7
SLDTEXTSTYLE0
 73
     1
 44
1.0
  0
MTEXT
  5
EF
330
1F
100
AcDbEntity
  8
0
  6
Continuous
 62
     7
370
     0
100
AcDbMText
 10
234.2701453876
 20
6.6236223963
 30
0.0
 40
2.1166666667
 41
0.0
 71
     1
 72
     1
  1
7
  7
SLDTEXTSTYLE0
 73
     1
 44
1.0
  0
MTEXT
  5
F0
330
1F
100
AcDbEntity
  8
0
  6
Continuous
 62
     7
370
     0
100
AcDbMText
 10
198.5452966885
 20
6.6236223963
 30
0.0
 40
2.1166666667
 41
0.0
 71
     1
 72
     1
  1
6
  7
SLDTEXTSTYLE0
 73
     1
 44
1.0
  0
MTEXT
  5
F1
330
1F
100
AcDbEntity
  8
0
  6
Continuous
 62
     7
370
     0
100
AcDbMText
 10
163.6094031109
 20
6.6236223963
 30
0.0
 40
2.1166666667
 41
0.0
 71
     1
 72
     1
  1
5
  7
SLDTEXTSTYLE0
 73
     1
 44
1.0
  0
MTEXT
  5
F2
330
1F
100
AcDbEntity
  8
0
  6
Continuous
 62
     7
370
     0
100
AcDbMText
 10
129.1604159321
 20
6.4695291758
 30
0.0
 40
2.1166666667
 41
0.0
 71
     1
 72
     1
  1
4
  7
SLDTEXTSTYLE0
 73
     1
 44
1.0
  0
MTEXT
  5
F3
330
1F
100
AcDbEntity
  8
0
  6
Continuous
 62
     7
370
     0
100
AcDbMText
 10
94.8080740376
 20
6.6236223963
 30
0.0
 40
2.1166666667
 41
0.0
 71
     1
 72
     1
  1
3
  7
SLDTEXTSTYLE0
 73
     1
 44
1.0
  0
MTEXT
  5
F4
330
1F
100
AcDbEntity
  8
0
  6
Continuous
 62
     7
370
     0
100
AcDbMText
 10
60.6241792194
 20
6.6236223963
 30
0.0
 40
2.1166666667
 41
0.0
 71
     1
 72
     1
  1
2
  7
SLDTEXTSTYLE0
 73
     1
 44
1.0
  0
MTEXT
  5
F5
330
1F
100
AcDbEntity
  8
0
  6
Continuous
 62
     7
370
     0
100
AcDbMText
 10
26.5100728003
 20
6.6236223963
 30
0.0
 40
2.1166666667
 41
0.0
 71
     1
 72
     1
  1
1
  7
SLDTEXTSTYLE0
 73
     1
 44
1.0
  0
MTEXT
  5
F6
330
1F
100
AcDbEntity
  8
0
  6
Continuous
 62
     7
370
     0
100
AcDbMText
 10
287.1023846145
 20
186.6424909092
 30
0.0
 40
2.1166666667
 41
0.0
 71
     1
 72
     1
  1
A
  7
SLDTEXTSTYLE0
 73
     1
 44
1.0
  0
MTEXT
  5
F7
330
1F
100
AcDbEntity
  8
0
  6
Continuous
 62
     7
370
     0
100
AcDbMText
 10
287.3366041421
 20
155.1304934451
 30
0.0
 40
2.1166666667
 41
0.0
 71
     1
 72
     1
  1
B
  7
SLDTEXTSTYLE0
 73
     1
 44
1.0
  0
MTEXT
  5
F8
330
1F
100
AcDbEntity
  8
0
  6
Continuous
 62
     7
370
     0
100
AcDbMText
 10
287.3366041421
 20
122.1055400442
 30
0.0
 40
2.1166666667
 41
0.0
 71
     1
 72
     1
  1
C
  7
SLDTEXTSTYLE0
 73
     1
 44
1.0
  0
MTEXT
  5
F9
330
1F
100
AcDbEntity
  8
0
  6
Continuous
 62
     7
370
     0
100
AcDbMText
 10
287.3366041421
 20
89.5765106433
 30
0.0
 40
2.1166666667
 41
0.0
 71
     1
 72
     1
  1
D
  7
SLDTEXTSTYLE0
 73
     1
 44
1.0
  0
MTEXT
  5
FA
330
1F
100
AcDbEntity
  8
0
  6
Continuous
 62
     7
370
     0
100
AcDbMText
 10
287.3366041421
 20
58.3870735409
 30
0.0
 40
2.1166666667
 41
0.0
 71
     1
 72
     1
  1
E
  7
SLDTEXTSTYLE0
 73
     1
 44
1.0
  0
MTEXT
  5
FB
330
1F
100
AcDbEntity
  8
0
  6
Continuous
 62
     7
370
     0
100
AcDbMText
 10
287.3366041421
 20
26.4006098464
 30
0.0
 40
2.1166666667
 41
0.0
 71
     1
 72
     1
  1
F
  7
SLDTEXTSTYLE0
 73
     1
 44
1.0
  0
MTEXT
  5
FC
330
1F
100
AcDbEntity
  8
0
  6
Continuous
 62
     7
370
     0
100
AcDbMText
 10
203.1553128802
 20
21.5867148511
 30
0.0
 40
1.8520833333
 41
0.0
 71
     1
 72
     1
  1
Miki
  7
SLDTEXTSTYLE0
 73
     1
 44
1.0
  0
MTEXT
  5
FD
330
1F
100
AcDbEntity
  8
0
  6
Continuous
 62
     7
370
     0
100
AcDbMText
 10
252.8482239645
 20
12.0500370959
 30
0.0
 40
2.5
 41
0.0
 71
     1
 72
     1
  1
0
  7
SLDTEXTSTYLE0
 73
     1
 44
1.0
  0
INSERT
  5
103
330
1F
100
AcDbEntity
  8
SLD-0
 62
     7
100
AcDbBlockReference
  2
SW_NOTE_1
 10
198.7251893935
 20
32.841924528
 30
0.0
  0
CIRCLE
  5
104
330
1F
100
AcDbEntity
  8
0
  6
Continuous
 62
     7
370
    30
100
AcDbCircle
 10
87.3727263611
 20
123.3976293032
 30
0.0
 40
12.55
  0
CIRCLE
  5
105
330
1F
100
AcDbEntity
  8
0
  6
Continuous
 62
     7
370
    30
100
AcDbCircle
 10
87.3727263611
 20
123.3976293032
 30
0.0
 40
12.75
  0
CIRCLE
  5
106
330
1F
100
AcDbEntity
  8
0
  6
Continuous
 62
     7
370
    30
100
AcDbCircle
 10
87.3727263611
 20
123.3976293032
 30
0.0
 40
9.5
  0
CIRCLE
  5
107
330
1F
100
AcDbEntity
  8
0
  6
Continuous
 62
     7
370
    30
100
AcDbCircle
 10
87.3727263611
 20
123.3976293032
 30
0.0
 40
9.600000000000009
  0
CIRCLE
  5
108
330
1F
100
AcDbEntity
  8
0
  6
Continuous
 62
     7
370
    30
100
AcDbCircle
 10
87.3727263611
 20
123.3976293032
 30
0.0
 40
3.5
  0
ARC
  5
109
330
1F
100
AcDbEntity
  8
0
  6
Continuous
 62
     7
370
    30
100
AcDbCircle
 10
87.3727263611
 20
123.3976293032
 30
0.0
 40
15.0
100
AcDbArc
 50
270.0
 51
346.5066011784
  0
ARC
  5
10A
330
1F
100
AcDbEntity
  8
0
  6
Continuous
 62
     7
370
    30
100
AcDbCircle
 10
87.3727263611
 20
123.3976293032
 30
0.0
 40
15.0
100
AcDbArc
 50
9.5940682269
 51
170.4059317731
  0
ARC
  5
10B
330
1F
100
AcDbEntity
  8
0
  6
Continuous
 62
     7
370
    30
100
AcDbCircle
 10
87.3727263611
 20
123.3976293032
 30
0.0
 40
15.0
100
AcDbArc
 50
193.4933988216
 51
270.0
  0
ARC
  5
10C
330
1F
100
AcDbEntity
  8
0
  6
Continuous
 62
     7
370
    30
100
AcDbCircle
 10
87.3727263611
 20
123.3976293032
 30
0.0
 40
15.5
100
AcDbArc
 50
193.0503049397
 51
270.0
  0
ARC
  5
10D
330
1F
100
AcDbEntity
  8
0
  6
Continuous
 62
     7
370
    30
100
AcDbCircle
 10
87.3727263611
 20
123.3976293032
 30
0.0
 40
15.50000000000001
100
AcDbArc
 50
9.2817990867
 51
170.7182009133
  0
ARC
  5
10E
330
1F
100
AcDbEntity
  8
0
  6
Continuous
 62
     7
370
    30
100
AcDbCircle
 10
87.3727263611
 20
123.3976293032
 30
0.0
 40
15.50000000000001
100
AcDbArc
 50
270.0
 51
346.9496950603
  0
ARC
  5
10F
330
1F
100
AcDbEntity
  8
0
  6
Continuous
 62
     7
370
    30
100
AcDbCircle
 10
87.3727263611
 20
123.3976293032
 30
0.0
 40
16.65000000000012
100
AcDbArc
 50
191.2561265749
 51
347.8653286195
  0
SPLINE
  5
110
330
1F
100
AcDbEntity
  8
0
  6
Continuous
 62
     7
370
    30
100
AcDbSpline
210
0.0
220
0.0
230
1.0
 70
     8
 71
     3
 72
    12
 73
     8
 74
     0
 42
0.000000001
 43
0.00000001
 40
0.0
 40
0.0
 40
0.0
 40
0.0
 40
0.2499999999999964
 40
0.2499999999999964
 40
0.4999999999999929
 40
0.4999999999999929
 40
1.0
 40
1.0
 40
1.0
 40
1.0
 10
71.35055422369116
 20
119.8976293031795
 30
0.0
 10
71.35055422369115
 20
119.8976293031796
 30
0.0
 10
71.33597521458191
 20
119.9093608439818
 30
0.0
 10
71.29252360196824
 20
119.944424498239
 30
0.0
 10
71.26476112481399
 20
119.9668672660039
 30
0.0
 10
71.17611469202167
 20
120.0387533491405
 30
0.0
 10
71.10896601420737
 20
120.0935014588698
 30
0.0
 10
71.04299886794274
 20
120.1476293031796
 30
0.0
  0
ARC
  5
111
330
1F
100
AcDbEntity
  8
0
  6
Continuous
 62
     7
370
    30
100
AcDbCircle
 10
87.3727263611
 20
123.3976293032
 30
0.0
 40
16.40000000000012
100
AcDbArc
 50
192.3225339804
 51
347.6774660196
  0
LINE
  5
112
330
1F
100
AcDbEntity
  8
0
  6
Continuous
 62
     7
370
    30
100
AcDbLine
 10
71.0429982942
 20
120.1476301972
 30
0.0
 11
73.7037831646
 21
120.1476301972
 31
0.0
  0
SPLINE
  5
113
330
1F
100
AcDbEntity
  8
0
  6
Continuous
 62
     7
370
    30
100
AcDbSpline
210
0.0
220
0.0
230
1.0
 70
     8
 71
     3
 72
    12
 73
     8
 74
     0
 42
0.000000001
 43
0.00000001
 40
0.0
 40
0.0
 40
0.0
 40
0.0
 40
0.2500000000000011
 40
0.2500000000000011
 40
0.5000000000000022
 40
0.5000000000000022
 40
1.0
 40
1.0
 40
1.0
 40
1.0
 10
74.0239436450383
 20
119.897629303179
 30
0.0
 10
74.02394364503829
 20
119.897629303179
 30
0.0
 10
74.00814160873651
 20
119.9098143087565
 30
0.0
 10
73.96234163067378
 20
119.9452563034079
 30
0.0
 10
73.93327084126524
 20
119.9678033553042
 30
0.0
 10
73.84117204057854
 20
120.0395134785192
 30
0.0
 10
73.77184271912948
 20
120.0938597943402
 30
0.0
 10
73.70378346120309
 20
120.147629303179
 30
0.0
  0
LINE
  5
114
330
1F
100
AcDbEntity
  8
0
  6
Continuous
 62
     7
370
    30
100
AcDbLine
 10
74.023943926
 20
119.8976296906
 30
0.0
 11
71.3505545359
 21
119.8976296906
 31
0.0
  0
LINE
  5
115
330
1F
100
AcDbEntity
  8
0
  6
Continuous
 62
     7
370
    30
100
AcDbLine
 10
108.7727272611
 20
119.9551966016
 30
0.0
 11
108.7727272611
 21
122.8976283197
 31
0.0
  0
LINE
  5
116
330
1F
100
AcDbEntity
  8
0
  6
Continuous
 62
     7
370
    30
100
AcDbLine
 10
108.7727272611
 20
122.8976283197
 30
0.0
 11
109.0227259051
 21
122.8976283197
 31
0.0
  0
LINE
  5
117
330
1F
100
AcDbEntity
  8
0
  6
Continuous
 62
     7
370
    30
100
AcDbLine
 10
109.0227259051
 20
122.8976283197
 30
0.0
 11
109.0227259051
 21
119.8976296906
 31
0.0
  0
SPLINE
  5
118
330
1F
100
AcDbEntity
  8
0
  6
Continuous
 62
     7
370
    30
100
AcDbSpline
210
0.0
220
0.0
230
1.0
 70
     8
 71
     3
 72
    10
 73
     6
 74
     0
 42
0.000000001
 43
0.00000001
 40
0.0
 40
0.0
 40
0.0
 40
0.0
 40
0.5
 40
0.5
 40
1.0
 40
1.0
 40
1.0
 40
1.0
 10
109.0227263610762
 20
119.897629303179
 30
0.0
 10
109.0227263610763
 20
119.897629303179
 30
0.0
 10
108.9947619037979
 20
119.9040721331994
 30
0.0
 10
108.9020754465838
 20
119.9254190973433
 30
0.0
 10
108.8369936401359
 20
119.9404048629547
 30
0.0
 10
108.7727263610762
 20
119.9551975048979
 30
0.0
  0
ARC
  5
119
330
1F
100
AcDbEntity
  8
0
  6
Continuous
 62
     7
370
    30
100
AcDbCircle
 10
68.7227263611
 20
122.8976293032
 30
0.0
 40
2.750000000000014
100
AcDbArc
 50
90.0
 51
180.0
  0
LINE
  5
11A
330
1F
100
AcDbEntity
  8
0
  6
Continuous
 62
     7
370
    30
100
AcDbLine
 10
65.9727254611
 20
122.8976283197
 30
0.0
 11
65.7227268171
 21
122.8976283197
 31
0.0
  0
ARC
  5
11B
330
1F
100
AcDbEntity
  8
0
  6
Continuous
 62
     7
370
    30
100
AcDbCircle
 10
68.7227263611
 20
122.8976293032
 30
0.0
 40
3.000000000000014
100
AcDbArc
 50
90.0
 51
180.0
  0
LINE
  5
11C
330
1F
100
AcDbEntity
  8
0
  6
Continuous
 62
     7
370
    30
100
AcDbLine
 10
68.7227254462
 20
125.6476301674
 30
0.0
 11
68.7227254462
 21
125.8976306741
 31
0.0
  0
LINE
  5
11D
330
1F
100
AcDbEntity
  8
0
  6
Continuous
 62
     7
370
    30
100
AcDbLine
 10
65.9727254611
 20
122.8976283197
 30
0.0
 11
65.9727254611
 21
119.9551966016
 31
0.0
  0
SPLINE
  5
11E
330
1F
100
AcDbEntity
  8
0
  6
Continuous
 62
     7
370
    30
100
AcDbSpline
210
0.0
220
0.0
230
1.0
 70
     8
 71
     3
 72
    10
 73
     6
 74
     0
 42
0.000000001
 43
0.00000001
 40
0.0
 40
0.0
 40
0.0
 40
0.0
 40
0.5
 40
0.5
 40
1.0
 40
1.0
 40
1.0
 40
1.0
 10
65.72272636107624
 20
119.897629303179
 30
0.0
 10
65.72272636107625
 20
119.897629303179
 30
0.0
 10
65.75069081835461
 20
119.9040721331995
 30
0.0
 10
65.84337727556868
 20
119.9254190973434
 30
0.0
 10
65.90845908201642
 20
119.9404048629553
 30
0.0
 10
65.97272636107624
 20
119.9551975048979
 30
0.0
  0
LINE
  5
11F
330
1F
100
AcDbEntity
  8
0
  6
Continuous
 62
     7
370
    30
100
AcDbLine
 10
65.7227268171
 20
119.8976296906
 30
0.0
 11
65.7227268171
 21
122.8976283197
 31
0.0
  0
ARC
  5
120
330
1F
100
AcDbEntity
  8
0
  6
Continuous
 62
     7
370
    30
100
AcDbCircle
 10
87.3727263611
 20
123.3976293032
 30
0.0
 40
14.05000000000003
100
AcDbArc
 50
170.7848412545
 51
193.3746053032
  0
SPLINE
  5
121
330
1F
100
AcDbEntity
  8
0
  6
Continuous
 62
     7
370
    30
100
AcDbSpline
210
0.0
220
0.0
230
1.0
 70
     8
 71
     3
 72
    12
 73
     8
 74
     0
 42
0.000000001
 43
0.00000001
 40
0.0
 40
0.0
 40
0.0
 40
0.0
 40
0.249999999999993
 40
0.249999999999993
 40
0.4999999999999859
 40
0.4999999999999859
 40
1.0
 40
1.0
 40
1.0
 40
1.0
 10
73.8010647089422
 20
125.8976293031789
 30
0.0
 10
73.8010647089422
 20
125.8976293031789
 30
0.0
 10
73.78742250016995
 20
125.8862781086643
 30
0.0
 10
73.74585078029841
 20
125.8515769706016
 30
0.0
 10
73.71917356921553
 20
125.829264680022
 30
0.0
 10
73.63341736331908
 20
125.7572813511843
 30
0.0
 10
73.56816040584194
 20
125.7021665018858
 30
0.0
 10
73.50405663395365
 20
125.6476293031789
 30
0.0
  0
ARC
  5
122
330
1F
100
AcDbEntity
  8
0
  6
Continuous
 62
     7
370
    30
100
AcDbCircle
 10
87.3727263611
 20
123.3976293032
 30
0.0
 40
13.80000000000013
100
AcDbArc
 50
169.5626999635
 51
194.692017909
  0
LINE
  5
123
330
1F
100
AcDbEntity
  8
0
  6
Continuous
 62
     7
370
    30
100
AcDbLine
 10
73.5040563818
 20
125.6476301674
 30
0.0
 11
68.7227254462
 21
125.6476301674
 31
0.0
  0
LINE
  5
124
330
1F
100
AcDbEntity
  8
0
  6
Continuous
 62
     7
370
    30
100
AcDbLine
 10
68.7227254462
 20
125.8976306741
 30
0.0
 11
73.8010644641
 21
125.8976306741
 31
0.0
  0
ARC
  5
125
330
1F
100
AcDbEntity
  8
0
  6
Continuous
 62
     7
370
    30
100
AcDbCircle
 10
243.903508289
 20
54.2685605417
 30
0.0
 40
150.2500000000001
100
AcDbArc
 50
154.0757630098
 51
175.569187303
  0
ARC
  5
126
330
1F
100
AcDbEntity
  8
0
  6
Continuous
 62
     7
370
    30
100
AcDbCircle
 10
243.903508289
 20
54.2685605417
 30
0.0
 40
150.0000000000001
100
AcDbArc
 50
154.053791878
 51
175.569187303
  0
LWPOLYLINE
  5
127
330
1F
100
AcDbEntity
  8
0
  6
Continuous
 62
     7
370
    30
100
AcDbPolyline
 90
        9
 70
   128
 43
0.0
 10
94.1025531579
 20
65.8761565897
 10
94.1511798378
 20
65.8723886914
 10
94.197937819
 20
65.8687655556
 10
94.2410305802
 20
65.8654264149
 10
94.2788012985
 20
65.8624996755
 10
94.3097989734
 20
65.8600977364
 10
94.3328324433
 20
65.8583129731
 10
94.3470164862
 20
65.857213896
 10
94.3518058125
 20
65.8568428222
  0
ARC
  5
128
330
1F
100
AcDbEntity
  8
0
  6
Continuous
 62
     7
370
    30
100
AcDbCircle
 10
87.3727263611
 20
66.3976293032
 30
0.0
 40
6.750000000000039
100
AcDbArc
 50
184.430812697
 51
355.569187303
  0
ARC
  5
129
330
1F
100
AcDbEntity
  8
0
  6
Continuous
 62
     7
370
    30
100
AcDbCircle
 10
87.3727263611
 20
66.3976293032
 30
0.0
 40
7.000000000000042
100
AcDbArc
 50
184.430812697
 51
355.569187303
  0
LWPOLYLINE
  5
12A
330
1F
100
AcDbEntity
  8
0
  6
Continuous
 62
     7
370
    30
100
AcDbPolyline
 90
        9
 70
   128
 43
0.0
 10
80.6428995643
 20
65.8761565897
 10
80.5942728844
 20
65.8723886914
 10
80.5475149032
 20
65.8687655556
 10
80.504422142
 20
65.8654264149
 10
80.4666514237
 20
65.8624996755
 10
80.4356537487
 20
65.8600977364
 10
80.4126202788
 20
65.8583129731
 10
80.398436236
 20
65.857213896
 10
80.3936469097
 20
65.8568428222
  0
ARC
  5
12B
330
1F
100
AcDbEntity
  8
0
  6
Continuous
 62
     7
370
    30
100
AcDbCircle
 10
106.0227263611
 20
122.8976293032
 30
0.0
 40
2.750000000000014
100
AcDbArc
 50
0.0
 51
90.0
  0
LINE
  5
12C
330
1F
100
AcDbEntity
  8
0
  6
Continuous
 62
     7
370
    30
100
AcDbLine
 10
106.022727276
 20
125.6476301674
 30
0.0
 11
106.022727276
 21
125.8976306741
 31
0.0
  0
ARC
  5
12D
330
1F
100
AcDbEntity
  8
0
  6
Continuous
 62
     7
370
    30
100
AcDbCircle
 10
106.0227263611
 20
122.8976293032
 30
0.0
 40
3.000000000000014
100
AcDbArc
 50
0.0
 51
90.0
  0
LINE
  5
12E
330
1F
100
AcDbEntity
  8
0
  6
Continuous
 62
     7
370
    30
100
AcDbLine
 10
100.9443882581
 20
125.8976306741
 30
0.0
 11
106.022727276
 21
125.8976306741
 31
0.0
  0
LINE
  5
12F
330
1F
100
AcDbEntity
  8
0
  6
Continuous
 62
     7
370
    30
100
AcDbLine
 10
106.022727276
 20
125.6476301674
 30
0.0
 11
100.9880672868
 21
125.6476301674
 31
0.0
  0
SPLINE
  5
130
330
1F
100
AcDbEntity
  8
0
  6
Continuous
 62
     7
370
    30
100
AcDbSpline
210
0.0
220
0.0
230
1.0
 70
     8
 71
     3
 72
    10
 73
     6
 74
     0
 42
0.000000001
 43
0.00000001
 40
0.0
 40
0.0
 40
0.0
 40
0.0
 40
0.5
 40
0.5
 40
1.0
 40
1.0
 40
1.0
 40
1.0
 10
100.9880669737824
 20
125.6476293031789
 30
0.0
 10
100.9772216885643
 20
125.713256970862
 30
0.0
 10
100.9660613469001
 20
125.7774307871012
 30
0.0
 10
100.94952779196
 20
125.8700115644918
 30
0.0
 10
100.9443880132105
 20
125.8976293031793
 30
0.0
 10
100.9443880132104
 20
125.8976293031794
 30
0.0
  0
ARC
  5
131
330
1F
100
AcDbEntity
  8
0
  6
Continuous
 62
     7
370
    30
100
AcDbCircle
 10
-69.1580555669
 20
54.2685605417
 30
0.0
 40
150.25
100
AcDbArc
 50
4.430812697
 51
25.9242369902
  0
ARC
  5
132
330
1F
100
AcDbEntity
  8
0
  6
Continuous
 62
     7
370
    30
100
AcDbCircle
 10
-69.1580555669
 20
54.2685605417
 30
0.0
 40
150.0
100
AcDbArc
 50
4.430812697
 51
25.946208122
  0
ARC
  5
133
330
1F
100
AcDbEntity
  8
0
  6
Continuous
 62
     7
370
    30
100
AcDbCircle
 10
87.3727263611
 20
99.8976293032
 30
0.0
 40
5.80000000000004
100
AcDbArc
 50
0.0
 51
180.0
  0
LINE
  5
134
330
1F
100
AcDbEntity
  8
0
  6
Continuous
 62
     7
370
    30
100
AcDbLine
 10
93.1727262873
 20
79.3976295714
 30
0.0
 11
93.1727262873
 21
99.8976301376
 31
0.0
  0
LINE
  5
135
330
1F
100
AcDbEntity
  8
0
  6
Continuous
 62
     7
370
    30
100
AcDbLine
 10
81.5727264348
 20
99.8976301376
 30
0.0
 11
81.5727264348
 21
79.3976295714
 31
0.0
  0
ARC
  5
136
330
1F
100
AcDbEntity
  8
0
  6
Continuous
 62
     7
370
    30
100
AcDbCircle
 10
87.3727263611
 20
123.3976293032
 30
0.0
 40
13.80000000000014
100
AcDbArc
 50
345.307982091
 51
9.3835949592
  0
ARC
  5
137
330
1F
100
AcDbEntity
  8
0
  6
Continuous
 62
     7
370
    30
100
AcDbCircle
 10
87.3727263611
 20
79.3976293032
 30
0.0
 40
5.800000000000011
100
AcDbArc
 50
180.0
 51
0.0
  0
LINE
  5
138
330
1F
100
AcDbEntity
  8
0
  6
Continuous
 62
     7
370
    30
100
AcDbLine
 10
100.7215087961
 20
119.8976296906
 30
0.0
 11
103.6507026952
 21
119.8976296906
 31
0.0
  0
ARC
  5
139
330
1F
100
AcDbEntity
  8
0
  6
Continuous
 62
     7
370
    30
100
AcDbCircle
 10
87.3727263611
 20
79.3976293032
 30
0.0
 40
3.25
100
AcDbArc
 50
180.0
 51
0.0
  0
LINE
  5
13A
330
1F
100
AcDbEntity
  8
0
  6
Continuous
 62
     7
370
    30
100
AcDbLine
 10
90.6227264281
 20
79.3976295714
 30
0.0
 11
90.6227264281
 21
99.8976301376
 31
0.0
  0
ARC
  5
13B
330
1F
100
AcDbEntity
  8
0
  6
Continuous
 62
     7
370
    30
100
AcDbCircle
 10
87.3727263611
 20
99.8976293032
 30
0.0
 40
3.250000000000014
100
AcDbArc
 50
0.0
 51
180.0
  0
LINE
  5
13C
330
1F
100
AcDbEntity
  8
0
  6
Continuous
 62
     7
370
    30
100
AcDbLine
 10
84.122726294
 20
99.8976301376
 30
0.0
 11
84.122726294
 21
79.3976295714
 31
0.0
  0
CIRCLE
  5
13D
330
1F
100
AcDbEntity
  8
0
  6
HIDDEN
 62
     7
370
     0
100
AcDbCircle
 10
87.3727263611
 20
123.3976293032
 30
0.0
 40
9.500000000000014
  0
CIRCLE
  5
13E
330
1F
100
AcDbEntity
  8
0
  6
HIDDEN
 62
     7
370
     0
100
AcDbCircle
 10
87.3727263611
 20
123.3976293032
 30
0.0
 40
3.5
  0
CIRCLE
  5
13F
330
1F
100
AcDbEntity
  8
0
  6
HIDDEN
 62
     7
370
     0
100
AcDbCircle
 10
87.3727263611
 20
123.3976293032
 30
0.0
 40
5.500000000000014
  0
ARC
  5
140
330
1F
100
AcDbEntity
  8
0
  6
HIDDEN
 62
     7
370
     0
100
AcDbCircle
 10
87.3727263611
 20
123.3976293032
 30
0.0
 40
15.0
100
AcDbArc
 50
346.5066011784
 51
9.5940682269
  0
ARC
  5
141
330
1F
100
AcDbEntity
  8
0
  6
HIDDEN
 62
     7
370
     0
100
AcDbCircle
 10
87.3727263611
 20
123.3976293032
 30
0.0
 40
15.0
100
AcDbArc
 50
170.4059317731
 51
193.4933988216
  0
ARC
  5
142
330
1F
100
AcDbEntity
  8
0
  6
HIDDEN
 62
     7
370
     0
100
AcDbCircle
 10
87.3727263611
 20
123.3976293032
 30
0.0
 40
15.50000000000001
100
AcDbArc
 50
170.7182009133
 51
193.0503049397
  0
ARC
  5
143
330
1F
100
AcDbEntity
  8
0
  6
HIDDEN
 62
     7
370
     0
100
AcDbCircle
 10
87.3727263611
 20
123.3976293032
 30
0.0
 40
15.50000000000001
100
AcDbArc
 50
346.9496950603
 51
9.2817990867
  0
CIRCLE
  5
144
330
1F
100
AcDbEntity
  8
0
  6
HIDDEN
 62
     7
370
     0
100
AcDbCircle
 10
87.3727263611
 20
123.3976293032
 30
0.0
 40
12.74999999999999
  0
CIRCLE
  5
145
330
1F
100
AcDbEntity
  8
0
  6
HIDDEN
 62
     7
370
     0
100
AcDbCircle
 10
87.3727263611
 20
123.3976293032
 30
0.0
 40
15.50000000000001
  0
CIRCLE
  5
146
330
1F
100
AcDbEntity
  8
0
  6
HIDDEN
 62
     7
370
     0
100
AcDbCircle
 10
87.3727263611
 20
123.3976293032
 30
0.0
 40
5.500000000000014
  0
CIRCLE
  5
147
330
1F
100
AcDbEntity
  8
0
  6
HIDDEN
 62
     7
370
     0
100
AcDbCircle
 10
87.3727263611
 20
123.3976293032
 30
0.0
 40
12.74999999999999
  0
CIRCLE
  5
148
330
1F
100
AcDbEntity
  8
0
  6
HIDDEN
 62
     7
370
     0
100
AcDbCircle
 10
87.3727263611
 20
123.3976293032
 30
0.0
 40
12.55
  0
CIRCLE
  5
149
330
1F
100
AcDbEntity
  8
0
  6
HIDDEN
 62
     7
370
     0
100
AcDbCircle
 10
87.3727263611
 20
123.3976293032
 30
0.0
 40
12.74999999999999
  0
CIRCLE
  5
14A
330
1F
100
AcDbEntity
  8
0
  6
HIDDEN
 62
     7
370
     0
100
AcDbCircle
 10
87.3727263611
 20
123.3976293032
 30
0.0
 40
12.85000000000001
  0
CIRCLE
  5
14B
330
1F
100
AcDbEntity
  8
0
  6
HIDDEN
 62
     7
370
     0
100
AcDbCircle
 10
87.3727263611
 20
123.3976293032
 30
0.0
 40
15.00000000000001
  0
DIMENSION
  5
14C
330
1F
100
AcDbEntity
  8
SLD-0
 62
     7
100
AcDbDimension
  2
_D
 10
116.0227263611
 20
99.8976293032
 30
0.0
 11
116.0227263611
 21
112.8976293032
 31
0.0
 70
   160
  1
<>
 71
     2
 42
-1.0
  3
SLDDIMSTYLE0
100
AcDbAlignedDimension
 13
106.0227263611
 23
125.8976293032
 33
0.0
 14
94.1727263611
 24
99.8976293032
 34
0.0
 50
90.0
100
AcDbRotatedDimension
  0
DIMENSION
  5
157
330
1F
100
AcDbEntity
  8
SLD-0
 62
     7
100
AcDbDimension
  2
_D_1
 10
123.0227263611
 20
79.3976293032
 30
0.0
 11
123.0227263611
 21
102.6476293032
 31
0.0
 70
   160
  1
<>
 71
     2
 42
-1.0
  3
SLDDIMSTYLE0
100
AcDbAlignedDimension
 13
106.0227263611
 23
125.8976293032
 33
0.0
 14
94.1727263611
 24
79.3976293032
 34
0.0
 50
90.0
100
AcDbRotatedDimension
  0
DIMENSION
  5
161
330
1F
100
AcDbEntity
  8
SLD-0
 62
     7
100
AcDbDimension
  2
_D_2
 10
131.0817604937
 20
125.8976293032
 30
0.0
 11
131.0817604937
 21
92.6476293032
 31
0.0
 70
   160
  1
<>
 71
     2
 42
-1.0
  3
SLDDIMSTYLE0
100
AcDbAlignedDimension
 13
87.3727263611
 23
59.3976293032
 33
0.0
 14
106.0227263611
 24
125.8976293032
 34
0.0
 50
90.0
100
AcDbRotatedDimension
  0
DIMENSION
  5
16B
330
1F
100
AcDbEntity
  8
SLD-0
 62
     7
100
AcDbDimension
  2
_D_3
 10
109.0227263611
 20
145.8976293032
 30
0.0
 11
87.3727263611
 21
145.8976293032
 31
0.0
 70
   160
  1
<>
 71
     2
 42
-1.0
  3
SLDDIMSTYLE0
100
AcDbAlignedDimension
 13
65.7227263611
 23
122.8976293032
 33
0.0
 14
109.0227263611
 24
122.8976293032
 34
0.0
 50
0.0
100
AcDbRotatedDimension
  0
DIMENSION
  5
175
330
1F
100
AcDbEntity
  8
SLD-0
 62
     7
100
AcDbDimension
  2
_D_4
 10
87.3727263611
 20
79.3976293032
 30
0.0
 11
47.1411098302
 21
61.3090063271
 31
0.0
 70
   164
  1
Both of M6 and 1/4"-20 SLOT CLR
 71
     1
 42
-1.0
  3
SLDDIMSTYLE1
100
AcDbRadialDimension
 15
84.2984614689
 25
74.4794085504
 35
0.0
 40
0.0
  0
DIMENSION
  5
17E
330
1F
100
AcDbEntity
  8
SLD-0
100
AcDbDimension
  2
_D_5
 10
91.2618136576
 20
127.2867165997
 30
0.0
 11
47.1411098302
 21
103.8465667786
 31
0.0
 70
   163
  1
1 HOLE for both of \PM6 and 1/4"-20 CLR
 71
     1
 42
-1.0
  3
SLDDIMSTYLE2
100
AcDbDiametricDimension
 15
83.4836390646
 25
119.5085420067
 35
0.0
 40
0.0
  0
INSERT
  5
193
330
1F
100
AcDbEntity
  8
SLD-0
 62
     7
100
AcDbBlockReference
  2
SW_CENTERMARKSYMBOL_0
 10
87.3727263611
 20
123.3976293032
 30
0.0
  0
INSERT
  5
19F
330
1F
100
AcDbEntity
  8
SLD-0
 62
     7
100
AcDbBlockReference
  2
SW_CENTERMARKSYMBOL_1
 10
87.3727263611
 20
79.3976293032
 30
0.0
  0
INSERT
  5
1AB
330
1F
100
AcDbEntity
  8
SLD-0
 62
     7
100
AcDbBlockReference
  2
SW_CENTERMARKSYMBOL_2
 10
87.3727263611
 20
99.8976293032
 30
0.0
  0
LINE
  5
1AC
330
1F
100
AcDbEntity
  8
0
  6
Continuous
 62
     7
370
    30
100
AcDbLine
 10
162.7056958802
 20
107.8976277237
 30
0.0
 11
163.2056958603
 21
108.3976287369
 31
0.0
  0
LINE
  5
1AD
330
1F
100
AcDbEntity
  8
0
  6
Continuous
 62
     7
370
    30
100
AcDbLine
 10
163.2056958603
 20
138.3976262037
 30
0.0
 11
162.7056958802
 21
138.897627217
 31
0.0
  0
LINE
  5
1AE
330
1F
100
AcDbEntity
  8
0
  6
Continuous
 62
     7
370
    30
100
AcDbLine
 10
162.5056958852
 20
107.8976277237
 30
0.0
 11
162.7056958802
 21
107.8976277237
 31
0.0
  0
LINE
  5
1AF
330
1F
100
AcDbEntity
  8
0
  6
Continuous
 62
     7
370
    30
100
AcDbLine
 10
162.7056958802
 20
138.897627217
 30
0.0
 11
158.9056959471
 21
138.897627217
 31
0.0
  0
LINE
  5
1B0
330
1F
100
AcDbEntity
  8
0
  6
Continuous
 62
     7
370
    30
100
AcDbLine
 10
158.9056959471
 20
138.897627217
 30
0.0
 11
158.4056958651
 21
138.3976262037
 31
0.0
  0
LINE
  5
1B1
330
1F
100
AcDbEntity
  8
0
  6
Continuous
 62
     7
370
    30
100
AcDbLine
 10
150.9056960327
 20
110.6476295714
 30
0.0
 11
151.7056956051
 21
110.6476295714
 31
0.0
  0
LINE
  5
1B2
330
1F
100
AcDbEntity
  8
0
  6
Continuous
 62
     7
370
    30
100
AcDbLine
 10
158.4056958651
 20
136.1476328199
 30
0.0
 11
150.9056960327
 21
136.1476328199
 31
0.0
  0
ARC
  5
1B3
330
1F
100
AcDbEntity
  8
0
  6
Continuous
 62
     7
370
    30
100
AcDbCircle
 10
150.9056958852
 20
135.9476293032
 30
0.0
 40
0.2000000000000171
100
AcDbArc
 50
90.0
 51
180.0
  0
ARC
  5
1B4
330
1F
100
AcDbEntity
  8
0
  6
Continuous
 62
     7
370
    30
100
AcDbCircle
 10
150.9056958852
 20
110.8476293032
 30
0.0
 40
0.2000000000000028
100
AcDbArc
 50
180.0
 51
270.0
  0
ARC
  5
1B5
330
1F
100
AcDbEntity
  8
0
  6
Continuous
 62
     7
370
    30
100
AcDbCircle
 10
162.9556958852
 20
59.6476293032
 30
0.0
 40
0.25
100
AcDbArc
 50
270.0
 51
0.0
  0
LINE
  5
1B6
330
1F
100
AcDbEntity
  8
0
  6
Continuous
 62
     7
370
    30
100
AcDbLine
 10
151.9556961117
 20
59.3976290871
 30
0.0
 11
162.9556958775
 21
59.3976290871
 31
0.0
  0
ARC
  5
1B7
330
1F
100
AcDbEntity
  8
0
  6
Continuous
 62
     7
370
    30
100
AcDbCircle
 10
151.9556958852
 20
59.6476293032
 30
0.0
 40
0.25
100
AcDbArc
 50
180.0
 51
270.0
  0
LINE
  5
1B8
330
1F
100
AcDbEntity
  8
0
  6
Continuous
 62
     7
370
    30
100
AcDbLine
 10
162.7056958802
 20
107.8976277237
 30
0.0
 11
162.7056958802
 21
138.897627217
 31
0.0
  0
LINE
  5
1B9
330
1F
100
AcDbEntity
  8
0
  6
Continuous
 62
     7
370
    30
100
AcDbLine
 10
163.2056958603
 20
138.3976262037
 30
0.0
 11
163.2056958603
 21
108.3976287369
 31
0.0
  0
LINE
  5
1BA
330
1F
100
AcDbEntity
  8
0
  6
Continuous
 62
     7
370
    30
100
AcDbLine
 10
158.9056959471
 20
138.897627217
 30
0.0
 11
158.9056959471
 21
125.8976306741
 31
0.0
  0
LINE
  5
1BB
330
1F
100
AcDbEntity
  8
0
  6
Continuous
 62
     7
370
    30
100
AcDbLine
 10
158.4056958651
 20
125.8976306741
 30
0.0
 11
158.4056958651
 21
138.3976262037
 31
0.0
  0
LINE
  5
1BC
330
1F
100
AcDbEntity
  8
0
  6
Continuous
 62
     7
370
    30
100
AcDbLine
 10
150.7056954412
 20
110.8476292317
 30
0.0
 11
150.7056954412
 21
135.9476294343
 31
0.0
  0
LINE
  5
1BD
330
1F
100
AcDbEntity
  8
0
  6
Continuous
 62
     7
370
    30
100
AcDbLine
 10
151.9556961117
 20
125.8976306741
 30
0.0
 11
151.9556961117
 21
122.8976283197
 31
0.0
  0
LINE
  5
1BE
330
1F
100
AcDbEntity
  8
0
  6
Continuous
 62
     7
370
    30
100
AcDbLine
 10
151.9556961117
 20
125.8976306741
 30
0.0
 11
162.2556958733
 21
125.8976306741
 31
0.0
  0
LINE
  5
1BF
330
1F
100
AcDbEntity
  8
0
  6
Continuous
 62
     7
370
    30
100
AcDbLine
 10
162.2556958733
 20
122.8976283197
 30
0.0
 11
162.2556958733
 21
125.8976306741
 31
0.0
  0
LINE
  5
1C0
330
1F
100
AcDbEntity
  8
0
  6
Continuous
 62
     7
370
    30
100
AcDbLine
 10
151.9556961117
 20
122.8976283197
 30
0.0
 11
162.2556958733
 21
122.8976283197
 31
0.0
  0
ARC
  5
1C1
330
1F
100
AcDbEntity
  8
0
  6
Continuous
 62
     7
370
    30
100
AcDbCircle
 10
162.2556958852
 20
125.6476293032
 30
0.0
 40
0.25
100
AcDbArc
 50
0.0
 51
90.0
  0
LINE
  5
1C2
330
1F
100
AcDbEntity
  8
0
  6
Continuous
 62
     7
370
    30
100
AcDbLine
 10
162.5056958852
 20
125.6476301674
 30
0.0
 11
162.5056958852
 21
122.8976283197
 31
0.0
  0
LINE
  5
1C3
330
1F
100
AcDbEntity
  8
0
  6
Continuous
 62
     7
370
    30
100
AcDbLine
 10
162.2556958733
 20
122.8976283197
 30
0.0
 11
162.5056958852
 21
122.8976283197
 31
0.0
  0
LINE
  5
1C4
330
1F
100
AcDbEntity
  8
0
  6
Continuous
 62
     7
370
    30
100
AcDbLine
 10
162.2556958733
 20
119.8976296906
 30
0.0
 11
162.2556958733
 21
122.8976283197
 31
0.0
  0
LINE
  5
1C5
330
1F
100
AcDbEntity
  8
0
  6
Continuous
 62
     7
370
    30
100
AcDbLine
 10
162.5056958852
 20
122.8976283197
 30
0.0
 11
162.5056958852
 21
119.9551966016
 31
0.0
  0
SPLINE
  5
1C6
330
1F
100
AcDbEntity
  8
0
  6
Continuous
 62
     7
370
    30
100
AcDbSpline
210
0.0
220
0.0
230
1.0
 70
     8
 71
     3
 72
    10
 73
     6
 74
     0
 42
0.000000001
 43
0.00000001
 40
0.0
 40
0.0
 40
0.0
 40
0.0
 40
0.5
 40
0.5
 40
1.0
 40
1.0
 40
1.0
 40
1.0
 10
162.2556958852162
 20
119.897629303179
 30
0.0
 10
162.3226007436685
 20
119.897629303179
 30
0.0
 10
162.3877705096484
 20
119.9040721331995
 30
0.0
 10
162.4793301910124
 20
119.9254190973433
 30
0.0
 10
162.5056958852162
 20
119.9404048629552
 30
0.0
 10
162.5056958852162
 20
119.9551975048979
 30
0.0
  0
LINE
  5
1C7
330
1F
100
AcDbEntity
  8
0
  6
Continuous
 62
     7
370
    30
100
AcDbLine
 10
151.9556961117
 20
119.8976296906
 30
0.0
 11
162.2556958733
 21
119.8976296906
 31
0.0
  0
LINE
  5
1C8
330
1F
100
AcDbEntity
  8
0
  6
Continuous
 62
     7
370
    30
100
AcDbLine
 10
151.9556961117
 20
122.8976283197
 30
0.0
 11
151.9556961117
 21
119.8976296906
 31
0.0
  0
LINE
  5
1C9
330
1F
100
AcDbEntity
  8
0
  6
Continuous
 62
     7
370
    30
100
AcDbLine
 10
151.9556961117
 20
119.8976296906
 30
0.0
 11
151.9556961117
 21
65.8568428222
 31
0.0
  0
LINE
  5
1CA
330
1F
100
AcDbEntity
  8
0
  6
Continuous
 62
     7
370
    30
100
AcDbLine
 10
162.2556958733
 20
66.8976293269
 30
0.0
 11
162.2556958733
 21
119.8976296906
 31
0.0
  0
LINE
  5
1CB
330
1F
100
AcDbEntity
  8
0
  6
Continuous
 62
     7
370
    30
100
AcDbLine
 10
162.9556958775
 20
66.8976293269
 30
0.0
 11
162.2556958733
 21
66.8976293269
 31
0.0
  0
LINE
  5
1CC
330
1F
100
AcDbEntity
  8
0
  6
Continuous
 62
     7
370
    30
100
AcDbLine
 10
162.9556958775
 20
65.8568428222
 30
0.0
 11
162.9556958775
 21
66.8976293269
 31
0.0
  0
LINE
  5
1CD
330
1F
100
AcDbEntity
  8
0
  6
Continuous
 62
     7
370
    30
100
AcDbLine
 10
151.9556961117
 20
65.8568428222
 30
0.0
 11
162.9556958775
 21
65.8568428222
 31
0.0
  0
LINE
  5
1CE
330
1F
100
AcDbEntity
  8
0
  6
Continuous
 62
     7
370
    30
100
AcDbLine
 10
162.5056958852
 20
119.9551966016
 30
0.0
 11
162.5056958852
 21
66.8976293269
 31
0.0
  0
LINE
  5
1CF
330
1F
100
AcDbEntity
  8
0
  6
Continuous
 62
     7
370
    30
100
AcDbLine
 10
151.7056956051
 20
122.8976283197
 30
0.0
 11
151.7056956051
 21
125.6476301674
 31
0.0
  0
ARC
  5
1D0
330
1F
100
AcDbEntity
  8
0
  6
Continuous
 62
     7
370
    30
100
AcDbCircle
 10
151.9556958852
 20
125.6476293032
 30
0.0
 40
0.25
100
AcDbArc
 50
90.0
 51
180.0
  0
LINE
  5
1D1
330
1F
100
AcDbEntity
  8
0
  6
Continuous
 62
     7
370
    30
100
AcDbLine
 10
151.7056956051
 20
122.8976283197
 30
0.0
 11
151.9556961117
 21
122.8976283197
 31
0.0
  0
LINE
  5
1D2
330
1F
100
AcDbEntity
  8
0
  6
Continuous
 62
     7
370
    30
100
AcDbLine
 10
151.7056956051
 20
119.9551966016
 30
0.0
 11
151.7056956051
 21
122.8976283197
 31
0.0
  0
SPLINE
  5
1D3
330
1F
100
AcDbEntity
  8
0
  6
Continuous
 62
     7
370
    30
100
AcDbSpline
210
0.0
220
0.0
230
1.0
 70
     8
 71
     3
 72
    10
 73
     6
 74
     0
 42
0.000000001
 43
0.00000001
 40
0.0
 40
0.0
 40
0.0
 40
0.0
 40
0.5
 40
0.5
 40
1.0
 40
1.0
 40
1.0
 40
1.0
 10
151.9556958852162
 20
119.897629303179
 30
0.0
 10
151.8887910267639
 20
119.897629303179
 30
0.0
 10
151.823621260784
 20
119.9040721331994
 30
0.0
 10
151.73206157942
 20
119.9254190973433
 30
0.0
 10
151.7056958852162
 20
119.9404048629547
 30
0.0
 10
151.7056958852162
 20
119.9551975048979
 30
0.0
  0
LINE
  5
1D4
330
1F
100
AcDbEntity
  8
0
  6
Continuous
 62
     7
370
    30
100
AcDbLine
 10
151.7056956051
 20
65.8761565897
 30
0.0
 11
151.7056956051
 21
119.9551966016
 31
0.0
  0
ARC
  5
1D5
330
1F
100
AcDbEntity
  8
0
  6
Continuous
 62
     7
370
    30
100
AcDbCircle
 10
151.8935691394
 20
66.6803415448
 30
0.0
 40
0.8258389109070209
100
AcDbArc
 50
256.8504124225
 51
274.314375821
  0
LINE
  5
1D6
330
1F
100
AcDbEntity
  8
0
  6
Continuous
 62
     7
370
    30
100
AcDbLine
 10
163.2056958603
 20
66.8976293269
 30
0.0
 11
163.2056958603
 21
65.8761565897
 31
0.0
  0
ARC
  5
1D7
330
1F
100
AcDbEntity
  8
0
  6
Continuous
 62
     7
370
    30
100
AcDbCircle
 10
163.0178230308
 20
66.6803341057
 30
0.0
 40
0.8258315065997657
100
AcDbArc
 50
265.685572829
 51
283.1496573682
  0
SPLINE
  5
1D8
330
1F
100
AcDbEntity
  8
0
  6
Continuous
 62
     7
370
    30
100
AcDbSpline
210
0.0
220
0.0
230
1.0
 70
    24
 71
     3
 72
    10
 73
     6
 74
     0
 42
0.000000001
 43
0.00000001
 40
0.0
 40
0.0
 40
0.0
 40
0.0
 40
0.5
 40
0.5
 40
1.0
 40
1.0
 40
1.0
 40
1.0
 10
162.9556958852162
 20
66.89762930317963
 30
0.0
 10
163.0218417776848
 20
66.89762930317963
 30
0.0
 10
163.0864933612882
 20
66.89762930317963
 30
0.0
 10
163.1786394482907
 20
66.89762930317963
 30
0.0
 10
163.2056958852175
 20
66.89762930317963
 30
0.0
 10
163.2056958852176
 20
66.89762930317963
 30
0.0
  0
LINE
  5
1D9
330
1F
100
AcDbEntity
  8
0
  6
Continuous
 62
     7
370
    30
100
AcDbLine
 10
163.2056958603
 20
65.8761565897
 30
0.0
 11
163.2056958603
 21
59.6476291281
 31
0.0
  0
LINE
  5
1DA
330
1F
100
AcDbEntity
  8
0
  6
Continuous
 62
     7
370
    30
100
AcDbLine
 10
151.7056956051
 20
59.6476291281
 30
0.0
 11
151.7056956051
 21
65.8761565897
 31
0.0
  0
LINE
  5
1DB
330
1F
100
AcDbEntity
  8
0
  6
Continuous
 62
     8
370
    30
100
AcDbLine
 10
150.9056960327
 20
136.1476328199
 30
0.0
 11
150.9056960327
 21
110.6476295714
 31
0.0
  0
LINE
  5
1DC
330
1F
100
AcDbEntity
  8
0
  6
Continuous
 62
     8
370
    30
100
AcDbLine
 10
162.9556958775
 20
59.3976290871
 30
0.0
 11
162.9556958775
 21
65.8568428222
 31
0.0
  0
LINE
  5
1DD
330
1F
100
AcDbEntity
  8
0
  6
Continuous
 62
     8
370
    30
100
AcDbLine
 10
151.9556961117
 20
65.8568428222
 30
0.0
 11
151.9556961117
 21
59.3976290871
 31
0.0
  0
DIMENSION
  5
1DE
330
1F
100
AcDbEntity
  8
SLD-0
 62
     7
100
AcDbDimension
  2
_D_6
 10
151.7056958852
 20
50.9213638375
 30
0.0
 11
157.4556958852
 21
50.9213638375
 31
0.0
 70
   160
  1
<>
 71
     2
 42
-1.0
  3
SLDDIMSTYLE0
100
AcDbAlignedDimension
 13
163.2056958852
 23
59.6476293032
 33
0.0
 14
151.7056958852
 24
59.6476293032
 34
0.0
 50
0.0
100
AcDbRotatedDimension
  0
DIMENSION
  5
1E8
330
1F
100
AcDbEntity
  8
SLD-0
 62
     7
100
AcDbDimension
  2
_D_7
 10
158.4056958852
 20
142.9366786113
 30
0.0
 11
154.5556958852
 21
142.9366786113
 31
0.0
 70
   160
  1
<>
 71
     2
 42
-1.0
  3
SLDDIMSTYLE0
100
AcDbAlignedDimension
 13
150.7056958852
 23
135.9476293032
 33
0.0
 14
158.4056958852
 24
138.3976293032
 34
0.0
100
AcDbRotatedDimension
  0
DIMENSION
  5
1F2
330
1F
100
AcDbEntity
  8
SLD-0
 62
     7
100
AcDbDimension
  2
_D_8
 10
163.2056958852
 20
149.2421903889
 30
0.0
 11
156.9556958852
 21
149.2421903889
 31
0.0
 70
   160
  1
<>
 71
     2
 42
-1.0
  3
SLDDIMSTYLE0
100
AcDbAlignedDimension
 13
150.7056958852
 23
135.9476293032
 33
0.0
 14
163.2056958852
 24
138.3976293032
 34
0.0
100
AcDbRotatedDimension
  0
SPLINE
  5
1FC
330
1F
100
AcDbEntity
  8
0
  6
Continuous
 62
     7
370
    30
100
AcDbSpline
210
0.0
220
0.0
230
1.0
 70
     8
 71
     3
 72
    12
 73
     8
 74
     0
 42
0.000000001
 43
0.00000001
 40
0.0
 40
0.0
 40
0.0
 40
0.0
 40
0.112405391520044
 40
0.3934028644464354
 40
0.6748724484879469
 40
0.9420449125851403
 40
1.0
 40
1.0
 40
1.0
 40
1.0
 10
229.1871847030359
 20
152.1647146424033
 30
0.0
 10
229.1210526139421
 20
152.2429742203534
 30
0.0
 10
228.8895997189386
 20
152.5168715994703
 30
0.0
 10
228.4032203022555
 20
152.9566598121998
 30
0.0
 10
227.7459491267582
 20
153.4704310892726
 30
0.0
 10
227.2099677494654
 20
153.8195566837721
 30
0.0
 10
226.9063423131308
 20
153.9968837558882
 30
0.0
 10
226.8522200505839
 20
154.028492907182
 30
0.0
  0
SPLINE
  5
1FD
330
1F
100
AcDbEntity
  8
0
  6
Continuous
 62
     7
370
    30
100
AcDbSpline
210
0.0
220
0.0
230
1.0
 70
     8
 71
     3
 72
    29
 73
    25
 74
     0
 42
0.000000001
 43
0.00000001
 40
0.0
 40
0.0
 40
0.0
 40
0.0
 40
0.0245902161964216
 40
0.0712727792494484
 40
0.1179523004751211
 40
0.164618335149493
 40
0.2112701919271581
 40
0.2579090438664424
 40
0.3045371060757094
 40
0.3511571481628769
 40
0.3977722212539582
 40
0.4443855161767807
 40
0.4910001776353839
 40
0.5376185366267856
 40
0.5842439230423258
 40
0.6308796548656855
 40
0.6775289546262896
 40
0.7241947769830135
 40
0.7708794812527453
 40
0.8175842514967773
 40
0.8643081284682067
 40
0.9110464922923848
 40
0.9577856389240476
 40
1.0
 40
1.0
 40
1.0
 40
1.0
 10
226.8522200505839
 20
154.028492907182
 30
0.0
 10
226.7108958249319
 20
154.1078265672178
 30
0.0
 10
226.301278835108
 20
154.337768849694
 30
0.0
 10
225.5727890009707
 20
154.6859255429044
 30
0.0
 10
224.6527205901201
 20
155.0554680441243
 30
0.0
 10
223.6800913139085
 20
155.3759246887474
 30
0.0
 10
222.6636156264885
 20
155.6456434162461
 30
0.0
 10
221.6107270778823
 20
155.8624919810049
 30
0.0
 10
220.5295267572772
 20
156.0249538092361
 30
0.0
 10
219.4282078074583
 20
156.1318424174432
 30
0.0
 10
218.315138428196
 20
156.1823894546141
 30
0.0
 10
217.1987649439415
 20
156.1762297629303
 30
0.0
 10
216.087566137601
 20
156.1134106269911
 30
0.0
 10
214.9899790499013
 20
155.9943906547538
 30
0.0
 10
213.9143343098157
 20
155.8200351228803
 30
0.0
 10
212.868789182971
 20
155.5916041678316
 30
0.0
 10
211.8612703496006
 20
155.3107424181347
 30
0.0
 10
210.8994408268567
 20
154.9794557804443
 30
0.0
 10
209.9905681151548
 20
154.6001200852409
 30
0.0
 10
209.1417890564628
 20
154.1753624550359
 30
0.0
 10
208.3589282159403
 20
153.7084204788521
 30
0.0
 10
207.6507731669549
 20
153.2017495695529
 30
0.0
 10
207.0335324718408
 20
152.6795838844534
 30
0.0
 10
206.6968058338486
 20
152.3123841338963
 30
0.0
 10
206.5370066281016
 20
152.1381234076305
 30
0.0
  0
LINE
  5
1FE
330
1F
100
AcDbEntity
  8
0
  6
Continuous
 62
     7
370
    30
100
AcDbLine
 10
205.1280380734
 20
148.732322233
 30
0.0
 11
205.1280380734
 21
142.6082661439
 31
0.0
  0
LINE
  5
1FF
330
1F
100
AcDbEntity
  8
0
  6
Continuous
 62
     7
370
    30
100
AcDbLine
 10
230.6280380734
 20
143.4565297301
 30
0.0
 11
230.6280380734
 21
148.732322233
 31
0.0
  0
LINE
  5
200
330
1F
100
AcDbEntity
  8
0
  6
Continuous
 62
     7
370
    30
100
AcDbLine
 10
202.3780380734
 20
142.1999957379
 30
0.0
 11
202.3780380734
 21
139.0971406528
 31
0.0
  0
LINE
  5
201
330
1F
100
AcDbEntity
  8
0
  6
Continuous
 62
     7
370
    30
100
AcDbLine
 10
206.9161020658
 20
132.7710060445
 30
0.0
 11
207.2697129047
 21
132.5668044969
 31
0.0
  0
SPLINE
  5
202
330
1F
100
AcDbEntity
  8
0
  6
Continuous
 62
     7
370
    30
100
AcDbSpline
210
0.0
220
0.0
230
1.0
 70
     8
 71
     3
 72
    13
 73
     9
 74
     0
 42
0.000000001
 43
0.00000001
 40
0.0
 40
0.0
 40
0.0
 40
0.0
 40
0.0861725600302102
 40
0.281982957000336
 40
0.4777359108421576
 40
0.6734306194245688
 40
0.8691226479445623
 40
1.0
 40
1.0
 40
1.0
 40
1.0
 10
229.8004480692458
 20
143.9305970340137
 30
0.0
 10
229.7141918716561
 20
143.84761528303
 30
0.0
 10
229.4319352269953
 20
143.5760736285723
 30
0.0
 10
228.8920113882553
 20
143.1363900395937
 30
0.0
 10
228.1566091485225
 20
142.6261264440451
 30
0.0
 10
227.3455408188986
 20
142.1537937579137
 30
0.0
 10
226.5693158673479
 20
141.7654192344237
 30
0.0
 10
226.0469573310434
 20
141.5496520185391
 30
0.0
 10
225.8376146733373
 20
141.4631802194207
 30
0.0
  0
SPLINE
  5
203
330
1F
100
AcDbEntity
  8
0
  6
Continuous
 62
     7
370
    30
100
AcDbSpline
210
0.0
220
0.0
230
1.0
 70
     8
 71
     3
 72
    16
 73
    12
 74
     0
 42
0.000000001
 43
0.00000001
 40
0.0
 40
0.0
 40
0.0
 40
0.0
 40
0.0632715792470092
 40
0.1824350490276984
 40
0.3013899871023917
 40
0.4200844868399938
 40
0.5386392565436394
 40
0.6572386525775867
 40
0.7760330904456572
 40
0.8952257339977381
 40
1.0
 40
1.0
 40
1.0
 40
1.0
 10
229.3495994433114
 20
130.7166070339731
 30
0.0
 10
229.4214531255846
 20
130.6775243923659
 30
0.0
 10
229.6286335090099
 20
130.5648348764316
 30
0.0
 10
230.0180613634382
 20
130.4157095126116
 30
0.0
 10
230.5208842911522
 20
130.2901186831799
 30
0.0
 10
231.0530558541569
 20
130.2217265099924
 30
0.0
 10
231.5962992989874
 20
130.2115236734874
 30
0.0
 10
232.1342995311331
 20
130.25965474586
 30
0.0
 10
232.6487119478036
 20
130.3659594527322
 30
0.0
 10
233.1091706507814
 20
130.5175102305382
 30
0.0
 10
233.3677159794827
 20
130.6531521856173
 30
0.0
 10
233.4886664229965
 20
130.7166070339732
 30
0.0
  0
SPLINE
  5
204
330
1F
100
AcDbEntity
  8
0
  6
Continuous
 62
     7
370
    30
100
AcDbSpline
210
0.0
220
0.0
230
1.0
 70
     8
 71
     3
 72
    11
 73
     7
 74
     0
 42
0.000000001
 43
0.00000001
 40
0.0
 40
0.0
 40
0.0
 40
0.0
 40
0.1778907693063199
 40
0.4537286869755969
 40
0.728815084124966
 40
1.0
 40
1.0
 40
1.0
 40
1.0
 10
233.5821035361288
 20
145.2086092454752
 30
0.0
 10
233.5052144525362
 20
145.0607813131318
 30
0.0
 10
233.3091009437958
 20
144.683730981054
 30
0.0
 10
232.8872561805661
 20
144.0961151497464
 30
0.0
 10
232.3422597160822
 20
143.4495130840473
 30
0.0
 10
231.9057747208186
 20
143.0417106424766
 30
0.0
 10
231.6890909157219
 20
142.8392656885237
 30
0.0
  0
LINE
  5
205
330
1F
100
AcDbEntity
  8
0
  6
Continuous
 62
     7
370
    30
100
AcDbLine
 10
231.694773084
 20
142.8407167165
 30
0.0
 11
229.8072397436
 21
143.9303665201
 31
0.0
  0
LINE
  5
206
330
1F
100
AcDbEntity
  8
0
  6
Continuous
 62
     7
370
    30
100
AcDbLine
 10
227.6835655493
 20
131.6783879289
 30
0.0
 11
229.3495994433
 21
130.716607034
 31
0.0
  0
LINE
  5
207
330
1F
100
AcDbEntity
  8
0
  6
Continuous
 62
     7
370
    30
100
AcDbLine
 10
233.488666423
 20
130.716607034
 30
0.0
 11
235.5979796686
 21
131.9342876516
 31
0.0
  0
SPLINE
  5
208
330
1F
100
AcDbEntity
  8
0
  6
Continuous
 62
     7
370
    30
100
AcDbSpline
210
0.0
220
0.0
230
1.0
 70
     8
 71
     3
 72
    23
 73
    19
 74
     0
 42
0.000000001
 43
0.00000001
 40
0.0
 40
0.0
 40
0.0
 40
0.0
 40
0.0302819596679577
 40
0.0994898404109086
 40
0.1686935756216174
 40
0.2378909315348046
 40
0.3070825405414335
 40
0.3762690460272801
 40
0.4454510840055445
 40
0.5146292689578525
 40
0.5838041833199572
 40
0.6529763701947351
 40
0.722146328813145
 40
0.7913145122507027
 40
0.8604813269309036
 40
0.9296471334893788
 40
0.9951709635620118
 40
1.0
 40
1.0
 40
1.0
 40
1.0
 10
235.6435434695157
 20
131.9770333207738
 30
0.0
 10
235.8264836643428
 20
132.2807122842734
 30
0.0
 10
236.4275243825677
 20
133.2784340944206
 30
0.0
 10
237.5148328367493
 20
134.9564407104475
 30
0.0
 10
238.9373345691246
 20
137.0027829005181
 30
0.0
 10
240.4516183247172
 20
139.0272395595811
 30
0.0
 10
242.054420276758
 20
141.0289146740205
 30
0.0
 10
243.7453111659344
 20
143.0064005578537
 30
0.0
 10
245.523036580372
 20
144.9584521337043
 30
0.0
 10
247.3864933425949
 20
146.8837992701407
 30
0.0
 10
249.3344657985628
 20
148.7811992675091
 30
0.0
 10
251.3657066824221
 20
150.6494190045651
 30
0.0
 10
253.4788800664958
 20
152.4872587064131
 30
0.0
 10
255.6727118800345
 20
154.2934798542138
 30
0.0
 10
257.945448569501
 20
156.0670750916109
 30
0.0
 10
260.2556118909175
 20
157.7757458603309
 30
0.0
 10
261.8841520919084
 20
158.9234239254104
 30
0.0
 10
262.7206641708452
 20
159.4947050790266
 30
0.0
 10
262.7780825463907
 20
159.5339179447416
 30
0.0
  0
SPLINE
  5
209
330
1F
100
AcDbEntity
  8
0
  6
Continuous
 62
     7
370
    30
100
AcDbSpline
210
0.0
220
0.0
230
1.0
 70
     8
 71
     3
 72
    23
 73
    19
 74
     0
 42
0.000000001
 43
0.00000001
 40
0.0
 40
0.0
 40
0.0
 40
0.0
 40
0.0357238914089414
 40
0.1036137555937241
 40
0.1715055918609674
 40
0.2393981076159448
 40
0.3072913345666822
 40
0.3751852925652275
 40
0.4430799912123787
 40
0.5109754313392598
 40
0.5788716063090151
 40
0.6467685031544316
 40
0.7146661035671864
 40
0.7825643847543164
 40
0.850463320176107
 40
0.9183628801792043
 40
0.9862630325370144
 40
1.0
 40
1.0
 40
1.0
 40
1.0
 10
253.6823829070749
 20
174.3267146193831
 30
0.0
 10
253.1712414359122
 20
174.0761419751501
 30
0.0
 10
251.6887241238815
 20
173.3493798085982
 30
0.0
 10
249.18685755266
 20
172.1792893758279
 30
0.0
 10
246.1584114120727
 20
170.8316561910488
 30
0.0
 10
243.0704529125648
 20
169.5295288042076
 30
0.0
 10
239.9261122320845
 20
168.2730399916333
 30
0.0
 10
236.7271378541421
 20
167.0632074801916
 30
0.0
 10
233.4756891315814
 20
165.9007708886473
 30
0.0
 10
230.1738591786503
 20
164.7865056600615
 30
0.0
 10
226.8238022382421
 20
163.7211360037334
 30
0.0
 10
223.4276928329436
 20
162.7053660898596
 30
0.0
 10
219.9877531835603
 20
161.739839383577
 30
0.0
 10
216.5061756691339
 20
160.8252673214036
 30
0.0
 10
212.9853967578028
 20
159.961952620076
 30
0.0
 10
209.4270699013567
 20
159.1515648903126
 30
0.0
 10
206.7907820091821
 20
158.5928755389382
 30
0.0
 10
205.3420587765852
 20
158.3035820466057
 30
0.0
 10
205.0982840825154
 20
158.2549030228951
 30
0.0
  0
SPLINE
  5
20A
330
1F
100
AcDbEntity
  8
0
  6
Continuous
 62
     7
370
    30
100
AcDbSpline
210
0.0
220
0.0
230
1.0
 70
     8
 71
     3
 72
    12
 73
     8
 74
     0
 42
0.000000001
 43
0.00000001
 40
0.0
 40
0.0
 40
0.0
 40
0.0
 40
0.1226968415825945
 40
0.3553670879015656
 40
0.58759170772701
 40
0.8147880784635462
 40
1.0
 40
1.0
 40
1.0
 40
1.0
 10
202.9745165050513
 20
157.0311354205919
 30
0.0
 10
202.9062051520963
 20
156.9892754390306
 30
0.0
 10
202.7083548549159
 20
156.8680362974589
 30
0.0
 10
202.4359223191919
 20
156.6324860188797
 30
0.0
 10
202.200131619919
 20
156.3174088155062
 30
0.0
 10
202.0613053445188
 20
155.9926216893693
 30
0.0
 10
202.0540883614379
 20
155.7750692403934
 30
0.0
 10
202.0508472255802
 20
155.6773667745004
 30
0.0
  0
LINE
  5
20B
330
1F
100
AcDbEntity
  8
0
  6
Continuous
 62
     7
370
    30
100
AcDbLine
 10
202.0440499949
 20
155.6920620512
 30
0.0
 11
202.0440499949
 21
147.2816916888
 31
0.0
  0
LINE
  5
20C
330
1F
100
AcDbEntity
  8
0
  6
Continuous
 62
     7
370
    30
100
AcDbLine
 10
205.0838297507
 20
158.2488160382
 30
0.0
 11
202.9745165051
 21
157.0311354206
 31
0.0
  0
LINE
  5
20D
330
1F
100
AcDbEntity
  8
0
  6
Continuous
 62
     7
370
    30
100
AcDbLine
 10
202.9745165051
 20
145.9426183195
 30
0.0
 11
203.5485863608
 21
145.6112148459
 31
0.0
  0
SPLINE
  5
20E
330
1F
100
AcDbEntity
  8
0
  6
Continuous
 62
     7
370
    30
100
AcDbSpline
210
0.0
220
0.0
230
1.0
 70
     8
 71
     3
 72
    13
 73
     9
 74
     0
 42
0.000000001
 43
0.00000001
 40
0.0
 40
0.0
 40
0.0
 40
0.0
 40
0.0513091099490774
 40
0.2653976667370958
 40
0.4792381744136993
 40
0.6980768964114169
 40
0.9234068370392856
 40
0.9999999999999999
 40
0.9999999999999999
 40
0.9999999999999999
 40
0.9999999999999999
 10
202.0532872548077
 20
147.2941300997107
 30
0.0
 10
202.0501928096359
 20
147.2672709029779
 30
0.0
 10
202.0341867138524
 20
147.1283410296981
 30
0.0
 10
202.1037038991535
 20
146.8773916837716
 30
0.0
 10
202.2586292972447
 20
146.5612341261131
 30
0.0
 10
202.508444074561
 20
146.2713608078679
 30
0.0
 10
202.761841878498
 20
146.0701398926597
 30
0.0
 10
202.9314815716319
 20
145.9684224433565
 30
0.0
 10
202.9745165050516
 20
145.9426183194659
 30
0.0
  0
SPLINE
  5
20F
330
1F
100
AcDbEntity
  8
0
  6
Continuous
 62
     7
370
    30
100
AcDbSpline
210
0.0
220
0.0
230
1.0
 70
     8
 71
     3
 72
    24
 73
    20
 74
     0
 42
0.000000001
 43
0.00000001
 40
0.0
 40
0.0
 40
0.0
 40
0.0
 40
0.0288177275441637
 40
0.0899566179075479
 40
0.151611514567844
 40
0.2135814952182482
 40
0.2756869715420021
 40
0.3378003216489458
 40
0.3998708425296675
 40
0.4618887966653303
 40
0.523860288526643
 40
0.5857987780208598
 40
0.6477208806397178
 40
0.709644530952078
 40
0.7715838212749877
 40
0.8335559650440594
 40
0.8955798100689675
 40
0.957672998826251
 40
1.0
 40
1.0
 40
1.0
 40
1.0
 10
264.7267680170635
 20
172.6051617301123
 30
0.0
 10
264.6832438676432
 20
172.6784959067855
 30
0.0
 10
264.5473800916687
 20
172.9074138358779
 30
0.0
 10
264.2234930569741
 20
173.2649626261444
 30
0.0
 10
263.7648507843536
 20
173.6730828302853
 30
0.0
 10
263.2221399309147
 20
174.044511565066
 30
0.0
 10
262.609784385913
 20
174.3754061008594
 30
0.0
 10
261.9353089990892
 20
174.6606054782301
 30
0.0
 10
261.2090578773957
 20
174.8964589133487
 30
0.0
 10
260.4411853269569
 20
175.0799705146482
 30
0.0
 10
259.6423817847449
 20
175.2088932382468
 30
0.0
 10
258.8236284516267
 20
175.2816513962721
 30
0.0
 10
257.9961527808311
 20
175.2973564917331
 30
0.0
 10
257.171263878557
 20
175.2558407056247
 30
0.0
 10
256.360346558713
 20
175.157560835233
 30
0.0
 10
255.5741483603188
 20
175.0039651192077
 30
0.0
 10
254.8246817547133
 20
174.7960273021855
 30
0.0
 10
254.1927619242942
 20
174.5668573227824
 30
0.0
 10
253.8295939923315
 20
174.3959801393029
 30
0.0
 10
253.6823829070749
 20
174.3267146193831
 30
0.0
  0
LINE
  5
210
330
1F
100
AcDbEntity
  8
0
  6
Continuous
 62
     7
370
    30
100
AcDbLine
 10
265.1831246011
 20
162.1606366367
 30
0.0
 11
265.1831246011
 21
171.1425855675
 31
0.0
  0
LINE
  5
211
330
1F
100
AcDbEntity
  8
0
  6
Continuous
 62
     7
370
    30
100
AcDbLine
 10
262.7701767088
 20
158.9572094122
 30
0.0
 11
263.4503312838
 21
159.4190787577
 31
0.0
  0
SPLINE
  5
212
330
1F
100
AcDbEntity
  8
0
  6
Continuous
 62
     7
370
    30
100
AcDbSpline
210
0.0
220
0.0
230
1.0
 70
     8
 71
     3
 72
    11
 73
     7
 74
     0
 42
0.000000001
 43
0.00000001
 40
0.0
 40
0.0
 40
0.0
 40
0.0
 40
0.1728857617466529
 40
0.5006616547828445
 40
0.8282249605453834
 40
1.0
 40
1.0
 40
1.0
 40
1.0
 10
263.450331283815
 20
159.4190787577349
 30
0.0
 10
263.5449088082788
 20
159.4852743790834
 30
0.0
 10
263.8187968336713
 20
159.6769709594661
 30
0.0
 10
264.2097305043997
 20
160.0247852253605
 30
0.0
 10
264.5473222440923
 20
160.3945418577116
 30
0.0
 10
264.6902182683997
 20
160.6361053593926
 30
0.0
 10
264.7393752587418
 20
160.719204485325
 30
0.0
  0
ARC
  5
213
330
1F
100
AcDbEntity
  8
0
  6
Continuous
 62
     7
370
    30
100
AcDbCircle
 10
217.8414616217
 20
160.9371296812
 30
0.0
 40
19.33387268742878
100
AcDbArc
 50
245.0029054503
 51
297.7988729253
  0
ARC
  5
214
330
1F
100
AcDbEntity
  8
0
  6
Continuous
 62
     7
370
    30
100
AcDbCircle
 10
225.8019758134
 20
148.7332381112
 30
0.0
 40
4.793517472867887
100
AcDbArc
 50
315.8751777344
 51
44.4226808168
  0
ARC
  5
215
330
1F
100
AcDbEntity
  8
0
  6
Continuous
 62
     7
370
    30
100
AcDbCircle
 10
209.9522570558
 20
148.7310179299
 30
0.0
 40
4.791819880450457
100
AcDbArc
 50
136.0176810251
 51
224.408452483
  0
ARC
  5
216
330
1F
100
AcDbEntity
  8
0
  6
Continuous
 62
     7
370
    30
100
AcDbCircle
 10
217.9307460804
 20
155.0937434754
 30
0.0
 40
19.87896663695913
100
AcDbArc
 50
242.8593354928
 51
293.0275817884
  0
ARC
  5
217
330
1F
100
AcDbEntity
  8
0
  6
Continuous
 62
     7
370
    30
100
AcDbCircle
 10
211.5029509757
 20
143.2403285933
 30
0.0
 40
6.406170264010484
100
AcDbArc
 50
185.6622794007
 51
245.6578615569
  0
LWPOLYLINE
  5
218
330
1F
100
AcDbEntity
  8
0
  6
Continuous
 62
     7
370
    30
100
AcDbPolyline
 90
       60
 70
   128
 43
0.0
 10
224.6662631728
 20
152.8143893321
 10
225.3493506286
 20
152.375650233
 10
225.9477851277
 20
151.8974811186
 10
226.4547861682
 20
151.385299836
 10
226.8646092257
 20
150.8449096039
 10
227.1726108412
 20
150.2824332594
 10
227.3753012333
 20
149.7042438843
 10
227.4703838389
 20
149.1168925953
 10
227.456781334
 20
148.5270343171
 10
227.3346478406
 20
147.9413523798
 10
227.1053671798
 20
147.3664827938
 10
226.7715371932
 20
146.808939061
 10
226.3369403079
 20
146.2750383749
 10
225.8065006802
 20
145.7708300435
 10
225.1862284032
 20
145.3020269487
 10
224.4831514096
 20
144.8739408169
 10
223.7052358425
 20
144.491422035
 10
222.8612957964
 20
144.1588046937
 10
221.960893449
 20
143.8798574803
 10
221.0142307188
 20
143.6577409782
 10
220.0320336727
 20
143.4949718562
 10
219.0254309958
 20
143.3933943534
 10
218.0058278987
 20
143.3541593836
 10
216.9847768917
 20
143.3777114945
 10
215.9738468909
 20
143.4637838315
 10
214.984492137
 20
143.6114011605
 10
214.0279224148
 20
143.8188909182
 10
213.1149760415
 20
144.0839021627
 10
212.2559970641
 20
144.4034322108
 10
211.4607180579
 20
144.7738606593
 10
210.7381498517
 20
145.1909904059
 10
210.096479432
 20
145.6500952039
 10
209.5429771811
 20
146.1459732124
 10
209.0839145005
 20
146.6730059356
 10
208.7244927541
 20
147.2252218819
 10
208.4687843336
 20
147.7963642242
 10
208.3196865178
 20
148.3799616915
 10
208.2788886444
 20
148.9694018912
 10
208.3468529697
 20
149.5580062304
 10
208.5228094307
 20
150.1391055867
 10
208.8047643703
 20
150.7061158723
 10
209.1895231265
 20
151.2526126339
 10
209.6727262289
 20
151.772403845
 10
210.248898793
 20
152.2596000634
 10
210.9115125537
 20
152.7086811613
 10
211.6530598322
 20
153.1145588704
 10
212.4651386016
 20
153.472634434
 10
213.3385476848
 20
153.7788507131
 10
214.2633910081
 20
154.0297381547
 10
215.2291897269
 20
154.2224541039
 10
216.2250009559
 20
154.354815012
 10
217.239541756
 20
154.425321177
 10
218.2613169745
 20
154.4331737359
 10
219.2787494899
 20
154.378283716
 10
220.2803113853
 20
154.2612730433
 10
221.2546545641
 20
154.0834674954
 10
222.1907393289
 20
153.8468816802
 10
223.0779594651
 20
153.5541962095
 10
223.9062624142
 20
153.2087273266
 10
224.6662631728
 20
152.8143893321
  0
LWPOLYLINE
  5
219
330
1F
100
AcDbEntity
  8
0
  6
Continuous
 62
     7
370
    30
100
AcDbPolyline
 90
       34
 70
   128
 43
0.0
 10
205.1280380734
 20
147.1698437316
 10
205.0800107637
 20
147.1247999597
 10
204.4548228434
 20
146.4729602378
 10
203.9290157122
 20
145.792507673
 10
203.5064822622
 20
145.0884800979
 10
203.1903507833
 20
144.3660898865
 10
202.9829618024
 20
143.6306853631
 10
202.8858507548
 20
142.8877112055
 10
202.8997366168
 20
142.1426681344
 10
203.0245165824
 20
141.4010721882
 10
203.2592668242
 20
140.6684138835
 10
203.6022493338
 20
139.9501175664
 10
204.0509247885
 20
139.2515012513
 10
204.6019713523
 20
138.577737249
 10
205.2513092693
 20
137.9338138725
 10
205.9941310686
 20
137.3244985052
 10
206.8249371575
 20
136.7543023049
 10
207.7375765385
 20
136.2274468047
 10
208.7252923488
 20
135.7478326584
 10
209.7807718862
 20
135.3190107614
 10
210.8962007495
 20
134.944155961
 10
212.0633206937
 20
134.6260435509
 10
213.2734907709
 20
134.3670287242
 10
214.5177513053
 20
134.1690291359
 10
215.7868902273
 20
134.0335107059
 10
217.0715112763
 20
133.9614767651
 10
218.3621035676
 20
133.9534606275
 10
219.6491120073
 20
134.009521642
 10
220.9230080352
 20
134.1292447523
 10
222.1743601709
 20
134.3117435705
 10
223.3939038409
 20
134.5556669391
 10
224.5726099707
 20
134.8592089349
 10
225.7017518323
 20
135.2201222391
 10
226.5685214521
 20
135.5503365977
  0
ARC
  5
21A
330
1F
100
AcDbEntity
  8
0
  6
Continuous
 62
     7
370
    30
100
AcDbCircle
 10
226.0158386655
 20
141.9368114196
 30
0.0
 40
6.975457730984666
100
AcDbArc
 50
16.1178420714
 51
48.6082511052
  0
ARC
  5
21B
330
1F
100
AcDbEntity
  8
0
  6
Continuous
 62
     7
370
    30
100
AcDbCircle
 10
225.766992123
 20
141.1328930251
 30
0.0
 40
7.843344612935186
100
AcDbArc
 50
22.9868422665
 51
51.7008803818
  0
LWPOLYLINE
  5
21C
330
1F
100
AcDbEntity
  8
0
  6
Continuous
 62
     7
370
    30
100
AcDbPolyline
 90
       36
 70
   128
 43
0.0
 10
227.3324220152
 20
135.1093461894
 10
226.5903304301
 20
134.7993122252
 10
225.4870462545
 20
134.4044098077
 10
224.3303903535
 20
134.0641878243
 10
223.1284758372
 20
133.7810326879
 10
221.8897332725
 20
133.5569305282
 10
220.6228515484
 20
133.393453261
 10
219.3367169299
 20
133.2917475618
 10
218.0403507272
 20
133.2525268229
 10
216.742846018
 20
133.2760661497
 10
215.4533038653
 20
133.3622004308
 10
214.180769481
 20
133.510325496
 10
212.9341687793
 20
133.7194023544
 10
211.7222457686
 20
133.9879644821
 10
210.553501218
 20
134.3141281087
 10
209.4361330307
 20
134.6956054308
 10
208.3779787418
 20
135.129720659
 10
207.3864605433
 20
135.6134287868
 10
206.4685332231
 20
136.1433369494
 10
205.6306353816
 20
136.7157282217
 10
204.8786442703
 20
137.3265876902
 10
204.2178345664
 20
137.9716306146
 10
203.6528413753
 20
138.6463324822
 10
203.1876277183
 20
139.3459607443
 10
202.8254567348
 20
140.0656080112
 10
202.5688687942
 20
140.8002264745
 10
202.4196636765
 20
141.5446633134
 10
202.3788879483
 20
142.2936968385
 10
202.4468276221
 20
143.0420731176
 10
202.6230061499
 20
143.784542829
 10
202.9061877659
 20
144.515898081
 10
203.2943861546
 20
145.231008942
 10
203.7848783832
 20
145.9248594232
 10
204.3742240011
 20
146.592582662
 10
205.0582891722
 20
147.2294950596
 10
205.1280380734
 20
147.2882392367
  0
ARC
  5
21D
330
1F
100
AcDbEntity
  8
0
  6
Continuous
 62
     7
370
    30
100
AcDbCircle
 10
217.933044687
 20
154.1449693399
 30
0.0
 40
24.04628976965562
100
AcDbArc
 50
242.7366173608
 51
293.6294856696
  0
ARC
  5
21E
330
1F
100
AcDbEntity
  8
0
  6
Continuous
 62
     7
370
    30
100
AcDbCircle
 10
210.0772015977
 20
139.829130251
 30
0.0
 40
7.733881803121848
100
AcDbArc
 50
185.4310094585
 51
245.8891314991
  0
LWPOLYLINE
  5
21F
330
1F
100
AcDbEntity
  8
0
  6
Continuous
 62
     7
370
    30
100
AcDbPolyline
 90
       30
 70
   128
 43
0.0
 10
224.5955524947
 20
152.6919148454
 10
223.8298830719
 20
153.088461111
 10
222.9944337083
 20
153.4348929507
 10
222.0989992838
 20
153.7271487677
 10
221.1540779484
 20
153.9618021298
 10
220.1707480408
 20
154.136101941
 10
219.160538205
 20
154.2480046953
 10
218.1352922279
 20
154.2961984351
 10
217.1070301809
 20
154.2801181331
 10
216.0878074966
 20
154.1999523159
 10
215.0895736289
 20
154.0566408546
 10
214.1240319574
 20
153.851863945
 10
213.2025025752
 20
153.5880224091
 10
212.3357895719
 20
153.2682095476
 10
211.5340543649
 20
152.8961748741
 10
210.8066965666
 20
152.4762801548
 10
210.162243782
 20
152.0134482715
 10
209.6082516309
 20
151.5131055047
 10
209.1512151647
 20
150.9811179161
 10
208.796492718
 20
150.4237225736
 10
208.5482430874
 20
149.847454428
 10
208.4093767726
 20
149.2590696965
 10
208.3815218543
 20
148.665466652
 10
208.4650049059
 20
148.0736047475
 10
208.658847165
 20
147.4904230227
 10
208.9607760083
 20
146.9227587501
 10
209.3672515962
 20
146.3772672743
 10
209.8735083741
 20
145.8603439841
 10
210.473610944
 20
145.3780493324
 10
211.1594321332
 20
144.9366680059
  0
LWPOLYLINE
  5
220
330
1F
100
AcDbEntity
  8
0
  6
Continuous
 62
     7
370
    30
100
AcDbPolyline
 90
       16
 70
   128
 43
0.0
 10
224.5966440136
 20
144.9366680059
 10
224.9493795803
 20
145.1516724736
 10
225.5938323648
 20
145.614504357
 10
226.147824516
 20
146.1148471237
 10
226.6048609822
 20
146.6468347123
 10
226.9595834288
 20
147.2042300548
 10
227.2078330595
 20
147.7804982004
 10
227.3466993743
 20
148.3688829319
 10
227.3745542926
 20
148.9624859764
 10
227.2910712409
 20
149.5543478809
 10
227.0972289818
 20
150.1375296057
 10
226.7953001385
 20
150.7051938783
 10
226.3888245506
 20
151.2506853541
 10
225.8825677728
 20
151.7676086444
 10
225.2824652028
 20
152.249903296
 10
224.5955524947
 20
152.6919148454
  0
ARC
  5
221
330
1F
100
AcDbEntity
  8
0
  6
Continuous
 62
     7
370
    30
100
AcDbCircle
 10
217.9198713507
 20
153.1742215629
 30
0.0
 40
23.19689245108221
100
AcDbArc
 50
242.6744510955
 51
294.5864177616
  0
LWPOLYLINE
  5
222
330
1F
100
AcDbEntity
  8
0
  6
Continuous
 62
     7
370
    30
100
AcDbPolyline
 90
       30
 70
   128
 43
0.0
 10
227.3738252441
 20
148.6506681519
 10
227.2910712409
 20
149.2277315562
 10
227.0972289818
 20
149.810913281
 10
226.7953001385
 20
150.3785775536
 10
226.3888245506
 20
150.9240690294
 10
225.8825677728
 20
151.4409923196
 10
225.2824652028
 20
151.9232869713
 10
224.5955524947
 20
152.3652985206
 10
223.8298830719
 20
152.7618447863
 10
222.9944337083
 20
153.1082766259
 10
222.0989992838
 20
153.4005324429
 10
221.1540779484
 20
153.6351858051
 10
220.1707480408
 20
153.8094856162
 10
219.160538205
 20
153.9213883705
 10
218.1352922279
 20
153.9695821104
 10
217.1070301809
 20
153.9535018083
 10
216.0878074966
 20
153.8733359912
 10
215.0895736289
 20
153.7300245299
 10
214.1240319574
 20
153.5252476202
 10
213.2025025752
 20
153.2614060843
 10
212.3357895719
 20
152.9415932229
 10
211.5340543649
 20
152.5695585493
 10
210.8066965666
 20
152.14966383
 10
210.162243782
 20
151.6868319467
 10
209.6082516309
 20
151.18648918
 10
209.1512151647
 20
150.6545015913
 10
208.796492718
 20
150.0971062488
 10
208.5482430874
 20
149.5208381033
 10
208.4093767726
 20
148.9324533717
 10
208.3822509027
 20
148.6506681517
  0
LWPOLYLINE
  5
223
330
1F
100
AcDbEntity
  8
0
  6
Continuous
 62
     7
370
    30
100
AcDbPolyline
 90
       36
 70
   128
 43
0.0
 10
215.4031643393
 20
147.0586457938
 10
215.8848423473
 20
146.8264990483
 10
216.430583306
 20
146.6477337401
 10
217.0228466519
 20
146.5280955332
 10
217.6425965538
 20
146.471429698
 10
218.2699137398
 20
146.479557521
 10
218.8846357194
 20
146.5522177675
 10
219.4670048225
 20
146.6870750771
 10
219.9983032269
 20
146.8797950252
 10
220.4614545646
 20
147.1241834339
 10
220.8415727707
 20
147.4123854587
 10
221.1264405332
 20
147.7351380495
 10
221.3069019679
 20
148.0820676723
 10
221.3771568957
 20
148.4420237236
 10
221.3349472655
 20
148.8034369199
 10
221.1816297295
 20
149.1546911435
 10
220.9221320395
 20
149.4844967948
 10
220.5647946647
 20
149.7822536487
 10
220.1211027224
 20
150.0383915549
 10
219.6053168367
 20
150.2446780305
 10
219.0340147903
 20
150.3944828583
 10
218.4255587011
 20
150.4829911878
 10
217.7995048484
 20
150.5073582887
 10
217.1759751182
 20
150.4668009822
 10
216.575010269
 20
150.3626228134
 10
216.0159258056
 20
150.1981721545
 10
215.5166911627
 20
149.978734585
 10
215.0933521523
 20
149.7113630089
 10
214.7595152388
 20
149.4046509686
 10
214.525910215
 20
149.0684564415
 10
214.4000453388
 20
148.7135849963
 10
214.3859660108
 20
148.3514424932
 10
214.4841247521
 20
147.9936684903
 10
214.6913666601
 20
147.6517621384
 10
215.0010308094
 20
147.336712589
 10
215.4031643393
 20
147.0586457938
  0
ARC
  5
224
330
1F
100
AcDbEntity
  8
0
  6
Continuous
 62
     7
370
    30
100
AcDbCircle
 10
217.8780380734
 20
141.0403554134
 30
0.0
 40
5.795811147939751
100
AcDbArc
 50
75.4443099054
 51
104.5556900946
  0
ARC
  5
225
330
1F
100
AcDbEntity
  8
0
  6
Continuous
 62
     7
370
    30
100
AcDbCircle
 10
231.4191329332
 20
143.3005802986
 30
0.0
 40
4.22681024675721
100
AcDbArc
 50
242.6096722366
 51
297.3903277634
  0
ARC
  5
226
330
1F
100
AcDbEntity
  8
0
  6
Continuous
 62
     7
370
    30
100
AcDbCircle
 10
233.1566492514
 20
139.2239733849
 30
0.0
 40
0.3842012018930442
100
AcDbArc
 50
2.6054784857
 51
57.39452166
  0
ARC
  5
227
330
1F
100
AcDbEntity
  8
0
  6
Continuous
 62
     7
370
    30
100
AcDbCircle
 10
231.4191329332
 20
143.3355718529
 30
0.0
 40
4.611065723735021
100
AcDbArc
 50
242.6096722366
 51
297.3903277634
  0
ARC
  5
228
330
1F
100
AcDbEntity
  8
0
  6
Continuous
 62
     7
370
    30
100
AcDbCircle
 10
229.6816166149
 20
139.2239733849
 30
0.0
 40
0.3842012018930133
100
AcDbArc
 50
122.60547834
 51
177.3945215143
  0
LINE
  5
229
330
1F
100
AcDbEntity
  8
0
  6
Continuous
 62
     7
370
    30
100
AcDbLine
 10
233.5404532767
 20
139.241438598
 30
0.0
 11
233.5404532767
 21
130.8310682356
 31
0.0
  0
ARC
  5
22A
330
1F
100
AcDbEntity
  8
0
  6
Continuous
 62
     7
370
    30
100
AcDbCircle
 10
231.4191329332
 20
134.9252014905
 30
0.0
 40
4.611065723735135
100
AcDbArc
 50
242.6096722366
 51
297.3903277634
  0
LINE
  5
22B
330
1F
100
AcDbEntity
  8
0
  6
Continuous
 62
     7
370
    30
100
AcDbLine
 10
229.2978125896
 20
139.241438598
 30
0.0
 11
229.2978125896
 21
130.8310682356
 31
0.0
  0
LINE
  5
22C
330
1F
100
AcDbEntity
  8
0
  6
Continuous
 62
     7
370
    30
100
AcDbLine
 10
205.1801198244
 20
158.2198710023
 30
0.0
 11
203.0995063466
 21
157.018758408
 31
0.0
  0
ARC
  5
22D
330
1F
100
AcDbEntity
  8
0
  6
Continuous
 62
     7
370
    30
100
AcDbCircle
 10
167.9001191331
 20
352.372193405
 30
0.0
 40
197.6990711812149
100
AcDbArc
 50
280.8693093935
 51
295.7511623654
  0
LWPOLYLINE
  5
22E
330
1F
100
AcDbEntity
  8
0
  6
Continuous
 62
     7
370
    30
100
AcDbPolyline
 90
       24
 70
   128
 43
0.0
 10
263.3105675178
 20
168.8124455239
 10
263.8358988442
 20
169.2171124758
 10
264.266028395
 20
169.6576454438
 10
264.5937120991
 20
170.1266251466
 10
264.813431238
 20
170.6161532148
 10
264.9214853893
 20
171.1179852112
 10
264.916054748
 20
171.6236694809
 10
264.7972307747
 20
172.1246894905
 10
264.5670146557
 20
172.6126072604
 10
264.2292835991
 20
173.0792054735
 10
263.7897255372
 20
173.5166258681
 10
263.255743332
 20
173.9175015841
 10
262.6363300994
 20
174.2750812319
 10
261.9419177509
 20
174.5833425975
 10
261.1842013029
 20
174.8370940653
 10
260.3759419146
 20
175.0320620543
 10
259.5307519692
 20
175.164962991
 10
258.6628658196
 20
175.2335586106
 10
257.7869000591
 20
175.2366936531
 10
256.9176073548
 20
175.1743153193
 10
256.0696279887
 20
175.0474741603
 10
255.2572432921
 20
174.8583063845
 10
254.4941351248
 20
174.6099978802
 10
253.7931554513
 20
174.3067305607
  0
ARC
  5
22F
330
1F
100
AcDbEntity
  8
0
  6
Continuous
 62
     7
370
    30
100
AcDbCircle
 10
313.0454349058
 20
91.5604953746
 30
0.0
 40
91.87720520326049
100
AcDbArc
 50
122.7734670926
 51
147.6310349374
  0
LINE
  5
230
330
1F
100
AcDbEntity
  8
0
  6
Continuous
 62
     7
370
    30
100
AcDbLine
 10
233.3636765814
 20
139.547624815
 30
0.0
 11
235.4442900592
 21
140.7487374093
 31
0.0
  0
LINE
  5
231
330
1F
100
AcDbEntity
  8
0
  6
Continuous
 62
     7
370
    30
100
AcDbLine
 10
226.0936782258
 20
141.499383225
 30
0.0
 11
229.4745892849
 21
139.547624815
 31
0.0
  0
ARC
  5
232
330
1F
100
AcDbEntity
  8
0
  6
Continuous
 62
     7
370
    30
100
AcDbCircle
 10
221.4895720528
 20
153.097775916
 30
0.0
 40
12.47880229299787
100
AcDbArc
 50
291.6511328444
 51
312.0124613966
  0
LINE
  5
233
330
1F
100
AcDbEntity
  8
0
  6
Continuous
 62
     7
370
    30
100
AcDbLine
 10
231.7229961576
 20
142.7398917706
 30
0.0
 11
229.8415373284
 21
143.8260348335
 31
0.0
  0
LWPOLYLINE
  5
234
330
1F
100
AcDbEntity
  8
0
  6
Continuous
 62
     7
370
    30
100
AcDbPolyline
 90
       34
 70
   128
 43
0.0
 10
208.8426446517
 20
156.1525395711
 10
210.0306675975
 20
156.556403403
 10
211.2724973549
 20
156.9021411111
 10
212.55961911
 20
157.1873820869
 10
213.8832074965
 20
157.4101705278
 10
215.2341871087
 20
157.5689788475
 10
216.6032947284
 20
157.6627181501
 10
217.9811428396
 20
157.6907456964
 10
219.3582839957
 20
157.6528693107
 10
220.7252755974
 20
157.5493486989
 10
222.0727446376
 20
157.3808936675
 10
223.3914519688
 20
157.1486592565
 10
224.6723556531
 20
156.8542378202
 10
225.9066729596
 20
156.4996481085
 10
227.0859405847
 20
156.0873214253
 10
228.2020726822
 20
155.6200849575
 10
229.2474163051
 20
155.1011423905
 10
230.2148038796
 20
154.5340519408
 10
231.0976023507
 20
153.9227019593
 10
231.8897586625
 20
153.2712842696
 10
232.5858412625
 20
152.5842654264
 10
233.1810773436
 20
151.8663560896
 10
233.6713855698
 20
151.1224787249
 10
234.0534040605
 20
150.3577338522
 10
234.3245134419
 20
149.5773650729
 10
234.482854807
 20
148.7867231165
 10
234.5273424617
 20
147.9912291522
 10
234.457671369
 20
147.1963376176
 10
234.2743192404
 20
146.4074988199
 10
233.9785432605
 20
145.6301215646
 10
233.5723714669
 20
144.8695360691
 10
233.0585888446
 20
144.1309574156
 10
232.4407182304
 20
143.4194497923
 10
231.7229961576
 20
142.7398917706
  0
LINE
  5
235
330
1F
100
AcDbEntity
  8
0
  6
Continuous
 62
     7
370
    30
100
AcDbLine
 10
210.9138970285
 20
154.9568310254
 30
0.0
 11
208.8426446517
 21
156.1525395711
 31
0.0
  0
ARC
  5
236
330
1F
100
AcDbEntity
  8
0
  6
Continuous
 62
     7
370
    30
100
AcDbCircle
 10
215.0419195987
 20
141.9157704566
 30
0.0
 40
13.67342017918633
100
AcDbArc
 50
108.9781300596
 51
127.8097360577
  0
LINE
  5
237
330
1F
100
AcDbEntity
  8
0
  6
Continuous
 62
     7
370
    30
100
AcDbLine
 10
203.0995063466
 20
154.7736361005
 30
0.0
 11
206.6595481404
 21
152.7184677184
 31
0.0
  0
ARC
  5
238
330
1F
100
AcDbEntity
  8
0
  6
Continuous
 62
     7
370
    30
100
AcDbCircle
 10
203.5255556703
 20
155.8961972542
 30
0.0
 40
1.200692121294294
100
AcDbArc
 50
110.7834207995
 51
249.2165792005
  0
LINE
  5
239
330
1F
100
AcDbEntity
  8
0
  6
Continuous
 62
     7
370
    30
100
AcDbLine
 10
244.8895171147
 20
168.4076515679
 30
0.0
 11
230.3938281004
 21
160.0394684217
 31
0.0
  0
LWPOLYLINE
  5
23A
330
1F
100
AcDbEntity
  8
0
  6
Continuous
 62
     7
370
    30
100
AcDbPolyline
 90
       23
 70
   128
 43
0.0
 10
230.3938281004
 20
160.0394684217
 10
229.8519082339
 20
159.6784275689
 10
229.4045092918
 20
159.2765392936
 10
229.0607390263
 20
158.8419848823
 10
228.8275956087
 20
158.3836106095
 10
228.7098251666
 20
157.9107476538
 10
228.7098251666
 20
157.4330221411
 10
228.8275956087
 20
156.9601591853
 10
229.0607390263
 20
156.5017849126
 10
229.4045092918
 20
156.0672305013
 10
229.8519082339
 20
155.665342226
 10
230.3938281004
 20
155.3043013731
 10
231.0192369655
 20
154.9914576933
 10
231.7154033083
 20
154.7331797816
 10
232.4681551896
 20
154.5347254315
 10
233.2621687519
 20
154.4001346014
 10
234.0812801688
 20
154.3321471723
 10
234.9088146939
 20
154.3321471723
 10
235.7279261107
 20
154.4001346014
 10
236.521939673
 20
154.5347254315
 10
237.2746915543
 20
154.7331797816
 10
237.9708578971
 20
154.9914576933
 10
238.5962667622
 20
155.3043013731
  0
LINE
  5
23B
330
1F
100
AcDbEntity
  8
0
  6
Continuous
 62
     7
370
    30
100
AcDbLine
 10
238.5962667622
 20
155.3043013731
 30
0.0
 11
253.0919557765
 21
163.6724845193
 31
0.0
  0
LWPOLYLINE
  5
23C
330
1F
100
AcDbEntity
  8
0
  6
Continuous
 62
     7
370
    30
100
AcDbPolyline
 90
       23
 70
   128
 43
0.0
 10
253.0919557765
 20
163.6724845193
 10
253.633875643
 20
164.0335253722
 10
254.0812745851
 20
164.4354136474
 10
254.4250448506
 20
164.8699680588
 10
254.6581882683
 20
165.3283423315
 10
254.7759587104
 20
165.8012052873
 10
254.7759587104
 20
166.2789308
 10
254.6581882683
 20
166.7517937557
 10
254.4250448506
 20
167.2101680285
 10
254.0812745851
 20
167.6447224398
 10
253.633875643
 20
168.046610715
 10
253.0919557765
 20
168.4076515679
 10
252.4665469114
 20
168.7204952478
 10
251.7703805686
 20
168.9787731594
 10
251.0176286873
 20
169.1772275095
 10
250.223615125
 20
169.3118183397
 10
249.4045037082
 20
169.3798057687
 10
248.5769691831
 20
169.3798057687
 10
247.7578577662
 20
169.3118183397
 10
246.963844204
 20
169.1772275095
 10
246.2110923227
 20
168.9787731594
 10
245.5149259799
 20
168.7204952478
 10
244.8895171147
 20
168.4076515679
  0
LINE
  5
23D
330
1F
100
AcDbEntity
  8
0
  6
Continuous
 62
     7
370
    30
100
AcDbLine
 10
229.2978125896
 20
139.241438598
 30
0.0
 11
225.7068851067
 21
141.3144369089
 31
0.0
  0
SPLINE
  5
23E
330
1F
100
AcDbEntity
  8
0
  6
Continuous
 62
     7
370
    30
100
AcDbSpline
210
0.0
220
0.0
230
1.0
 70
     8
 71
     3
 72
    12
 73
     8
 74
     0
 42
0.000000001
 43
0.00000001
 40
0.0
 40
0.0
 40
0.0
 40
0.0
 40
0.249999999999993
 40
0.249999999999993
 40
0.4999999999999859
 40
0.4999999999999859
 40
1.0
 40
1.0
 40
1.0
 40
1.0
 10
225.7068851066584
 20
141.3144369089026
 30
0.0
 10
225.7068851066584
 20
141.3494539298419
 30
0.0
 10
225.7245581116074
 20
141.3815135802631
 30
0.0
 10
225.7784911666732
 20
141.4326224613366
 30
0.0
 10
225.8131319755057
 20
141.4514346619715
 30
0.0
 10
225.9246706701774
 20
141.4935654628182
 30
0.0
 10
226.0097863910122
 20
141.5032883389769
 30
0.0
 10
226.0936782258466
 20
141.4993832250031
 30
0.0
  0
SPLINE
  5
23F
330
1F
100
AcDbEntity
  8
0
  6
Continuous
 62
     7
370
    30
100
AcDbSpline
210
0.0
220
0.0
230
1.0
 70
     8
 71
     3
 72
    10
 73
     6
 74
     0
 42
0.000000001
 43
0.00000001
 40
0.0
 40
0.0
 40
0.0
 40
0.0
 40
0.5
 40
0.5
 40
1.0
 40
1.0
 40
1.0
 40
1.0
 10
235.661773620273
 20
140.4660507657479
 30
0.0
 10
235.661773620273
 20
140.5206813131876
 30
0.0
 10
235.6374439941017
 20
140.5826803023477
 30
0.0
 10
235.5568101885776
 20
140.6865635893226
 30
0.0
 10
235.5001938654211
 20
140.728541661728
 30
0.0
 10
235.4442900591603
 20
140.748737409264
 30
0.0
  0
LINE
  5
240
330
1F
100
AcDbEntity
  8
0
  6
Continuous
 62
     7
370
    30
100
AcDbLine
 10
235.6617736203
 20
140.4660507657
 30
0.0
 11
233.5404532767
 21
139.241438598
 31
0.0
  0
LINE
  5
241
330
1F
100
AcDbEntity
  8
0
  6
Continuous
 62
     7
370
    30
100
AcDbLine
 10
227.5712920174
 20
131.8277673466
 30
0.0
 11
229.2978125896
 21
130.8310682356
 31
0.0
  0
LINE
  5
242
330
1F
100
AcDbEntity
  8
0
  6
Continuous
 62
     7
370
    30
100
AcDbLine
 10
227.5712920174
 20
134.9714494723
 30
0.0
 11
227.5712920174
 21
131.8277673466
 31
0.0
  0
LINE
  5
243
330
1F
100
AcDbEntity
  8
0
  6
Continuous
 62
     7
370
    30
100
AcDbLine
 10
225.7068851067
 20
136.0477486722
 30
0.0
 11
227.5712920174
 21
134.9714494723
 31
0.0
  0
LINE
  5
244
330
1F
100
AcDbEntity
  8
0
  6
Continuous
 62
     7
370
    30
100
AcDbLine
 10
225.7068851067
 20
141.3144369089
 30
0.0
 11
225.7068851067
 21
136.0477486722
 31
0.0
  0
LINE
  5
245
330
1F
100
AcDbEntity
  8
0
  6
Continuous
 62
     7
370
    30
100
AcDbLine
 10
235.6617736203
 20
140.4660507657
 30
0.0
 11
235.6617736203
 21
132.0556804033
 31
0.0
  0
LINE
  5
246
330
1F
100
AcDbEntity
  8
0
  6
Continuous
 62
     7
370
    30
100
AcDbLine
 10
233.5404532767
 20
130.8310682356
 30
0.0
 11
235.6617736203
 21
132.0556804033
 31
0.0
  0
ARC
  5
247
330
1F
100
AcDbEntity
  8
0
  6
Continuous
 62
     7
370
    30
100
AcDbCircle
 10
228.5366865634
 20
147.8734564221
 30
0.0
 40
5.735543715107901
100
AcDbArc
 50
331.4594819793
 51
27.573669854
  0
LINE
  5
248
330
1F
100
AcDbEntity
  8
0
  6
Continuous
 62
     7
370
    30
100
AcDbLine
 10
204.6492502235
 20
148.2040625359
 30
0.0
 11
204.6492502235
 21
146.8631503576
 31
0.0
  0
ARC
  5
249
330
1F
100
AcDbEntity
  8
0
  6
Continuous
 62
     7
370
    30
100
AcDbCircle
 10
263.1403389721
 20
168.4944543592
 30
0.0
 40
0.360688423092585
100
AcDbArc
 50
3.1776857616
 51
61.8387538364
  0
ARC
  5
24A
330
1F
100
AcDbEntity
  8
0
  6
Continuous
 62
     7
370
    30
100
AcDbCircle
 10
312.7726652063
 20
91.7711466442
 30
0.0
 40
91.19914083254329
100
AcDbArc
 50
122.7020451289
 51
147.7279207464
  0
ARC
  5
24B
330
1F
100
AcDbEntity
  8
0
  6
Continuous
 62
     7
370
    30
100
AcDbCircle
 10
312.7106715816
 20
83.3643183532
 30
0.0
 40
91.14483756830636
100
AcDbArc
 50
123.1842108299
 51
147.7089954094
  0
LINE
  5
24C
330
1F
100
AcDbEntity
  8
0
  6
Continuous
 62
     7
370
    30
100
AcDbLine
 10
263.500472811
 20
168.5144482747
 30
0.0
 11
263.500472811
 21
159.532499344
 31
0.0
  0
ARC
  5
24D
330
1F
100
AcDbEntity
  8
0
  6
Continuous
 62
     7
370
    30
100
AcDbCircle
 10
333.2148750021
 20
56.1382089571
 30
0.0
 40
124.7015523458989
100
AcDbArc
 50
123.990123985
 51
124.3657514564
  0
LINE
  5
24E
330
1F
100
AcDbEntity
  8
0
  6
Continuous
 62
     7
370
    30
100
AcDbLine
 10
262.8241294695
 20
159.0732374986
 30
0.0
 11
262.8241294695
 21
159.6448160669
 31
0.0
  0
SPLINE
  5
24F
330
1F
100
AcDbEntity
  8
0
  6
Continuous
 62
     7
370
    30
100
AcDbSpline
210
0.0
220
0.0
230
1.0
 70
     8
 71
     3
 72
    14
 73
    10
 74
     0
 42
0.000000001
 43
0.00000001
 40
0.0
 40
0.0
 40
0.0
 40
0.0
 40
0.0090821769621337
 40
0.2230279763962309
 40
0.4400919203175178
 40
0.6487806332754131
 40
0.8623073462187103
 40
0.9946251899738885
 40
0.9999999999999999
 40
0.9999999999999999
 40
0.9999999999999999
 40
0.9999999999999999
 10
229.8415373284393
 20
143.8260348334732
 30
0.0
 10
229.8414128498861
 20
143.82664614123
 30
0.0
 10
229.838356071766
 20
143.8416578209772
 30
0.0
 10
229.8322602437881
 20
143.8687083823974
 30
0.0
 10
229.8233846372972
 20
143.8999827907905
 30
0.0
 10
229.8146116604916
 20
143.922569002635
 30
0.0
 10
229.807455464888
 20
143.9309466537255
 30
0.0
 10
229.8030672756731
 20
143.9325412968078
 30
0.0
 10
229.8016308084115
 20
143.9296468905199
 30
0.0
 10
229.8015747361489
 20
143.9295339078479
 30
0.0
  0
SPLINE
  5
250
330
1F
100
AcDbEntity
  8
0
  6
Continuous
 62
     7
370
    30
100
AcDbSpline
210
0.0
220
0.0
230
1.0
 70
     8
 71
     3
 72
    10
 73
     6
 74
     0
 42
0.000000001
 43
0.00000001
 40
0.0
 40
0.0
 40
0.0
 40
0.0
 40
0.0109431610914995
 40
0.5086691646261589
 40
1.0
 40
1.0
 40
1.0
 40
1.0
 10
231.7229961576101
 20
142.7398917705977
 30
0.0
 10
231.7228917596142
 20
142.7405015460438
 30
0.0
 10
231.7180390446699
 20
142.7688456382278
 30
0.0
 10
231.7081765277373
 20
142.8179423567232
 30
0.0
 10
231.6991538243505
 20
142.8330011206888
 30
0.0
 10
231.6946716427225
 20
142.8404818182462
 30
0.0
  0
SPLINE
  5
251
330
1F
100
AcDbEntity
  8
0
  6
Continuous
 62
     7
370
    30
100
AcDbSpline
210
0.0
220
0.0
230
1.0
 70
     8
 71
     3
 72
    10
 73
     6
 74
     0
 42
0.000000001
 43
0.00000001
 40
0.0
 40
0.0
 40
0.0
 40
0.0
 40
0.4174621010593952
 40
0.7078655287703768
 40
0.9999999999999999
 40
0.9999999999999999
 40
0.9999999999999999
 40
0.9999999999999999
 10
227.6837897288083
 20
131.67871048585
 30
0.0
 10
227.6595281472459
 20
131.6947162313212
 30
0.0
 10
227.6183892337544
 20
131.7218562170889
 30
0.0
 10
227.5788793948366
 20
131.7754755590444
 30
0.0
 10
227.5738261485461
 20
131.8103022542526
 30
0.0
 10
227.5712920174009
 20
131.8277673465803
 30
0.0
  0
SPLINE
  5
252
330
1F
100
AcDbEntity
  8
0
  6
Continuous
 62
     7
370
    30
100
AcDbSpline
210
0.0
220
0.0
230
1.0
 70
     8
 71
     3
 72
    12
 73
     8
 74
     0
 42
0.000000001
 43
0.00000001
 40
0.0
 40
0.0
 40
0.0
 40
0.0
 40
0.1615770930533108
 40
0.3682159545061522
 40
0.5806817994784411
 40
0.787323776414317
 40
0.9999999999999999
 40
0.9999999999999999
 40
0.9999999999999999
 40
0.9999999999999999
 10
235.5976395277862
 20
131.9348450014889
 30
0.0
 10
235.6040261495044
 20
131.9386694730502
 30
0.0
 10
235.6185805394097
 20
131.9473850119909
 30
0.0
 10
235.6363333417264
 20
131.9673121541796
 30
0.0
 10
235.6507614560778
 20
131.9927445853321
 30
0.0
 10
235.6600129333432
 20
132.0223735985442
 30
0.0
 10
235.6611811209837
 20
132.0444721312415
 30
0.0
 10
235.661773620273
 20
132.0556804033247
 30
0.0
  0
SPLINE
  5
253
330
1F
100
AcDbEntity
  8
0
  6
Continuous
 62
     7
370
    30
100
AcDbSpline
210
0.0
220
0.0
230
1.0
 70
     8
 71
     3
 72
    10
 73
     6
 74
     0
 42
0.000000001
 43
0.00000001
 40
0.0
 40
0.0
 40
0.0
 40
0.0
 40
0.455389200203546
 40
0.910753145506462
 40
1.0
 40
1.0
 40
1.0
 40
1.0
 10
262.8241294694759
 20
159.6448160668877
 30
0.0
 10
262.8219563672379
 20
159.6234564826821
 30
0.0
 10
262.8176102832775
 20
159.5807384988274
 30
0.0
 10
262.7977896660077
 20
159.5445075966427
 30
0.0
 10
262.7797826680011
 20
159.5372167848281
 30
0.0
 10
262.7768318122128
 20
159.5360220196465
 30
0.0
  0
SPLINE
  5
254
330
1F
100
AcDbEntity
  8
0
  6
Continuous
 62
     7
370
    30
100
AcDbSpline
210
0.0
220
0.0
230
1.0
 70
     8
 71
     3
 72
    14
 73
    10
 74
     0
 42
0.000000001
 43
0.00000001
 40
0.0
 40
0.0
 40
0.0
 40
0.0
 40
0.0238747755073974
 40
0.1684980472384041
 40
0.3149155509400053
 40
0.5255606543255056
 40
0.7420091420524041
 40
0.9476710641222572
 40
0.9999999999999999
 40
0.9999999999999999
 40
0.9999999999999999
 40
0.9999999999999999
 10
205.1801198243741
 20
158.2198710022691
 30
0.0
 10
205.1792741201886
 20
158.2206435923183
 30
0.0
 10
205.1733054984622
 20
158.2260962054565
 30
0.0
 10
205.1621522278455
 20
158.2350970213074
 30
0.0
 10
205.1446578397741
 20
158.2462201881654
 30
0.0
 10
205.1252469082499
 20
158.2542893219727
 30
0.0
 10
205.1055062216178
 20
158.2560699432084
 30
0.0
 10
205.091597570666
 20
158.2538947954857
 30
0.0
 10
205.0854224141031
 20
158.2492090998265
 30
0.0
 10
205.0841698915355
 20
158.2482586883676
 30
0.0
  0
LINE
  5
255
330
1F
100
AcDbEntity
  8
0
  6
Continuous
 62
     7
370
    30
100
AcDbLine
 10
206.5136571343
 20
152.3944515726
 30
0.0
 11
206.5136571343
 21
152.1426769169
 31
0.0
  0
SPLINE
  5
256
330
1F
100
AcDbEntity
  8
0
  6
Continuous
 62
     7
370
    30
100
AcDbSpline
210
0.0
220
0.0
230
1.0
 70
     8
 71
     3
 72
    10
 73
     6
 74
     0
 42
0.000000001
 43
0.00000001
 40
0.0
 40
0.0
 40
0.0
 40
0.0
 40
0.5
 40
0.5
 40
1.0
 40
1.0
 40
1.0
 40
1.0
 10
206.6595481403512
 20
152.7184677184302
 30
0.0
 10
206.6208111462207
 20
152.6872511488885
 30
0.0
 10
206.5833249588545
 20
152.634773476949
 30
0.0
 10
206.5295514521693
 20
152.5152189123737
 30
0.0
 10
206.5136571342699
 20
152.4487886323016
 30
0.0
 10
206.5136571342699
 20
152.3944515726174
 30
0.0
  0
LINE
  5
257
330
1F
100
AcDbEntity
  8
0
  6
Continuous
 62
     7
370
    30
100
AcDbLine
 10
206.5136571343
 20
152.3944515726
 30
0.0
 11
202.9227296513
 21
154.4674498835
 31
0.0
  0
ARC
  5
258
330
1F
100
AcDbEntity
  8
0
  6
Continuous
 62
     7
370
    30
100
AcDbCircle
 10
203.3065336767
 20
154.4499846704
 30
0.0
 40
0.3842012018932456
100
AcDbArc
 50
122.60547834
 51
177.3945215143
  0
LINE
  5
259
330
1F
100
AcDbEntity
  8
0
  6
Continuous
 62
     7
370
    30
100
AcDbLine
 10
204.6492502235
 20
148.2040625359
 30
0.0
 11
205.1280380734
 21
147.9276641934
 31
0.0
  0
LINE
  5
25A
330
1F
100
AcDbEntity
  8
0
  6
Continuous
 62
     7
370
    30
100
AcDbLine
 10
202.9227296513
 20
154.4674498835
 30
0.0
 11
202.9227296513
 21
146.0570795211
 31
0.0
  0
LINE
  5
25B
330
1F
100
AcDbEntity
  8
0
  6
Continuous
 62
     7
370
    30
100
AcDbLine
 10
244.8895171147
 20
162.6918658847
 30
0.0
 11
231.3320697996
 21
154.8653181424
 31
0.0
  0
ARC
  5
25C
330
1F
100
AcDbEntity
  8
0
  6
Continuous
 62
     7
370
    30
100
AcDbCircle
 10
249.0206109519
 20
154.6540932255
 30
0.0
 40
9.037241039826936
100
AcDbArc
 50
69.7151276323
 51
117.201352173
  0
ARC
  5
25D
330
1F
100
AcDbEntity
  8
0
  6
Continuous
 62
     7
370
    30
100
AcDbCircle
 10
248.9997780876
 20
157.1918283072
 30
0.0
 40
5.020619026291575
100
AcDbArc
 50
75.2646942406
 51
117.3569584212
  0
LINE
  5
25E
330
1F
100
AcDbEntity
  8
0
  6
Continuous
 62
     7
370
    30
100
AcDbLine
 10
246.6926394068
 20
161.6509455421
 30
0.0
 11
234.0194866317
 21
154.3348901717
 31
0.0
  0
LINE
  5
25F
330
1F
100
AcDbEntity
  8
0
  6
Continuous
 62
     7
370
    30
100
AcDbLine
 10
244.8895171147
 20
162.6918658847
 30
0.0
 11
244.8895171147
 21
168.4076515679
 31
0.0
  0
ARC
  5
260
330
1F
100
AcDbEntity
  8
0
  6
Continuous
 62
     7
370
    30
100
AcDbCircle
 10
262.6558116796
 20
171.1429744884
 30
0.0
 40
2.518111462050757
100
AcDbArc
 50
327.2511349639
 51
33.2870357483
  0
ARC
  5
261
330
1F
100
AcDbEntity
  8
0
  6
Continuous
 62
     7
370
    30
100
AcDbCircle
 10
262.5709802779
 20
162.2035914645
 30
0.0
 40
2.612497479830068
100
AcDbArc
 50
327.4849729225
 51
359.0578971795
  0
SPLINE
  5
262
330
1F
100
AcDbEntity
  8
0
  6
Continuous
 62
     7
370
    30
100
AcDbSpline
210
0.0
220
0.0
230
1.0
 70
     8
 71
     3
 72
    10
 73
     6
 74
     0
 42
0.000000001
 43
0.00000001
 40
0.0
 40
0.0
 40
0.0
 40
0.0
 40
0.5
 40
0.5
 40
1.0
 40
1.0
 40
1.0
 40
1.0
 10
262.6467239278863
 20
158.9715163348118
 30
0.0
 10
262.6934943434488
 20
158.9445163486184
 30
0.0
 10
262.739249918221
 20
158.9401078906637
 30
0.0
 10
262.8047740772303
 20
158.9774904662582
 30
0.0
 10
262.8241294694766
 20
159.0192233156546
 30
0.0
 10
262.8241294694766
 20
159.0732374985671
 30
0.0
  0
LINE
  5
263
330
1F
100
AcDbEntity
  8
0
  6
Continuous
 62
     7
370
    30
100
AcDbLine
 10
262.6467239279
 20
158.9715163348
 30
0.0
 11
262.2770270757
 21
159.1849377848
 31
0.0
  0
LWPOLYLINE
  5
264
330
1F
100
AcDbEntity
  8
0
  6
Continuous
 62
     8
370
    30
100
AcDbPolyline
 90
       36
 70
   128
 43
0.0
 10
226.7522281773
 20
154.0185912971
 10
225.8822424467
 20
154.4758026044
 10
224.9419154803
 20
154.8839751578
 10
223.9395109052
 20
155.239521922
 10
222.883837889
 20
155.5393183394
 10
221.7841737239
 20
155.7807297883
 10
220.6501822983
 20
155.9616347362
 10
219.4918291696
 20
156.0804433838
 10
218.3192939868
 20
156.1361116366
 10
217.142881031
 20
156.1281502798
 10
215.9729286618
 20
156.0566292783
 10
214.8197184627
 20
155.9221771611
 10
213.6933848862
 20
155.7259754983
 10
212.6038261924
 20
155.4697485171
 10
211.5606174622
 20
155.1557479495
 10
210.5729264515
 20
154.7867332438
 10
209.6494330245
 20
154.3659473143
 10
208.7982528744
 20
153.8970880431
 10
208.0268662032
 20
153.3842757823
 10
207.3420519846
 20
152.8320171444
 10
206.7498283905
 20
152.2451653982
 10
206.2553999033
 20
151.628877818
 10
205.8631115782
 20
150.9885703612
 10
205.5764108592
 20
150.3298700726
 10
205.3978172825
 20
149.6585656343
 10
205.3289003348
 20
148.9805564936
 10
205.3702656607
 20
148.3018010193
 10
205.5215497404
 20
147.6282641389
 10
205.7814230838
 20
146.9658649188
 10
206.1476019147
 20
146.320424547
 10
206.6168682404
 20
145.6976151768
 10
207.1850981314
 20
145.1029100794
 10
207.8472979632
 20
144.5415355445
 10
208.5976482997
 20
144.0184249517
 10
209.4295550352
 20
143.5381754156
 10
209.6715025215
 20
143.4142759925
  0
LWPOLYLINE
  5
265
330
1F
100
AcDbEntity
  8
0
  6
Continuous
 62
     8
370
    30
100
AcDbPolyline
 90
       18
 70
   128
 43
0.0
 10
226.8581851237
 20
143.8345763519
 10
227.3539316433
 20
144.145357813
 10
228.0828332302
 20
144.6784792207
 10
228.7220547103
 20
145.2486611045
 10
229.2659785823
 20
145.8508926855
 10
229.7098248236
 20
146.4798815311
 10
230.0496928976
 20
147.1301000645
 10
230.2825960313
 20
147.7958341419
 10
230.4064874636
 20
148.4712332684
 10
230.4202784323
 20
149.150362012
 10
230.3238477417
 20
149.8272521651
 10
230.1180428282
 20
150.4959551926
 10
229.8046723128
 20
151.1505945082
 10
229.3864901069
 20
151.7854171181
 10
228.8671712107
 20
152.3948441783
 10
228.2512794174
 20
152.9735200221
 10
227.5442272062
 20
153.5163592251
 10
226.7522281773
 20
154.0185912971
  0
LWPOLYLINE
  5
266
330
1F
100
AcDbEntity
  8
0
  6
Continuous
 62
     8
370
    30
100
AcDbPolyline
 90
       26
 70
   128
 43
0.0
 10
229.2428812465
 20
145.3958769436
 10
229.0167235542
 20
145.15070971
 10
228.3967558746
 20
144.5726818099
 10
227.6870462035
 20
144.0301424952
 10
226.8936495336
 20
143.5277205201
 10
226.0233348455
 20
143.0697023718
 10
225.0835273573
 20
142.6599956995
 10
224.0822451752
 20
142.3020959762
 10
223.0280308855
 20
141.9990566761
 10
221.9298786731
 20
141.7534632236
 10
220.7971575853
 20
141.5674109355
 10
219.6395315991
 20
141.4424871443
 10
218.4668771712
 20
141.3797576557
 10
217.2891989757
 20
141.3797576557
 10
216.1165445478
 20
141.4424871443
 10
214.9589185616
 20
141.5674109355
 10
213.8261974738
 20
141.7534632236
 10
212.7280452613
 20
141.9990566761
 10
211.6738309717
 20
142.3020959762
 10
210.6725487895
 20
142.6599956995
 10
209.7327413014
 20
143.0697023718
 10
208.8624266133
 20
143.5277205201
 10
208.0690299434
 20
144.0301424952
 10
207.3593202723
 20
144.5726818099
 10
206.7393525927
 20
145.15070971
 10
206.5291272995
 20
145.3778521961
  0
LWPOLYLINE
  5
267
330
1F
100
AcDbEntity
  8
0
  6
Continuous
 62
     8
370
    30
100
AcDbPolyline
 90
       24
 70
   128
 43
0.0
 10
233.6207665312
 20
150.5283749875
 10
233.3744965821
 20
150.9740686982
 10
232.8816161475
 20
151.6978303677
 10
232.2875014691
 20
152.3957977928
 10
231.5961612407
 20
153.0632615498
 10
230.8122601699
 20
153.695718034
 10
229.9410875039
 20
154.2888998462
 10
228.9885213409
 20
154.838804587
 10
227.9609889688
 20
155.3417218622
 10
226.8654234979
 20
155.7942583179
 10
225.709217081
 20
156.1933605366
 10
224.5001710361
 20
156.53633564
 10
223.246443208
 20
156.8208694584
 10
221.9564929247
 20
157.0450421455
 10
220.6390239195
 20
157.2073411317
 10
219.3029256038
 20
157.3066713307
 10
217.9572130874
 20
157.3423625278
 10
216.6109663503
 20
157.3141739024
 10
215.2732689769
 20
157.2222956528
 10
213.9531468665
 20
157.0673477126
 10
212.6595073319
 20
156.8503755685
 10
211.401078999
 20
156.5728432052
 10
210.1863529116
 20
156.2366232279
 10
209.240403811
 20
155.9229180961
  0
ARC
  5
268
330
1F
100
AcDbEntity
  8
0
  6
Continuous
 62
     8
370
    30
100
AcDbCircle
 10
229.4229834674
 20
130.8187518434
 30
0.0
 40
0.1257753639260209
100
AcDbArc
 50
174.3803781435
 51
234.2932726662
  0
ARC
  5
269
330
1F
100
AcDbEntity
  8
0
  6
Continuous
 62
     8
370
    30
100
AcDbCircle
 10
233.4152828503
 20
130.8187517618
 30
0.0
 40
0.1257749226956307
100
AcDbArc
 50
305.7060720324
 51
5.6196789598
  0
ARC
  5
26A
330
1F
100
AcDbEntity
  8
0
  6
Continuous
 62
     8
370
    30
100
AcDbCircle
 10
253.7206876449
 20
174.2219564803
 30
0.0
 40
0.1115268024435348
100
AcDbArc
 50
49.4750367162
 51
110.1542936575
  0
LINE
  5
26B
330
1F
100
AcDbEntity
  8
0
  6
Continuous
 62
     8
370
    30
100
AcDbLine
 10
202.9227296513
 20
146.0570795211
 30
0.0
 11
203.5916663496
 21
145.670910585
 31
0.0
  0
LINE
  5
26C
330
1F
100
AcDbEntity
  8
0
  6
Continuous
 62
     8
370
    30
100
AcDbLine
 10
230.3938281004
 20
155.3043013731
 30
0.0
 11
230.3938281004
 21
160.0394684217
 31
0.0
  0
ARC
  5
26D
330
1F
100
AcDbEntity
  8
0
  6
Continuous
 62
     8
370
    30
100
AcDbCircle
 10
203.548649261
 20
155.8455954432
 30
0.0
 40
1.513624967218707
100
AcDbArc
 50
186.2859128351
 51
245.5736265894
  0
ARC
  5
26E
330
1F
100
AcDbEntity
  8
0
  6
Continuous
 62
     8
370
    30
100
AcDbCircle
 10
203.0269536242
 20
156.9233589009
 30
0.0
 40
0.119853925559832
100
AcDbArc
 50
52.7464795538
 51
115.9576856828
  0
ARC
  5
26F
330
1F
100
AcDbEntity
  8
0
  6
Continuous
 62
     8
370
    30
100
AcDbCircle
 10
203.5454211824
 20
147.4314108195
 30
0.0
 40
1.508817835481626
100
AcDbArc
 50
185.6947992512
 51
245.6253417064
  0
ARC
  5
270
330
1F
100
AcDbEntity
  8
0
  6
Continuous
 62
     8
370
    30
100
AcDbCircle
 10
203.0416510402
 20
146.0419385139
 30
0.0
 40
0.1198813865060321
100
AcDbArc
 50
172.7441704095
 51
235.9436491972
  0
LINE
  5
271
330
1F
100
AcDbEntity
  8
0
  6
Continuous
 62
     8
370
    30
100
AcDbLine
 10
246.6926394068
 20
159.9782378133
 30
0.0
 11
246.6926394068
 21
161.6509455421
 31
0.0
  0
ARC
  5
272
330
1F
100
AcDbEntity
  8
0
  6
Continuous
 62
     8
370
    30
100
AcDbCircle
 10
261.1750255253
 20
172.1257105109
 30
0.0
 40
4.295220601617917
100
AcDbArc
 50
302.7792294945
 51
326.9111506278
  0
ARC
  5
273
330
1F
100
AcDbEntity
  8
0
  6
Continuous
 62
     8
370
    30
100
AcDbCircle
 10
261.1752246048
 20
163.1435177708
 30
0.0
 40
4.294907833568145
100
AcDbArc
 50
302.7787575185
 51
326.9200561216
  0
ARC
  5
274
330
1F
100
AcDbEntity
  8
0
  6
Continuous
 62
     8
370
    30
100
AcDbCircle
 10
263.3704155925
 20
159.5222069549
 30
0.0
 40
0.1304638392661686
100
AcDbArc
 50
307.7439630264
 51
4.5248084004
  0
ENDSEC
  0
SECTION
  2
OBJECTS
  0
DICTIONARY
  5
C
330
0
100
AcDbDictionary
281
     1
  3
ACAD_GROUP
350
D
  3
ACAD_LAYOUT
350
1A
  3
ACAD_MLINESTYLE
350
17
  3
ACAD_PLOTSETTINGS
350
19
  3
ACAD_PLOTSTYLENAME
350
E
  3
ACAD_SCALELIST
350
47
  0
DICTIONARY
  5
D
102
{ACAD_REACTORS
330
C
102
}
330
C
100
AcDbDictionary
281
     1
  0
DICTIONARY
  5
1A
102
{ACAD_REACTORS
330
C
102
}
330
C
100
AcDbDictionary
281
     1
  3
Layout1
350
1E
  3
Layout2
350
26
  3
Model
350
22
  0
DICTIONARY
  5
17
102
{ACAD_REACTORS
330
C
102
}
330
C
100
AcDbDictionary
281
     1
  3
Standard
350
18
  0
DICTIONARY
  5
19
102
{ACAD_REACTORS
330
C
102
}
330
C
100
AcDbDictionary
281
     1
  0
ACDBDICTIONARYWDFLT
  5
E
102
{ACAD_REACTORS
330
C
102
}
330
C
100
AcDbDictionary
281
     1
  3
Normal
350
F
100
AcDbDictionaryWithDefault
340
F
  0
DICTIONARY
  5
47
102
{ACAD_REACTORS
330
C
102
}
330
C
100
AcDbDictionary
281
     1
  3
A0
350
48
  3
A1
350
49
  3
A2
350
4A
  3
A3
350
4B
  3
A4
350
4C
  3
A5
350
4D
  3
A6
350
4E
  3
A7
350
4F
  3
A8
350
50
  3
A9
350
51
  3
B0
350
52
  3
B1
350
53
  3
B2
350
54
  3
B3
350
55
  3
B4
350
56
  3
B5
350
57
  3
B6
350
58
  3
B7
350
59
  3
B8
350
5A
  3
B9
350
5B
  3
C0
350
5C
  3
C1
350
5D
  3
C2
350
5E
  3
C3
350
5F
  3
C4
350
60
  3
C5
350
61
  3
C6
350
62
  3
C7
350
63
  3
C8
350
64
  3
C9
350
65
  3
D0
350
66
  3
D1
350
67
  3
D2
350
68
  0
LAYOUT
  5
1E
102
{ACAD_REACTORS
330
1A
102
}
330
1A
100
AcDbPlotSettings
  1

  2
none_device
  4

  6

 40
0.0
 41
0.0
 42
0.0
 43
0.0
 44
0.0
 45
0.0
 46
0.0
 47
0.0
 48
0.0
 49
0.0
140
0.0
141
0.0
142
1.0
143
1.0
 70
   688
 72
     1
 73
     0
 74
     5
  7

 75
    16
147
1.0
148
0.0
149
0.0
100
AcDbLayout
  1
Layout1
 70
     1
 71
     1
 10
0.0
 20
0.0
 11
420.0
 21
297.0
 12
0.0
 22
0.0
 32
0.0
 14
1.0000000000E+20
 24
1.0000000000E+20
 34
1.0000000000E+20
 15
-1.0000000000E+20
 25
-1.0000000000E+20
 35
-1.0000000000E+20
146
0.0
 13
0.0
 23
0.0
 33
0.0
 16
1.0
 26
0.0
 36
0.0
 17
0.0
 27
1.0
 37
0.0
 76
     0
330
1B
  0
LAYOUT
  5
26
102
{ACAD_REACTORS
330
1A
102
}
330
1A
100
AcDbPlotSettings
  1

  2
none_device
  4

  6

 40
0.0
 41
0.0
 42
0.0
 43
0.0
 44
0.0
 45
0.0
 46
0.0
 47
0.0
 48
0.0
 49
0.0
140
0.0
141
0.0
142
1.0
143
1.0
 70
   688
 72
     1
 73
     0
 74
     5
  7

 75
    16
147
1.0
148
0.0
149
0.0
100
AcDbLayout
  1
Layout2
 70
     1
 71
     2
 10
0.0
 20
0.0
 11
0.0
 21
0.0
 12
0.0
 22
0.0
 32
0.0
 14
0.0
 24
0.0
 34
0.0
 15
0.0
 25
0.0
 35
0.0
146
0.0
 13
0.0
 23
0.0
 33
0.0
 16
1.0
 26
0.0
 36
0.0
 17
0.0
 27
1.0
 37
0.0
 76
     0
330
23
  0
LAYOUT
  5
22
102
{ACAD_REACTORS
330
1A
102
}
330
1A
100
AcDbPlotSettings
  1

  2
none_device
  4
Letter_(8.50_x_11.00_Inches)
  6

 40
6.35
 41
6.35
 42
6.35000508
 43
6.35000508
 44
215.9
 45
279.4
 46
0.0
 47
0.0
 48
0.0
 49
0.0
140
0.0
141
0.0
142
1.0
143
1.0
 70
  1712
 72
     1
 73
     0
 74
     0
  7

 75
     0
147
1.0
148
0.0
149
0.0
100
AcDbLayout
  1
Model
 70
     1
 71
     0
 10
0.0
 20
0.0
 11
297.0
 21
210.0
 12
0.0
 22
0.0
 32
0.0
 14
0.0
 24
0.0
 34
0.0
 15
297.0
 25
210.0
 35
0.0
146
0.0
 13
0.0
 23
0.0
 33
0.0
 16
1.0
 26
0.0
 36
0.0
 17
0.0
 27
1.0
 37
0.0
 76
     0
330
1F
331
29
  0
MLINESTYLE
  5
18
102
{ACAD_REACTORS
330
17
102
}
330
17
100
AcDbMlineStyle
  2
Standard
 70
     0
  3

 62
   256
 51
90.0
 52
90.0
 71
     2
 49
0.5
 62
   256
  6
BYLAYER
 49
-0.5
 62
   256
  6
BYLAYER
  0
ACDBPLACEHOLDER
  5
F
102
{ACAD_REACTORS
330
E
102
}
330
E
  0
SCALE
  5
48
102
{ACAD_REACTORS
330
47
102
}
330
47
100
AcDbScale
 70
     0
300
1:1
140
1.0
141
1.0
290
     1
  0
SCALE
  5
49
102
{ACAD_REACTORS
330
47
102
}
330
47
100
AcDbScale
 70
     0
300
1:2
140
1.0
141
2.0
290
     0
  0
SCALE
  5
4A
102
{ACAD_REACTORS
330
47
102
}
330
47
100
AcDbScale
 70
     0
300
1:4
140
1.0
141
4.0
290
     0
  0
SCALE
  5
4B
102
{ACAD_REACTORS
330
47
102
}
330
47
100
AcDbScale
 70
     0
300
1:5
140
1.0
141
5.0
290
     0
  0
SCALE
  5
4C
102
{ACAD_REACTORS
330
47
102
}
330
47
100
AcDbScale
 70
     0
300
1:8
140
1.0
141
8.0
290
     0
  0
SCALE
  5
4D
102
{ACAD_REACTORS
330
47
102
}
330
47
100
AcDbScale
 70
     0
300
1:10
140
1.0
141
10.0
290
     0
  0
SCALE
  5
4E
102
{ACAD_REACTORS
330
47
102
}
330
47
100
AcDbScale
 70
     0
300
1:16
140
1.0
141
16.0
290
     0
  0
SCALE
  5
4F
102
{ACAD_REACTORS
330
47
102
}
330
47
100
AcDbScale
 70
     0
300
1:20
140
1.0
141
20.0
290
     0
  0
SCALE
  5
50
102
{ACAD_REACTORS
330
47
102
}
330
47
100
AcDbScale
 70
     0
300
1:30
140
1.0
141
30.0
290
     0
  0
SCALE
  5
51
102
{ACAD_REACTORS
330
47
102
}
330
47
100
AcDbScale
 70
     0
300
1:40
140
1.0
141
40.0
290
     0
  0
SCALE
  5
52
102
{ACAD_REACTORS
330
47
102
}
330
47
100
AcDbScale
 70
     0
300
1:50
140
1.0
141
50.0
290
     0
  0
SCALE
  5
53
102
{ACAD_REACTORS
330
47
102
}
330
47
100
AcDbScale
 70
     0
300
1:100
140
1.0
141
100.0
290
     0
  0
SCALE
  5
54
102
{ACAD_REACTORS
330
47
102
}
330
47
100
AcDbScale
 70
     0
300
2:1
140
2.0
141
1.0
290
     0
  0
SCALE
  5
55
102
{ACAD_REACTORS
330
47
102
}
330
47
100
AcDbScale
 70
     0
300
4:1
140
4.0
141
1.0
290
     0
  0
SCALE
  5
56
102
{ACAD_REACTORS
330
47
102
}
330
47
100
AcDbScale
 70
     0
300
8:1
140
8.0
141
1.0
290
     0
  0
SCALE
  5
57
102
{ACAD_REACTORS
330
47
102
}
330
47
100
AcDbScale
 70
     0
300
10:1
140
10.0
141
1.0
290
     0
  0
SCALE
  5
58
102
{ACAD_REACTORS
330
47
102
}
330
47
100
AcDbScale
 70
     0
300
100:1
140
100.0
141
1.0
290
     0
  0
SCALE
  5
59
102
{ACAD_REACTORS
330
47
102
}
330
47
100
AcDbScale
 70
     0
300
1/128" = 1'-0"
140
0.0078125
141
12.0
290
     0
  0
SCALE
  5
5A
102
{ACAD_REACTORS
330
47
102
}
330
47
100
AcDbScale
 70
     0
300
1/64" = 1'-0"
140
0.015625
141
12.0
290
     0
  0
SCALE
  5
5B
102
{ACAD_REACTORS
330
47
102
}
330
47
100
AcDbScale
 70
     0
300
1/32" = 1'-0"
140
0.03125
141
12.0
290
     0
  0
SCALE
  5
5C
102
{ACAD_REACTORS
330
47
102
}
330
47
100
AcDbScale
 70
     0
300
1/16" = 1'-0"
140
0.0625
141
12.0
290
     0
  0
SCALE
  5
5D
102
{ACAD_REACTORS
330
47
102
}
330
47
100
AcDbScale
 70
     0
300
3/32" = 1'-0"
140
0.09375
141
12.0
290
     0
  0
SCALE
  5
5E
102
{ACAD_REACTORS
330
47
102
}
330
47
100
AcDbScale
 70
     0
300
1/8" = 1'-0"
140
0.125
141
12.0
290
     0
  0
SCALE
  5
5F
102
{ACAD_REACTORS
330
47
102
}
330
47
100
AcDbScale
 70
     0
300
3/16" = 1'-0"
140
0.1875
141
12.0
290
     0
  0
SCALE
  5
60
102
{ACAD_REACTORS
330
47
102
}
330
47
100
AcDbScale
 70
     0
300
1/4" = 1'-0"
140
0.25
141
12.0
290
     0
  0
SCALE
  5
61
102
{ACAD_REACTORS
330
47
102
}
330
47
100
AcDbScale
 70
     0
300
3/8" = 1'-0"
140
0.375
141
12.0
290
     0
  0
SCALE
  5
62
102
{ACAD_REACTORS
330
47
102
}
330
47
100
AcDbScale
 70
     0
300
1/2" = 1'-0"
140
0.5
141
12.0
290
     0
  0
SCALE
  5
63
102
{ACAD_REACTORS
330
47
102
}
330
47
100
AcDbScale
 70
     0
300
3/4" = 1'-0"
140
0.75
141
12.0
290
     0
  0
SCALE
  5
64
102
{ACAD_REACTORS
330
47
102
}
330
47
100
AcDbScale
 70
     0
300
1" = 1'-0"
140
1.0
141
12.0
290
     0
  0
SCALE
  5
65
102
{ACAD_REACTORS
330
47
102
}
330
47
100
AcDbScale
 70
     0
300
1-1/2" = 1'-0"
140
1.5
141
12.0
290
     0
  0
SCALE
  5
66
102
{ACAD_REACTORS
330
47
102
}
330
47
100
AcDbScale
 70
     0
300
3" = 1'-0"
140
3.0
141
12.0
290
     0
  0
SCALE
  5
67
102
{ACAD_REACTORS
330
47
102
}
330
47
100
AcDbScale
 70
     0
300
6" = 1'-0"
140
6.0
141
12.0
290
     0
  0
SCALE
  5
68
102
{ACAD_REACTORS
330
47
102
}
330
47
100
AcDbScale
 70
     0
300
1'-0" = 1'-0"
140
12.0
141
12.0
290
     0
  0
ENDSEC
  0
EOF
